  0
SECTION
  2
HEADER
  9
$ACADVER
  1
AC1015
  9
$ACADMAINTVER
 70
     6
  9
$DWGCODEPAGE
  3
ANSI_1252
  9
$INSBASE
 10
0.0
 20
0.0
 30
0.0
  9
$EXTMIN
 10
0.0
 20
0.0
 30
0.0
  9
$EXTMAX
 10
279.4
 20
215.9
 30
0.0
  9
$LIMMIN
 10
0.0
 20
0.0
  9
$LIMMAX
 10
279.4
 20
215.9
  9
$ORTHOMODE
 70
     0
  9
$REGENMODE
 70
     1
  9
$FILLMODE
 70
     1
  9
$QTEXTMODE
 70
     0
  9
$MIRRTEXT
 70
     1
  9
$LTSCALE
 40
1.0
  9
$ATTMODE
 70
     1
  9
$TEXTSIZE
 40
2.8222222222
  9
$TRACEWID
 40
1.0
  9
$TEXTSTYLE
  7
Standard
  9
$CLAYER
  8
0
  9
$CELTYPE
  6
ByLayer
  9
$CECOLOR
 62
   256
  9
$CELTSCALE
 40
1.0
  9
$DISPSILH
 70
     0
  9
$DIMSCALE
 40
1.0
  9
$DIMASZ
 40
3.175
  9
$DIMEXO
 40
1.27
  9
$DIMDLI
 40
3.75
  9
$DIMRND
 40
0.0
  9
$DIMDLE
 40
0.0
  9
$DIMEXE
 40
1.778
  9
$DIMTP
 40
0.0
  9
$DIMTM
 40
0.0
  9
$DIMTXT
 40
2.8222222222
  9
$DIMCEN
 40
2.5
  9
$DIMTSZ
 40
0.0
  9
$DIMTOL
 70
     0
  9
$DIMLIM
 70
     0
  9
$DIMTIH
 70
     1
  9
$DIMTOH
 70
     1
  9
$DIMSE1
 70
     0
  9
$DIMSE2
 70
     0
  9
$DIMTAD
 70
     0
  9
$DIMZIN
 70
     1
  9
$DIMBLK
  1

  9
$DIMASO
 70
     1
  9
$DIMSHO
 70
     1
  9
$DIMPOST
  1

  9
$DIMAPOST
  1

  9
$DIMALT
 70
     0
  9
$DIMALTD
 70
     3
  9
$DIMALTF
 40
0.0393700787
  9
$DIMLFAC
 40
1.0
  9
$DIMTOFL
 70
     1
  9
$DIMTVP
 40
0.0
  9
$DIMTIX
 70
     0
  9
$DIMSOXD
 70
     0
  9
$DIMSAH
 70
     0
  9
$DIMBLK1
  1

  9
$DIMBLK2
  1

  9
$DIMSTYLE
  2
ISO-25
  9
$DIMCLRD
 70
     0
  9
$DIMCLRE
 70
     0
  9
$DIMCLRT
 70
     0
  9
$DIMTFAC
 40
1.0
  9
$DIMGAP
 40
2.54
  9
$DIMJUST
 70
     0
  9
$DIMSD1
 70
     0
  9
$DIMSD2
 70
     0
  9
$DIMTOLJ
 70
     0
  9
$DIMTZIN
 70
     1
  9
$DIMALTZ
 70
     0
  9
$DIMALTTZ
 70
     0
  9
$DIMUPT
 70
     0
  9
$DIMDEC
 70
     1
  9
$DIMTDEC
 70
     1
  9
$DIMALTU
 70
     2
  9
$DIMALTTD
 70
     3
  9
$DIMTXSTY
  7
Standard
  9
$DIMAUNIT
 70
     0
  9
$DIMADEC
 70
     0
  9
$DIMALTRND
 40
0.0
  9
$DIMAZIN
 70
     0
  9
$DIMDSEP
 70
    44
  9
$DIMATFIT
 70
     3
  9
$DIMFRAC
 70
     0
  9
$DIMLDRBLK
  1

  9
$DIMLUNIT
 70
     2
  9
$DIMLWD
 70
    -2
  9
$DIMLWE
 70
    -2
  9
$DIMTMOVE
 70
     0
  9
$LUNITS
 70
     2
  9
$LUPREC
 70
     1
  9
$SKETCHINC
 40
1.0
  9
$FILLETRAD
 40
10.0
  9
$AUNITS
 70
     0
  9
$AUPREC
 70
     0
  9
$MENU
  1
.
  9
$ELEVATION
 40
0.0
  9
$PELEVATION
 40
0.0
  9
$THICKNESS
 40
0.0
  9
$LIMCHECK
 70
     0
  9
$CHAMFERA
 40
10.0
  9
$CHAMFERB
 40
10.0
  9
$CHAMFERC
 40
20.0
  9
$CHAMFERD
 40
0.0
  9
$SKPOLY
 70
     0
  9
$TDCREATE
 40
2456848.602816504
  9
$TDUCREATE
 40
2456848.769483171
  9
$TDUPDATE
 40
2456848.602819213
  9
$TDUUPDATE
 40
2456848.76948588
  9
$TDINDWG
 40
0.0000000116
  9
$TDUSRTIMER
 40
0.0000000116
  9
$USRTIMER
 70
     1
  9
$ANGBASE
 50
0.0
  9
$ANGDIR
 70
     0
  9
$PDMODE
 70
     0
  9
$PDSIZE
 40
-1.0
  9
$PLINEWID
 40
0.0
  9
$SPLFRAME
 70
     0
  9
$SPLINETYPE
 70
     6
  9
$SPLINESEGS
 70
     8
  9
$HANDSEED
  5
1C8
  9
$SURFTAB1
 70
     6
  9
$SURFTAB2
 70
     6
  9
$SURFTYPE
 70
     6
  9
$SURFU
 70
     6
  9
$SURFV
 70
     6
  9
$UCSBASE
  2

  9
$UCSNAME
  2

  9
$UCSORG
 10
0.0
 20
0.0
 30
0.0
  9
$UCSXDIR
 10
1.0
 20
0.0
 30
0.0
  9
$UCSYDIR
 10
0.0
 20
1.0
 30
0.0
  9
$UCSORTHOREF
  2

  9
$UCSORTHOVIEW
 70
     0
  9
$UCSORGTOP
 10
0.0
 20
0.0
 30
0.0
  9
$UCSORGBOTTOM
 10
0.0
 20
0.0
 30
0.0
  9
$UCSORGLEFT
 10
0.0
 20
0.0
 30
0.0
  9
$UCSORGRIGHT
 10
0.0
 20
0.0
 30
0.0
  9
$UCSORGFRONT
 10
0.0
 20
0.0
 30
0.0
  9
$UCSORGBACK
 10
0.0
 20
0.0
 30
0.0
  9
$PUCSBASE
  2

  9
$PUCSNAME
  2

  9
$PUCSORG
 10
0.0
 20
0.0
 30
0.0
  9
$PUCSXDIR
 10
1.0
 20
0.0
 30
0.0
  9
$PUCSYDIR
 10
0.0
 20
1.0
 30
0.0
  9
$PUCSORTHOREF
  2

  9
$PUCSORTHOVIEW
 70
     0
  9
$PUCSORGTOP
 10
0.0
 20
0.0
 30
0.0
  9
$PUCSORGBOTTOM
 10
0.0
 20
0.0
 30
0.0
  9
$PUCSORGLEFT
 10
0.0
 20
0.0
 30
0.0
  9
$PUCSORGRIGHT
 10
0.0
 20
0.0
 30
0.0
  9
$PUCSORGFRONT
 10
0.0
 20
0.0
 30
0.0
  9
$PUCSORGBACK
 10
0.0
 20
0.0
 30
0.0
  9
$USERI1
 70
     0
  9
$USERI2
 70
     0
  9
$USERI3
 70
     0
  9
$USERI4
 70
     0
  9
$USERI5
 70
     0
  9
$USERR1
 40
0.0
  9
$USERR2
 40
0.0
  9
$USERR3
 40
0.0
  9
$USERR4
 40
0.0
  9
$USERR5
 40
0.0
  9
$WORLDVIEW
 70
     1
  9
$SHADEDGE
 70
     3
  9
$SHADEDIF
 70
    70
  9
$TILEMODE
 70
     1
  9
$MAXACTVP
 70
    64
  9
$PINSBASE
 10
0.0
 20
0.0
 30
0.0
  9
$PLIMCHECK
 70
     0
  9
$PEXTMIN
 10
1.0000000000E+20
 20
1.0000000000E+20
 30
1.0000000000E+20
  9
$PEXTMAX
 10
-1.0000000000E+20
 20
-1.0000000000E+20
 30
-1.0000000000E+20
  9
$PLIMMIN
 10
0.0
 20
0.0
  9
$PLIMMAX
 10
420.0
 20
297.0
  9
$UNITMODE
 70
     0
  9
$VISRETAIN
 70
     1
  9
$PLINEGEN
 70
     0
  9
$PSLTSCALE
 70
     1
  9
$TREEDEPTH
 70
  3020
  9
$CMLSTYLE
  2
Standard
  9
$CMLJUST
 70
     0
  9
$CMLSCALE
 40
20.0
  9
$PROXYGRAPHICS
 70
     1
  9
$MEASUREMENT
 70
     1
  9
$CELWEIGHT
370
    -1
  9
$ENDCAPS
280
     0
  9
$JOINSTYLE
280
     0
  9
$LWDISPLAY
290
     1
  9
$INSUNITS
 70
     4
  9
$HYPERLINKBASE
  1

  9
$STYLESHEET
  1

  9
$XEDIT
290
     1
  9
$CEPSNTYPE
380
     0
  9
$PSTYLEMODE
290
     1
  9
$FINGERPRINTGUID
  2
{FFE6A78E-101E-4C41-BF55-D97CAF5C4257}
  9
$VERSIONGUID
  2
{FAEB1C32-E019-11D5-929B-00C0DF256EC4}
  9
$EXTNAMES
290
     1
  9
$PSVPSCALE
 40
0.0
  9
$OLESTARTUP
290
     0
  0
ENDSEC
  0
SECTION
  2
CLASSES
  0
CLASS
  1
ACDBDICTIONARYWDFLT
  2
AcDbDictionaryWithDefault
  3
ObjectDBX Classes
 90
        0
280
     0
281
     0
  0
CLASS
  1
VISUALSTYLE
  2
AcDbVisualStyle
  3
ObjectDBX Classes
 90
     4095
280
     0
281
     0
  0
CLASS
  1
MATERIAL
  2
AcDbMaterial
  3
ObjectDBX Classes
 90
     1153
280
     0
281
     0
  0
CLASS
  1
ACDBPLACEHOLDER
  2
AcDbPlaceHolder
  3
ObjectDBX Classes
 90
        0
280
     0
281
     0
  0
CLASS
  1
LAYOUT
  2
AcDbLayout
  3
ObjectDBX Classes
 90
        0
280
     0
281
     0
  0
ENDSEC
  0
SECTION
  2
TABLES
  0
TABLE
  2
VPORT
  5
8
330
0
100
AcDbSymbolTable
 70
     1
  0
VPORT
  5
29
330
8
100
AcDbSymbolTableRecord
100
AcDbViewportTableRecord
  2
*Active
 70
     0
 10
0.0
 20
0.0
 11
1.0
 21
1.0
 12
139.7
 22
107.95
 13
0.0
 23
0.0
 14
10.0
 24
10.0
 15
10.0
 25
10.0
 16
0.0
 26
0.0
 36
1.0
 17
0.0
 27
0.0
 37
0.0
 40
215.9
 41
1.2941176471
 42
50.0
 43
0.0
 44
0.0
 50
0.0
 51
0.0
 71
     0
 72
  2000
 73
     1
 74
     3
 75
     0
 76
     0
 77
     0
 78
     0
281
     0
 65
     1
110
0.0
120
0.0
130
0.0
111
1.0
121
0.0
131
0.0
112
0.0
122
1.0
132
0.0
 79
     0
146
0.0
  0
ENDTAB
  0
TABLE
  2
LTYPE
  5
5
330
0
100
AcDbSymbolTable
 70
     6
  0
LTYPE
  5
14
330
5
100
AcDbSymbolTableRecord
100
AcDbLinetypeTableRecord
  2
ByBlock
 70
     0
  3

 72
    65
 73
     0
 40
0.0
  0
LTYPE
  5
15
330
5
100
AcDbSymbolTableRecord
100
AcDbLinetypeTableRecord
  2
ByLayer
 70
     0
  3

 72
    65
 73
     0
 40
0.0
  0
LTYPE
  5
16
330
5
100
AcDbSymbolTableRecord
100
AcDbLinetypeTableRecord
  2
Continuous
 70
     0
  3
Solid line
 72
    65
 73
     0
 40
0.0
  0
LTYPE
  5
3F
330
5
100
AcDbSymbolTableRecord
100
AcDbLinetypeTableRecord
  2
HIDDEN
 70
     0
  3
Hidden __ __ __ __ __ __ __ __ __ __ __ __ __ __
 72
    65
 73
     2
 40
1.905
 49
1.27
 74
     0
 49
-0.635
 74
     0
  0
LTYPE
  5
40
330
5
100
AcDbSymbolTableRecord
100
AcDbLinetypeTableRecord
  2
PHANTOM
 70
     0
  3
Phantom ______  __  __  ______  __  __  ______
 72
    65
 73
     6
 40
12.7
 49
6.35
 74
     0
 49
-1.27
 74
     0
 49
1.27
 74
     0
 49
-1.27
 74
     0
 49
1.27
 74
     0
 49
-1.27
 74
     0
  0
LTYPE
  5
41
330
5
100
AcDbSymbolTableRecord
100
AcDbLinetypeTableRecord
  2
CENTER
 70
     0
  3
Center ____ _ ____ _ ____ _ ____ _ ____ _ ____
 72
    65
 73
     4
 40
10.16
 49
6.35
 74
     0
 49
-1.27
 74
     0
 49
1.27
 74
     0
 49
-1.27
 74
     0
  0
LTYPE
  5
42
330
5
100
AcDbSymbolTableRecord
100
AcDbLinetypeTableRecord
  2
CENTERX2
 70
     0
  3
Center (2x) ________  __  ________  __  _____
 72
    65
 73
     4
 40
20.32
 49
12.7
 74
     0
 49
-2.54
 74
     0
 49
2.54
 74
     0
 49
-2.54
 74
     0
  0
LTYPE
  5
43
330
5
100
AcDbSymbolTableRecord
100
AcDbLinetypeTableRecord
  2
DOT2
 70
     0
  3
Dot (.5x) ........................................
 72
    65
 73
     2
 40
0.635
 49
0.0
 74
     0
 49
-0.635
 74
     0
  0
ENDTAB
  0
TABLE
  2
LAYER
  5
2
330
0
100
AcDbSymbolTable
 70
     2
  0
LAYER
  5
10
330
2
100
AcDbSymbolTableRecord
100
AcDbLayerTableRecord
  2
0
 70
     0
 62
     7
  6
Continuous
370
    -3
390
F
  0
LAYER
  5
44
330
2
100
AcDbSymbolTableRecord
100
AcDbLayerTableRecord
  2
FORMAT
 70
     0
 62
     7
  6
Continuous
370
    -3
390
F
  0
ENDTAB
  0
TABLE
  2
STYLE
  5
3
330
0
100
AcDbSymbolTable
 70
     5
  0
STYLE
  5
11
330
3
100
AcDbSymbolTableRecord
100
AcDbTextStyleTableRecord
  2
Standard
 70
     0
 40
0.0
 41
1.0
 50
0.0
 71
     0
 42
2.8222222222
  3
txt
  4

  0
STYLE
  5
6E
330
3
100
AcDbSymbolTableRecord
100
AcDbTextStyleTableRecord
  2
SLDTEXTSTYLE0
 70
     0
 40
0.0
 41
0.75
 50
0.0
 71
     0
 42
0.2
  3
TXT
  4

  0
STYLE
  5
76
330
3
100
AcDbSymbolTableRecord
100
AcDbTextStyleTableRecord
  2
SLDTEXTSTYLE1
 70
     0
 40
0.0
 41
0.75
 50
0.0
 71
     0
 42
0.2
  3
TXT
  4
bigfont
  0
STYLE
  5
93
330
3
100
AcDbSymbolTableRecord
100
AcDbTextStyleTableRecord
  2
SLDTEXTSTYLE2
 70
     0
 40
0.0
 41
0.6
 50
0.0
 71
     0
 42
0.2
  3
TXT
  4

  0
STYLE
  5
98
330
3
100
AcDbSymbolTableRecord
100
AcDbTextStyleTableRecord
  2
SLDTEXTSTYLE3
 70
     0
 40
0.0
 41
0.6875
 50
0.0
 71
     0
 42
0.2
  3
TXT
  4

  0
ENDTAB
  0
TABLE
  2
VIEW
  5
6
330
0
100
AcDbSymbolTable
 70
     0
  0
ENDTAB
  0
TABLE
  2
UCS
  5
7
330
0
100
AcDbSymbolTable
 70
     0
  0
ENDTAB
  0
TABLE
  2
APPID
  5
9
330
0
100
AcDbSymbolTable
 70
     1
  0
APPID
  5
12
330
9
100
AcDbSymbolTableRecord
100
AcDbRegAppTableRecord
  2
ACAD
 70
     0
  0
ENDTAB
  0
TABLE
  2
DIMSTYLE
  5
A
330
0
100
AcDbSymbolTable
 70
     4
100
AcDbDimStyleTable
  0
DIMSTYLE
105
27
330
A
100
AcDbSymbolTableRecord
100
AcDbDimStyleTableRecord
  2
ISO-25
 70
     0
 41
2.5
 42
0.625
 43
3.75
 44
1.25
 73
     0
 74
     0
 77
     1
 78
     8
140
2.5
141
2.5
143
0.0393700787
147
0.625
171
     3
172
     1
178
     0
271
     2
272
     2
274
     3
278
    44
283
     0
284
     8
340
11
  0
DIMSTYLE
105
B8
102
{ACAD_REACTORS
330
B7
102
}
330
A
100
AcDbSymbolTableRecord
100
AcDbDimStyleTableRecord
  2
SLDDIMSTYLE0
 70
     0
 41
3.175
 44
0.0
 45
0.000000001
 78
    12
 79
     3
140
2.1166666667
141
0.0
143
0.0393700787
147
0.5291666667
148
0.000000001
170
     1
173
     1
178
     0
271
     1
272
     1
276
     2
284
    12
340
6E
  0
DIMSTYLE
105
139
102
{ACAD_REACTORS
330
138
102
}
330
A
100
AcDbSymbolTableRecord
100
AcDbDimStyleTableRecord
  2
SLDDIMSTYLE1
 70
     0
 41
3.175
 44
0.0
 45
0.000000001
 78
     4
 79
     1
140
2.1166666667
143
0.0393700787
147
0.5291666667
148
0.000000001
170
     1
172
     1
173
     1
178
     0
271
     1
272
     1
276
     2
284
    12
289
     0
340
6E
  0
DIMSTYLE
105
14E
330
A
100
AcDbSymbolTableRecord
100
AcDbDimStyleTableRecord
  2
SLDDIMSTYLE2
 70
     0
 41
3.175
 44
0.0
 45
0.000000001
140
0.0
146
3.175
147
0.0
173
     1
178
     0
271
     0
272
     0
276
     2
340
11
  0
ENDTAB
  0
TABLE
  2
BLOCK_RECORD
  5
1
330
0
100
AcDbSymbolTable
 70
    10
  0
BLOCK_RECORD
  5
1F
330
1
100
AcDbSymbolTableRecord
100
AcDbBlockTableRecord
  2
*Model_Space
340
22
  0
BLOCK_RECORD
  5
1B
330
1
100
AcDbSymbolTableRecord
100
AcDbBlockTableRecord
  2
*Paper_Space
340
1E
  0
BLOCK_RECORD
  5
23
330
1
100
AcDbSymbolTableRecord
100
AcDbBlockTableRecord
  2
*Paper_Space0
340
26
  0
BLOCK_RECORD
  5
45
330
1
100
AcDbSymbolTableRecord
100
AcDbBlockTableRecord
  2
Third Angle Projection Block
340
0
102
{BLKREFS
331
6A
102
}
  0
BLOCK_RECORD
  5
6B
330
1
100
AcDbSymbolTableRecord
100
AcDbBlockTableRecord
  2
SW_NOTE_0
340
0
102
{BLKREFS
331
87
102
}
  0
BLOCK_RECORD
  5
9A
330
1
100
AcDbSymbolTableRecord
100
AcDbBlockTableRecord
  2
SW_NOTE_1
340
0
102
{BLKREFS
331
9F
102
}
  0
BLOCK_RECORD
  5
A0
330
1
100
AcDbSymbolTableRecord
100
AcDbBlockTableRecord
  2
SW_NOTE_2
340
0
102
{BLKREFS
331
A5
102
}
  0
BLOCK_RECORD
  5
A7
330
1
100
AcDbSymbolTableRecord
100
AcDbBlockTableRecord
  2
SW_NOTE_3
340
0
102
{BLKREFS
331
AC
102
}
  0
BLOCK_RECORD
  5
AD
330
1
100
AcDbSymbolTableRecord
100
AcDbBlockTableRecord
  2
SW_NOTE_4
340
0
102
{BLKREFS
331
B3
102
}
  0
BLOCK_RECORD
  5
B9
330
1
100
AcDbSymbolTableRecord
100
AcDbBlockTableRecord
  2
_D
340
0
  0
BLOCK_RECORD
  5
13A
330
1
100
AcDbSymbolTableRecord
100
AcDbBlockTableRecord
  2
_D_1
340
0
  0
BLOCK_RECORD
  5
150
330
1
100
AcDbSymbolTableRecord
100
AcDbBlockTableRecord
  2
SW_NOTE_5
340
0
102
{BLKREFS
331
155
102
}
  0
ENDTAB
  0
ENDSEC
  0
SECTION
  2
BLOCKS
  0
BLOCK
  5
20
330
1F
100
AcDbEntity
  8
0
100
AcDbBlockBegin
  2
*Model_Space
 70
     0
 10
0.0
 20
0.0
 30
0.0
  3
*Model_Space
  1

  0
ENDBLK
  5
21
330
1F
100
AcDbEntity
  8
0
100
AcDbBlockEnd
  0
BLOCK
  5
1C
330
1B
100
AcDbEntity
 67
     1
  8
0
100
AcDbBlockBegin
  2
*Paper_Space
 70
     0
 10
0.0
 20
0.0
 30
0.0
  3
*Paper_Space
  1

  0
ENDBLK
  5
1D
330
1B
100
AcDbEntity
 67
     1
  8
0
100
AcDbBlockEnd
  0
BLOCK
  5
24
330
23
100
AcDbEntity
  8
0
100
AcDbBlockBegin
  2
*Paper_Space0
 70
     0
 10
0.0
 20
0.0
 30
0.0
  3
*Paper_Space0
  1

  0
ENDBLK
  5
25
330
23
100
AcDbEntity
  8
0
100
AcDbBlockEnd
  0
BLOCK
  5
46
330
45
100
AcDbEntity
  8
0
100
AcDbBlockBegin
  2
Third Angle Projection Block
 70
     0
 10
0.0
 20
0.0
 30
0.0
  3
Third Angle Projection Block
  1

  0
CIRCLE
  5
48
330
45
100
AcDbEntity
  8
0
  6
Continuous
 62
     7
370
    30
100
AcDbCircle
 10
101.4766388944
 20
18.9404083667
 30
0.0
 40
1.768227153674871
  0
CIRCLE
  5
49
330
45
100
AcDbEntity
  8
0
  6
Continuous
 62
     7
370
    30
100
AcDbCircle
 10
101.4766388944
 20
18.9404083667
 30
0.0
 40
3.901228248531818
  0
LINE
  5
4A
330
45
100
AcDbEntity
  8
0
  6
CENTERX2
 62
     7
370
     0
100
AcDbLine
 10
110.1367822585
 20
18.9404083667
 30
0.0
 11
119.4527334874
 21
18.9404083667
 31
0.0
  0
LINE
  5
4B
330
45
100
AcDbEntity
  8
0
  6
Continuous
 62
     7
370
    30
100
AcDbLine
 10
111.0016388944
 20
20.7086355204
 30
0.0
 11
111.0016388944
 21
17.172181213
 31
0.0
  0
LINE
  5
4C
330
45
100
AcDbEntity
  8
0
  6
Continuous
 62
     7
370
    30
100
AcDbLine
 10
111.0016388944
 20
17.172181213
 30
0.0
 11
118.6216388944
 21
15.1304083667
 31
0.0
  0
LINE
  5
4D
330
45
100
AcDbEntity
  8
0
  6
Continuous
 62
     7
370
    30
100
AcDbLine
 10
118.6216388944
 20
15.1304083667
 30
0.0
 11
118.6216388944
 21
22.7504083667
 31
0.0
  0
LINE
  5
4E
330
45
100
AcDbEntity
  8
0
  6
Continuous
 62
     7
370
    30
100
AcDbLine
 10
118.6216388944
 20
22.7504083667
 30
0.0
 11
111.0016388944
 21
20.7086355204
 31
0.0
  0
LINE
  5
4F
330
45
100
AcDbEntity
  8
0
  6
CENTERX2
 62
     7
370
     0
100
AcDbLine
 10
96.6025854619
 20
18.9404083667
 30
0.0
 11
106.3506923269
 21
18.9404083667
 31
0.0
  0
LINE
  5
50
330
45
100
AcDbEntity
  8
0
  6
CENTERX2
 62
     7
370
     0
100
AcDbLine
 10
101.4766388944
 20
23.8144617992
 30
0.0
 11
101.4766388944
 21
14.0663549342
 31
0.0
  0
POINT
  5
51
330
45
100
AcDbEntity
  8
0
  6
Continuous
 62
     7
370
     0
100
AcDbPoint
 10
101.4766388944
 20
18.9404083667
 30
0.0
  0
ENDBLK
  5
47
330
45
100
AcDbEntity
  8
0
100
AcDbBlockEnd
  0
BLOCK
  5
6C
330
6B
100
AcDbEntity
  8
0
100
AcDbBlockBegin
  2
SW_NOTE_0
 70
     0
 10
0.0
 20
0.0
 30
0.0
  3
SW_NOTE_0
  1

  0
MTEXT
  5
6F
330
6B
100
AcDbEntity
  8
0
  6
Continuous
 62
     0
370
     0
100
AcDbMText
 10
0.0
 20
3.0695925553
 30
0.0
 40
2.38125
 41
0.0
 71
     1
 72
     1
  1
NOTES/SPECIFICATIONS:
  7
SLDTEXTSTYLE0
 73
     1
 44
1.0
  0
MTEXT
  5
70
330
6B
100
AcDbEntity
  8
0
  6
Continuous
 62
     0
370
     0
100
AcDbMText
 10
9.9999997765
 20
-3.2804073679
 30
0.0
 40
2.38125
 41
0.0
 71
     1
 72
     1
  1
CLEAR APERTURE: >
  7
SLDTEXTSTYLE0
 73
     1
 44
1.0
  0
MTEXT
  5
71
330
6B
100
AcDbEntity
  8
0
  6
Continuous
 62
     0
370
     0
100
AcDbMText
 10
39.5010411739
 20
-3.2804073679
 30
0.0
 40
2.38125
 41
0.0
 71
     1
 72
     1
  1
%%c
  7
SLDTEXTSTYLE0
 73
     1
 44
1.0
  0
MTEXT
  5
72
330
6B
100
AcDbEntity
  8
0
  6
Continuous
 62
     0
370
     0
100
AcDbMText
 10
43.0954080075
 20
-3.2804073679
 30
0.0
 40
2.38125
 41
0.0
 71
     1
 72
     1
  1
45.72 mm
  7
SLDTEXTSTYLE0
 73
     1
 44
1.0
  0
MTEXT
  5
73
330
6B
100
AcDbEntity
  8
0
  6
Continuous
 62
     0
370
     0
100
AcDbMText
 10
0.0
 20
-3.2804073679
 30
0.0
 40
2.38125
 41
0.0
 71
     1
 72
     1
  1
1.
  7
SLDTEXTSTYLE0
 73
     1
 44
1.0
  0
MTEXT
  5
74
330
6B
100
AcDbEntity
  8
0
  6
Continuous
 62
     0
370
     0
100
AcDbMText
 10
9.9999997765
 20
-6.4554073296
 30
0.0
 40
2.38125
 41
0.0
 71
     1
 72
     1
  1
SURFACE QUALITY: 40-20 SCRATCH-DIG
  7
SLDTEXTSTYLE0
 73
     1
 44
1.0
  0
MTEXT
  5
75
330
6B
100
AcDbEntity
  8
0
  6
Continuous
 62
     0
370
     0
100
AcDbMText
 10
0.0
 20
-6.4554073296
 30
0.0
 40
2.38125
 41
0.0
 71
     1
 72
     1
  1
2.
  7
SLDTEXTSTYLE0
 73
     1
 44
1.0
  0
MTEXT
  5
77
330
6B
100
AcDbEntity
  8
0
  6
Continuous
 62
     0
370
     0
100
AcDbMText
 10
9.9999997765
 20
-9.6304072912
 30
0.0
 40
2.38125
 41
0.0
 71
     1
 72
     1
  1
TRANSMITTED WAVEFRONT ERROR: <\M+183C9/4 AT 633nm
  7
SLDTEXTSTYLE1
 73
     1
 44
1.0
  0
MTEXT
  5
78
330
6B
100
AcDbEntity
  8
0
  6
Continuous
 62
     0
370
     0
100
AcDbMText
 10
0.0
 20
-9.6304072912
 30
0.0
 40
2.38125
 41
0.0
 71
     1
 72
     1
  1
3.
  7
SLDTEXTSTYLE0
 73
     1
 44
1.0
  0
MTEXT
  5
79
330
6B
100
AcDbEntity
  8
0
  6
Continuous
 62
     0
370
     0
100
AcDbMText
 10
9.9999997765
 20
-12.8054072528
 30
0.0
 40
2.38125
 41
0.0
 71
     1
 72
     1
  1
PARALLELISM: <3 arcmin
  7
SLDTEXTSTYLE0
 73
     1
 44
1.0
  0
MTEXT
  5
7A
330
6B
100
AcDbEntity
  8
0
  6
Continuous
 62
     0
370
     0
100
AcDbMText
 10
0.0
 20
-12.8054072528
 30
0.0
 40
2.38125
 41
0.0
 71
     1
 72
     1
  1
4.
  7
SLDTEXTSTYLE0
 73
     1
 44
1.0
  0
MTEXT
  5
7B
330
6B
100
AcDbEntity
  8
0
  6
Continuous
 62
     0
370
     0
100
AcDbMText
 10
9.9999997765
 20
-15.9804072144
 30
0.0
 40
2.38125
 41
0.0
 71
     1
 72
     1
  1
FILTER COATING (S1):
  7
SLDTEXTSTYLE0
 73
     1
 44
1.0
  0
MTEXT
  5
7C
330
6B
100
AcDbEntity
  8
0
  6
Continuous
 62
     0
370
     0
100
AcDbMText
 10
0.0
 20
-15.9804072144
 30
0.0
 40
2.38125
 41
0.0
 71
     1
 72
     1
  1
5.
  7
SLDTEXTSTYLE0
 73
     1
 44
1.0
  0
MTEXT
  5
7D
330
6B
100
AcDbEntity
  8
0
  6
Continuous
 62
     0
370
     0
100
AcDbMText
 10
20.0
 20
-19.1554071761
 30
0.0
 40
2.38125
 41
0.0
 71
     1
 72
     1
  1
REFLECTION BAND (R): >95% AVERAGE, >90% ABSOLUTE 400-633nm
  7
SLDTEXTSTYLE0
 73
     1
 44
1.0
  0
MTEXT
  5
7E
330
6B
100
AcDbEntity
  8
0
  6
Continuous
 62
     0
370
     0
100
AcDbMText
 10
20.0
 20
-22.3304071377
 30
0.0
 40
2.38125
 41
0.0
 71
     1
 72
     1
  1
TRANSMISSION BAND (T): >90% AVERAGE, >85% ABSOLUTE 685-1600nm
  7
SLDTEXTSTYLE0
 73
     1
 44
1.0
  0
MTEXT
  5
7F
330
6B
100
AcDbEntity
  8
0
  6
Continuous
 62
     0
370
     0
100
AcDbMText
 10
20.0
 20
-25.5054070993
 30
0.0
 40
2.38125
 41
0.0
 71
     1
 72
     1
  1
45
  7
SLDTEXTSTYLE0
 73
     1
 44
1.0
  0
MTEXT
  5
80
330
6B
100
AcDbEntity
  8
0
  6
Continuous
 62
     0
370
     0
100
AcDbMText
 10
23.5189583432
 20
-25.5054070993
 30
0.0
 40
2.38125
 41
0.0
 71
     1
 72
     1
  1
%%d
  7
SLDTEXTSTYLE0
 73
     1
 44
1.0
  0
MTEXT
  5
81
330
6B
100
AcDbEntity
  8
0
  6
Continuous
 62
     0
370
     0
100
AcDbMText
 10
25.9253437392
 20
-25.5054070993
 30
0.0
 40
2.38125
 41
0.0
 71
     1
 72
     1
  1
AOI
  7
SLDTEXTSTYLE0
 73
     1
 44
1.0
  0
MTEXT
  5
82
330
6B
100
AcDbEntity
  8
0
  6
Continuous
 62
     0
370
     0
100
AcDbMText
 10
9.9999997765
 20
-28.680407061
 30
0.0
 40
2.38125
 41
0.0
 71
     1
 72
     1
  1
AR COATING (S2):
  7
SLDTEXTSTYLE0
 73
     1
 44
1.0
  0
MTEXT
  5
83
330
6B
100
AcDbEntity
  8
0
  6
Continuous
 62
     0
370
     0
100
AcDbMText
 10
0.0
 20
-28.680407061
 30
0.0
 40
2.38125
 41
0.0
 71
     1
 72
     1
  1
6.
  7
SLDTEXTSTYLE0
 73
     1
 44
1.0
  0
MTEXT
  5
84
330
6B
100
AcDbEntity
  8
0
  6
Continuous
 62
     0
370
     0
100
AcDbMText
 10
20.0
 20
-31.8554070226
 30
0.0
 40
2.38125
 41
0.0
 71
     1
 72
     1
  1
R: <2% ABSOLUTE 685-1600nm, 45
  7
SLDTEXTSTYLE0
 73
     1
 44
1.0
  0
MTEXT
  5
85
330
6B
100
AcDbEntity
  8
0
  6
Continuous
 62
     0
370
     0
100
AcDbMText
 10
70.2531938255
 20
-31.8554070226
 30
0.0
 40
2.38125
 41
0.0
 71
     1
 72
     1
  1
%%d
  7
SLDTEXTSTYLE0
 73
     1
 44
1.0
  0
MTEXT
  5
86
330
6B
100
AcDbEntity
  8
0
  6
Continuous
 62
     0
370
     0
100
AcDbMText
 10
72.6595803857
 20
-31.8554070226
 30
0.0
 40
2.38125
 41
0.0
 71
     1
 72
     1
  1
AOI
  7
SLDTEXTSTYLE0
 73
     1
 44
1.0
  0
ENDBLK
  5
6D
330
6B
100
AcDbEntity
  8
0
100
AcDbBlockEnd
  0
BLOCK
  5
9B
330
9A
100
AcDbEntity
  8
0
100
AcDbBlockBegin
  2
SW_NOTE_1
 70
     0
 10
0.0
 20
0.0
 30
0.0
  3
SW_NOTE_1
  1

  0
MTEXT
  5
9D
330
9A
100
AcDbEntity
  8
0
  6
Continuous
 62
     0
370
     0
100
AcDbMText
 10
19.90725
 20
1.9645392354
 30
0.0
 40
1.524
 41
0.0
 71
     2
 72
     1
  1
VALUES IN PARENTHESIS ARE CALCULATED
  7
SLDTEXTSTYLE0
 73
     1
 44
1.0
  0
MTEXT
  5
9E
330
9A
100
AcDbEntity
  8
0
  6
Continuous
 62
     0
370
     0
100
AcDbMText
 10
19.8778795174
 20
-0.5594606586
 30
0.0
 40
1.524
 41
0.0
 71
     2
 72
     1
  1
AND MAY CONTAIN ROUNDOFF ERRORS
  7
SLDTEXTSTYLE0
 73
     1
 44
1.0
  0
ENDBLK
  5
9C
330
9A
100
AcDbEntity
  8
0
100
AcDbBlockEnd
  0
BLOCK
  5
A1
330
A0
100
AcDbEntity
  8
0
100
AcDbBlockBegin
  2
SW_NOTE_2
 70
     0
 10
0.0
 20
0.0
 30
0.0
  3
SW_NOTE_2
  1

  0
MTEXT
  5
A3
330
A0
100
AcDbEntity
  8
0
  6
Continuous
 62
     0
370
     0
100
AcDbMText
 10
0.0
 20
2.7285267159
 30
0.0
 40
2.1166666667
 41
0.0
 71
     1
 72
     1
  1
DRAWING
  7
SLDTEXTSTYLE0
 73
     1
 44
1.0
  0
MTEXT
  5
A4
330
A0
100
AcDbEntity
  8
0
  6
Continuous
 62
     0
370
     0
100
AcDbMText
 10
0.0
 20
-0.0936954723
 30
0.0
 40
2.1166666667
 41
0.0
 71
     1
 72
     1
  1
PROJECTION
  7
SLDTEXTSTYLE0
 73
     1
 44
1.0
  0
ENDBLK
  5
A2
330
A0
100
AcDbEntity
  8
0
100
AcDbBlockEnd
  0
BLOCK
  5
A8
330
A7
100
AcDbEntity
  8
0
100
AcDbBlockBegin
  2
SW_NOTE_3
 70
     0
 10
0.0
 20
0.0
 30
0.0
  3
SW_NOTE_3
  1

  0
MTEXT
  5
AA
330
A7
100
AcDbEntity
  8
0
  6
Continuous
 62
     0
370
     0
100
AcDbMText
 10
25.052734375
 20
4.0927900738
 30
0.0
 40
3.175
 41
0.0
 71
     2
 72
     1
  1
FOR INFORMATION ONLY
  7
SLDTEXTSTYLE0
 73
     1
 44
1.0
  0
MTEXT
  5
AB
330
A7
100
AcDbEntity
  8
0
  6
Continuous
 62
     0
370
     0
100
AcDbMText
 10
25.3768468589
 20
-0.1405432084
 30
0.0
 40
3.175
 41
0.0
 71
     2
 72
     1
  1
NOT FOR MANUFACTURING PURPOSES
  7
SLDTEXTSTYLE0
 73
     1
 44
1.0
  0
ENDBLK
  5
A9
330
A7
100
AcDbEntity
  8
0
100
AcDbBlockEnd
  0
BLOCK
  5
AE
330
AD
100
AcDbEntity
  8
0
100
AcDbBlockBegin
  2
SW_NOTE_4
 70
     0
 10
0.0
 20
0.0
 30
0.0
  3
SW_NOTE_4
  1

  0
MTEXT
  5
B0
330
AD
100
AcDbEntity
  8
0
  6
Continuous
 62
     0
370
     0
100
AcDbMText
 10
1.7115234375
 20
3.0695925553
 30
0.0
 40
2.38125
 41
0.0
 71
     2
 72
     1
  1
%%c
  7
SLDTEXTSTYLE0
 73
     1
 44
1.0
  0
MTEXT
  5
B1
330
AD
100
AcDbEntity
  8
0
  6
Continuous
 62
     0
370
     0
100
AcDbMText
 10
18.1051066928
 20
3.0695925553
 30
0.0
 40
2.38125
 41
0.0
 71
     2
 72
     1
  1
50.8mm LONGPASS
  7
SLDTEXTSTYLE0
 73
     1
 44
1.0
  0
MTEXT
  5
B2
330
AD
100
AcDbEntity
  8
0
  6
Continuous
 62
     0
370
     0
100
AcDbMText
 10
16.8492152989
 20
-0.1054074063
 30
0.0
 40
2.38125
 41
0.0
 71
     2
 72
     1
  1
DICHROIC MIRROR 650nm
  7
SLDTEXTSTYLE0
 73
     1
 44
1.0
  0
ENDBLK
  5
AF
330
AD
100
AcDbEntity
  8
0
100
AcDbBlockEnd
  0
BLOCK
  5
BA
330
B9
100
AcDbEntity
  8
0
100
AcDbBlockBegin
  2
_D
 70
     0
 10
0.0
 20
0.0
 30
0.0
  3
_D
  1

  0
SOLID
  5
BC
330
B9
100
AcDbEntity
  8
0
  6
Continuous
 62
     7
370
     0
100
AcDbTrace
 10
102.3162153774
 20
139.0936322829
 30
0.0
 11
104.8913681634
 21
141.0190613593
 31
0.0
 12
104.1620534919
 22
141.7264199034
 32
0.0
 13
104.1620534919
 23
141.7264199034
 33
0.0
  0
LINE
  5
BD
330
B9
100
AcDbEntity
  8
0
  6
Continuous
 62
     7
370
     0
100
AcDbLine
 10
116.8492092333
 20
147.8041551365
 30
0.0
 11
116.4199962736
 21
147.8041551365
 31
0.0
  0
LINE
  5
BE
330
B9
100
AcDbEntity
  8
0
  6
Continuous
 62
     7
370
     0
100
AcDbLine
 10
116.4199962736
 20
147.8041551365
 30
0.0
 11
116.4199962736
 21
144.4410070601
 31
0.0
  0
LINE
  5
BF
330
B9
100
AcDbEntity
  8
0
  6
Continuous
 62
     7
370
     0
100
AcDbLine
 10
116.4199962736
 20
144.4410070601
 30
0.0
 11
116.8492092333
 21
144.4410070601
 31
0.0
  0
LINE
  5
C0
330
B9
100
AcDbEntity
  8
0
  6
Continuous
 62
     7
370
     0
100
AcDbLine
 10
125.6794332225
 20
147.8041551365
 30
0.0
 11
126.1086461822
 21
147.8041551365
 31
0.0
  0
LINE
  5
C1
330
B9
100
AcDbEntity
  8
0
  6
Continuous
 62
     7
370
     0
100
AcDbLine
 10
126.1086461822
 20
147.8041551365
 30
0.0
 11
126.1086461822
 21
144.4410070601
 31
0.0
  0
LINE
  5
C2
330
B9
100
AcDbEntity
  8
0
  6
Continuous
 62
     7
370
     0
100
AcDbLine
 10
126.1086461822
 20
144.4410070601
 30
0.0
 11
125.6794332225
 21
144.4410070601
 31
0.0
  0
LINE
  5
C3
330
B9
100
AcDbEntity
  8
0
  6
Continuous
 62
     7
370
     0
100
AcDbLine
 10
102.3162153774
 20
139.0936322829
 30
0.0
 11
112.2880865465
 21
149.3750263606
 31
0.0
  0
LINE
  5
C4
330
B9
100
AcDbEntity
  8
0
  6
Continuous
 62
     7
370
     0
100
AcDbLine
 10
112.2880865465
 20
149.3750263606
 30
0.0
 11
116.0980865465
 21
149.3750263606
 31
0.0
  0
MTEXT
  5
C5
330
B9
100
AcDbEntity
  8
0
  6
Continuous
 62
     7
370
     0
100
AcDbMText
 10
116.0980865465
 20
150.961894783
 30
0.1
 40
2.1166666667
 41
0.0
 71
     1
 72
     1
  1
%%c
  7
SLDTEXTSTYLE0
 73
     1
 44
1.0
  0
MTEXT
  5
C6
330
B9
100
AcDbEntity
  8
0
  6
Continuous
 62
     7
370
     0
100
AcDbMText
 10
119.2930773472
 20
150.961894783
 30
0.1
 40
2.1166666667
 41
0.0
 71
     1
 72
     1
  1
50.8mm
  7
SLDTEXTSTYLE0
 73
     1
 44
1.0
  0
MTEXT
  5
C7
330
B9
100
AcDbEntity
  8
0
  6
Continuous
 62
     7
370
     0
100
AcDbMText
 10
117.3857254548
 20
147.1695336595
 30
0.1
 40
2.1166666667
 41
0.0
 71
     1
 72
     1
  1
2.00in
  7
SLDTEXTSTYLE0
 73
     1
 44
1.0
  0
ENDBLK
  5
BB
330
B9
100
AcDbEntity
  8
0
100
AcDbBlockEnd
  0
BLOCK
  5
13B
330
13A
100
AcDbEntity
  8
0
100
AcDbBlockBegin
  2
_D_1
 70
     0
 10
0.0
 20
0.0
 30
0.0
  3
_D_1
  1

  0
SOLID
  5
13D
330
13A
100
AcDbEntity
  8
0
  6
Continuous
 62
     7
370
     0
100
AcDbTrace
 10
197.1060160774
 20
89.3594357863
 30
0.0
 11
193.9310160774
 21
89.8674357863
 31
0.0
 12
193.9310160774
 22
88.8514357863
 32
0.0
 13
193.9310160774
 23
88.8514357863
 33
0.0
  0
SOLID
  5
13E
330
13A
100
AcDbEntity
  8
0
  6
Continuous
 62
     7
370
     0
100
AcDbTrace
 10
202.1060160774
 20
89.3594357863
 30
0.0
 11
205.2810160774
 21
88.8514357863
 31
0.0
 12
205.2810160774
 22
89.8674357863
 32
0.0
 13
205.2810160774
 23
89.8674357863
 33
0.0
  0
LINE
  5
13F
330
13A
100
AcDbEntity
  8
0
  6
Continuous
 62
     7
370
     0
100
AcDbLine
 10
212.8972344594
 20
89.3594355535
 30
0.0
 11
212.4680214997
 21
89.3594355535
 31
0.0
  0
LINE
  5
140
330
13A
100
AcDbEntity
  8
0
  6
Continuous
 62
     7
370
     0
100
AcDbLine
 10
212.4680214997
 20
89.3594355535
 30
0.0
 11
212.4680214997
 21
85.996287477
 31
0.0
  0
LINE
  5
141
330
13A
100
AcDbEntity
  8
0
  6
Continuous
 62
     7
370
     0
100
AcDbLine
 10
212.4680214997
 20
85.996287477
 30
0.0
 11
212.8972344594
 21
85.996287477
 31
0.0
  0
LINE
  5
142
330
13A
100
AcDbEntity
  8
0
  6
Continuous
 62
     7
370
     0
100
AcDbLine
 10
221.7274584486
 20
89.3594355535
 30
0.0
 11
222.1566714083
 21
89.3594355535
 31
0.0
  0
LINE
  5
143
330
13A
100
AcDbEntity
  8
0
  6
Continuous
 62
     7
370
     0
100
AcDbLine
 10
222.1566714083
 20
89.3594355535
 30
0.0
 11
222.1566714083
 21
85.996287477
 31
0.0
  0
LINE
  5
144
330
13A
100
AcDbEntity
  8
0
  6
Continuous
 62
     7
370
     0
100
AcDbLine
 10
222.1566714083
 20
85.996287477
 30
0.0
 11
221.7274584486
 21
85.996287477
 31
0.0
  0
LINE
  5
145
330
13A
100
AcDbEntity
  8
0
  6
Continuous
 62
     7
370
     0
100
AcDbLine
 10
197.1060160774
 20
94.390765495
 30
0.0
 11
197.1060160774
 21
87.5814357863
 31
0.0
  0
LINE
  5
146
330
13A
100
AcDbEntity
  8
0
  6
Continuous
 62
     7
370
     0
100
AcDbLine
 10
202.1060160774
 20
94.390765495
 30
0.0
 11
202.1060160774
 21
87.5814357863
 31
0.0
  0
LINE
  5
147
330
13A
100
AcDbEntity
  8
0
  6
Continuous
 62
     7
370
     0
100
AcDbLine
 10
197.1060160774
 20
89.3594357863
 30
0.0
 11
190.7560160774
 21
89.3594357863
 31
0.0
  0
LINE
  5
148
330
13A
100
AcDbEntity
  8
0
  6
Continuous
 62
     7
370
     0
100
AcDbLine
 10
202.1060160774
 20
89.3594357863
 30
0.0
 11
209.8647110377
 21
89.3594357863
 31
0.0
  0
MTEXT
  5
149
330
13A
100
AcDbEntity
  8
0
  6
Continuous
 62
     7
370
     0
100
AcDbMText
 10
211.881528287
 20
92.5171752
 30
0.1
 40
2.1166666667
 41
0.0
 71
     1
 72
     1
  1

  7
SLDTEXTSTYLE0
 73
     1
 44
1.0
  0
MTEXT
  5
14A
330
13A
100
AcDbEntity
  8
0
  6
Continuous
 62
     7
370
     0
100
AcDbMText
 10
211.8540899914
 20
92.5171752
 30
0.1
 40
2.1166666667
 41
0.0
 71
     1
 72
     1
  1
5.0mm
  7
SLDTEXTSTYLE0
 73
     1
 44
1.0
  0
MTEXT
  5
14B
330
13A
100
AcDbEntity
  8
0
  6
Continuous
 62
     7
370
     0
100
AcDbMText
 10
213.4337506808
 20
88.7248140765
 30
0.1
 40
2.1166666667
 41
0.0
 71
     1
 72
     1
  1
0.20in
  7
SLDTEXTSTYLE0
 73
     1
 44
1.0
  0
MTEXT
  5
14C
330
13A
100
AcDbEntity
  8
0
  6
Continuous
 62
     7
370
     0
100
AcDbMText
 10
224.3581029166
 20
92.5171752
 30
0.1
 40
2.1166666667
 41
0.0
 71
     1
 72
     1
  1

  7
SLDTEXTSTYLE0
 73
     1
 44
1.0
  0
ENDBLK
  5
13C
330
13A
100
AcDbEntity
  8
0
100
AcDbBlockEnd
  0
BLOCK
  5
151
330
150
100
AcDbEntity
  8
0
100
AcDbBlockBegin
  2
SW_NOTE_5
 70
     0
 10
0.0
 20
0.0
 30
0.0
  3
SW_NOTE_5
  1

  0
MTEXT
  5
153
330
150
100
AcDbEntity
  8
0
  6
Continuous
 62
     0
370
     0
100
AcDbMText
 10
0.528833647
 20
0.9632894489
 30
0.0
 40
2.1166666667
 41
0.0
 71
     1
 72
     1
  1
S2
  7
SLDTEXTSTYLE0
 73
     1
 44
1.0
  0
MTEXT
  5
154
330
150
100
AcDbEntity
  8
0
  6
Continuous
 62
     0
370
     0
100
AcDbMText
 10
0.528833647
 20
-1.8589327392
 30
0.0
 40
2.1166666667
 41
0.0
 71
     1
 72
     1
  1
INDICATED BY ENGRAVED ARROW
  7
SLDTEXTSTYLE0
 73
     1
 44
1.0
  0
ENDBLK
  5
152
330
150
100
AcDbEntity
  8
0
100
AcDbBlockEnd
  0
ENDSEC
  0
SECTION
  2
ENTITIES
  0
LINE
  5
52
330
1F
100
AcDbEntity
  8
0
  6
Continuous
 62
     7
370
     0
100
AcDbLine
 10
1.5793501011
 20
214.6453799966
 30
0.0
 11
277.9892068491
 21
214.6453799966
 31
0.0
  0
LINE
  5
53
330
1F
100
AcDbEntity
  8
0
  6
Continuous
 62
     7
370
     0
100
AcDbLine
 10
1.5793501011
 20
214.6453799966
 30
0.0
 11
1.5793501011
 21
0.9031642596
 31
0.0
  0
LINE
  5
54
330
1F
100
AcDbEntity
  8
0
  6
Continuous
 62
     7
370
     0
100
AcDbLine
 10
277.9892068491
 20
0.9031642596
 30
0.0
 11
1.5793501011
 21
0.9031642596
 31
0.0
  0
LINE
  5
55
330
1F
100
AcDbEntity
  8
0
  6
Continuous
 62
     7
370
     0
100
AcDbLine
 10
277.9892068491
 20
0.9031642596
 30
0.0
 11
277.9892068491
 21
214.6453799966
 31
0.0
  0
LINE
  5
56
330
1F
100
AcDbEntity
  8
0
  6
Continuous
 62
     7
370
     0
100
AcDbLine
 10
215.7427640041
 20
12.2958890132
 30
0.0
 11
171.6327596684
 21
12.2958890132
 31
0.0
  0
LINE
  5
57
330
1F
100
AcDbEntity
  8
0
  6
Continuous
 62
     7
370
     0
100
AcDbLine
 10
171.6327596684
 20
12.2958890132
 30
0.0
 11
171.6327596684
 21
26.1661402506
 31
0.0
  0
LINE
  5
58
330
1F
100
AcDbEntity
  8
0
  6
Continuous
 62
     7
370
     0
100
AcDbLine
 10
171.6327596684
 20
0.9031642596
 30
0.0
 11
171.6327596684
 21
26.1661402506
 31
0.0
  0
LINE
  5
59
330
1F
100
AcDbEntity
  8
0
  6
Continuous
 62
     7
370
     0
100
AcDbLine
 10
215.7427640041
 20
17.1604579552
 30
0.0
 11
277.9892068491
 21
17.1604579552
 31
0.0
  0
LINE
  5
5A
330
1F
100
AcDbEntity
  8
0
  6
Continuous
 62
     7
370
     0
100
AcDbLine
 10
215.7427640041
 20
35.2394508358
 30
0.0
 11
215.7427640041
 21
0.9031642596
 31
0.0
  0
LINE
  5
5B
330
1F
100
AcDbEntity
  8
0
  6
Continuous
 62
     7
370
     0
100
AcDbLine
 10
215.7427640041
 20
26.1661402506
 30
0.0
 11
171.6327596684
 21
26.1661402506
 31
0.0
  0
LINE
  5
5C
330
1F
100
AcDbEntity
  8
0
  6
Continuous
 62
     7
370
     0
100
AcDbLine
 10
215.7427640041
 20
9.1409200612
 30
0.0
 11
277.9892068491
 21
9.1409200612
 31
0.0
  0
LINE
  5
5D
330
1F
100
AcDbEntity
  8
0
  6
Continuous
 62
     7
370
     0
100
AcDbLine
 10
215.7427640041
 20
16.9216824031
 30
0.0
 11
171.6327596684
 21
16.9216824031
 31
0.0
  0
LINE
  5
5E
330
1F
100
AcDbEntity
  8
0
  6
Continuous
 62
     7
370
     0
100
AcDbLine
 10
215.7427640041
 20
21.4874005542
 30
0.0
 11
171.6327596684
 21
21.4874005542
 31
0.0
  0
LINE
  5
5F
330
1F
100
AcDbEntity
  8
0
  6
Continuous
 62
     7
370
     0
100
AcDbLine
 10
186.1338100705
 20
26.1661402506
 30
0.0
 11
186.1338100705
 21
12.2958890132
 31
0.0
  0
LINE
  5
60
330
1F
100
AcDbEntity
  8
0
  6
Continuous
 62
     7
370
     0
100
AcDbLine
 10
198.2145906188
 20
26.1661402506
 30
0.0
 11
198.2145906188
 21
12.2958890132
 31
0.0
  0
LINE
  5
61
330
1F
100
AcDbEntity
  8
0
  6
Continuous
 62
     7
370
     0
100
AcDbLine
 10
253.7490408369
 20
9.1409200612
 30
0.0
 11
253.7490408369
 21
0.9031642596
 31
0.0
  0
LINE
  5
62
330
1F
100
AcDbEntity
  8
0
  6
Continuous
 62
     7
370
     0
100
AcDbLine
 10
171.6327596684
 20
12.2958890132
 30
0.0
 11
171.6327596684
 21
7.5627342528
 31
0.0
  0
LINE
  5
63
330
1F
100
AcDbEntity
  8
0
  6
Continuous
 62
     7
370
     0
100
AcDbLine
 10
171.6327596684
 20
7.5627342528
 30
0.0
 11
215.7427640041
 21
7.5627342528
 31
0.0
  0
LINE
  5
64
330
1F
100
AcDbEntity
  8
0
  6
Continuous
 62
     7
370
     0
100
AcDbLine
 10
171.6327596684
 20
7.5627342528
 30
0.0
 11
171.6327596684
 21
35.2394508358
 31
0.0
  0
LINE
  5
65
330
1F
100
AcDbEntity
  8
0
  6
Continuous
 62
     7
370
     0
100
AcDbLine
 10
171.6327596684
 20
35.2394508358
 30
0.0
 11
215.7427640041
 21
35.2394508358
 31
0.0
  0
LINE
  5
66
330
1F
100
AcDbEntity
  8
0
  6
Continuous
 62
     7
370
     0
100
AcDbLine
 10
270.1683598194
 20
17.1604579552
 30
0.0
 11
270.1683598194
 21
9.1409200612
 31
0.0
  0
LINE
  5
67
330
1F
100
AcDbEntity
  8
0
  6
Continuous
 62
     7
370
     0
100
AcDbLine
 10
215.7427640041
 20
35.2394508358
 30
0.0
 11
277.9892068491
 21
35.2394508358
 31
0.0
  0
LINE
  5
68
330
1F
100
AcDbEntity
  8
0
  6
Continuous
 62
     7
370
     0
100
AcDbLine
 10
277.9892068491
 20
35.2394508358
 30
0.0
 11
277.9892068491
 21
50.0331356147
 31
0.0
  0
LINE
  5
69
330
1F
100
AcDbEntity
  8
0
  6
Continuous
 62
     7
370
     0
100
AcDbLine
 10
215.7427640041
 20
24.8927335446
 30
0.0
 11
277.9892068491
 21
24.8927335446
 31
0.0
  0
INSERT
  5
6A
330
1F
100
AcDbEntity
  8
0
  6
Continuous
 62
     7
100
AcDbBlockReference
  2
Third Angle Projection Block
 10
117.7262204235
 20
15.5162339489
 30
0.0
 41
0.8
 42
0.8
 43
0.8
  0
INSERT
  5
87
330
1F
100
AcDbEntity
  8
0
  6
Continuous
 62
     7
370
     0
100
AcDbBlockReference
  2
SW_NOTE_0
 10
14.3617258262
 20
69.5994197506
 30
0.0
  0
MTEXT
  5
88
330
1F
100
AcDbEntity
  8
0
  6
Continuous
 62
     7
370
     0
100
AcDbMText
 10
274.1458225539
 20
13.2559386876
 30
0.0
 40
3.175
 41
0.0
 71
     2
 72
     1
  1
A
  7
SLDTEXTSTYLE0
 73
     1
 44
1.0
  0
MTEXT
  5
89
330
1F
100
AcDbEntity
  8
0
  6
Continuous
 62
     7
370
     0
100
AcDbMText
 10
234.5576145581
 20
5.1306563898
 30
0.0
 40
3.175
 41
0.0
 71
     2
 72
     1
  1
DMLP650L
  7
SLDTEXTSTYLE0
 73
     1
 44
1.0
  0
MTEXT
  5
8A
330
1F
100
AcDbEntity
  8
0
  6
Continuous
 62
     7
370
     0
100
AcDbMText
 10
216.4199766059
 20
16.8243178599
 30
0.0
 40
2.1166666667
 41
0.0
 71
     1
 72
     1
  1
MATERIAL
  7
SLDTEXTSTYLE0
 73
     1
 44
1.0
  0
MTEXT
  5
8B
330
1F
100
AcDbEntity
  8
0
  6
Continuous
 62
     7
370
     0
100
AcDbMText
 10
174.230946566
 20
20.054553926
 30
0.0
 40
1.8520833333
 41
0.0
 71
     1
 72
     1
  1
DRAWN
  7
SLDTEXTSTYLE0
 73
     1
 44
1.0
  0
MTEXT
  5
8C
330
1F
100
AcDbEntity
  8
0
  6
Continuous
 62
     7
370
     0
100
AcDbMText
 10
172.3960124543
 20
15.5787169747
 30
0.0
 40
1.8520833333
 41
0.0
 71
     1
 72
     1
  1
APPROVAL
  7
SLDTEXTSTYLE0
 73
     1
 44
1.0
  0
MTEXT
  5
8D
330
1F
100
AcDbEntity
  8
0
  6
Continuous
 62
     7
370
     0
100
AcDbMText
 10
271.7160653675
 20
16.1671746307
 30
0.0
 40
2.1166666667
 41
0.0
 71
     1
 72
     1
  1
REV
  7
SLDTEXTSTYLE0
 73
     1
 44
1.0
  0
MTEXT
  5
8E
330
1F
100
AcDbEntity
  8
0
  6
Continuous
 62
     7
370
     0
100
AcDbMText
 10
190.2958696448
 20
20.3177146903
 30
0.0
 40
2.1166666667
 41
0.0
 71
     1
 72
     1
  1
MG
  7
SLDTEXTSTYLE0
 73
     1
 44
1.0
  0
MTEXT
  5
8F
330
1F
100
AcDbEntity
  8
0
  6
Continuous
 62
     7
370
     0
100
AcDbMText
 10
190.2958696448
 20
15.841877739
 30
0.0
 40
2.1166666667
 41
0.0
 71
     1
 72
     1
  1
CS
  7
SLDTEXTSTYLE0
 73
     1
 44
1.0
  0
MTEXT
  5
90
330
1F
100
AcDbEntity
  8
0
  6
Continuous
 62
     7
370
     0
100
AcDbMText
 10
199.8662436873
 20
20.3177146903
 30
0.0
 40
2.1166666667
 41
0.0
 71
     1
 72
     1
  1
03/JUNE/14
  7
SLDTEXTSTYLE0
 73
     1
 44
1.0
  0
MTEXT
  5
91
330
1F
100
AcDbEntity
  8
0
  6
Continuous
 62
     7
370
     0
100
AcDbMText
 10
203.6145073853
 20
24.8221395769
 30
0.0
 40
2.1166666667
 41
0.0
 71
     1
 72
     1
  1
DATE
  7
SLDTEXTSTYLE0
 73
     1
 44
1.0
  0
MTEXT
  5
92
330
1F
100
AcDbEntity
  8
0
  6
Continuous
 62
     7
370
     0
100
AcDbMText
 10
199.8662436873
 20
15.841877739
 30
0.0
 40
2.1166666667
 41
0.0
 71
     1
 72
     1
  1
10/JUNE/14
  7
SLDTEXTSTYLE0
 73
     1
 44
1.0
  0
MTEXT
  5
94
330
1F
100
AcDbEntity
  8
0
  6
Continuous
 62
     7
370
     0
100
AcDbMText
 10
229.402906477
 20
27.7957480569
 30
0.0
 40
2.1166666667
 41
0.0
 71
     1
 72
     1
  1
w w w . t h o r  l a b s . c o m
  7
SLDTEXTSTYLE2
 73
     1
 44
1.0
  0
MTEXT
  5
95
330
1F
100
AcDbEntity
  8
0
  6
Continuous
 62
     7
370
     0
100
AcDbMText
 10
216.7004035316
 20
8.3494791871
 30
0.0
 40
2.1166666667
 41
0.0
 71
     1
 72
     1
  1
ITEM #
  7
SLDTEXTSTYLE0
 73
     1
 44
1.0
  0
MTEXT
  5
96
330
1F
100
AcDbEntity
  8
0
  6
Continuous
 62
     7
370
     0
100
AcDbMText
 10
254.5318000914
 20
8.3494791871
 30
0.0
 40
2.1166666667
 41
0.0
 71
     1
 72
     1
  1
APPROX WEIGHT
  7
SLDTEXTSTYLE0
 73
     1
 44
1.0
  0
MTEXT
  5
97
330
1F
100
AcDbEntity
  8
0
  6
Continuous
 62
     7
370
     0
100
AcDbMText
 10
243.2362589615
 20
13.8247651814
 30
0.0
 40
3.175
 41
0.0
 71
     2
 72
     1
  1
UV GRADE FUSED SILICA
  7
SLDTEXTSTYLE0
 73
     1
 44
1.0
  0
MTEXT
  5
99
330
1F
100
AcDbEntity
  8
0
  6
Continuous
 62
     7
370
     0
100
AcDbMText
 10
266.2586154088
 20
5.1306563898
 30
0.0
 40
3.175
 41
0.0
 71
     2
 72
     1
  1
20 g
  7
SLDTEXTSTYLE3
 73
     1
 44
1.0
  0
INSERT
  5
9F
330
1F
100
AcDbEntity
  8
0
  6
Continuous
 62
     7
370
     0
100
AcDbBlockReference
  2
SW_NOTE_1
 10
174.8430140051
 20
4.4558554801
 30
0.0
  0
INSERT
  5
A5
330
1F
100
AcDbEntity
  8
0
  6
Continuous
 62
     7
370
     0
100
AcDbBlockReference
  2
SW_NOTE_2
 10
174.5483650337
 20
30.4835322715
 30
0.0
  0
MTEXT
  5
A6
330
1F
100
AcDbEntity
  8
0
  6
Continuous
 62
     7
370
     0
100
AcDbMText
 10
187.9273588276
 20
24.8221395769
 30
0.0
 40
2.1166666667
 41
0.0
 71
     1
 72
     1
  1
NAME
  7
SLDTEXTSTYLE0
 73
     1
 44
1.0
  0
INSERT
  5
AC
330
1F
100
AcDbEntity
  8
0
  6
Continuous
 62
     7
370
     0
100
AcDbBlockReference
  2
SW_NOTE_3
 10
58.6204667508
 20
8.1776609732
 30
0.0
  0
INSERT
  5
B3
330
1F
100
AcDbEntity
  8
0
  6
Continuous
 62
     7
370
     0
100
AcDbBlockReference
  2
SW_NOTE_4
 10
231.2431344853
 20
20.6862828027
 30
0.0
  0
MTEXT
  5
B4
330
1F
100
AcDbEntity
  8
0
  6
Continuous
 62
     7
370
     0
100
AcDbMText
 10
177.6925831922
 20
10.7142101515
 30
0.0
 40
1.5875
 41
0.0
 71
     1
 72
     1
  1
COPYRIGHT © 2014 BY THORLABS
  7
SLDTEXTSTYLE0
 73
     1
 44
1.0
  0
CIRCLE
  5
B5
330
1F
100
AcDbEntity
  8
0
  6
Continuous
 62
     7
370
     0
100
AcDbCircle
 10
84.6322517749
 20
120.860765495
 30
0.0
 40
25.20000000000002
  0
CIRCLE
  5
B6
330
1F
100
AcDbEntity
  8
0
  6
Continuous
 62
     7
370
     0
100
AcDbCircle
 10
84.6322517749
 20
120.860765495
 30
0.0
 40
25.39999999999999
  0
DIMENSION
  5
B7
330
1F
100
AcDbEntity
  8
0
  6
Continuous
 62
     7
370
     0
100
AcDbDimension
  2
_D
 10
66.9482881724
 20
102.627898707
 30
0.0
 11
123.9358291136
 21
149.3750263606
 31
0.0
 70
   163
  1
<>
 71
     1
 42
-1.0
  3
SLDDIMSTYLE0
100
AcDbDiametricDimension
 15
102.3162153774
 25
139.0936322829
 35
0.0
 40
0.0
  0
LINE
  5
C8
330
1F
100
AcDbEntity
  8
0
  6
Continuous
 62
     7
370
     0
100
AcDbLine
 10
201.9060161284
 20
95.4607658019
 30
0.0
 11
202.1060160215
 21
95.6607654622
 31
0.0
  0
LINE
  5
C9
330
1F
100
AcDbEntity
  8
0
  6
Continuous
 62
     7
370
     0
100
AcDbLine
 10
202.1060160215
 20
146.0607655277
 30
0.0
 11
201.9060161284
 21
146.260765188
 31
0.0
  0
LINE
  5
CA
330
1F
100
AcDbEntity
  8
0
  6
Continuous
 62
     7
370
     0
100
AcDbLine
 10
201.9060161284
 20
146.260765188
 30
0.0
 11
197.3060160264
 21
146.260765188
 31
0.0
  0
LINE
  5
CB
330
1F
100
AcDbEntity
  8
0
  6
Continuous
 62
     7
370
     0
100
AcDbLine
 10
197.3060160264
 20
95.4607658019
 30
0.0
 11
201.9060161284
 21
95.4607658019
 31
0.0
  0
LINE
  5
CC
330
1F
100
AcDbEntity
  8
0
  6
Continuous
 62
     7
370
     0
100
AcDbLine
 10
197.3060160264
 20
146.260765188
 30
0.0
 11
197.1060161333
 21
146.0607655277
 31
0.0
  0
LINE
  5
CD
330
1F
100
AcDbEntity
  8
0
  6
Continuous
 62
     7
370
     0
100
AcDbLine
 10
197.1060161333
 20
95.6607654622
 30
0.0
 11
197.3060160264
 21
95.4607658019
 31
0.0
  0
LINE
  5
CE
330
1F
100
AcDbEntity
  8
0
  6
Continuous
 62
     7
370
     0
100
AcDbLine
 10
201.9060161284
 20
95.4607658019
 30
0.0
 11
201.9060161284
 21
146.260765188
 31
0.0
  0
LINE
  5
CF
330
1F
100
AcDbEntity
  8
0
  6
Continuous
 62
     7
370
     0
100
AcDbLine
 10
202.1060160215
 20
146.0607655277
 30
0.0
 11
202.1060160215
 21
95.6607654622
 31
0.0
  0
SPLINE
  5
D0
330
1F
100
AcDbEntity
  8
0
  6
Continuous
 62
     7
370
     0
100
AcDbSpline
210
0.0
220
0.0
230
1.0
 70
     8
 71
     3
 72
    14
 73
    10
 74
     0
 42
0.00000001
 43
0.00000001
 12
1.0
 22
0.0
 32
0.0
 13
1.0
 23
0.0
 33
0.0
 40
0.0
 40
0.0
 40
0.0
 40
0.0
 40
0.0626203335203488
 40
0.125196523725376
 40
0.2501754384042169
 40
0.4995238900043193
 40
0.7494969757171994
 40
0.8747361469557821
 40
1.0
 40
1.0
 40
1.0
 40
1.0
 10
199.1337149410349
 20
116.2501952523379
 30
0.0
 10
199.1400168746044
 20
116.2664561810279
 30
0.0
 10
199.1526162992847
 20
116.298966575497
 30
0.0
 10
199.1886672941587
 20
116.3590459834098
 30
0.0
 10
199.2723792849379
 20
116.449811980549
 30
0.0
 10
199.4291226859308
 20
116.5370643235061
 30
0.0
 10
199.6011449364268
 20
116.5799023502803
 30
0.0
 10
199.7417495399773
 20
116.5946045945594
 30
0.0
 10
199.8124460136039
 20
116.5957668388416
 30
0.0
 10
199.8477977332427
 20
116.5963480182401
 30
0.0
  0
SPLINE
  5
D1
330
1F
100
AcDbEntity
  8
0
  6
Continuous
 62
     7
370
     0
100
AcDbSpline
210
0.0
220
0.0
230
1.0
 70
     8
 71
     3
 72
    11
 73
     7
 74
     0
 42
0.00000001
 43
0.00000001
 12
1.0
 22
0.0
 32
0.0
 13
1.0
 23
0.0
 33
0.0
 40
0.0
 40
0.0
 40
0.0
 40
0.0
 40
0.4000017235834427
 40
0.6400060127062173
 40
0.8200150216781176
 40
1.0
 40
1.0
 40
1.0
 40
1.0
 10
199.1060160773986
 20
116.0157301636646
 30
0.0
 10
199.1064778093766
 20
116.0473153927687
 30
0.0
 10
199.1072165842988
 20
116.0978520163566
 30
0.0
 10
199.1140455868587
 20
116.1622889101125
 30
0.0
 10
199.1213779360768
 20
116.2092297508388
 30
0.0
 10
199.1296027890599
 20
116.2365406928666
 30
0.0
 10
199.1337149410349
 20
116.2501952523379
 30
0.0
  0
LINE
  5
D2
330
1F
100
AcDbEntity
  8
0
  6
Continuous
 62
     7
370
     0
100
AcDbLine
 10
199.1060160536
 20
116.0157302326
 30
0.0
 11
199.1060160536
 21
115.6013950637
 31
0.0
  0
LINE
  5
D3
330
1F
100
AcDbEntity
  8
0
  6
Continuous
 62
     7
370
     0
100
AcDbLine
 10
200.6060161249
 20
115.6013950637
 30
0.0
 11
199.1060160536
 21
115.6013950637
 31
0.0
  0
LINE
  5
D4
330
1F
100
AcDbEntity
  8
0
  6
Continuous
 62
     7
370
     0
100
AcDbLine
 10
200.6060161249
 20
116.034854476
 30
0.0
 11
200.6060161249
 21
115.6013950637
 31
0.0
  0
SPLINE
  5
D5
330
1F
100
AcDbEntity
  8
0
  6
Continuous
 62
     7
370
     0
100
AcDbSpline
210
0.0
220
0.0
230
1.0
 70
     8
 71
     3
 72
    15
 73
    11
 74
     0
 42
0.00000001
 43
0.00000001
 12
1.0
 22
0.0
 32
0.0
 13
1.0
 23
0.0
 33
0.0
 40
0.0
 40
0.0
 40
0.0
 40
0.0
 40
0.1002492383821552
 40
0.2004810886521584
 40
0.4005534076458178
 40
0.5506171364805615
 40
0.7000987602887071
 40
0.8496801260079839
 40
0.924824378333488
 40
1.0
 40
1.0
 40
1.0
 40
1.0
 10
199.8477977332427
 20
116.5963480182401
 30
0.0
 10
199.883833671669
 20
116.5957345798352
 30
0.0
 10
199.9558992981306
 20
116.5945078094255
 30
0.0
 10
200.09912210236
 20
116.5791335960241
 30
0.0
 10
200.257409767995
 20
116.5393713677301
 30
0.0
 10
200.4182626310496
 20
116.4583679034131
 30
0.0
 10
200.5390944145364
 20
116.3465698464762
 30
0.0
 10
200.5873416826235
 20
116.2191814839647
 30
0.0
 10
200.6041320884601
 20
116.1145079556342
 30
0.0
 10
200.6053879937233
 20
116.061409291995
 30
0.0
 10
200.6060160773986
 20
116.0348544197567
 30
0.0
  0
LINE
  5
D6
330
1F
100
AcDbEntity
  8
0
  6
Continuous
 62
     7
370
     0
100
AcDbLine
 10
200.4306913906
 20
119.0321845166
 30
0.0
 11
200.4306913906
 21
118.4110385762
 31
0.0
  0
LINE
  5
D7
330
1F
100
AcDbEntity
  8
0
  6
Continuous
 62
     7
370
     0
100
AcDbLine
 10
199.1060160536
 20
118.4110385762
 30
0.0
 11
200.4306913906
 21
118.4110385762
 31
0.0
  0
LINE
  5
D8
330
1F
100
AcDbEntity
  8
0
  6
Continuous
 62
     7
370
     0
100
AcDbLine
 10
199.1060160536
 20
118.4110385762
 30
0.0
 11
199.1060160536
 21
118.2559680125
 31
0.0
  0
LINE
  5
D9
330
1F
100
AcDbEntity
  8
0
  6
Continuous
 62
     7
370
     0
100
AcDbLine
 10
200.6060161249
 20
118.2559680125
 30
0.0
 11
199.1060160536
 21
118.2559680125
 31
0.0
  0
LINE
  5
DA
330
1F
100
AcDbEntity
  8
0
  6
Continuous
 62
     7
370
     0
100
AcDbLine
 10
200.6060161249
 20
119.0321845166
 30
0.0
 11
200.6060161249
 21
118.2559680125
 31
0.0
  0
LINE
  5
DB
330
1F
100
AcDbEntity
  8
0
  6
Continuous
 62
     7
370
     0
100
AcDbLine
 10
200.4306913906
 20
119.0321845166
 30
0.0
 11
200.6060161249
 21
119.0321845166
 31
0.0
  0
SPLINE
  5
DC
330
1F
100
AcDbEntity
  8
0
  6
Continuous
 62
     7
370
     0
100
AcDbSpline
210
0.0
220
0.0
230
1.0
 70
     8
 71
     3
 72
    15
 73
    11
 74
     0
 42
0.00000001
 43
0.00000001
 12
1.0
 22
0.0
 32
0.0
 13
1.0
 23
0.0
 33
0.0
 40
0.0
 40
0.0
 40
0.0
 40
0.0
 40
0.0626807722912946
 40
0.1253333131892095
 40
0.250128460724617
 40
0.4984029438705588
 40
0.6133658744245117
 40
0.7491286829929248
 40
0.8745542067274544
 40
1.0
 40
1.0
 40
1.0
 40
1.0
 10
200.6254965968791
 20
120.717188961694
 30
0.0
 10
200.6246188707974
 20
120.6975319592226
 30
0.0
 10
200.6228638139614
 20
120.6582268077853
 30
0.0
 10
200.603100623296
 20
120.5818325802908
 30
0.0
 10
200.5337862443124
 20
120.4612659556687
 30
0.0
 10
200.3998975577836
 20
120.3718626454134
 30
0.0
 10
200.2498328666206
 20
120.3280956353926
 30
0.0
 10
200.1333335211925
 20
120.3085900394349
 30
0.0
 10
200.0125758464896
 20
120.2982431639676
 30
0.0
 10
199.9339758878603
 20
120.2973353731378
 30
0.0
 10
199.8946727332427
 20
120.2968814410497
 30
0.0
  0
SPLINE
  5
DD
330
1F
100
AcDbEntity
  8
0
  6
Continuous
 62
     7
370
     0
100
AcDbSpline
210
0.0
220
0.0
230
1.0
 70
     8
 71
     3
 72
    15
 73
    11
 74
     0
 42
0.00000001
 43
0.00000001
 12
1.0
 22
0.0
 32
0.0
 13
1.0
 23
0.0
 33
0.0
 40
0.0
 40
0.0
 40
0.0
 40
0.0
 40
0.1252288014243752
 40
0.2503988985157559
 40
0.5000178294355156
 40
0.6427866057901929
 40
0.7499206241133561
 40
0.8748062916066517
 40
0.9373799419411052
 40
0.9999999999999999
 40
0.9999999999999999
 40
0.9999999999999999
 40
0.9999999999999999
 10
200.1165680254505
 20
121.0955330685583
 30
0.0
 10
200.1460164857673
 20
121.0946920517025
 30
0.0
 10
200.2048996016515
 20
121.0930104122399
 30
0.0
 10
200.3206675785341
 20
121.0711132994331
 30
0.0
 10
200.4352948941817
 20
121.0253322541933
 30
0.0
 10
200.5299653793442
 20
120.9538772781623
 30
0.0
 10
200.5841738758416
 20
120.8834854830402
 30
0.0
 10
200.6119262355204
 20
120.8191160638916
 30
0.0
 10
200.6237514332105
 20
120.7613345795585
 30
0.0
 10
200.6249147319162
 20
120.7319078036934
 30
0.0
 10
200.6254965968791
 20
120.717188961694
 30
0.0
  0
SPLINE
  5
DE
330
1F
100
AcDbEntity
  8
0
  6
Continuous
 62
     7
370
     0
100
AcDbSpline
210
0.0
220
0.0
230
1.0
 70
     8
 71
     3
 72
    14
 73
    10
 74
     0
 42
0.00000001
 43
0.00000001
 12
1.0
 22
0.0
 32
0.0
 13
1.0
 23
0.0
 33
0.0
 40
0.0
 40
0.0
 40
0.0
 40
0.0
 40
0.0716092258795893
 40
0.1431829065437076
 40
0.2859095315837507
 40
0.4998898090798696
 40
0.74935010404441
 40
0.8746399318271696
 40
0.9999999999999999
 40
0.9999999999999999
 40
0.9999999999999999
 40
0.9999999999999999
 10
199.6319901033726
 20
120.7302772450988
 30
0.0
 10
199.6326744712152
 20
120.7463580903279
 30
0.0
 10
199.6340428671954
 20
120.7785117986149
 30
0.0
 10
199.6497436842428
 20
120.8411259622289
 30
0.0
 10
199.69558328583
 20
120.927126117809
 30
0.0
 10
199.7969442792892
 20
121.0222474703475
 30
0.0
 10
199.9212672177249
 20
121.0743924640155
 30
0.0
 10
200.0321690114965
 20
121.0932842268288
 30
0.0
 10
200.0884297654246
 20
121.0947833146171
 30
0.0
 10
200.1165680254505
 20
121.0955330685583
 30
0.0
  0
SPLINE
  5
DF
330
1F
100
AcDbEntity
  8
0
  6
Continuous
 62
     7
370
     0
100
AcDbSpline
210
0.0
220
0.0
230
1.0
 70
     8
 71
     3
 72
    13
 73
     9
 74
     0
 42
0.00000001
 43
0.00000001
 12
1.0
 22
0.0
 32
0.0
 13
1.0
 23
0.0
 33
0.0
 40
0.0
 40
0.0
 40
0.0
 40
0.0
 40
0.1252140812495538
 40
0.2503636840946665
 40
0.5000735958270055
 40
0.7497129283713933
 40
0.8748209609586628
 40
1.0
 40
1.0
 40
1.0
 40
1.0
 10
199.8246646163596
 20
120.4316972421932
 30
0.0
 10
199.8111824325155
 20
120.4395034630899
 30
0.0
 10
199.7842250074147
 20
120.4551118851063
 30
0.0
 10
199.7352160104454
 20
120.4935697893994
 30
0.0
 10
199.6825779847804
 20
120.5518528302292
 30
0.0
 10
199.648659128032
 20
120.6228718171602
 30
0.0
 10
199.6339290438726
 20
120.6835518961772
 30
0.0
 10
199.6326365391005
 20
120.714699183296
 30
0.0
 10
199.6319901033726
 20
120.7302772450988
 30
0.0
  0
SPLINE
  5
E0
330
1F
100
AcDbEntity
  8
0
  6
Continuous
 62
     7
370
     0
100
AcDbSpline
210
0.0
220
0.0
230
1.0
 70
     8
 71
     3
 72
    11
 73
     7
 74
     0
 42
0.00000001
 43
0.00000001
 12
1.0
 22
0.0
 32
0.0
 13
1.0
 23
0.0
 33
0.0
 40
0.0
 40
0.0
 40
0.0
 40
0.0
 40
0.125032982563066
 40
0.2500700845532237
 40
0.5000704598509507
 40
1.0
 40
1.0
 40
1.0
 40
1.0
 10
199.4064422137622
 20
120.5010882056254
 30
0.0
 10
199.4227269765149
 20
120.4938655261649
 30
0.0
 10
199.4552970385498
 20
120.4794199292803
 30
0.0
 10
199.5238003235631
 20
120.4595925362012
 30
0.0
 10
199.6464530925685
 20
120.4362655057925
 30
0.0
 10
199.753382037555
 20
120.4335244955778
 30
0.0
 10
199.8246646163596
 20
120.4316972421932
 30
0.0
  0
SPLINE
  5
E1
330
1F
100
AcDbEntity
  8
0
  6
Continuous
 62
     7
370
     0
100
AcDbSpline
210
0.0
220
0.0
230
1.0
 70
     8
 71
     3
 72
    12
 73
     8
 74
     0
 42
0.00000001
 43
0.00000001
 12
1.0
 22
0.0
 32
0.0
 13
1.0
 23
0.0
 33
0.0
 40
0.0
 40
0.0
 40
0.0
 40
0.0
 40
0.1251957226059631
 40
0.2503150525742083
 40
0.4995792443570687
 40
0.7495891195438165
 40
1.0
 40
1.0
 40
1.0
 40
1.0
 10
199.2423797137622
 20
120.7120145343911
 30
0.0
 10
199.2428818325319
 20
120.7002038735344
 30
0.0
 10
199.2438857636857
 20
120.6765897585171
 30
0.0
 10
199.2576571117951
 20
120.6311851976083
 30
0.0
 10
199.2897137954044
 20
120.5806647976407
 30
0.0
 10
199.3437992140081
 20
120.5340484909224
 30
0.0
 10
199.3855500616889
 20
120.512080835217
 30
0.0
 10
199.4064422137622
 20
120.5010882056254
 30
0.0
  0
SPLINE
  5
E2
330
1F
100
AcDbEntity
  8
0
  6
Continuous
 62
     7
370
     0
100
AcDbSpline
210
0.0
220
0.0
230
1.0
 70
     8
 71
     3
 72
    11
 73
     7
 74
     0
 42
0.00000001
 43
0.00000001
 12
1.0
 22
0.0
 32
0.0
 13
1.0
 23
0.0
 33
0.0
 40
0.0
 40
0.0
 40
0.0
 40
0.0
 40
0.2687117022909336
 40
0.5000065888894932
 40
0.7001348749111269
 40
1.0
 40
1.0
 40
1.0
 40
1.0
 10
199.313300979996
 20
120.8569000477519
 30
0.0
 10
199.3024671994233
 20
120.8465937579487
 30
0.0
 10
199.2823081902595
 20
120.8274162797641
 30
0.0
 10
199.2607121588794
 20
120.7947197781455
 30
0.0
 10
199.2457507093615
 20
120.7565586619557
 30
0.0
 10
199.2436434922572
 20
120.7287140253381
 30
0.0
 10
199.2423797137622
 20
120.7120145343911
 30
0.0
  0
SPLINE
  5
E3
330
1F
100
AcDbEntity
  8
0
  6
Continuous
 62
     7
370
     0
100
AcDbSpline
210
0.0
220
0.0
230
1.0
 70
     8
 71
     3
 72
    10
 73
     6
 74
     0
 42
0.00000001
 43
0.00000001
 12
1.0
 22
0.0
 32
0.0
 13
1.0
 23
0.0
 33
0.0
 40
0.0
 40
0.0
 40
0.0
 40
0.0
 40
0.5000343605160605
 40
0.7500804753414622
 40
1.0
 40
1.0
 40
1.0
 40
1.0
 10
199.4761459475284
 20
120.9202116817793
 30
0.0
 10
199.4474259962205
 20
120.9138848941959
 30
0.0
 10
199.404344407374
 20
120.9043943467201
 30
0.0
 10
199.3490399194475
 20
120.8830356815493
 30
0.0
 10
199.3252119487504
 20
120.8656104550084
 30
0.0
 10
199.313300979996
 20
120.8569000477519
 30
0.0
  0
SPLINE
  5
E4
330
1F
100
AcDbEntity
  8
0
  6
Continuous
 62
     7
370
     0
100
AcDbSpline
210
0.0
220
0.0
230
1.0
 70
     8
 71
     3
 72
     8
 73
     4
 74
     0
 42
0.00000001
 43
0.00000001
 12
1.0
 22
0.0
 32
0.0
 13
1.0
 23
0.0
 33
0.0
 40
0.0
 40
0.0
 40
0.0
 40
0.0
 40
1.0
 40
1.0
 40
1.0
 40
1.0
 10
199.4566654280479
 20
121.076053314066
 30
0.0
 10
199.4631589345414
 20
121.0241071281477
 30
0.0
 10
199.4696524410349
 20
120.9721595914551
 30
0.0
 10
199.4761459475284
 20
120.9202116817793
 30
0.0
  0
SPLINE
  5
E5
330
1F
100
AcDbEntity
  8
0
  6
Continuous
 62
     7
370
     0
100
AcDbSpline
210
0.0
220
0.0
230
1.0
 70
     8
 71
     3
 72
    13
 73
     9
 74
     0
 42
0.00000001
 43
0.00000001
 12
1.0
 22
0.0
 32
0.0
 13
1.0
 23
0.0
 33
0.0
 40
0.0
 40
0.0
 40
0.0
 40
0.0
 40
0.1253229214959713
 40
0.2505891910212141
 40
0.4995627841825591
 40
0.7491942298475138
 40
0.8647858013668226
 40
1.0
 40
1.0
 40
1.0
 40
1.0
 10
199.086535557918
 20
120.7311903824835
 30
0.0
 10
199.0876471347163
 20
120.7545880896024
 30
0.0
 10
199.0898697858267
 20
120.8013729269545
 30
0.0
 10
199.1190059103758
 20
120.8907434533891
 30
0.0
 10
199.1917243935029
 20
120.9866139329077
 30
0.0
 10
199.2954760669271
 20
121.0411346992117
 30
0.0
 10
199.3854497761709
 20
121.0657804915248
 30
0.0
 10
199.4317201711251
 20
121.0724549730994
 30
0.0
 10
199.4566654280479
 20
121.076053314066
 30
0.0
  0
SPLINE
  5
E6
330
1F
100
AcDbEntity
  8
0
  6
Continuous
 62
     7
370
     0
100
AcDbSpline
210
0.0
220
0.0
230
1.0
 70
     8
 71
     3
 72
    16
 73
    12
 74
     0
 42
0.00000001
 43
0.00000001
 12
1.0
 22
0.0
 32
0.0
 13
1.0
 23
0.0
 33
0.0
 40
0.0
 40
0.0
 40
0.0
 40
0.0
 40
0.1252053484654896
 40
0.2504012409005968
 40
0.3830707776461628
 40
0.5006894739712404
 40
0.6297157204491567
 40
0.750465383860932
 40
0.8749428550777208
 40
0.9374440934762426
 40
1.0
 40
1.0
 40
1.0
 40
1.0
 10
199.8946727332427
 20
120.2968814410497
 30
0.0
 10
199.8520698238026
 20
120.2973359651486
 30
0.0
 10
199.7668672224719
 20
120.298244979019
 30
0.0
 10
199.6368156635879
 20
120.3081374529927
 30
0.0
 10
199.5102965105957
 20
120.3270402087491
 30
0.0
 10
199.3852065964905
 20
120.3600557967122
 30
0.0
 10
199.2708150129228
 20
120.4131373246876
 30
0.0
 10
199.1715082063884
 20
120.4951724161197
 30
0.0
 10
199.1132447471765
 20
120.5849385154122
 30
0.0
 10
199.0895895315904
 20
120.6672620807691
 30
0.0
 10
199.0875538457722
 20
120.7098747392729
 30
0.0
 10
199.086535557918
 20
120.7311903824835
 30
0.0
  0
SPLINE
  5
E7
330
1F
100
AcDbEntity
  8
0
  6
Continuous
 62
     7
370
     0
100
AcDbSpline
210
0.0
220
0.0
230
1.0
 70
     8
 71
     3
 72
    12
 73
     8
 74
     0
 42
0.00000001
 43
0.00000001
 12
1.0
 22
0.0
 32
0.0
 13
1.0
 23
0.0
 33
0.0
 40
0.0
 40
0.0
 40
0.0
 40
0.0
 40
0.1249929375320141
 40
0.249988352820378
 40
0.4998834475949931
 40
0.7499169450320808
 40
1.0
 40
1.0
 40
1.0
 40
1.0
 10
199.2448147786973
 20
122.8801319438327
 30
0.0
 10
199.267676619803
 20
122.8931824877705
 30
0.0
 10
199.3134007552087
 20
122.9192838343492
 30
0.0
 10
199.4127143389072
 20
122.955022834616
 30
0.0
 10
199.5415830157727
 20
122.9827989138614
 30
0.0
 10
199.6987264777834
 20
122.999895222439
 30
0.0
 10
199.80398857814
 20
123.0013535161734
 30
0.0
 10
199.8566248436323
 20
123.0020827352933
 30
0.0
  0
SPLINE
  5
E8
330
1F
100
AcDbEntity
  8
0
  6
Continuous
 62
     7
370
     0
100
AcDbSpline
210
0.0
220
0.0
230
1.0
 70
     8
 71
     3
 72
    12
 73
     8
 74
     0
 42
0.00000001
 43
0.00000001
 12
1.0
 22
0.0
 32
0.0
 13
1.0
 23
0.0
 33
0.0
 40
0.0
 40
0.0
 40
0.0
 40
0.0
 40
0.1252396549768587
 40
0.2504179599818341
 40
0.5000538618607597
 40
0.7498676072259411
 40
1.0
 40
1.0
 40
1.0
 40
1.0
 10
199.086535557918
 20
122.6048164685102
 30
0.0
 10
199.0869429574485
 20
122.6186879492824
 30
0.0
 10
199.0877575569404
 20
122.646424115735
 30
0.0
 10
199.0981699950516
 20
122.7009553901275
 30
0.0
 10
199.1241237507855
 20
122.7659728054221
 30
0.0
 10
199.1768973207167
 20
122.8317863100122
 30
0.0
 10
199.222166008501
 20
122.8640098865156
 30
0.0
 10
199.2448147786973
 20
122.8801319438327
 30
0.0
  0
SPLINE
  5
E9
330
1F
100
AcDbEntity
  8
0
  6
Continuous
 62
     7
370
     0
100
AcDbSpline
210
0.0
220
0.0
230
1.0
 70
     8
 71
     3
 72
    15
 73
    11
 74
     0
 42
0.00000001
 43
0.00000001
 12
1.0
 22
0.0
 32
0.0
 13
1.0
 23
0.0
 33
0.0
 40
0.0
 40
0.0
 40
0.0
 40
0.0
 40
0.1252511664806186
 40
0.250493711606959
 40
0.5005606681270495
 40
0.6348746860440105
 40
0.7504894127989676
 40
0.8748893802182292
 40
0.9374179621242281
 40
1.0
 40
1.0
 40
1.0
 40
1.0
 10
199.8566248436323
 20
122.2052973227803
 30
0.0
 10
199.8163325996971
 20
122.2057376008942
 30
0.0
 10
199.7357508852435
 20
122.2066181268165
 30
0.0
 10
199.5753349775159
 20
122.2195115981497
 30
0.0
 10
199.4125479223807
 20
122.2481492346907
 30
0.0
 10
199.2635489902524
 20
122.3110151730199
 30
0.0
 10
199.1649930991194
 20
122.3827499691016
 30
0.0
 10
199.1105560872897
 20
122.466672297774
 30
0.0
 10
199.0890947949512
 20
122.544493134424
 30
0.0
 10
199.087388879891
 20
122.5847029636683
 30
0.0
 10
199.086535557918
 20
122.6048164685102
 30
0.0
  0
SPLINE
  5
EA
330
1F
100
AcDbEntity
  8
0
  6
Continuous
 62
     7
370
     0
100
AcDbSpline
210
0.0
220
0.0
230
1.0
 70
     8
 71
     3
 72
    16
 73
    12
 74
     0
 42
0.00000001
 43
0.00000001
 12
1.0
 22
0.0
 32
0.0
 13
1.0
 23
0.0
 33
0.0
 40
0.0
 40
0.0
 40
0.0
 40
0.0
 40
0.062547979028406
 40
0.1250348464929097
 40
0.2495127039548125
 40
0.3209827069246105
 40
0.3924643609723396
 40
0.4996337873185574
 40
0.749601422808045
 40
0.8747936019449145
 40
1.0
 40
1.0
 40
1.0
 40
1.0
 10
200.6254965968791
 20
122.6029944755826
 30
0.0
 10
200.6245792446335
 20
122.5829243490243
 30
0.0
 10
200.6227454364275
 20
122.5428037051236
 30
0.0
 10
200.5990788078322
 20
122.4657332373701
 30
0.0
 10
200.5519792124051
 20
122.3950651425502
 30
0.0
 10
200.486779396053
 20
122.3389956526562
 30
0.0
 10
200.4196596044033
 20
122.2945638309226
 30
0.0
 10
200.2914451878184
 20
122.2423571728065
 30
0.0
 10
200.1372167996459
 20
122.2180255724159
 30
0.0
 10
199.9771722809412
 20
122.2065912627814
 30
0.0
 10
199.8968088438849
 20
122.2057286524418
 30
0.0
 10
199.8566248436323
 20
122.2052973227803
 30
0.0
  0
SPLINE
  5
EB
330
1F
100
AcDbEntity
  8
0
  6
Continuous
 62
     7
370
     0
100
AcDbSpline
210
0.0
220
0.0
230
1.0
 70
     8
 71
     3
 72
    14
 73
    10
 74
     0
 42
0.00000001
 43
0.00000001
 12
1.0
 22
0.0
 32
0.0
 13
1.0
 23
0.0
 33
0.0
 40
0.0
 40
0.0
 40
0.0
 40
0.0
 40
0.1254827438759681
 40
0.2509572551369186
 40
0.5014869882464025
 40
0.7500309116048791
 40
0.8746627465287558
 40
0.9373002352230878
 40
1.0
 40
1.0
 40
1.0
 40
1.0
 10
199.8566248436323
 20
123.0020827352933
 30
0.0
 10
199.8968574444324
 20
123.0016369779348
 30
0.0
 10
199.9773200064704
 20
123.0007454924628
 30
0.0
 10
200.1378092539085
 20
122.9877043695108
 30
0.0
 10
200.3346152510698
 20
122.953010871946
 30
0.0
 10
200.5230795691153
 20
122.8611778954562
 30
0.0
 10
200.6015277197637
 20
122.7409362085056
 30
0.0
 10
200.6230305081911
 20
122.6632490524527
 30
0.0
 10
200.624674295068
 20
122.6230859864547
 30
0.0
 10
200.6254965968791
 20
122.6029944755826
 30
0.0
  0
SPLINE
  5
EC
330
1F
100
AcDbEntity
  8
0
  6
Continuous
 62
     7
370
     0
100
AcDbSpline
210
0.0
220
0.0
230
1.0
 70
     8
 71
     3
 72
    11
 73
     7
 74
     0
 42
0.00000001
 43
0.00000001
 12
1.0
 22
0.0
 32
0.0
 13
1.0
 23
0.0
 33
0.0
 40
0.0
 40
0.0
 40
0.0
 40
0.0
 40
0.4999666558526491
 40
0.7499522648531692
 40
0.8655687366695679
 40
0.9999999999999999
 40
0.9999999999999999
 40
0.9999999999999999
 40
0.9999999999999999
 10
200.6215396163596
 20
124.9154727787839
 30
0.0
 10
200.6841147579179
 20
124.8482061862945
 30
0.0
 10
200.7779777557516
 20
124.7473059906597
 30
0.0
 10
200.9048210567116
 20
124.650252990578
 30
0.0
 10
200.9835429852565
 20
124.6024256091853
 30
0.0
 10
201.0246583107188
 20
124.5816303149957
 30
0.0
 10
201.0467628306453
 20
124.5704502990377
 30
0.0
  0
LINE
  5
ED
330
1F
100
AcDbEntity
  8
0
  6
Continuous
 62
     7
370
     0
100
AcDbLine
 10
200.5423999828
 20
124.91547297
 30
0.0
 11
200.6215396424
 21
124.91547297
 31
0.0
  0
SPLINE
  5
EE
330
1F
100
AcDbEntity
  8
0
  6
Continuous
 62
     7
370
     0
100
AcDbSpline
210
0.0
220
0.0
230
1.0
 70
     8
 71
     3
 72
    10
 73
     6
 74
     0
 42
0.00000001
 43
0.00000001
 12
1.0
 22
0.0
 32
0.0
 13
1.0
 23
0.0
 33
0.0
 40
0.0
 40
0.0
 40
0.0
 40
0.0
 40
0.2428811558034017
 40
0.4999804408039869
 40
1.0
 40
1.0
 40
1.0
 40
1.0
 10
200.7448147786973
 20
124.6017638123549
 30
0.0
 10
200.7247061521263
 20
124.6245955620271
 30
0.0
 10
200.6833117510512
 20
124.6715956194325
 30
0.0
 10
200.6130813400666
 20
124.7753783481638
 30
0.0
 10
200.5705130995029
 20
124.8597510259081
 30
0.0
 10
200.54240000597
 20
124.9154727787839
 30
0.0
  0
LINE
  5
EF
330
1F
100
AcDbEntity
  8
0
  6
Continuous
 62
     7
370
     0
100
AcDbLine
 10
199.2305087653
 20
124.6017637128
 30
0.0
 11
200.7448147371
 21
124.6017637128
 31
0.0
  0
LINE
  5
F0
330
1F
100
AcDbEntity
  8
0
  6
Continuous
 62
     7
370
     0
100
AcDbLine
 10
199.2305087653
 20
124.6017637128
 30
0.0
 11
199.2305087653
 21
124.499070265
 31
0.0
  0
LINE
  5
F1
330
1F
100
AcDbEntity
  8
0
  6
Continuous
 62
     7
370
     0
100
AcDbLine
 10
200.7448147371
 20
124.499070265
 30
0.0
 11
199.2305087653
 21
124.499070265
 31
0.0
  0
SPLINE
  5
F2
330
1F
100
AcDbEntity
  8
0
  6
Continuous
 62
     7
370
     0
100
AcDbSpline
210
0.0
220
0.0
230
1.0
 70
     8
 71
     3
 72
    11
 73
     7
 74
     0
 42
0.00000001
 43
0.00000001
 12
1.0
 22
0.0
 32
0.0
 13
1.0
 23
0.0
 33
0.0
 40
0.0
 40
0.0
 40
0.0
 40
0.0
 40
0.2843783846391184
 40
0.5000223467489632
 40
0.6940663936897697
 40
1.0
 40
1.0
 40
1.0
 40
1.0
 10
200.5442263046713
 20
124.1845963602851
 30
0.0
 10
200.5601678960547
 20
124.2162548991704
 30
0.0
 10
200.5881979868247
 20
124.2719200895053
 30
0.0
 10
200.630190979422
 20
124.347705779012
 30
0.0
 10
200.6824421118698
 20
124.4202303674364
 30
0.0
 10
200.7211373642533
 20
124.4691416328734
 30
0.0
 10
200.7448147786973
 20
124.4990701701331
 30
0.0
  0
LINE
  5
F3
330
1F
100
AcDbEntity
  8
0
  6
Continuous
 62
     7
370
     0
100
AcDbLine
 10
200.6224528042
 20
124.184596392
 30
0.0
 11
200.5442263063
 21
124.184596392
 31
0.0
  0
SPLINE
  5
F4
330
1F
100
AcDbEntity
  8
0
  6
Continuous
 62
     7
370
     0
100
AcDbSpline
210
0.0
220
0.0
230
1.0
 70
     8
 71
     3
 72
    11
 73
     7
 74
     0
 42
0.00000001
 43
0.00000001
 12
1.0
 22
0.0
 32
0.0
 13
1.0
 23
0.0
 33
0.0
 40
0.0
 40
0.0
 40
0.0
 40
0.0
 40
0.1428746598486543
 40
0.2857531594868727
 40
0.500033204824423
 40
1.0
 40
1.0
 40
1.0
 40
1.0
 10
201.0467628306453
 20
124.5234692404123
 30
0.0
 10
201.023159177094
 20
124.512305177024
 30
0.0
 10
200.9759512356377
 20
124.4899767502107
 30
0.0
 10
200.8991080870616
 20
124.4405478911591
 30
0.0
 10
200.7746633317144
 20
124.3456491882512
 30
0.0
 10
200.6851272627182
 20
124.2509117630161
 30
0.0
 10
200.6224527657102
 20
124.1845963602851
 30
0.0
  0
LINE
  5
F5
330
1F
100
AcDbEntity
  8
0
  6
Continuous
 62
     7
370
     0
100
AcDbLine
 10
201.0467627871
 20
124.5704503195
 30
0.0
 11
201.0467627871
 21
124.5234692866
 31
0.0
  0
LINE
  5
F6
330
1F
100
AcDbEntity
  8
0
  6
Continuous
 62
     7
370
     0
100
AcDbLine
 10
197.3060160264
 20
146.260765188
 30
0.0
 11
197.3060160264
 21
95.4607658019
 31
0.0
  0
LINE
  5
F7
330
1F
100
AcDbEntity
  8
0
  6
Continuous
 62
     7
370
     0
100
AcDbLine
 10
200.4306913906
 20
123.9901620826
 30
0.0
 11
200.4306913906
 21
123.3706546878
 31
0.0
  0
LINE
  5
F8
330
1F
100
AcDbEntity
  8
0
  6
Continuous
 62
     7
370
     0
100
AcDbLine
 10
199.1060160536
 20
123.3706546878
 30
0.0
 11
200.4306913906
 21
123.3706546878
 31
0.0
  0
LINE
  5
F9
330
1F
100
AcDbEntity
  8
0
  6
Continuous
 62
     7
370
     0
100
AcDbLine
 10
199.1060160536
 20
123.3706546878
 30
0.0
 11
199.1060160536
 21
123.2155268477
 31
0.0
  0
LINE
  5
FA
330
1F
100
AcDbEntity
  8
0
  6
Continuous
 62
     7
370
     0
100
AcDbLine
 10
200.6060161249
 20
123.2155268477
 30
0.0
 11
199.1060160536
 21
123.2155268477
 31
0.0
  0
LINE
  5
FB
330
1F
100
AcDbEntity
  8
0
  6
Continuous
 62
     7
370
     0
100
AcDbLine
 10
200.6060161249
 20
123.9901620826
 30
0.0
 11
200.6060161249
 21
123.2155268477
 31
0.0
  0
LINE
  5
FC
330
1F
100
AcDbEntity
  8
0
  6
Continuous
 62
     7
370
     0
100
AcDbLine
 10
200.4306913906
 20
123.9901620826
 30
0.0
 11
200.6060161249
 21
123.9901620826
 31
0.0
  0
SPLINE
  5
FD
330
1F
100
AcDbEntity
  8
0
  6
Continuous
 62
     7
370
     0
100
AcDbSpline
210
0.0
220
0.0
230
1.0
 70
     8
 71
     3
 72
    14
 73
    10
 74
     0
 42
0.00000001
 43
0.00000001
 12
1.0
 22
0.0
 32
0.0
 13
1.0
 23
0.0
 33
0.0
 40
0.0
 40
0.0
 40
0.0
 40
0.0
 40
0.0716150187543069
 40
0.1432023084677995
 40
0.2859674696543457
 40
0.4998846988940563
 40
0.7493386966046547
 40
0.8746339246370637
 40
1.0
 40
1.0
 40
1.0
 40
1.0
 10
199.6125095838921
 20
121.6840691257013
 30
0.0
 10
199.6132198632531
 20
121.7001247682507
 30
0.0
 10
199.614640146958
 20
121.7322298366708
 30
0.0
 10
199.6296387750369
 20
121.7949288079038
 30
0.0
 10
199.6751040659779
 20
121.8810198735409
 30
0.0
 10
199.7756033653716
 20
121.976866374571
 30
0.0
 10
199.9000966340354
 20
122.0286352872357
 30
0.0
 10
200.0109143039498
 20
122.0473768302554
 30
0.0
 10
200.0671402755615
 20
122.0488903540115
 30
0.0
 10
200.0952612072687
 20
122.0496473297819
 30
0.0
  0
SPLINE
  5
FE
330
1F
100
AcDbEntity
  8
0
  6
Continuous
 62
     7
370
     0
100
AcDbSpline
210
0.0
220
0.0
230
1.0
 70
     8
 71
     3
 72
    11
 73
     7
 74
     0
 42
0.00000001
 43
0.00000001
 12
1.0
 22
0.0
 32
0.0
 13
1.0
 23
0.0
 33
0.0
 40
0.0
 40
0.0
 40
0.0
 40
0.0
 40
0.2500788352574252
 40
0.500017520157041
 40
0.7499358821273028
 40
1.0
 40
1.0
 40
1.0
 40
1.0
 10
199.6712555254505
 20
121.4619575365916
 30
0.0
 10
199.6624370327931
 20
121.4792112996293
 30
0.0
 10
199.6448049895795
 20
121.5137091562695
 30
0.0
 10
199.626020726272
 20
121.5688389698146
 30
0.0
 10
199.6146319828821
 20
121.6259926020849
 30
0.0
 10
199.6132171877034
 20
121.6647065225091
 30
0.0
 10
199.6125095838921
 20
121.6840691257013
 30
0.0
  0
SPLINE
  5
FF
330
1F
100
AcDbEntity
  8
0
  6
Continuous
 62
     7
370
     0
100
AcDbSpline
210
0.0
220
0.0
230
1.0
 70
     8
 71
     3
 72
     8
 73
     4
 74
     0
 42
0.00000001
 43
0.00000001
 12
1.0
 22
0.0
 32
0.0
 13
1.0
 23
0.0
 33
0.0
 40
0.0
 40
0.0
 40
0.0
 40
0.0
 40
1.0
 40
1.0
 40
1.0
 40
1.0
 10
199.3008212722038
 20
121.5182511142295
 30
0.0
 10
199.4242993566193
 20
121.4994871115617
 30
0.0
 10
199.5477774410349
 20
121.4807225703114
 30
0.0
 10
199.6712555254505
 20
121.4619575365916
 30
0.0
  0
LINE
  5
100
330
1F
100
AcDbEntity
  8
0
  6
Continuous
 62
     7
370
     0
100
AcDbLine
 10
199.3008212622
 20
121.991266769
 30
0.0
 11
199.3008212622
 21
121.5182511183
 31
0.0
  0
LINE
  5
101
330
1F
100
AcDbEntity
  8
0
  6
Continuous
 62
     7
370
     0
100
AcDbLine
 10
199.1254965862
 20
121.991266769
 30
0.0
 11
199.3008212622
 21
121.991266769
 31
0.0
  0
LINE
  5
102
330
1F
100
AcDbEntity
  8
0
  6
Continuous
 62
     7
370
     0
100
AcDbLine
 10
199.1254965862
 20
121.991266769
 30
0.0
 11
199.1254965862
 21
121.3877064107
 31
0.0
  0
SPLINE
  5
103
330
1F
100
AcDbEntity
  8
0
  6
Continuous
 62
     7
370
     0
100
AcDbSpline
210
0.0
220
0.0
230
1.0
 70
     8
 71
     3
 72
     8
 73
     4
 74
     0
 42
0.00000001
 43
0.00000001
 12
1.0
 22
0.0
 32
0.0
 13
1.0
 23
0.0
 33
0.0
 40
0.0
 40
0.0
 40
0.0
 40
0.0
 40
1.0
 40
1.0
 40
1.0
 40
1.0
 10
199.8940639670089
 20
121.2708432698466
 30
0.0
 10
199.6378748436323
 20
121.3097992307939
 30
0.0
 10
199.3816857202557
 20
121.3487537444632
 30
0.0
 10
199.1254965968791
 20
121.3877063984128
 30
0.0
  0
SPLINE
  5
104
330
1F
100
AcDbEntity
  8
0
  6
Continuous
 62
     7
370
     0
100
AcDbSpline
210
0.0
220
0.0
230
1.0
 70
     8
 71
     3
 72
     8
 73
     4
 74
     0
 42
0.00000001
 43
0.00000001
 12
1.0
 22
0.0
 32
0.0
 13
1.0
 23
0.0
 33
0.0
 40
0.0
 40
0.0
 40
0.0
 40
0.0
 40
1.0
 40
1.0
 40
1.0
 40
1.0
 10
199.9162839345414
 20
121.426658417182
 30
0.0
 10
199.9088772786972
 20
121.3747232594299
 30
0.0
 10
199.9014706228531
 20
121.3227845511097
 30
0.0
 10
199.8940639670089
 20
121.2708432698466
 30
0.0
  0
SPLINE
  5
105
330
1F
100
AcDbEntity
  8
0
  6
Continuous
 62
     7
370
     0
100
AcDbSpline
210
0.0
220
0.0
230
1.0
 70
     8
 71
     3
 72
    12
 73
     8
 74
     0
 42
0.00000001
 43
0.00000001
 12
1.0
 22
0.0
 32
0.0
 13
1.0
 23
0.0
 33
0.0
 40
0.0
 40
0.0
 40
0.0
 40
0.0
 40
0.1252356836856652
 40
0.2503787278448303
 40
0.5000836829238063
 40
0.7499021074018759
 40
1.0
 40
1.0
 40
1.0
 40
1.0
 10
199.7683537397362
 20
121.6405640238516
 30
0.0
 10
199.7688655709916
 20
121.6291179859673
 30
0.0
 10
199.7698888548897
 20
121.6062343770789
 30
0.0
 10
199.7813871536617
 20
121.5617430511793
 30
0.0
 10
199.8083877315117
 20
121.5106718517053
 30
0.0
 10
199.8561293323973
 20
121.4600612770458
 30
0.0
 10
199.8962249289489
 20
121.4377968526289
 30
0.0
 10
199.9162839345414
 20
121.426658417182
 30
0.0
  0
SPLINE
  5
106
330
1F
100
AcDbEntity
  8
0
  6
Continuous
 62
     7
370
     0
100
AcDbSpline
210
0.0
220
0.0
230
1.0
 70
     8
 71
     3
 72
    12
 73
     8
 74
     0
 42
0.00000001
 43
0.00000001
 12
1.0
 22
0.0
 32
0.0
 13
1.0
 23
0.0
 33
0.0
 40
0.0
 40
0.0
 40
0.0
 40
0.0
 40
0.2506944843951239
 40
0.5005043650406437
 40
0.7494938121473085
 40
0.8746991253656994
 40
1.0
 40
1.0
 40
1.0
 40
1.0
 10
200.1037839345414
 20
121.8939525808173
 30
0.0
 10
200.0644210311516
 20
121.8922159458712
 30
0.0
 10
199.985834120814
 20
121.8887488038913
 30
0.0
 10
199.8737026543705
 20
121.8452185765642
 30
0.0
 10
199.8025376666708
 20
121.7730001738817
 30
0.0
 10
199.7720899994721
 20
121.699587524933
 30
0.0
 10
199.7695994763375
 20
121.6602435271066
 30
0.0
 10
199.7683537397362
 20
121.6405640238516
 30
0.0
  0
SPLINE
  5
107
330
1F
100
AcDbEntity
  8
0
  6
Continuous
 62
     7
370
     0
100
AcDbSpline
210
0.0
220
0.0
230
1.0
 70
     8
 71
     3
 72
    15
 73
    11
 74
     0
 42
0.00000001
 43
0.00000001
 12
1.0
 22
0.0
 32
0.0
 13
1.0
 23
0.0
 33
0.0
 40
0.0
 40
0.0
 40
0.0
 40
0.0
 40
0.0671957795589742
 40
0.1251134564478004
 40
0.2499060872971453
 40
0.3749045058559849
 40
0.50000269727747
 40
0.7495414104981329
 40
0.8632876180201523
 40
1.0
 40
1.0
 40
1.0
 40
1.0
 10
200.4696524410349
 20
121.636608899121
 30
0.0
 10
200.4690137468798
 20
121.6477195645531
 30
0.0
 10
200.4678245466967
 20
121.6684067827798
 30
0.0
 10
200.4590210924082
 20
121.7089734889717
 30
0.0
 10
200.4357781501484
 20
121.7552975528015
 30
0.0
 10
200.3938430093325
 20
121.801593099853
 30
0.0
 10
200.3277861460882
 20
121.8521077593226
 30
0.0
 10
200.2497882786693
 20
121.8798486074636
 30
0.0
 10
200.1678956556033
 20
121.8919265222709
 30
0.0
 10
200.1264221660846
 20
121.8932371674462
 30
0.0
 10
200.1037839345414
 20
121.8939525808173
 30
0.0
  0
SPLINE
  5
108
330
1F
100
AcDbEntity
  8
0
  6
Continuous
 62
     7
370
     0
100
AcDbSpline
210
0.0
220
0.0
230
1.0
 70
     8
 71
     3
 72
    13
 73
     9
 74
     0
 42
0.00000001
 43
0.00000001
 12
1.0
 22
0.0
 32
0.0
 13
1.0
 23
0.0
 33
0.0
 40
0.0
 40
0.0
 40
0.0
 40
0.0
 40
0.2503702502097852
 40
0.5001052875547942
 40
0.6145260243890094
 40
0.7857161668471911
 40
0.8714922286697271
 40
1.0
 40
1.0
 40
1.0
 40
1.0
 10
200.1774446488271
 20
121.4071825685018
 30
0.0
 10
200.2110418304203
 20
121.4123984013288
 30
0.0
 10
200.2781509543982
 20
121.4228168339244
 30
0.0
 10
200.3566145860286
 20
121.4556448034694
 30
0.0
 10
200.4136755427266
 20
121.501043447244
 30
0.0
 10
200.4455386103793
 20
121.5412057020085
 30
0.0
 10
200.4660225260054
 20
121.589905559349
 30
0.0
 10
200.4682916367315
 20
121.6191004711744
 30
0.0
 10
200.4696524410349
 20
121.636608899121
 30
0.0
  0
SPLINE
  5
109
330
1F
100
AcDbEntity
  8
0
  6
Continuous
 62
     7
370
     0
100
AcDbSpline
210
0.0
220
0.0
230
1.0
 70
     8
 71
     3
 72
     8
 73
     4
 74
     0
 42
0.00000001
 43
0.00000001
 12
1.0
 22
0.0
 32
0.0
 13
1.0
 23
0.0
 33
0.0
 40
0.0
 40
0.0
 40
0.0
 40
0.0
 40
1.0
 40
1.0
 40
1.0
 40
1.0
 10
200.1969251683076
 20
121.2513651706762
 30
0.0
 10
200.1904316618141
 20
121.3033070798964
 30
0.0
 10
200.1839381553206
 20
121.3552465383847
 30
0.0
 10
200.1774446488271
 20
121.4071825685018
 30
0.0
  0
SPLINE
  5
10A
330
1F
100
AcDbEntity
  8
0
  6
Continuous
 62
     7
370
     0
100
AcDbSpline
210
0.0
220
0.0
230
1.0
 70
     8
 71
     3
 72
    13
 73
     9
 74
     0
 42
0.00000001
 43
0.00000001
 12
1.0
 22
0.0
 32
0.0
 13
1.0
 23
0.0
 33
0.0
 40
0.0
 40
0.0
 40
0.0
 40
0.0
 40
0.1252979724012309
 40
0.2505479492188886
 40
0.4996504656309608
 40
0.7491367961713563
 40
0.8745560122733987
 40
0.9999999999999999
 40
0.9999999999999999
 40
0.9999999999999999
 40
0.9999999999999999
 10
200.6254965968791
 20
121.638130103174
 30
0.0
 10
200.6240762300398
 20
121.6114068550939
 30
0.0
 10
200.621236040435
 20
121.5579705953154
 30
0.0
 10
200.5863366330044
 20
121.456205968296
 30
0.0
 10
200.5003982539632
 20
121.3491345857662
 30
0.0
 10
200.3801760307285
 20
121.2859582209634
 30
0.0
 10
200.2766803399228
 20
121.2595936738893
 30
0.0
 10
200.2235119755591
 20
121.2541081856364
 30
0.0
 10
200.1969251683076
 20
121.2513651706762
 30
0.0
  0
SPLINE
  5
10B
330
1F
100
AcDbEntity
  8
0
  6
Continuous
 62
     7
370
     0
100
AcDbSpline
210
0.0
220
0.0
230
1.0
 70
     8
 71
     3
 72
    14
 73
    10
 74
     0
 42
0.00000001
 43
0.00000001
 12
1.0
 22
0.0
 32
0.0
 13
1.0
 23
0.0
 33
0.0
 40
0.0
 40
0.0
 40
0.0
 40
0.0
 40
0.1254503143219165
 40
0.2508643752892165
 40
0.5007647188434741
 40
0.7494477027970826
 40
0.874548646661646
 40
0.9372588824514376
 40
1.0
 40
1.0
 40
1.0
 40
1.0
 10
200.0952612072687
 20
122.0496473297819
 30
0.0
 10
200.1265071660147
 20
122.0486692138104
 30
0.0
 10
200.1889900538696
 20
122.0467132645289
 30
0.0
 10
200.3118214803452
 20
122.0227032750935
 30
0.0
 10
200.4562404787034
 20
121.9606360986641
 30
0.0
 10
200.5736659145413
 20
121.8493639813704
 30
0.0
 10
200.6132244808848
 20
121.7465109442089
 30
0.0
 10
200.6241104086208
 20
121.6849783427533
 30
0.0
 10
200.6250344583034
 20
121.6537487455806
 30
0.0
 10
200.6254965968791
 20
121.638130103174
 30
0.0
  0
LINE
  5
10C
330
1F
100
AcDbEntity
  8
0
  6
Continuous
 62
     7
370
     0
100
AcDbLine
 10
200.0021199666
 20
119.6787556797
 30
0.0
 11
200.0021199666
 21
119.3626401179
 31
0.0
  0
SPLINE
  5
10D
330
1F
100
AcDbEntity
  8
0
  6
Continuous
 62
     7
370
     0
100
AcDbSpline
210
0.0
220
0.0
230
1.0
 70
     8
 71
     3
 72
    15
 73
    11
 74
     0
 42
0.00000001
 43
0.00000001
 12
1.0
 22
0.0
 32
0.0
 13
1.0
 23
0.0
 33
0.0
 40
0.0
 40
0.0
 40
0.0
 40
0.0
 40
0.1429545597213982
 40
0.2858259307256618
 40
0.3930115961467938
 40
0.5001405448350671
 40
0.6181942514790063
 40
0.7497632715744822
 40
0.8748286417272916
 40
1.0
 40
1.0
 40
1.0
 40
1.0
 10
199.5406751683076
 20
120.1410872849996
 30
0.0
 10
199.5763792895053
 20
120.139746926377
 30
0.0
 10
199.6477667548085
 20
120.137066989119
 30
0.0
 10
199.7437614959669
 20
120.1126102894568
 30
0.0
 10
199.8243521604523
 20
120.0739410256248
 30
0.0
 10
199.892821942129
 20
120.0258704783168
 30
0.0
 10
199.9482515926009
 20
119.9543792471991
 30
0.0
 10
199.9826577751681
 20
119.8664996401115
 30
0.0
 10
199.9996762127264
 20
119.7723865600971
 30
0.0
 10
200.0013051565966
 20
119.7099747707455
 30
0.0
 10
200.0021199735025
 20
119.6787556587689
 30
0.0
  0
SPLINE
  5
10E
330
1F
100
AcDbEntity
  8
0
  6
Continuous
 62
     7
370
     0
100
AcDbSpline
210
0.0
220
0.0
230
1.0
 70
     8
 71
     3
 72
    14
 73
    10
 74
     0
 42
0.00000001
 43
0.00000001
 12
1.0
 22
0.0
 32
0.0
 13
1.0
 23
0.0
 33
0.0
 40
0.0
 40
0.0
 40
0.0
 40
0.0
 40
0.0745601870303218
 40
0.1430363259402321
 40
0.2502753544418672
 40
0.4996559586217005
 40
0.6996146735485747
 40
0.840656500597625
 40
1.0
 40
1.0
 40
1.0
 40
1.0
 10
199.1349324735025
 20
119.9086653577733
 30
0.0
 10
199.1396743391866
 20
119.9201041428528
 30
0.0
 10
199.1487711383307
 20
119.9420483178363
 30
0.0
 10
199.1694441505244
 20
119.9782092059373
 30
0.0
 10
199.2132786369567
 20
120.033891263846
 30
0.0
 10
199.289484680018
 20
120.0898625340964
 30
0.0
 10
199.3822534772522
 20
120.1236745849625
 30
0.0
 10
199.4643072121152
 20
120.1384156470487
 30
0.0
 10
199.5142057874519
 20
120.1401612866365
 30
0.0
 10
199.5406751683076
 20
120.1410872849996
 30
0.0
  0
SPLINE
  5
10F
330
1F
100
AcDbEntity
  8
0
  6
Continuous
 62
     7
370
     0
100
AcDbSpline
210
0.0
220
0.0
230
1.0
 70
     8
 71
     3
 72
    11
 73
     7
 74
     0
 42
0.00000001
 43
0.00000001
 12
1.0
 22
0.0
 32
0.0
 13
1.0
 23
0.0
 33
0.0
 40
0.0
 40
0.0
 40
0.0
 40
0.0
 40
0.2729389191732804
 40
0.500136088788852
 40
0.7501730734356025
 40
1.0
 40
1.0
 40
1.0
 40
1.0
 10
199.1060160773986
 20
119.6684179431016
 30
0.0
 10
199.1061557904433
 20
119.6905325990029
 30
0.0
 10
199.1064118020665
 20
119.7310557224217
 30
0.0
 10
199.1108292139167
 20
119.7916443151009
 30
0.0
 10
199.1174137394389
 20
119.8503774913822
 30
0.0
 10
199.1290945316898
 20
119.8892415129259
 30
0.0
 10
199.1349324735025
 20
119.9086653577733
 30
0.0
  0
LINE
  5
110
330
1F
100
AcDbEntity
  8
0
  6
Continuous
 62
     7
370
     0
100
AcDbLine
 10
199.1060160536
 20
119.6684179991
 30
0.0
 11
199.1060160536
 21
119.2070964422
 31
0.0
  0
LINE
  5
111
330
1F
100
AcDbEntity
  8
0
  6
Continuous
 62
     7
370
     0
100
AcDbLine
 10
200.6060161249
 20
119.2070964422
 30
0.0
 11
199.1060160536
 21
119.2070964422
 31
0.0
  0
LINE
  5
112
330
1F
100
AcDbEntity
  8
0
  6
Continuous
 62
     7
370
     0
100
AcDbLine
 10
200.6060161249
 20
119.3626401179
 30
0.0
 11
200.6060161249
 21
119.2070964422
 31
0.0
  0
LINE
  5
113
330
1F
100
AcDbEntity
  8
0
  6
Continuous
 62
     7
370
     0
100
AcDbLine
 10
200.0021199666
 20
119.3626401179
 30
0.0
 11
200.6060161249
 21
119.3626401179
 31
0.0
  0
SPLINE
  5
114
330
1F
100
AcDbEntity
  8
0
  6
Continuous
 62
     7
370
     0
100
AcDbSpline
210
0.0
220
0.0
230
1.0
 70
     8
 71
     3
 72
     8
 73
     4
 74
     0
 42
0.00000001
 43
0.00000001
 12
1.0
 22
0.0
 32
0.0
 13
1.0
 23
0.0
 33
0.0
 40
0.0
 40
0.0
 40
0.0
 40
0.0
 40
1.0
 40
1.0
 40
1.0
 40
1.0
 10
200.6060160773986
 20
117.334137902074
 30
0.0
 10
200.1696321488271
 20
117.2162768329023
 30
0.0
 10
199.7332482202557
 20
117.0985319047139
 30
0.0
 10
199.2968642916843
 20
116.9809147499017
 30
0.0
  0
LINE
  5
115
330
1F
100
AcDbEntity
  8
0
  6
Continuous
 62
     7
370
     0
100
AcDbLine
 10
200.6060161249
 20
117.4921582384
 30
0.0
 11
200.6060161249
 21
117.3341379432
 31
0.0
  0
SPLINE
  5
116
330
1F
100
AcDbEntity
  8
0
  6
Continuous
 62
     7
370
     0
100
AcDbSpline
210
0.0
220
0.0
230
1.0
 70
     8
 71
     3
 72
     8
 73
     4
 74
     0
 42
0.00000001
 43
0.00000001
 12
1.0
 22
0.0
 32
0.0
 13
1.0
 23
0.0
 33
0.0
 40
0.0
 40
0.0
 40
0.0
 40
0.0
 40
1.0
 40
1.0
 40
1.0
 40
1.0
 10
199.367785557918
 20
117.8493893215183
 30
0.0
 10
199.7805290644116
 20
117.730207459012
 30
0.0
 10
200.193272570905
 20
117.6111264670942
 30
0.0
 10
200.6060160773986
 20
117.4921583115866
 30
0.0
  0
LINE
  5
117
330
1F
100
AcDbEntity
  8
0
  6
Continuous
 62
     7
370
     0
100
AcDbLine
 10
200.6060161249
 20
117.8493893636
 30
0.0
 11
199.3677855527
 21
117.8493893636
 31
0.0
  0
LINE
  5
118
330
1F
100
AcDbEntity
  8
0
  6
Continuous
 62
     7
370
     0
100
AcDbLine
 10
200.6060161249
 20
118.0041900767
 30
0.0
 11
200.6060161249
 21
117.8493893636
 31
0.0
  0
LINE
  5
119
330
1F
100
AcDbEntity
  8
0
  6
Continuous
 62
     7
370
     0
100
AcDbLine
 10
199.1060160536
 20
118.0041900767
 30
0.0
 11
200.6060161249
 21
118.0041900767
 31
0.0
  0
LINE
  5
11A
330
1F
100
AcDbEntity
  8
0
  6
Continuous
 62
     7
370
     0
100
AcDbLine
 10
199.1060160536
 20
118.0041900767
 30
0.0
 11
199.1060160536
 21
117.7850228665
 31
0.0
  0
SPLINE
  5
11B
330
1F
100
AcDbEntity
  8
0
  6
Continuous
 62
     7
370
     0
100
AcDbSpline
210
0.0
220
0.0
230
1.0
 70
     8
 71
     3
 72
     8
 73
     4
 74
     0
 42
0.00000001
 43
0.00000001
 12
1.0
 22
0.0
 32
0.0
 13
1.0
 23
0.0
 33
0.0
 40
0.0
 40
0.0
 40
0.0
 40
0.0
 40
1.0
 40
1.0
 40
1.0
 40
1.0
 10
200.1497457851908
 20
117.4819009821293
 30
0.0
 10
199.8018358825934
 20
117.5828625260249
 30
0.0
 10
199.4539259799959
 20
117.6839055902058
 30
0.0
 10
199.1060160773986
 20
117.7850228614594
 30
0.0
  0
ARC
  5
11C
330
1F
100
AcDbEntity
  8
0
  6
Continuous
 62
     7
370
     0
100
AcDbCircle
 10
204.8558554603
 20
133.8428588505
 30
0.0
 40
17.02434768144768
100
AcDbArc
 50
253.9525064884
 51
254.7928598794
  0
SPLINE
  5
11D
330
1F
100
AcDbEntity
  8
0
  6
Continuous
 62
     7
370
     0
100
AcDbSpline
210
0.0
220
0.0
230
1.0
 70
     8
 71
     3
 72
     8
 73
     4
 74
     0
 42
0.00000001
 43
0.00000001
 12
1.0
 22
0.0
 32
0.0
 13
1.0
 23
0.0
 33
0.0
 40
0.0
 40
0.0
 40
0.0
 40
0.0
 40
1.0
 40
1.0
 40
1.0
 40
1.0
 10
200.1680087722038
 20
117.356746945374
 30
0.0
 10
200.2420753306453
 20
117.3760412059326
 30
0.0
 10
200.3161418890869
 20
117.3953385581495
 30
0.0
 10
200.3902084475284
 20
117.4146389509455
 30
0.0
  0
SPLINE
  5
11E
330
1F
100
AcDbEntity
  8
0
  6
Continuous
 62
     7
370
     0
100
AcDbSpline
210
0.0
220
0.0
230
1.0
 70
     8
 71
     3
 72
     8
 73
     4
 74
     0
 42
0.00000001
 43
0.00000001
 12
1.0
 22
0.0
 32
0.0
 13
1.0
 23
0.0
 33
0.0
 40
0.0
 40
0.0
 40
0.0
 40
0.0
 40
1.0
 40
1.0
 40
1.0
 40
1.0
 10
199.1060160773986
 20
117.0678722626191
 30
0.0
 10
199.4600136423336
 20
117.1640824530278
 30
0.0
 10
199.8140112072687
 20
117.2603761335213
 30
0.0
 10
200.1680087722038
 20
117.356746945374
 30
0.0
  0
LINE
  5
11F
330
1F
100
AcDbEntity
  8
0
  6
Continuous
 62
     7
370
     0
100
AcDbLine
 10
199.1060160536
 20
117.0678723535
 30
0.0
 11
199.1060160536
 21
116.8269736623
 31
0.0
  0
LINE
  5
120
330
1F
100
AcDbEntity
  8
0
  6
Continuous
 62
     7
370
     0
100
AcDbLine
 10
200.6060161249
 20
116.8269736623
 30
0.0
 11
199.1060160536
 21
116.8269736623
 31
0.0
  0
LINE
  5
121
330
1F
100
AcDbEntity
  8
0
  6
Continuous
 62
     7
370
     0
100
AcDbLine
 10
200.6060161249
 20
116.9809147647
 30
0.0
 11
200.6060161249
 21
116.8269736623
 31
0.0
  0
LINE
  5
122
330
1F
100
AcDbEntity
  8
0
  6
Continuous
 62
     7
370
     0
100
AcDbLine
 10
199.2968643055
 20
116.9809147647
 30
0.0
 11
200.6060161249
 21
116.9809147647
 31
0.0
  0
LINE
  5
123
330
1F
100
AcDbEntity
  8
0
  6
Continuous
 62
     7
370
     0
100
AcDbLine
 10
197.1060161333
 20
95.6607654622
 30
0.0
 11
197.1060161333
 21
146.0607655277
 31
0.0
  0
SPLINE
  5
124
330
1F
100
AcDbEntity
  8
0
  6
Continuous
 62
     7
370
     0
100
AcDbSpline
210
0.0
220
0.0
230
1.0
 70
     8
 71
     3
 72
    13
 73
     9
 74
     0
 42
0.00000001
 43
0.00000001
 12
1.0
 22
0.0
 32
0.0
 13
1.0
 23
0.0
 33
0.0
 40
0.0
 40
0.0
 40
0.0
 40
0.0
 40
0.0677457724388235
 40
0.1252098677033721
 40
0.2501894009231064
 40
0.4995793795813416
 40
0.7494545782890037
 40
1.0
 40
1.0
 40
1.0
 40
1.0
 10
200.4696524410349
 20
120.7089707564948
 30
0.0
 10
200.4689329502749
 20
120.7193458982117
 30
0.0
 10
200.4676031648191
 20
120.7385215615042
 30
0.0
 10
200.4578098668842
 20
120.7758366990203
 30
0.0
 10
200.4238853217121
 20
120.8338956464983
 30
0.0
 10
200.3479341259787
 20
120.8964438558559
 30
0.0
 10
200.237463053141
 20
120.935108472101
 30
0.0
 10
200.1605533009888
 20
120.9381628794344
 30
0.0
 10
200.1220469215544
 20
120.9396921285145
 30
0.0
  0
SPLINE
  5
125
330
1F
100
AcDbEntity
  8
0
  6
Continuous
 62
     7
370
     0
100
AcDbSpline
210
0.0
220
0.0
230
1.0
 70
     8
 71
     3
 72
    14
 73
    10
 74
     0
 42
0.00000001
 43
0.00000001
 12
1.0
 22
0.0
 32
0.0
 13
1.0
 23
0.0
 33
0.0
 40
0.0
 40
0.0
 40
0.0
 40
0.0
 40
0.1252819797020131
 40
0.2505428192578552
 40
0.5000105362354598
 40
0.6429941318893123
 40
0.7857736093120211
 40
0.8928635650157677
 40
1.0
 40
1.0
 40
1.0
 40
1.0
 10
200.1107847462297
 20
120.4526968247567
 30
0.0
 10
200.1311647060303
 20
120.4532225365981
 30
0.0
 10
200.1719211867064
 20
120.454273871572
 30
0.0
 10
200.2522601327972
 20
120.4673593451698
 30
0.0
 10
200.3326487627678
 20
120.4979919097586
 30
0.0
 10
200.4010350278428
 20
120.552780916045
 30
0.0
 10
200.4420623005411
 20
120.6024713302989
 30
0.0
 10
200.4658577648724
 20
120.6565544974232
 30
0.0
 10
200.4683873660371
 20
120.6914961431185
 30
0.0
 10
200.4696524410349
 20
120.7089707564948
 30
0.0
  0
SPLINE
  5
126
330
1F
100
AcDbEntity
  8
0
  6
Continuous
 62
     7
370
     0
100
AcDbSpline
210
0.0
220
0.0
230
1.0
 70
     8
 71
     3
 72
    14
 73
    10
 74
     0
 42
0.00000001
 43
0.00000001
 12
1.0
 22
0.0
 32
0.0
 13
1.0
 23
0.0
 33
0.0
 40
0.0
 40
0.0
 40
0.0
 40
0.0
 40
0.1144356875073058
 40
0.2003713295848232
 40
0.4984103036991345
 40
0.6237110237575351
 40
0.7490634341887155
 40
0.8745111876145706
 40
0.9999999999999999
 40
0.9999999999999999
 40
0.9999999999999999
 40
0.9999999999999999
 10
199.7878342592167
 20
120.6986219282141
 30
0.0
 10
199.7890065897347
 20
120.6813871136963
 30
0.0
 10
199.7910592835202
 20
120.651209790736
 30
0.0
 10
199.8174607890278
 20
120.5805821907715
 30
0.0
 10
199.8719925060766
 20
120.5209403950011
 30
0.0
 10
199.944635020732
 20
120.4818115632684
 30
0.0
 10
199.9983704133196
 20
120.4636478996251
 30
0.0
 10
200.0542812386933
 20
120.4542677379567
 30
0.0
 10
200.0919481893262
 20
120.4532205196063
 30
0.0
 10
200.1107847462297
 20
120.4526968247567
 30
0.0
  0
SPLINE
  5
127
330
1F
100
AcDbEntity
  8
0
  6
Continuous
 62
     7
370
     0
100
AcDbSpline
210
0.0
220
0.0
230
1.0
 70
     8
 71
     3
 72
    13
 73
     9
 74
     0
 42
0.00000001
 43
0.00000001
 12
1.0
 22
0.0
 32
0.0
 13
1.0
 23
0.0
 33
0.0
 40
0.0
 40
0.0
 40
0.0
 40
0.0
 40
0.2504111791646292
 40
0.5000518226440579
 40
0.6997868544308458
 40
0.8496384647618273
 40
0.9247819825995228
 40
1.0
 40
1.0
 40
1.0
 40
1.0
 10
200.1220469215544
 20
120.9396921285145
 30
0.0
 10
200.0836384683619
 20
120.9380832909609
 30
0.0
 10
200.0069397479296
 20
120.9348705663784
 30
0.0
 10
199.9041609466199
 20
120.8968150394045
 30
0.0
 10
199.8332935533223
 20
120.8356460852176
 30
0.0
 10
199.8008949087427
 20
120.7779563677603
 30
0.0
 10
199.7893913297387
 20
120.7331704893423
 30
0.0
 10
199.7883534541359
 20
120.7101419185754
 30
0.0
 10
199.7878342592167
 20
120.6986219282141
 30
0.0
  0
LINE
  5
128
330
1F
100
AcDbEntity
  8
0
  6
Continuous
 62
     7
370
     0
100
AcDbLine
 10
199.8267953051
 20
119.6884854395
 30
0.0
 11
199.8267953051
 21
119.3626401179
 31
0.0
  0
SPLINE
  5
129
330
1F
100
AcDbEntity
  8
0
  6
Continuous
 62
     7
370
     0
100
AcDbSpline
210
0.0
220
0.0
230
1.0
 70
     8
 71
     3
 72
    13
 73
     9
 74
     0
 42
0.00000001
 43
0.00000001
 12
1.0
 22
0.0
 32
0.0
 13
1.0
 23
0.0
 33
0.0
 40
0.0
 40
0.0
 40
0.0
 40
0.0
 40
0.1257431705301028
 40
0.251403204778073
 40
0.5004854116416132
 40
0.7488453632207661
 40
0.9161634980058073
 40
1.0
 40
1.0
 40
1.0
 40
1.0
 10
199.8267952981778
 20
119.6884854527952
 30
0.0
 10
199.8263067582146
 20
119.7080111207264
 30
0.0
 10
199.825330001291
 20
119.7470495470094
 30
0.0
 10
199.8129100324224
 20
119.8235777653772
 30
0.0
 10
199.7723947601759
 20
119.9166943477884
 30
0.0
 10
199.6777025413201
 20
119.9710449372645
 30
0.0
 10
199.600903165628
 20
119.9840191071734
 30
0.0
 10
199.5619096997191
 20
119.9849945983711
 30
0.0
 10
199.5488935124635
 20
119.9853202215442
 30
0.0
  0
SPLINE
  5
12A
330
1F
100
AcDbEntity
  8
0
  6
Continuous
 62
     7
370
     0
100
AcDbSpline
210
0.0
220
0.0
230
1.0
 70
     8
 71
     3
 72
    14
 73
    10
 74
     0
 42
0.00000001
 43
0.00000001
 12
1.0
 22
0.0
 32
0.0
 13
1.0
 23
0.0
 33
0.0
 40
0.0
 40
0.0
 40
0.0
 40
0.0
 40
0.1251692025470937
 40
0.2502774400662945
 40
0.3752942969246997
 40
0.5002256764783135
 40
0.624740884272907
 40
0.7496892273597416
 40
0.9999999999999999
 40
0.9999999999999999
 40
0.9999999999999999
 40
0.9999999999999999
 10
199.5488935124635
 20
119.9853202215442
 30
0.0
 10
199.5293712156515
 20
119.9846556019365
 30
0.0
 10
199.4903361305754
 20
119.9833266864316
 30
0.0
 10
199.4330099456669
 20
119.9696164956426
 30
0.0
 10
199.3797524704606
 20
119.9447371075606
 30
0.0
 10
199.3326989697736
 20
119.9093518272302
 30
0.0
 10
199.2984502472497
 20
119.8601674327504
 30
0.0
 10
199.2834173974187
 20
119.7826953793392
 30
0.0
 10
199.2821716855221
 20
119.7243579505801
 30
0.0
 10
199.2813407527233
 20
119.6854448735766
 30
0.0
  0
LINE
  5
12B
330
1F
100
AcDbEntity
  8
0
  6
Continuous
 62
     7
370
     0
100
AcDbLine
 10
199.2813407588
 20
119.6854449041
 30
0.0
 11
199.2813407588
 21
119.3626401179
 31
0.0
  0
LINE
  5
12C
330
1F
100
AcDbEntity
  8
0
  6
Continuous
 62
     7
370
     0
100
AcDbLine
 10
199.2813407588
 20
119.3626401179
 30
0.0
 11
199.8267953051
 21
119.3626401179
 31
0.0
  0
SPLINE
  5
12D
330
1F
100
AcDbEntity
  8
0
  6
Continuous
 62
     7
370
     0
100
AcDbSpline
210
0.0
220
0.0
230
1.0
 70
     8
 71
     3
 72
    14
 73
    10
 74
     0
 42
0.00000001
 43
0.00000001
 12
1.0
 22
0.0
 32
0.0
 13
1.0
 23
0.0
 33
0.0
 40
0.0
 40
0.0
 40
0.0
 40
0.0
 40
0.2504567050928235
 40
0.5007685906461226
 40
0.625864467971912
 40
0.7507010938702152
 40
0.8751098530209156
 40
0.9375424545412298
 40
1.0
 40
1.0
 40
1.0
 40
1.0
 10
199.8560160773986
 20
122.3608967003017
 30
0.0
 10
199.9165798981963
 20
122.3616560376361
 30
0.0
 10
200.0376725204672
 20
122.3631742732395
 30
0.0
 10
200.1885491963702
 20
122.3790789158197
 30
0.0
 10
200.3065130543405
 20
122.4084033929635
 30
0.0
 10
200.3872525562833
 20
122.4514223718669
 30
0.0
 10
200.4417054920669
 20
122.5061578621789
 30
0.0
 10
200.4666747794933
 20
122.5621505042585
 30
0.0
 10
200.4686597550366
 20
122.5924144472388
 30
0.0
 10
200.4696524410349
 20
122.6075494409927
 30
0.0
  0
SPLINE
  5
12E
330
1F
100
AcDbEntity
  8
0
  6
Continuous
 62
     7
370
     0
100
AcDbSpline
210
0.0
220
0.0
230
1.0
 70
     8
 71
     3
 72
    15
 73
    11
 74
     0
 42
0.00000001
 43
0.00000001
 12
1.0
 22
0.0
 32
0.0
 13
1.0
 23
0.0
 33
0.0
 40
0.0
 40
0.0
 40
0.0
 40
0.0
 40
0.0357496639709916
 40
0.0714787857971891
 40
0.1249960507389605
 40
0.2494778538486886
 40
0.3743167329173326
 40
0.4993970418671524
 40
0.7496360215701784
 40
1.0
 40
1.0
 40
1.0
 40
1.0
 10
200.4696524410349
 20
122.6075494409927
 30
0.0
 10
200.4693400688015
 20
122.6161183286204
 30
0.0
 10
200.4687155038272
 20
122.6332511801001
 30
0.0
 10
200.4606737763992
 20
122.6622541076812
 30
0.0
 10
200.4381475956212
 20
122.7086587486547
 30
0.0
 10
200.3826978741656
 20
122.758702225521
 30
0.0
 10
200.3026518993016
 20
122.8004278571207
 30
0.0
 10
200.1854605006354
 20
122.8287462334607
 30
0.0
 10
200.0360392727613
 20
122.8444462812954
 30
0.0
 10
199.9160337974955
 20
122.8459846581458
 30
0.0
 10
199.8560160773986
 20
122.8467540386346
 30
0.0
  0
SPLINE
  5
12F
330
1F
100
AcDbEntity
  8
0
  6
Continuous
 62
     7
370
     0
100
AcDbSpline
210
0.0
220
0.0
230
1.0
 70
     8
 71
     3
 72
    14
 73
    10
 74
     0
 42
0.00000001
 43
0.00000001
 12
1.0
 22
0.0
 32
0.0
 13
1.0
 23
0.0
 33
0.0
 40
0.0
 40
0.0
 40
0.0
 40
0.0
 40
0.2504552763300965
 40
0.5007650511731642
 40
0.6258584362837313
 40
0.750680307190223
 40
0.8751033703397859
 40
0.9375275944789334
 40
1.0
 40
1.0
 40
1.0
 40
1.0
 10
199.8560160773986
 20
122.8467540386346
 30
0.0
 10
199.7953073558452
 20
122.8459903204757
 30
0.0
 10
199.6739251813479
 20
122.8444633278386
 30
0.0
 10
199.5226602036672
 20
122.828596777814
 30
0.0
 10
199.4044595349249
 20
122.7991465146023
 30
0.0
 10
199.3235022731834
 20
122.755920962799
 30
0.0
 10
199.2697285900616
 20
122.7002412145155
 30
0.0
 10
199.2452289203341
 20
122.6439516035414
 30
0.0
 10
199.2433296935078
 20
122.6136140715369
 30
0.0
 10
199.2423797137622
 20
122.5984394538786
 30
0.0
  0
SPLINE
  5
130
330
1F
100
AcDbEntity
  8
0
  6
Continuous
 62
     7
370
     0
100
AcDbSpline
210
0.0
220
0.0
230
1.0
 70
     8
 71
     3
 72
    14
 73
    10
 74
     0
 42
0.00000001
 43
0.00000001
 12
1.0
 22
0.0
 32
0.0
 13
1.0
 23
0.0
 33
0.0
 40
0.0
 40
0.0
 40
0.0
 40
0.0
 40
0.0623759841546414
 40
0.1248129722817842
 40
0.2492504649310001
 40
0.374121338438643
 40
0.4992563427513284
 40
0.7495574582203581
 40
1.0
 40
1.0
 40
1.0
 40
1.0
 10
199.2423797137622
 20
122.5984394538786
 30
0.0
 10
199.2435966575872
 20
122.5834856467456
 30
0.0
 10
199.2460317354135
 20
122.5535634075939
 30
0.0
 10
199.2732232528593
 20
122.4991641823681
 30
0.0
 10
199.3297767240906
 20
122.4480653882481
 30
0.0
 10
199.4101181775765
 20
122.4068135183959
 30
0.0
 10
199.5271065695764
 20
122.378876988372
 30
0.0
 10
199.6763052025586
 20
122.3632215862583
 30
0.0
 10
199.7961011743577
 20
122.3616718081899
 30
0.0
 10
199.8560160773986
 20
122.3608967003017
 30
0.0
  0
LINE
  5
131
330
1F
100
AcDbEntity
  8
0
  6
Continuous
 62
     7
370
     0
100
AcDbLine
 10
200.4306913906
 20
116.016327676
 30
0.0
 11
200.4306913906
 21
115.7539601369
 31
0.0
  0
SPLINE
  5
132
330
1F
100
AcDbEntity
  8
0
  6
Continuous
 62
     7
370
     0
100
AcDbSpline
210
0.0
220
0.0
230
1.0
 70
     8
 71
     3
 72
    12
 73
     8
 74
     0
 42
0.00000001
 43
0.00000001
 12
1.0
 22
0.0
 32
0.0
 13
1.0
 23
0.0
 33
0.0
 40
0.0
 40
0.0
 40
0.0
 40
0.0
 40
0.2506447700527095
 40
0.500496388892758
 40
0.7494550466348047
 40
0.8640021788814772
 40
0.9999999999999999
 40
0.9999999999999999
 40
0.9999999999999999
 40
0.9999999999999999
 10
200.4306914020739
 20
116.0163277535878
 30
0.0
 10
200.4294319906493
 20
116.0545816687211
 30
0.0
 10
200.4269171531363
 20
116.1309684466346
 30
0.0
 10
200.3964454198955
 20
116.2441249863564
 30
0.0
 10
200.3325062111005
 20
116.3182170298048
 30
0.0
 10
200.2672337793339
 20
116.3601348347044
 30
0.0
 10
200.2315265151173
 20
116.3756422061663
 30
0.0
 10
200.2121443241518
 20
116.3840597324496
 30
0.0
  0
SPLINE
  5
133
330
1F
100
AcDbEntity
  8
0
  6
Continuous
 62
     7
370
     0
100
AcDbSpline
210
0.0
220
0.0
230
1.0
 70
     8
 71
     3
 72
    11
 73
     7
 74
     0
 42
0.00000001
 43
0.00000001
 12
1.0
 22
0.0
 32
0.0
 13
1.0
 23
0.0
 33
0.0
 40
0.0
 40
0.0
 40
0.0
 40
0.0
 40
0.2499306351901286
 40
0.4999282956707934
 40
0.7499583790451344
 40
1.0
 40
1.0
 40
1.0
 40
1.0
 10
200.2121443241518
 20
116.3840597324496
 30
0.0
 10
200.1827312296387
 20
116.3941330540646
 30
0.0
 10
200.123897152739
 20
116.4142823987134
 30
0.0
 10
200.0318835927697
 20
116.4310706873851
 30
0.0
 10
199.93905246197
 20
116.4414115363402
 30
0.0
 10
199.876796000397
 20
116.4423353046182
 30
0.0
 10
199.8456670514245
 20
116.4427971994137
 30
0.0
  0
SPLINE
  5
134
330
1F
100
AcDbEntity
  8
0
  6
Continuous
 62
     7
370
     0
100
AcDbSpline
210
0.0
220
0.0
230
1.0
 70
     8
 71
     3
 72
    15
 73
    11
 74
     0
 42
0.00000001
 43
0.00000001
 12
1.0
 22
0.0
 32
0.0
 13
1.0
 23
0.0
 33
0.0
 40
0.0
 40
0.0
 40
0.0
 40
0.0
 40
0.1347999632652077
 40
0.2502496014357529
 40
0.5001560835052261
 40
0.6667344581242454
 40
0.750107897762363
 40
0.875014222628859
 40
0.9335799284632379
 40
1.0
 40
1.0
 40
1.0
 40
1.0
 10
199.8456670514245
 20
116.4427971994137
 30
0.0
 10
199.8181895446457
 20
116.4423319617251
 30
0.0
 10
199.7671788844548
 20
116.4414682704944
 30
0.0
 10
199.6656118575795
 20
116.4332778078851
 30
0.0
 10
199.5580862433385
 20
116.4136297357372
 30
0.0
 10
199.4644376704058
 20
116.3722284701382
 30
0.0
 10
199.4002739564962
 20
116.3313144754552
 30
0.0
 10
199.3593521299197
 20
116.295216829963
 30
0.0
 10
199.3291238792896
 20
116.2546698601471
 30
0.0
 10
199.3174004011166
 20
116.2323998998494
 30
0.0
 10
199.3111702981778
 20
116.2205651744334
 30
0.0
  0
SPLINE
  5
135
330
1F
100
AcDbEntity
  8
0
  6
Continuous
 62
     7
370
     0
100
AcDbSpline
210
0.0
220
0.0
230
1.0
 70
     8
 71
     3
 72
    10
 73
     6
 74
     0
 42
0.00000001
 43
0.00000001
 12
1.0
 22
0.0
 32
0.0
 13
1.0
 23
0.0
 33
0.0
 40
0.0
 40
0.0
 40
0.0
 40
0.0
 40
0.2498028102649144
 40
0.499885997509294
 40
0.9999999999999999
 40
0.9999999999999999
 40
0.9999999999999999
 40
0.9999999999999999
 10
199.3111702981778
 20
116.2205651744334
 30
0.0
 10
199.3051528192577
 20
116.2039021174444
 30
0.0
 10
199.29311110744
 20
116.1705573009641
 30
0.0
 10
199.2836667916081
 20
116.1002537019668
 30
0.0
 10
199.2822711487909
 20
116.047387552209
 30
0.0
 10
199.2813407527233
 20
116.0121446825829
 30
0.0
  0
LINE
  5
136
330
1F
100
AcDbEntity
  8
0
  6
Continuous
 62
     7
370
     0
100
AcDbLine
 10
199.2813407588
 20
116.0121446406
 30
0.0
 11
199.2813407588
 21
115.7539601369
 31
0.0
  0
LINE
  5
137
330
1F
100
AcDbEntity
  8
0
  6
Continuous
 62
     7
370
     0
100
AcDbLine
 10
199.2813407588
 20
115.7539601369
 30
0.0
 11
200.4306913906
 21
115.7539601369
 31
0.0
  0
DIMENSION
  5
138
330
1F
100
AcDbEntity
  8
0
  6
Continuous
 62
     7
370
     0
100
AcDbDimension
  2
_D_1
 10
202.1060160774
 20
89.3594357863
 30
0.0
 11
217.3123466868
 21
89.3594357863
 31
0.0
 70
   160
  1
<>
 71
     2
 42
-1.0
  3
SLDDIMSTYLE1
100
AcDbAlignedDimension
 13
197.1060160774
 23
95.660765495
 33
0.0
 14
202.1060160774
 24
95.660765495
 34
0.0
100
AcDbRotatedDimension
  0
MTEXT
  5
14D
330
1F
100
AcDbEntity
  8
0
  6
Continuous
 62
     7
370
     0
100
AcDbMText
 10
166.5937569487
 20
130.3381959305
 30
0.0
 40
2.1166666667
 41
0.0
 71
     1
 72
     1
  1
S1
  7
SLDTEXTSTYLE0
 73
     1
 44
1.0
  0
LEADER
  5
14F
330
1F
100
AcDbEntity
  8
0
  6
Continuous
 62
     7
370
     0
100
AcDbLeader
  3
SLDDIMSTYLE2
 76
     3
 10
197.1060160774
 20
121.2550782554
 30
0.0
 10
176.3365810968
 20
129.1715285881
 30
0.0
 10
169.9865810968
 20
129.1715285881
 30
0.0
  0
INSERT
  5
155
102
{ACAD_REACTORS
330
156
102
}
330
1F
100
AcDbEntity
  8
0
  6
Continuous
 62
     7
370
     0
100
AcDbBlockReference
  2
SW_NOTE_5
 10
219.6283547258
 20
114.7024504084
 30
0.0
  0
LEADER
  5
156
330
1F
100
AcDbEntity
  8
0
  6
Continuous
 62
     7
370
     0
100
AcDbLeader
  3
SLDDIMSTYLE2
 73
     2
 76
     3
 10
202.1060160774
 20
119.1242669799
 30
0.0
 10
213.2783547258
 20
114.7024504084
 30
0.0
 10
219.6283547258
 20
114.7024504084
 30
0.0
340
155
  0
LINE
  5
157
330
1F
100
AcDbEntity
  8
0
  6
Continuous
 62
     7
370
     0
100
AcDbLine
 10
247.2234490699
 20
193.0094042862
 30
0.0
 11
247.2234490699
 21
192.927763475
 31
0.0
  0
LINE
  5
158
330
1F
100
AcDbEntity
  8
0
  6
Continuous
 62
     7
370
     0
100
AcDbLine
 10
256.1315464611
 20
177.4968142191
 30
0.0
 11
256.2022456468
 21
177.4559871791
 31
0.0
  0
LINE
  5
159
330
1F
100
AcDbEntity
  8
0
  6
Continuous
 62
     7
370
     0
100
AcDbLine
 10
251.4805668354
 20
199.762902657
 30
0.0
 11
249.8542212387
 21
198.8240333284
 31
0.0
  0
LINE
  5
15A
330
1F
100
AcDbEntity
  8
0
  6
Continuous
 62
     7
370
     0
100
AcDbLine
 10
262.5531891432
 20
176.8263922239
 30
0.0
 11
264.1795347399
 21
177.7652615525
 31
0.0
  0
LINE
  5
15B
330
1F
100
AcDbEntity
  8
0
  6
Continuous
 62
     7
370
     0
100
AcDbLine
 10
266.8103069088
 20
183.5798905947
 30
0.0
 11
266.8103069088
 21
183.6615314059
 31
0.0
  0
LINE
  5
15C
330
1F
100
AcDbEntity
  8
0
  6
Continuous
 62
     7
370
     0
100
AcDbLine
 10
257.9022095175
 20
199.0924806618
 30
0.0
 11
257.8315103319
 21
199.1333077018
 31
0.0
  0
LWPOLYLINE
  5
15D
330
1F
100
AcDbEntity
  8
0
  6
Continuous
 62
     7
370
     0
100
AcDbPolyline
 90
      171
 70
   128
 43
0.0
 10
256.1329945128
 20
177.4959781408
 10
256.4622155758
 20
177.3129492347
 10
256.7909869625
 20
177.1442230604
 10
257.1188596105
 20
176.9900300775
 10
257.4453856855
 20
176.850580895
 10
257.7701191919
 20
176.7260659839
 10
258.092616583
 20
176.6166554164
 10
258.4124373661
 20
176.5224986343
 10
258.7291447044
 20
176.4437242444
 10
259.0423060138
 20
176.3804398431
 10
259.3514935536
 20
176.3327318691
 10
259.6562850109
 20
176.3006654859
 10
259.9562640772
 20
176.2842844923
 10
260.2510210171
 20
176.2836112628
 10
260.5401532282
 20
176.2986467169
 10
260.8232657906
 20
176.3293703179
 10
261.0999720066
 20
176.3757401012
 10
261.3698939288
 20
176.4376927312
 10
261.6326628764
 20
176.5151435881
 10
261.8879199384
 20
176.6079868833
 10
262.1353164646
 20
176.716095804
 10
262.374514541
 20
176.8393226864
 10
262.6051874518
 20
176.9774992175
 10
262.8270201256
 20
177.1304366647
 10
263.0397095656
 20
177.2979261339
 10
263.2429652635
 20
177.4797388546
 10
263.4365095967
 20
177.6756264925
 10
263.6200782068
 20
177.8853214887
 10
263.7934203612
 20
178.1085374249
 10
263.9562992952
 20
178.3449694151
 10
264.108492536
 20
178.5942945217
 10
264.2497922059
 20
178.8561721965
 10
264.3800053064
 20
179.1302447461
 10
264.4989539821
 20
179.4161378203
 10
264.6064757636
 20
179.7134609238
 10
264.7024237889
 20
180.0218079487
 10
264.7866670046
 20
180.3407577302
 10
264.8590903446
 20
180.6698746213
 10
264.9195948873
 20
181.0087090879
 10
264.9680979908
 20
181.3567983228
 10
265.0045334056
 20
181.713666878
 10
265.0288513655
 20
182.078827314
 10
265.041018655
 20
182.4517808656
 10
265.041018655
 20
182.8320181231
 10
265.0288513655
 20
183.2190197281
 10
265.0045334056
 20
183.6122570829
 10
264.9680979908
 20
184.0111930727
 10
264.9195948873
 20
184.4152827989
 10
264.8590903446
 20
184.8239743235
 10
264.7866670046
 20
185.2367094231
 10
264.7024237889
 20
185.6529243511
 10
264.6064757636
 20
186.0720506081
 10
264.4989539821
 20
186.4935157179
 10
264.3800053064
 20
186.91674401
 10
264.2497922059
 20
187.3411574053
 10
264.108492536
 20
187.7661762063
 10
263.9562992952
 20
188.1912198884
 10
263.7934203612
 20
188.6157078931
 10
263.6200782068
 20
189.0390604207
 10
263.4365095967
 20
189.4606992227
 10
263.2429652635
 20
189.8800483912
 10
263.0397095656
 20
190.2965351456
 10
262.8270201256
 20
190.7095906152
 10
262.6051874518
 20
191.1186506158
 10
262.374514541
 20
191.5231564207
 10
262.1353164646
 20
191.9225555237
 10
261.8879199384
 20
192.3163023935
 10
261.6326628764
 20
192.7038592194
 10
261.3698939288
 20
193.0846966453
 10
261.0999720066
 20
193.4582944932
 10
260.8232657906
 20
193.8241424732
 10
260.5401532282
 20
194.1817408811
 10
260.2510210171
 20
194.5306012804
 10
259.9562640772
 20
194.8702471698
 10
259.6562850109
 20
195.2002146339
 10
259.3514935536
 20
195.5200529768
 10
259.0423060138
 20
195.8293253378
 10
258.7291447044
 20
196.1276092881
 10
258.4124373661
 20
196.4144974076
 10
258.092616583
 20
196.6895978418
 10
257.7701191919
 20
196.9525348364
 10
257.4453856855
 20
197.2029492512
 10
257.1188596105
 20
197.4404990503
 10
256.7909869625
 20
197.6648597691
 10
256.4622155758
 20
197.875724958
 10
256.1329945128
 20
198.0728066003
 10
255.8037734498
 20
198.2558355064
 10
255.4750020632
 20
198.4245616807
 10
255.1471294151
 20
198.5787546636
 10
254.8206033402
 20
198.7182038461
 10
254.4958698337
 20
198.8427187572
 10
254.1733724427
 20
198.9521293247
 10
253.8535516596
 20
199.0462861068
 10
253.5368443213
 20
199.1250604967
 10
253.2236830119
 20
199.1883448981
 10
252.9144954721
 20
199.236052872
 10
252.6097040148
 20
199.2681192552
 10
252.3097249485
 20
199.2845002488
 10
252.0149680085
 20
199.2851734783
 10
251.7258357974
 20
199.2701380243
 10
251.4427232351
 20
199.2394144232
 10
251.166017019
 20
199.1930446399
 10
250.8960950968
 20
199.1310920099
 10
250.6333261493
 20
199.053641153
 10
250.3780690872
 20
198.9607978579
 10
250.1306725611
 20
198.8526889372
 10
249.8914744847
 20
198.7294620547
 10
249.6608015739
 20
198.5912855236
 10
249.4389689001
 20
198.4383480764
 10
249.2262794601
 20
198.2708586072
 10
249.0230237621
 20
198.0890458865
 10
248.8294794289
 20
197.8931582486
 10
248.6459108189
 20
197.6834632525
 10
248.4725686645
 20
197.4602473162
 10
248.3096897304
 20
197.223815326
 10
248.1574964896
 20
196.9744902194
 10
248.0161968198
 20
196.7126125447
 10
247.8859837193
 20
196.4385399951
 10
247.7670350435
 20
196.1526469208
 10
247.6595132621
 20
195.8553238174
 10
247.5635652368
 20
195.5469767924
 10
247.4793220211
 20
195.2280270109
 10
247.4068986811
 20
194.8989101198
 10
247.3463941384
 20
194.5600756532
 10
247.2978910349
 20
194.2119864183
 10
247.26145562
 20
193.8551178631
 10
247.2371376602
 20
193.4899574271
 10
247.2249703707
 20
193.1170038755
 10
247.2249703707
 20
192.7367666181
 10
247.2371376602
 20
192.3497650131
 10
247.26145562
 20
191.9565276582
 10
247.2978910349
 20
191.5575916684
 10
247.3463941384
 20
191.1535019422
 10
247.4068986811
 20
190.7448104176
 10
247.4793220211
 20
190.332075318
 10
247.5635652368
 20
189.91586039
 10
247.6595132621
 20
189.496734133
 10
247.7670350435
 20
189.0752690232
 10
247.8859837193
 20
188.6520407312
 10
248.0161968198
 20
188.2276273358
 10
248.1574964896
 20
187.8026085348
 10
248.3096897304
 20
187.3775648527
 10
248.4725686645
 20
186.9530768481
 10
248.6459108189
 20
186.5297243204
 10
248.829479429
 20
186.1080855184
 10
249.0230237621
 20
185.68873635
 10
249.2262794601
 20
185.2722495955
 10
249.4389689001
 20
184.859194126
 10
249.6608015739
 20
184.4501341253
 10
249.8914744847
 20
184.0456283204
 10
250.1306725611
 20
183.6462292175
 10
250.3780690872
 20
183.2524823476
 10
250.6333261493
 20
182.8649255217
 10
250.8960950968
 20
182.4840880958
 10
251.166017019
 20
182.110490248
 10
251.4427232351
 20
181.7446422679
 10
251.7258357974
 20
181.3870438601
 10
252.0149680085
 20
181.0381834607
 10
252.3097249485
 20
180.6985375713
 10
252.6097040148
 20
180.3685701072
 10
252.9144954721
 20
180.0487317643
 10
253.2236830119
 20
179.7394594033
 10
253.5368443213
 20
179.441175453
 10
253.8535516596
 20
179.1542873335
 10
254.1733724427
 20
178.8791868993
 10
254.4958698337
 20
178.6162499047
 10
254.8206033402
 20
178.3658354899
 10
255.1471294151
 20
178.1282856908
 10
255.4750020632
 20
177.903924972
 10
255.8037734498
 20
177.6930597832
 10
256.1329945128
 20
177.4959781408
  0
LWPOLYLINE
  5
15E
330
1F
100
AcDbEntity
  8
0
  6
Continuous
 62
     7
370
     0
100
AcDbPolyline
 90
      130
 70
   128
 43
0.0
 10
247.2234490699
 20
193.0094042862
 10
247.2249824445
 20
193.2001465946
 10
247.2372462998
 20
193.576060095
 10
247.2617572593
 20
193.9441186298
 10
247.2984818442
 20
194.3038194751
 10
247.3473698929
 20
194.654671323
 10
247.4083546304
 20
194.996194952
 10
247.4813527588
 20
195.3279238819
 10
247.5662645715
 20
195.6494050109
 10
247.662974089
 20
195.9601992344
 10
247.7713492179
 20
196.259882045
 10
247.8912419308
 20
196.548044112
 10
248.0224884686
 20
196.8242918405
 10
248.1649095644
 20
197.0882479095
 10
248.3183106881
 20
197.3395517868
 10
248.4824823121
 20
197.5778602214
 10
248.6572001978
 20
197.8028477127
 10
248.8422257016
 20
198.0142069548
 10
249.037306101
 20
198.2116492565
 10
249.2421749394
 20
198.3949049353
 10
249.4565523908
 20
198.563723686
 10
249.6801456413
 20
198.7178749225
 10
249.9126492895
 20
198.8571480927
 10
250.1537457634
 20
198.9813529663
 10
250.403105754
 20
199.0903198943
 10
250.6603886658
 20
199.183900041
 10
250.9252430812
 20
199.2619655872
 10
251.1973072409
 20
199.3244099048
 10
251.4762095379
 20
199.3711477022
 10
251.7615690254
 20
199.4021151414
 10
252.0529959366
 20
199.4172699245
 10
252.3500922173
 20
199.4165913518
 10
252.6524520699
 20
199.4000803504
 10
252.959662507
 20
199.3677594721
 10
253.2713039162
 20
199.3196728634
 10
253.5869506328
 20
199.2558862049
 10
253.9061715214
 20
199.1764866214
 10
254.2285305647
 20
199.0815825632
 10
254.5535874588
 20
198.9713036579
 10
254.8808982154
 20
198.8458005332
 10
255.2100157671
 20
198.7052446112
 10
255.540490579
 20
198.5498278745
 10
255.8718712624
 20
198.3797626036
 10
256.203705191
 20
198.1952810871
 10
256.5355391195
 20
197.9966353047
 10
256.8669198029
 20
197.7840965826
 10
257.1973946148
 20
197.5579552232
 10
257.5265121666
 20
197.3185201083
 10
257.8538229231
 20
197.0661182775
 10
258.1788798173
 20
196.8010944813
 10
258.5012388605
 20
196.5238107104
 10
258.8204597491
 20
196.234645701
 10
259.1361064657
 20
195.9339944178
 10
259.4477478749
 20
195.6222675142
 10
259.754958312
 20
195.2998907717
 10
260.0573181646
 20
194.9673045182
 10
260.3544144453
 20
194.6249630265
 10
260.6458413565
 20
194.2733338939
 10
260.931200844
 20
193.9128974034
 10
261.210103141
 20
193.544145868
 10
261.4821673007
 20
193.1675829579
 10
261.7470217161
 20
192.7837230127
 10
262.0043046279
 20
192.393090339
 10
262.2536646186
 20
191.996218494
 10
262.4947610924
 20
191.5936495569
 10
262.7272647406
 20
191.1859333884
 10
262.9508579911
 20
190.7736268798
 10
263.1652354425
 20
190.3572931922
 10
263.370104281
 20
189.9375009874
 10
263.5651846803
 20
189.5148236509
 10
263.7502101841
 20
189.0898385092
 10
263.9249280698
 20
188.6631260409
 10
264.0890996939
 20
188.2352690838
 10
264.2425008175
 20
187.8068520392
 10
264.3849219133
 20
187.3784600731
 10
264.5161684511
 20
186.9506783175
 10
264.636061164
 20
186.5240910707
 10
264.7444362929
 20
186.0992809997
 10
264.8411458105
 20
185.6768283439
 10
264.9260576231
 20
185.2573101228
 10
264.9990557515
 20
184.8412993478
 10
265.060040489
 20
184.4293642397
 10
265.1089285377
 20
184.0220674522
 10
265.1456531226
 20
183.6199653037
 10
265.1701640822
 20
183.2236070174
 10
265.1824279374
 20
182.8335339711
 10
265.1824279374
 20
182.4502789577
 10
265.1701640822
 20
182.0743654573
 10
265.1456531226
 20
181.7063069225
 10
265.1089285377
 20
181.3466060772
 10
265.060040489
 20
180.9957542293
 10
264.9990557515
 20
180.6542306003
 10
264.9260576231
 20
180.3225016704
 10
264.8411458105
 20
180.0010205414
 10
264.7444362929
 20
179.6902263179
 10
264.636061164
 20
179.3905435073
 10
264.5161684511
 20
179.1023814404
 10
264.3849219133
 20
178.8261337118
 10
264.2425008175
 20
178.5621776428
 10
264.0890996939
 20
178.3108737655
 10
263.9249280698
 20
178.0725653309
 10
263.7502101841
 20
177.8475778396
 10
263.5651846803
 20
177.6362185975
 10
263.370104281
 20
177.4387762958
 10
263.1652354425
 20
177.255520617
 10
262.9508579911
 20
177.0867018663
 10
262.7272647406
 20
176.9325506298
 10
262.4947610924
 20
176.7932774596
 10
262.2536646186
 20
176.669072586
 10
262.0043046279
 20
176.560105658
 10
261.7470217161
 20
176.4665255113
 10
261.4821673007
 20
176.3884599651
 10
261.210103141
 20
176.3260156475
 10
260.931200844
 20
176.2792778501
 10
260.6458413565
 20
176.2483104109
 10
260.3544144453
 20
176.2331556278
 10
260.0573181646
 20
176.2338342005
 10
259.754958312
 20
176.2503452019
 10
259.4477478749
 20
176.2826660802
 10
259.1361064657
 20
176.3307526889
 10
258.8204597491
 20
176.3945393474
 10
258.5012388605
 20
176.4739389309
 10
258.1788798173
 20
176.5688429891
 10
257.8538229231
 20
176.6791218944
 10
257.5265121666
 20
176.8046250191
 10
257.1973946148
 20
176.9451809411
 10
256.8669198029
 20
177.1005976778
 10
256.5355391195
 20
177.2706629488
 10
256.203705191
 20
177.4551444652
 10
256.203705191
 20
177.4551444652
  0
SPLINE
  5
15F
330
1F
100
AcDbEntity
  8
0
  6
Continuous
 62
     7
370
     0
100
AcDbSpline
210
0.0
220
0.0
230
1.0
 70
     8
 71
     3
 72
    14
 73
    10
 74
     0
 42
0.00000001
 43
0.00000001
 12
1.0
 22
0.0
 32
0.0
 13
1.0
 23
0.0
 33
0.0
 40
0.0
 40
0.0
 40
0.0
 40
0.0
 40
0.0626203335203488
 40
0.125196523725376
 40
0.2501754384042169
 40
0.4995238900043193
 40
0.7494969757171994
 40
0.8747361469557821
 40
1.0
 40
1.0
 40
1.0
 40
1.0
 10
265.6809661844766
 20
181.2178211649037
 30
0.0
 10
265.6842519826532
 20
181.2251356447923
 30
0.0
 10
265.6908212627296
 20
181.2397594483309
 30
0.0
 10
265.7074217285528
 20
181.2694210099808
 30
0.0
 10
265.7427562379944
 20
181.3202514765299
 30
0.0
 10
265.8035408589022
 20
181.3847671032973
 30
0.0
 10
265.8669517875125
 20
181.4358704323389
 30
0.0
 10
265.9175494111593
 20
181.4700589066362
 30
0.0
 10
265.9426143216976
 20
181.4849223389958
 30
0.0
 10
265.9551480117767
 20
181.492354787415
 30
0.0
  0
SPLINE
  5
160
330
1F
100
AcDbEntity
  8
0
  6
Continuous
 62
     7
370
     0
100
AcDbSpline
210
0.0
220
0.0
230
1.0
 70
     8
 71
     3
 72
    11
 73
     7
 74
     0
 42
0.00000001
 43
0.00000001
 12
1.0
 22
0.0
 32
0.0
 13
1.0
 23
0.0
 33
0.0
 40
0.0
 40
0.0
 40
0.0
 40
0.0
 40
0.4000017235834427
 40
0.6400060127062173
 40
0.8200150216781176
 40
1.0
 40
1.0
 40
1.0
 40
1.0
 10
265.6554687894732
 20
181.1255085523167
 30
0.0
 10
265.6577897806004
 20
181.1372524678334
 30
0.0
 10
265.6615033852906
 20
181.1560428282251
 30
0.0
 10
265.6682237454419
 20
181.1812585502032
 30
0.0
 10
265.6739240877147
 20
181.2001254634431
 30
0.0
 10
265.678618923354
 20
181.2119228602537
 30
0.0
 10
265.6809661844766
 20
181.2178211649037
 30
0.0
  0
ARC
  5
161
330
1F
100
AcDbEntity
  8
0
  6
Continuous
 62
     7
370
     0
100
AcDbCircle
 10
257.1513984366
 20
182.710124621
 30
0.0
 40
8.650446268926288
100
AcDbArc
 50
348.418940838
 51
349.4447750307
  0
LINE
  5
162
330
1F
100
AcDbEntity
  8
0
  6
Continuous
 62
     7
370
     0
100
AcDbLine
 10
266.1560661379
 20
181.2796652617
 30
0.0
 11
265.625736052
 21
180.9735122198
 31
0.0
  0
ARC
  5
163
330
1F
100
AcDbEntity
  8
0
  6
Continuous
 62
     7
370
     0
100
AcDbCircle
 10
257.676146424
 20
183.0173861379
 30
0.0
 40
8.65613725613204
100
AcDbArc
 50
348.4191706586
 51
349.4918013464
  0
SPLINE
  5
164
330
1F
100
AcDbEntity
  8
0
  6
Continuous
 62
     7
370
     0
100
AcDbSpline
210
0.0
220
0.0
230
1.0
 70
     8
 71
     3
 72
    15
 73
    11
 74
     0
 42
0.00000001
 43
0.00000001
 12
1.0
 22
0.0
 32
0.0
 13
1.0
 23
0.0
 33
0.0
 40
0.0
 40
0.0
 40
0.0
 40
0.0
 40
0.1002492383821552
 40
0.2004810886521584
 40
0.4005534076458178
 40
0.5506171364805615
 40
0.7000987602887071
 40
0.8496801260079839
 40
0.924824378333488
 40
1.0
 40
1.0
 40
1.0
 40
1.0
 10
265.9551480117767
 20
181.492354787415
 30
0.0
 10
265.9678517364111
 20
181.4994806507634
 30
0.0
 10
265.9932569822341
 20
181.5137311414876
 30
0.0
 10
266.0429668040053
 20
181.5372215654481
 30
0.0
 10
266.096524454822
 20
181.5546833177696
 30
0.0
 10
266.1484099731791
 20
181.5573199194312
 30
0.0
 10
266.1841096967402
 20
181.5403910937076
 30
0.0
 10
266.1929034031901
 20
181.5030004270752
 30
0.0
 10
266.1918664873386
 20
181.4677178337146
 30
0.0
 10
266.1886957502496
 20
181.4483823139377
 30
0.0
 10
266.1871100508641
 20
181.4387125365432
 30
0.0
  0
ARC
  5
165
330
1F
100
AcDbEntity
  8
0
  6
Continuous
 62
     7
370
     0
100
AcDbCircle
 10
255.7877363626
 20
183.2242929376
 30
0.0
 40
10.4996167345463
100
AcDbArc
 50
354.9649374631
 51
356.2942121719
  0
LINE
  5
166
330
1F
100
AcDbEntity
  8
0
  6
Continuous
 62
     7
370
     0
100
AcDbLine
 10
265.7784934718
 20
182.0324214334
 30
0.0
 11
266.2468369243
 21
182.3027903536
 31
0.0
  0
ARC
  5
167
330
1F
100
AcDbEntity
  8
0
  6
Continuous
 62
     7
370
     0
100
AcDbCircle
 10
255.5764734325
 20
182.9320151991
 30
0.0
 40
10.24160543202212
100
AcDbArc
 50
354.6229298727
 51
354.9608060607
  0
LINE
  5
168
330
1F
100
AcDbEntity
  8
0
  6
Continuous
 62
     7
370
     0
100
AcDbLine
 10
266.303341249
 20
182.2784286237
 30
0.0
 11
265.7730111631
 21
181.9722755817
 31
0.0
  0
ARC
  5
169
330
1F
100
AcDbEntity
  8
0
  6
Continuous
 62
     7
370
     0
100
AcDbCircle
 10
255.9015784353
 20
183.2562648983
 30
0.0
 40
10.44762333800706
100
AcDbArc
 50
354.6295908248
 51
356.2966943383
  0
LINE
  5
16A
330
1F
100
AcDbEntity
  8
0
  6
Continuous
 62
     7
370
     0
100
AcDbLine
 10
266.2653993891
 20
182.545670012
 30
0.0
 11
266.3273860225
 21
182.5814541337
 31
0.0
  0
SPLINE
  5
16B
330
1F
100
AcDbEntity
  8
0
  6
Continuous
 62
     7
370
     0
100
AcDbSpline
210
0.0
220
0.0
230
1.0
 70
     8
 71
     3
 72
    15
 73
    11
 74
     0
 42
0.00000001
 43
0.00000001
 12
1.0
 22
0.0
 32
0.0
 13
1.0
 23
0.0
 33
0.0
 40
0.0
 40
0.0
 40
0.0
 40
0.0
 40
0.0626807722912946
 40
0.1253333131892095
 40
0.250128460724617
 40
0.4984029438705588
 40
0.6133658744245117
 40
0.7491286829929248
 40
0.8745542067274544
 40
1.0
 40
1.0
 40
1.0
 40
1.0
 10
266.3574314345013
 20
183.2599987459243
 30
0.0
 10
266.3570771026234
 20
183.2518196336383
 30
0.0
 10
266.3563685984583
 20
183.235465092935
 30
0.0
 10
266.3491313462335
 20
183.2003861528554
 30
0.0
 10
266.324088786464
 20
183.1373247194778
 30
0.0
 10
266.2761566962428
 20
183.0738406955247
 30
0.0
 10
266.2227844288184
 20
183.0255260591451
 30
0.0
 10
266.1814471452508
 20
182.9938705021051
 30
0.0
 10
266.1386722147959
 20
182.9650458481987
 30
0.0
 10
266.1108757738982
 20
182.948636945931
 30
0.0
 10
266.096976430521
 20
182.9404318319059
 30
0.0
  0
SPLINE
  5
16C
330
1F
100
AcDbEntity
  8
0
  6
Continuous
 62
     7
370
     0
100
AcDbSpline
210
0.0
220
0.0
230
1.0
 70
     8
 71
     3
 72
    15
 73
    11
 74
     0
 42
0.00000001
 43
0.00000001
 12
1.0
 22
0.0
 32
0.0
 13
1.0
 23
0.0
 33
0.0
 40
0.0
 40
0.0
 40
0.0
 40
0.0
 40
0.1252288014243752
 40
0.2503988985157559
 40
0.5000178294355156
 40
0.6427866057901929
 40
0.7499206241133561
 40
0.8748062916066517
 40
0.9373799419411052
 40
0.9999999999999999
 40
0.9999999999999999
 40
0.9999999999999999
 40
0.9999999999999999
 10
266.1772578842931
 20
183.3107307175716
 30
0.0
 10
266.1876722913606
 20
183.3163962269914
 30
0.0
 10
266.208496223465
 20
183.3277245899729
 30
0.0
 10
266.2494955278891
 20
183.3423732098982
 30
0.0
 10
266.290152493782
 20
183.3470027323186
 30
0.0
 10
266.3237485984234
 20
183.3370800378828
 30
0.0
 10
266.3429733978957
 20
183.3193710387458
 30
0.0
 10
266.3527743034093
 20
183.2987615933213
 30
0.0
 10
266.356894739009
 20
183.2776195400755
 30
0.0
 10
266.3572524917991
 20
183.2658737953077
 30
0.0
 10
266.3574314345013
 20
183.2599987459243
 30
0.0
  0
SPLINE
  5
16D
330
1F
100
AcDbEntity
  8
0
  6
Continuous
 62
     7
370
     0
100
AcDbSpline
210
0.0
220
0.0
230
1.0
 70
     8
 71
     3
 72
    14
 73
    10
 74
     0
 42
0.00000001
 43
0.00000001
 12
1.0
 22
0.0
 32
0.0
 13
1.0
 23
0.0
 33
0.0
 40
0.0
 40
0.0
 40
0.0
 40
0.0
 40
0.0716092258795893
 40
0.1431829065437076
 40
0.2859095315837507
 40
0.4998898090798696
 40
0.74935010404441
 40
0.8746399318271696
 40
0.9999999999999999
 40
0.9999999999999999
 40
0.9999999999999999
 40
0.9999999999999999
 10
266.0061988102596
 20
183.0625512025377
 30
0.0
 10
266.0064668249512
 20
183.0692411758883
 30
0.0
 10
266.007002721298
 20
183.0826178018365
 30
0.0
 10
266.012602229097
 20
183.1113579219867
 30
0.0
 10
266.0287942521596
 20
183.155833695758
 30
0.0
 10
266.0644731556299
 20
183.2154479050599
 30
0.0
 10
266.1082760190752
 20
183.2621994356837
 30
0.0
 10
266.147425798041
 20
183.2925822590541
 30
0.0
 10
266.1673119979521
 20
183.3046801013272
 30
0.0
 10
266.1772578842931
 20
183.3107307175716
 30
0.0
  0
SPLINE
  5
16E
330
1F
100
AcDbEntity
  8
0
  6
Continuous
 62
     7
370
     0
100
AcDbSpline
210
0.0
220
0.0
230
1.0
 70
     8
 71
     3
 72
    13
 73
     9
 74
     0
 42
0.00000001
 43
0.00000001
 12
1.0
 22
0.0
 32
0.0
 13
1.0
 23
0.0
 33
0.0
 40
0.0
 40
0.0
 40
0.0
 40
0.0
 40
0.1252140812495538
 40
0.2503636840946665
 40
0.5000735958270055
 40
0.7497129283713933
 40
0.8748209609586628
 40
1.0
 40
1.0
 40
1.0
 40
1.0
 10
266.0731566712388
 20
182.9806463908462
 30
0.0
 10
266.068435977392
 20
182.9810551562432
 30
0.0
 10
266.0589970205974
 20
182.9818724765454
 30
0.0
 10
266.041879512563
 20
182.9874497564536
 30
0.0
 10
266.0235531557296
 20
183.0003375222283
 30
0.0
 10
266.0118270692355
 20
183.0222559835996
 30
0.0
 10
266.006790557732
 20
183.0439245001975
 30
0.0
 10
266.0063960967199
 20
183.0563411275584
 30
0.0
 10
266.0061988102596
 20
183.0625512025377
 30
0.0
  0
SPLINE
  5
16F
330
1F
100
AcDbEntity
  8
0
  6
Continuous
 62
     7
370
     0
100
AcDbSpline
210
0.0
220
0.0
230
1.0
 70
     8
 71
     3
 72
    11
 73
     7
 74
     0
 42
0.00000001
 43
0.00000001
 12
1.0
 22
0.0
 32
0.0
 13
1.0
 23
0.0
 33
0.0
 40
0.0
 40
0.0
 40
0.0
 40
0.0
 40
0.125032982563066
 40
0.2500700845532237
 40
0.5000704598509507
 40
1.0
 40
1.0
 40
1.0
 40
1.0
 10
265.9256736867355
 20
182.9233967013377
 30
0.0
 10
265.9313943361964
 20
182.9237929406286
 30
0.0
 10
265.9428358235951
 20
182.9245854322652
 30
0.0
 10
265.9669470235484
 20
182.930534713773
 30
0.0
 10
266.0101777192406
 20
182.9461217859674
 30
0.0
 10
266.0479658080817
 20
182.9668369423009
 30
0.0
 10
266.0731566712388
 20
182.9806463908462
 30
0.0
  0
SPLINE
  5
170
330
1F
100
AcDbEntity
  8
0
  6
Continuous
 62
     7
370
     0
100
AcDbSpline
210
0.0
220
0.0
230
1.0
 70
     8
 71
     3
 72
    12
 73
     8
 74
     0
 42
0.00000001
 43
0.00000001
 12
1.0
 22
0.0
 32
0.0
 13
1.0
 23
0.0
 33
0.0
 40
0.0
 40
0.0
 40
0.0
 40
0.0
 40
0.1251957226059631
 40
0.2503150525742083
 40
0.4995792443570687
 40
0.7495891195438165
 40
1.0
 40
1.0
 40
1.0
 40
1.0
 10
265.8684152432627
 20
182.9755952971139
 30
0.0
 10
265.8685666042512
 20
182.9708909418912
 30
0.0
 10
265.8688692338697
 20
182.9614851019758
 30
0.0
 10
265.873609368531
 20
182.945832862122
 30
0.0
 10
265.8847650394378
 20
182.9318525144526
 30
0.0
 10
265.9036874504233
 20
182.9239746678799
 30
0.0
 10
265.9183410271509
 20
182.9235894597455
 30
0.0
 10
265.9256736867355
 20
182.9233967013377
 30
0.0
  0
SPLINE
  5
171
330
1F
100
AcDbEntity
  8
0
  6
Continuous
 62
     7
370
     0
100
AcDbSpline
210
0.0
220
0.0
230
1.0
 70
     8
 71
     3
 72
    11
 73
     7
 74
     0
 42
0.00000001
 43
0.00000001
 12
1.0
 22
0.0
 32
0.0
 13
1.0
 23
0.0
 33
0.0
 40
0.0
 40
0.0
 40
0.0
 40
0.0
 40
0.2687117022909336
 40
0.5000065888894932
 40
0.7001348749111269
 40
1.0
 40
1.0
 40
1.0
 40
1.0
 10
265.8936435912361
 20
183.0491340977148
 30
0.0
 10
265.8898116146425
 20
183.0427161044229
 30
0.0
 10
265.8826812458162
 20
183.0307737926217
 30
0.0
 10
265.8750224752856
 20
183.0130305051491
 30
0.0
 10
265.8696903725208
 20
182.9944212837812
 30
0.0
 10
265.8688932862881
 20
182.9826531162049
 30
0.0
 10
265.8684152432627
 20
182.9755952971139
 30
0.0
  0
SPLINE
  5
172
330
1F
100
AcDbEntity
  8
0
  6
Continuous
 62
     7
370
     0
100
AcDbSpline
210
0.0
220
0.0
230
1.0
 70
     8
 71
     3
 72
    10
 73
     6
 74
     0
 42
0.00000001
 43
0.00000001
 12
1.0
 22
0.0
 32
0.0
 13
1.0
 23
0.0
 33
0.0
 40
0.0
 40
0.0
 40
0.0
 40
0.0
 40
0.5000343605160605
 40
0.7500804753414622
 40
1.0
 40
1.0
 40
1.0
 40
1.0
 10
265.9511934910307
 20
183.1082334904883
 30
0.0
 10
265.9410442655503
 20
183.0997858729009
 30
0.0
 10
265.9258198400431
 20
183.087113957697
 30
0.0
 10
265.9062773979603
 20
183.0670999421942
 30
0.0
 10
265.8978541492283
 20
183.0551217015868
 30
0.0
 10
265.8936435912361
 20
183.0491340977148
 30
0.0
  0
SPLINE
  5
173
330
1F
100
AcDbEntity
  8
0
  6
Continuous
 62
     7
370
     0
100
AcDbSpline
210
0.0
220
0.0
230
1.0
 70
     8
 71
     3
 72
     8
 73
     4
 74
     0
 42
0.00000001
 43
0.00000001
 12
1.0
 22
0.0
 32
0.0
 13
1.0
 23
0.0
 33
0.0
 40
0.0
 40
0.0
 40
0.0
 40
0.0
 40
1.0
 40
1.0
 40
1.0
 40
1.0
 10
265.9440081014992
 20
183.1680550269847
 30
0.0
 10
265.9464595745609
 20
183.1480824069853
 30
0.0
 10
265.948854705028
 20
183.1281417613924
 30
0.0
 10
265.9511934910307
 20
183.1082334904883
 30
0.0
  0
SPLINE
  5
174
330
1F
100
AcDbEntity
  8
0
  6
Continuous
 62
     7
370
     0
100
AcDbSpline
210
0.0
220
0.0
230
1.0
 70
     8
 71
     3
 72
    13
 73
     9
 74
     0
 42
0.00000001
 43
0.00000001
 12
1.0
 22
0.0
 32
0.0
 13
1.0
 23
0.0
 33
0.0
 40
0.0
 40
0.0
 40
0.0
 40
0.0
 40
0.1253229214959713
 40
0.2505891910212141
 40
0.4995627841825591
 40
0.7491942298475138
 40
0.8647858013668226
 40
1.0
 40
1.0
 40
1.0
 40
1.0
 10
265.8133531590691
 20
182.9515946765
 30
0.0
 10
265.8137816293684
 20
182.9613536674023
 30
0.0
 10
265.8146383762778
 20
182.9808672376751
 30
0.0
 10
265.8249653573605
 20
183.0232864237144
 30
0.0
 10
265.8505694713932
 20
183.0773305426476
 30
0.0
 10
265.8871170667035
 20
183.1208431342593
 30
0.0
 10
265.9188601957612
 20
183.1493079965823
 30
0.0
 10
265.9351993501479
 20
183.1614883597198
 30
0.0
 10
265.9440081014992
 20
183.1680550269847
 30
0.0
  0
SPLINE
  5
175
330
1F
100
AcDbEntity
  8
0
  6
Continuous
 62
     7
370
     0
100
AcDbSpline
210
0.0
220
0.0
230
1.0
 70
     8
 71
     3
 72
    16
 73
    12
 74
     0
 42
0.00000001
 43
0.00000001
 12
1.0
 22
0.0
 32
0.0
 13
1.0
 23
0.0
 33
0.0
 40
0.0
 40
0.0
 40
0.0
 40
0.0
 40
0.1252053484654896
 40
0.2504012409005968
 40
0.3830707776461628
 40
0.5006894739712404
 40
0.6297157204491567
 40
0.750465383860932
 40
0.8749428550777208
 40
0.9374440934762426
 40
1.0
 40
1.0
 40
1.0
 40
1.0
 10
266.096976430521
 20
182.9404318319059
 30
0.0
 10
266.0819176076208
 20
182.9319199936359
 30
0.0
 10
266.0518010991256
 20
182.9148969599456
 30
0.0
 10
266.0058980910948
 20
182.8923474329805
 30
0.0
 10
265.961310774394
 20
182.874158947391
 30
0.0
 10
265.9173248271118
 20
182.8619685714703
 30
0.0
 10
265.877238374963
 20
182.860086496317
 30
0.0
 10
265.8426030707885
 20
182.8730360906948
 30
0.0
 10
265.8224019407739
 20
182.8975634162588
 30
0.0
 10
265.8143009508936
 20
182.9261941386737
 30
0.0
 10
265.8136691817355
 20
182.9431253634236
 30
0.0
 10
265.8133531590691
 20
182.9515946765
 30
0.0
  0
SPLINE
  5
176
330
1F
100
AcDbEntity
  8
0
  6
Continuous
 62
     7
370
     0
100
AcDbSpline
210
0.0
220
0.0
230
1.0
 70
     8
 71
     3
 72
    12
 73
     8
 74
     0
 42
0.00000001
 43
0.00000001
 12
1.0
 22
0.0
 32
0.0
 13
1.0
 23
0.0
 33
0.0
 40
0.0
 40
0.0
 40
0.0
 40
0.0
 40
0.1249929375320141
 40
0.249988352820378
 40
0.4998834475949931
 40
0.7499169450320808
 40
1.0
 40
1.0
 40
1.0
 40
1.0
 10
265.8410045785678
 20
183.8775913152898
 30
0.0
 10
265.8487171047074
 20
183.8877994158566
 30
0.0
 10
265.8641423098732
 20
183.908215819347
 30
0.0
 10
265.8982170645991
 20
183.9436762659711
 30
0.0
 10
265.9429603967457
 20
183.9817913578505
 30
0.0
 10
265.9980088287117
 20
184.0211390899028
 30
0.0
 10
266.0351809403843
 20
184.0432438810762
 30
0.0
 10
266.0537688379494
 20
184.0542973718664
 30
0.0
  0
SPLINE
  5
177
330
1F
100
AcDbEntity
  8
0
  6
Continuous
 62
     7
370
     0
100
AcDbSpline
210
0.0
220
0.0
230
1.0
 70
     8
 71
     3
 72
    12
 73
     8
 74
     0
 42
0.00000001
 43
0.00000001
 12
1.0
 22
0.0
 32
0.0
 13
1.0
 23
0.0
 33
0.0
 40
0.0
 40
0.0
 40
0.0
 40
0.0
 40
0.1252396549768587
 40
0.2504179599818341
 40
0.5000538618607597
 40
0.7498676072259411
 40
1.0
 40
1.0
 40
1.0
 40
1.0
 10
265.7922755473832
 20
183.7287086054537
 30
0.0
 10
265.7920796783239
 20
183.7346512954814
 30
0.0
 10
265.7916880361539
 20
183.7465337644472
 30
0.0
 10
265.7939931911445
 20
183.7717169317984
 30
0.0
 10
265.8014737447307
 20
183.8045376150258
 30
0.0
 10
265.8183474639598
 20
183.8432087157841
 30
0.0
 10
265.8334489986429
 20
183.8661255799971
 30
0.0
 10
265.8410045785678
 20
183.8775913152898
 30
0.0
  0
SPLINE
  5
178
330
1F
100
AcDbEntity
  8
0
  6
Continuous
 62
     7
370
     0
100
AcDbSpline
210
0.0
220
0.0
230
1.0
 70
     8
 71
     3
 72
    15
 73
    11
 74
     0
 42
0.00000001
 43
0.00000001
 12
1.0
 22
0.0
 32
0.0
 13
1.0
 23
0.0
 33
0.0
 40
0.0
 40
0.0
 40
0.0
 40
0.0
 40
0.1252511664806186
 40
0.250493711606959
 40
0.5005606681270495
 40
0.6348746860440105
 40
0.7504894127989676
 40
0.8748893802182292
 40
0.9374179621242281
 40
1.0
 40
1.0
 40
1.0
 40
1.0
 10
266.0731473332099
 20
183.7178065008578
 30
0.0
 10
266.0588936702874
 20
183.7097672604433
 30
0.0
 10
266.0303873255581
 20
183.6936893329755
 30
0.0
 10
265.9734287262886
 20
183.6663524310395
 30
0.0
 10
265.9153346567754
 20
183.6451309868543
 30
0.0
 10
265.8614116913641
 20
183.6411043859259
 30
0.0
 10
265.8250894780685
 20
183.6511290331592
 30
0.0
 10
265.8040126379337
 20
183.6753380281529
 30
0.0
 10
265.7946333070507
 20
183.7037639586114
 30
0.0
 10
265.793061691107
 20
183.7203913550457
 30
0.0
 10
265.7922755473832
 20
183.7287086054537
 30
0.0
  0
SPLINE
  5
179
330
1F
100
AcDbEntity
  8
0
  6
Continuous
 62
     7
370
     0
100
AcDbSpline
210
0.0
220
0.0
230
1.0
 70
     8
 71
     3
 72
    16
 73
    12
 74
     0
 42
0.00000001
 43
0.00000001
 12
1.0
 22
0.0
 32
0.0
 13
1.0
 23
0.0
 33
0.0
 40
0.0
 40
0.0
 40
0.0
 40
0.0
 40
0.062547979028406
 40
0.1250348464929097
 40
0.2495127039548125
 40
0.3209827069246105
 40
0.3924643609723396
 40
0.4996337873185574
 40
0.749601422808045
 40
0.8747936019449145
 40
1.0
 40
1.0
 40
1.0
 40
1.0
 10
266.3364247531081
 20
184.0420442276489
 30
0.0
 10
266.3365833101456
 20
184.0333841889949
 30
0.0
 10
266.3369002693048
 20
184.0160725728475
 30
0.0
 10
266.3303054011428
 20
183.978753304262
 30
0.0
 10
266.3151948919626
 20
183.9393984778907
 30
0.0
 10
266.293313850065
 20
183.9025237916261
 30
0.0
 10
266.2704858240335
 20
183.870163361466
 30
0.0
 10
266.2261822037675
 20
183.8220872186683
 30
0.0
 10
266.1721118976021
 20
183.7804108160488
 30
0.0
 10
266.1157431753289
 20
183.7429526748653
 30
0.0
 10
266.0873464847529
 20
183.7261888761719
 30
0.0
 10
266.0731473332099
 20
183.7178065008578
 30
0.0
  0
SPLINE
  5
17A
330
1F
100
AcDbEntity
  8
0
  6
Continuous
 62
     7
370
     0
100
AcDbSpline
210
0.0
220
0.0
230
1.0
 70
     8
 71
     3
 72
    14
 73
    10
 74
     0
 42
0.00000001
 43
0.00000001
 12
1.0
 22
0.0
 32
0.0
 13
1.0
 23
0.0
 33
0.0
 40
0.0
 40
0.0
 40
0.0
 40
0.0
 40
0.1254827438759681
 40
0.2509572551369186
 40
0.5014869882464025
 40
0.7500309116048791
 40
0.8746627465287558
 40
0.9373002352230878
 40
1.0
 40
1.0
 40
1.0
 40
1.0
 10
266.0537688379494
 20
184.0542973718664
 30
0.0
 10
266.0680065522798
 20
184.062319235624
 30
0.0
 10
266.0964810468391
 20
184.0783624368445
 30
0.0
 10
266.1536120670114
 20
184.105569458093
 30
0.0
 10
266.2242207104066
 20
184.1309806338285
 30
0.0
 10
266.2935160289097
 20
184.1304165103818
 30
0.0
 10
266.3244808837032
 20
184.0954726111339
 30
0.0
 10
266.3340732213553
 20
184.0669952311883
 30
0.0
 10
266.3356406495888
 20
184.0503639833409
 30
0.0
 10
266.3364247531081
 20
184.0420442276489
 30
0.0
  0
SPLINE
  5
17B
330
1F
100
AcDbEntity
  8
0
  6
Continuous
 62
     7
370
     0
100
AcDbSpline
210
0.0
220
0.0
230
1.0
 70
     8
 71
     3
 72
    11
 73
     7
 74
     0
 42
0.00000001
 43
0.00000001
 12
1.0
 22
0.0
 32
0.0
 13
1.0
 23
0.0
 33
0.0
 40
0.0
 40
0.0
 40
0.0
 40
0.0
 40
0.4999666558526491
 40
0.7499522648531692
 40
0.8655687366695679
 40
0.9999999999999999
 40
0.9999999999999999
 40
0.9999999999999999
 40
0.9999999999999999
 10
266.241015301248
 20
185.0396241319095
 30
0.0
 10
266.2669266984506
 20
185.0227462682627
 30
0.0
 10
266.3057939124741
 20
184.9974293957881
 30
0.0
 10
266.3558316740007
 20
184.9806972930942
 30
0.0
 10
266.3861963623025
 20
184.9757762377611
 30
0.0
 10
266.4018207907395
 20
184.9750497866295
 30
0.0
 10
266.4102208334447
 20
184.974659230229
 30
0.0
  0
LINE
  5
17C
330
1F
100
AcDbEntity
  8
0
  6
Continuous
 62
     7
370
     0
100
AcDbLine
 10
266.2130352237
 20
185.0234715769
 30
0.0
 11
266.2410153012
 21
185.0396241319
 31
0.0
  0
SPLINE
  5
17D
330
1F
100
AcDbEntity
  8
0
  6
Continuous
 62
     7
370
     0
100
AcDbSpline
210
0.0
220
0.0
230
1.0
 70
     8
 71
     3
 72
    10
 73
     6
 74
     0
 42
0.00000001
 43
0.00000001
 12
1.0
 22
0.0
 32
0.0
 13
1.0
 23
0.0
 33
0.0
 40
0.0
 40
0.0
 40
0.0
 40
0.0
 40
0.2428811558034017
 40
0.4999804408039869
 40
1.0
 40
1.0
 40
1.0
 40
1.0
 10
266.3018245741728
 20
184.9267630200565
 30
0.0
 10
266.2935063616285
 20
184.9326781267269
 30
0.0
 10
266.276382992955
 20
184.944854607157
 30
0.0
 10
266.2459364071858
 20
184.9761341251733
 30
0.0
 10
266.2261214799088
 20
185.0046433781482
 30
0.0
 10
266.2130352236645
 20
185.0234715769373
 30
0.0
  0
LINE
  5
17E
330
1F
100
AcDbEntity
  8
0
  6
Continuous
 62
     7
370
     0
100
AcDbLine
 10
265.7664365512
 20
184.6176900932
 30
0.0
 11
266.3018245742
 21
184.9267630201
 31
0.0
  0
ARC
  5
17F
330
1F
100
AcDbEntity
  8
0
  6
Continuous
 62
     7
370
     0
100
AcDbCircle
 10
251.2241128121
 20
182.8723540887
 30
0.0
 40
14.64668486386192
100
AcDbArc
 50
6.666491673
 51
6.8437722043
  0
LINE
  5
180
330
1F
100
AcDbEntity
  8
0
  6
Continuous
 62
     7
370
     0
100
AcDbLine
 10
266.3071552489
 20
184.8817589121
 30
0.0
 11
265.7717672259
 21
184.5726859852
 31
0.0
  0
SPLINE
  5
181
330
1F
100
AcDbEntity
  8
0
  6
Continuous
 62
     7
370
     0
100
AcDbSpline
210
0.0
220
0.0
230
1.0
 70
     8
 71
     3
 72
    11
 73
     7
 74
     0
 42
0.00000001
 43
0.00000001
 12
1.0
 22
0.0
 32
0.0
 13
1.0
 23
0.0
 33
0.0
 40
0.0
 40
0.0
 40
0.0
 40
0.0
 40
0.2843783846391184
 40
0.5000223467489632
 40
0.6940663936897697
 40
1.0
 40
1.0
 40
1.0
 40
1.0
 10
266.2516196288905
 20
184.7035475643848
 30
0.0
 10
266.2557663301513
 20
184.7205863914839
 30
0.0
 10
266.2630574725438
 20
184.7505457511685
 30
0.0
 10
266.2742190677901
 20
184.7921850635031
 30
0.0
 10
266.2891097286188
 20
184.8345276353299
 30
0.0
 10
266.3003049523574
 20
184.8638293513942
 30
0.0
 10
266.3071552488646
 20
184.8817589120622
 30
0.0
  0
LINE
  5
182
330
1F
100
AcDbEntity
  8
0
  6
Continuous
 62
     7
370
     0
100
AcDbLine
 10
266.2792768594
 20
184.7195137437
 30
0.0
 11
266.2516196289
 21
184.7035475644
 31
0.0
  0
SPLINE
  5
183
330
1F
100
AcDbEntity
  8
0
  6
Continuous
 62
     7
370
     0
100
AcDbSpline
210
0.0
220
0.0
230
1.0
 70
     8
 71
     3
 72
    11
 73
     7
 74
     0
 42
0.00000001
 43
0.00000001
 12
1.0
 22
0.0
 32
0.0
 13
1.0
 23
0.0
 33
0.0
 40
0.0
 40
0.0
 40
0.0
 40
0.0
 40
0.1428746598486543
 40
0.2857531594868727
 40
0.500033204824423
 40
1.0
 40
1.0
 40
1.0
 40
1.0
 10
266.4126572121494
 20
184.9540717628642
 30
0.0
 10
266.4048859983321
 20
184.9443649253035
 30
0.0
 10
266.3893433618441
 20
184.9249509893086
 30
0.0
 10
266.3646822050951
 20
184.8876395467976
 30
0.0
 10
266.3254405962584
 20
184.8207500595522
 30
0.0
 10
266.2982853229107
 20
184.7611989916008
 30
0.0
 10
266.279276859425
 20
184.7195137437226
 30
0.0
  0
ARC
  5
184
330
1F
100
AcDbEntity
  8
0
  6
Continuous
 62
     7
370
     0
100
AcDbCircle
 10
251.8687663061
 20
183.2433447664
 30
0.0
 40
14.6441575225296
100
AcDbArc
 50
6.7085972871
 51
6.7897085668
  0
LWPOLYLINE
  5
185
330
1F
100
AcDbEntity
  8
0
  6
Continuous
 62
     7
370
     0
100
AcDbPolyline
 90
       87
 70
   128
 43
0.0
 10
264.1795347399
 20
177.7652615525
 10
264.3536103373
 20
177.8714199584
 10
264.5772035878
 20
178.0255711949
 10
264.7915810392
 20
178.1943899456
 10
264.9964498777
 20
178.3776456244
 10
265.191530277
 20
178.5750879261
 10
265.3765557808
 20
178.7864471682
 10
265.5512736665
 20
179.0114346595
 10
265.7154452906
 20
179.2497430941
 10
265.8688464142
 20
179.5010469714
 10
266.01126751
 20
179.7650030404
 10
266.1425140478
 20
180.0412507689
 10
266.2624067607
 20
180.3294128359
 10
266.3707818896
 20
180.6290956465
 10
266.4674914072
 20
180.93988987
 10
266.5524032198
 20
181.261370999
 10
266.6254013482
 20
181.5930999289
 10
266.6863860857
 20
181.9346235579
 10
266.7352741345
 20
182.2854754058
 10
266.7719987193
 20
182.6451762511
 10
266.7965096789
 20
183.0132347859
 10
266.8087735341
 20
183.3891482863
 10
266.8087735341
 20
183.7724032997
 10
266.7965096789
 20
184.162476346
 10
266.7719987193
 20
184.5588346323
 10
266.7352741345
 20
184.9609367807
 10
266.6863860857
 20
185.3682335683
 10
266.6254013482
 20
185.7801686764
 10
266.5524032198
 20
186.1961794514
 10
266.4674914072
 20
186.6156976725
 10
266.3707818896
 20
187.0381503283
 10
266.2624067607
 20
187.4629603993
 10
266.1425140478
 20
187.8895476461
 10
266.01126751
 20
188.3173294017
 10
265.8688464142
 20
188.7457213678
 10
265.7154452906
 20
189.1741384124
 10
265.5512736665
 20
189.6019953695
 10
265.3765557808
 20
190.0287078378
 10
265.191530277
 20
190.4536929795
 10
264.9964498777
 20
190.876370316
 10
264.7915810392
 20
191.2961625208
 10
264.5772035878
 20
191.7124962084
 10
264.3536103373
 20
192.124802717
 10
264.1211066891
 20
192.5325188855
 10
263.8800102153
 20
192.9350878226
 10
263.6306502246
 20
193.3319596676
 10
263.3733673128
 20
193.7225923413
 10
263.1085128975
 20
194.1064522865
 10
262.8364487378
 20
194.4830151966
 10
262.5575464407
 20
194.851766732
 10
262.2721869532
 20
195.2122032225
 10
261.980760042
 20
195.5638323551
 10
261.6836637613
 20
195.9061738468
 10
261.3813039088
 20
196.2387601003
 10
261.0740934716
 20
196.5611368428
 10
260.7624520624
 20
196.8728637464
 10
260.4468053458
 20
197.1735150296
 10
260.1275844572
 20
197.462680039
 10
259.805225414
 20
197.7399638099
 10
259.4801685198
 20
198.0049876061
 10
259.1528577633
 20
198.2573894369
 10
258.8237402116
 20
198.4968245518
 10
258.4932653996
 20
198.7229659112
 10
258.1618847163
 20
198.9355046333
 10
257.8300507877
 20
199.1341504157
 10
257.4982168591
 20
199.3186319321
 10
257.1668361758
 20
199.4886972031
 10
256.8363613638
 20
199.6441139398
 10
256.5072438121
 20
199.7846698618
 10
256.1799330556
 20
199.9101729865
 10
255.8548761614
 20
200.0204518918
 10
255.5325171182
 20
200.11535595
 10
255.2132962296
 20
200.1947555335
 10
254.8976495129
 20
200.258542192
 10
254.5860081037
 20
200.3066288007
 10
254.2787976666
 20
200.338949679
 10
253.9764378141
 20
200.3554606804
 10
253.6793415333
 20
200.3561392531
 10
253.3879146222
 20
200.34098447
 10
253.1025551347
 20
200.3100170308
 10
252.8236528376
 20
200.2632792334
 10
252.5515886779
 20
200.2008349158
 10
252.2867342625
 20
200.1227693696
 10
252.0294513508
 20
200.0291892229
 10
251.7800913601
 20
199.9202222949
 10
251.5389948863
 20
199.7960174213
 10
251.4805668354
 20
199.762902657
  0
ARC
  5
186
330
1F
100
AcDbEntity
  8
0
  6
Continuous
 62
     7
370
     0
100
AcDbCircle
 10
252.281793769
 20
183.184212056
 30
0.0
 40
14.00979560313875
100
AcDbArc
 50
4.6864814892
 51
5.7832309739
  0
LINE
  5
187
330
1F
100
AcDbEntity
  8
0
  6
Continuous
 62
     7
370
     0
100
AcDbLine
 10
265.776406856
 20
184.0584904705
 30
0.0
 11
266.2447503084
 21
184.3288593906
 31
0.0
  0
ARC
  5
188
330
1F
100
AcDbEntity
  8
0
  6
Continuous
 62
     7
370
     0
100
AcDbCircle
 10
252.0952333701
 20
182.9376121606
 30
0.0
 40
13.72701264424547
100
AcDbArc
 50
4.4057570368
 51
4.6836977355
  0
LINE
  5
189
330
1F
100
AcDbEntity
  8
0
  6
Continuous
 62
     7
370
     0
100
AcDbLine
 10
266.3120133067
 20
184.2982634812
 30
0.0
 11
265.7816832208
 21
183.9921104392
 31
0.0
  0
ARC
  5
18A
330
1F
100
AcDbEntity
  8
0
  6
Continuous
 62
     7
370
     0
100
AcDbCircle
 10
252.4003347604
 20
183.2253140263
 30
0.0
 40
13.9529932454739
100
AcDbArc
 50
4.4102525098
 51
5.784906052
  0
LINE
  5
18B
330
1F
100
AcDbEntity
  8
0
  6
Continuous
 62
     7
370
     0
100
AcDbLine
 10
266.2202829147
 20
184.5959107411
 30
0.0
 11
266.2822695481
 21
184.6316948629
 31
0.0
  0
SPLINE
  5
18C
330
1F
100
AcDbEntity
  8
0
  6
Continuous
 62
     7
370
     0
100
AcDbSpline
210
0.0
220
0.0
230
1.0
 70
     8
 71
     3
 72
    14
 73
    10
 74
     0
 42
0.00000001
 43
0.00000001
 12
1.0
 22
0.0
 32
0.0
 13
1.0
 23
0.0
 33
0.0
 40
0.0
 40
0.0
 40
0.0
 40
0.0
 40
0.0716150187543069
 40
0.1432023084677995
 40
0.2859674696543457
 40
0.4998846988940563
 40
0.7493386966046547
 40
0.8746339246370637
 40
1.0
 40
1.0
 40
1.0
 40
1.0
 10
265.994711177894
 20
183.4506358427587
 30
0.0
 10
265.9947750628834
 20
183.4574439453567
 30
0.0
 10
265.9949028081263
 20
183.4710575144833
 30
0.0
 10
265.9994212801538
 20
183.5001696913568
 30
0.0
 10
266.0143372171939
 20
183.5452664546704
 30
0.0
 10
266.0484359346868
 20
183.6057371955764
 30
0.0
 10
266.0916111249284
 20
183.652767060974
 30
0.0
 10
266.1304824656652
 20
183.6832149533167
 30
0.0
 10
266.1503361880955
 20
183.6953232399363
 30
0.0
 10
266.1602658550553
 20
183.7013790943992
 30
0.0
  0
SPLINE
  5
18D
330
1F
100
AcDbEntity
  8
0
  6
Continuous
 62
     7
370
     0
100
AcDbSpline
210
0.0
220
0.0
230
1.0
 70
     8
 71
     3
 72
    11
 73
     7
 74
     0
 42
0.00000001
 43
0.00000001
 12
1.0
 22
0.0
 32
0.0
 13
1.0
 23
0.0
 33
0.0
 40
0.0
 40
0.0
 40
0.0
 40
0.0
 40
0.2500788352574252
 40
0.500017520157041
 40
0.7499358821273028
 40
1.0
 40
1.0
 40
1.0
 40
1.0
 10
266.017683924169
 20
183.3706727015834
 30
0.0
 10
266.0144182571209
 20
183.3760023874117
 30
0.0
 10
266.0078887531853
 20
183.3866587721805
 30
0.0
 10
266.0007231678597
 20
183.4056354354252
 30
0.0
 10
265.9961139173286
 20
183.4269815045233
 30
0.0
 10
265.9951788485699
 20
183.4427495311046
 30
0.0
 10
265.994711177894
 20
183.4506358427587
 30
0.0
  0
SPLINE
  5
18E
330
1F
100
AcDbEntity
  8
0
  6
Continuous
 62
     7
370
     0
100
AcDbSpline
210
0.0
220
0.0
230
1.0
 70
     8
 71
     3
 72
     8
 73
     4
 74
     0
 42
0.00000001
 43
0.00000001
 12
1.0
 22
0.0
 32
0.0
 13
1.0
 23
0.0
 33
0.0
 40
0.0
 40
0.0
 40
0.0
 40
0.0
 40
1.0
 40
1.0
 40
1.0
 40
1.0
 10
265.8862223525154
 20
183.3183340886808
 30
0.0
 10
265.9300502302912
 20
183.3357762612825
 30
0.0
 10
265.9738707543103
 20
183.35322245923
 30
0.0
 10
266.017683924169
 20
183.3706727015834
 30
0.0
  0
ARC
  5
18F
330
1F
100
AcDbEntity
  8
0
  6
Continuous
 62
     7
370
     0
100
AcDbCircle
 10
253.2772287278
 20
183.0387649517
 30
0.0
 40
12.61209257540804
100
AcDbArc
 50
1.2701654081
 51
2.1633441353
  0
LINE
  5
190
330
1F
100
AcDbEntity
  8
0
  6
Continuous
 62
     7
370
     0
100
AcDbLine
 10
265.818345667
 20
183.4790684986
 30
0.0
 11
265.8803323004
 21
183.5148526204
 31
0.0
  0
ARC
  5
191
330
1F
100
AcDbEntity
  8
0
  6
Continuous
 62
     7
370
     0
100
AcDbCircle
 10
253.2621421174
 20
183.0044747421
 30
0.0
 40
12.56516958950909
100
AcDbArc
 50
1.0221820023
 51
2.164609771
  0
SPLINE
  5
192
330
1F
100
AcDbEntity
  8
0
  6
Continuous
 62
     7
370
     0
100
AcDbSpline
210
0.0
220
0.0
230
1.0
 70
     8
 71
     3
 72
     8
 73
     4
 74
     0
 42
0.00000001
 43
0.00000001
 12
1.0
 22
0.0
 32
0.0
 13
1.0
 23
0.0
 33
0.0
 40
0.0
 40
0.0
 40
0.0
 40
0.0
 40
1.0
 40
1.0
 40
1.0
 40
1.0
 10
266.0978039705826
 20
183.3373453935671
 30
0.0
 10
266.0070050459474
 20
183.3010896237767
 30
0.0
 10
265.9161744316386
 20
183.2648515571647
 30
0.0
 10
265.8253121303463
 20
183.2286310237904
 30
0.0
  0
SPLINE
  5
193
330
1F
100
AcDbEntity
  8
0
  6
Continuous
 62
     7
370
     0
100
AcDbSpline
210
0.0
220
0.0
230
1.0
 70
     8
 71
     3
 72
     8
 73
     4
 74
     0
 42
0.00000001
 43
0.00000001
 12
1.0
 22
0.0
 32
0.0
 13
1.0
 23
0.0
 33
0.0
 40
0.0
 40
0.0
 40
0.0
 40
0.0
 40
1.0
 40
1.0
 40
1.0
 40
1.0
 10
266.1046013445307
 20
183.4061063474361
 30
0.0
 10
266.1023918860617
 20
183.3831548257661
 30
0.0
 10
266.1001260969596
 20
183.3602343734865
 30
0.0
 10
266.0978039705826
 20
183.3373453935671
 30
0.0
  0
SPLINE
  5
194
330
1F
100
AcDbEntity
  8
0
  6
Continuous
 62
     7
370
     0
100
AcDbSpline
210
0.0
220
0.0
230
1.0
 70
     8
 71
     3
 72
    12
 73
     8
 74
     0
 42
0.00000001
 43
0.00000001
 12
1.0
 22
0.0
 32
0.0
 13
1.0
 23
0.0
 33
0.0
 40
0.0
 40
0.0
 40
0.0
 40
0.0
 40
0.1252356836856652
 40
0.2503787278448303
 40
0.5000836829238063
 40
0.7499021074018759
 40
1.0
 40
1.0
 40
1.0
 40
1.0
 10
266.0502960417224
 20
183.4644017548056
 30
0.0
 10
266.0505996974276
 20
183.4597623111592
 30
0.0
 10
266.0512067842174
 20
183.4504868557626
 30
0.0
 10
266.0557221429879
 20
183.4344093551375
 30
0.0
 10
266.0657506912144
 20
183.4187908835254
 30
0.0
 10
266.0830669737951
 20
183.4076199216285
 30
0.0
 10
266.0974205462606
 20
183.4066110601614
 30
0.0
 10
266.1046013445307
 20
183.4061063474361
 30
0.0
  0
SPLINE
  5
195
330
1F
100
AcDbEntity
  8
0
  6
Continuous
 62
     7
370
     0
100
AcDbSpline
210
0.0
220
0.0
230
1.0
 70
     8
 71
     3
 72
    12
 73
     8
 74
     0
 42
0.00000001
 43
0.00000001
 12
1.0
 22
0.0
 32
0.0
 13
1.0
 23
0.0
 33
0.0
 40
0.0
 40
0.0
 40
0.0
 40
0.0
 40
0.2506944843951239
 40
0.5005043650406437
 40
0.7494938121473085
 40
0.8746991253656994
 40
1.0
 40
1.0
 40
1.0
 40
1.0
 10
266.1656892254783
 20
183.6381617027731
 30
0.0
 10
266.1517974198088
 20
183.6294041580143
 30
0.0
 10
266.124062827272
 20
183.6119199704805
 30
0.0
 10
266.085037985501
 20
183.5709039091219
 30
0.0
 10
266.0608352415102
 20
183.5263413826288
 30
0.0
 10
266.0509616833743
 20
183.489640193184
 30
0.0
 10
266.0505179786936
 20
183.4728167068352
 30
0.0
 10
266.0502960417224
 20
183.4644017548056
 30
0.0
  0
SPLINE
  5
196
330
1F
100
AcDbEntity
  8
0
  6
Continuous
 62
     7
370
     0
100
AcDbSpline
210
0.0
220
0.0
230
1.0
 70
     8
 71
     3
 72
    15
 73
    11
 74
     0
 42
0.00000001
 43
0.00000001
 12
1.0
 22
0.0
 32
0.0
 13
1.0
 23
0.0
 33
0.0
 40
0.0
 40
0.0
 40
0.0
 40
0.0
 40
0.0671957795589742
 40
0.1251134564478004
 40
0.2499060872971453
 40
0.3749045058559849
 40
0.50000269727747
 40
0.7495414104981329
 40
0.8632876180201523
 40
1.0
 40
1.0
 40
1.0
 40
1.0
 10
266.298285416903
 20
183.6058987496822
 30
0.0
 10
266.2979380701289
 20
183.6103747070484
 30
0.0
 10
266.2972913367211
 20
183.618708600943
 30
0.0
 10
266.2937127058415
 20
183.633743080434
 30
0.0
 10
266.284934737016
 20
183.648235375017
 30
0.0
 10
266.2695145494798
 20
183.6589202670215
 30
0.0
 10
266.2454820994051
 20
183.6664528661715
 30
0.0
 10
266.2175115615121
 20
183.6620866354964
 30
0.0
 10
266.1883853878262
 20
183.6504029719619
 30
0.0
 10
266.173703375931
 20
183.6424841680211
 30
0.0
 10
266.1656892254783
 20
183.6381617027731
 30
0.0
  0
SPLINE
  5
197
330
1F
100
AcDbEntity
  8
0
  6
Continuous
 62
     7
370
     0
100
AcDbSpline
210
0.0
220
0.0
230
1.0
 70
     8
 71
     3
 72
    13
 73
     9
 74
     0
 42
0.00000001
 43
0.00000001
 12
1.0
 22
0.0
 32
0.0
 13
1.0
 23
0.0
 33
0.0
 40
0.0
 40
0.0
 40
0.0
 40
0.0
 40
0.2503702502097852
 40
0.5001052875547942
 40
0.6145260243890094
 40
0.7857161668471911
 40
0.8714922286697271
 40
1.0
 40
1.0
 40
1.0
 40
1.0
 10
266.1970864062328
 20
183.4513713079334
 30
0.0
 10
266.208925000611
 20
183.4603810088495
 30
0.0
 10
266.2325721537408
 20
183.4783775522235
 30
0.0
 10
266.2600517111425
 20
183.5079458025274
 30
0.0
 10
266.27983508434
 20
183.5383525409583
 30
0.0
 10
266.2907320260788
 20
183.5614655638991
 30
0.0
 10
266.2974967171254
 20
183.5858047188471
 30
0.0
 10
266.297989744403
 20
183.5983657789621
 30
0.0
 10
266.298285416903
 20
183.6058987496822
 30
0.0
  0
SPLINE
  5
198
330
1F
100
AcDbEntity
  8
0
  6
Continuous
 62
     7
370
     0
100
AcDbSpline
210
0.0
220
0.0
230
1.0
 70
     8
 71
     3
 72
     8
 73
     4
 74
     0
 42
0.00000001
 43
0.00000001
 12
1.0
 22
0.0
 32
0.0
 13
1.0
 23
0.0
 33
0.0
 40
0.0
 40
0.0
 40
0.0
 40
0.0
 40
1.0
 40
1.0
 40
1.0
 40
1.0
 10
266.2049901300848
 20
183.3911449800739
 30
0.0
 10
266.2024118912979
 20
183.4111890343194
 30
0.0
 10
266.199777314555
 20
183.4312646112134
 30
0.0
 10
266.1970864062328
 20
183.4513713079334
 30
0.0
  0
SPLINE
  5
199
330
1F
100
AcDbEntity
  8
0
  6
Continuous
 62
     7
370
     0
100
AcDbSpline
210
0.0
220
0.0
230
1.0
 70
     8
 71
     3
 72
    13
 73
     9
 74
     0
 42
0.00000001
 43
0.00000001
 12
1.0
 22
0.0
 32
0.0
 13
1.0
 23
0.0
 33
0.0
 40
0.0
 40
0.0
 40
0.0
 40
0.0
 40
0.1252979724012309
 40
0.2505479492188886
 40
0.4996504656309608
 40
0.7491367961713563
 40
0.8745560122733987
 40
0.9999999999999999
 40
0.9999999999999999
 40
0.9999999999999999
 40
0.9999999999999999
 10
266.3533681948794
 20
183.6383374179109
 30
0.0
 10
266.3531465260872
 20
183.6269752737343
 30
0.0
 10
266.3527032734133
 20
183.6042553376682
 30
0.0
 10
266.3412894752976
 20
183.5550508178227
 30
0.0
 10
266.3117107945005
 20
183.4933317550932
 30
0.0
 10
266.2695851495046
 20
183.4427821330739
 30
0.0
 10
266.2331431173041
 20
183.410808445374
 30
0.0
 10
266.2143750769114
 20
183.3976998999774
 30
0.0
 10
266.2049901300848
 20
183.3911449800739
 30
0.0
  0
SPLINE
  5
19A
330
1F
100
AcDbEntity
  8
0
  6
Continuous
 62
     7
370
     0
100
AcDbSpline
210
0.0
220
0.0
230
1.0
 70
     8
 71
     3
 72
    14
 73
    10
 74
     0
 42
0.00000001
 43
0.00000001
 12
1.0
 22
0.0
 32
0.0
 13
1.0
 23
0.0
 33
0.0
 40
0.0
 40
0.0
 40
0.0
 40
0.0
 40
0.1254503143219165
 40
0.2508643752892165
 40
0.5007647188434741
 40
0.7494477027970826
 40
0.874548646661646
 40
0.9372588824514376
 40
1.0
 40
1.0
 40
1.0
 40
1.0
 10
266.1602658550553
 20
183.7013790943992
 30
0.0
 10
266.1713292364866
 20
183.7073477315311
 30
0.0
 10
266.1934528021894
 20
183.7192832809436
 30
0.0
 10
266.237275129134
 20
183.7343229084307
 30
0.0
 10
266.2893336658856
 20
183.7378823844187
 30
0.0
 10
266.3324837753327
 20
183.7154767831384
 30
0.0
 10
266.3477849813251
 20
183.6807997009319
 30
0.0
 10
266.3523620057233
 20
183.6574791806682
 30
0.0
 10
266.3530327434565
 20
183.6447190525298
 30
0.0
 10
266.3533681948794
 20
183.6383374179109
 30
0.0
  0
ARC
  5
19B
330
1F
100
AcDbEntity
  8
0
  6
Continuous
 62
     7
370
     0
100
AcDbCircle
 10
255.0955735425
 20
183.1698012492
 30
0.0
 40
11.04127356629268
100
AcDbArc
 50
356.9830643376
 51
357.6358244546
  0
SPLINE
  5
19C
330
1F
100
AcDbEntity
  8
0
  6
Continuous
 62
     7
370
     0
100
AcDbSpline
210
0.0
220
0.0
230
1.0
 70
     8
 71
     3
 72
    15
 73
    11
 74
     0
 42
0.00000001
 43
0.00000001
 12
1.0
 22
0.0
 32
0.0
 13
1.0
 23
0.0
 33
0.0
 40
0.0
 40
0.0
 40
0.0
 40
0.0
 40
0.1429545597213982
 40
0.2858259307256618
 40
0.3930115961467938
 40
0.5001405448350671
 40
0.6181942514790063
 40
0.7497632715744822
 40
0.8748286417272916
 40
1.0
 40
1.0
 40
1.0
 40
1.0
 10
265.9704271960213
 20
182.8053777648331
 30
0.0
 10
265.9830371365787
 20
182.8121255394258
 30
0.0
 10
266.0082496796639
 20
182.825617161918
 30
0.0
 10
266.041940698997
 20
182.8353682464374
 30
0.0
 10
266.0700214771365
 20
182.8362674783409
 30
0.0
 10
266.0936902895313
 20
182.8309276245103
 30
0.0
 10
266.1124294086134
 20
182.8135486155194
 30
0.0
 10
266.1234331424662
 20
182.7853623955917
 30
0.0
 10
266.1280916809246
 20
182.751196488438
 30
0.0
 10
266.1276632692638
 20
182.726627860146
 30
0.0
 10
266.1274489727062
 20
182.7143383429613
 30
0.0
  0
SPLINE
  5
19D
330
1F
100
AcDbEntity
  8
0
  6
Continuous
 62
     7
370
     0
100
AcDbSpline
210
0.0
220
0.0
230
1.0
 70
     8
 71
     3
 72
    14
 73
    10
 74
     0
 42
0.00000001
 43
0.00000001
 12
1.0
 22
0.0
 32
0.0
 13
1.0
 23
0.0
 33
0.0
 40
0.0
 40
0.0
 40
0.0
 40
0.0
 40
0.0745601870303218
 40
0.1430363259402321
 40
0.2502753544418672
 40
0.4996559586217005
 40
0.6996146735485747
 40
0.840656500597625
 40
1.0
 40
1.0
 40
1.0
 40
1.0
 10
265.8242697450802
 20
182.6292358570365
 30
0.0
 10
265.8260963356306
 20
182.6347871549895
 30
0.0
 10
265.8296004684894
 20
182.6454367696836
 30
0.0
 10
265.8373629792861
 20
182.6641577954754
 30
0.0
 10
265.8535318277524
 20
182.6954504694737
 30
0.0
 10
265.8810918824323
 20
182.7334994176516
 30
0.0
 10
265.9142408963673
 20
182.766035958265
 30
0.0
 10
265.9434003535348
 20
182.7887155687268
 30
0.0
 10
265.9610596049167
 20
182.7996025937192
 30
0.0
 10
265.9704271960213
 20
182.8053777648331
 30
0.0
  0
SPLINE
  5
19E
330
1F
100
AcDbEntity
  8
0
  6
Continuous
 62
     7
370
     0
100
AcDbSpline
210
0.0
220
0.0
230
1.0
 70
     8
 71
     3
 72
    11
 73
     7
 74
     0
 42
0.00000001
 43
0.00000001
 12
1.0
 22
0.0
 32
0.0
 13
1.0
 23
0.0
 33
0.0
 40
0.0
 40
0.0
 40
0.0
 40
0.0
 40
0.2729389191732804
 40
0.500136088788852
 40
0.7501730734356025
 40
1.0
 40
1.0
 40
1.0
 40
1.0
 10
265.8104573858666
 20
182.5273198625987
 30
0.0
 10
265.8108684126207
 20
182.5361683728779
 30
0.0
 10
265.8116215822816
 20
182.5523824743187
 30
0.0
 10
265.8141072391449
 20
182.5774872699176
 30
0.0
 10
265.8172897005405
 20
182.6023169218069
 30
0.0
 10
265.8219437154867
 20
182.6202653927919
 30
0.0
 10
265.8242697450802
 20
182.6292358570365
 30
0.0
  0
ARC
  5
19F
330
1F
100
AcDbEntity
  8
0
  6
Continuous
 62
     7
370
     0
100
AcDbCircle
 10
254.835541852
 20
182.9842671453
 30
0.0
 40
10.98442405385314
100
AcDbArc
 50
356.6597687831
 51
357.6158324092
  0
LINE
  5
1A0
330
1F
100
AcDbEntity
  8
0
  6
Continuous
 62
     7
370
     0
100
AcDbLine
 10
266.3316351132
 20
182.6504125486
 30
0.0
 11
265.8013050273
 21
182.3442595066
 31
0.0
  0
ARC
  5
1A1
330
1F
100
AcDbEntity
  8
0
  6
Continuous
 62
     7
370
     0
100
AcDbCircle
 10
255.4699204565
 20
183.2847344523
 30
0.0
 40
10.88022102533864
100
AcDbArc
 50
356.6577344409
 51
356.9822566639
  0
LINE
  5
1A2
330
1F
100
AcDbEntity
  8
0
  6
Continuous
 62
     7
370
     0
100
AcDbLine
 10
266.1215441411
 20
182.5886865234
 30
0.0
 11
266.3350536562
 21
182.7119429429
 31
0.0
  0
SPLINE
  5
1A3
330
1F
100
AcDbEntity
  8
0
  6
Continuous
 62
     7
370
     0
100
AcDbSpline
210
0.0
220
0.0
230
1.0
 70
     8
 71
     3
 72
     8
 73
     4
 74
     0
 42
0.00000001
 43
0.00000001
 12
1.0
 22
0.0
 32
0.0
 13
1.0
 23
0.0
 33
0.0
 40
0.0
 40
0.0
 40
0.0
 40
0.0
 40
1.0
 40
1.0
 40
1.0
 40
1.0
 10
266.2637076169171
 20
181.9249526976457
 30
0.0
 10
266.1035803753182
 20
181.7911393104579
 30
0.0
 10
265.9431602552892
 20
181.6575424153153
 30
0.0
 10
265.7824478629362
 20
181.5241664114822
 30
0.0
  0
ARC
  5
1A4
330
1F
100
AcDbEntity
  8
0
  6
Continuous
 62
     7
370
     0
100
AcDbCircle
 10
256.7019906354
 20
183.1733017109
 30
0.0
 40
9.642863002950124
100
AcDbArc
 50
352.5617071556
 51
352.921672179
  0
SPLINE
  5
1A5
330
1F
100
AcDbEntity
  8
0
  6
Continuous
 62
     7
370
     0
100
AcDbSpline
210
0.0
220
0.0
230
1.0
 70
     8
 71
     3
 72
     8
 73
     4
 74
     0
 42
0.00000001
 43
0.00000001
 12
1.0
 22
0.0
 32
0.0
 13
1.0
 23
0.0
 33
0.0
 40
0.0
 40
0.0
 40
0.0
 40
0.0
 40
1.0
 40
1.0
 40
1.0
 40
1.0
 10
265.8495701873966
 20
181.8689403327965
 30
0.0
 10
265.9904658678371
 20
181.9074281338076
 30
0.0
 10
266.1310628628495
 20
181.9461295447221
 30
0.0
 10
266.2713617080046
 20
181.9850491416526
 30
0.0
  0
LINE
  5
1A6
330
1F
100
AcDbEntity
  8
0
  6
Continuous
 62
     7
370
     0
100
AcDbLine
 10
266.2873507859
 20
182.1216656929
 30
0.0
 11
265.8495701874
 21
181.8689403328
 31
0.0
  0
ARC
  5
1A7
330
1F
100
AcDbEntity
  8
0
  6
Continuous
 62
     7
370
     0
100
AcDbCircle
 10
256.3725438495
 20
183.2118638007
 30
0.0
 40
9.974564075664476
100
AcDbArc
 50
353.7251604431
 51
354.0690405138
  0
LINE
  5
1A8
330
1F
100
AcDbEntity
  8
0
  6
Continuous
 62
     7
370
     0
100
AcDbLine
 10
265.7633852793
 20
181.8750390088
 30
0.0
 11
266.2937153652
 21
182.1811920507
 31
0.0
  0
ARC
  5
1A9
330
1F
100
AcDbEntity
  8
0
  6
Continuous
 62
     7
370
     0
100
AcDbCircle
 10
255.8630808512
 20
182.9034919672
 30
0.0
 40
9.953579419352325
100
AcDbArc
 50
353.5817086724
 51
354.0693324645
  0
SPLINE
  5
1AA
330
1F
100
AcDbEntity
  8
0
  6
Continuous
 62
     7
370
     0
100
AcDbSpline
210
0.0
220
0.0
230
1.0
 70
     8
 71
     3
 72
     8
 73
     4
 74
     0
 42
0.00000001
 43
0.00000001
 12
1.0
 22
0.0
 32
0.0
 13
1.0
 23
0.0
 33
0.0
 40
0.0
 40
0.0
 40
0.0
 40
0.0
 40
1.0
 40
1.0
 40
1.0
 40
1.0
 10
266.1095598041145
 20
181.8880162446279
 30
0.0
 10
265.9913460664565
 20
181.8554609599565
 30
0.0
 10
265.8729175918427
 20
181.823062922611
 30
0.0
 10
265.7542740490568
 20
181.7908193380301
 30
0.0
  0
ARC
  5
1AB
330
1F
100
AcDbEntity
  8
0
  6
Continuous
 62
     7
370
     0
100
AcDbCircle
 10
264.7161893341
 20
186.8961926491
 30
0.0
 40
5.198395152854749
100
AcDbArc
 50
285.5475843805
 51
286.4855015371
  0
SPLINE
  5
1AC
330
1F
100
AcDbEntity
  8
0
  6
Continuous
 62
     7
370
     0
100
AcDbSpline
210
0.0
220
0.0
230
1.0
 70
     8
 71
     3
 72
     8
 73
     4
 74
     0
 42
0.00000001
 43
0.00000001
 12
1.0
 22
0.0
 32
0.0
 13
1.0
 23
0.0
 33
0.0
 40
0.0
 40
0.0
 40
0.0
 40
0.0
 40
1.0
 40
1.0
 40
1.0
 40
1.0
 10
266.1099656881912
 20
181.8441402687182
 30
0.0
 10
266.1371023124108
 20
181.8665861741626
 30
0.0
 10
266.1642310889482
 20
181.8890378722101
 30
0.0
 10
266.1913520153091
 20
181.9114953434465
 30
0.0
  0
SPLINE
  5
1AD
330
1F
100
AcDbEntity
  8
0
  6
Continuous
 62
     7
370
     0
100
AcDbSpline
210
0.0
220
0.0
230
1.0
 70
     8
 71
     3
 72
     8
 73
     4
 74
     0
 42
0.00000001
 43
0.00000001
 12
1.0
 22
0.0
 32
0.0
 13
1.0
 23
0.0
 33
0.0
 40
0.0
 40
0.0
 40
0.0
 40
0.0
 40
1.0
 40
1.0
 40
1.0
 40
1.0
 10
265.7196702653208
 20
181.5180043110619
 30
0.0
 10
265.8499643076728
 20
181.6265701767373
 30
0.0
 10
265.9800628907341
 20
181.7352829651904
 30
0.0
 10
266.1099656881912
 20
181.8441402687182
 30
0.0
  0
ARC
  5
1AE
330
1F
100
AcDbEntity
  8
0
  6
Continuous
 62
     7
370
     0
100
AcDbCircle
 10
256.4640629555
 20
182.8271754423
 30
0.0
 40
9.347737465524885
100
AcDbArc
 50
351.3873599296
 51
351.9491335607
  0
LINE
  5
1AF
330
1F
100
AcDbEntity
  8
0
  6
Continuous
 62
     7
370
     0
100
AcDbLine
 10
266.2367195103
 20
181.7334723604
 30
0.0
 11
265.7063894244
 21
181.4273193185
 31
0.0
  0
ARC
  5
1B0
330
1F
100
AcDbEntity
  8
0
  6
Continuous
 62
     7
370
     0
100
AcDbCircle
 10
257.0213382561
 20
183.1293210539
 30
0.0
 40
9.320495975757632
100
AcDbArc
 50
351.3869117962
 51
351.7466972805
  0
LINE
  5
1B1
330
1F
100
AcDbEntity
  8
0
  6
Continuous
 62
     7
370
     0
100
AcDbLine
 10
265.7824478629
 20
181.5241664115
 30
0.0
 11
266.2453029156
 21
181.7913669458
 31
0.0
  0
ARC
  5
1B2
330
1F
100
AcDbEntity
  8
0
  6
Continuous
 62
     7
370
     0
100
AcDbCircle
 10
247.4911026691
 20
182.7955344
 30
0.0
 40
19.33860396381712
100
AcDbArc
 50
2.5666057311
 51
57.4280177362
  0
SPLINE
  5
1B3
330
1F
100
AcDbEntity
  8
0
  6
Continuous
 62
     7
370
     0
100
AcDbSpline
210
0.0
220
0.0
230
1.0
 70
     8
 71
     3
 72
    14
 73
    10
 74
     0
 42
0.00000001
 43
0.00000001
 12
1.0
 22
0.0
 32
0.0
 13
1.0
 23
0.0
 33
0.0
 40
0.0
 40
0.0
 40
0.0
 40
0.0
 40
0.2504567050928235
 40
0.5007685906461226
 40
0.625864467971912
 40
0.7507010938702152
 40
0.8751098530209156
 40
0.9375424545412298
 40
1.0
 40
1.0
 40
1.0
 40
1.0
 10
266.0698466838595
 20
183.7829900453491
 30
0.0
 10
266.0912433380566
 20
183.7956704320543
 30
0.0
 10
266.1340242744376
 20
183.821023873388
 30
0.0
 10
266.1870337292376
 20
183.8585040324362
 30
0.0
 10
266.228114029424
 20
183.8949145213919
 30
0.0
 10
266.2557230530599
 20
183.9294977394497
 30
0.0
 10
266.2737408496703
 20
183.9636710769599
 30
0.0
 10
266.2812597977952
 20
183.9923831837119
 30
0.0
 10
266.2812297049606
 20
184.0055667032892
 30
0.0
 10
266.2812146555381
 20
184.0121597796305
 30
0.0
  0
SPLINE
  5
1B4
330
1F
100
AcDbEntity
  8
0
  6
Continuous
 62
     7
370
     0
100
AcDbSpline
210
0.0
220
0.0
230
1.0
 70
     8
 71
     3
 72
    15
 73
    11
 74
     0
 42
0.00000001
 43
0.00000001
 12
1.0
 22
0.0
 32
0.0
 13
1.0
 23
0.0
 33
0.0
 40
0.0
 40
0.0
 40
0.0
 40
0.0
 40
0.0357496639709916
 40
0.0714787857971891
 40
0.1249960507389605
 40
0.2494778538486886
 40
0.3743167329173326
 40
0.4993970418671524
 40
0.7496360215701784
 40
1.0
 40
1.0
 40
1.0
 40
1.0
 10
266.2812146555381
 20
184.0121597796305
 30
0.0
 10
266.2808944684147
 20
184.01571553134
 30
0.0
 10
266.2802542781507
 20
184.0228249915857
 30
0.0
 10
266.2766880437968
 20
184.0334421061211
 30
0.0
 10
266.2675476764788
 20
184.0484690911078
 30
0.0
 10
266.2466332986892
 20
184.0583391738292
 30
0.0
 10
266.2172114822145
 20
184.0596842758999
 30
0.0
 10
266.1750047615009
 20
184.0477732478859
 30
0.0
 10
266.1217420519151
 20
184.0239366692874
 30
0.0
 10
266.0792710338495
 20
184.0000960181426
 30
0.0
 10
266.0580302223879
 20
183.9881727161085
 30
0.0
  0
SPLINE
  5
1B5
330
1F
100
AcDbEntity
  8
0
  6
Continuous
 62
     7
370
     0
100
AcDbSpline
210
0.0
220
0.0
230
1.0
 70
     8
 71
     3
 72
    14
 73
    10
 74
     0
 42
0.00000001
 43
0.00000001
 12
1.0
 22
0.0
 32
0.0
 13
1.0
 23
0.0
 33
0.0
 40
0.0
 40
0.0
 40
0.0
 40
0.0
 40
0.2504552763300965
 40
0.5007650511731642
 40
0.6258584362837313
 40
0.750680307190223
 40
0.8751033703397859
 40
0.9375275944789334
 40
1.0
 40
1.0
 40
1.0
 40
1.0
 10
266.0580302223879
 20
183.9881727161085
 30
0.0
 10
266.036587614529
 20
183.9754579202505
 30
0.0
 10
265.9937148558511
 20
183.9500357151695
 30
0.0
 10
265.9406737919662
 20
183.9124308493601
 30
0.0
 10
265.8996871678013
 20
183.8758182605418
 30
0.0
 10
265.8722259566639
 20
183.8409764841102
 30
0.0
 10
265.8546662282204
 20
183.806430470582
 30
0.0
 10
265.8474250107014
 20
183.7776284896023
 30
0.0
 10
265.8474947731837
 20
183.7644270279781
 30
0.0
 10
265.847529667881
 20
183.7578237508016
 30
0.0
  0
SPLINE
  5
1B6
330
1F
100
AcDbEntity
  8
0
  6
Continuous
 62
     7
370
     0
100
AcDbSpline
210
0.0
220
0.0
230
1.0
 70
     8
 71
     3
 72
    14
 73
    10
 74
     0
 42
0.00000001
 43
0.00000001
 12
1.0
 22
0.0
 32
0.0
 13
1.0
 23
0.0
 33
0.0
 40
0.0
 40
0.0
 40
0.0
 40
0.0
 40
0.0623759841546414
 40
0.1248129722817842
 40
0.2492504649310001
 40
0.374121338438643
 40
0.4992563427513284
 40
0.7495574582203581
 40
1.0
 40
1.0
 40
1.0
 40
1.0
 10
265.847529667881
 20
183.7578237508016
 30
0.0
 10
265.8483196676469
 20
183.7517592581408
 30
0.0
 10
265.8499004398019
 20
183.7396243417201
 30
0.0
 10
265.8607794713775
 20
183.7222341044139
 30
0.0
 10
265.881922436343
 20
183.7122517614562
 30
0.0
 10
265.9112247715108
 20
183.7112896729487
 30
0.0
 10
265.9531825479361
 20
183.7234174418474
 30
0.0
 10
266.0062606839198
 20
183.7472879359072
 30
0.0
 10
266.0486473600872
 20
183.7710871016487
 30
0.0
 10
266.0698466838595
 20
183.7829900453491
 30
0.0
  0
SPLINE
  5
1B7
330
1F
100
AcDbEntity
  8
0
  6
Continuous
 62
     7
370
     0
100
AcDbSpline
210
0.0
220
0.0
230
1.0
 70
     8
 71
     3
 72
    14
 73
    10
 74
     0
 42
0.00000001
 43
0.00000001
 12
1.0
 22
0.0
 32
0.0
 13
1.0
 23
0.0
 33
0.0
 40
0.0
 40
0.0
 40
0.0
 40
0.0
 40
0.1252819797020131
 40
0.2505428192578552
 40
0.5000105362354598
 40
0.6429941318893123
 40
0.7857736093120211
 40
0.8928635650157677
 40
1.0
 40
1.0
 40
1.0
 40
1.0
 10
266.1744377783426
 20
183.0475469578375
 30
0.0
 10
266.1816461931893
 20
183.0519194433597
 30
0.0
 10
266.196061806531
 20
183.0606636765887
 30
0.0
 10
266.2245392760269
 20
183.082361078637
 30
0.0
 10
266.2531280063038
 20
183.1111784903268
 30
0.0
 10
266.2775613458698
 20
183.1473577042402
 30
0.0
 10
266.292262709217
 20
183.1759054125464
 30
0.0
 10
266.3008516359278
 20
183.202741092345
 30
0.0
 10
266.3018273483151
 20
183.2174760589009
 30
0.0
 10
266.3023153103557
 20
183.2248451406529
 30
0.0
  0
SPLINE
  5
1B8
330
1F
100
AcDbEntity
  8
0
  6
Continuous
 62
     7
370
     0
100
AcDbSpline
210
0.0
220
0.0
230
1.0
 70
     8
 71
     3
 72
    13
 73
     9
 74
     0
 42
0.00000001
 43
0.00000001
 12
1.0
 22
0.0
 32
0.0
 13
1.0
 23
0.0
 33
0.0
 40
0.0
 40
0.0
 40
0.0
 40
0.0
 40
0.0677457724388235
 40
0.1252098677033721
 40
0.2501894009231064
 40
0.4995793795813416
 40
0.7494545782890037
 40
1.0
 40
1.0
 40
1.0
 40
1.0
 10
266.3023153103557
 20
183.2248451406529
 30
0.0
 10
266.3020815555572
 20
183.2289222486997
 30
0.0
 10
266.3016495225854
 20
183.2364576880457
 30
0.0
 10
266.2982421136786
 20
183.2496617457414
 30
0.0
 10
266.2863017388169
 20
183.2664103905479
 30
0.0
 10
266.2594398112503
 20
183.2764504479308
 30
0.0
 10
266.2203464353884
 20
183.2697094520166
 30
0.0
 10
266.193151092853
 20
183.2552611404426
 30
0.0
 10
266.1795352099614
 20
183.2480273092042
 30
0.0
  0
SPLINE
  5
1B9
330
1F
100
AcDbEntity
  8
0
  6
Continuous
 62
     7
370
     0
100
AcDbSpline
210
0.0
220
0.0
230
1.0
 70
     8
 71
     3
 72
    13
 73
     9
 74
     0
 42
0.00000001
 43
0.00000001
 12
1.0
 22
0.0
 32
0.0
 13
1.0
 23
0.0
 33
0.0
 40
0.0
 40
0.0
 40
0.0
 40
0.0
 40
0.2504111791646292
 40
0.5000518226440579
 40
0.6997868544308458
 40
0.8496384647618273
 40
0.9247819825995228
 40
1.0
 40
1.0
 40
1.0
 40
1.0
 10
266.1795352099614
 20
183.2480273092042
 30
0.0
 10
266.1659576775305
 20
183.2395301247014
 30
0.0
 10
266.1388443918467
 20
183.2225619022278
 30
0.0
 10
266.1025419050945
 20
183.1860272127456
 30
0.0
 10
266.0774944682203
 20
183.1465849591395
 30
0.0
 10
266.0659919681772
 20
183.1164469485842
 30
0.0
 10
266.0618571922807
 20
183.0958533475323
 30
0.0
 10
266.061441511818
 20
183.0862677657897
 30
0.0
 10
266.0612335686082
 20
183.0814726002364
 30
0.0
  0
SPLINE
  5
1BA
330
1F
100
AcDbEntity
  8
0
  6
Continuous
 62
     7
370
     0
100
AcDbSpline
210
0.0
220
0.0
230
1.0
 70
     8
 71
     3
 72
    14
 73
    10
 74
     0
 42
0.00000001
 43
0.00000001
 12
1.0
 22
0.0
 32
0.0
 13
1.0
 23
0.0
 33
0.0
 40
0.0
 40
0.0
 40
0.0
 40
0.0
 40
0.1144356875073058
 40
0.2003713295848232
 40
0.4984103036991345
 40
0.6237110237575351
 40
0.7490634341887155
 40
0.8745111876145706
 40
0.9999999999999999
 40
0.9999999999999999
 40
0.9999999999999999
 40
0.9999999999999999
 10
266.0612335686082
 20
183.0814726002364
 30
0.0
 10
266.0616055266335
 20
183.0746999587917
 30
0.0
 10
266.0622568070663
 20
183.0628413926343
 30
0.0
 10
266.0713601564868
 20
183.0395281835971
 30
0.0
 10
266.0903737681471
 20
183.026461947128
 30
0.0
 10
266.1158555394888
 20
183.0254294587486
 30
0.0
 10
266.1347551162938
 20
183.0290382841667
 30
0.0
 10
266.1544697106987
 20
183.0366506743428
 30
0.0
 10
266.1677810297825
 20
183.0439144671651
 30
0.0
 10
266.1744377783426
 20
183.0475469578375
 30
0.0
  0
ARC
  5
1BB
330
1F
100
AcDbEntity
  8
0
  6
Continuous
 62
     7
370
     0
100
AcDbCircle
 10
255.0302604981
 20
183.13417959
 30
0.0
 40
11.04460391762667
100
AcDbArc
 50
356.9831309235
 51
357.6558407139
  0
SPLINE
  5
1BC
330
1F
100
AcDbEntity
  8
0
  6
Continuous
 62
     7
370
     0
100
AcDbSpline
210
0.0
220
0.0
230
1.0
 70
     8
 71
     3
 72
    13
 73
     9
 74
     0
 42
0.00000001
 43
0.00000001
 12
1.0
 22
0.0
 32
0.0
 13
1.0
 23
0.0
 33
0.0
 40
0.0
 40
0.0
 40
0.0
 40
0.0
 40
0.1257431705301028
 40
0.251403204778073
 40
0.5004854116416132
 40
0.7488453632207661
 40
0.9161634980058073
 40
1.0
 40
1.0
 40
1.0
 40
1.0
 10
266.0656219352063
 20
182.6824344753726
 30
0.0
 10
266.065763435488
 20
182.6901251173769
 30
0.0
 10
266.0660463424969
 20
182.7055013166451
 30
0.0
 10
266.062809619133
 20
182.7335441623831
 30
0.0
 10
266.049771938285
 20
182.7625489017744
 30
0.0
 10
266.0169688452322
 20
182.7650217137406
 30
0.0
 10
265.9899750507693
 20
182.7545520525532
 30
0.0
 10
265.9762006491642
 20
182.7469848185904
 30
0.0
 10
265.9716026944441
 20
182.7444588432258
 30
0.0
  0
SPLINE
  5
1BD
330
1F
100
AcDbEntity
  8
0
  6
Continuous
 62
     7
370
     0
100
AcDbSpline
210
0.0
220
0.0
230
1.0
 70
     8
 71
     3
 72
    14
 73
    10
 74
     0
 42
0.00000001
 43
0.00000001
 12
1.0
 22
0.0
 32
0.0
 13
1.0
 23
0.0
 33
0.0
 40
0.0
 40
0.0
 40
0.0
 40
0.0
 40
0.1251692025470937
 40
0.2502774400662945
 40
0.3752942969246997
 40
0.5002256764783135
 40
0.624740884272907
 40
0.7496892273597416
 40
0.9999999999999999
 40
0.9999999999999999
 40
0.9999999999999999
 40
0.9999999999999999
 10
265.9716026944441
 20
182.7444588432258
 30
0.0
 10
265.9646924334951
 20
182.7402076267026
 30
0.0
 10
265.950875277315
 20
182.7317072642577
 30
0.0
 10
265.9304393371324
 20
182.7145064350615
 30
0.0
 10
265.9112979394071
 20
182.6936590935019
 30
0.0
 10
265.8942041407248
 20
182.6698729408438
 30
0.0
 10
265.8814287296314
 20
182.6431870285405
 30
0.0
 10
265.8750085470892
 20
182.6091273040631
 30
0.0
 10
265.8736386606982
 20
182.5855921722738
 30
0.0
 10
265.8727248992288
 20
182.5698934276585
 30
0.0
  0
ARC
  5
1BE
330
1F
100
AcDbEntity
  8
0
  6
Continuous
 62
     7
370
     0
100
AcDbCircle
 10
254.8384527395
 20
183.0228004814
 30
0.0
 40
11.04356314309073
100
AcDbArc
 50
356.9831099016
 51
357.6495862808
  0
LINE
  5
1BF
330
1F
100
AcDbEntity
  8
0
  6
Continuous
 62
     7
370
     0
100
AcDbLine
 10
265.8667102038
 20
182.4415740228
 30
0.0
 11
266.0595575077
 21
182.5529024016
 31
0.0
  0
ARC
  5
1C0
330
1F
100
AcDbEntity
  8
0
  6
Continuous
 62
     7
370
     0
100
AcDbCircle
 10
257.5747460313
 20
182.9891056352
 30
0.0
 40
8.696258340097499
100
AcDbArc
 50
348.7978811031
 51
349.4447762702
  0
SPLINE
  5
1C1
330
1F
100
AcDbEntity
  8
0
  6
Continuous
 62
     7
370
     0
100
AcDbSpline
210
0.0
220
0.0
230
1.0
 70
     8
 71
     3
 72
    12
 73
     8
 74
     0
 42
0.00000001
 43
0.00000001
 12
1.0
 22
0.0
 32
0.0
 13
1.0
 23
0.0
 33
0.0
 40
0.0
 40
0.0
 40
0.0
 40
0.0
 40
0.2506447700527095
 40
0.500496388892758
 40
0.7494550466348047
 40
0.8640021788814772
 40
0.9999999999999999
 40
0.9999999999999999
 40
0.9999999999999999
 40
0.9999999999999999
 10
266.1238532946742
 20
181.3960977515116
 30
0.0
 10
266.126017396671
 20
181.4099522866299
 30
0.0
 10
266.1303387524861
 20
181.437617514973
 30
0.0
 10
266.1270369203099
 20
181.4732834034234
 30
0.0
 10
266.1092146905355
 20
181.4877213019681
 30
0.0
 10
266.0888139636795
 20
181.489967718736
 30
0.0
 10
266.0771726259715
 20
181.4884434707102
 30
0.0
 10
266.0708536139861
 20
181.48761609659
 30
0.0
  0
SPLINE
  5
1C2
330
1F
100
AcDbEntity
  8
0
  6
Continuous
 62
     7
370
     0
100
AcDbSpline
210
0.0
220
0.0
230
1.0
 70
     8
 71
     3
 72
    11
 73
     7
 74
     0
 42
0.00000001
 43
0.00000001
 12
1.0
 22
0.0
 32
0.0
 13
1.0
 23
0.0
 33
0.0
 40
0.0
 40
0.0
 40
0.0
 40
0.0
 40
0.2499306351901286
 40
0.4999282956707934
 40
0.7499583790451344
 40
1.0
 40
1.0
 40
1.0
 40
1.0
 10
266.0708536139861
 20
181.48761609659
 30
0.0
 10
266.0610906733131
 20
181.4853582169021
 30
0.0
 10
266.0415621737849
 20
181.4808418520182
 30
0.0
 10
266.0100818268969
 20
181.4683089225017
 30
0.0
 10
265.9779078147438
 20
181.4532104028595
 30
0.0
 10
265.9559544350693
 20
181.4408476263134
 30
0.0
 10
265.9449774919794
 20
181.4346660954243
 30
0.0
  0
SPLINE
  5
1C3
330
1F
100
AcDbEntity
  8
0
  6
Continuous
 62
     7
370
     0
100
AcDbSpline
210
0.0
220
0.0
230
1.0
 70
     8
 71
     3
 72
    15
 73
    11
 74
     0
 42
0.00000001
 43
0.00000001
 12
1.0
 22
0.0
 32
0.0
 13
1.0
 23
0.0
 33
0.0
 40
0.0
 40
0.0
 40
0.0
 40
0.0
 40
0.1347999632652077
 40
0.2502496014357529
 40
0.5001560835052261
 40
0.6667344581242454
 40
0.750107897762363
 40
0.875014222628859
 40
0.9335799284632379
 40
1.0
 40
1.0
 40
1.0
 40
1.0
 10
265.9449774919794
 20
181.4346660954243
 30
0.0
 10
265.9352336948319
 20
181.4288846972932
 30
0.0
 10
265.9171448074644
 20
181.4181518117418
 30
0.0
 10
265.8807233298913
 20
181.394373487389
 30
0.0
 10
265.8414786176172
 20
181.3651148593098
 30
0.0
 10
265.8057531026359
 20
181.3306081213024
 30
0.0
 10
265.780458149623
 20
181.3023147253762
 30
0.0
 10
265.7636685122463
 20
181.2805651207617
 30
0.0
 10
265.7503487854702
 20
181.2593610130211
 30
0.0
 10
265.7447443425529
 20
181.2487186519796
 30
0.0
 10
265.7417660236808
 20
181.243063077429
 30
0.0
  0
SPLINE
  5
1C4
330
1F
100
AcDbEntity
  8
0
  6
Continuous
 62
     7
370
     0
100
AcDbSpline
210
0.0
220
0.0
230
1.0
 70
     8
 71
     3
 72
    10
 73
     6
 74
     0
 42
0.00000001
 43
0.00000001
 12
1.0
 22
0.0
 32
0.0
 13
1.0
 23
0.0
 33
0.0
 40
0.0
 40
0.0
 40
0.0
 40
0.0
 40
0.2498028102649144
 40
0.499885997509294
 40
0.9999999999999999
 40
0.9999999999999999
 40
0.9999999999999999
 40
0.9999999999999999
 10
265.7417660236808
 20
181.243063077429
 30
0.0
 10
265.7385402238596
 20
181.2356658996847
 30
0.0
 10
265.7320850036012
 20
181.2208632416541
 30
0.0
 10
265.7240507652724
 20
181.1929432217875
 30
0.0
 10
265.719945648906
 20
181.1731596635417
 30
0.0
 10
265.7172090001892
 20
181.1599710850809
 30
0.0
  0
ARC
  5
1C5
330
1F
100
AcDbEntity
  8
0
  6
Continuous
 62
     7
370
     0
100
AcDbCircle
 10
257.1696163322
 20
182.7542825684
 30
0.0
 40
8.695008310780311
100
AcDbArc
 50
348.7978503667
 51
349.4345033046
  0
LINE
  5
1C6
330
1F
100
AcDbEntity
  8
0
  6
Continuous
 62
     7
370
     0
100
AcDbLine
 10
265.6989661911
 20
181.0650932635
 30
0.0
 11
266.1053230102
 21
181.2996780618
 31
0.0
  0
OLE2FRAME
  5
1C7
330
1F
100
AcDbEntity
  8
0
100
AcDbOle2Frame
 70
     2
  3
Paintbrush Picture
 10
229.0524258301
 20
33.6996297921
 30
0.0
 11
265.1686469208
 21
28.555479607
 31
0.0
 71
     2
 72
     0
 73
     1
 90
     7296
310
80557333EF78ADA16C40002412788DD94040000000000000000041161DC7B292
310
7040002412788DD94040000000000000000041161DC7B2927040F6DD59E9338E
310
3C4000000000000000007333EF78ADA16C40F6DD59E9338E3C40000000000000
310
00000000000001000000000100000100000001000000000001000000001C0000
310
D0CF11E0A1B11AE1000000000000000000000000000000003E000300FEFF0900
310
0600000000000000000000000100000001000000000000000010000002000000
310
01000000FEFFFFFF0000000000000000FFFFFFFFFFFFFFFFFFFFFFFFFFFFFFFF
310
FFFFFFFFFFFFFFFFFFFFFFFFFFFFFFFFFFFFFFFFFFFFFFFFFFFFFFFFFFFFFFFF
310
FFFFFFFFFFFFFFFFFFFFFFFFFFFFFFFFFFFFFFFFFFFFFFFFFFFFFFFFFFFFFFFF
310
FFFFFFFFFFFFFFFFFFFFFFFFFFFFFFFFFFFFFFFFFFFFFFFFFFFFFFFFFFFFFFFF
310
FFFFFFFFFFFFFFFFFFFFFFFFFFFFFFFFFFFFFFFFFFFFFFFFFFFFFFFFFFFFFFFF
310
FFFFFFFFFFFFFFFFFFFFFFFFFFFFFFFFFFFFFFFFFFFFFFFFFFFFFFFFFFFFFFFF
310
FFFFFFFFFFFFFFFFFFFFFFFFFFFFFFFFFFFFFFFFFFFFFFFFFFFFFFFFFFFFFFFF
310
FFFFFFFFFFFFFFFFFFFFFFFFFFFFFFFFFFFFFFFFFFFFFFFFFFFFFFFFFFFFFFFF
310
FFFFFFFFFFFFFFFFFFFFFFFFFFFFFFFFFFFFFFFFFFFFFFFFFFFFFFFFFFFFFFFF
310
FFFFFFFFFFFFFFFFFFFFFFFFFFFFFFFFFFFFFFFFFFFFFFFFFFFFFFFFFFFFFFFF
310
FFFFFFFFFFFFFFFFFFFFFFFFFFFFFFFFFFFFFFFFFFFFFFFFFFFFFFFFFFFFFFFF
310
FFFFFFFFFFFFFFFFFFFFFFFFFFFFFFFFFFFFFFFFFFFFFFFFFFFFFFFFFFFFFFFF
310
FFFFFFFFFFFFFFFFFFFFFFFFFFFFFFFFFFFFFFFFFFFFFFFFFFFFFFFFFFFFFFFF
310
FFFFFFFFFFFFFFFFFFFFFFFFFFFFFFFFFFFFFFFFFFFFFFFFFFFFFFFFFFFFFFFF
310
FDFFFFFFFEFFFFFFFEFFFFFFFEFFFFFF05000000060000000700000008000000
310
090000000A0000000B0000000C000000FEFFFFFFFFFFFFFFFFFFFFFFFFFFFFFF
310
FFFFFFFFFFFFFFFFFFFFFFFFFFFFFFFFFFFFFFFFFFFFFFFFFFFFFFFFFFFFFFFF
310
FFFFFFFFFFFFFFFFFFFFFFFFFFFFFFFFFFFFFFFFFFFFFFFFFFFFFFFFFFFFFFFF
310
FFFFFFFFFFFFFFFFFFFFFFFFFFFFFFFFFFFFFFFFFFFFFFFFFFFFFFFFFFFFFFFF
310
FFFFFFFFFFFFFFFFFFFFFFFFFFFFFFFFFFFFFFFFFFFFFFFFFFFFFFFFFFFFFFFF
310
FFFFFFFFFFFFFFFFFFFFFFFFFFFFFFFFFFFFFFFFFFFFFFFFFFFFFFFFFFFFFFFF
310
FFFFFFFFFFFFFFFFFFFFFFFFFFFFFFFFFFFFFFFFFFFFFFFFFFFFFFFFFFFFFFFF
310
FFFFFFFFFFFFFFFFFFFFFFFFFFFFFFFFFFFFFFFFFFFFFFFFFFFFFFFFFFFFFFFF
310
FFFFFFFFFFFFFFFFFFFFFFFFFFFFFFFFFFFFFFFFFFFFFFFFFFFFFFFFFFFFFFFF
310
FFFFFFFFFFFFFFFFFFFFFFFFFFFFFFFFFFFFFFFFFFFFFFFFFFFFFFFFFFFFFFFF
310
FFFFFFFFFFFFFFFFFFFFFFFFFFFFFFFFFFFFFFFFFFFFFFFFFFFFFFFFFFFFFFFF
310
FFFFFFFFFFFFFFFFFFFFFFFFFFFFFFFFFFFFFFFFFFFFFFFFFFFFFFFFFFFFFFFF
310
FFFFFFFFFFFFFFFFFFFFFFFFFFFFFFFFFFFFFFFFFFFFFFFFFFFFFFFFFFFFFFFF
310
FFFFFFFFFFFFFFFFFFFFFFFFFFFFFFFFFFFFFFFFFFFFFFFFFFFFFFFFFFFFFFFF
310
FFFFFFFFFFFFFFFFFFFFFFFFFFFFFFFFFFFFFFFFFFFFFFFFFFFFFFFFFFFFFFFF
310
52006F006F007400200045006E00740072007900000000000000000000000000
310
0000000000000000000000000000000000000000000000000000000000000000
310
16000500FFFFFFFFFFFFFFFF020000000A00030000000000C000000000000046
310
000000000000000000000000C0BB5285A39BCF0103000000C000000000000000
310
01004F006C006500000000000000000000000000000000000000000000000000
310
0000000000000000000000000000000000000000000000000000000000000000
310
0A000200FFFFFFFFFFFFFFFFFFFFFFFF00000000000000000000000000000000
310
0000000000000000000000000000000000000000000000001400000000000000
310
010043006F006D0070004F0062006A0000000000000000000000000000000000
310
0000000000000000000000000000000000000000000000000000000000000000
310
120002010100000003000000FFFFFFFF00000000000000000000000000000000
310
0000000000000000000000000000000000000000010000004D00000000000000
310
01004F006C006500310030004E00610074006900760065000000000000000000
310
0000000000000000000000000000000000000000000000000000000000000000
310
1A000200FFFFFFFFFFFFFFFFFFFFFFFF00000000000000000000000000000000
310
000000000000000000000000000000000000000004000000E411000000000000
310
FEFFFFFF02000000FEFFFFFFFFFFFFFFFFFFFFFFFFFFFFFFFFFFFFFFFFFFFFFF
310
FFFFFFFFFFFFFFFFFFFFFFFFFFFFFFFFFFFFFFFFFFFFFFFFFFFFFFFFFFFFFFFF
310
FFFFFFFFFFFFFFFFFFFFFFFFFFFFFFFFFFFFFFFFFFFFFFFFFFFFFFFFFFFFFFFF
310
FFFFFFFFFFFFFFFFFFFFFFFFFFFFFFFFFFFFFFFFFFFFFFFFFFFFFFFFFFFFFFFF
310
FFFFFFFFFFFFFFFFFFFFFFFFFFFFFFFFFFFFFFFFFFFFFFFFFFFFFFFFFFFFFFFF
310
FFFFFFFFFFFFFFFFFFFFFFFFFFFFFFFFFFFFFFFFFFFFFFFFFFFFFFFFFFFFFFFF
310
FFFFFFFFFFFFFFFFFFFFFFFFFFFFFFFFFFFFFFFFFFFFFFFFFFFFFFFFFFFFFFFF
310
FFFFFFFFFFFFFFFFFFFFFFFFFFFFFFFFFFFFFFFFFFFFFFFFFFFFFFFFFFFFFFFF
310
FFFFFFFFFFFFFFFFFFFFFFFFFFFFFFFFFFFFFFFFFFFFFFFFFFFFFFFFFFFFFFFF
310
FFFFFFFFFFFFFFFFFFFFFFFFFFFFFFFFFFFFFFFFFFFFFFFFFFFFFFFFFFFFFFFF
310
FFFFFFFFFFFFFFFFFFFFFFFFFFFFFFFFFFFFFFFFFFFFFFFFFFFFFFFFFFFFFFFF
310
FFFFFFFFFFFFFFFFFFFFFFFFFFFFFFFFFFFFFFFFFFFFFFFFFFFFFFFFFFFFFFFF
310
FFFFFFFFFFFFFFFFFFFFFFFFFFFFFFFFFFFFFFFFFFFFFFFFFFFFFFFFFFFFFFFF
310
FFFFFFFFFFFFFFFFFFFFFFFFFFFFFFFFFFFFFFFFFFFFFFFFFFFFFFFFFFFFFFFF
310
FFFFFFFFFFFFFFFFFFFFFFFFFFFFFFFFFFFFFFFFFFFFFFFFFFFFFFFFFFFFFFFF
310
FFFFFFFFFFFFFFFFFFFFFFFFFFFFFFFFFFFFFFFFFFFFFFFFFFFFFFFFFFFFFFFF
310
0100000200000000000000000000000000000000000000000000000000000000
310
0000000000000000000000000000000000000000000000000000000000000000
310
0100FEFF030A0000FFFFFFFF0A00030000000000C00000000000004607000000
310
5042727573680007000000504272757368000700000050427275736800F439B2
310
7100000000000000000000000000000000000000000000000000000000000000
310
0000000000000000000000000000000000000000000000000000000000000000
310
0000000000000000000000000000000000000000000000000000000000000000
310
0000000000000000000000000000000000000000000000000000000000000000
310
0000000000000000000000000000000000000000000000000000000000000000
310
0000000000000000000000000000000000000000000000000000000000000000
310
0000000000000000000000000000000000000000000000000000000000000000
310
0000000000000000000000000000000000000000000000000000000000000000
310
0000000000000000000000000000000000000000000000000000000000000000
310
0000000000000000000000000000000000000000000000000000000000000000
310
0000000000000000000000000000000000000000000000000000000000000000
310
0000000000000000000000000000000000000000000000000000000000000000
310
E0110000424DDE11000000000000360400002800000096000000170000000100
310
08000000000000000000E7240000E72400000001000000010000000000FF0101
310
01FF020202FF030303FF040404FF050505FF060606FF070707FF080808FF0909
310
09FF0A0A0AFF0B0B0BFF0C0C0CFF0D0D0DFF0E0E0EFF0F0F0FFF101010FF1111
310
11FF121212FF131313FF141414FF151515FF161616FF171717FF181818FF1919
310
19FF1A1A1AFF1B1B1BFF1C1C1CFF1D1D1DFF1E1E1EFF1F1F1FFF202020FF2121
310
21FF222222FF232323FF242424FF252525FF262626FF272727FF282828FF2929
310
29FF2A2A2AFF2B2B2BFF2C2C2CFF2D2D2DFF2E2E2EFF2F2F2FFF303030FF3131
310
31FF323232FF333333FF343434FF353535FF363636FF373737FF383838FF3939
310
39FF3A3A3AFF3B3B3BFF3C3C3CFF3D3D3DFF3E3E3EFF3F3F3FFF404040FF4141
310
41FF424242FF434343FF444444FF454545FF464646FF474747FF484848FF4949
310
49FF4A4A4AFF4B4B4BFF4C4C4CFF4D4D4DFF4E4E4EFF4F4F4FFF505050FF5151
310
51FF525252FF535353FF545454FF555555FF565656FF575757FF585858FF5959
310
59FF5A5A5AFF5B5B5BFF5C5C5CFF5D5D5DFF5E5E5EFF5F5F5FFF606060FF6161
310
61FF626262FF636363FF646464FF656565FF666666FF676767FF686868FF6969
310
69FF6A6A6AFF6B6B6BFF6C6C6CFF6D6D6DFF6E6E6EFF6F6F6FFF707070FF7171
310
71FF727272FF737373FF747474FF757575FF767676FF777777FF787878FF7979
310
79FF7A7A7AFF7B7B7BFF7C7C7CFF7D7D7DFF7E7E7EFF7F7F7FFF808080FF8181
310
81FF828282FF838383FF848484FF858585FF868686FF878787FF888888FF8989
310
89FF8A8A8AFF8B8B8BFF8C8C8CFF8D8D8DFF8E8E8EFF8F8F8FFF909090FF9191
310
91FF929292FF939393FF949494FF959595FF969696FF979797FF989898FF9999
310
99FF9A9A9AFF9B9B9BFF9C9C9CFF9D9D9DFF9E9E9EFF9F9F9FFFA0A0A0FFA1A1
310
A1FFA2A2A2FFA3A3A3FFA4A4A4FFA5A5A5FFA6A6A6FFA7A7A7FFA8A8A8FFA9A9
310
A9FFAAAAAAFFABABABFFACACACFFADADADFFAEAEAEFFAFAFAFFFB0B0B0FFB1B1
310
B1FFB2B2B2FFB3B3B3FFB4B4B4FFB5B5B5FFB6B6B6FFB7B7B7FFB8B8B8FFB9B9
310
B9FFBABABAFFBBBBBBFFBCBCBCFFBDBDBDFFBEBEBEFFBFBFBFFFC0C0C0FFC1C1
310
C1FFC2C2C2FFC3C3C3FFC4C4C4FFC5C5C5FFC6C6C6FFC7C7C7FFC8C8C8FFC9C9
310
C9FFCACACAFFCBCBCBFFCCCCCCFFCDCDCDFFCECECEFFCFCFCFFFD0D0D0FFD1D1
310
D1FFD2D2D2FFD3D3D3FFD4D4D4FFD5D5D5FFD6D6D6FFD7D7D7FFD8D8D8FFD9D9
310
D9FFDADADAFFDBDBDBFFDCDCDCFFDDDDDDFFDEDEDEFFDFDFDFFFE0E0E0FFE1E1
310
E1FFE2E2E2FFE3E3E3FFE4E4E4FFE5E5E5FFE6E6E6FFE7E7E7FFE8E8E8FFE9E9
310
E9FFEAEAEAFFEBEBEBFFECECECFFEDEDEDFFEEEEEEFFEFEFEFFFF0F0F0FFF1F1
310
F1FFF2F2F2FFF3F3F3FFF4F4F4FFF5F5F5FFF6F6F6FFF7F7F7FFF8F8F8FFF9F9
310
F9FFFAFAFAFFFBFBFBFFFCFCFCFFFDFDFDFFFEFEFEFFFFFFFFFFFFFFFFFFFFFF
310
C94E4E4E4F4E4EFFFFFFFFFFC94E4E4E4E4E72FFFFFFFFFFFFFF734E4D4E4E4E
310
C9FFFFFFFFFFAA683516171616265B9BE9FFFFFFFFFF4E4E4E4D4E4EFFFFFFFF
310
FFFFFFFF4E4E4F4E4D4E4E4E4F4E4E4F4D4E4E4E4E4E4D4E4F4E4D4E4E4EAAFF
310
FFFFFFFFFFEA4E4F4F4E4E4E4E4E4D4D4F4F4E4E4E4E4E5B7FAAFFFFFFFFFFFF
310
C9744E1716171616164D8DEAFFFFFFFF0000FFFFFFFFFFFFBA161617161716FF
310
FFFFFFFFB917171616174FFFFFFFFFFFFFFF4E1716161616B9FFFFFFB9341717
310
1716171617171616268CFFFFFFFF161617161617FFFFFFFFFFFFFFB917161717
310
1617167F807F7F7F7F7F7F807F7F807F7F807F7F7F414EFFFFFFFFFFFF8C167F
310
7F807F7F7F7E7F7F807F807F7F807F4E3417258EFFFFEA4E162674AABAEAEBBA
310
AA74341680FFFFFF0000FFFFFFFFFFFFB9171717171617FFFFFFFFFFBB161616
310
16164EFFFFFFFFFFFFFF4E1717171717B9FFFF9C171617171716161616171616
310
171766FFFFFF161717161617FFFFFFFFFFFFFF8E16171717161616FFFFFFFFFF
310
FFFFFFFFFFFFFFFFFFFFFFFFFFAA16D9FFFFFFFFFF3467FFFFFFFFEAFFFFFFFF
310
FFFFFFFFFFFFFFFFFFCA671667EB26278DFFFFFFFFFFFFFFFFFFFF8C2541EAFF
310
0000FFFFFFFFFFFFB9171717171716FFFFFFFFFFBA16171617174EFFFFFFFFFF
310
FFFF4E1717161616BAFF9B1617161616171716171617161616161667FFFF1616
310
16161716FFFFFFFFFFFFFF7F16161617174017FFFFFFFFFFFFFFFFFFFFFFFFFF
310
FFFFFFFFFFFF344E7F7F7F7E7417DAFFFFFFFF80FFFFFFFFFFFFFFFFFFFFFFFF
310
FFFFFF9B163425CAFFFFFFFFFFFFFFFFFFFFFFFFCA2667FF0000FFFFFFFFFFFF
310
BA171717171617FFFFFFFFFFB916171716164EFFFFFFFFFFFFFF4F1716161717
310
B9C91716171616161716161617171616161617168DFF161716161717FFFFFFFF
310
FFFFFF7F17171716164F16FFFFFFFFFFFFFFFFFFFFFFFFFFFFFFFFFFFFFF9B16
310
17161617174EFFFFFFFFFF34FFFFFFFFD9BABABABABADAFFFFFFFFFF7F16AAFF
310
FFFFFFFFFFFFFFFFFFFFFFFFFF9C16BA0000FFFFFFFFFFFFB9161717161717FF
310
FFFFFFFFB917161716174DFFFFFFFFFFFFFF4E1616161616BA4E161617171716
310
419BEAEAAA4E16161617161726E9171717161616FFFFFFFFFFFFFF4F16161717
310
164E16FFFFFFFFFFBAB9B9B9B9B9BABABACAFFFFFFFFFFFFFFFFFFFFFFFFFFFF
310
FFFFBA16FFFFFFFF7F1617161617174DEAFFFFFFEA41FFFFFFFFFFAA4D16174E
310
9BFFFFFFFFFF34730000FFFFFFFFFFFFB9161617171617FFFFFFFFFFBA161616
310
16164EFFFFFFFFFFFFFF4F16161717169B1617161716175BFFFFFFFFFFFF7417
310
16171616168D171717161617FFFFFFFFFFFFEA2616171717167416FFFFFFFFFF
310
16171616171717171717EAFFFFFFFFFFFFFFFFFFFFFFFFFFFFFF6716FFFFFFFF
310
7F4EFFFFFFFFBA2573FFFFFFFFBAFFFFFFFFAA167FB9BB9B269BFFFFFFFF664F
310
0000FFFFFFFFFFFFB9171616161616FFFFFFFFFFBA16161717164EFFFFFFFFFF
310
FFFF4E16161616174E161617171626EAFFFFFFFFFFFFFF4E16161616164E1716
310
16161617FFFFFFFFFFFF671616161716347F16FFFFFFFFFF16B9FFFFFFFFFFFF
310
D9168DFFFFFFFFFFFFFFFFFFFFFFFFFFFFEA1716FFFFFFFF7F4EFFFFFFFFFF7F
310
4EFFFFFFFFFFFFFFFFFF5B66FFFFFFEA347FFFFFFFFF7F4D0000FFFFFFFFFFFF
310
B9171616171617FFFFFFFFFFBA17161716174EFFFFFFFFFFFFFF4D1716161617
310
17161716161673FFFFFFFFFFFFFFFF9B1617161717161616171616174F4E4E4E
310
4E341616171616167E7F16FFFFFFFFFF16BAFFFFFFFFFFFFFF5B41FFFFFFFF34
310
1616171616BAFFFFFF9B1716FFFFFFFF7F4EFFFFFFFFFF4E4EFFFFFFFF734E4E
310
4E4E267EDA9B67164EEAFFFFFFFF744D0000FFFFFFFFFFFFBA171717161617FF
310
FFFFFFFFBA1616171616347F7F7F7F80807F331616161717161717161716B9FF
310
FFFFFFFFFFFFFFE9161616161616171716161716171616161616171616171734
310
EA7F16FFFFFFFFFF16BAFFFFFFFFFFFFFFAA17C9FFFFFF7326BABA5B25FFFFFF
310
FF401716FFFFFFFF7F264F4E4E4E4217AAFFFFFFEA16677F73261616164173CA
310
FFFFFFFFFFFF417F0000FFFFFFFFFFFFBA171616171617FFFFFFFFFFBA161616
310
17171616161616161616161717161616161616161617EAFFFFFFFFFFFFFFFFFF
310
261717161716161617161616161617161617161616174EEAFF8016FFFFFFFFFF
310
17BAFFFFFFFFFFFFFFFF3467FFFFFFC916C9FF3467FFFFFFDA166716FFFFFFFF
310
9C4D4E4E4E4E67AAFFFFFFFF6834FF7F262567AAEAFFFFFFFFFFFFFFFF9B17D9
310
0000FFFFFFFFFFFFB9161616161616FFFFFFFFFFBA1617161717171616161616
310
1716171716161716161617171716FFFFFFFFFFFFFFFFFFFF4E17161716171616
310
1617171616161716171717161616169BFF7F17FFFFFFFFFF17B9FFFFFFFFFFFF
310
FFFF7326FFFFFFFF3473DA16AAFFFFFF7317AA16FFFFFFFFFFFFFFFFFFFFFFFF
310
FFFFEA6725BA4E167FEAFFFFFFFFFFFFFFFFFFFF9C167FFF0000FFFFFFFFFFFF
310
B9161717171716FFFFFFFFFFBA16161716171616171717161617161716161616
310
171617171617EAFFFFFFFFFFFFFFFFFF26161717161616161616161617171616
310
1616161616171616AA8016FFFFFFFFFF16BAFFFFFFFFFFFFFFFFDA179BFFFFFF
310
74348D26FFFFFFFF2566B917FFFFFFFFD8BAB9BAB9BADAFFFFEA41169B7425C9
310
FFFFFFFFFFFFFFFFFFFFAB4F1680FFFF0000FFFFFFFFFFFFBA161717171617FF
310
FFFFFFFFBA17161717161617171617161616161617171616171716171617BBFF
310
FFFFFFFFFFFFFFE9171616161617161617161716FFFFFFFFFFD9671616161617
310
348017FFFFFFFFFF16BAFFFFFFFFFFFFFFFFFF4E5AFFFFFFC916265AFFFFFFAA
310
16AABA16FFFFFFFF7F1617161616179BFFFFEB4127168DFFFFFFFFFFFFFFD99B
310
6734175AC9FFFFFF0000FFFFFFFFFFFFB9161617171617FFFFFFFFFFBB161616
310
1616347F807F7F7F7F8033171716171617171616161672FFFFFFFFFFFFFFFF9C
310
171617171617161716161617FFFFFFFFFFFFFF4117161616174E17FFFFFFFFFF
310
16BAFFFFFFFFFFFFFFFFFF9B16DAFFFFFF34169BFFFFFF5A26FFB917FFFFFFFF
310
7F4EFFFFFFEA5B26FFFFFFEA2616EAFFFFFFFFDA743416331617414E4E4E4ECA
310
0000FFFFFFFFFFFFBA161716161616FFFFFFFFFFBA17171616164EFFFFFFFFFF
310
FFFF4E16161717174E161717171626EBFFFFFFFFFFFFFF4E16161617165B1616
310
16171617FFFFFFFFFFFFFF6716161616161617FFFFFFFFFF16BAFFFFFFFFFFFF
310
FFFFFFEA268CFFFFFF7316EAFFFFEB1774FFB916FFFFFFFF7F4EFFFFFFFF7316
310
FFFFFFFF6826FFFFFFFFEB264D9CEABA257F807F7F6616BA0000FFFFFFFFFFFF
310
BA161716161616FFFFFFFFFFBA16171616164DFFFFFFFFFFFFFF4E1617161617
310
9B1617171717165BEBFFFFFFFFFF671616161617179B171616161616FFFFFFFF
310
FFFFFF3417161617171617FFFFFFFFFF17BAFFFFFFFFFFFFFFFFFFFF6734FFFF
310
FFEBCAFFFFFF8D17C9FFBA17FFFFFFFF7F357F808066174FFFFFFFFF7F16FFFF
310
FFFFD91673B99B415BFFFFFFFFBA16DA00009B7F7F7F807F671617161616167F
310
80807F7E6617161616164EFFFFFFFFFFFFFF4E1616161617B94E171716161616
310
349BC9D9AA4E16171616161634FF161617161717B9B9BAB9BA9B411716171716
310
163416FFFFFFFFFF16B9FFFFFFFFFFFFFFFFFFFFC917CAFFFFFFFFFFFFFF3342
310
FFFFBA17FFFFFFFF9B4E4E4F4E4E66EAFFFFFFFF5B16C9FFFFFFFFAA4E164E73
310
EAFFFFFFFF8D26FF00004E161716161616171617171616171717171617161616
310
17174EFFFFFFFFFFFFFF4E1717171616B9D92616171716171716171717171716
310
16171716AAFF161717171617161617171616161617161716166717FFFFFFFFFF
310
17B9FFFFFFFFFFFFFFFFFFFFFF3467FFFFFFFFFFFFCA168CFFFFBB17FFFFFFFF
310
FFFFFFFFFFFFFFFFFFFFFFEA26265BFFFFFFFFFFFFFFFFFFFFFFFFFFEA3467FF
310
00004D16161616161617161717161617161616171617171616164EFFFFFFFFFF
310
FFFF4D1617161616BAFF9B1616161616161716161616171717161766FFFF1616
310
16171617161617161716171616171717667F16FFFFFFFFFF17BAFFFFFFFFFFFF
310
FFFFFFFFFF8C26EAFFFFFFFFFF6617EAFFFFBA17FFFFFFFFFFFFFFFFFFFFFFFF
310
FFFFEA5A25BA269BFFFFFFFFFFFFFFFFFFFFFFFF6616DAFF00004E1616171616
310
1616161616161716161617171616171616174EFFFFFFFFFFFFFF4D1717171716
310
B9FFFF9C161616161616161716161717171667FFFFFF17161717171716161617
310
1716161616161641E97E16FFFFFFFFFF16B9FFFFFFFFFFFFFFFFFFFFFFEA169B
310
FFFFFFFFEA265BFFFFFFB916FFFFFFFFFFFFFFFFFFFFFFFFFF9B3416AAFF9B17
310
67EAFFFFFFFFFFFFFFFFEA5B169BFFFF00004D17161716161616161717171616
310
161717161716171716174EFFFFFFFFFFFFFF4D1616161616BAFFFFFFBB411616
310
161716161616171634ABFFFFFFFF161716161617171716171617171617267FFF
310
FF7F164E4E4E4E4F17BAFFFFFFFFFFFFFFFFFFFFFFFF66344D4E4E4F4117AAFF
310
FFFFBA174E4E4E4D4E4D4D4E4E4E4E4116174EBBFFFFFFCA342666ABEAFFFFEA
310
AA6725269CFFFFFF0000724F4E4D4D4D4E4D4D4E4E4E4D4E4E4E4E4E4E4E4E4D
310
4E4E74FFFFFFFFFFFFFF734E4E4E4D4ECAFFFFFFFFFFAA663416171717265B9B
310
FFFFFFFFFFFF7F8080807F80807F7F7F7F7F807FBAFFFFFFFF9B4E4E4F4D4D4E
310
4DC9FFFFFFFFFFFFFFFFFFFFFFFFBA4E4E4E4E4D4E4EFFFFFFFFC94E4E4E4F4E
310
4E4E4D4E4E5A807F9CD9FFFFFFFFFFFFFF9B5B2617171716174E8DEAFFFFFFFF
310
0000000000000000000000000000000000000000000000000000000000000000
  1
OLE
  0
ENDSEC
  0
SECTION
  2
OBJECTS
  0
DICTIONARY
  5
C
330
0
100
AcDbDictionary
281
     1
  3
ACAD_GROUP
350
D
  3
ACAD_LAYOUT
350
1A
  3
ACAD_MLINESTYLE
350
17
  3
ACAD_PLOTSETTINGS
350
19
  3
ACAD_PLOTSTYLENAME
350
E
  0
DICTIONARY
  5
D
102
{ACAD_REACTORS
330
C
102
}
330
C
100
AcDbDictionary
281
     1
  0
DICTIONARY
  5
1A
102
{ACAD_REACTORS
330
C
102
}
330
C
100
AcDbDictionary
281
     1
  3
Layout1
350
1E
  3
Layout2
350
26
  3
Model
350
22
  0
DICTIONARY
  5
17
102
{ACAD_REACTORS
330
C
102
}
330
C
100
AcDbDictionary
281
     1
  3
Standard
350
18
  0
DICTIONARY
  5
19
102
{ACAD_REACTORS
330
C
102
}
330
C
100
AcDbDictionary
281
     1
  0
ACDBDICTIONARYWDFLT
  5
E
102
{ACAD_REACTORS
330
C
102
}
330
C
100
AcDbDictionary
281
     1
  3
Normal
350
F
100
AcDbDictionaryWithDefault
340
F
  0
LAYOUT
  5
1E
102
{ACAD_REACTORS
330
1A
102
}
330
1A
100
AcDbPlotSettings
  1

  2
none_device
  4

  6

 40
0.0
 41
0.0
 42
0.0
 43
0.0
 44
0.0
 45
0.0
 46
0.0
 47
0.0
 48
0.0
 49
0.0
140
0.0
141
0.0
142
1.0
143
1.0
 70
   688
 72
     0
 73
     0
 74
     5
  7

 75
    16
147
1.0
148
0.0
149
0.0
100
AcDbLayout
  1
Layout1
 70
     1
 71
     1
 10
0.0
 20
0.0
 11
420.0
 21
297.0
 12
0.0
 22
0.0
 32
0.0
 14
1.0000000000E+20
 24
1.0000000000E+20
 34
1.0000000000E+20
 15
-1.0000000000E+20
 25
-1.0000000000E+20
 35
-1.0000000000E+20
146
0.0
 13
0.0
 23
0.0
 33
0.0
 16
1.0
 26
0.0
 36
0.0
 17
0.0
 27
1.0
 37
0.0
 76
     0
330
1B
  0
LAYOUT
  5
26
102
{ACAD_REACTORS
330
1A
102
}
330
1A
100
AcDbPlotSettings
  1

  2
none_device
  4

  6

 40
0.0
 41
0.0
 42
0.0
 43
0.0
 44
0.0
 45
0.0
 46
0.0
 47
0.0
 48
0.0
 49
0.0
140
0.0
141
0.0
142
1.0
143
1.0
 70
   688
 72
     0
 73
     0
 74
     5
  7

 75
    16
147
1.0
148
0.0
149
0.0
100
AcDbLayout
  1
Layout2
 70
     1
 71
     2
 10
0.0
 20
0.0
 11
0.0
 21
0.0
 12
0.0
 22
0.0
 32
0.0
 14
0.0
 24
0.0
 34
0.0
 15
0.0
 25
0.0
 35
0.0
146
0.0
 13
0.0
 23
0.0
 33
0.0
 16
1.0
 26
0.0
 36
0.0
 17
0.0
 27
1.0
 37
0.0
 76
     0
330
23
  0
LAYOUT
  5
22
102
{ACAD_REACTORS
330
1A
102
}
330
1A
100
AcDbPlotSettings
  1

  2
none_device
  4

  6

 40
0.0
 41
0.0
 42
0.0
 43
0.0
 44
0.0
 45
0.0
 46
0.0
 47
0.0
 48
0.0
 49
0.0
140
0.0
141
0.0
142
1.0
143
1.0
 70
  1712
 72
     0
 73
     0
 74
     0
  7

 75
     0
147
1.0
148
0.0
149
0.0
100
AcDbLayout
  1
Model
 70
     1
 71
     0
 10
0.0
 20
0.0
 11
279.4
 21
215.9
 12
0.0
 22
0.0
 32
0.0
 14
0.0
 24
0.0
 34
0.0
 15
279.4
 25
215.9
 35
0.0
146
0.0
 13
0.0
 23
0.0
 33
0.0
 16
1.0
 26
0.0
 36
0.0
 17
0.0
 27
1.0
 37
0.0
 76
     0
330
1F
331
29
  0
MLINESTYLE
  5
18
102
{ACAD_REACTORS
330
17
102
}
330
17
100
AcDbMlineStyle
  2
Standard
 70
     0
  3

 62
   256
 51
90.0
 52
90.0
 71
     2
 49
0.5
 62
   256
  6
BYLAYER
 49
-0.5
 62
   256
  6
BYLAYER
  0
ACDBPLACEHOLDER
  5
F
102
{ACAD_REACTORS
330
E
102
}
330
E
  0
ENDSEC
  0
EOF
