  0
SECTION
  2
HEADER
  9
$ACADVER
  1
AC1015
  9
$ACADMAINTVER
 70
     6
  9
$DWGCODEPAGE
  3
ANSI_1252
  9
$INSBASE
 10
0.0
 20
0.0
 30
0.0
  9
$EXTMIN
 10
0.0
 20
0.0
 30
0.0
  9
$EXTMAX
 10
279.4
 20
215.9
 30
0.0
  9
$LIMMIN
 10
0.0
 20
0.0
  9
$LIMMAX
 10
279.4
 20
215.9
  9
$ORTHOMODE
 70
     0
  9
$REGENMODE
 70
     1
  9
$FILLMODE
 70
     1
  9
$QTEXTMODE
 70
     0
  9
$MIRRTEXT
 70
     1
  9
$LTSCALE
 40
1.0
  9
$ATTMODE
 70
     1
  9
$TEXTSIZE
 40
2.8222222222
  9
$TRACEWID
 40
1.0
  9
$TEXTSTYLE
  7
Standard
  9
$CLAYER
  8
0
  9
$CELTYPE
  6
ByLayer
  9
$CECOLOR
 62
   256
  9
$CELTSCALE
 40
1.0
  9
$DISPSILH
 70
     0
  9
$DIMSCALE
 40
1.0
  9
$DIMASZ
 40
3.175
  9
$DIMEXO
 40
1.27
  9
$DIMDLI
 40
3.75
  9
$DIMRND
 40
0.0
  9
$DIMDLE
 40
0.0
  9
$DIMEXE
 40
1.778
  9
$DIMTP
 40
0.0
  9
$DIMTM
 40
0.0
  9
$DIMTXT
 40
2.8222222222
  9
$DIMCEN
 40
2.5
  9
$DIMTSZ
 40
0.0
  9
$DIMTOL
 70
     0
  9
$DIMLIM
 70
     0
  9
$DIMTIH
 70
     1
  9
$DIMTOH
 70
     1
  9
$DIMSE1
 70
     0
  9
$DIMSE2
 70
     0
  9
$DIMTAD
 70
     1
  9
$DIMZIN
 70
     1
  9
$DIMBLK
  1

  9
$DIMASO
 70
     1
  9
$DIMSHO
 70
     1
  9
$DIMPOST
  1

  9
$DIMAPOST
  1

  9
$DIMALT
 70
     0
  9
$DIMALTD
 70
     3
  9
$DIMALTF
 40
0.0393700787
  9
$DIMLFAC
 40
1.0
  9
$DIMTOFL
 70
     1
  9
$DIMTVP
 40
0.0
  9
$DIMTIX
 70
     0
  9
$DIMSOXD
 70
     0
  9
$DIMSAH
 70
     0
  9
$DIMBLK1
  1

  9
$DIMBLK2
  1

  9
$DIMSTYLE
  2
ISO-25
  9
$DIMCLRD
 70
     0
  9
$DIMCLRE
 70
     0
  9
$DIMCLRT
 70
     0
  9
$DIMTFAC
 40
1.0
  9
$DIMGAP
 40
2.54
  9
$DIMJUST
 70
     0
  9
$DIMSD1
 70
     0
  9
$DIMSD2
 70
     0
  9
$DIMTOLJ
 70
     0
  9
$DIMTZIN
 70
     1
  9
$DIMALTZ
 70
     0
  9
$DIMALTTZ
 70
     0
  9
$DIMUPT
 70
     0
  9
$DIMDEC
 70
     1
  9
$DIMTDEC
 70
     1
  9
$DIMALTU
 70
     2
  9
$DIMALTTD
 70
     3
  9
$DIMTXSTY
  7
Standard
  9
$DIMAUNIT
 70
     0
  9
$DIMADEC
 70
     0
  9
$DIMALTRND
 40
0.0
  9
$DIMAZIN
 70
     0
  9
$DIMDSEP
 70
    44
  9
$DIMATFIT
 70
     3
  9
$DIMFRAC
 70
     0
  9
$DIMLDRBLK
  1

  9
$DIMLUNIT
 70
     2
  9
$DIMLWD
 70
    -2
  9
$DIMLWE
 70
    -2
  9
$DIMTMOVE
 70
     0
  9
$LUNITS
 70
     2
  9
$LUPREC
 70
     1
  9
$SKETCHINC
 40
1.0
  9
$FILLETRAD
 40
10.0
  9
$AUNITS
 70
     0
  9
$AUPREC
 70
     0
  9
$MENU
  1
.
  9
$ELEVATION
 40
0.0
  9
$PELEVATION
 40
0.0
  9
$THICKNESS
 40
0.0
  9
$LIMCHECK
 70
     0
  9
$CHAMFERA
 40
10.0
  9
$CHAMFERB
 40
10.0
  9
$CHAMFERC
 40
20.0
  9
$CHAMFERD
 40
0.0
  9
$SKPOLY
 70
     0
  9
$TDCREATE
 40
2456244.563545729
  9
$TDUCREATE
 40
2456244.771879063
  9
$TDUPDATE
 40
2456244.563545741
  9
$TDUUPDATE
 40
2456244.771879074
  9
$TDINDWG
 40
0.0000000116
  9
$TDUSRTIMER
 40
0.0000000116
  9
$USRTIMER
 70
     1
  9
$ANGBASE
 50
0.0
  9
$ANGDIR
 70
     0
  9
$PDMODE
 70
     0
  9
$PDSIZE
 40
-1.0
  9
$PLINEWID
 40
0.0
  9
$SPLFRAME
 70
     0
  9
$SPLINETYPE
 70
     6
  9
$SPLINESEGS
 70
     8
  9
$HANDSEED
  5
239
  9
$SURFTAB1
 70
     6
  9
$SURFTAB2
 70
     6
  9
$SURFTYPE
 70
     6
  9
$SURFU
 70
     6
  9
$SURFV
 70
     6
  9
$UCSBASE
  2

  9
$UCSNAME
  2

  9
$UCSORG
 10
0.0
 20
0.0
 30
0.0
  9
$UCSXDIR
 10
1.0
 20
0.0
 30
0.0
  9
$UCSYDIR
 10
0.0
 20
1.0
 30
0.0
  9
$UCSORTHOREF
  2

  9
$UCSORTHOVIEW
 70
     0
  9
$UCSORGTOP
 10
0.0
 20
0.0
 30
0.0
  9
$UCSORGBOTTOM
 10
0.0
 20
0.0
 30
0.0
  9
$UCSORGLEFT
 10
0.0
 20
0.0
 30
0.0
  9
$UCSORGRIGHT
 10
0.0
 20
0.0
 30
0.0
  9
$UCSORGFRONT
 10
0.0
 20
0.0
 30
0.0
  9
$UCSORGBACK
 10
0.0
 20
0.0
 30
0.0
  9
$PUCSBASE
  2

  9
$PUCSNAME
  2

  9
$PUCSORG
 10
0.0
 20
0.0
 30
0.0
  9
$PUCSXDIR
 10
1.0
 20
0.0
 30
0.0
  9
$PUCSYDIR
 10
0.0
 20
1.0
 30
0.0
  9
$PUCSORTHOREF
  2

  9
$PUCSORTHOVIEW
 70
     0
  9
$PUCSORGTOP
 10
0.0
 20
0.0
 30
0.0
  9
$PUCSORGBOTTOM
 10
0.0
 20
0.0
 30
0.0
  9
$PUCSORGLEFT
 10
0.0
 20
0.0
 30
0.0
  9
$PUCSORGRIGHT
 10
0.0
 20
0.0
 30
0.0
  9
$PUCSORGFRONT
 10
0.0
 20
0.0
 30
0.0
  9
$PUCSORGBACK
 10
0.0
 20
0.0
 30
0.0
  9
$USERI1
 70
     0
  9
$USERI2
 70
     0
  9
$USERI3
 70
     0
  9
$USERI4
 70
     0
  9
$USERI5
 70
     0
  9
$USERR1
 40
0.0
  9
$USERR2
 40
0.0
  9
$USERR3
 40
0.0
  9
$USERR4
 40
0.0
  9
$USERR5
 40
0.0
  9
$WORLDVIEW
 70
     1
  9
$SHADEDGE
 70
     3
  9
$SHADEDIF
 70
    70
  9
$TILEMODE
 70
     1
  9
$MAXACTVP
 70
    64
  9
$PINSBASE
 10
0.0
 20
0.0
 30
0.0
  9
$PLIMCHECK
 70
     0
  9
$PEXTMIN
 10
1.0000000000E+20
 20
1.0000000000E+20
 30
1.0000000000E+20
  9
$PEXTMAX
 10
-1.0000000000E+20
 20
-1.0000000000E+20
 30
-1.0000000000E+20
  9
$PLIMMIN
 10
0.0
 20
0.0
  9
$PLIMMAX
 10
420.0
 20
297.0
  9
$UNITMODE
 70
     0
  9
$VISRETAIN
 70
     1
  9
$PLINEGEN
 70
     0
  9
$PSLTSCALE
 70
     1
  9
$TREEDEPTH
 70
  3020
  9
$CMLSTYLE
  2
Standard
  9
$CMLJUST
 70
     0
  9
$CMLSCALE
 40
20.0
  9
$PROXYGRAPHICS
 70
     1
  9
$MEASUREMENT
 70
     1
  9
$CELWEIGHT
370
    -1
  9
$ENDCAPS
280
     0
  9
$JOINSTYLE
280
     0
  9
$LWDISPLAY
290
     1
  9
$INSUNITS
 70
     4
  9
$HYPERLINKBASE
  1

  9
$STYLESHEET
  1

  9
$XEDIT
290
     1
  9
$CEPSNTYPE
380
     0
  9
$PSTYLEMODE
290
     1
  9
$FINGERPRINTGUID
  2
{625E0F95-09A7-4178-81A4-DAF4F0BA6CB6}
  9
$VERSIONGUID
  2
{FAEB1C32-E019-11D5-929B-00C0DF256EC4}
  9
$EXTNAMES
290
     1
  9
$PSVPSCALE
 40
0.0
  9
$OLESTARTUP
290
     0
  0
ENDSEC
  0
SECTION
  2
CLASSES
  0
CLASS
  1
ACDBDICTIONARYWDFLT
  2
AcDbDictionaryWithDefault
  3
ObjectDBX Classes
 90
        0
280
     0
281
     0
  0
CLASS
  1
VISUALSTYLE
  2
AcDbVisualStyle
  3
ObjectDBX Classes
 90
     4095
280
     0
281
     0
  0
CLASS
  1
MATERIAL
  2
AcDbMaterial
  3
ObjectDBX Classes
 90
     1153
280
     0
281
     0
  0
CLASS
  1
ACDBPLACEHOLDER
  2
AcDbPlaceHolder
  3
ObjectDBX Classes
 90
        0
280
     0
281
     0
  0
CLASS
  1
LAYOUT
  2
AcDbLayout
  3
ObjectDBX Classes
 90
        0
280
     0
281
     0
  0
ENDSEC
  0
SECTION
  2
TABLES
  0
TABLE
  2
VPORT
  5
8
330
0
100
AcDbSymbolTable
 70
     1
  0
VPORT
  5
29
330
8
100
AcDbSymbolTableRecord
100
AcDbViewportTableRecord
  2
*Active
 70
     0
 10
0.0
 20
0.0
 11
1.0
 21
1.0
 12
139.7
 22
107.95
 13
0.0
 23
0.0
 14
10.0
 24
10.0
 15
10.0
 25
10.0
 16
0.0
 26
0.0
 36
1.0
 17
0.0
 27
0.0
 37
0.0
 40
215.9
 41
1.2941176471
 42
50.0
 43
0.0
 44
0.0
 50
0.0
 51
0.0
 71
     0
 72
  2000
 73
     1
 74
     3
 75
     0
 76
     0
 77
     0
 78
     0
281
     0
 65
     1
110
0.0
120
0.0
130
0.0
111
1.0
121
0.0
131
0.0
112
0.0
122
1.0
132
0.0
 79
     0
146
0.0
  0
ENDTAB
  0
TABLE
  2
LTYPE
  5
5
330
0
100
AcDbSymbolTable
 70
     6
  0
LTYPE
  5
14
330
5
100
AcDbSymbolTableRecord
100
AcDbLinetypeTableRecord
  2
ByBlock
 70
     0
  3

 72
    65
 73
     0
 40
0.0
  0
LTYPE
  5
15
330
5
100
AcDbSymbolTableRecord
100
AcDbLinetypeTableRecord
  2
ByLayer
 70
     0
  3

 72
    65
 73
     0
 40
0.0
  0
LTYPE
  5
16
330
5
100
AcDbSymbolTableRecord
100
AcDbLinetypeTableRecord
  2
Continuous
 70
     0
  3
Solid line
 72
    65
 73
     0
 40
0.0
  0
LTYPE
  5
3F
330
5
100
AcDbSymbolTableRecord
100
AcDbLinetypeTableRecord
  2
HIDDEN
 70
     0
  3
Hidden __ __ __ __ __ __ __ __ __ __ __ __ __ __
 72
    65
 73
     2
 40
1.905
 49
1.27
 74
     0
 49
-0.635
 74
     0
  0
LTYPE
  5
40
330
5
100
AcDbSymbolTableRecord
100
AcDbLinetypeTableRecord
  2
PHANTOM
 70
     0
  3
Phantom ______  __  __  ______  __  __  ______
 72
    65
 73
     6
 40
12.7
 49
6.35
 74
     0
 49
-1.27
 74
     0
 49
1.27
 74
     0
 49
-1.27
 74
     0
 49
1.27
 74
     0
 49
-1.27
 74
     0
  0
LTYPE
  5
41
330
5
100
AcDbSymbolTableRecord
100
AcDbLinetypeTableRecord
  2
CENTER
 70
     0
  3
Center ____ _ ____ _ ____ _ ____ _ ____ _ ____
 72
    65
 73
     4
 40
10.16
 49
6.35
 74
     0
 49
-1.27
 74
     0
 49
1.27
 74
     0
 49
-1.27
 74
     0
  0
LTYPE
  5
42
330
5
100
AcDbSymbolTableRecord
100
AcDbLinetypeTableRecord
  2
CENTERX2
 70
     0
  3
Center (2x) ________  __  ________  __  _____
 72
    65
 73
     4
 40
20.32
 49
12.7
 74
     0
 49
-2.54
 74
     0
 49
2.54
 74
     0
 49
-2.54
 74
     0
  0
LTYPE
  5
43
330
5
100
AcDbSymbolTableRecord
100
AcDbLinetypeTableRecord
  2
DOT2
 70
     0
  3
Dot (.5x) ........................................
 72
    65
 73
     2
 40
0.635
 49
0.0
 74
     0
 49
-0.635
 74
     0
  0
ENDTAB
  0
TABLE
  2
LAYER
  5
2
330
0
100
AcDbSymbolTable
 70
     2
  0
LAYER
  5
10
330
2
100
AcDbSymbolTableRecord
100
AcDbLayerTableRecord
  2
0
 70
     0
 62
     7
  6
Continuous
370
    -3
390
F
  0
LAYER
  5
44
330
2
100
AcDbSymbolTableRecord
100
AcDbLayerTableRecord
  2
FORMAT
 70
     0
 62
     7
  6
Continuous
370
    -3
390
F
  0
ENDTAB
  0
TABLE
  2
STYLE
  5
3
330
0
100
AcDbSymbolTable
 70
     5
  0
STYLE
  5
11
330
3
100
AcDbSymbolTableRecord
100
AcDbTextStyleTableRecord
  2
Standard
 70
     0
 40
0.0
 41
1.0
 50
0.0
 71
     0
 42
2.5
  3
txt
  4

  0
STYLE
  5
6B
330
3
100
AcDbSymbolTableRecord
100
AcDbTextStyleTableRecord
  2
SLDTEXTSTYLE0
 70
     0
 40
0.0
 41
0.75
 50
0.0
 71
     0
 42
0.2
  3
TXT
  4

  0
STYLE
  5
75
330
3
100
AcDbSymbolTableRecord
100
AcDbTextStyleTableRecord
  2
SLDTEXTSTYLE1
 70
     0
 40
0.0
 41
0.6
 50
0.0
 71
     0
 42
0.2
  3
TXT
  4

  0
STYLE
  5
9E
330
3
100
AcDbSymbolTableRecord
100
AcDbTextStyleTableRecord
  2
SLDTEXTSTYLE2
 70
     0
 40
0.0
 41
0.75
 50
0.0
 71
     0
 42
0.2
  3
TXT
  4
bigfont
  0
STYLE
  5
B2
330
3
100
AcDbSymbolTableRecord
100
AcDbTextStyleTableRecord
  2
SLDTEXTSTYLE3
 70
     0
 40
0.0
 41
0.7
 50
0.0
 71
     0
 42
0.2
  3
TXT
  4

  0
ENDTAB
  0
TABLE
  2
VIEW
  5
6
330
0
100
AcDbSymbolTable
 70
     0
  0
ENDTAB
  0
TABLE
  2
UCS
  5
7
330
0
100
AcDbSymbolTable
 70
     0
  0
ENDTAB
  0
TABLE
  2
APPID
  5
9
330
0
100
AcDbSymbolTable
 70
     1
  0
APPID
  5
12
330
9
100
AcDbSymbolTableRecord
100
AcDbRegAppTableRecord
  2
ACAD
 70
     0
  0
ENDTAB
  0
TABLE
  2
DIMSTYLE
  5
A
330
0
100
AcDbSymbolTable
 70
     5
100
AcDbDimStyleTable
  0
DIMSTYLE
105
27
330
A
100
AcDbSymbolTableRecord
100
AcDbDimStyleTableRecord
  2
ISO-25
 70
     0
 41
2.5
 42
0.625
 43
3.75
 44
1.25
 73
     0
 74
     0
 77
     1
 78
     8
140
2.5
141
2.5
143
0.0393700787
147
0.625
171
     3
172
     1
178
     0
271
     2
272
     2
274
     3
278
    44
283
     0
284
     8
340
11
  0
DIMSTYLE
105
BF
102
{ACAD_REACTORS
330
BE
102
}
330
A
100
AcDbSymbolTableRecord
100
AcDbDimStyleTableRecord
  2
SLDDIMSTYLE0
 70
     0
 41
3.175
 44
0.0
 45
0.000000001
 78
    12
 79
     3
140
2.1166666667
141
0.0
143
0.0393700787
147
0.5291666667
148
0.000000001
170
     1
173
     1
178
     0
271
     1
272
     1
276
     2
284
    12
340
6B
  0
DIMSTYLE
105
200
102
{ACAD_REACTORS
330
1FF
102
}
330
A
100
AcDbSymbolTableRecord
100
AcDbDimStyleTableRecord
  2
SLDDIMSTYLE1
 70
     0
 41
3.175
 44
0.0
 45
0.000000001
 78
     4
 79
     1
140
2.1166666667
141
0.0
143
0.0393700787
147
0.5291666667
148
0.000000001
170
     1
173
     1
178
     0
271
     1
272
     1
276
     2
284
    12
340
6B
  0
DIMSTYLE
105
211
102
{ACAD_REACTORS
330
210
102
}
330
A
100
AcDbSymbolTableRecord
100
AcDbDimStyleTableRecord
  2
SLDDIMSTYLE2
 70
     0
 41
3.175
 44
0.0
 45
0.000000001
 78
     4
 79
     1
140
2.1166666667
143
0.0393700787
147
0.5291666667
148
0.000000001
170
     1
172
     1
173
     1
178
     0
271
     1
272
     1
276
     2
284
    12
289
     0
340
6B
  0
DIMSTYLE
105
224
102
{ACAD_REACTORS
330
223
102
}
330
A
100
AcDbSymbolTableRecord
100
AcDbDimStyleTableRecord
  2
SLDDIMSTYLE3
 70
     0
 41
3.175
 44
0.0
 45
0.000000001
 78
    12
 79
     3
140
2.1166666667
143
0.0393700787
147
0.5291666667
148
0.000000001
170
     1
172
     1
173
     1
178
     0
271
     1
272
     1
276
     2
284
    12
289
     0
340
6B
  0
ENDTAB
  0
TABLE
  2
BLOCK_RECORD
  5
1
330
0
100
AcDbSymbolTable
 70
    12
  0
BLOCK_RECORD
  5
1F
330
1
100
AcDbSymbolTableRecord
100
AcDbBlockTableRecord
  2
*Model_Space
340
22
  0
BLOCK_RECORD
  5
1B
330
1
100
AcDbSymbolTableRecord
100
AcDbBlockTableRecord
  2
*Paper_Space
340
1E
  0
BLOCK_RECORD
  5
23
330
1
100
AcDbSymbolTableRecord
100
AcDbBlockTableRecord
  2
*Paper_Space0
340
26
  0
BLOCK_RECORD
  5
45
330
1
100
AcDbSymbolTableRecord
100
AcDbBlockTableRecord
  2
Third Angle Projection Block
340
0
102
{BLKREFS
331
6A
102
}
  0
BLOCK_RECORD
  5
7B
330
1
100
AcDbSymbolTableRecord
100
AcDbBlockTableRecord
  2
SW_NOTE_0
340
0
102
{BLKREFS
331
80
102
}
  0
BLOCK_RECORD
  5
81
330
1
100
AcDbSymbolTableRecord
100
AcDbBlockTableRecord
  2
SW_NOTE_1
340
0
102
{BLKREFS
331
86
102
}
  0
BLOCK_RECORD
  5
88
330
1
100
AcDbSymbolTableRecord
100
AcDbBlockTableRecord
  2
SW_NOTE_2
340
0
102
{BLKREFS
331
8D
102
}
  0
BLOCK_RECORD
  5
8F
330
1
100
AcDbSymbolTableRecord
100
AcDbBlockTableRecord
  2
SW_NOTE_3
340
0
102
{BLKREFS
331
95
102
}
  0
BLOCK_RECORD
  5
96
330
1
100
AcDbSymbolTableRecord
100
AcDbBlockTableRecord
  2
SW_NOTE_4
340
0
102
{BLKREFS
331
B9
102
}
  0
BLOCK_RECORD
  5
C0
330
1
100
AcDbSymbolTableRecord
100
AcDbBlockTableRecord
  2
*D7
340
0
  0
BLOCK_RECORD
  5
CF
330
1
100
AcDbSymbolTableRecord
100
AcDbBlockTableRecord
  2
SW_CENTERMARKSYMBOL_0
340
0
102
{BLKREFS
331
D6
102
}
  0
BLOCK_RECORD
  5
201
330
1
100
AcDbSymbolTableRecord
100
AcDbBlockTableRecord
  2
*D9
340
0
  0
BLOCK_RECORD
  5
212
330
1
100
AcDbSymbolTableRecord
100
AcDbBlockTableRecord
  2
*D10
340
0
  0
BLOCK_RECORD
  5
225
330
1
100
AcDbSymbolTableRecord
100
AcDbBlockTableRecord
  2
*D11
340
0
  0
ENDTAB
  0
ENDSEC
  0
SECTION
  2
BLOCKS
  0
BLOCK
  5
20
330
1F
100
AcDbEntity
  8
0
100
AcDbBlockBegin
  2
*Model_Space
 70
     0
 10
0.0
 20
0.0
 30
0.0
  3
*Model_Space
  1

  0
ENDBLK
  5
21
330
1F
100
AcDbEntity
  8
0
100
AcDbBlockEnd
  0
BLOCK
  5
1C
330
1B
100
AcDbEntity
 67
     1
  8
0
100
AcDbBlockBegin
  2
*Paper_Space
 70
     0
 10
0.0
 20
0.0
 30
0.0
  3
*Paper_Space
  1

  0
ENDBLK
  5
1D
330
1B
100
AcDbEntity
 67
     1
  8
0
100
AcDbBlockEnd
  0
BLOCK
  5
24
330
23
100
AcDbEntity
  8
0
100
AcDbBlockBegin
  2
*Paper_Space0
 70
     0
 10
0.0
 20
0.0
 30
0.0
  3
*Paper_Space0
  1

  0
ENDBLK
  5
25
330
23
100
AcDbEntity
  8
0
100
AcDbBlockEnd
  0
BLOCK
  5
46
330
45
100
AcDbEntity
  8
0
100
AcDbBlockBegin
  2
Third Angle Projection Block
 70
     0
 10
0.0
 20
0.0
 30
0.0
  3
Third Angle Projection Block
  1

  0
CIRCLE
  5
48
330
45
100
AcDbEntity
  8
0
  6
Continuous
 62
     7
370
    30
100
AcDbCircle
 10
101.4766388944
 20
18.9404083667
 30
0.0
 40
1.768227153674871
  0
CIRCLE
  5
49
330
45
100
AcDbEntity
  8
0
  6
Continuous
 62
     7
370
    30
100
AcDbCircle
 10
101.4766388944
 20
18.9404083667
 30
0.0
 40
3.901228248531818
  0
LINE
  5
4A
330
45
100
AcDbEntity
  8
0
  6
CENTERX2
 62
     7
370
     0
100
AcDbLine
 10
110.1367822585
 20
18.9404083667
 30
0.0
 11
119.4527334874
 21
18.9404083667
 31
0.0
  0
LINE
  5
4B
330
45
100
AcDbEntity
  8
0
  6
Continuous
 62
     7
370
    30
100
AcDbLine
 10
111.0016388944
 20
20.7086355204
 30
0.0
 11
111.0016388944
 21
17.172181213
 31
0.0
  0
LINE
  5
4C
330
45
100
AcDbEntity
  8
0
  6
Continuous
 62
     7
370
    30
100
AcDbLine
 10
111.0016388944
 20
17.172181213
 30
0.0
 11
118.6216388944
 21
15.1304083667
 31
0.0
  0
LINE
  5
4D
330
45
100
AcDbEntity
  8
0
  6
Continuous
 62
     7
370
    30
100
AcDbLine
 10
118.6216388944
 20
15.1304083667
 30
0.0
 11
118.6216388944
 21
22.7504083667
 31
0.0
  0
LINE
  5
4E
330
45
100
AcDbEntity
  8
0
  6
Continuous
 62
     7
370
    30
100
AcDbLine
 10
118.6216388944
 20
22.7504083667
 30
0.0
 11
111.0016388944
 21
20.7086355204
 31
0.0
  0
LINE
  5
4F
330
45
100
AcDbEntity
  8
0
  6
CENTERX2
 62
     7
370
     0
100
AcDbLine
 10
96.6025854619
 20
18.9404083667
 30
0.0
 11
106.3506923269
 21
18.9404083667
 31
0.0
  0
LINE
  5
50
330
45
100
AcDbEntity
  8
0
  6
CENTERX2
 62
     7
370
     0
100
AcDbLine
 10
101.4766388944
 20
23.8144617992
 30
0.0
 11
101.4766388944
 21
14.0663549342
 31
0.0
  0
POINT
  5
51
330
45
100
AcDbEntity
  8
0
  6
Continuous
 62
     7
370
     0
100
AcDbPoint
 10
101.4766388944
 20
18.9404083667
 30
0.0
  0
ENDBLK
  5
47
330
45
100
AcDbEntity
  8
0
100
AcDbBlockEnd
  0
BLOCK
  5
7C
330
7B
100
AcDbEntity
  8
0
100
AcDbBlockBegin
  2
SW_NOTE_0
 70
     0
 10
0.0
 20
0.0
 30
0.0
  3
SW_NOTE_0
  1

  0
MTEXT
  5
7E
330
7B
100
AcDbEntity
  8
0
  6
Continuous
 62
     0
370
     0
100
AcDbMText
 10
19.90725
 20
1.9645392354
 30
0.0
 40
1.524
 41
0.0
 71
     2
 72
     1
  1
VALUES IN PARENTHESIS ARE CALCULATED
  7
SLDTEXTSTYLE0
 73
     1
 44
1.0
  0
MTEXT
  5
7F
330
7B
100
AcDbEntity
  8
0
  6
Continuous
 62
     0
370
     0
100
AcDbMText
 10
19.8778795174
 20
-0.5594606586
 30
0.0
 40
1.524
 41
0.0
 71
     2
 72
     1
  1
AND MAY CONTAIN ROUNDOFF ERRORS
  7
SLDTEXTSTYLE0
 73
     1
 44
1.0
  0
ENDBLK
  5
7D
330
7B
100
AcDbEntity
  8
0
100
AcDbBlockEnd
  0
BLOCK
  5
82
330
81
100
AcDbEntity
  8
0
100
AcDbBlockBegin
  2
SW_NOTE_1
 70
     0
 10
0.0
 20
0.0
 30
0.0
  3
SW_NOTE_1
  1

  0
MTEXT
  5
84
330
81
100
AcDbEntity
  8
0
  6
Continuous
 62
     0
370
     0
100
AcDbMText
 10
0.0
 20
2.7285267159
 30
0.0
 40
2.1166666667
 41
0.0
 71
     1
 72
     1
  1
DRAWING
  7
SLDTEXTSTYLE0
 73
     1
 44
1.0
  0
MTEXT
  5
85
330
81
100
AcDbEntity
  8
0
  6
Continuous
 62
     0
370
     0
100
AcDbMText
 10
0.0
 20
-0.0936954723
 30
0.0
 40
2.1166666667
 41
0.0
 71
     1
 72
     1
  1
PROJECTION
  7
SLDTEXTSTYLE0
 73
     1
 44
1.0
  0
ENDBLK
  5
83
330
81
100
AcDbEntity
  8
0
100
AcDbBlockEnd
  0
BLOCK
  5
89
330
88
100
AcDbEntity
  8
0
100
AcDbBlockBegin
  2
SW_NOTE_2
 70
     0
 10
0.0
 20
0.0
 30
0.0
  3
SW_NOTE_2
  1

  0
MTEXT
  5
8B
330
88
100
AcDbEntity
  8
0
  6
Continuous
 62
     0
370
     0
100
AcDbMText
 10
25.052734375
 20
4.0927900738
 30
0.0
 40
3.175
 41
0.0
 71
     2
 72
     1
  1
FOR INFORMATION ONLY
  7
SLDTEXTSTYLE0
 73
     1
 44
1.0
  0
MTEXT
  5
8C
330
88
100
AcDbEntity
  8
0
  6
Continuous
 62
     0
370
     0
100
AcDbMText
 10
25.3768468589
 20
-0.1405432084
 30
0.0
 40
3.175
 41
0.0
 71
     2
 72
     1
  1
NOT FOR MANUFACTURING PURPOSES
  7
SLDTEXTSTYLE0
 73
     1
 44
1.0
  0
ENDBLK
  5
8A
330
88
100
AcDbEntity
  8
0
100
AcDbBlockEnd
  0
BLOCK
  5
90
330
8F
100
AcDbEntity
  8
0
100
AcDbBlockBegin
  2
SW_NOTE_3
 70
     0
 10
0.0
 20
0.0
 30
0.0
  3
SW_NOTE_3
  1

  0
MTEXT
  5
92
330
8F
100
AcDbEntity
  8
0
  6
Continuous
 62
     0
370
     0
100
AcDbMText
 10
1.9016927083
 20
3.4106583948
 30
0.0
 40
2.6458333333
 41
0.0
 71
     2
 72
     1
  1
%%c
  7
SLDTEXTSTYLE0
 73
     1
 44
1.0
  0
MTEXT
  5
93
330
8F
100
AcDbEntity
  8
0
  6
Continuous
 62
     0
370
     0
100
AcDbMText
 10
29.5425665677
 20
3.4106583948
 30
0.0
 40
2.6458333333
 41
0.0
 71
     2
 72
     1
  1
50.8mm, f= 50.0mm CONCAVE
  7
SLDTEXTSTYLE0
 73
     1
 44
1.0
  0
MTEXT
  5
94
330
8F
100
AcDbEntity
  8
0
  6
Continuous
 62
     0
370
     0
100
AcDbMText
 10
27.894801269
 20
-0.1171193403
 30
0.0
 40
2.6458333333
 41
0.0
 71
     2
 72
     1
  1
PROTECTED GOLD MIRROR
  7
SLDTEXTSTYLE0
 73
     1
 44
1.0
  0
ENDBLK
  5
91
330
8F
100
AcDbEntity
  8
0
100
AcDbBlockEnd
  0
BLOCK
  5
97
330
96
100
AcDbEntity
  8
0
100
AcDbBlockBegin
  2
SW_NOTE_4
 70
     0
 10
0.0
 20
0.0
 30
0.0
  3
SW_NOTE_4
  1

  0
MTEXT
  5
99
330
96
100
AcDbEntity
  8
0
  6
Continuous
 62
     0
370
     0
100
AcDbMText
 10
0.0
 20
3.0695925553
 30
0.0
 40
2.38125
 41
0.0
 71
     1
 72
     1
  1
NOTES/SPECIFICATIONS:
  7
SLDTEXTSTYLE0
 73
     1
 44
1.0
  0
MTEXT
  5
9A
330
96
100
AcDbEntity
  8
0
  6
Continuous
 62
     0
370
     0
100
AcDbMText
 10
9.9999997765
 20
-3.2804073679
 30
0.0
 40
2.38125
 41
0.0
 71
     1
 72
     1
  1
CLEAR APERTURE: >90% DIAMETER
  7
SLDTEXTSTYLE0
 73
     1
 44
1.0
  0
MTEXT
  5
9B
330
96
100
AcDbEntity
  8
0
  6
Continuous
 62
     0
370
     0
100
AcDbMText
 10
0.0
 20
-3.2804073679
 30
0.0
 40
2.38125
 41
0.0
 71
     1
 72
     1
  1
1.
  7
SLDTEXTSTYLE0
 73
     1
 44
1.0
  0
MTEXT
  5
9C
330
96
100
AcDbEntity
  8
0
  6
Continuous
 62
     0
370
     0
100
AcDbMText
 10
9.9999997765
 20
-6.5976282029
 30
0.0
 40
2.38125
 41
0.0
 71
     1
 72
     1
  1
SURFACE ACCURACY
  7
SLDTEXTSTYLE0
 73
     1
 44
1.0
  0
MTEXT
  5
9D
330
96
100
AcDbEntity
  8
0
  6
Continuous
 62
     0
370
     0
100
AcDbMText
 10
42.9582651705
 20
-6.6891910621
 30
0.0
 40
2.286
 41
0.0
 71
     1
 72
     1
  1
:
  7
SLDTEXTSTYLE0
 73
     1
 44
1.0
  0
MTEXT
  5
9F
330
96
100
AcDbEntity
  8
0
  6
Continuous
 62
     0
370
     0
100
AcDbMText
 10
44.6957833081
 20
-6.5976282029
 30
0.0
 40
2.38125
 41
0.0
 71
     1
 72
     1
  1
\M+183C9/
  7
SLDTEXTSTYLE2
 73
     1
 44
1.0
  0
MTEXT
  5
A0
330
96
100
AcDbEntity
  8
0
  6
Continuous
 62
     0
370
     0
100
AcDbMText
 10
47.7715637535
 20
-6.6891910621
 30
0.0
 40
2.286
 41
0.0
 71
     1
 72
     1
  1
4
  7
SLDTEXTSTYLE0
 73
     1
 44
1.0
  0
MTEXT
  5
A1
330
96
100
AcDbEntity
  8
0
  6
Continuous
 62
     0
370
     0
100
AcDbMText
 10
50.3052156419
 20
-6.5976282029
 30
0.0
 40
2.38125
 41
0.0
 71
     1
 72
     1
  1
AT 632.8nm OVER CLEAR APERTURE
  7
SLDTEXTSTYLE0
 73
     1
 44
1.0
  0
MTEXT
  5
A2
330
96
100
AcDbEntity
  8
0
  6
Continuous
 62
     0
370
     0
100
AcDbMText
 10
0.0
 20
-6.5976282029
 30
0.0
 40
2.38125
 41
0.0
 71
     1
 72
     1
  1
2.
  7
SLDTEXTSTYLE0
 73
     1
 44
1.0
  0
MTEXT
  5
A3
330
96
100
AcDbEntity
  8
0
  6
Continuous
 62
     0
370
     0
100
AcDbMText
 10
9.9999997765
 20
-9.7726281646
 30
0.0
 40
2.38125
 41
0.0
 71
     1
 72
     1
  1
SURFACE QUALITY: 40-20 SCRATCH-DIG
  7
SLDTEXTSTYLE0
 73
     1
 44
1.0
  0
MTEXT
  5
A4
330
96
100
AcDbEntity
  8
0
  6
Continuous
 62
     0
370
     0
100
AcDbMText
 10
0.0
 20
-9.7726281646
 30
0.0
 40
2.38125
 41
0.0
 71
     1
 72
     1
  1
3.
  7
SLDTEXTSTYLE0
 73
     1
 44
1.0
  0
MTEXT
  5
A5
330
96
100
AcDbEntity
  8
0
  6
Continuous
 62
     0
370
     0
100
AcDbMText
 10
9.9999997765
 20
-12.9476281262
 30
0.0
 40
2.38125
 41
0.0
 71
     1
 72
     1
  1
BACK SURFACE: FINE GROUND
  7
SLDTEXTSTYLE0
 73
     1
 44
1.0
  0
MTEXT
  5
A6
330
96
100
AcDbEntity
  8
0
  6
Continuous
 62
     0
370
     0
100
AcDbMText
 10
0.0
 20
-12.9476281262
 30
0.0
 40
2.38125
 41
0.0
 71
     1
 72
     1
  1
4.
  7
SLDTEXTSTYLE0
 73
     1
 44
1.0
  0
MTEXT
  5
A7
330
96
100
AcDbEntity
  8
0
  6
Continuous
 62
     0
370
     0
100
AcDbMText
 10
9.9999997765
 20
-16.1226280878
 30
0.0
 40
2.38125
 41
0.0
 71
     1
 72
     1
  1
THICKNESS TOLERANCE:
  7
SLDTEXTSTYLE0
 73
     1
 44
1.0
  0
MTEXT
  5
A8
330
96
100
AcDbEntity
  8
0
  6
Continuous
 62
     0
370
     0
100
AcDbMText
 10
46.741804108
 20
-16.1226280878
 30
0.0
 40
2.38125
 41
0.0
 71
     1
 72
     1
  1
%%p
  7
SLDTEXTSTYLE0
 73
     1
 44
1.0
  0
MTEXT
  5
A9
330
96
100
AcDbEntity
  8
0
  6
Continuous
 62
     0
370
     0
100
AcDbMText
 10
49.0119289607
 20
-16.1226280878
 30
0.0
 40
2.38125
 41
0.0
 71
     1
 72
     1
  1
0.2 mm
  7
SLDTEXTSTYLE0
 73
     1
 44
1.0
  0
MTEXT
  5
AA
330
96
100
AcDbEntity
  8
0
  6
Continuous
 62
     0
370
     0
100
AcDbMText
 10
0.0
 20
-16.1226280878
 30
0.0
 40
2.38125
 41
0.0
 71
     1
 72
     1
  1
5.
  7
SLDTEXTSTYLE0
 73
     1
 44
1.0
  0
MTEXT
  5
AB
330
96
100
AcDbEntity
  8
0
  6
Continuous
 62
     0
370
     0
100
AcDbMText
 10
9.9999997765
 20
-19.2976280495
 30
0.0
 40
2.38125
 41
0.0
 71
     1
 72
     1
  1
DIAMETER TOLERANCE: + 0.0/-0.2 mm
  7
SLDTEXTSTYLE0
 73
     1
 44
1.0
  0
MTEXT
  5
AC
330
96
100
AcDbEntity
  8
0
  6
Continuous
 62
     0
370
     0
100
AcDbMText
 10
0.0
 20
-19.2976280495
 30
0.0
 40
2.38125
 41
0.0
 71
     1
 72
     1
  1
6.
  7
SLDTEXTSTYLE0
 73
     1
 44
1.0
  0
MTEXT
  5
AD
330
96
100
AcDbEntity
  8
0
  6
Continuous
 62
     0
370
     0
100
AcDbMText
 10
9.9999997765
 20
-22.4726280111
 30
0.0
 40
2.38125
 41
0.0
 71
     1
 72
     1
  1
COATING: PROTECTED GOLD
  7
SLDTEXTSTYLE0
 73
     1
 44
1.0
  0
MTEXT
  5
AE
330
96
100
AcDbEntity
  8
0
  6
Continuous
 62
     0
370
     0
100
AcDbMText
 10
0.0
 20
-22.4726280111
 30
0.0
 40
2.38125
 41
0.0
 71
     1
 72
     1
  1
7.
  7
SLDTEXTSTYLE0
 73
     1
 44
1.0
  0
MTEXT
  5
AF
330
96
100
AcDbEntity
  8
0
  6
Continuous
 62
     0
370
     0
100
AcDbMText
 10
10.0
 20
-25.6476279727
 30
0.0
 40
2.38125
 41
0.0
 71
     1
 72
     1
  1
Ravg: >96% FROM 800nm - 20µm
  7
SLDTEXTSTYLE0
 73
     1
 44
1.0
  0
MTEXT
  5
B0
330
96
100
AcDbEntity
  8
0
  6
Continuous
 62
     0
370
     0
100
AcDbMText
 10
10.0
 20
-28.8226279343
 30
0.0
 40
2.38125
 41
0.0
 71
     1
 72
     1
  1
AOI: 0
  7
SLDTEXTSTYLE0
 73
     1
 44
1.0
  0
MTEXT
  5
B1
330
96
100
AcDbEntity
  8
0
  6
Continuous
 62
     0
370
     0
100
AcDbMText
 10
19.344201535
 20
-28.8226279343
 30
0.0
 40
2.38125
 41
0.0
 71
     1
 72
     1
  1
%%d
  7
SLDTEXTSTYLE0
 73
     1
 44
1.0
  0
MTEXT
  5
B3
330
96
100
AcDbEntity
  8
0
  6
Continuous
 62
     0
370
     0
100
AcDbMText
 10
21.7505871639
 20
-28.8226279343
 30
0.0
 40
2.38125
 41
0.0
 71
     1
 72
     1
  1
TO 45
  7
SLDTEXTSTYLE3
 73
     1
 44
1.0
  0
MTEXT
  5
B4
330
96
100
AcDbEntity
  8
0
  6
Continuous
 62
     0
370
     0
100
AcDbMText
 10
30.2459171414
 20
-28.8226279343
 30
0.0
 40
2.38125
 41
0.0
 71
     1
 72
     1
  1
%%d
  7
SLDTEXTSTYLE0
 73
     1
 44
1.0
  0
MTEXT
  5
B5
330
96
100
AcDbEntity
  8
0
  6
Continuous
 62
     0
370
     0
100
AcDbMText
 10
9.9999997765
 20
-31.997627896
 30
0.0
 40
2.38125
 41
0.0
 71
     1
 72
     1
  1
DAMAGE THRESHOLD: 2J/cm
  7
SLDTEXTSTYLE0
 73
     1
 44
1.0
  0
MTEXT
  5
B6
330
96
100
AcDbEntity
  8
0
  6
Continuous
 62
     0
370
     0
100
AcDbMText
 10
54.2956609279
 20
-31.9507800725
 30
0.0
 40
1.3229166667
 41
0.0
 71
     1
 72
     1
  1
2
  7
SLDTEXTSTYLE0
 73
     1
 44
1.0
  0
MTEXT
  5
B7
330
96
100
AcDbEntity
  8
0
  6
Continuous
 62
     0
370
     0
100
AcDbMText
 10
56.1661160499
 20
-31.997627896
 30
0.0
 40
2.38125
 41
0.0
 71
     1
 72
     1
  1
10ns PULSE, 10Hz AT 1064nm
  7
SLDTEXTSTYLE0
 73
     1
 44
1.0
  0
MTEXT
  5
B8
330
96
100
AcDbEntity
  8
0
  6
Continuous
 62
     0
370
     0
100
AcDbMText
 10
0.0
 20
-31.997627896
 30
0.0
 40
2.38125
 41
0.0
 71
     1
 72
     1
  1
8.
  7
SLDTEXTSTYLE0
 73
     1
 44
1.0
  0
ENDBLK
  5
98
330
96
100
AcDbEntity
  8
0
100
AcDbBlockEnd
  0
BLOCK
  5
C1
330
C0
100
AcDbEntity
  8
0
100
AcDbBlockBegin
  2
*D7
 70
     1
 10
0.0
 20
0.0
 30
0.0
  3
*D7
  1

  0
SOLID
  5
C3
330
C0
100
AcDbEntity
  8
0
  6
Continuous
 62
     7
370
     0
100
AcDbTrace
 10
75.4846611807
 20
88.8456415302
 30
0.0
 11
77.3696782717
 21
86.2407615778
 31
0.0
 12
78.0883295097
 22
86.9589512451
 32
0.0
 13
78.0883295097
 23
86.9589512451
 33
0.0
  0
LINE
  5
C4
330
C0
100
AcDbEntity
  8
0
  6
Continuous
 62
     7
370
     0
100
AcDbLine
 10
90.3585968381
 20
78.4576886648
 30
0.0
 11
90.3585968381
 21
75.5990818842
 31
0.0
  0
LINE
  5
C5
330
C0
100
AcDbEntity
  8
0
  6
Continuous
 62
     7
370
     0
100
AcDbLine
 10
90.3585968381
 20
75.5990818842
 30
0.0
 11
90.787772094
 21
75.5990818842
 31
0.0
  0
LINE
  5
C6
330
C0
100
AcDbEntity
  8
0
  6
Continuous
 62
     7
370
     0
100
AcDbLine
 10
90.3585968381
 20
78.4576886648
 30
0.0
 11
90.787772094
 21
78.4576886648
 31
0.0
  0
LINE
  5
C7
330
C0
100
AcDbEntity
  8
0
  6
Continuous
 62
     7
370
     0
100
AcDbLine
 10
99.8304100739
 20
78.4576886648
 30
0.0
 11
99.8304100739
 21
75.5990818842
 31
0.0
  0
LINE
  5
C8
330
C0
100
AcDbEntity
  8
0
  6
Continuous
 62
     7
370
     0
100
AcDbLine
 10
99.8304100739
 20
75.5990818842
 30
0.0
 11
99.401234818
 21
75.5990818842
 31
0.0
  0
LINE
  5
C9
330
C0
100
AcDbEntity
  8
0
  6
Continuous
 62
     7
370
     0
100
AcDbLine
 10
99.8304100739
 20
78.4576886648
 30
0.0
 11
99.401234818
 21
78.4576886648
 31
0.0
  0
LINE
  5
CA
330
C0
100
AcDbEntity
  8
0
  6
Continuous
 62
     7
370
     0
100
AcDbLine
 10
75.4846611807
 20
88.8456415302
 30
0.0
 11
83.933420732
 21
80.3914520753
 31
0.0
  0
LINE
  5
CB
330
C0
100
AcDbEntity
  8
0
  6
Continuous
 62
     7
370
     0
100
AcDbLine
 10
83.933420732
 20
80.3914520753
 30
0.0
 11
87.743420732
 21
80.3914520753
 31
0.0
  0
MTEXT
  5
CC
330
C0
100
AcDbEntity
  8
0
  6
Continuous
 62
     7
370
     0
100
AcDbMText
 10
89.5002463262
 20
81.4384452743
 30
0.0
 40
2.1166666667
 41
0.0
 71
     1
 72
     1
  1
%%c
  7
SLDTEXTSTYLE0
 73
     1
 44
1.0
  0
MTEXT
  5
CD
330
C0
100
AcDbEntity
  8
0
  6
Continuous
 62
     7
370
     0
100
AcDbMText
 10
92.5270064468
 20
81.4384452743
 30
0.0
 40
2.1166666667
 41
0.0
 71
     1
 72
     1
  1
50.8mm
  7
SLDTEXTSTYLE0
 73
     1
 44
1.0
  0
MTEXT
  5
CE
330
C0
100
AcDbEntity
  8
0
  6
Continuous
 62
     7
370
     0
100
AcDbMText
 10
91.2169473499
 20
78.0753784736
 30
0.0
 40
2.1166666667
 41
0.0
 71
     1
 72
     1
  1
2.00in
  7
SLDTEXTSTYLE0
 73
     1
 44
1.0
  0
ENDBLK
  5
C2
330
C0
100
AcDbEntity
  8
0
100
AcDbBlockEnd
  0
BLOCK
  5
D0
330
CF
100
AcDbEntity
  8
0
100
AcDbBlockBegin
  2
SW_CENTERMARKSYMBOL_0
 70
     0
 10
0.0
 20
0.0
 30
0.0
  3
SW_CENTERMARKSYMBOL_0
  1

  0
LINE
  5
D2
330
CF
100
AcDbEntity
  8
0
  6
Continuous
 62
     0
370
     0
100
AcDbLine
 10
0.0
 20
0.0
 30
0.0
 11
0.0
 21
3.0
 31
0.0
  0
LINE
  5
D3
330
CF
100
AcDbEntity
  8
0
  6
Continuous
 62
     0
370
     0
100
AcDbLine
 10
0.0
 20
0.0
 30
0.0
 11
-3.0
 21
0.0
 31
0.0
  0
LINE
  5
D4
330
CF
100
AcDbEntity
  8
0
  6
Continuous
 62
     0
370
     0
100
AcDbLine
 10
0.0
 20
0.0
 30
0.0
 11
0.0
 21
-3.0
 31
0.0
  0
LINE
  5
D5
330
CF
100
AcDbEntity
  8
0
  6
Continuous
 62
     0
370
     0
100
AcDbLine
 10
0.0
 20
0.0
 30
0.0
 11
3.0
 21
0.0
 31
0.0
  0
ENDBLK
  5
D1
330
CF
100
AcDbEntity
  8
0
100
AcDbBlockEnd
  0
BLOCK
  5
202
330
201
100
AcDbEntity
  8
0
100
AcDbBlockBegin
  2
*D9
 70
     1
 10
0.0
 20
0.0
 30
0.0
  3
*D9
  1

  0
SOLID
  5
204
330
201
100
AcDbEntity
  8
0
  6
Continuous
 62
     7
370
     0
100
AcDbTrace
 10
138.2091204714
 20
92.5394303384
 30
0.0
 11
141.2791118126
 21
91.5834794167
 31
0.0
 12
141.4241203328
 22
92.5890780091
 32
0.0
 13
141.4241203328
 23
92.5890780091
 33
0.0
  0
LINE
  5
205
330
201
100
AcDbEntity
  8
0
  6
Continuous
 62
     7
370
     0
100
AcDbLine
 10
164.0830602488
 20
87.7767149841
 30
0.0
 11
164.0830602488
 21
84.9181082034
 31
0.0
  0
LINE
  5
206
330
201
100
AcDbEntity
  8
0
  6
Continuous
 62
     7
370
     0
100
AcDbLine
 10
164.0830602488
 20
84.9181082034
 30
0.0
 11
164.5122355048
 21
84.9181082034
 31
0.0
  0
LINE
  5
207
330
201
100
AcDbEntity
  8
0
  6
Continuous
 62
     7
370
     0
100
AcDbLine
 10
164.0830602488
 20
87.7767149841
 30
0.0
 11
164.5122355048
 21
87.7767149841
 31
0.0
  0
LINE
  5
208
330
201
100
AcDbEntity
  8
0
  6
Continuous
 62
     7
370
     0
100
AcDbLine
 10
173.5548734846
 20
87.7767149841
 30
0.0
 11
173.5548734846
 21
84.9181082034
 31
0.0
  0
LINE
  5
209
330
201
100
AcDbEntity
  8
0
  6
Continuous
 62
     7
370
     0
100
AcDbLine
 10
173.5548734846
 20
84.9181082034
 30
0.0
 11
173.1256982287
 21
84.9181082034
 31
0.0
  0
LINE
  5
20A
330
201
100
AcDbEntity
  8
0
  6
Continuous
 62
     7
370
     0
100
AcDbLine
 10
173.5548734846
 20
87.7767149841
 30
0.0
 11
173.1256982287
 21
87.7767149841
 31
0.0
  0
LINE
  5
20B
330
201
100
AcDbEntity
  8
0
  6
Continuous
 62
     7
370
     0
100
AcDbLine
 10
138.2091204714
 20
92.5394303384
 30
0.0
 11
157.8272097369
 21
89.7104783945
 31
0.0
  0
LINE
  5
20C
330
201
100
AcDbEntity
  8
0
  6
Continuous
 62
     7
370
     0
100
AcDbLine
 10
157.8272097369
 20
89.7104783945
 30
0.0
 11
161.6372097369
 21
89.7104783945
 31
0.0
  0
MTEXT
  5
20D
330
201
100
AcDbEntity
  8
0
  6
Continuous
 62
     7
370
     0
100
AcDbMText
 10
163.2247097369
 20
90.7574715935
 30
0.0
 40
2.1166666667
 41
0.0
 71
     1
 72
     1
  1
R
  7
SLDTEXTSTYLE0
 73
     1
 44
1.0
  0
MTEXT
  5
20E
330
201
100
AcDbEntity
  8
0
  6
Continuous
 62
     7
370
     0
100
AcDbMText
 10
164.9362007424
 20
90.7574715935
 30
0.0
 40
2.1166666667
 41
0.0
 71
     1
 72
     1
  1
100.0mm
  7
SLDTEXTSTYLE0
 73
     1
 44
1.0
  0
MTEXT
  5
20F
330
201
100
AcDbEntity
  8
0
  6
Continuous
 62
     7
370
     0
100
AcDbMText
 10
164.9414107607
 20
87.3944047928
 30
0.0
 40
2.1166666667
 41
0.0
 71
     1
 72
     1
  1
3.94in
  7
SLDTEXTSTYLE0
 73
     1
 44
1.0
  0
ENDBLK
  5
203
330
201
100
AcDbEntity
  8
0
100
AcDbBlockEnd
  0
BLOCK
  5
213
330
212
100
AcDbEntity
  8
0
100
AcDbBlockBegin
  2
*D10
 70
     1
 10
0.0
 20
0.0
 30
0.0
  3
*D10
  1

  0
SOLID
  5
215
330
212
100
AcDbEntity
  8
0
  6
Continuous
 62
     7
370
     0
100
AcDbTrace
 10
148.2328810598
 20
142.2119224806
 30
0.0
 11
151.4078810598
 21
141.7039224806
 31
0.0
 12
151.4078810598
 22
142.7199224806
 32
0.0
 13
151.4078810598
 23
142.7199224806
 33
0.0
  0
SOLID
  5
216
330
212
100
AcDbEntity
  8
0
  6
Continuous
 62
     7
370
     0
100
AcDbTrace
 10
139.2328810598
 20
142.2119224806
 30
0.0
 11
136.0578810598
 21
142.7199224806
 31
0.0
 12
136.0578810598
 22
141.7039224806
 32
0.0
 13
136.0578810598
 23
141.7039224806
 33
0.0
  0
LINE
  5
217
330
212
100
AcDbEntity
  8
0
  6
Continuous
 62
     7
370
     0
100
AcDbLine
 10
157.7055382364
 20
141.9596924706
 30
0.0
 11
157.7055382364
 21
139.1010856899
 31
0.0
  0
LINE
  5
218
330
212
100
AcDbEntity
  8
0
  6
Continuous
 62
     7
370
     0
100
AcDbLine
 10
157.7055382364
 20
139.1010856899
 30
0.0
 11
158.1347134924
 21
139.1010856899
 31
0.0
  0
LINE
  5
219
330
212
100
AcDbEntity
  8
0
  6
Continuous
 62
     7
370
     0
100
AcDbLine
 10
157.7055382364
 20
141.9596924706
 30
0.0
 11
158.1347134924
 21
141.9596924706
 31
0.0
  0
LINE
  5
21A
330
212
100
AcDbEntity
  8
0
  6
Continuous
 62
     7
370
     0
100
AcDbLine
 10
167.1773514723
 20
141.9596924706
 30
0.0
 11
167.1773514723
 21
139.1010856899
 31
0.0
  0
LINE
  5
21B
330
212
100
AcDbEntity
  8
0
  6
Continuous
 62
     7
370
     0
100
AcDbLine
 10
167.1773514723
 20
139.1010856899
 30
0.0
 11
166.7481762163
 21
139.1010856899
 31
0.0
  0
LINE
  5
21C
330
212
100
AcDbEntity
  8
0
  6
Continuous
 62
     7
370
     0
100
AcDbLine
 10
167.1773514723
 20
141.9596924706
 30
0.0
 11
166.7481762163
 21
141.9596924706
 31
0.0
  0
LINE
  5
21D
330
212
100
AcDbEntity
  8
0
  6
Continuous
 62
     7
370
     0
100
AcDbLine
 10
148.2328810598
 20
133.2819224806
 30
0.0
 11
148.2328810598
 21
143.9899224806
 31
0.0
  0
LINE
  5
21E
330
212
100
AcDbEntity
  8
0
  6
Continuous
 62
     7
370
     0
100
AcDbLine
 10
139.2328810598
 20
108.0819224806
 30
0.0
 11
139.2328810598
 21
143.9899224806
 31
0.0
  0
LINE
  5
21F
330
212
100
AcDbEntity
  8
0
  6
Continuous
 62
     7
370
     0
100
AcDbLine
 10
148.2328810598
 20
142.2119224806
 30
0.0
 11
154.8305124686
 21
142.2119224806
 31
0.0
  0
LINE
  5
220
330
212
100
AcDbEntity
  8
0
  6
Continuous
 62
     7
370
     0
100
AcDbLine
 10
139.2328810598
 20
142.2119224806
 30
0.0
 11
132.8828810598
 21
142.2119224806
 31
0.0
  0
MTEXT
  5
221
330
212
100
AcDbEntity
  8
0
  6
Continuous
 62
     7
370
     0
100
AcDbMText
 10
157.8423012163
 20
144.9404490801
 30
0.0
 40
2.1166666667
 41
0.0
 71
     1
 72
     1
  1
9.0mm
  7
SLDTEXTSTYLE0
 73
     1
 44
1.0
  0
MTEXT
  5
222
330
212
100
AcDbEntity
  8
0
  6
Continuous
 62
     7
370
     0
100
AcDbMText
 10
158.5638887483
 20
141.5773822793
 30
0.0
 40
2.1166666667
 41
0.0
 71
     1
 72
     1
  1
0.35in
  7
SLDTEXTSTYLE0
 73
     1
 44
1.0
  0
ENDBLK
  5
214
330
212
100
AcDbEntity
  8
0
100
AcDbBlockEnd
  0
BLOCK
  5
226
330
225
100
AcDbEntity
  8
0
100
AcDbBlockBegin
  2
*D11
 70
     1
 10
0.0
 20
0.0
 30
0.0
  3
*D11
  1

  0
SOLID
  5
228
330
225
100
AcDbEntity
  8
0
  6
Continuous
 62
     7
370
     0
100
AcDbTrace
 10
136.0039483975
 20
154.2119224806
 30
0.0
 11
132.8289483975
 21
154.7199224806
 31
0.0
 12
132.8289483975
 22
153.7039224806
 32
0.0
 13
132.8289483975
 23
153.7039224806
 33
0.0
  0
SOLID
  5
229
330
225
100
AcDbEntity
  8
0
  6
Continuous
 62
     7
370
     0
100
AcDbTrace
 10
148.2328810598
 20
154.2119224806
 30
0.0
 11
151.4078810598
 21
153.7039224806
 31
0.0
 12
151.4078810598
 22
154.7199224806
 32
0.0
 13
151.4078810598
 23
154.7199224806
 33
0.0
  0
LINE
  5
22A
330
225
100
AcDbEntity
  8
0
  6
Continuous
 62
     7
370
     0
100
AcDbLine
 10
156.8112100178
 20
153.9596924706
 30
0.0
 11
156.8112100178
 21
151.1010856899
 31
0.0
  0
LINE
  5
22B
330
225
100
AcDbEntity
  8
0
  6
Continuous
 62
     7
370
     0
100
AcDbLine
 10
156.8112100178
 20
151.1010856899
 30
0.0
 11
157.2403852737
 21
151.1010856899
 31
0.0
  0
LINE
  5
22C
330
225
100
AcDbEntity
  8
0
  6
Continuous
 62
     7
370
     0
100
AcDbLine
 10
156.8112100178
 20
153.9596924706
 30
0.0
 11
157.2403852737
 21
153.9596924706
 31
0.0
  0
LINE
  5
22D
330
225
100
AcDbEntity
  8
0
  6
Continuous
 62
     7
370
     0
100
AcDbLine
 10
166.2830232536
 20
153.9596924706
 30
0.0
 11
166.2830232536
 21
151.1010856899
 31
0.0
  0
LINE
  5
22E
330
225
100
AcDbEntity
  8
0
  6
Continuous
 62
     7
370
     0
100
AcDbLine
 10
166.2830232536
 20
151.1010856899
 30
0.0
 11
165.8538479977
 21
151.1010856899
 31
0.0
  0
LINE
  5
22F
330
225
100
AcDbEntity
  8
0
  6
Continuous
 62
     7
370
     0
100
AcDbLine
 10
166.2830232536
 20
153.9596924706
 30
0.0
 11
165.8538479977
 21
153.9596924706
 31
0.0
  0
LINE
  5
230
330
225
100
AcDbEntity
  8
0
  6
Continuous
 62
     7
370
     0
100
AcDbLine
 10
136.0039483975
 20
133.2882813276
 30
0.0
 11
136.0039483975
 21
155.9899224806
 31
0.0
  0
LINE
  5
231
330
225
100
AcDbEntity
  8
0
  6
Continuous
 62
     7
370
     0
100
AcDbLine
 10
148.2328810598
 20
133.2819224806
 30
0.0
 11
148.2328810598
 21
155.9899224806
 31
0.0
  0
LINE
  5
232
330
225
100
AcDbEntity
  8
0
  6
Continuous
 62
     7
370
     0
100
AcDbLine
 10
136.0039483975
 20
154.2119224806
 30
0.0
 11
129.6539483975
 21
154.2119224806
 31
0.0
  0
LINE
  5
233
330
225
100
AcDbEntity
  8
0
  6
Continuous
 62
     7
370
     0
100
AcDbLine
 10
148.2328810598
 20
154.2119224806
 30
0.0
 11
153.93618425
 21
154.2119224806
 31
0.0
  0
MTEXT
  5
234
330
225
100
AcDbEntity
  8
0
  6
Continuous
 62
     7
370
     0
100
AcDbMText
 10
156.1664702555
 20
156.9404490801
 30
0.0
 40
2.1166666667
 41
0.0
 71
     1
 72
     1
  1
12.2mm
  7
SLDTEXTSTYLE0
 73
     1
 44
1.0
  0
MTEXT
  5
235
330
225
100
AcDbEntity
  8
0
  6
Continuous
 62
     7
370
     0
100
AcDbMText
 10
167.9351237655
 20
156.9404490801
 30
0.0
 40
2.1166666667
 41
0.0
 71
     1
 72
     1
  1
REF
  7
SLDTEXTSTYLE0
 73
     1
 44
1.0
  0
MTEXT
  5
236
330
225
100
AcDbEntity
  8
0
  6
Continuous
 62
     7
370
     0
100
AcDbMText
 10
157.6695605297
 20
153.5773822793
 30
0.0
 40
2.1166666667
 41
0.0
 71
     1
 72
     1
  1
0.48in
  7
SLDTEXTSTYLE0
 73
     1
 44
1.0
  0
ENDBLK
  5
227
330
225
100
AcDbEntity
  8
0
100
AcDbBlockEnd
  0
ENDSEC
  0
SECTION
  2
ENTITIES
  0
LINE
  5
52
330
1F
100
AcDbEntity
  8
0
  6
Continuous
 62
     7
370
     0
100
AcDbLine
 10
1.5793501011
 20
214.6453799966
 30
0.0
 11
277.9892068491
 21
214.6453799966
 31
0.0
  0
LINE
  5
53
330
1F
100
AcDbEntity
  8
0
  6
Continuous
 62
     7
370
     0
100
AcDbLine
 10
1.5793501011
 20
214.6453799966
 30
0.0
 11
1.5793501011
 21
0.9031642596
 31
0.0
  0
LINE
  5
54
330
1F
100
AcDbEntity
  8
0
  6
Continuous
 62
     7
370
     0
100
AcDbLine
 10
277.9892068491
 20
0.9031642596
 30
0.0
 11
1.5793501011
 21
0.9031642596
 31
0.0
  0
LINE
  5
55
330
1F
100
AcDbEntity
  8
0
  6
Continuous
 62
     7
370
     0
100
AcDbLine
 10
277.9892068491
 20
0.9031642596
 30
0.0
 11
277.9892068491
 21
214.6453799966
 31
0.0
  0
LINE
  5
56
330
1F
100
AcDbEntity
  8
0
  6
Continuous
 62
     7
370
     0
100
AcDbLine
 10
215.7427640041
 20
12.2958890132
 30
0.0
 11
171.6327596684
 21
12.2958890132
 31
0.0
  0
LINE
  5
57
330
1F
100
AcDbEntity
  8
0
  6
Continuous
 62
     7
370
     0
100
AcDbLine
 10
171.6327596684
 20
12.2958890132
 30
0.0
 11
171.6327596684
 21
26.1661402506
 31
0.0
  0
LINE
  5
58
330
1F
100
AcDbEntity
  8
0
  6
Continuous
 62
     7
370
     0
100
AcDbLine
 10
171.6327596684
 20
0.9031642596
 30
0.0
 11
171.6327596684
 21
26.1661402506
 31
0.0
  0
LINE
  5
59
330
1F
100
AcDbEntity
  8
0
  6
Continuous
 62
     7
370
     0
100
AcDbLine
 10
215.7427640041
 20
17.1604579552
 30
0.0
 11
277.9892068491
 21
17.1604579552
 31
0.0
  0
LINE
  5
5A
330
1F
100
AcDbEntity
  8
0
  6
Continuous
 62
     7
370
     0
100
AcDbLine
 10
215.7427640041
 20
35.2394508358
 30
0.0
 11
215.7427640041
 21
0.9031642596
 31
0.0
  0
LINE
  5
5B
330
1F
100
AcDbEntity
  8
0
  6
Continuous
 62
     7
370
     0
100
AcDbLine
 10
215.7427640041
 20
26.1661402506
 30
0.0
 11
171.6327596684
 21
26.1661402506
 31
0.0
  0
LINE
  5
5C
330
1F
100
AcDbEntity
  8
0
  6
Continuous
 62
     7
370
     0
100
AcDbLine
 10
215.7427640041
 20
9.1409200612
 30
0.0
 11
277.9892068491
 21
9.1409200612
 31
0.0
  0
LINE
  5
5D
330
1F
100
AcDbEntity
  8
0
  6
Continuous
 62
     7
370
     0
100
AcDbLine
 10
215.7427640041
 20
16.9216824031
 30
0.0
 11
171.6327596684
 21
16.9216824031
 31
0.0
  0
LINE
  5
5E
330
1F
100
AcDbEntity
  8
0
  6
Continuous
 62
     7
370
     0
100
AcDbLine
 10
215.7427640041
 20
21.4874005542
 30
0.0
 11
171.6327596684
 21
21.4874005542
 31
0.0
  0
LINE
  5
5F
330
1F
100
AcDbEntity
  8
0
  6
Continuous
 62
     7
370
     0
100
AcDbLine
 10
186.1338100705
 20
26.1661402506
 30
0.0
 11
186.1338100705
 21
12.2958890132
 31
0.0
  0
LINE
  5
60
330
1F
100
AcDbEntity
  8
0
  6
Continuous
 62
     7
370
     0
100
AcDbLine
 10
198.2145906188
 20
26.1661402506
 30
0.0
 11
198.2145906188
 21
12.2958890132
 31
0.0
  0
LINE
  5
61
330
1F
100
AcDbEntity
  8
0
  6
Continuous
 62
     7
370
     0
100
AcDbLine
 10
253.7490408369
 20
9.1409200612
 30
0.0
 11
253.7490408369
 21
0.9031642596
 31
0.0
  0
LINE
  5
62
330
1F
100
AcDbEntity
  8
0
  6
Continuous
 62
     7
370
     0
100
AcDbLine
 10
171.6327596684
 20
12.2958890132
 30
0.0
 11
171.6327596684
 21
7.5627342528
 31
0.0
  0
LINE
  5
63
330
1F
100
AcDbEntity
  8
0
  6
Continuous
 62
     7
370
     0
100
AcDbLine
 10
171.6327596684
 20
7.5627342528
 30
0.0
 11
215.7427640041
 21
7.5627342528
 31
0.0
  0
LINE
  5
64
330
1F
100
AcDbEntity
  8
0
  6
Continuous
 62
     7
370
     0
100
AcDbLine
 10
171.6327596684
 20
7.5627342528
 30
0.0
 11
171.6327596684
 21
35.2394508358
 31
0.0
  0
LINE
  5
65
330
1F
100
AcDbEntity
  8
0
  6
Continuous
 62
     7
370
     0
100
AcDbLine
 10
171.6327596684
 20
35.2394508358
 30
0.0
 11
215.7427640041
 21
35.2394508358
 31
0.0
  0
LINE
  5
66
330
1F
100
AcDbEntity
  8
0
  6
Continuous
 62
     7
370
     0
100
AcDbLine
 10
270.1683598194
 20
17.1604579552
 30
0.0
 11
270.1683598194
 21
9.1409200612
 31
0.0
  0
LINE
  5
67
330
1F
100
AcDbEntity
  8
0
  6
Continuous
 62
     7
370
     0
100
AcDbLine
 10
215.7427640041
 20
35.2394508358
 30
0.0
 11
277.9892068491
 21
35.2394508358
 31
0.0
  0
LINE
  5
68
330
1F
100
AcDbEntity
  8
0
  6
Continuous
 62
     7
370
     0
100
AcDbLine
 10
277.9892068491
 20
35.2394508358
 30
0.0
 11
277.9892068491
 21
50.0331356147
 31
0.0
  0
LINE
  5
69
330
1F
100
AcDbEntity
  8
0
  6
Continuous
 62
     7
370
     0
100
AcDbLine
 10
215.7427640041
 20
24.8927335446
 30
0.0
 11
277.9892068491
 21
24.8927335446
 31
0.0
  0
INSERT
  5
6A
330
1F
100
AcDbEntity
  8
0
  6
Continuous
 62
     7
100
AcDbBlockReference
  2
Third Angle Projection Block
 10
117.7262204235
 20
15.5162339489
 30
0.0
 41
0.8
 42
0.8
 43
0.8
  0
MTEXT
  5
6C
330
1F
100
AcDbEntity
  8
0
  6
Continuous
 62
     7
370
     0
100
AcDbMText
 10
273.8638944939
 20
13.1125292762
 30
0.0
 40
3.175
 41
0.0
 71
     2
 72
     1
  1
C
  7
SLDTEXTSTYLE0
 73
     1
 44
1.0
  0
MTEXT
  5
6D
330
1F
100
AcDbEntity
  8
0
  6
Continuous
 62
     7
370
     0
100
AcDbMText
 10
234.4775043285
 20
5.1306563898
 30
0.0
 40
3.175
 41
0.0
 71
     2
 72
     1
  1
CM508-050-M01
  7
SLDTEXTSTYLE0
 73
     1
 44
1.0
  0
MTEXT
  5
6E
330
1F
100
AcDbEntity
  8
0
  6
Continuous
 62
     7
370
     0
100
AcDbMText
 10
216.4199766059
 20
16.8243178599
 30
0.0
 40
2.1166666667
 41
0.0
 71
     1
 72
     1
  1
MATERIAL
  7
SLDTEXTSTYLE0
 73
     1
 44
1.0
  0
MTEXT
  5
6F
330
1F
100
AcDbEntity
  8
0
  6
Continuous
 62
     7
370
     0
100
AcDbMText
 10
174.230946566
 20
20.054553926
 30
0.0
 40
1.8520833333
 41
0.0
 71
     1
 72
     1
  1
DRAWN
  7
SLDTEXTSTYLE0
 73
     1
 44
1.0
  0
MTEXT
  5
70
330
1F
100
AcDbEntity
  8
0
  6
Continuous
 62
     7
370
     0
100
AcDbMText
 10
172.3960124543
 20
15.5787169747
 30
0.0
 40
1.8520833333
 41
0.0
 71
     1
 72
     1
  1
APPROVAL
  7
SLDTEXTSTYLE0
 73
     1
 44
1.0
  0
MTEXT
  5
71
330
1F
100
AcDbEntity
  8
0
  6
Continuous
 62
     7
370
     0
100
AcDbMText
 10
271.321689486
 20
16.0237652193
 30
0.0
 40
2.1166666667
 41
0.0
 71
     1
 72
     1
  1
REV
  7
SLDTEXTSTYLE0
 73
     1
 44
1.0
  0
MTEXT
  5
72
330
1F
100
AcDbEntity
  8
0
  6
Continuous
 62
     7
370
     0
100
AcDbMText
 10
190.2958696448
 20
20.3177146903
 30
0.0
 40
2.1166666667
 41
0.0
 71
     1
 72
     1
  1
BAG
  7
SLDTEXTSTYLE0
 73
     1
 44
1.0
  0
MTEXT
  5
73
330
1F
100
AcDbEntity
  8
0
  6
Continuous
 62
     7
370
     0
100
AcDbMText
 10
199.8662436873
 20
20.3177146903
 30
0.0
 40
2.1166666667
 41
0.0
 71
     1
 72
     1
  1
28/OCT/10
  7
SLDTEXTSTYLE0
 73
     1
 44
1.0
  0
MTEXT
  5
74
330
1F
100
AcDbEntity
  8
0
  6
Continuous
 62
     7
370
     0
100
AcDbMText
 10
203.6145073853
 20
24.8221395769
 30
0.0
 40
2.1166666667
 41
0.0
 71
     1
 72
     1
  1
DATE
  7
SLDTEXTSTYLE0
 73
     1
 44
1.0
  0
MTEXT
  5
76
330
1F
100
AcDbEntity
  8
0
  6
Continuous
 62
     7
370
     0
100
AcDbMText
 10
229.402906477
 20
27.7957480569
 30
0.0
 40
2.1166666667
 41
0.0
 71
     1
 72
     1
  1
w w w . t h o r  l a b s . c o m
  7
SLDTEXTSTYLE1
 73
     1
 44
1.0
  0
MTEXT
  5
77
330
1F
100
AcDbEntity
  8
0
  6
Continuous
 62
     7
370
     0
100
AcDbMText
 10
216.7004035316
 20
8.3494791871
 30
0.0
 40
2.1166666667
 41
0.0
 71
     1
 72
     1
  1
ITEM #
  7
SLDTEXTSTYLE0
 73
     1
 44
1.0
  0
MTEXT
  5
78
330
1F
100
AcDbEntity
  8
0
  6
Continuous
 62
     7
370
     0
100
AcDbMText
 10
254.5318000914
 20
8.3494791871
 30
0.0
 40
2.1166666667
 41
0.0
 71
     1
 72
     1
  1
APPROX WEIGHT
  7
SLDTEXTSTYLE0
 73
     1
 44
1.0
  0
MTEXT
  5
79
330
1F
100
AcDbEntity
  8
0
  6
Continuous
 62
     7
370
     0
100
AcDbMText
 10
243.7058359879
 20
13.1125292762
 30
0.0
 40
3.175
 41
0.0
 71
     2
 72
     1
  1
N-BK7
  7
SLDTEXTSTYLE0
 73
     1
 44
1.0
  0
MTEXT
  5
7A
330
1F
100
AcDbEntity
  8
0
  6
Continuous
 62
     7
370
     0
100
AcDbMText
 10
266.1678480997
 20
5.1306563898
 30
0.0
 40
3.175
 41
0.0
 71
     2
 72
     1
  1
0.05 kg
  7
SLDTEXTSTYLE0
 73
     1
 44
1.0
  0
INSERT
  5
80
330
1F
100
AcDbEntity
  8
0
  6
Continuous
 62
     7
370
     0
100
AcDbBlockReference
  2
SW_NOTE_0
 10
174.8430140051
 20
4.4558554801
 30
0.0
  0
INSERT
  5
86
330
1F
100
AcDbEntity
  8
0
  6
Continuous
 62
     7
370
     0
100
AcDbBlockReference
  2
SW_NOTE_1
 10
174.5483650337
 20
30.4835322715
 30
0.0
  0
MTEXT
  5
87
330
1F
100
AcDbEntity
  8
0
  6
Continuous
 62
     7
370
     0
100
AcDbMText
 10
187.9273588276
 20
24.8221395769
 30
0.0
 40
2.1166666667
 41
0.0
 71
     1
 72
     1
  1
NAME
  7
SLDTEXTSTYLE0
 73
     1
 44
1.0
  0
INSERT
  5
8D
330
1F
100
AcDbEntity
  8
0
  6
Continuous
 62
     7
370
     0
100
AcDbBlockReference
  2
SW_NOTE_2
 10
58.6204667508
 20
8.1776609732
 30
0.0
  0
MTEXT
  5
8E
330
1F
100
AcDbEntity
  8
0
  6
Continuous
 62
     7
370
     0
100
AcDbMText
 10
179.1174811218
 20
10.6680638482
 30
0.0
 40
1.5875
 41
0.0
 71
     1
 72
     1
  1
COPYRIGHT © 2010 BY THORLABS
  7
SLDTEXTSTYLE0
 73
     1
 44
1.0
  0
INSERT
  5
95
330
1F
100
AcDbEntity
  8
0
  6
Continuous
 62
     7
370
     0
100
AcDbBlockReference
  2
SW_NOTE_3
 10
218.9785626079
 20
20.5867261075
 30
0.0
  0
INSERT
  5
B9
330
1F
100
AcDbEntity
  8
0
  6
Continuous
 62
     7
370
     0
100
AcDbBlockReference
  2
SW_NOTE_4
 10
7.0257848731
 20
52.5785086475
 30
0.0
  0
MTEXT
  5
BA
330
1F
100
AcDbEntity
  8
0
  6
Continuous
 62
     7
370
     0
100
AcDbMText
 10
199.590168823
 20
15.7395117204
 30
0.0
 40
2.1166666667
 41
0.0
 71
     1
 72
     1
  1
08/NOV/12
  7
SLDTEXTSTYLE0
 73
     1
 44
1.0
  0
MTEXT
  5
BB
330
1F
100
AcDbEntity
  8
0
  6
Continuous
 62
     7
370
     0
100
AcDbMText
 10
190.0197947805
 20
15.7395117204
 30
0.0
 40
2.1166666667
 41
0.0
 71
     1
 72
     1
  1
WD
  7
SLDTEXTSTYLE0
 73
     1
 44
1.0
  0
CIRCLE
  5
BC
330
1F
100
AcDbEntity
  8
0
  6
Continuous
 62
     7
370
     0
100
AcDbCircle
 10
57.5299195002
 20
106.8119224806
 30
0.0
 40
25.39999999999998
  0
CIRCLE
  5
BD
330
1F
100
AcDbEntity
  8
0
  6
Continuous
 62
     7
370
     0
100
AcDbCircle
 10
57.5299195002
 20
106.8119224806
 30
0.0
 40
25.20635884701418
  0
DIMENSION
  5
BE
330
1F
100
AcDbEntity
  8
0
  6
Continuous
 62
     7
370
     0
100
AcDbDimension
  2
*D7
 10
39.5751778198
 20
124.778203431
 30
0.0
 11
96.2237749185
 21
80.3914520753
 31
0.0
 70
   163
  1
<>
 71
     1
 42
-1.0
  3
SLDDIMSTYLE0
100
AcDbDiametricDimension
 15
75.4846611807
 25
88.8456415302
 35
0.0
 40
0.0
  0
INSERT
  5
D6
330
1F
100
AcDbEntity
  8
0
  6
Continuous
 62
     7
370
     0
100
AcDbBlockReference
  2
SW_CENTERMARKSYMBOL_0
 10
57.5299195002
 20
106.8119224806
 30
0.0
  0
LINE
  5
D7
330
1F
100
AcDbEntity
  8
0
  6
PHANTOM
 62
     7
370
    30
100
AcDbLine
 10
57.5299195002
 20
139.2471317829
 30
0.0
 11
57.5299195002
 21
74.6612325581
 31
0.0
  0
LINE
  5
D8
330
1F
100
AcDbEntity
  8
0
  6
Continuous
 62
     7
370
    30
100
AcDbLine
 10
57.5299195002
 20
139.2471317829
 30
0.0
 11
48.6399195002
 21
139.2471317829
 31
0.0
  0
SOLID
  5
D9
330
1F
100
AcDbEntity
  8
0
  6
Continuous
 62
     7
370
    30
100
AcDbTrace
 10
48.6399195002
 20
139.2471317829
 30
0.0
 11
52.4499195002
 21
138.6121317829
 31
0.0
 12
52.4499195002
 22
139.8821317829
 32
0.0
 13
52.4499195002
 23
139.8821317829
 33
0.0
  0
LINE
  5
DA
330
1F
100
AcDbEntity
  8
0
  6
Continuous
 62
     7
370
    30
100
AcDbLine
 10
57.5299195002
 20
74.6612325581
 30
0.0
 11
48.6399195002
 21
74.6612325581
 31
0.0
  0
SOLID
  5
DB
330
1F
100
AcDbEntity
  8
0
  6
Continuous
 62
     7
370
    30
100
AcDbTrace
 10
48.6399195002
 20
74.6612325581
 30
0.0
 11
52.4499195002
 21
74.0262325581
 31
0.0
 12
52.4499195002
 22
75.2962325581
 32
0.0
 13
52.4499195002
 23
75.2962325581
 33
0.0
  0
MTEXT
  5
DC
330
1F
100
AcDbEntity
  8
0
  6
Continuous
 62
     7
100
AcDbMText
 10
45.2338700487
 20
141.348071655
 30
0.0
 40
2.6458333333
 41
0.0
 71
     1
 72
     1
  1
A
  7
SLDTEXTSTYLE0
 73
     1
 44
1.0
  0
MTEXT
  5
DD
330
1F
100
AcDbEntity
  8
0
  6
Continuous
 62
     7
100
AcDbMText
 10
45.2338700487
 20
76.7621724302
 30
0.0
 40
2.6458333333
 41
0.0
 71
     1
 72
     1
  1
A
  7
SLDTEXTSTYLE0
 73
     1
 44
1.0
  0
LINE
  5
DE
330
1F
100
AcDbEntity
  8
0
  6
Continuous
 62
     7
370
     0
100
AcDbLine
 10
214.9369930882
 20
176.6082424905
 30
0.0
 11
214.9588110271
 21
176.5315743445
 31
0.0
  0
LINE
  5
DF
330
1F
100
AcDbEntity
  8
0
  6
Continuous
 62
     7
370
     0
100
AcDbLine
 10
225.0210089017
 20
159.1014477994
 30
0.0
 11
225.0764911238
 21
159.0442136305
 31
0.0
  0
LINE
  5
E0
330
1F
100
AcDbEntity
  8
0
  6
Continuous
 62
     7
370
     0
100
AcDbLine
 10
227.3528820659
 20
201.3956636225
 30
0.0
 11
218.952751788
 21
196.5463716331
 31
0.0
  0
LINE
  5
E1
330
1F
100
AcDbEntity
  8
0
  6
Continuous
 62
     7
370
     0
100
AcDbLine
 10
244.3506875969
 20
152.5510894242
 30
0.0
 11
252.7508178748
 21
157.4003814135
 31
0.0
  0
LINE
  5
E2
330
1F
100
AcDbEntity
  8
0
  6
Continuous
 62
     7
370
     0
100
AcDbLine
 10
258.0123622125
 20
169.0296394978
 30
0.0
 11
258.0123622125
 21
169.1929211202
 31
0.0
  0
LINE
  5
E3
330
1F
100
AcDbEntity
  8
0
  6
Continuous
 62
     7
370
     0
100
AcDbLine
 10
240.19616743
 20
200.054819632
 30
0.0
 11
240.0547690587
 21
200.1364737121
 31
0.0
  0
LWPOLYLINE
  5
E4
330
1F
100
AcDbEntity
  8
0
  6
Continuous
 62
     7
370
     0
100
AcDbPolyline
 90
       53
 70
   128
 43
0.0
 10
249.6122319346
 20
164.1803475085
 10
249.5992114217
 20
163.3982723956
 10
249.5601687617
 20
162.6323643811
 10
249.4951605625
 20
161.8837339582
 10
249.4042810799
 20
161.1534665696
 10
249.2876620805
 20
160.4426210331
 10
249.1454726507
 20
159.7522280068
 10
248.9779189514
 20
159.0832884946
 10
248.7852439197
 20
158.4367723948
 10
248.5677269158
 20
157.8136170941
 10
248.3256833186
 20
157.2147261079
 10
248.0594640682
 20
156.640967771
 10
247.769455157
 20
156.0931739781
 10
247.4560770703
 20
155.5721389778
 10
247.1197841763
 20
155.078618221
 10
246.7610640676
 20
154.6133272658
 10
246.380436854
 20
154.1769407395
 10
245.9784544086
 20
153.7700913607
 10
245.5556995675
 20
153.3933690224
 10
245.1127852848
 20
153.0473199357
 10
244.6503537439
 20
152.7324458388
 10
244.1690754263
 20
152.4492032691
 10
243.6696481395
 20
152.1980029012
 10
243.1527960055
 20
151.9792089515
 10
242.6192684103
 20
151.7931386505
 10
242.0698389179
 20
151.6400617823
 10
241.5053041487
 20
151.5202002937
 10
240.926482624
 20
151.4337279723
 10
240.3342135798
 20
151.3807701948
 10
239.7293557494
 20
151.361403745
 10
239.112786119
 20
151.3756567022
 10
238.4853986556
 20
151.4235084012
 10
237.848103011
 20
151.5048894614
 10
237.2018232029
 20
151.6196818881
 10
236.5474962754
 20
151.7677192434
 10
235.8860709399
 20
151.9487868871
 10
235.2185061998
 20
152.1626222885
 10
234.5457699603
 20
152.4089154068
 10
233.8688376246
 20
152.6873091403
 10
233.1886906798
 20
152.997399845
 10
232.5063152741
 20
153.3387379188
 10
231.8227007865
 20
153.7108284541
 10
231.1388383926
 20
154.1131319554
 10
230.4557196275
 20
154.5450651209
 10
229.7743349483
 20
155.0060016889
 10
229.0956722974
 20
155.4952733454
 10
228.4207156709
 20
156.0121706933
 10
227.7504436913
 20
156.5559442809
 10
227.085828189
 20
157.1258056884
 10
226.4278327928
 20
157.7209286712
 10
225.7774115333
 20
158.340450358
 10
225.1355074589
 20
158.9834725015
 10
225.0764911238
 20
159.0442136305
  0
LWPOLYLINE
  5
E5
330
1F
100
AcDbEntity
  8
0
  6
Continuous
 62
     7
370
     0
100
AcDbPolyline
 90
       95
 70
   128
 43
0.0
 10
214.9369930882
 20
176.6082424905
 10
214.8536895495
 20
176.9056762287
 10
214.6238675927
 20
177.7821569262
 10
214.4187343936
 20
178.6539494645
 10
214.2385873756
 20
179.5197898279
 10
214.0836877348
 20
180.3784226305
 10
213.9542600609
 20
181.2286029368
 10
213.8504920114
 20
182.0690980668
 10
213.7725340404
 20
182.8986893828
 10
213.7204991792
 20
183.7161740568
 10
213.6944628735
 20
184.520366814
 10
213.6944628735
 20
185.3101016519
 10
213.7204991792
 20
186.0842335305
 10
213.7725340404
 20
186.8416400326
 10
213.8504920114
 20
187.581222991
 10
213.9542600609
 20
188.3019100814
 10
214.0836877348
 20
189.0026563762
 10
214.2385873756
 20
189.6824458603
 10
214.4187343936
 20
190.340292904
 10
214.6238675927
 20
190.9752436919
 10
214.8536895495
 20
191.5863776061
 10
215.1078670441
 20
192.1728085609
 10
215.3860315435
 20
192.7336862874
 10
215.6877797356
 20
193.2681975666
 10
216.0126741145
 20
193.7755674082
 10
216.3602436144
 20
194.2550601743
 10
216.7299842928
 20
194.7059806465
 10
217.1213600609
 20
195.127675033
 10
217.5338034613
 20
195.5195319174
 10
217.9667164907
 20
195.8809831446
 10
218.4194714663
 20
196.2115046448
 10
218.8914119369
 20
196.5106171936
 10
219.3818536338
 20
196.7778871063
 10
219.8900854635
 20
197.0129268671
 10
220.4153705384
 20
197.2153956908
 10
220.9569472454
 20
197.385000017
 10
221.51403035
 20
197.5214939355
 10
222.085812135
 20
197.6246795434
 10
222.6714635714
 20
197.6944072313
 10
223.2701355206
 20
197.7305759006
 10
223.8809599657
 20
197.7331331105
 10
224.5030512694
 20
197.702075153
 10
225.1355074589
 20
197.6374470593
 10
225.7774115333
 20
197.5393425339
 10
226.4278327928
 20
197.407903819
 10
227.085828189
 20
197.2433214883
 10
227.7504436913
 20
197.0458341702
 10
228.4207156709
 20
196.8157282027
 10
229.0956722974
 20
196.5533372172
 10
229.7743349483
 20
196.2590416557
 10
230.4557196275
 20
195.9332682186
 10
231.1388383926
 20
195.5764892463
 10
231.8227007865
 20
195.189222034
 10
232.5063152741
 20
194.7720280824
 10
233.1886906798
 20
194.3255122826
 10
233.8688376246
 20
193.85032204
 10
234.5457699603
 20
193.3471463349
 10
235.2185061998
 20
192.8167147241
 10
235.8860709399
 20
192.2597962826
 10
236.5474962754
 20
191.677198489
 10
237.2018232029
 20
191.0697660543
 10
237.848103011
 20
190.4383796976
 10
238.4853986556
 20
189.7839548686
 10
239.112786119
 20
189.1074404208
 10
239.7293557494
 20
188.4098172355
 10
240.3342135798
 20
187.6920967997
 10
240.926482624
 20
186.9553197392
 10
241.5053041487
 20
186.2005543105
 10
242.0698389179
 20
185.4288948512
 10
242.6192684103
 20
184.6414601938
 10
243.1527960055
 20
183.8393920432
 10
243.6696481395
 20
183.0238533217
 10
244.1690754263
 20
182.1960264823
 10
244.6503537439
 20
181.3571117949
 10
245.1127852848
 20
180.5083256055
 10
245.5556995675
 20
179.6508985731
 10
245.9784544086
 20
178.7860738847
 10
246.380436854
 20
177.9151054536
 10
246.7610640676
 20
177.0392561006
 10
247.1197841763
 20
176.1597957237
 10
247.4560770703
 20
175.2779994562
 10
247.769455157
 20
174.3951458186
 10
248.0594640682
 20
173.512514864
 10
248.3256833186
 20
172.6313863231
 10
248.5677269158
 20
171.7530377481
 10
248.7852439197
 20
170.8787426602
 10
248.9779189514
 20
170.009768704
 10
249.1454726507
 20
169.1473758084
 10
249.2876620805
 20
168.2928143609
 10
249.4042810799
 20
167.4473233937
 10
249.4951605625
 20
166.6121287879
 10
249.5601687617
 20
165.7884414959
 10
249.5992114217
 20
164.9774557855
 10
249.6122319346
 20
164.1803475085
 10
249.6122319346
 20
164.1803475085
  0
LWPOLYLINE
  5
E6
330
1F
100
AcDbEntity
  8
0
  6
Continuous
 62
     7
370
     0
100
AcDbPolyline
 90
      165
 70
   128
 43
0.0
 10
249.3696973841
 20
164.1984255008
 10
249.356618098
 20
164.9943236703
 10
249.3173994355
 20
165.8041547718
 10
249.2520989552
 20
166.6267302664
 10
249.1608124946
 20
167.4608429111
 10
249.0436740293
 20
168.3052685307
 10
248.900855476
 20
169.1587678141
 10
248.7325664407
 20
170.0200881335
 10
248.5390539108
 20
170.8879653823
 10
248.3206018926
 20
171.7611258312
 10
248.0775309945
 20
172.6382879968
 10
247.8101979566
 20
173.5181645226
 10
247.518995127
 20
174.3994640684
 10
247.204349886
 20
175.2808932057
 10
246.8667240189
 20
176.1611583157
 10
246.5066130382
 20
177.0389674879
 10
246.1245454565
 20
177.9130324164
 10
245.7210820105
 20
178.7820702902
 10
245.2968148386
 20
179.6448056765
 10
244.8523666113
 20
180.4999723922
 10
244.3883896177
 20
181.3463153621
 10
243.9055648079
 20
182.1825924613
 10
243.4046007941
 20
183.0075763377
 10
242.8862328099
 20
183.8200562138
 10
242.3512216319
 20
184.6188396633
 10
241.8003524627
 20
185.4027543614
 10
241.2344337788
 20
186.1706498051
 10
240.654296144
 20
186.9213990019
 10
240.0607909901
 20
187.653900124
 10
239.4547893679
 20
188.3670781249
 10
238.8371806683
 20
189.0598863174
 10
238.2088713172
 20
189.7313079102
 10
237.5707834453
 20
190.3803574994
 10
236.9238535345
 20
191.0060825151
 10
236.2690310436
 20
191.6075646198
 10
235.607277015
 20
192.1839210554
 10
234.939562664
 20
192.7343059394
 10
234.2668679533
 20
193.257911506
 10
233.5901801554
 20
193.753969292
 10
232.9104924027
 20
194.2217512641
 10
232.228802231
 20
194.6605708877
 10
231.5461101144
 20
195.0697841346
 10
230.8634179978
 20
195.4487904278
 10
230.181727826
 20
195.7970335234
 10
229.5020400734
 20
196.1140023266
 10
228.8253522754
 20
196.399231642
 10
228.1526575648
 20
196.6523028562
 10
227.4849432137
 20
196.8728445523
 10
226.8231891851
 20
197.060533055
 10
226.1683666942
 20
197.2150929055
 10
225.5214367834
 20
197.336297266
 10
224.8833489115
 20
197.4239682522
 10
224.2550395604
 20
197.4779771949
 10
223.6374308608
 20
197.4982448286
 10
223.0314292386
 20
197.4847414078
 10
222.4379240848
 20
197.4374867505
 10
221.8577864499
 20
197.3565502095
 10
221.2918677661
 20
197.2420505702
 10
220.7409985969
 20
197.0941558769
 10
220.2059874188
 20
196.9130831851
 10
219.6876194347
 20
196.6990982443
 10
219.1866554208
 20
196.4525151066
 10
218.7038306111
 20
196.1736956669
 10
218.2398536175
 20
195.8630491313
 10
217.7954053902
 20
195.5210314162
 10
217.3711382182
 20
195.1481444798
 10
216.9676747723
 20
194.7449355852
 10
216.5856071905
 20
194.3119964971
 10
216.2254962098
 20
193.8499626131
 10
215.8878703427
 20
193.3595120319
 10
215.5732251017
 20
192.8413645571
 10
215.2820222721
 20
192.2962806417
 10
215.0146892343
 20
191.7250602716
 10
214.7716183362
 20
191.1285417913
 10
214.5531663179
 20
190.507600674
 10
214.359653788
 20
189.8631482365
 10
214.1913647527
 20
189.1961303014
 10
214.0485461995
 20
188.5075258097
 10
213.9314077341
 20
187.7983453834
 10
213.8401212736
 20
187.0696298426
 10
213.7748207933
 20
186.3224486777
 10
213.7356021307
 20
185.5578984803
 10
213.7225228446
 20
184.7771013331
 10
213.7356021307
 20
183.9812031636
 10
213.7748207933
 20
183.1713720621
 10
213.8401212736
 20
182.3487965675
 10
213.9314077341
 20
181.5146839228
 10
214.0485461995
 20
180.6702583032
 10
214.1913647527
 20
179.8167590198
 10
214.359653788
 20
178.9554387005
 10
214.5531663179
 20
178.0875614516
 10
214.7716183362
 20
177.2144010027
 10
215.0146892343
 20
176.3372388371
 10
215.2820222721
 20
175.4573623114
 10
215.5732251017
 20
174.5760627655
 10
215.8878703427
 20
173.6946336282
 10
216.2254962098
 20
172.8143685182
 10
216.5856071905
 20
171.936559346
 10
216.9676747723
 20
171.0624944175
 10
217.3711382182
 20
170.1934565437
 10
217.7954053902
 20
169.3307211574
 10
218.2398536175
 20
168.4755544417
 10
218.7038306111
 20
167.6292114718
 10
219.1866554208
 20
166.7929343726
 10
219.6876194347
 20
165.9679504962
 10
220.2059874189
 20
165.1554706201
 10
220.7409985969
 20
164.3566871706
 10
221.2918677661
 20
163.5727724725
 10
221.8577864499
 20
162.8048770288
 10
222.4379240848
 20
162.054127832
 10
223.0314292386
 20
161.3216267099
 10
223.6374308608
 20
160.6084487091
 10
224.2550395604
 20
159.9156405165
 10
224.8833489115
 20
159.2442189237
 10
225.5214367834
 20
158.5951693345
 10
226.1683666942
 20
157.9694443188
 10
226.8231891851
 20
157.3679622141
 10
227.4849432137
 20
156.7916057785
 10
228.1526575648
 20
156.2412208945
 10
228.8253522754
 20
155.7176153279
 10
229.5020400734
 20
155.2215575419
 10
230.181727826
 20
154.7537755698
 10
230.8634179978
 20
154.3149559462
 10
231.5461101144
 20
153.9057426993
 10
232.228802231
 20
153.5267364061
 10
232.9104924027
 20
153.1784933105
 10
233.5901801554
 20
152.8615245073
 10
234.2668679533
 20
152.5762951919
 10
234.939562664
 20
152.3232239777
 10
235.607277015
 20
152.1026822816
 10
236.2690310436
 20
151.9149937789
 10
236.9238535345
 20
151.7604339284
 10
237.5707834453
 20
151.639229568
 10
238.2088713172
 20
151.5515585817
 10
238.8371806683
 20
151.497549639
 10
239.4547893679
 20
151.4772820053
 10
240.0607909901
 20
151.4907854261
 10
240.654296144
 20
151.5380400834
 10
241.2344337788
 20
151.6189766245
 10
241.8003524627
 20
151.7334762637
 10
242.3512216319
 20
151.8813709571
 10
242.8862328099
 20
152.0624436488
 10
243.4046007941
 20
152.2764285897
 10
243.9055648079
 20
152.5230117273
 10
244.3883896177
 20
152.801831167
 10
244.8523666113
 20
153.1124777027
 10
245.2968148386
 20
153.4544954178
 10
245.7210820105
 20
153.8273823541
 10
246.1245454565
 20
154.2305912487
 10
246.5066130382
 20
154.6635303368
 10
246.8667240189
 20
155.1255642208
 10
247.204349886
 20
155.6160148021
 10
247.518995127
 20
156.1341622768
 10
247.8101979566
 20
156.6792461922
 10
248.0775309945
 20
157.2504665623
 10
248.3206018926
 20
157.8469850426
 10
248.5390539108
 20
158.4679261599
 10
248.7325664407
 20
159.1123785975
 10
248.900855476
 20
159.7793965325
 10
249.0436740293
 20
160.4680010242
 10
249.1608124946
 20
161.1771814505
 10
249.2520989552
 20
161.9058969913
 10
249.3173994355
 20
162.6530781562
 10
249.356618098
 20
163.4176283536
 10
249.3696973841
 20
164.1984255008
  0
LWPOLYLINE
  5
E7
330
1F
100
AcDbEntity
  8
0
  6
Continuous
 62
     7
370
     0
100
AcDbPolyline
 90
       85
 70
   128
 43
0.0
 10
252.7508178748
 20
157.4003814135
 10
252.8121577259
 20
157.436135853
 10
253.2840981964
 20
157.7352484018
 10
253.7368531721
 20
158.0657699021
 10
254.1697662014
 20
158.4272211293
 10
254.5822096019
 20
158.8190780136
 10
254.97358537
 20
159.2407724002
 10
255.3433260483
 20
159.6916928723
 10
255.6908955482
 20
160.1711856385
 10
256.0157899271
 20
160.6785554801
 10
256.3175381193
 20
161.2130667592
 10
256.5957026186
 20
161.7739444857
 10
256.8498801132
 20
162.3603754405
 10
257.07970207
 20
162.9715093548
 10
257.2848352692
 20
163.6064601427
 10
257.4649822871
 20
164.2643071864
 10
257.6198819279
 20
164.9440966705
 10
257.7493096019
 20
165.6448429653
 10
257.8530776513
 20
166.3655300556
 10
257.9310356224
 20
167.1051130141
 10
257.9830704836
 20
167.8625195161
 10
258.0091067892
 20
168.6366513947
 10
258.0091067892
 20
169.4263862326
 10
257.9830704836
 20
170.2305789899
 10
257.9310356224
 20
171.0480636638
 10
257.8530776513
 20
171.8776549798
 10
257.7493096019
 20
172.7181501098
 10
257.6198819279
 20
173.5683304162
 10
257.4649822871
 20
174.4269632188
 10
257.2848352692
 20
175.2928035821
 10
257.07970207
 20
176.1645961205
 10
256.8498801132
 20
177.041076818
 10
256.5957026186
 20
177.9209748614
 10
256.3175381193
 20
178.8030144828
 10
256.0157899271
 20
179.6859168089
 10
255.6908955482
 20
180.5684017158
 10
255.3433260483
 20
181.4491896847
 10
254.97358537
 20
182.3270036574
 10
254.5822096019
 20
183.2005708874
 10
254.1697662014
 20
184.0686247858
 10
253.7368531721
 20
184.9299067574
 10
253.2840981964
 20
185.7831680258
 10
252.8121577259
 20
186.6271714436
 10
252.3217160289
 20
187.4606932865
 10
251.8134841992
 20
188.2825250276
 10
251.2881991243
 20
189.0914750895
 10
250.7466224174
 20
189.8863705718
 10
250.1895393128
 20
190.6660589522
 10
249.6177575278
 20
191.429409757
 10
249.0321060914
 20
192.1753162004
 10
248.4334341421
 20
192.9026967896
 10
247.8226096971
 20
193.6104968921
 10
247.2005183934
 20
194.2976902655
 10
246.5680622038
 20
194.9632805451
 10
245.9261581295
 20
195.6063026887
 10
245.2757368699
 20
196.2258243754
 10
244.6177414738
 20
196.8209473583
 10
243.9531259715
 20
197.3908087658
 10
243.2828539919
 20
197.9345823533
 10
242.6078973654
 20
198.4514797012
 10
241.9292347145
 20
198.9407513577
 10
241.2478500352
 20
199.4016879257
 10
240.5647312702
 20
199.8336210913
 10
239.8808688763
 20
200.2359245925
 10
239.1972543887
 20
200.6080151279
 10
238.5148789829
 20
200.9493532017
 10
237.8347320382
 20
201.2594439063
 10
237.1577997025
 20
201.5378376399
 10
236.485063463
 20
201.7841307581
 10
235.8174987229
 20
201.9979661596
 10
235.1560733874
 20
202.1790338033
 10
234.5017464598
 20
202.3270711585
 10
233.8554666518
 20
202.4418635853
 10
233.2181710072
 20
202.5232446455
 10
232.5907835437
 20
202.5710963444
 10
231.9742139133
 20
202.5853493017
 10
231.369356083
 20
202.5659828518
 10
230.7770870388
 20
202.5130250744
 10
230.1982655141
 20
202.426552753
 10
229.6337307448
 20
202.3066912644
 10
229.0843012525
 20
202.1536143961
 10
228.5507736573
 20
201.9675440951
 10
228.0339215232
 20
201.7487501455
 10
227.5344942365
 20
201.4975497776
 10
227.3528820659
 20
201.3956636225
  0
ARC
  5
E8
330
1F
100
AcDbEntity
  8
0
  6
Continuous
 62
     7
370
     0
100
AcDbCircle
 10
219.3560156037
 20
167.4505716468
 30
0.0
 40
38.6955929638732
100
AcDbArc
 50
2.5807340673
 51
57.4138894
  0
SPLINE
  5
E9
330
1F
100
AcDbEntity
  8
0
  6
Continuous
 62
     7
370
     0
100
AcDbSpline
210
0.0
220
0.0
230
1.0
 70
     8
 71
     3
 72
    19
 73
    15
 74
     0
 42
0.00000001
 43
0.00000001
 40
0.0
 40
0.0
 40
0.0
 40
0.0
 40
0.0801399024652514
 40
0.1562809906190946
 40
0.2294060490129018
 40
0.301798696972305
 40
0.3727428627695776
 40
0.4426676099026289
 40
0.5133209646126977
 40
0.586547692363209
 40
0.6683225082295049
 40
0.7636766255259052
 40
0.8740807567185483
 40
1.0
 40
1.0
 40
1.0
 40
1.0
 10
229.0497794053285
 20
107.9546114079038
 30
0.0
 10
229.0492124550878
 20
107.9733199276764
 30
0.0
 10
229.0481068442434
 20
108.0098034510292
 30
0.0
 10
229.0375976340169
 20
108.0625239907649
 30
0.0
 10
229.0202381385697
 20
108.1114229468613
 30
0.0
 10
228.9958010272576
 20
108.1558231179124
 30
0.0
 10
228.9658276346221
 20
108.1957572490656
 30
0.0
 10
228.9295628561306
 20
108.2296322854703
 30
0.0
 10
228.8872778572374
 20
108.2565138021363
 30
0.0
 10
228.8388426788471
 20
108.2776105901744
 30
0.0
 10
228.7822316574237
 20
108.2926205915144
 30
0.0
 10
228.7158818751121
 20
108.3028039682416
 30
0.0
 10
228.6387320463783
 20
108.3093750571502
 30
0.0
 10
228.5836009111885
 20
108.3099293973768
 30
0.0
 10
228.5542256077941
 20
108.310224764274
 30
0.0
  0
SPLINE
  5
EA
330
1F
100
AcDbEntity
  8
0
  6
Continuous
 62
     7
370
     0
100
AcDbSpline
210
0.0
220
0.0
230
1.0
 70
     8
 71
     3
 72
    19
 73
    15
 74
     0
 42
0.00000001
 43
0.00000001
 40
0.0
 40
0.0
 40
0.0
 40
0.0
 40
0.0889709576989538
 40
0.1722707767733144
 40
0.2503120304637098
 40
0.3246551996215511
 40
0.3978444501802941
 40
0.4733008807185328
 40
0.551825888744448
 40
0.6347494834982532
 40
0.7217660118923854
 40
0.8103926655611193
 40
0.9031752367994191
 40
1.0
 40
1.0
 40
1.0
 40
1.0
 10
228.7633130904747
 20
107.6088762003217
 30
0.0
 10
228.777655027934
 20
107.6118907302509
 30
0.0
 10
228.8054247268385
 20
107.6177276395743
 30
0.0
 10
228.8445733393483
 20
107.6307550122425
 30
0.0
 10
228.8804676677542
 20
107.6456785619529
 30
0.0
 10
228.9124812307889
 20
107.6646447357055
 30
0.0
 10
228.9421250220774
 20
107.6865019517296
 30
0.0
 10
228.9678876829694
 20
107.7138026605355
 30
0.0
 10
228.9916163165506
 20
107.744820888274
 30
0.0
 10
229.0121750884643
 20
107.7803177215365
 30
0.0
 10
229.0287998407722
 20
107.8195866766601
 30
0.0
 10
229.0415058545263
 20
107.8620210206208
 30
0.0
 10
229.0482740029305
 20
107.9074719696487
 30
0.0
 10
229.0492705230073
 20
107.938676514489
 30
0.0
 10
229.0497794053285
 20
107.9546114079038
 30
0.0
  0
SPLINE
  5
EB
330
1F
100
AcDbEntity
  8
0
  6
Continuous
 62
     7
370
     0
100
AcDbSpline
210
0.0
220
0.0
230
1.0
 70
     8
 71
     3
 72
    11
 73
     7
 74
     0
 42
0.00000001
 43
0.00000001
 40
0.0
 40
0.0
 40
0.0
 40
0.0
 40
0.3293954641291864
 40
0.6051903468528028
 40
0.8278865786947356
 40
1.0
 40
1.0
 40
1.0
 40
1.0
 10
228.5875643599538
 20
107.5989980515336
 30
0.0
 10
228.6069095106801
 20
107.5992202999313
 30
0.0
 10
228.6424518898348
 20
107.5996286315556
 30
0.0
 10
228.6910669205688
 20
107.6009095877339
 30
0.0
 10
228.7303628956195
 20
107.6040384845088
 30
0.0
 10
228.7533096684502
 20
107.607407507553
 30
0.0
 10
228.7633130904747
 20
107.6088762003217
 30
0.0
  0
LINE
  5
EC
330
1F
100
AcDbEntity
  8
0
  6
Continuous
 62
     7
370
     0
100
AcDbLine
 10
228.1014771217
 20
107.5989980515
 30
0.0
 11
228.58756436
 21
107.5989980515
 31
0.0
  0
LINE
  5
ED
330
1F
100
AcDbEntity
  8
0
  6
Continuous
 62
     7
370
     0
100
AcDbLine
 10
228.1014771217
 20
108.3102247643
 30
0.0
 11
228.1014771217
 21
107.5989980515
 31
0.0
  0
LINE
  5
EE
330
1F
100
AcDbEntity
  8
0
  6
Continuous
 62
     7
370
     0
100
AcDbLine
 10
228.5542256078
 20
108.3102247643
 30
0.0
 11
228.1014771217
 21
108.3102247643
 31
0.0
  0
SPLINE
  5
EF
330
1F
100
AcDbEntity
  8
0
  6
Continuous
 62
     7
370
     0
100
AcDbSpline
210
0.0
220
0.0
230
1.0
 70
     8
 71
     3
 72
    23
 73
    19
 74
     0
 42
0.00000001
 43
0.00000001
 40
0.0
 40
0.0
 40
0.0
 40
0.0
 40
0.076010519206233
 40
0.1481357362434482
 40
0.2177881778331535
 40
0.2867678984972339
 40
0.3540434632439189
 40
0.4186108400234789
 40
0.4836364388553435
 40
0.5502295626461513
 40
0.5869278113138148
 40
0.6291578250269648
 40
0.6772382242876699
 40
0.7300426397437306
 40
0.7888625661169238
 40
0.853750451461094
 40
0.9241097665384562
 40
1.0
 40
1.0
 40
1.0
 40
1.0
 10
228.970754215024
 20
108.8584620220114
 30
0.0
 10
228.970222300617
 20
108.8753726441741
 30
0.0
 10
228.9691856607793
 20
108.9083294966014
 30
0.0
 10
228.9604839962009
 20
108.9561885603814
 30
0.0
 10
228.9454260871066
 20
109.0007126309555
 30
0.0
 10
228.9250335547076
 20
109.0418919413315
 30
0.0
 10
228.8992111903273
 20
109.0785268523491
 30
0.0
 10
228.8683912976816
 20
109.1100243004539
 30
0.0
 10
228.8314712417076
 20
109.1338349844561
 30
0.0
 10
228.796962048292
 20
109.1486881382007
 30
0.0
 10
228.7659237637876
 20
109.1579801872667
 30
0.0
 10
228.7381921466704
 20
109.1634779102107
 30
0.0
 10
228.7067362215553
 20
109.1683219508745
 30
0.0
 10
228.6714524755957
 20
109.1724401931771
 30
0.0
 10
228.6323275619527
 20
109.1756363286382
 30
0.0
 10
228.5892409299456
 20
109.1781754464545
 30
0.0
 10
228.5422951444551
 20
109.1792534942361
 30
0.0
 10
228.5097741895028
 20
109.1794170085465
 30
0.0
 10
228.4928987674016
 20
109.1795018576234
 30
0.0
  0
SPLINE
  5
F0
330
1F
100
AcDbEntity
  8
0
  6
Continuous
 62
     7
370
     0
100
AcDbSpline
210
0.0
220
0.0
230
1.0
 70
     8
 71
     3
 72
    15
 73
    11
 74
     0
 42
0.00000001
 43
0.00000001
 40
0.0
 40
0.0
 40
0.0
 40
0.0
 40
0.1323768784386553
 40
0.2551949197670692
 40
0.3737221416536681
 40
0.4900113154474159
 40
0.6078124214239338
 40
0.7311098159015428
 40
0.8599973777575838
 40
1.0
 40
1.0
 40
1.0
 40
1.0
 10
228.7719564706643
 20
108.5715841176248
 30
0.0
 10
228.7876907140933
 20
108.5770958243306
 30
0.0
 10
228.8180230427962
 20
108.5877212414513
 30
0.0
 10
228.8586712005199
 20
108.61185263195
 30
0.0
 10
228.8932916159014
 20
108.6408101827757
 30
0.0
 10
228.9217915138196
 20
108.6751052130232
 30
0.0
 10
228.9436922731761
 20
108.7145541899796
 30
0.0
 10
228.9599310540609
 20
108.7583390376706
 30
0.0
 10
228.9688221469064
 20
108.8070718277352
 30
0.0
 10
228.9700926856485
 20
108.8408663053721
 30
0.0
 10
228.970754215024
 20
108.8584620220114
 30
0.0
  0
SPLINE
  5
F1
330
1F
100
AcDbEntity
  8
0
  6
Continuous
 62
     7
370
     0
100
AcDbSpline
210
0.0
220
0.0
230
1.0
 70
     8
 71
     3
 72
    15
 73
    11
 74
     0
 42
0.00000001
 43
0.00000001
 40
0.0
 40
0.0
 40
0.0
 40
0.0
 40
0.1669801744060311
 40
0.3208066328848162
 40
0.4631345048703153
 40
0.5942480539785179
 40
0.7123671525397409
 40
0.8194549510427486
 40
0.9157522665813508
 40
1.0
 40
1.0
 40
1.0
 40
1.0
 10
228.5250027509628
 20
108.5473003351875
 30
0.0
 10
228.538861564086
 20
108.5473551658884
 30
0.0
 10
228.5654874745551
 20
108.5474605080503
 30
0.0
 10
228.6038947160507
 20
108.5489292921358
 30
0.0
 10
228.6393427589671
 20
108.5501823752593
 30
0.0
 10
228.6716944855365
 20
108.5533275170729
 30
0.0
 10
228.7011101688266
 20
108.5564080437653
 30
0.0
 10
228.7274720908423
 20
108.5605549128896
 30
0.0
 10
228.7509093737261
 20
108.5652274938349
 30
0.0
 10
228.7652600260098
 20
108.5695616639095
 30
0.0
 10
228.7719564706643
 20
108.5715841176248
 30
0.0
  0
LINE
  5
F2
330
1F
100
AcDbEntity
  8
0
  6
Continuous
 62
     7
370
     0
100
AcDbLine
 10
228.1014771217
 20
108.5473003352
 30
0.0
 11
228.525002751
 21
108.5473003352
 31
0.0
  0
LINE
  5
F3
330
1F
100
AcDbEntity
  8
0
  6
Continuous
 62
     7
370
     0
100
AcDbLine
 10
228.1014771217
 20
109.1795018576
 30
0.0
 11
228.1014771217
 21
108.5473003352
 31
0.0
  0
LINE
  5
F4
330
1F
100
AcDbEntity
  8
0
  6
Continuous
 62
     7
370
     0
100
AcDbLine
 10
228.4928987674
 20
109.1795018576
 30
0.0
 11
228.1014771217
 21
109.1795018576
 31
0.0
  0
SPLINE
  5
F5
330
1F
100
AcDbEntity
  8
0
  6
Continuous
 62
     7
370
     0
100
AcDbSpline
210
0.0
220
0.0
230
1.0
 70
     8
 71
     3
 72
    15
 73
    11
 74
     0
 42
0.00000001
 43
0.00000001
 40
0.0
 40
0.0
 40
0.0
 40
0.0
 40
0.1426572507006123
 40
0.2811689939054435
 40
0.416977192367973
 40
0.5508524927475571
 40
0.6783641702618121
 40
0.795032443007094
 40
0.9019981783473521
 40
1.0
 40
1.0
 40
1.0
 40
1.0
 10
233.0668932458066
 20
105.7419060793782
 30
0.0
 10
233.0998096417258
 20
105.7588580891767
 30
0.0
 10
233.1646859089897
 20
105.7922694967027
 30
0.0
 10
233.2563420458513
 20
105.8499755905703
 30
0.0
 10
233.3419129091809
 20
105.9125313718375
 30
0.0
 10
233.4199819624128
 20
105.9799229906375
 30
0.0
 10
233.4899658939725
 20
106.0488093226608
 30
0.0
 10
233.5489423693879
 20
106.1183183374912
 30
0.0
 10
233.5982901311076
 20
106.1859021349053
 30
0.0
 10
233.6230488380108
 20
106.2330343386033
 30
0.0
 10
233.6348868011201
 20
106.2555698163574
 30
0.0
  0
LINE
  5
F6
330
1F
100
AcDbEntity
  8
0
  6
Continuous
 62
     7
370
     0
100
AcDbLine
 10
233.0668932458
 20
105.499068255
 30
0.0
 11
233.0668932458
 21
105.7419060794
 31
0.0
  0
SPLINE
  5
F7
330
1F
100
AcDbEntity
  8
0
  6
Continuous
 62
     7
370
     0
100
AcDbSpline
210
0.0
220
0.0
230
1.0
 70
     8
 71
     3
 72
    15
 73
    11
 74
     0
 42
0.00000001
 43
0.00000001
 40
0.0
 40
0.0
 40
0.0
 40
0.0
 40
0.111670300101588
 40
0.2320944808560175
 40
0.3627434591045548
 40
0.5025575097108851
 40
0.6415251033312812
 40
0.7710984952996689
 40
0.890161757373254
 40
1.0
 40
1.0
 40
1.0
 40
1.0
 10
233.5410443876335
 20
105.8019981511722
 30
0.0
 10
233.5258767961353
 20
105.7873708752722
 30
0.0
 10
233.4943526194168
 20
105.7569696853116
 30
0.0
 10
233.4410643289336
 20
105.7139444100531
 30
0.0
 10
233.3815877865805
 20
105.6703364698039
 30
0.0
 10
233.316695333105
 20
105.6284025601052
 30
0.0
 10
233.2505484545072
 20
105.5889263063288
 30
0.0
 10
233.1866260125192
 20
105.5534234851791
 30
0.0
 10
233.1259952195354
 20
105.5233794844948
 30
0.0
 10
233.0860573887256
 20
105.5069513060621
 30
0.0
 10
233.0668932458066
 20
105.499068255005
 30
0.0
  0
LINE
  5
F8
330
1F
100
AcDbEntity
  8
0
  6
Continuous
 62
     7
370
     0
100
AcDbLine
 10
233.5410443876
 20
104.2009148684
 30
0.0
 11
233.5410443876
 21
105.8019981512
 31
0.0
  0
LINE
  5
F9
330
1F
100
AcDbEntity
  8
0
  6
Continuous
 62
     7
370
     0
100
AcDbLine
 10
233.8044616886
 20
104.2009148684
 30
0.0
 11
233.5410443876
 21
104.2009148684
 31
0.0
  0
LINE
  5
FA
330
1F
100
AcDbEntity
  8
0
  6
Continuous
 62
     7
370
     0
100
AcDbLine
 10
233.8044616886
 20
106.2555698164
 30
0.0
 11
233.8044616886
 21
104.2009148684
 31
0.0
  0
LINE
  5
FB
330
1F
100
AcDbEntity
  8
0
  6
Continuous
 62
     7
370
     0
100
AcDbLine
 10
233.6348868011
 20
106.2555698164
 30
0.0
 11
233.8044616886
 21
106.2555698164
 31
0.0
  0
LINE
  5
FC
330
1F
100
AcDbEntity
  8
0
  6
Continuous
 62
     7
370
     0
100
AcDbLine
 10
229.8449703828
 20
104.2009148684
 30
0.0
 11
229.3000258413
 21
105.9394690551
 31
0.0
  0
LINE
  5
FD
330
1F
100
AcDbEntity
  8
0
  6
Continuous
 62
     7
370
     0
100
AcDbLine
 10
230.1479002789
 20
104.2009148684
 30
0.0
 11
229.8449703828
 21
104.2009148684
 31
0.0
  0
LINE
  5
FE
330
1F
100
AcDbEntity
  8
0
  6
Continuous
 62
     7
370
     0
100
AcDbLine
 10
230.6961375367
 20
105.9394690551
 30
0.0
 11
230.1479002789
 21
104.2009148684
 31
0.0
  0
LINE
  5
FF
330
1F
100
AcDbEntity
  8
0
  6
Continuous
 62
     7
370
     0
100
AcDbLine
 10
230.6961375367
 20
104.2009148684
 30
0.0
 11
230.6961375367
 21
105.9394690551
 31
0.0
  0
LINE
  5
100
330
1F
100
AcDbEntity
  8
0
  6
Continuous
 62
     7
370
     0
100
AcDbLine
 10
230.9858965678
 20
104.2009148684
 30
0.0
 11
230.6961375367
 21
104.2009148684
 31
0.0
  0
LINE
  5
101
330
1F
100
AcDbEntity
  8
0
  6
Continuous
 62
     7
370
     0
100
AcDbLine
 10
230.9858965678
 20
106.2555698164
 30
0.0
 11
230.9858965678
 21
104.2009148684
 31
0.0
  0
LINE
  5
102
330
1F
100
AcDbEntity
  8
0
  6
Continuous
 62
     7
370
     0
100
AcDbLine
 10
230.5537275583
 20
106.2555698164
 30
0.0
 11
230.9858965678
 21
106.2555698164
 31
0.0
  0
LINE
  5
103
330
1F
100
AcDbEntity
  8
0
  6
Continuous
 62
     7
370
     0
100
AcDbLine
 10
230.0989211245
 20
104.8384670548
 30
0.0
 11
230.5537275583
 21
106.2555698164
 31
0.0
  0
SPLINE
  5
104
330
1F
100
AcDbEntity
  8
0
  6
Continuous
 62
     7
370
     0
100
AcDbSpline
210
0.0
220
0.0
230
1.0
 70
     8
 71
     3
 72
    15
 73
    11
 74
     0
 42
0.00000001
 43
0.00000001
 40
0.0
 40
0.0
 40
0.0
 40
0.0
 40
0.0892047702332444
 40
0.1898334556643479
 40
0.2992325919749808
 40
0.4192609378429066
 40
0.5492073901909382
 40
0.6890743636843489
 40
0.8395791979483183
 40
1.0
 40
1.0
 40
1.0
 40
1.0
 10
229.9980816889823
 20
104.5120765552646
 30
0.0
 10
230.0009500265489
 20
104.5218213436364
 30
0.0
 10
230.0070540323196
 20
104.5425588764669
 30
0.0
 10
230.0169496014275
 20
104.5751650920295
 30
0.0
 10
230.0274787686992
 20
104.6112475385813
 30
0.0
 10
230.0400789545032
 20
104.6501860177092
 30
0.0
 10
230.0532131569751
 20
104.692591351928
 30
0.0
 10
230.0669992118272
 20
104.7384283249774
 30
0.0
 10
230.0829011576377
 20
104.7872393096528
 30
0.0
 10
230.0934687953526
 20
104.8210319045712
 30
0.0
 10
230.0989211245271
 20
104.8384670548034
 30
0.0
  0
SPLINE
  5
105
330
1F
100
AcDbEntity
  8
0
  6
Continuous
 62
     7
370
     0
100
AcDbSpline
210
0.0
220
0.0
230
1.0
 70
     8
 71
     3
 72
    15
 73
    11
 74
     0
 42
0.00000001
 43
0.00000001
 40
0.0
 40
0.0
 40
0.0
 40
0.0
 40
0.1625255217041867
 40
0.314314898039237
 40
0.4549784905465734
 40
0.5845192373661994
 40
0.704567103309073
 40
0.8134949897289289
 40
0.9116812596826063
 40
1.0
 40
1.0
 40
1.0
 40
1.0
 10
229.9054740440943
 20
104.8137716828333
 30
0.0
 10
229.9105290333962
 20
104.7974386226595
 30
0.0
 10
229.920305088445
 20
104.7658514350637
 30
0.0
 10
229.9348018182355
 20
104.7202366296459
 30
0.0
 10
229.9479914120313
 20
104.6778478926006
 30
0.0
 10
229.9598707181607
 20
104.6385502983416
 30
0.0
 10
229.9710813728328
 20
104.6025389576279
 30
0.0
 10
229.9807880333524
 20
104.5695183708484
 30
0.0
 10
229.9900679166021
 20
104.5398554701278
 30
0.0
 10
229.9955063428549
 20
104.5210037268167
 30
0.0
 10
229.9980816889823
 20
104.5120765552646
 30
0.0
  0
LINE
  5
106
330
1F
100
AcDbEntity
  8
0
  6
Continuous
 62
     7
370
     0
100
AcDbLine
 10
229.4461401254
 20
106.2555698164
 30
0.0
 11
229.9054740441
 21
104.8137716828
 31
0.0
  0
LINE
  5
107
330
1F
100
AcDbEntity
  8
0
  6
Continuous
 62
     7
370
     0
100
AcDbLine
 10
229.0102668102
 20
106.2555698164
 30
0.0
 11
229.4461401254
 21
106.2555698164
 31
0.0
  0
LINE
  5
108
330
1F
100
AcDbEntity
  8
0
  6
Continuous
 62
     7
370
     0
100
AcDbLine
 10
229.0102668102
 20
104.2009148684
 30
0.0
 11
229.0102668102
 21
106.2555698164
 31
0.0
  0
LINE
  5
109
330
1F
100
AcDbEntity
  8
0
  6
Continuous
 62
     7
370
     0
100
AcDbLine
 10
229.3000258413
 20
104.2009148684
 30
0.0
 11
229.0102668102
 21
104.2009148684
 31
0.0
  0
LINE
  5
10A
330
1F
100
AcDbEntity
  8
0
  6
Continuous
 62
     7
370
     0
100
AcDbLine
 10
229.3000258413
 20
105.9394690551
 30
0.0
 11
229.3000258413
 21
104.2009148684
 31
0.0
  0
SPLINE
  5
10B
330
1F
100
AcDbEntity
  8
0
  6
Continuous
 62
     7
370
     0
100
AcDbSpline
210
0.0
220
0.0
230
1.0
 70
     8
 71
     3
 72
    31
 73
    27
 74
     0
 42
0.00000001
 43
0.00000001
 40
0.0
 40
0.0
 40
0.0
 40
0.0
 40
0.0628739462114324
 40
0.1228366299919129
 40
0.1796565674430314
 40
0.233960012230862
 40
0.285595018695559
 40
0.3345131060783806
 40
0.3809048259061763
 40
0.4248945919393348
 40
0.4665290347654873
 40
0.5064882940692462
 40
0.5450315536447544
 40
0.5818311798231345
 40
0.617448279949443
 40
0.652066912769046
 40
0.6858797142465105
 40
0.719174554791392
 40
0.7521816462063926
 40
0.7852401639180911
 40
0.8186564497770833
 40
0.852547740653311
 40
0.8876263422585189
 40
0.923635078068751
 40
0.9610218444769894
 40
1.0
 40
1.0
 40
1.0
 40
1.0
 10
227.7458637653044
 20
105.2142482982826
 30
0.0
 10
227.7455934010684
 20
105.1850233149396
 30
0.0
 10
227.7450651913151
 20
105.1279265573519
 30
0.0
 10
227.7419274750388
 20
105.0444544464732
 30
0.0
 10
227.7359592555619
 20
104.9651465771906
 30
0.0
 10
227.7286152524561
 20
104.8898212782501
 30
0.0
 10
227.7175053140396
 20
104.8186796327481
 30
0.0
 10
227.7055337534494
 20
104.7514193786544
 30
0.0
 10
227.6907278901241
 20
104.6883459367582
 30
0.0
 10
227.673452923675
 20
104.6294316635953
 30
0.0
 10
227.6539973887351
 20
104.5743650417056
 30
0.0
 10
227.6326613840941
 20
104.5227299081723
 30
0.0
 10
227.6090297102905
 20
104.4745615459328
 30
0.0
 10
227.5823989994591
 20
104.4303297650328
 30
0.0
 10
227.5539877272602
 20
104.3894474626347
 30
0.0
 10
227.5235878113316
 20
104.351761280032
 30
0.0
 10
227.4905547378661
 20
104.3178136303233
 30
0.0
 10
227.4549218856936
 20
104.2877950579058
 30
0.0
 10
227.4174116153723
 20
104.2607545543515
 30
0.0
 10
227.377277758007
 20
104.2376020732888
 30
0.0
 10
227.3346959732359
 20
104.218420644868
 30
0.0
 10
227.2899507663597
 20
104.2020214765297
 30
0.0
 10
227.2425881327027
 20
104.1900051278331
 30
0.0
 10
227.1929815695859
 20
104.1808068006745
 30
0.0
 10
227.1409483002076
 20
104.1753901595266
 30
0.0
 10
227.105443076213
 20
104.174849236217
 30
0.0
 10
227.0873205127671
 20
104.1745731383392
 30
0.0
  0
SPLINE
  5
10C
330
1F
100
AcDbEntity
  8
0
  6
Continuous
 62
     7
370
     0
100
AcDbSpline
210
0.0
220
0.0
230
1.0
 70
     8
 71
     3
 72
    27
 73
    23
 74
     0
 42
0.00000001
 43
0.00000001
 40
0.0
 40
0.0
 40
0.0
 40
0.0
 40
0.0567243372181507
 40
0.1114372357370107
 40
0.1643678222229013
 40
0.21643537246209
 40
0.2676414903219251
 40
0.3173597799690279
 40
0.3674730633322808
 40
0.4182103970528082
 40
0.4714042826470199
 40
0.5279657201290493
 40
0.5880611158232139
 40
0.6521342629937145
 40
0.6863448363353056
 40
0.7232636803169653
 40
0.762610250771542
 40
0.8047389366452182
 40
0.84943033879095
 40
0.8967112583864923
 40
0.9468896380534765
 40
1.0
 40
1.0
 40
1.0
 40
1.0
 10
227.0873205127671
 20
106.2555698163574
 30
0.0
 10
227.1137077018764
 20
106.2547940516726
 30
0.0
 10
227.1655463932992
 20
106.2532700308325
 30
0.0
 10
227.2412311504772
 20
106.2408403934071
 30
0.0
 10
227.3125591561224
 20
106.2195775828996
 30
0.0
 10
227.3794840689491
 20
106.1908931342529
 30
0.0
 10
227.4408618179407
 20
106.1544583636751
 30
0.0
 10
227.4956747347739
 20
106.1101663490265
 30
0.0
 10
227.5433315736026
 20
106.0584821477142
 30
0.0
 10
227.583312233775
 20
105.9987933188996
 30
0.0
 10
227.6182593214932
 20
105.9327464790871
 30
0.0
 10
227.6493055470684
 20
105.8600451856945
 30
0.0
 10
227.677370433243
 20
105.780770908731
 30
0.0
 10
227.6972858874267
 20
105.7098093640557
 30
0.0
 10
227.7114915645435
 20
105.6485528407604
 30
0.0
 10
227.7208945941098
 20
105.59803019318
 30
0.0
 10
227.7287009937641
 20
105.5435159720111
 30
0.0
 10
227.7346817508941
 20
105.4851420618296
 30
0.0
 10
227.7395888210058
 20
105.42297393417
 30
0.0
 10
227.7433783263639
 20
105.3569728819668
 30
0.0
 10
227.745301888338
 20
105.2869739468192
 30
0.0
 10
227.7456729618511
 20
105.23894463879
 30
0.0
 10
227.7458637653044
 20
105.2142482982826
 30
0.0
  0
SPLINE
  5
10D
330
1F
100
AcDbEntity
  8
0
  6
Continuous
 62
     7
370
     0
100
AcDbSpline
210
0.0
220
0.0
230
1.0
 70
     8
 71
     3
 72
    31
 73
    27
 74
     0
 42
0.00000001
 43
0.00000001
 40
0.0
 40
0.0
 40
0.0
 40
0.0
 40
0.0631144583947934
 40
0.12361464576949
 40
0.1809737111859576
 40
0.2352614550083221
 40
0.287100701833872
 40
0.3360307363034436
 40
0.3823823485850663
 40
0.4263340836597073
 40
0.4682106947981602
 40
0.5082496012618052
 40
0.546628336606585
 40
0.5836495392304464
 40
0.6189943150301618
 40
0.6535830186205961
 40
0.6871561361903314
 40
0.7204221919788074
 40
0.7532302188118167
 40
0.7862601560779002
 40
0.8195039834988841
 40
0.8535452747120184
 40
0.8883082803397299
 40
0.9239958607406952
 40
0.961350304754645
 40
1.0
 40
1.0
 40
1.0
 40
1.0
 10
226.4287772602297
 20
105.2142482982826
 30
0.0
 10
226.429042653218
 20
105.2436112034847
 30
0.0
 10
226.4295624463222
 20
105.3011207697179
 30
0.0
 10
226.4327865540876
 20
105.3852675963641
 30
0.0
 10
226.4384155849924
 20
105.4651783534035
 30
0.0
 10
226.4468181784951
 20
105.5407836420775
 30
0.0
 10
226.4567684234376
 20
105.6122541183798
 30
0.0
 10
226.4697038046362
 20
105.6794877865702
 30
0.0
 10
226.48425798898
 20
105.7426354962147
 30
0.0
 10
226.5017203984033
 20
105.8016314260557
 30
0.0
 10
226.5209058697488
 20
105.856982833696
 30
0.0
 10
226.5426723990669
 20
105.9086009229812
 30
0.0
 10
226.567162697261
 20
105.9564309665874
 30
0.0
 10
226.5931732183969
 20
106.0009689888931
 30
0.0
 10
226.6220732096302
 20
106.0415222403523
 30
0.0
 10
226.6521183254393
 20
106.0792288112154
 30
0.0
 10
226.6854920654497
 20
106.1127058544011
 30
0.0
 10
226.7208066779602
 20
106.1428147372644
 30
0.0
 10
226.7585821797959
 20
106.1693840717371
 30
0.0
 10
226.7986187010484
 20
106.1923102026705
 30
0.0
 10
226.8407621920753
 20
106.2125523232207
 30
0.0
 10
226.8858158612103
 20
106.2277905862829
 30
0.0
 10
226.932844402941
 20
106.2402130010453
 30
0.0
 10
226.9822098185936
 20
106.2493510799663
 30
0.0
 10
227.0339665080948
 20
106.2547382858836
 30
0.0
 10
227.0693349300815
 20
106.2552895082496
 30
0.0
 10
227.0873205127671
 20
106.2555698163574
 30
0.0
  0
SPLINE
  5
10E
330
1F
100
AcDbEntity
  8
0
  6
Continuous
 62
     7
370
     0
100
AcDbSpline
210
0.0
220
0.0
230
1.0
 70
     8
 71
     3
 72
    15
 73
    11
 74
     0
 42
0.00000001
 43
0.00000001
 40
0.0
 40
0.0
 40
0.0
 40
0.0
 40
0.0974206681772145
 40
0.2008855880393207
 40
0.3111719701726506
 40
0.429797945825373
 40
0.5577399263645872
 40
0.6947152693641585
 40
0.8421299102060552
 40
1.0
 40
1.0
 40
1.0
 40
1.0
 10
226.6283981836551
 20
104.3725477036332
 30
0.0
 10
226.6121144267364
 20
104.3960372618812
 30
0.0
 10
226.5785366229162
 20
104.4444737364992
 30
0.0
 10
226.5392367149067
 20
104.5270624187819
 30
0.0
 10
226.5041805011666
 20
104.6179809622816
 30
0.0
 10
226.4766678007547
 20
104.7190131780435
 30
0.0
 10
226.4551184979857
 20
104.8293549638419
 30
0.0
 10
226.4395545211894
 20
104.9492228337649
 30
0.0
 10
226.4307468425807
 20
105.0785650009381
 30
0.0
 10
226.4294486084029
 20
105.1679995421638
 30
0.0
 10
226.4287772602297
 20
105.2142482982826
 30
0.0
  0
SPLINE
  5
10F
330
1F
100
AcDbEntity
  8
0
  6
Continuous
 62
     7
370
     0
100
AcDbSpline
210
0.0
220
0.0
230
1.0
 70
     8
 71
     3
 72
    15
 73
    11
 74
     0
 42
0.00000001
 43
0.00000001
 40
0.0
 40
0.0
 40
0.0
 40
0.0
 40
0.1379032299933934
 40
0.2688733426002937
 40
0.3951781273461133
 40
0.5170892381308883
 40
0.6367430265135479
 40
0.756221816463797
 40
0.8766283594636795
 40
1.0
 40
1.0
 40
1.0
 40
1.0
 10
227.0873205127671
 20
104.1745731383392
 30
0.0
 10
227.0635597308294
 20
104.1752509159004
 30
0.0
 10
227.0172327458654
 20
104.1765723955961
 30
0.0
 10
226.9495756002798
 20
104.1855510361584
 30
0.0
 10
226.8860757603566
 20
104.2013538651112
 30
0.0
 10
226.8261976413102
 20
104.2225476870358
 30
0.0
 10
226.7706142895709
 20
104.2508956443166
 30
0.0
 10
226.7190603167359
 20
104.2853864698465
 30
0.0
 10
226.6704997828867
 20
104.3252176981406
 30
0.0
 10
226.642545387401
 20
104.3566436229518
 30
0.0
 10
226.6283981836551
 20
104.3725477036332
 30
0.0
  0
SPLINE
  5
110
330
1F
100
AcDbEntity
  8
0
  6
Continuous
 62
     7
370
     0
100
AcDbSpline
210
0.0
220
0.0
230
1.0
 70
     8
 71
     3
 72
    31
 73
    27
 74
     0
 42
0.00000001
 43
0.00000001
 40
0.0
 40
0.0
 40
0.0
 40
0.0
 40
0.0628739462114324
 40
0.1228366299919129
 40
0.1796565674430314
 40
0.2339600122308621
 40
0.2855950186955587
 40
0.3345131060783809
 40
0.3809048259061763
 40
0.4248945919393347
 40
0.4665290347654873
 40
0.5064882940692463
 40
0.5450315536447544
 40
0.5818311798231345
 40
0.617448279949443
 40
0.652066912769046
 40
0.6858797142465105
 40
0.7191745547913923
 40
0.7521816462063928
 40
0.7852401639180911
 40
0.8186564497770834
 40
0.8525477406533113
 40
0.8876263422585191
 40
0.923635078068751
 40
0.9610218444769892
 40
1.0
 40
1.0
 40
1.0
 40
1.0
 10
224.584856153125
 20
105.2142482982826
 30
0.0
 10
224.584585788889
 20
105.1850233149396
 30
0.0
 10
224.5840575791356
 20
105.1279265573519
 30
0.0
 10
224.5809198628593
 20
105.0444544464732
 30
0.0
 10
224.5749516433824
 20
104.9651465771906
 30
0.0
 10
224.5676076402765
 20
104.8898212782501
 30
0.0
 10
224.5564977018601
 20
104.8186796327481
 30
0.0
 10
224.5445261412699
 20
104.7514193786544
 30
0.0
 10
224.5297202779446
 20
104.6883459367582
 30
0.0
 10
224.5124453114955
 20
104.6294316635953
 30
0.0
 10
224.4929897765556
 20
104.5743650417056
 30
0.0
 10
224.4716537719146
 20
104.5227299081723
 30
0.0
 10
224.448022098111
 20
104.4745615459328
 30
0.0
 10
224.4213913872797
 20
104.4303297650328
 30
0.0
 10
224.3929801150807
 20
104.3894474626347
 30
0.0
 10
224.3625801991521
 20
104.351761280032
 30
0.0
 10
224.3295471256866
 20
104.3178136303233
 30
0.0
 10
224.2939142735141
 20
104.2877950579058
 30
0.0
 10
224.2564040031928
 20
104.2607545543515
 30
0.0
 10
224.2162701458275
 20
104.2376020732888
 30
0.0
 10
224.1736883610564
 20
104.218420644868
 30
0.0
 10
224.1289431541803
 20
104.2020214765297
 30
0.0
 10
224.0815805205231
 20
104.1900051278331
 30
0.0
 10
224.0319739574064
 20
104.1808068006745
 30
0.0
 10
223.9799406880281
 20
104.1753901595266
 30
0.0
 10
223.9444354640335
 20
104.174849236217
 30
0.0
 10
223.9263129005876
 20
104.1745731383392
 30
0.0
  0
SPLINE
  5
111
330
1F
100
AcDbEntity
  8
0
  6
Continuous
 62
     7
370
     0
100
AcDbSpline
210
0.0
220
0.0
230
1.0
 70
     8
 71
     3
 72
    27
 73
    23
 74
     0
 42
0.00000001
 43
0.00000001
 40
0.0
 40
0.0
 40
0.0
 40
0.0
 40
0.0567243372181506
 40
0.1114372357370108
 40
0.1643678222229014
 40
0.21643537246209
 40
0.267641490321925
 40
0.3173597799690279
 40
0.3674730633322807
 40
0.4182103970528082
 40
0.4714042826470199
 40
0.5279657201290493
 40
0.5880611158232139
 40
0.6521342629937146
 40
0.6863448363353056
 40
0.7232636803169653
 40
0.762610250771542
 40
0.8047389366452182
 40
0.84943033879095
 40
0.8967112583864923
 40
0.9468896380534765
 40
1.0
 40
1.0
 40
1.0
 40
1.0
 10
223.9263129005876
 20
106.2555698163574
 30
0.0
 10
223.9527000896969
 20
106.2547940516726
 30
0.0
 10
224.0045387811197
 20
106.2532700308325
 30
0.0
 10
224.0802235382977
 20
106.2408403934071
 30
0.0
 10
224.1515515439429
 20
106.2195775828996
 30
0.0
 10
224.2184764567696
 20
106.1908931342529
 30
0.0
 10
224.2798542057612
 20
106.1544583636751
 30
0.0
 10
224.3346671225944
 20
106.1101663490265
 30
0.0
 10
224.3823239614232
 20
106.0584821477142
 30
0.0
 10
224.4223046215955
 20
105.9987933188996
 30
0.0
 10
224.4572517093137
 20
105.9327464790871
 30
0.0
 10
224.4882979348889
 20
105.8600451856945
 30
0.0
 10
224.5163628210635
 20
105.780770908731
 30
0.0
 10
224.5362782752472
 20
105.7098093640557
 30
0.0
 10
224.550483952364
 20
105.6485528407604
 30
0.0
 10
224.5598869819302
 20
105.59803019318
 30
0.0
 10
224.5676933815846
 20
105.5435159720111
 30
0.0
 10
224.5736741387146
 20
105.4851420618296
 30
0.0
 10
224.5785812088263
 20
105.42297393417
 30
0.0
 10
224.5823707141844
 20
105.3569728819668
 30
0.0
 10
224.5842942761585
 20
105.2869739468192
 30
0.0
 10
224.5846653496716
 20
105.23894463879
 30
0.0
 10
224.584856153125
 20
105.2142482982826
 30
0.0
  0
SPLINE
  5
112
330
1F
100
AcDbEntity
  8
0
  6
Continuous
 62
     7
370
     0
100
AcDbSpline
210
0.0
220
0.0
230
1.0
 70
     8
 71
     3
 72
    31
 73
    27
 74
     0
 42
0.00000001
 43
0.00000001
 40
0.0
 40
0.0
 40
0.0
 40
0.0
 40
0.0631144583947934
 40
0.12361464576949
 40
0.1809737111859576
 40
0.2352614550083222
 40
0.287100701833872
 40
0.3360307363034437
 40
0.3823823485850664
 40
0.4263340836597074
 40
0.4682106947981604
 40
0.5082496012618052
 40
0.546628336606585
 40
0.5836495392304464
 40
0.6189943150301618
 40
0.6535830186205961
 40
0.6871561361903314
 40
0.7204221919788075
 40
0.753230218811817
 40
0.7862601560779
 40
0.8195039834988841
 40
0.8535452747120184
 40
0.8883082803397299
 40
0.923995860740695
 40
0.961350304754645
 40
1.0
 40
1.0
 40
1.0
 40
1.0
 10
223.2677696480502
 20
105.2142482982826
 30
0.0
 10
223.2680350410385
 20
105.2436112034847
 30
0.0
 10
223.2685548341427
 20
105.3011207697179
 30
0.0
 10
223.2717789419081
 20
105.3852675963641
 30
0.0
 10
223.2774079728129
 20
105.4651783534035
 30
0.0
 10
223.2858105663156
 20
105.5407836420775
 30
0.0
 10
223.295760811258
 20
105.6122541183798
 30
0.0
 10
223.3086961924567
 20
105.6794877865702
 30
0.0
 10
223.3232503768005
 20
105.7426354962147
 30
0.0
 10
223.3407127862238
 20
105.8016314260557
 30
0.0
 10
223.3598982575693
 20
105.856982833696
 30
0.0
 10
223.3816647868875
 20
105.9086009229813
 30
0.0
 10
223.4061550850815
 20
105.9564309665874
 30
0.0
 10
223.4321656062174
 20
106.0009689888931
 30
0.0
 10
223.4610655974507
 20
106.0415222403523
 30
0.0
 10
223.4911107132598
 20
106.0792288112154
 30
0.0
 10
223.5244844532702
 20
106.1127058544011
 30
0.0
 10
223.5597990657807
 20
106.1428147372644
 30
0.0
 10
223.5975745676164
 20
106.1693840717371
 30
0.0
 10
223.637611088869
 20
106.1923102026705
 30
0.0
 10
223.6797545798958
 20
106.2125523232207
 30
0.0
 10
223.7248082490308
 20
106.2277905862829
 30
0.0
 10
223.7718367907615
 20
106.2402130010453
 30
0.0
 10
223.8212022064142
 20
106.2493510799663
 30
0.0
 10
223.8729588959154
 20
106.2547382858836
 30
0.0
 10
223.908327317902
 20
106.2552895082496
 30
0.0
 10
223.9263129005876
 20
106.2555698163574
 30
0.0
  0
SPLINE
  5
113
330
1F
100
AcDbEntity
  8
0
  6
Continuous
 62
     7
370
     0
100
AcDbSpline
210
0.0
220
0.0
230
1.0
 70
     8
 71
     3
 72
    15
 73
    11
 74
     0
 42
0.00000001
 43
0.00000001
 40
0.0
 40
0.0
 40
0.0
 40
0.0
 40
0.0974206681772145
 40
0.2008855880393206
 40
0.3111719701726505
 40
0.4297979458253725
 40
0.5577399263645877
 40
0.6947152693641585
 40
0.8421299102060552
 40
1.0
 40
1.0
 40
1.0
 40
1.0
 10
223.4673905714756
 20
104.3725477036332
 30
0.0
 10
223.4511068145569
 20
104.3960372618812
 30
0.0
 10
223.4175290107367
 20
104.4444737364992
 30
0.0
 10
223.3782291027272
 20
104.5270624187819
 30
0.0
 10
223.3431728889871
 20
104.6179809622816
 30
0.0
 10
223.3156601885752
 20
104.7190131780435
 30
0.0
 10
223.2941108858062
 20
104.8293549638419
 30
0.0
 10
223.2785469090099
 20
104.9492228337649
 30
0.0
 10
223.2697392304012
 20
105.0785650009381
 30
0.0
 10
223.2684409962234
 20
105.1679995421638
 30
0.0
 10
223.2677696480502
 20
105.2142482982826
 30
0.0
  0
SPLINE
  5
114
330
1F
100
AcDbEntity
  8
0
  6
Continuous
 62
     7
370
     0
100
AcDbSpline
210
0.0
220
0.0
230
1.0
 70
     8
 71
     3
 72
    15
 73
    11
 74
     0
 42
0.00000001
 43
0.00000001
 40
0.0
 40
0.0
 40
0.0
 40
0.0
 40
0.1379032299933935
 40
0.2688733426002935
 40
0.3951781273461131
 40
0.5170892381308877
 40
0.6367430265135475
 40
0.7562218164637969
 40
0.8766283594636793
 40
1.0
 40
1.0
 40
1.0
 40
1.0
 10
223.9263129005876
 20
104.1745731383392
 30
0.0
 10
223.9025521186499
 20
104.1752509159004
 30
0.0
 10
223.8562251336859
 20
104.1765723955961
 30
0.0
 10
223.7885679881003
 20
104.1855510361584
 30
0.0
 10
223.7250681481771
 20
104.2013538651112
 30
0.0
 10
223.6651900291307
 20
104.2225476870358
 30
0.0
 10
223.6096066773914
 20
104.2508956443166
 30
0.0
 10
223.5580527045564
 20
104.2853864698465
 30
0.0
 10
223.5094921707073
 20
104.3252176981406
 30
0.0
 10
223.4815377752215
 20
104.3566436229518
 30
0.0
 10
223.4673905714756
 20
104.3725477036332
 30
0.0
  0
SPLINE
  5
115
330
1F
100
AcDbEntity
  8
0
  6
Continuous
 62
     7
370
     0
100
AcDbSpline
210
0.0
220
0.0
230
1.0
 70
     8
 71
     3
 72
    23
 73
    19
 74
     0
 42
0.00000001
 43
0.00000001
 40
0.0
 40
0.0
 40
0.0
 40
0.0
 40
0.0635999003471699
 40
0.1252966507935535
 40
0.1855687201945882
 40
0.2446982110006627
 40
0.303716806189989
 40
0.3629196509481438
 40
0.4233003138688771
 40
0.4851773095450755
 40
0.5470834132243567
 40
0.608524799634247
 40
0.6699648532447271
 40
0.7322993779782991
 40
0.7956502934901155
 40
0.8610554709467161
 40
0.929122115173219
 40
1.0
 40
1.0
 40
1.0
 40
1.0
 10
222.0560500633814
 20
104.7989544596512
 30
0.0
 10
222.0555265777314
 20
104.777382193751
 30
0.0
 10
222.0544952711048
 20
104.7348831858505
 30
0.0
 10
222.0454338866809
 20
104.6724996297116
 30
0.0
 10
222.0317236109195
 20
104.6125717116147
 30
0.0
 10
222.0117324460693
 20
104.5553525892694
 30
0.0
 10
221.9861987617227
 20
104.5008018138997
 30
0.0
 10
221.9546132854904
 20
104.4489985991921
 30
0.0
 10
221.9172863552185
 20
104.3999962341622
 30
0.0
 10
221.8753190506522
 20
104.3536424039627
 30
0.0
 10
221.8283996292105
 20
104.3117405490697
 30
0.0
 10
221.7776415063527
 20
104.274815769378
 30
0.0
 10
221.7228542310871
 20
104.2438865584527
 30
0.0
 10
221.6647025604176
 20
104.2182772830027
 30
0.0
 10
221.6029080441184
 20
104.1984301894707
 30
0.0
 10
221.537550114747
 20
104.184533015879
 30
0.0
 10
221.4686505212655
 20
104.1762578605845
 30
0.0
 10
221.4215391133047
 20
104.1751422364973
 30
0.0
 10
221.397506810844
 20
104.1745731383392
 30
0.0
  0
SPLINE
  5
116
330
1F
100
AcDbEntity
  8
0
  6
Continuous
 62
     7
370
     0
100
AcDbSpline
210
0.0
220
0.0
230
1.0
 70
     8
 71
     3
 72
    23
 73
    19
 74
     0
 42
0.00000001
 43
0.00000001
 40
0.0
 40
0.0
 40
0.0
 40
0.0
 40
0.0690130029109932
 40
0.1352355440560497
 40
0.1996111851157138
 40
0.2624185195032886
 40
0.3237234972102992
 40
0.3837653656042444
 40
0.4437730350956272
 40
0.5037949564977896
 40
0.5638225777168209
 40
0.6234843128834681
 40
0.6834691722744386
 40
0.7435907624559172
 40
0.8057272199738402
 40
0.8686162107352969
 40
0.933278202847215
 40
1.0
 40
1.0
 40
1.0
 40
1.0
 10
221.6724486187784
 20
105.3278470093453
 30
0.0
 10
221.6877876056092
 20
105.3226401501397
 30
0.0
 10
221.7178453648986
 20
105.3124369651197
 30
0.0
 10
221.7603380686403
 20
105.2925988289982
 30
0.0
 10
221.8003436720051
 20
105.2712086093666
 30
0.0
 10
221.8380877710046
 20
105.2480536836362
 30
0.0
 10
221.8721771379481
 20
105.2214120751414
 30
0.0
 10
221.9037490942598
 20
105.192858991799
 30
0.0
 10
221.9326708974834
 20
105.1619920645186
 30
0.0
 10
221.9585475064935
 20
105.1285487668323
 30
0.0
 10
221.9816500476977
 20
105.0932310164248
 30
0.0
 10
222.001427656807
 20
105.0559527070224
 30
0.0
 10
222.0182244004149
 20
105.0172444465994
 30
0.0
 10
222.0325794759237
 20
104.976926737605
 30
0.0
 10
222.0430647238655
 20
104.9347155869234
 30
0.0
 10
222.0504011113586
 20
104.8908049770956
 30
0.0
 10
222.0550558423849
 20
104.8454263324259
 30
0.0
 10
222.0557152105746
 20
104.8146061478477
 30
0.0
 10
222.0560500633814
 20
104.7989544596512
 30
0.0
  0
SPLINE
  5
117
330
1F
100
AcDbEntity
  8
0
  6
Continuous
 62
     7
370
     0
100
AcDbSpline
210
0.0
220
0.0
230
1.0
 70
     8
 71
     3
 72
    15
 73
    11
 74
     0
 42
0.00000001
 43
0.00000001
 40
0.0
 40
0.0
 40
0.0
 40
0.0
 40
0.1248350921668871
 40
0.2447781332833286
 40
0.3609889778410595
 40
0.4779641722472781
 40
0.5969221175582977
 40
0.7215907566966706
 40
0.8550978657574203
 40
1.0
 40
1.0
 40
1.0
 40
1.0
 10
221.9770248730769
 20
105.7307931619916
 30
0.0
 10
221.9762720498444
 20
105.7082063599427
 30
0.0
 10
221.9747959050974
 20
105.6639178898786
 30
0.0
 10
221.9597533299717
 20
105.6000756921519
 30
0.0
 10
221.9363081899037
 20
105.5404758007897
 30
0.0
 10
221.9024228878214
 20
105.4862540861251
 30
0.0
 10
221.8595084129919
 20
105.4368505593333
 30
0.0
 10
221.8062549722863
 20
105.3939035317318
 30
0.0
 10
221.7434713155692
 20
105.3564441188606
 30
0.0
 10
221.6967601324549
 20
105.3376359789354
 30
0.0
 10
221.6724486187784
 20
105.3278470093453
 30
0.0
  0
SPLINE
  5
118
330
1F
100
AcDbEntity
  8
0
  6
Continuous
 62
     7
370
     0
100
AcDbSpline
210
0.0
220
0.0
230
1.0
 70
     8
 71
     3
 72
    23
 73
    19
 74
     0
 42
0.00000001
 43
0.00000001
 40
0.0
 40
0.0
 40
0.0
 40
0.0
 40
0.0732007449685411
 40
0.1425867913224127
 40
0.2096247814680876
 40
0.2748829267682081
 40
0.3379306095315751
 40
0.4004618221882001
 40
0.4625006206857346
 40
0.5250054581372535
 40
0.5866888527108448
 40
0.6468127657705338
 40
0.7052153157505646
 40
0.7628810210075594
 40
0.8207275416930107
 40
0.8792954957245834
 40
0.9385111654136072
 40
1.0
 40
1.0
 40
1.0
 40
1.0
 10
221.3942140945813
 20
106.2555698163574
 30
0.0
 10
221.415636061056
 20
106.2550870989357
 30
0.0
 10
221.4573636345219
 20
106.2541468198677
 30
0.0
 10
221.5183865081468
 20
106.2470670153359
 30
0.0
 10
221.5762724839619
 20
106.2352008218851
 30
0.0
 10
221.630987481745
 20
106.2183656806864
 30
0.0
 10
221.6826177615326
 20
106.1968409389824
 30
0.0
 10
221.7308240611746
 20
106.1703842058936
 30
0.0
 10
221.7761026352611
 20
106.1394318371367
 30
0.0
 10
221.8172961790328
 20
106.1036147147064
 30
0.0
 10
221.8547773937463
 20
106.0647289673326
 30
0.0
 10
221.8872513259653
 20
106.0230691699557
 30
0.0
 10
221.9151031840425
 20
105.9796074257704
 30
0.0
 10
221.938118560078
 20
105.934079694674
 30
0.0
 10
221.9551454222909
 20
105.8859675377147
 30
0.0
 10
221.9681237133364
 20
105.8361774102048
 30
0.0
 10
221.9756517237578
 20
105.7841177083859
 30
0.0
 10
221.9765614458634
 20
105.7487897815888
 30
0.0
 10
221.9770248730769
 20
105.7307931619916
 30
0.0
  0
SPLINE
  5
119
330
1F
100
AcDbEntity
  8
0
  6
Continuous
 62
     7
370
     0
100
AcDbSpline
210
0.0
220
0.0
230
1.0
 70
     8
 71
     3
 72
    23
 73
    19
 74
     0
 42
0.00000001
 43
0.00000001
 40
0.0
 40
0.0
 40
0.0
 40
0.0
 40
0.0621313717366117
 40
0.1219658247853498
 40
0.1805702366487599
 40
0.2385759705888211
 40
0.2960002420906481
 40
0.3543589964435931
 40
0.4137812280524368
 40
0.4750979653520683
 40
0.5372798973856026
 40
0.5989179536770425
 40
0.6612351129787322
 40
0.7243219805737479
 40
0.7892171825086325
 40
0.8563966620881328
 40
0.9265077687361053
 40
1.0
 40
1.0
 40
1.0
 40
1.0
 10
220.8179887486111
 20
105.737378594517
 30
0.0
 10
220.8184407509286
 20
105.7553785226003
 30
0.0
 10
220.8193280456064
 20
105.7907129440593
 30
0.0
 10
220.8269944735483
 20
105.842560225554
 30
0.0
 10
220.8392733624231
 20
105.8922428924719
 30
0.0
 10
220.8566999786712
 20
105.9396207205511
 30
0.0
 10
220.8785326726925
 20
105.9850836727235
 30
0.0
 10
220.906081850666
 20
106.0277988475089
 30
0.0
 10
220.9377479196259
 20
106.0689734621972
 30
0.0
 10
220.9748432146609
 20
106.1069431135412
 30
0.0
 10
221.0157215884973
 20
106.1417196392647
 30
0.0
 10
221.0599992467866
 20
106.1726673315742
 30
0.0
 10
221.10801500277
 20
106.1979750202513
 30
0.0
 10
221.15896829702
 20
106.21913438058
 30
0.0
 10
221.2131110684136
 20
106.2356999224437
 30
0.0
 10
221.2706340369492
 20
106.2469819793229
 30
0.0
 10
221.3313344215792
 20
106.2541582044805
 30
0.0
 10
221.3729277666861
 20
106.2550919507477
 30
0.0
 10
221.3942140945813
 20
106.2555698163574
 30
0.0
  0
SPLINE
  5
11A
330
1F
100
AcDbEntity
  8
0
  6
Continuous
 62
     7
370
     0
100
AcDbSpline
210
0.0
220
0.0
230
1.0
 70
     8
 71
     3
 72
    15
 73
    11
 74
     0
 42
0.00000001
 43
0.00000001
 40
0.0
 40
0.0
 40
0.0
 40
0.0
 40
0.1453591950554982
 40
0.2787017789350159
 40
0.403602234418053
 40
0.5216687911804246
 40
0.6375206936077399
 40
0.7537041507630957
 40
0.8732127703640605
 40
1.0
 40
1.0
 40
1.0
 40
1.0
 10
221.129150435435
 20
105.3278470093453
 30
0.0
 10
221.1041567850202
 20
105.3376246669355
 30
0.0
 10
221.0562356691249
 20
105.3563716788681
 30
0.0
 10
220.9916024384351
 20
105.393889726673
 30
0.0
 10
220.9369007399251
 20
105.4370492998308
 30
0.0
 10
220.892802238143
 20
105.4868911632162
 30
0.0
 10
220.8591911624804
 20
105.5423849492204
 30
0.0
 10
220.8349898591669
 20
105.6028231141036
 30
0.0
 10
220.8208147313581
 20
105.6685423654027
 30
0.0
 10
220.8189491205598
 20
105.7139855346807
 30
0.0
 10
220.8179887486111
 20
105.737378594517
 30
0.0
  0
SPLINE
  5
11B
330
1F
100
AcDbEntity
  8
0
  6
Continuous
 62
     7
370
     0
100
AcDbSpline
210
0.0
220
0.0
230
1.0
 70
     8
 71
     3
 72
    23
 73
    19
 74
     0
 42
0.00000001
 43
0.00000001
 40
0.0
 40
0.0
 40
0.0
 40
0.0
 40
0.0698340680322546
 40
0.1370265239564768
 40
0.2014822968650625
 40
0.2645399492437558
 40
0.3259725932884497
 40
0.3863863095292154
 40
0.4457607667910175
 40
0.5056119070745058
 40
0.5651144217391012
 40
0.6247503916637627
 40
0.684178951264583
 40
0.7442191416569949
 40
0.8051791454666242
 40
0.8683948608225701
 40
0.9332039334133251
 40
1.0
 40
1.0
 40
1.0
 40
1.0
 10
220.7389635583066
 20
104.8059514817094
 30
0.0
 10
220.7393208694127
 20
104.8224220298246
 30
0.0
 10
220.7400219756238
 20
104.8547400949104
 30
0.0
 10
220.7443047959173
 20
104.9021419021749
 30
0.0
 10
220.7528403744939
 20
104.9473208069039
 30
0.0
 10
220.7638347433555
 20
104.9905430481062
 30
0.0
 10
220.777794151739
 20
105.0319167561515
 30
0.0
 10
220.795015739009
 20
105.0711170230967
 30
0.0
 10
220.8159099612341
 20
105.1080491061126
 30
0.0
 10
220.8396471677592
 20
105.1429533207177
 30
0.0
 10
220.8665268949414
 20
105.1755846264094
 30
0.0
 10
220.8961134846051
 20
105.205657263873
 30
0.0
 10
220.9285144087442
 20
105.232829177049
 30
0.0
 10
220.9630015610434
 20
105.2578939756748
 30
0.0
 10
221.0010205193272
 20
105.2790786480643
 30
0.0
 10
221.0411573705947
 20
105.2985195321725
 30
0.0
 10
221.084102173665
 20
105.3150990015849
 30
0.0
 10
221.1139839616164
 20
105.3235551161991
 30
0.0
 10
221.129150435435
 20
105.3278470093453
 30
0.0
  0
SPLINE
  5
11C
330
1F
100
AcDbEntity
  8
0
  6
Continuous
 62
     7
370
     0
100
AcDbSpline
210
0.0
220
0.0
230
1.0
 70
     8
 71
     3
 72
    23
 73
    19
 74
     0
 42
0.00000001
 43
0.00000001
 40
0.0
 40
0.0
 40
0.0
 40
0.0
 40
0.0704416310595481
 40
0.1380893247200285
 40
0.2031777335235316
 40
0.266138723805254
 40
0.3279287813674601
 40
0.3891903607612971
 40
0.4502535751031185
 40
0.5123465781279283
 40
0.5738427205586506
 40
0.6339325568070916
 40
0.6934598075975581
 40
0.7524794354833053
 40
0.8123859308429278
 40
0.8730704652319968
 40
0.9351843065837714
 40
1.0
 40
1.0
 40
1.0
 40
1.0
 10
221.397506810844
 20
104.1745731383392
 30
0.0
 10
221.3734769121976
 20
104.1751545012158
 30
0.0
 10
221.3263702165225
 20
104.1762941682827
 30
0.0
 10
221.2574076728158
 20
104.184400150728
 30
0.0
 10
221.1921432544045
 20
104.1989273203468
 30
0.0
 10
221.1304290858421
 20
104.2187945881458
 30
0.0
 10
221.0719303887338
 20
104.243710489463
 30
0.0
 10
221.017511062343
 20
104.2753366141196
 30
0.0
 10
220.9664213882683
 20
104.3122146127033
 30
0.0
 10
220.9194693424796
 20
104.3543756425265
 30
0.0
 10
220.8771534368917
 20
104.4007245282287
 30
0.0
 10
220.8403185579857
 20
104.4504505823813
 30
0.0
 10
220.8089205880258
 20
104.5027885365304
 30
0.0
 10
220.7830807401048
 20
104.5580334323916
 30
0.0
 10
220.763384883742
 20
104.6161857733168
 30
0.0
 10
220.749562098131
 20
104.6770272347119
 30
0.0
 10
220.7404843124703
 20
104.740511324479
 30
0.0
 10
220.7394776192643
 20
104.7838307269542
 30
0.0
 10
220.7389635583066
 20
104.8059514817094
 30
0.0
  0
SPLINE
  5
11D
330
1F
100
AcDbEntity
  8
0
  6
Continuous
 62
     7
370
     0
100
AcDbSpline
210
0.0
220
0.0
230
1.0
 70
     8
 71
     3
 72
    15
 73
    11
 74
     0
 42
0.00000001
 43
0.00000001
 40
0.0
 40
0.0
 40
0.0
 40
0.0
 40
0.1324616222426389
 40
0.26164950103549
 40
0.3875466984163659
 40
0.510781629293347
 40
0.6326753605997105
 40
0.7546603541381371
 40
0.8765227798028643
 40
1.0
 40
1.0
 40
1.0
 40
1.0
 10
218.8950424512019
 20
104.9055561486557
 30
0.0
 10
218.8945760455427
 20
104.8827620960687
 30
0.0
 10
218.8936547612797
 20
104.8377373380673
 30
0.0
 10
218.8861046462006
 20
104.7713850337379
 30
0.0
 10
218.8736676259618
 20
104.7074493658876
 30
0.0
 10
218.8570178877042
 20
104.6457410013407
 30
0.0
 10
218.8345218569364
 20
104.5866103958713
 30
0.0
 10
218.8072362772438
 20
104.529866552829
 30
0.0
 10
218.775760830609
 20
104.4749173694264
 30
0.0
 10
218.7505191558128
 20
104.4410443692356
 30
0.0
 10
218.7378152496586
 20
104.4239963952377
 30
0.0
  0
SPLINE
  5
11E
330
1F
100
AcDbEntity
  8
0
  6
Continuous
 62
     7
370
     0
100
AcDbSpline
210
0.0
220
0.0
230
1.0
 70
     8
 71
     3
 72
    23
 73
    19
 74
     0
 42
0.00000001
 43
0.00000001
 40
0.0
 40
0.0
 40
0.0
 40
0.0
 40
0.0619974190757221
 40
0.1220879540822937
 40
0.1813753107870036
 40
0.2395080083953663
 40
0.2978356978967516
 40
0.3568799706531185
 40
0.4172818251154289
 40
0.4796404090798165
 40
0.5425000674783568
 40
0.6049624196481908
 40
0.6669910330782646
 40
0.7302162430101637
 40
0.794172863251256
 40
0.8604581431502615
 40
0.9285781799847829
 40
1.0
 40
1.0
 40
1.0
 40
1.0
 10
218.2920637855973
 20
105.5706848337185
 30
0.0
 10
218.3128090056664
 20
105.5701412924959
 30
0.0
 10
218.3536613752161
 20
105.5690709280064
 30
0.0
 10
218.4138587562944
 20
105.5602765360019
 30
0.0
 10
218.471417578895
 20
105.5453474725676
 30
0.0
 10
218.526789329608
 20
105.5252402006485
 30
0.0
 10
218.5792438672801
 20
105.498584576867
 30
0.0
 10
218.6293125186486
 20
105.4663102764648
 30
0.0
 10
218.6767931392452
 20
105.4281512714147
 30
0.0
 10
218.7214173074612
 20
105.3848275433925
 30
0.0
 10
218.7618932027106
 20
105.3367336507328
 30
0.0
 10
218.7981204499997
 20
105.285438109941
 30
0.0
 10
218.8277088867526
 20
105.2299141254414
 30
0.0
 10
218.852594792814
 20
105.1716114379574
 30
0.0
 10
218.8713642760216
 20
105.1095729876987
 30
0.0
 10
218.8856109688795
 20
105.0446792269797
 30
0.0
 10
218.8932282025837
 20
104.9761188356435
 30
0.0
 10
218.8944282367542
 20
104.9294451688165
 30
0.0
 10
218.8950424512019
 20
104.9055561486557
 30
0.0
  0
SPLINE
  5
11F
330
1F
100
AcDbEntity
  8
0
  6
Continuous
 62
     7
370
     0
100
AcDbSpline
210
0.0
220
0.0
230
1.0
 70
     8
 71
     3
 72
    15
 73
    11
 74
     0
 42
0.00000001
 43
0.00000001
 40
0.0
 40
0.0
 40
0.0
 40
0.0
 40
0.1367294018595733
 40
0.2685149167908308
 40
0.3955294046848096
 40
0.5199999535658124
 40
0.640496476841269
 40
0.7612361017625323
 40
0.8801067171759528
 40
1.0
 40
1.0
 40
1.0
 40
1.0
 10
217.9257491013734
 20
105.4336255192841
 30
0.0
 10
217.9402837625938
 20
105.4445325327875
 30
0.0
 10
217.9688275380736
 20
105.4659521819885
 30
0.0
 10
218.0133507115219
 20
105.4939983892241
 30
0.0
 10
218.0585105196369
 20
105.5176394717784
 30
0.0
 10
218.1040440756748
 20
105.5369995304019
 30
0.0
 10
218.1503130722749
 20
105.5520809820132
 30
0.0
 10
218.1970383008936
 20
105.5625588781817
 30
0.0
 10
218.2443788530818
 20
105.5696404569496
 30
0.0
 10
218.2761234854935
 20
105.570335715491
 30
0.0
 10
218.2920637855973
 20
105.5706848337185
 30
0.0
  0
LINE
  5
120
330
1F
100
AcDbEntity
  8
0
  6
Continuous
 62
     7
370
     0
100
AcDbLine
 10
218.0302928427
 20
105.9658107852
 30
0.0
 11
217.9257491014
 21
105.4336255193
 31
0.0
  0
LINE
  5
121
330
1F
100
AcDbEntity
  8
0
  6
Continuous
 62
     7
370
     0
100
AcDbLine
 10
218.7896755308
 20
105.9658107852
 30
0.0
 11
218.0302928427
 21
105.9658107852
 31
0.0
  0
LINE
  5
122
330
1F
100
AcDbEntity
  8
0
  6
Continuous
 62
     7
370
     0
100
AcDbLine
 10
218.7896755308
 20
106.2292280863
 30
0.0
 11
218.7896755308
 21
105.9658107852
 31
0.0
  0
LINE
  5
123
330
1F
100
AcDbEntity
  8
0
  6
Continuous
 62
     7
370
     0
100
AcDbLine
 10
217.815031517
 20
106.2292280863
 30
0.0
 11
218.7896755308
 21
106.2292280863
 31
0.0
  0
LINE
  5
124
330
1F
100
AcDbEntity
  8
0
  6
Continuous
 62
     7
370
     0
100
AcDbLine
 10
217.6042976762
 20
105.1755588822
 30
0.0
 11
217.815031517
 21
106.2292280863
 31
0.0
  0
LINE
  5
125
330
1F
100
AcDbEntity
  8
0
  6
Continuous
 62
     7
370
     0
100
AcDbLine
 10
217.8677149772
 20
105.1492171521
 30
0.0
 11
217.6042976762
 21
105.1755588822
 31
0.0
  0
SPLINE
  5
126
330
1F
100
AcDbEntity
  8
0
  6
Continuous
 62
     7
370
     0
100
AcDbSpline
210
0.0
220
0.0
230
1.0
 70
     8
 71
     3
 72
    15
 73
    11
 74
     0
 42
0.00000001
 43
0.00000001
 40
0.0
 40
0.0
 40
0.0
 40
0.0
 40
0.1478596367312514
 40
0.283561321939547
 40
0.4123693961385312
 40
0.5342363558879457
 40
0.6526916293119823
 40
0.7686630594981229
 40
0.8836524018604046
 40
1.0
 40
1.0
 40
1.0
 40
1.0
 10
218.2192124382854
 20
105.333609262805
 30
0.0
 10
218.19872766942
 20
105.333010043276
 30
0.0
 10
218.1594425185327
 20
105.3318608758255
 30
0.0
 10
218.1029937966021
 20
105.3221933421169
 30
0.0
 10
218.0516064813022
 20
105.3065766729369
 30
0.0
 10
218.0058623780205
 20
105.2833019274534
 30
0.0
 10
217.9649922821447
 20
105.2554964209639
 30
0.0
 10
217.9281471394232
 20
105.224033228959
 30
0.0
 10
217.8950231242333
 20
105.1889336233328
 30
0.0
 10
217.8768532533496
 20
105.1625076943004
 30
0.0
 10
217.8677149772436
 20
105.1492171520945
 30
0.0
  0
SPLINE
  5
127
330
1F
100
AcDbEntity
  8
0
  6
Continuous
 62
     7
370
     0
100
AcDbSpline
210
0.0
220
0.0
230
1.0
 70
     8
 71
     3
 72
    23
 73
    19
 74
     0
 42
0.00000001
 43
0.00000001
 40
0.0
 40
0.0
 40
0.0
 40
0.0
 40
0.0728659334565351
 40
0.1418868719641256
 40
0.2074526264147115
 40
0.2704376800000974
 40
0.3316408722476697
 40
0.3901075774931577
 40
0.4480692869488358
 40
0.505502951924537
 40
0.5624881528337238
 40
0.6190843288847293
 40
0.6764155306922391
 40
0.7354523604507931
 40
0.7962407694486783
 40
0.8604056780892032
 40
0.9283049272851064
 40
1.0
 40
1.0
 40
1.0
 40
1.0
 10
218.6316251501869
 20
104.8899157464079
 30
0.0
 10
218.631322759597
 20
104.9066653547619
 30
0.0
 10
218.630733934986
 20
104.9392807269014
 30
0.0
 10
218.6257750711098
 20
104.9867741316021
 30
0.0
 10
218.6174088839494
 20
105.0314323048651
 30
0.0
 10
218.6065838211134
 20
105.0737474577078
 30
0.0
 10
218.5916628373573
 20
105.1130583637521
 30
0.0
 10
218.5739657104522
 20
105.1499349927007
 30
0.0
 10
218.5522859862101
 20
105.18359471392
 30
0.0
 10
218.5281658623993
 20
105.2150855692312
 30
0.0
 10
218.5006176358503
 20
105.2433158521162
 30
0.0
 10
218.4692691346515
 20
105.2671527503841
 30
0.0
 10
218.4353501419956
 20
105.288014850277
 30
0.0
 10
218.3981774946227
 20
105.3049327118375
 30
0.0
 10
218.3577293034747
 20
105.3175020472525
 30
0.0
 10
218.3144075121152
 20
105.3271730198504
 30
0.0
 10
218.2677625927883
 20
105.3322595554325
 30
0.0
 10
218.2356865583593
 20
105.3331512778295
 30
0.0
 10
218.2192124382854
 20
105.333609262805
 30
0.0
  0
SPLINE
  5
128
330
1F
100
AcDbEntity
  8
0
  6
Continuous
 62
     7
370
     0
100
AcDbSpline
210
0.0
220
0.0
230
1.0
 70
     8
 71
     3
 72
    23
 73
    19
 74
     0
 42
0.00000001
 43
0.00000001
 40
0.0
 40
0.0
 40
0.0
 40
0.0
 40
0.0658010376094729
 40
0.1286767959489733
 40
0.1886758749524341
 40
0.2475984367338953
 40
0.304849420118827
 40
0.3617858992828986
 40
0.4195227063685896
 40
0.4786818154207406
 40
0.5387695030440189
 40
0.5987990560131542
 40
0.6601842815006784
 40
0.722951530610966
 40
0.7879926891048736
 40
0.8554037684344737
 40
0.9261530612840035
 40
1.0
 40
1.0
 40
1.0
 40
1.0
 10
218.2179776696869
 20
104.4116487092526
 30
0.0
 10
218.2336389487793
 20
104.4120271312177
 30
0.0
 10
218.2642652623951
 20
104.4127671518579
 30
0.0
 10
218.3088207471789
 20
104.4190259491155
 30
0.0
 10
218.3509070110485
 20
104.4293459806973
 30
0.0
 10
218.3903226776326
 20
104.4437880982573
 30
0.0
 10
218.4275298192036
 20
104.4617485803073
 30
0.0
 10
218.461294111519
 20
104.4850041328616
 30
0.0
 10
218.4934565698807
 20
104.5111456718391
 30
0.0
 10
218.521947532807
 20
104.5423114034314
 30
0.0
 10
218.5478823138315
 20
104.5762405081233
 30
0.0
 10
218.5702659796248
 20
104.6132755691703
 30
0.0
 10
218.5891098637212
 20
104.6528967701821
 30
0.0
 10
218.6049743544888
 20
104.6950965150438
 30
0.0
 10
218.6166891232035
 20
104.7401158762538
 30
0.0
 10
218.625306281851
 20
104.7877153593952
 30
0.0
 10
218.6308381537145
 20
104.8379252853841
 30
0.0
 10
218.6313590980133
 20
104.8723398414982
 30
0.0
 10
218.6316251501869
 20
104.8899157464079
 30
0.0
  0
SPLINE
  5
129
330
1F
100
AcDbEntity
  8
0
  6
Continuous
 62
     7
370
     0
100
AcDbSpline
210
0.0
220
0.0
230
1.0
 70
     8
 71
     3
 72
    23
 73
    19
 74
     0
 42
0.00000001
 43
0.00000001
 40
0.0
 40
0.0
 40
0.0
 40
0.0
 40
0.0773613371189766
 40
0.1504798322806811
 40
0.2199772368520748
 40
0.2866809968624414
 40
0.3496784941856628
 40
0.4106796250174856
 40
0.4694271135192909
 40
0.5267557014271298
 40
0.5831419808348374
 40
0.6388244277786261
 40
0.695263470403813
 40
0.7526958048985354
 40
0.810849183334895
 40
0.8713563036360845
 40
0.9344364309841281
 40
1.0
 40
1.0
 40
1.0
 40
1.0
 10
217.8413732471421
 20
104.7804329306736
 30
0.0
 10
217.8439814919722
 20
104.7655908114533
 30
0.0
 10
217.8490549338127
 20
104.7367205812566
 30
0.0
 10
217.8587229379638
 20
104.6949300667326
 30
0.0
 10
217.8712789232942
 20
104.6561055106425
 30
0.0
 10
217.8853869551464
 20
104.6199106701556
 30
0.0
 10
217.9021567310813
 20
104.5867282603895
 30
0.0
 10
217.9203269222434
 20
104.5560343484523
 30
0.0
 10
217.9417549492796
 20
104.5289184725338
 30
0.0
 10
217.9642836426459
 20
104.5039624467494
 30
0.0
 10
217.9890106050388
 20
104.4819717745079
 30
0.0
 10
218.016174433132
 20
104.4634328791705
 30
0.0
 10
218.0450172383138
 20
104.4472588155922
 30
0.0
 10
218.0758903150787
 20
104.4340162109002
 30
0.0
 10
218.1088409800127
 20
104.4243233216857
 30
0.0
 10
218.143449859211
 20
104.4166579103132
 30
0.0
 10
218.1801626046083
 20
104.4127953456753
 30
0.0
 10
218.2052114602236
 20
104.4120358089633
 30
0.0
 10
218.2179776696869
 20
104.4116487092526
 30
0.0
  0
LINE
  5
12A
330
1F
100
AcDbEntity
  8
0
  6
Continuous
 62
     7
370
     0
100
AcDbLine
 10
217.5779559461
 20
104.7540912006
 30
0.0
 11
217.8413732471
 21
104.7804329307
 31
0.0
  0
SPLINE
  5
12B
330
1F
100
AcDbEntity
  8
0
  6
Continuous
 62
     7
370
     0
100
AcDbSpline
210
0.0
220
0.0
230
1.0
 70
     8
 71
     3
 72
    23
 73
    19
 74
     0
 42
0.00000001
 43
0.00000001
 40
0.0
 40
0.0
 40
0.0
 40
0.0
 40
0.0692980234597528
 40
0.135560844101282
 40
0.1996709556470567
 40
0.2617162384956084
 40
0.3226619299471026
 40
0.3829069237782244
 40
0.4430320330728902
 40
0.503500787350163
 40
0.5637242810171083
 40
0.6239800220534739
 40
0.6836293869955233
 40
0.7438482724857305
 40
0.8051918462295105
 40
0.8676487429597676
 40
0.9327780842312613
 40
1.0
 40
1.0
 40
1.0
 40
1.0
 10
218.2163313115555
 20
104.1745731383392
 30
0.0
 10
218.1942202986535
 20
104.1750216566316
 30
0.0
 10
218.1509667190666
 20
104.1758990484427
 30
0.0
 10
218.0876357827513
 20
104.1835266772743
 30
0.0
 10
218.0274005733476
 20
104.1956900556665
 30
0.0
 10
217.9702422201497
 20
104.2131361056362
 30
0.0
 10
217.9159885203773
 20
104.2351808224459
 30
0.0
 10
217.865270102642
 20
104.2631851718334
 30
0.0
 10
217.8172068034561
 20
104.2952204032956
 30
0.0
 10
217.7728558552224
 20
104.3322735164088
 30
0.0
 10
217.7324463668138
 20
104.3736019824759
 30
0.0
 10
217.6962386445201
 20
104.4183301403728
 30
0.0
 10
217.6647226774725
 20
104.466487156122
 30
0.0
 10
217.6379136768064
 20
104.5177848688183
 30
0.0
 10
217.6155696127161
 20
104.5721740825295
 30
0.0
 10
217.5984755202638
 20
104.630026024406
 30
0.0
 10
217.5849355765021
 20
104.6907730777942
 30
0.0
 10
217.5803068839739
 20
104.7327638575425
 30
0.0
 10
217.5779559461271
 20
104.7540912005721
 30
0.0
  0
SPLINE
  5
12C
330
1F
100
AcDbEntity
  8
0
  6
Continuous
 62
     7
370
     0
100
AcDbSpline
210
0.0
220
0.0
230
1.0
 70
     8
 71
     3
 72
    15
 73
    11
 74
     0
 42
0.00000001
 43
0.00000001
 40
0.0
 40
0.0
 40
0.0
 40
0.0
 40
0.1278926194654212
 40
0.2515785135038573
 40
0.3727928197023035
 40
0.4927776986078535
 40
0.6135900692425712
 40
0.7378086492801463
 40
0.8661799015391671
 40
0.9999999999999999
 40
0.9999999999999999
 40
0.9999999999999999
 40
0.9999999999999999
 10
218.7378152496586
 20
104.4239963952377
 30
0.0
 10
218.7216752930698
 20
104.4040960443127
 30
0.0
 10
218.6899262656154
 20
104.3649499174693
 30
0.0
 10
218.6349531711469
 20
104.3141405878221
 30
0.0
 10
218.5758563151872
 20
104.2709596502242
 30
0.0
 10
218.5122840051686
 20
104.2358782678043
 30
0.0
 10
218.4446630225824
 20
104.207687406364
 30
0.0
 10
218.372162662194
 20
104.188927446631
 30
0.0
 10
218.2956589661331
 20
104.1763293905788
 30
0.0
 10
218.2431376944725
 20
104.1751666106949
 30
0.0
 10
218.2163313115555
 20
104.1745731383392
 30
0.0
  0
SPLINE
  5
12D
330
1F
100
AcDbEntity
  8
0
  6
Continuous
 62
     7
370
     0
100
AcDbSpline
210
0.0
220
0.0
230
1.0
 70
     8
 71
     3
 72
    27
 73
    23
 74
     0
 42
0.00000001
 43
0.00000001
 40
0.0
 40
0.0
 40
0.0
 40
0.0
 40
0.0467628351215619
 40
0.091968696607212
 40
0.1358043853805056
 40
0.1782315801839235
 40
0.2194414332265379
 40
0.2601769432685921
 40
0.3002796061140319
 40
0.3405476414666171
 40
0.3803111902076692
 40
0.4196419535698123
 40
0.4590173240985177
 40
0.4981819588897615
 40
0.5376702145628715
 40
0.5779133315743612
 40
0.6186488416164155
 40
0.6607616027603175
 40
0.7452991770631804
 40
0.8297447416906314
 40
0.9146020866092538
 40
1.0
 40
1.0
 40
1.0
 40
1.0
 10
214.1115489005834
 20
106.0448359755454
 30
0.0
 10
214.0934233228878
 20
106.044572991416
 30
0.0
 10
214.0577756605598
 20
106.0440557792422
 30
0.0
 10
214.0054049562436
 20
106.0383949493771
 30
0.0
 10
213.9551108647689
 20
106.0300570993735
 30
0.0
 10
213.9072682262795
 20
106.0175537765306
 30
0.0
 10
213.8616152424407
 20
106.0019653843635
 30
0.0
 10
213.8184228260747
 20
105.9825550779461
 30
0.0
 10
213.7773235632334
 20
105.9598039220001
 30
0.0
 10
213.7387761426285
 20
105.933575293066
 30
0.0
 10
213.7031045204752
 20
105.9040892663965
 30
0.0
 10
213.6693406721958
 20
105.8729179227233
 30
0.0
 10
213.6391056371033
 20
105.8386075017647
 30
0.0
 10
213.6112464627663
 20
105.8022893539954
 30
0.0
 10
213.5865744073794
 20
105.7633217114434
 30
0.0
 10
213.5643654245505
 20
105.7222353605737
 30
0.0
 10
213.5447610796112
 20
105.6786935664943
 30
0.0
 10
213.5233910124073
 20
105.6174117892761
 30
0.0
 10
213.5016013646554
 20
105.5384822774894
 30
0.0
 10
213.4826988183597
 20
105.4418981375456
 30
0.0
 10
213.4706583420247
 20
105.3437923210773
 30
0.0
 10
213.4693182325077
 20
105.2778045609173
 30
0.0
 10
213.4686460502938
 20
105.2447059237124
 30
0.0
  0
SPLINE
  5
12E
330
1F
100
AcDbEntity
  8
0
  6
Continuous
 62
     7
370
     0
100
AcDbSpline
210
0.0
220
0.0
230
1.0
 70
     8
 71
     3
 72
    23
 73
    19
 74
     0
 42
0.00000001
 43
0.00000001
 40
0.0
 40
0.0
 40
0.0
 40
0.0
 40
0.0772311103286299
 40
0.1511651795217243
 40
0.2207847057253997
 40
0.2871495176777684
 40
0.3506324812950841
 40
0.4113067715078916
 40
0.4699644151376497
 40
0.5267072266832779
 40
0.5824983333641278
 40
0.6385087274080254
 40
0.6949179812139084
 40
0.7524203526591543
 40
0.8112509754155086
 40
0.8718561089908092
 40
0.9346441878526878
 40
1.0
 40
1.0
 40
1.0
 40
1.0
 10
214.6276821747596
 20
105.6225451148558
 30
0.0
 10
214.6219917596837
 20
105.6403167684279
 30
0.0
 10
214.6108538566697
 20
105.6751013933178
 30
0.0
 10
214.5910774203622
 20
105.7246756656645
 30
0.0
 10
214.5697195285304
 20
105.770696787205
 30
0.0
 10
214.5462714186378
 20
105.8128519270477
 30
0.0
 10
214.520682273724
 20
105.8511511825967
 30
0.0
 10
214.4935413438174
 20
105.8860600243704
 30
0.0
 10
214.4641983594351
 20
105.9169268734932
 30
0.0
 10
214.4332501814005
 20
105.9444634427518
 30
0.0
 10
214.399897636897
 20
105.9679219646117
 30
0.0
 10
214.3649226544054
 20
105.9887100754878
 30
0.0
 10
214.3275877868382
 20
106.0059090672247
 30
0.0
 10
214.2884301237651
 20
106.0204558612431
 30
0.0
 10
214.2470836626655
 20
106.0315275389458
 30
0.0
 10
214.2037167718401
 20
106.0393169009621
 30
0.0
 10
214.1582913481143
 20
106.0438250020759
 30
0.0
 10
214.1273364732272
 20
106.0444945125298
 30
0.0
 10
214.1115489005834
 20
106.0448359755454
 30
0.0
  0
LINE
  5
12F
330
1F
100
AcDbEntity
  8
0
  6
Continuous
 62
     7
370
     0
100
AcDbLine
 10
214.9174412059
 20
105.6846951343
 30
0.0
 11
214.6276821748
 21
105.6225451149
 31
0.0
  0
SPLINE
  5
130
330
1F
100
AcDbEntity
  8
0
  6
Continuous
 62
     7
370
     0
100
AcDbSpline
210
0.0
220
0.0
230
1.0
 70
     8
 71
     3
 72
    23
 73
    19
 74
     0
 42
0.00000001
 43
0.00000001
 40
0.0
 40
0.0
 40
0.0
 40
0.0
 40
0.0686494919759957
 40
0.134937373785155
 40
0.1988418982006104
 40
0.2614093284183097
 40
0.3225167637069052
 40
0.3823768656987784
 40
0.4424709047536874
 40
0.5022278334792912
 40
0.5621014330908561
 40
0.62173160809488
 40
0.6818513124344153
 40
0.7420491672939588
 40
0.8039081304743815
 40
0.8671621602461707
 40
0.9323605979385298
 40
1.0
 40
1.0
 40
1.0
 40
1.0
 10
214.1255429446998
 20
106.2819115464588
 30
0.0
 10
214.1501188383093
 20
106.2814483030235
 30
0.0
 10
214.1984251905724
 20
106.2805377521835
 30
0.0
 10
214.2693061559941
 20
106.27304829191
 30
0.0
 10
214.3371916142519
 20
106.2605042663643
 30
0.0
 10
214.4023757252521
 20
106.2440476911178
 30
0.0
 10
214.4641807819773
 20
106.2215152139445
 30
0.0
 10
214.5232777850131
 20
106.1947266882862
 30
0.0
 10
214.5790788362077
 20
106.1625435196876
 30
0.0
 10
214.6320181153504
 20
106.1258501598257
 30
0.0
 10
214.6812338522592
 20
106.0845789375674
 30
0.0
 10
214.7274147688749
 20
106.0397158111212
 30
0.0
 10
214.7686778500168
 20
105.9901395295927
 30
0.0
 10
214.8066573645439
 20
105.9370499273339
 30
0.0
 10
214.84015835028
 20
105.8797108327341
 30
0.0
 10
214.8704132746052
 20
105.8186221811302
 30
0.0
 10
214.8964316289651
 20
105.7533298482436
 30
0.0
 10
214.9103527443282
 20
105.7078519324065
 30
0.0
 10
214.9174412058761
 20
105.684695134314
 30
0.0
  0
SPLINE
  5
131
330
1F
100
AcDbEntity
  8
0
  6
Continuous
 62
     7
370
     0
100
AcDbSpline
210
0.0
220
0.0
230
1.0
 70
     8
 71
     3
 72
    31
 73
    27
 74
     0
 42
0.00000001
 43
0.00000001
 40
0.0
 40
0.0
 40
0.0
 40
0.0
 40
0.0494014326173349
 40
0.0976047534771127
 40
0.1442547055445423
 40
0.1894721438466749
 40
0.2339150059350921
 40
0.2772371111508619
 40
0.3198588355644323
 40
0.3619566544332702
 40
0.4034857542265475
 40
0.4439336363338552
 40
0.4836491750513743
 40
0.5228932833172718
 40
0.5618583840947368
 40
0.6007948668981946
 40
0.6401043361891355
 40
0.6796434268265384
 40
0.7193997691904886
 40
0.7588541926680972
 40
0.7983154646830742
 40
0.8378024081343659
 40
0.8774685864444087
 40
0.9176827969423332
 40
0.9583928898538524
 40
0.9999999999999999
 40
0.9999999999999999
 40
0.9999999999999999
 40
0.9999999999999999
 10
213.1788870191773
 20
105.2434711551139
 30
0.0
 10
213.1793518775515
 20
105.2695456908879
 30
0.0
 10
213.1802703202892
 20
105.3210623879026
 30
0.0
 10
213.1854549146473
 20
105.3970767697348
 30
0.0
 10
213.194977135219
 20
105.4704399473897
 30
0.0
 10
213.2082007298979
 20
105.5412001775933
 30
0.0
 10
213.2249338673484
 20
105.6094147659657
 30
0.0
 10
213.245589049825
 20
105.6751169463607
 30
0.0
 10
213.2699049901403
 20
105.7382226535419
 30
0.0
 10
213.2978075572333
 20
105.7988014741967
 30
0.0
 10
213.3294821308035
 20
105.8561771889385
 30
0.0
 10
213.3639833544266
 20
105.9104313619934
 30
0.0
 10
213.4021342147748
 20
105.9606731639739
 30
0.0
 10
213.4428035955872
 20
106.0078624783431
 30
0.0
 10
213.4870072419046
 20
106.0512135500529
 30
0.0
 10
213.5346101752206
 20
106.090824579432
 30
0.0
 10
213.5852016976909
 20
106.1270568692691
 30
0.0
 10
213.6387744248618
 20
106.1595740535898
 30
0.0
 10
213.694628098805
 20
106.1881061814968
 30
0.0
 10
213.7519331127055
 20
106.2135199964433
 30
0.0
 10
213.8109173929663
 20
106.2343500723622
 30
0.0
 10
213.8711132955526
 20
106.2516694431347
 30
0.0
 10
213.9326504167805
 20
106.2654572711627
 30
0.0
 10
213.9956725448113
 20
106.2746772347665
 30
0.0
 10
214.0601214461769
 20
106.2806856773998
 30
0.0
 10
214.1035779289204
 20
106.2814999656508
 30
0.0
 10
214.1255429446998
 20
106.2819115464588
 30
0.0
  0
SPLINE
  5
132
330
1F
100
AcDbEntity
  8
0
  6
Continuous
 62
     7
370
     0
100
AcDbSpline
210
0.0
220
0.0
230
1.0
 70
     8
 71
     3
 72
    31
 73
    27
 74
     0
 42
0.00000001
 43
0.00000001
 40
0.0
 40
0.0
 40
0.0
 40
0.0
 40
0.0491959188678573
 40
0.0962478839423339
 40
0.1413486305545651
 40
0.18465611934875
 40
0.226058682310063
 40
0.2661730836384071
 40
0.3052898413966903
 40
0.3432450951047079
 40
0.3808772760868657
 40
0.4184957931350257
 40
0.4563187508918002
 40
0.494236737091876
 40
0.533023528957667
 40
0.572473194333944
 40
0.613078809089891
 40
0.6549344546107934
 40
0.6973967795046183
 40
0.7398840686663999
 40
0.7821947798191174
 40
0.8250615348667028
 40
0.8679874655774052
 40
0.9114105439600777
 40
0.9553719455228146
 40
1.0
 40
1.0
 40
1.0
 40
1.0
 10
214.1313051981595
 20
104.1745731383392
 30
0.0
 10
214.1046778083221
 20
104.1749599865026
 30
0.0
 10
214.0525834479415
 20
104.1757168240207
 30
0.0
 10
213.9762682133628
 20
104.1818727393098
 30
0.0
 10
213.9036849314896
 20
104.1925492163793
 30
0.0
 10
213.8349691499482
 20
104.2073826532817
 30
0.0
 10
213.7698895795951
 20
104.2257232758708
 30
0.0
 10
213.7087160876699
 20
104.2487974042757
 30
0.0
 10
213.65155582165
 20
104.276438550132
 30
0.0
 10
213.5979319889633
 20
104.3078736765859
 30
0.0
 10
213.5480723483136
 20
104.3435853957928
 30
0.0
 10
213.5008430740587
 20
104.3826099455115
 30
0.0
 10
213.4573907359428
 20
104.4260216284827
 30
0.0
 10
213.4166288611644
 20
104.4727954546126
 30
0.0
 10
213.3794452581826
 20
104.5235484356502
 30
0.0
 10
213.3444719341148
 20
104.577591071031
 30
0.0
 10
213.3134159167592
 20
104.6358755897156
 30
0.0
 10
213.2851262941073
 20
104.6973213952413
 30
0.0
 10
213.2602958876416
 20
104.7613335818178
 30
0.0
 10
213.2383296631225
 20
104.8266477319435
 30
0.0
 10
213.2203710737137
 20
104.8933939911092
 30
0.0
 10
213.2049098871104
 20
104.9610107011496
 30
0.0
 10
213.1936780842071
 20
105.0300668101963
 30
0.0
 10
213.1847603804477
 20
105.1000441861012
 30
0.0
 10
213.1798572476307
 20
105.1713718507164
 30
0.0
 10
213.1792120470817
 20
105.2193177861467
 30
0.0
 10
213.1788870191773
 20
105.2434711551139
 30
0.0
  0
SPLINE
  5
133
330
1F
100
AcDbEntity
  8
0
  6
Continuous
 62
     7
370
     0
100
AcDbSpline
210
0.0
220
0.0
230
1.0
 70
     8
 71
     3
 72
    23
 73
    19
 74
     0
 42
0.00000001
 43
0.00000001
 40
0.0
 40
0.0
 40
0.0
 40
0.0
 40
0.0715783870982365
 40
0.140016209075356
 40
0.206197439946981
 40
0.2701561038056544
 40
0.332001040268831
 40
0.3927550109285566
 40
0.4525790344906382
 40
0.512252798847904
 40
0.5715322524285594
 40
0.6301517528722204
 40
0.6887691695485558
 40
0.7481639008503609
 40
0.8087033721996508
 40
0.8702562984804197
 40
0.9339000275070017
 40
1.0
 40
1.0
 40
1.0
 40
1.0
 10
214.970124666079
 20
104.8586349419124
 30
0.0
 10
214.9628653935026
 20
104.8314766328621
 30
0.0
 10
214.9486653553626
 20
104.7783516096214
 30
0.0
 10
214.9205901550517
 20
104.7023238207686
 30
0.0
 10
214.8890791857952
 20
104.6309749839134
 30
0.0
 10
214.853367848791
 20
104.5644930445571
 30
0.0
 10
214.8130652867424
 20
104.5032602325646
 30
0.0
 10
214.7692393547232
 20
104.4464895881789
 30
0.0
 10
214.720154169266
 20
104.3953716455277
 30
0.0
 10
214.6676107244642
 20
104.348726629179
 30
0.0
 10
214.6111999122465
 20
104.3075858492244
 30
0.0
 10
214.5516018537348
 20
104.2720600309976
 30
0.0
 10
214.4891046331291
 20
104.2418347711083
 30
0.0
 10
214.4234556561468
 20
104.2169793732842
 30
0.0
 10
214.3546123619832
 20
104.1982735553798
 30
0.0
 10
214.2829292258803
 20
104.1846396594008
 30
0.0
 10
214.2081972245503
 20
104.1762419735469
 30
0.0
 10
214.1572573299044
 20
104.1751363935063
 30
0.0
 10
214.1313051981595
 20
104.1745731383392
 30
0.0
  0
LINE
  5
134
330
1F
100
AcDbEntity
  8
0
  6
Continuous
 62
     7
370
     0
100
AcDbLine
 10
214.680365635
 20
104.9261356253
 30
0.0
 11
214.9701246661
 21
104.8586349419
 31
0.0
  0
SPLINE
  5
135
330
1F
100
AcDbEntity
  8
0
  6
Continuous
 62
     7
370
     0
100
AcDbSpline
210
0.0
220
0.0
230
1.0
 70
     8
 71
     3
 72
    23
 73
    19
 74
     0
 42
0.00000001
 43
0.00000001
 40
0.0
 40
0.0
 40
0.0
 40
0.0
 40
0.0633358805656859
 40
0.1251107589802108
 40
0.1846884118917139
 40
0.2432104439678636
 40
0.3008880404131166
 40
0.3583701155312993
 40
0.4157614077031932
 40
0.4743866229897766
 40
0.5339662649724071
 40
0.5940075641988068
 40
0.6550724073076799
 40
0.7186100426051375
 40
0.7843747830517751
 40
0.8529914722129185
 40
0.9249004292977558
 40
0.9999999999999999
 40
0.9999999999999999
 40
0.9999999999999999
 40
0.9999999999999999
 10
214.1041402889924
 20
104.4116487092526
 30
0.0
 10
214.1219963945263
 20
104.4120231893445
 30
0.0
 10
214.1572685166762
 20
104.4127629199378
 30
0.0
 10
214.2089819264593
 20
104.4192378234293
 30
0.0
 10
214.2588329405799
 20
104.4287794406474
 30
0.0
 10
214.3062176209698
 20
104.4435031195112
 30
0.0
 10
214.3517733451476
 20
104.4615305392145
 30
0.0
 10
214.39512686199
 20
104.4837615005233
 30
0.0
 10
214.4361418314018
 20
104.5104988584785
 30
0.0
 10
214.4753006795743
 20
104.5408566169831
 30
0.0
 10
214.5118812827474
 20
104.5753985584435
 30
0.0
 10
214.5454054389916
 20
104.6138463962109
 30
0.0
 10
214.5754803948388
 20
104.6563754083474
 30
0.0
 10
214.6033674471095
 20
104.7023030662922
 30
0.0
 10
214.6267976963886
 20
104.7530013988265
 30
0.0
 10
214.648499639549
 20
104.8069593118278
 30
0.0
 10
214.6665832663007
 20
104.8650636515405
 30
0.0
 10
214.6757055168633
 20
104.9054858649228
 30
0.0
 10
214.6803656349626
 20
104.9261356252975
 30
0.0
  0
SPLINE
  5
136
330
1F
100
AcDbEntity
  8
0
  6
Continuous
 62
     7
370
     0
100
AcDbSpline
210
0.0
220
0.0
230
1.0
 70
     8
 71
     3
 72
    27
 73
    23
 74
     0
 42
0.00000001
 43
0.00000001
 40
0.0
 40
0.0
 40
0.0
 40
0.0
 40
0.1053432609984026
 40
0.2043754661654294
 40
0.2980686612490644
 40
0.3870699389029767
 40
0.429725727732517
 40
0.4709012389537418
 40
0.5111216710274202
 40
0.5501787824700682
 40
0.5883543698960263
 40
0.6266830105708967
 40
0.6644516852874771
 40
0.7025148539501567
 40
0.7404811716294022
 40
0.7776181215946409
 40
0.8147160450669567
 40
0.8515265100150812
 40
0.8880984508373161
 40
0.9251116757437154
 40
0.9621036957071506
 40
1.0
 40
1.0
 40
1.0
 40
1.0
 10
213.4686460502938
 20
105.2447059237124
 30
0.0
 10
213.4694041764303
 20
105.203089926484
 30
0.0
 10
213.4708750097905
 20
105.1223511231386
 30
0.0
 10
213.4853885198914
 20
105.005347260673
 30
0.0
 10
213.5075163562717
 20
104.8962141509799
 30
0.0
 10
213.5342214667969
 20
104.811068580738
 30
0.0
 10
213.5610093758262
 20
104.7482636049881
 30
0.0
 10
213.5826740906841
 20
104.7042803747132
 30
0.0
 10
213.6074034984011
 20
104.663580427167
 30
0.0
 10
213.6345824884748
 20
104.6259326223934
 30
0.0
 10
213.6645611548243
 20
104.5914467779291
 30
0.0
 10
213.6969218339347
 20
104.5599397025448
 30
0.0
 10
213.7316717542993
 20
104.5311082239979
 30
0.0
 10
213.7692226702095
 20
104.5063019961941
 30
0.0
 10
213.8081291997045
 20
104.4842762289674
 30
0.0
 10
213.8479003737305
 20
104.4646904961307
 30
0.0
 10
213.8885612326548
 20
104.4481257501446
 30
0.0
 10
213.9302758258703
 20
104.4352579190454
 30
0.0
 10
213.9724583688996
 20
104.4241383240088
 30
0.0
 10
214.0155734589821
 20
104.4168744826451
 30
0.0
 10
214.05960880137
 20
104.4127749994341
 30
0.0
 10
214.089177444966
 20
104.4120271494354
 30
0.0
 10
214.1041402889924
 20
104.4116487092526
 30
0.0
  0
SPLINE
  5
137
330
1F
100
AcDbEntity
  8
0
  6
Continuous
 62
     7
370
     0
100
AcDbSpline
210
0.0
220
0.0
230
1.0
 70
     8
 71
     3
 72
    23
 73
    19
 74
     0
 42
0.00000001
 43
0.00000001
 40
0.0
 40
0.0
 40
0.0
 40
0.0
 40
0.0704642259291749
 40
0.1379569656042689
 40
0.2035785636142837
 40
0.2676916802449441
 40
0.3301858648593755
 40
0.39153376408982
 40
0.4526637734870355
 40
0.5131537880892139
 40
0.5734535531000289
 40
0.6329675593891932
 40
0.6923319074206217
 40
0.75147419157163
 40
0.8121874455294297
 40
0.8729617178483158
 40
0.935420306759491
 40
0.9999999999999999
 40
0.9999999999999999
 40
0.9999999999999999
 40
0.9999999999999999
 10
228.9522326860464
 20
108.4419334147815
 30
0.0
 10
228.9673908707448
 20
108.4371882529189
 30
0.0
 10
228.9970680173748
 20
108.4278980333324
 30
0.0
 10
229.0397319986539
 20
108.4108982345314
 30
0.0
 10
229.0797804472481
 20
108.3915415306711
 30
0.0
 10
229.117300537574
 20
108.3697961132131
 30
0.0
 10
229.1520387511269
 20
108.3454606088804
 30
0.0
 10
229.1838970695965
 20
108.3184970799541
 30
0.0
 10
229.2130963847982
 20
108.2893227800182
 30
0.0
 10
229.2395845292924
 20
108.2579554554471
 30
0.0
 10
229.2628515852583
 20
108.2245969616687
 30
0.0
 10
229.2837192278243
 20
108.1899763836125
 30
0.0
 10
229.3009508193111
 20
108.1536768132264
 30
0.0
 10
229.315074927352
 20
108.1157924932783
 30
0.0
 10
229.3260938314067
 20
108.0765575158097
 30
0.0
 10
229.3340066039491
 20
108.035820976082
 30
0.0
 10
229.3385166822778
 20
107.9936776963705
 30
0.0
 10
229.3391940816393
 20
107.9650489080867
 30
0.0
 10
229.3395384364449
 20
107.9504955125755
 30
0.0
  0
SPLINE
  5
138
330
1F
100
AcDbEntity
  8
0
  6
Continuous
 62
     7
370
     0
100
AcDbSpline
210
0.0
220
0.0
230
1.0
 70
     8
 71
     3
 72
    15
 73
    11
 74
     0
 42
0.00000001
 43
0.00000001
 40
0.0
 40
0.0
 40
0.0
 40
0.0
 40
0.1158426906010177
 40
0.2305685484828844
 40
0.3473546045205441
 40
0.4682527467344622
 40
0.5923025714800838
 40
0.7199701656206967
 40
0.8556003811349091
 40
1.0
 40
1.0
 40
1.0
 40
1.0
 10
229.2605132461405
 20
108.8839805730472
 30
0.0
 10
229.259554549442
 20
108.8619471933947
 30
0.0
 10
229.2576463987849
 20
108.8180928566361
 30
0.0
 10
229.2424596544262
 20
108.7534927512673
 30
0.0
 10
229.2184903255933
 20
108.6907664511862
 30
0.0
 10
229.1845970160386
 20
108.6306765193311
 30
0.0
 10
229.1412771180232
 20
108.5743222873385
 30
0.0
 10
229.0875728150525
 20
108.523610461914
 30
0.0
 10
229.0242558330752
 20
108.4784323618216
 30
0.0
 10
228.9767364402061
 20
108.4543511063467
 30
0.0
 10
228.9522326860464
 20
108.4419334147815
 30
0.0
  0
SPLINE
  5
139
330
1F
100
AcDbEntity
  8
0
  6
Continuous
 62
     7
370
     0
100
AcDbSpline
210
0.0
220
0.0
230
1.0
 70
     8
 71
     3
 72
    23
 73
    19
 74
     0
 42
0.00000001
 43
0.00000001
 40
0.0
 40
0.0
 40
0.0
 40
0.0
 40
0.0587320371008649
 40
0.1146029008469823
 40
0.1676568100446118
 40
0.2179667070908439
 40
0.2657752056293754
 40
0.3111706510536957
 40
0.3537918046646691
 40
0.3947449080003072
 40
0.4728059510824636
 40
0.5491923665616075
 40
0.6247801075795553
 40
0.7026247640242256
 40
0.7797414321940387
 40
0.8540634639886254
 40
0.9271552664103498
 40
0.9999999999999999
 40
0.9999999999999999
 40
0.9999999999999999
 40
0.9999999999999999
 10
228.5809789274284
 20
109.4165774285368
 30
0.0
 10
228.6000553238978
 20
109.416504246879
 30
0.0
 10
228.6372787964863
 20
109.4163614486603
 30
0.0
 10
228.6916327636035
 20
109.4127902130681
 30
0.0
 10
228.7431100292305
 20
109.4079055033993
 30
0.0
 10
228.7918214119726
 20
109.4016089628381
 30
0.0
 10
228.8375561381983
 20
109.3924728103448
 30
0.0
 10
228.8802715883438
 20
109.3814049723246
 30
0.0
 10
228.9201900526654
 20
109.3686385787428
 30
0.0
 10
228.9689842922863
 20
109.34919122621
 30
0.0
 10
229.0252143039046
 20
109.3192576168933
 30
0.0
 10
229.0854419881715
 20
109.2745919483765
 30
0.0
 10
229.1378424134812
 20
109.2209645025351
 30
0.0
 10
229.1809602574749
 20
109.159477599199
 30
0.0
 10
229.2164847106044
 20
109.0937979902193
 30
0.0
 10
229.2416711319925
 20
109.0251769345098
 30
0.0
 10
229.2577741753457
 20
108.9551084796676
 30
0.0
 10
229.2596012536162
 20
108.9076631004318
 30
0.0
 10
229.2605132461405
 20
108.8839805730472
 30
0.0
  0
LINE
  5
13A
330
1F
100
AcDbEntity
  8
0
  6
Continuous
 62
     7
370
     0
100
AcDbLine
 10
227.8117180906
 20
109.4165774285
 30
0.0
 11
228.5809789274
 21
109.4165774285
 31
0.0
  0
LINE
  5
13B
330
1F
100
AcDbEntity
  8
0
  6
Continuous
 62
     7
370
     0
100
AcDbLine
 10
227.8117180906
 20
107.3619224806
 30
0.0
 11
227.8117180906
 21
109.4165774285
 31
0.0
  0
LINE
  5
13C
330
1F
100
AcDbEntity
  8
0
  6
Continuous
 62
     7
370
     0
100
AcDbLine
 10
228.5830368751
 20
107.3619224806
 30
0.0
 11
227.8117180906
 21
107.3619224806
 31
0.0
  0
SPLINE
  5
13D
330
1F
100
AcDbEntity
  8
0
  6
Continuous
 62
     7
370
     0
100
AcDbSpline
210
0.0
220
0.0
230
1.0
 70
     8
 71
     3
 72
    23
 73
    19
 74
     0
 42
0.00000001
 43
0.00000001
 40
0.0
 40
0.0
 40
0.0
 40
0.0
 40
0.0642545754247028
 40
0.1273603868320973
 40
0.1894718420926418
 40
0.2517207629332007
 40
0.3120272840890016
 40
0.368674657115051
 40
0.4226814918055484
 40
0.4740604252251506
 40
0.5257737722739171
 40
0.5796221048577137
 40
0.6373752855308658
 40
0.6984003818208011
 40
0.7643573310122577
 40
0.8363147679791493
 40
0.9146777942540467
 40
1.0
 40
1.0
 40
1.0
 40
1.0
 10
229.3395384364449
 20
107.9504955125755
 30
0.0
 10
229.3388286686848
 20
107.9271302397015
 30
0.0
 10
229.3374218226214
 20
107.8808174258359
 30
0.0
 10
229.3261232803559
 20
107.8126527521882
 30
0.0
 10
229.3070293429899
 20
107.7470840811223
 30
0.0
 10
229.2807481620649
 20
107.6851715788105
 30
0.0
 10
229.24943307709
 20
107.6279243552951
 30
0.0
 10
229.2138423858563
 20
107.5768413295279
 30
0.0
 10
229.1748837246348
 20
107.5324481423222
 30
0.0
 10
229.1314600575707
 20
107.49510553697
 30
0.0
 10
229.0838514859464
 20
107.4634125929258
 30
0.0
 10
229.0307133422582
 20
107.4367250613957
 30
0.0
 10
228.9724564810226
 20
107.4131892161264
 30
0.0
 10
228.9078968640272
 20
107.3943879141066
 30
0.0
 10
228.8370638786603
 20
107.379452184289
 30
0.0
 10
228.7589962563852
 20
107.3697484163064
 30
0.0
 10
228.6735740580571
 20
107.362801819287
 30
0.0
 10
228.6140593707331
 20
107.3622237853335
 30
0.0
 10
228.5830368750926
 20
107.3619224806202
 30
0.0
  0
LINE
  5
13E
330
1F
100
AcDbEntity
  8
0
  6
Continuous
 62
     7
370
     0
100
AcDbLine
 10
224.6243687483
 20
107.5989980515
 30
0.0
 11
225.599012762
 21
107.5989980515
 31
0.0
  0
LINE
  5
13F
330
1F
100
AcDbEntity
  8
0
  6
Continuous
 62
     7
370
     0
100
AcDbLine
 10
224.6243687483
 20
109.4165774285
 30
0.0
 11
224.6243687483
 21
107.5989980515
 31
0.0
  0
LINE
  5
140
330
1F
100
AcDbEntity
  8
0
  6
Continuous
 62
     7
370
     0
100
AcDbLine
 10
224.3346097172
 20
109.4165774285
 30
0.0
 11
224.6243687483
 21
109.4165774285
 31
0.0
  0
LINE
  5
141
330
1F
100
AcDbEntity
  8
0
  6
Continuous
 62
     7
370
     0
100
AcDbLine
 10
224.3346097172
 20
107.3619224806
 30
0.0
 11
224.3346097172
 21
109.4165774285
 31
0.0
  0
LINE
  5
142
330
1F
100
AcDbEntity
  8
0
  6
Continuous
 62
     7
370
     0
100
AcDbLine
 10
225.599012762
 20
107.3619224806
 30
0.0
 11
224.3346097172
 21
107.3619224806
 31
0.0
  0
LINE
  5
143
330
1F
100
AcDbEntity
  8
0
  6
Continuous
 62
     7
370
     0
100
AcDbLine
 10
225.599012762
 20
107.5989980515
 30
0.0
 11
225.599012762
 21
107.3619224806
 31
0.0
  0
SPLINE
  5
144
330
1F
100
AcDbEntity
  8
0
  6
Continuous
 62
     7
370
     0
100
AcDbSpline
210
0.0
220
0.0
230
1.0
 70
     8
 71
     3
 72
    31
 73
    27
 74
     0
 42
0.00000001
 43
0.00000001
 40
0.0
 40
0.0
 40
0.0
 40
0.0
 40
0.0430989705688971
 40
0.0855867603450731
 40
0.1269076657436393
 40
0.1679674856215211
 40
0.2084495586010657
 40
0.2490254246415443
 40
0.289280534171679
 40
0.330009848982731
 40
0.3705977240995771
 40
0.4104659863326995
 40
0.4500332158929485
 40
0.4896882096042474
 40
0.5291164230741915
 40
0.5690368070925097
 40
0.6097030542359448
 40
0.6507589174942197
 40
0.6925092624061777
 40
0.7342191213706863
 40
0.7767069111468624
 40
0.8195518402403215
 40
0.8633507288313336
 40
0.9078385251300617
 40
0.9533337036124182
 40
1.0
 40
1.0
 40
1.0
 40
1.0
 10
220.9377613026663
 20
109.4429191586383
 30
0.0
 10
220.9609590276765
 20
109.4425140826881
 30
0.0
 10
221.0070255138312
 20
109.4417096751161
 30
0.0
 10
221.0751307021516
 20
109.4355892077634
 30
0.0
 10
221.1414858266564
 20
109.4246652338489
 30
0.0
 10
221.2060255441812
 20
109.4100258837978
 30
0.0
 10
221.2689255322301
 20
109.3908196931623
 30
0.0
 10
221.3302233534955
 20
109.3681473695405
 30
0.0
 10
221.389382414045
 20
109.340053168127
 30
0.0
 10
221.446796283338
 20
109.3085989139772
 30
0.0
 10
221.5017872331714
 20
109.2734159706489
 30
0.0
 10
221.553467590131
 20
109.2345494445492
 30
0.0
 10
221.6017135634303
 20
109.1922932814945
 30
0.0
 10
221.6471732273542
 20
109.1473420576318
 30
0.0
 10
221.6883296569088
 20
109.0981787318935
 30
0.0
 10
221.7268831288446
 20
109.0463009034106
 30
0.0
 10
221.7617257865063
 20
108.9907886942182
 30
0.0
 10
221.7929812593082
 20
108.9320969328861
 30
0.0
 10
221.8209268281583
 20
108.8711321029315
 30
0.0
 10
221.8448117131846
 20
108.8076415299693
 30
0.0
 10
221.8653212281313
 20
108.7423868278481
 30
0.0
 10
221.8824894224534
 20
108.6749817584415
 30
0.0
 10
221.8948080650892
 20
108.6054493654289
 30
0.0
 10
221.9046175334069
 20
108.5340892570221
 30
0.0
 10
221.9097805275991
 20
108.460668204384
 30
0.0
 10
221.9107032991223
 20
108.4110709749577
 30
0.0
 10
221.9111705478232
 20
108.3859572383158
 30
0.0
  0
SPLINE
  5
145
330
1F
100
AcDbEntity
  8
0
  6
Continuous
 62
     7
370
     0
100
AcDbSpline
210
0.0
220
0.0
230
1.0
 70
     8
 71
     3
 72
    23
 73
    19
 74
     0
 42
0.00000001
 43
0.00000001
 40
0.0
 40
0.0
 40
0.0
 40
0.0
 40
0.0752263466908988
 40
0.1465747215268522
 40
0.2145002518264754
 40
0.2795299716530227
 40
0.3424029515883814
 40
0.4034960527288082
 40
0.4637616065030392
 40
0.5238643590795866
 40
0.5832517242549664
 40
0.6413020392831351
 40
0.6988977748564887
 40
0.7562952438113087
 40
0.814627804812969
 40
0.874324768339998
 40
0.9357832838625451
 40
1.0
 40
1.0
 40
1.0
 40
1.0
 10
219.9618825203125
 20
108.3620850454113
 30
0.0
 10
219.9625966393064
 20
108.403279106177
 30
0.0
 10
219.9639880639507
 20
108.4835436444788
 30
0.0
 10
219.9769888942849
 20
108.6004191545908
 30
0.0
 10
219.9980989057323
 20
108.7103837214285
 30
0.0
 10
220.0282775350294
 20
108.8134287779725
 30
0.0
 10
220.0665290343904
 20
108.9097157965239
 30
0.0
 10
220.1130310390303
 20
108.9994628043085
 30
0.0
 10
220.1691822985045
 20
109.0816539298102
 30
0.0
 10
220.232703681783
 20
109.1570715791452
 30
0.0
 10
220.3036541492979
 20
109.2237463089787
 30
0.0
 10
220.3791962312024
 20
109.2829630216482
 30
0.0
 10
220.4602732111287
 20
109.3323567609126
 30
0.0
 10
220.5461360000016
 20
109.3731397057449
 30
0.0
 10
220.6371493917667
 20
109.4044516698322
 30
0.0
 10
220.7330578484772
 20
109.426372893857
 30
0.0
 10
220.8337587966735
 20
109.4405142136133
 30
0.0
 10
220.9025902515376
 20
109.4421058662698
 30
0.0
 10
220.9377613026663
 20
109.4429191586383
 30
0.0
  0
SPLINE
  5
146
330
1F
100
AcDbEntity
  8
0
  6
Continuous
 62
     7
370
     0
100
AcDbSpline
210
0.0
220
0.0
230
1.0
 70
     8
 71
     3
 72
    31
 73
    27
 74
     0
 42
0.00000001
 43
0.00000001
 40
0.0
 40
0.0
 40
0.0
 40
0.0
 40
0.0446969998899166
 40
0.0885335629185872
 40
0.1314091332352273
 40
0.1738139421467782
 40
0.2157145332694449
 40
0.2572471603264206
 40
0.2988479641797117
 40
0.3406041827148141
 40
0.3820294481091343
 40
0.4229697500404856
 40
0.4636322295306196
 40
0.5040475437003945
 40
0.5445912057564575
 40
0.5849639251690936
 40
0.6262652162680831
 40
0.6679794005009904
 40
0.7099427472053506
 40
0.7513818550852256
 40
0.7926185649779642
 40
0.8339484357458206
 40
0.8750080506311037
 40
0.9164455302232758
 40
0.9579066137283071
 40
1.0
 40
1.0
 40
1.0
 40
1.0
 10
220.9365265340678
 20
107.3355807505187
 30
0.0
 10
220.9129119760703
 20
107.3359301308302
 30
0.0
 10
220.8661374506788
 20
107.336622165729
 30
0.0
 10
220.7970034424053
 20
107.3435298536589
 30
0.0
 10
220.7295893796002
 20
107.3540677722217
 30
0.0
 10
220.6640912469429
 20
107.3692813429833
 30
0.0
 10
220.6005985450332
 20
107.3891285209395
 30
0.0
 10
220.5390361474734
 20
107.4131509171484
 30
0.0
 10
220.4791875328137
 20
107.4410274797344
 30
0.0
 10
220.4217953233174
 20
107.4735564059667
 30
0.0
 10
220.3670548586291
 20
107.5097250753442
 30
0.0
 10
220.315496703099
 20
107.5493536950031
 30
0.0
 10
220.2671493664966
 20
107.5920770520419
 30
0.0
 10
220.2227886256567
 20
107.638601312576
 30
0.0
 10
220.1809777758459
 20
107.6872399541117
 30
0.0
 10
220.1433886026782
 20
107.7398008448033
 30
0.0
 10
220.1087935024165
 20
107.7950919586711
 30
0.0
 10
220.0782162007785
 20
107.8536462781061
 30
0.0
 10
220.0505941847004
 20
107.9137237907432
 30
0.0
 10
220.0273220395145
 20
107.9753437137591
 30
0.0
 10
220.00687033419
 20
108.0375979332808
 30
0.0
 10
219.99058262113
 20
108.1008701582864
 30
0.0
 10
219.9776032958766
 20
108.165014434165
 30
0.0
 10
219.9688756401905
 20
108.2299240270819
 30
0.0
 10
219.9625724608921
 20
108.2956956088317
 30
0.0
 10
219.9621136578443
 20
108.3398438684729
 30
0.0
 10
219.9618825203125
 20
108.3620850454113
 30
0.0
  0
SPLINE
  5
147
330
1F
100
AcDbEntity
  8
0
  6
Continuous
 62
     7
370
     0
100
AcDbSpline
210
0.0
220
0.0
230
1.0
 70
     8
 71
     3
 72
    31
 73
    27
 74
     0
 42
0.00000001
 43
0.00000001
 40
0.0
 40
0.0
 40
0.0
 40
0.0
 40
0.0475595569054264
 40
0.0939621052432108
 40
0.1391115332408221
 40
0.1836263101269046
 40
0.2274570284004935
 40
0.2707025105518544
 40
0.3136105321155538
 40
0.3562604510849768
 40
0.3983661529550377
 40
0.4395565149792805
 40
0.4800453830214203
 40
0.5198884957050124
 40
0.5596577503171972
 40
0.5994212546627414
 40
0.6392077550883983
 40
0.6796683749857805
 40
0.7200198525128482
 40
0.7598588655624577
 40
0.7995598848323807
 40
0.8391991446364382
 40
0.8789560762302789
 40
0.9187942693024661
 40
0.959083362843275
 40
1.0
 40
1.0
 40
1.0
 40
1.0
 10
221.9111705478232
 20
108.3859572383158
 30
0.0
 10
221.9107424462716
 20
108.3604293755957
 30
0.0
 10
221.9098966578399
 20
108.3099946810861
 30
0.0
 10
221.9041737072243
 20
108.2354872063121
 30
0.0
 10
221.8941107708399
 20
108.1631186866127
 30
0.0
 10
221.8807639990284
 20
108.0926733321513
 30
0.0
 10
221.8628797322717
 20
108.024297795502
 30
0.0
 10
221.8416270295369
 20
107.9577960398117
 30
0.0
 10
221.8159206848757
 20
107.8935641628158
 30
0.0
 10
221.7868882226244
 20
107.8314473523929
 30
0.0
 10
221.7540380038978
 20
107.7722999302526
 30
0.0
 10
221.7178019836108
 20
107.7165354830766
 30
0.0
 10
221.6781544908715
 20
107.6646756432034
 30
0.0
 10
221.6356977664949
 20
107.61608422277
 30
0.0
 10
221.5894403335116
 20
107.571630127259
 30
0.0
 10
221.5399517889742
 20
107.530897678257
 30
0.0
 10
221.48742241606
 20
107.493502722482
 30
0.0
 10
221.4316757427868
 20
107.4604580322788
 30
0.0
 10
221.3737122192423
 20
107.4314931809757
 30
0.0
 10
221.3146788521791
 20
107.405796139509
 30
0.0
 10
221.2545317902937
 20
107.3838806799441
 30
0.0
 10
221.1930654693464
 20
107.3661203782278
 30
0.0
 10
221.1304475634263
 20
107.3526994159081
 30
0.0
 10
221.0668542867648
 20
107.3426496577646
 30
0.0
 10
221.0020771717899
 20
107.3368629725152
 30
0.0
 10
220.9584890271491
 20
107.3360103541458
 30
0.0
 10
220.9365265340678
 20
107.3355807505187
 30
0.0
  0
LINE
  5
148
330
1F
100
AcDbEntity
  8
0
  6
Continuous
 62
     7
370
     0
100
AcDbLine
 10
217.6964937316
 20
109.1795018576
 30
0.0
 11
217.037950479
 21
109.1795018576
 31
0.0
  0
LINE
  5
149
330
1F
100
AcDbEntity
  8
0
  6
Continuous
 62
     7
370
     0
100
AcDbLine
 10
217.6964937316
 20
109.4165774285
 30
0.0
 11
217.6964937316
 21
109.1795018576
 31
0.0
  0
LINE
  5
14A
330
1F
100
AcDbEntity
  8
0
  6
Continuous
 62
     7
370
     0
100
AcDbLine
 10
216.0896481954
 20
109.4165774285
 30
0.0
 11
217.6964937316
 21
109.4165774285
 31
0.0
  0
LINE
  5
14B
330
1F
100
AcDbEntity
  8
0
  6
Continuous
 62
     7
370
     0
100
AcDbLine
 10
216.0896481954
 20
109.1795018576
 30
0.0
 11
216.0896481954
 21
109.4165774285
 31
0.0
  0
LINE
  5
14C
330
1F
100
AcDbEntity
  8
0
  6
Continuous
 62
     7
370
     0
100
AcDbLine
 10
216.7481914479
 20
109.1795018576
 30
0.0
 11
216.0896481954
 21
109.1795018576
 31
0.0
  0
LINE
  5
14D
330
1F
100
AcDbEntity
  8
0
  6
Continuous
 62
     7
370
     0
100
AcDbLine
 10
216.7481914479
 20
107.3619224806
 30
0.0
 11
216.7481914479
 21
109.1795018576
 31
0.0
  0
LINE
  5
14E
330
1F
100
AcDbEntity
  8
0
  6
Continuous
 62
     7
370
     0
100
AcDbLine
 10
217.037950479
 20
107.3619224806
 30
0.0
 11
216.7481914479
 21
107.3619224806
 31
0.0
  0
LINE
  5
14F
330
1F
100
AcDbEntity
  8
0
  6
Continuous
 62
     7
370
     0
100
AcDbLine
 10
217.037950479
 20
109.1795018576
 30
0.0
 11
217.037950479
 21
107.3619224806
 31
0.0
  0
CIRCLE
  5
150
330
1F
100
AcDbEntity
  8
0
  6
Continuous
 62
     7
370
     0
100
AcDbCircle
 10
223.6892373297
 20
106.8119224806
 30
0.0
 40
25.19999999999996
  0
LINE
  5
151
330
1F
100
AcDbEntity
  8
0
  6
Continuous
 62
     7
370
     0
100
AcDbLine
 10
219.3033392678
 20
108.3365664944
 30
0.0
 11
218.3023535239
 21
108.3365664944
 31
0.0
  0
LINE
  5
152
330
1F
100
AcDbEntity
  8
0
  6
Continuous
 62
     7
370
     0
100
AcDbLine
 10
219.3033392678
 20
107.3619224806
 30
0.0
 11
219.3033392678
 21
108.3365664944
 31
0.0
  0
LINE
  5
153
330
1F
100
AcDbEntity
  8
0
  6
Continuous
 62
     7
370
     0
100
AcDbLine
 10
219.5930982989
 20
107.3619224806
 30
0.0
 11
219.3033392678
 21
107.3619224806
 31
0.0
  0
LINE
  5
154
330
1F
100
AcDbEntity
  8
0
  6
Continuous
 62
     7
370
     0
100
AcDbLine
 10
219.5930982989
 20
109.4165774285
 30
0.0
 11
219.5930982989
 21
107.3619224806
 31
0.0
  0
LINE
  5
155
330
1F
100
AcDbEntity
  8
0
  6
Continuous
 62
     7
370
     0
100
AcDbLine
 10
219.3033392678
 20
109.4165774285
 30
0.0
 11
219.5930982989
 21
109.4165774285
 31
0.0
  0
LINE
  5
156
330
1F
100
AcDbEntity
  8
0
  6
Continuous
 62
     7
370
     0
100
AcDbLine
 10
219.3033392678
 20
108.5736420653
 30
0.0
 11
219.3033392678
 21
109.4165774285
 31
0.0
  0
LINE
  5
157
330
1F
100
AcDbEntity
  8
0
  6
Continuous
 62
     7
370
     0
100
AcDbLine
 10
218.3023535239
 20
108.5736420653
 30
0.0
 11
219.3033392678
 21
108.5736420653
 31
0.0
  0
LINE
  5
158
330
1F
100
AcDbEntity
  8
0
  6
Continuous
 62
     7
370
     0
100
AcDbLine
 10
218.3023535239
 20
109.4165774285
 30
0.0
 11
218.3023535239
 21
108.5736420653
 31
0.0
  0
LINE
  5
159
330
1F
100
AcDbEntity
  8
0
  6
Continuous
 62
     7
370
     0
100
AcDbLine
 10
218.0125944928
 20
109.4165774285
 30
0.0
 11
218.3023535239
 21
109.4165774285
 31
0.0
  0
LINE
  5
15A
330
1F
100
AcDbEntity
  8
0
  6
Continuous
 62
     7
370
     0
100
AcDbLine
 10
218.0125944928
 20
107.3619224806
 30
0.0
 11
218.0125944928
 21
109.4165774285
 31
0.0
  0
LINE
  5
15B
330
1F
100
AcDbEntity
  8
0
  6
Continuous
 62
     7
370
     0
100
AcDbLine
 10
218.3023535239
 20
107.3619224806
 30
0.0
 11
218.0125944928
 21
107.3619224806
 31
0.0
  0
LINE
  5
15C
330
1F
100
AcDbEntity
  8
0
  6
Continuous
 62
     7
370
     0
100
AcDbLine
 10
218.3023535239
 20
108.3365664944
 30
0.0
 11
218.3023535239
 21
107.3619224806
 31
0.0
  0
LINE
  5
15D
330
1F
100
AcDbEntity
  8
0
  6
Continuous
 62
     7
370
     0
100
AcDbLine
 10
222.8664698535
 20
108.2838830342
 30
0.0
 11
222.5697138004
 21
108.2838830342
 31
0.0
  0
SPLINE
  5
15E
330
1F
100
AcDbEntity
  8
0
  6
Continuous
 62
     7
370
     0
100
AcDbSpline
210
0.0
220
0.0
230
1.0
 70
     8
 71
     3
 72
    11
 73
     7
 74
     0
 42
0.00000001
 43
0.00000001
 40
0.0
 40
0.0
 40
0.0
 40
0.0
 40
0.1774946570818496
 40
0.4052256231013751
 40
0.6783881083348569
 40
0.9999999999999999
 40
0.9999999999999999
 40
0.9999999999999999
 40
0.9999999999999999
 10
223.0092914214293
 20
108.2744164749173
 30
0.0
 10
223.0009398407774
 20
108.2759225487465
 30
0.0
 10
222.9818729317833
 20
108.279360960448
 30
0.0
 10
222.9494973678902
 20
108.2816065926122
 30
0.0
 10
222.910270400345
 20
108.2839900307185
 30
0.0
 10
222.881841948468
 20
108.2839205853262
 30
0.0
 10
222.8664698535352
 20
108.2838830341725
 30
0.0
  0
SPLINE
  5
15F
330
1F
100
AcDbEntity
  8
0
  6
Continuous
 62
     7
370
     0
100
AcDbSpline
210
0.0
220
0.0
230
1.0
 70
     8
 71
     3
 72
    21
 73
    17
 74
     0
 42
0.00000001
 43
0.00000001
 40
0.0
 40
0.0
 40
0.0
 40
0.0
 40
0.0807814705861227
 40
0.1565412257955895
 40
0.227934986843486
 40
0.2943103173046012
 40
0.3568678635548113
 40
0.4147585592592751
 40
0.4676413968340161
 40
0.5167484215300129
 40
0.604729741894053
 40
0.6815706529393896
 40
0.7481095416219826
 40
0.8049410995352804
 40
0.9054060495000024
 40
1.0
 40
1.0
 40
1.0
 40
1.0
 10
223.4406372518413
 20
107.7957378482292
 30
0.0
 10
223.4314324652905
 20
107.8109587818431
 30
0.0
 10
223.4135951003677
 20
107.8404544519317
 30
0.0
 10
223.3878296657732
 20
107.883531458183
 30
0.0
 10
223.3625675042714
 20
107.9231907060429
 30
0.0
 10
223.3391372815809
 20
107.960565678398
 30
0.0
 10
223.3165881600039
 20
107.9949778510574
 30
0.0
 10
223.2951380168296
 20
108.0265467652047
 30
0.0
 10
223.2753771695232
 20
108.0556865637526
 30
0.0
 10
223.2509008053671
 20
108.0896128726016
 30
0.0
 10
223.2224143827473
 20
108.1271526481632
 30
0.0
 10
223.1891726820749
 20
108.1658115281775
 30
0.0
 10
223.1575167272351
 20
108.1966337382494
 30
0.0
 10
223.118531834638
 20
108.2268581939125
 30
0.0
 10
223.070243147209
 20
108.2551280917544
 30
0.0
 10
223.0291968513675
 20
108.2681173331824
 30
0.0
 10
223.0092914214293
 20
108.2744164749173
 30
0.0
  0
LINE
  5
160
330
1F
100
AcDbEntity
  8
0
  6
Continuous
 62
     7
370
     0
100
AcDbLine
 10
223.6966459413
 20
107.3619224806
 30
0.0
 11
223.4406372518
 21
107.7957378482
 31
0.0
  0
LINE
  5
161
330
1F
100
AcDbEntity
  8
0
  6
Continuous
 62
     7
370
     0
100
AcDbLine
 10
224.0287986943
 20
107.3619224806
 30
0.0
 11
223.6966459413
 21
107.3619224806
 31
0.0
  0
LINE
  5
162
330
1F
100
AcDbEntity
  8
0
  6
Continuous
 62
     7
370
     0
100
AcDbLine
 10
223.6917068669
 20
107.9290928569
 30
0.0
 11
224.0287986943
 21
107.3619224806
 31
0.0
  0
SPLINE
  5
163
330
1F
100
AcDbEntity
  8
0
  6
Continuous
 62
     7
370
     0
100
AcDbSpline
210
0.0
220
0.0
230
1.0
 70
     8
 71
     3
 72
    11
 73
     7
 74
     0
 42
0.00000001
 43
0.00000001
 40
0.0
 40
0.0
 40
0.0
 40
0.0
 40
0.2295275697008571
 40
0.4714659343032296
 40
0.7281863484998701
 40
1.0
 40
1.0
 40
1.0
 40
1.0
 10
223.4752107725995
 20
108.2089737391964
 30
0.0
 10
223.4946205824714
 20
108.1899464533177
 30
0.0
 10
223.5344897108635
 20
108.150863056383
 30
0.0
 10
223.5894311015516
 20
108.0842925824613
 30
0.0
 10
223.6426986667203
 20
108.0101894298899
 30
0.0
 10
223.6750627288918
 20
107.9566348303922
 30
0.0
 10
223.6917068668712
 20
107.929092856868
 30
0.0
  0
SPLINE
  5
164
330
1F
100
AcDbEntity
  8
0
  6
Continuous
 62
     7
370
     0
100
AcDbSpline
210
0.0
220
0.0
230
1.0
 70
     8
 71
     3
 72
    11
 73
     7
 74
     0
 42
0.00000001
 43
0.00000001
 40
0.0
 40
0.0
 40
0.0
 40
0.0
 40
0.2930762433192213
 40
0.5565623371181898
 40
0.7919136092098108
 40
1.0
 40
1.0
 40
1.0
 40
1.0
 10
223.3155140338592
 20
108.310224764274
 30
0.0
 10
223.3320558808661
 20
108.3018681880389
 30
0.0
 10
223.3634694438562
 20
108.2859987489228
 30
0.0
 10
223.4069619110738
 20
108.2611156062164
 30
0.0
 10
223.4438289699984
 20
108.2356911660973
 30
0.0
 10
223.4651879253954
 20
108.2175068591997
 30
0.0
 10
223.4752107725995
 20
108.2089737391964
 30
0.0
  0
SPLINE
  5
165
330
1F
100
AcDbEntity
  8
0
  6
Continuous
 62
     7
370
     0
100
AcDbSpline
210
0.0
220
0.0
230
1.0
 70
     8
 71
     3
 72
    23
 73
    19
 74
     0
 42
0.00000001
 43
0.00000001
 40
0.0
 40
0.0
 40
0.0
 40
0.0
 40
0.0614130692946597
 40
0.1212950233845471
 40
0.1792240423087202
 40
0.2359380947348319
 40
0.2922168332673612
 40
0.3481966394342069
 40
0.4044447389633588
 40
0.4620255339229974
 40
0.5203342118681488
 40
0.5803829016508381
 40
0.641825904813988
 40
0.7063632097966277
 40
0.7738513938275595
 40
0.8452662573568828
 40
0.920154675768406
 40
1.0
 40
1.0
 40
1.0
 40
1.0
 10
223.8604585753338
 20
108.8625779173398
 30
0.0
 10
223.8600565150581
 20
108.8450020687145
 30
0.0
 10
223.8592624184413
 20
108.8102885623796
 30
0.0
 10
223.8531795584775
 20
108.7592504163122
 30
0.0
 10
223.8421731144986
 20
108.710485520093
 30
0.0
 10
223.8280595195014
 20
108.6635667995032
 30
0.0
 10
223.8087423135733
 20
108.6191590178186
 30
0.0
 10
223.7863641689642
 20
108.5763551325655
 30
0.0
 10
223.7586408293975
 20
108.5363310806707
 30
0.0
 10
223.7276014850493
 20
108.4980210858046
 30
0.0
 10
223.692007680727
 20
108.4622456457768
 30
0.0
 10
223.651546298494
 20
108.4302954505053
 30
0.0
 10
223.6066184227475
 20
108.4015561859027
 30
0.0
 10
223.5570124612286
 20
108.3768207794456
 30
0.0
 10
223.5032994284259
 20
108.3542114436155
 30
0.0
 10
223.4448053733257
 20
108.3360053170272
 30
0.0
 10
223.3817663730566
 20
108.3211386186071
 30
0.0
 10
223.3380648077828
 20
108.3139395895116
 30
0.0
 10
223.3155140338592
 20
108.310224764274
 30
0.0
  0
SPLINE
  5
166
330
1F
100
AcDbEntity
  8
0
  6
Continuous
 62
     7
370
     0
100
AcDbSpline
210
0.0
220
0.0
230
1.0
 70
     8
 71
     3
 72
    27
 73
    23
 74
     0
 42
0.00000001
 43
0.00000001
 40
0.0
 40
0.0
 40
0.0
 40
0.0
 40
0.0621127506505295
 40
0.1202119588785538
 40
0.1743851213884739
 40
0.2254437557784867
 40
0.2723582126361769
 40
0.3163881629634409
 40
0.3568694790582284
 40
0.3939783235063669
 40
0.4295893718770922
 40
0.4646830409549871
 40
0.5000363461428401
 40
0.535482747753064
 40
0.5713634671484438
 40
0.6079085322052602
 40
0.645662298533116
 40
0.6845173397035776
 40
0.7625786223763463
 40
0.8404972886541806
 40
0.9190729926935233
 40
1.0
 40
1.0
 40
1.0
 40
1.0
 10
223.1714576973666
 20
109.4165774285368
 30
0.0
 10
223.1924498615531
 20
109.4164129462436
 30
0.0
 10
223.2330777383021
 20
109.4160946100169
 30
0.0
 10
223.2919965483356
 20
109.4138411510634
 30
0.0
 10
223.3469913509315
 20
109.4089832847071
 30
0.0
 10
223.3981632631315
 20
109.4037301792861
 30
0.0
 10
223.4455031931537
 20
109.3956673640754
 30
0.0
 10
223.4889623016816
 20
109.3864194971722
 30
0.0
 10
223.5286076873811
 20
109.375414395741
 30
0.0
 10
223.5646165891065
 20
109.3624165225668
 30
0.0
 10
223.5980249981293
 20
109.347711376279
 30
0.0
 10
223.6289920697825
 20
109.3295675999188
 30
0.0
 10
223.6588050653227
 20
109.3096858897058
 30
0.0
 10
223.686357520478
 20
109.2863278472732
 30
0.0
 10
223.7123761339486
 20
109.2607529528136
 30
0.0
 10
223.7368367908659
 20
109.2326136977702
 30
0.0
 10
223.7593773706685
 20
109.2016658906778
 30
0.0
 10
223.7871784764528
 20
109.1573731607057
 30
0.0
 10
223.8170033947838
 20
109.0983845717495
 30
0.0
 10
223.8418522364302
 20
109.0228919593814
 30
0.0
 10
223.8578743250025
 20
108.9439239313283
 30
0.0
 10
223.8595887342567
 20
108.8899584321335
 30
0.0
 10
223.8604585753338
 20
108.8625779173398
 30
0.0
  0
LINE
  5
167
330
1F
100
AcDbEntity
  8
0
  6
Continuous
 62
     7
370
     0
100
AcDbLine
 10
222.2799547692
 20
109.4165774285
 30
0.0
 11
223.1714576974
 21
109.4165774285
 31
0.0
  0
LINE
  5
168
330
1F
100
AcDbEntity
  8
0
  6
Continuous
 62
     7
370
     0
100
AcDbLine
 10
222.2799547692
 20
107.3619224806
 30
0.0
 11
222.2799547692
 21
109.4165774285
 31
0.0
  0
LINE
  5
169
330
1F
100
AcDbEntity
  8
0
  6
Continuous
 62
     7
370
     0
100
AcDbLine
 10
222.5697138004
 20
107.3619224806
 30
0.0
 11
222.2799547692
 21
107.3619224806
 31
0.0
  0
LINE
  5
16A
330
1F
100
AcDbEntity
  8
0
  6
Continuous
 62
     7
370
     0
100
AcDbLine
 10
222.5697138004
 20
108.2838830342
 30
0.0
 11
222.5697138004
 21
107.3619224806
 31
0.0
  0
LINE
  5
16B
330
1F
100
AcDbEntity
  8
0
  6
Continuous
 62
     7
370
     0
100
AcDbLine
 10
227.0511006339
 20
107.9941240031
 30
0.0
 11
226.175238108
 21
107.9941240031
 31
0.0
  0
LINE
  5
16C
330
1F
100
AcDbEntity
  8
0
  6
Continuous
 62
     7
370
     0
100
AcDbLine
 10
227.2848834885
 20
107.3619224806
 30
0.0
 11
227.0511006339
 21
107.9941240031
 31
0.0
  0
LINE
  5
16D
330
1F
100
AcDbEntity
  8
0
  6
Continuous
 62
     7
370
     0
100
AcDbLine
 10
227.5923408696
 20
107.3619224806
 30
0.0
 11
227.2848834885
 21
107.3619224806
 31
0.0
  0
LINE
  5
16E
330
1F
100
AcDbEntity
  8
0
  6
Continuous
 62
     7
370
     0
100
AcDbLine
 10
226.7765704155
 20
109.4165774285
 30
0.0
 11
227.5923408696
 21
107.3619224806
 31
0.0
  0
LINE
  5
16F
330
1F
100
AcDbEntity
  8
0
  6
Continuous
 62
     7
370
     0
100
AcDbLine
 10
226.4497683264
 20
109.4165774285
 30
0.0
 11
226.7765704155
 21
109.4165774285
 31
0.0
  0
LINE
  5
170
330
1F
100
AcDbEntity
  8
0
  6
Continuous
 62
     7
370
     0
100
AcDbLine
 10
225.6339978723
 20
107.3619224806
 30
0.0
 11
226.4497683264
 21
109.4165774285
 31
0.0
  0
LINE
  5
171
330
1F
100
AcDbEntity
  8
0
  6
Continuous
 62
     7
370
     0
100
AcDbLine
 10
225.9414552534
 20
107.3619224806
 30
0.0
 11
225.6339978723
 21
107.3619224806
 31
0.0
  0
LINE
  5
172
330
1F
100
AcDbEntity
  8
0
  6
Continuous
 62
     7
370
     0
100
AcDbLine
 10
226.175238108
 20
107.9941240031
 30
0.0
 11
225.9414552534
 21
107.3619224806
 31
0.0
  0
SPLINE
  5
173
330
1F
100
AcDbEntity
  8
0
  6
Continuous
 62
     7
370
     0
100
AcDbSpline
210
0.0
220
0.0
230
1.0
 70
     8
 71
     3
 72
    23
 73
    19
 74
     0
 42
0.00000001
 43
0.00000001
 40
0.0
 40
0.0
 40
0.0
 40
0.0
 40
0.0749313059818448
 40
0.1470775964339469
 40
0.2163644561730687
 40
0.2825027309006237
 40
0.3466877108244162
 40
0.4088355551310375
 40
0.4692619872876909
 40
0.5284320432534628
 40
0.5870013379727417
 40
0.644416393832067
 40
0.7021887902662974
 40
0.7597671795443349
 40
0.8184897928274489
 40
0.8776328274167843
 40
0.9380195662701677
 40
1.0
 40
1.0
 40
1.0
 40
1.0
 10
230.8533647382153
 20
108.4419334147815
 30
0.0
 10
230.8681376342158
 20
108.4351221610444
 30
0.0
 10
230.8971343533794
 20
108.4217528114085
 30
0.0
 10
230.9382120889314
 20
108.3989266581051
 30
0.0
 10
230.9765420727419
 20
108.3752229267293
 30
0.0
 10
231.0118146241582
 20
108.3500034327889
 30
0.0
 10
231.0439156899764
 20
108.3232151277081
 30
0.0
 10
231.0732041976124
 20
108.2951649465282
 30
0.0
 10
231.0998570393736
 20
108.2660105358411
 30
0.0
 10
231.1227987756331
 20
108.2348187847572
 30
0.0
 10
231.1433981010334
 20
108.2028506043649
 30
0.0
 10
231.1614238824465
 20
108.1696591982597
 30
0.0
 10
231.1759378954632
 20
108.1350493741419
 30
0.0
 10
231.18866759017
 20
108.0994383213098
 30
0.0
 10
231.1978238919752
 20
108.0624299412661
 30
0.0
 10
231.205004279404
 20
108.0243980433669
 30
0.0
 10
231.2091924793092
 20
107.9851638666363
 30
0.0
 10
231.2095965878507
 20
107.9585998434919
 30
0.0
 10
231.2098012736512
 20
107.9451448486486
 30
0.0
  0
SPLINE
  5
174
330
1F
100
AcDbEntity
  8
0
  6
Continuous
 62
     7
370
     0
100
AcDbSpline
210
0.0
220
0.0
230
1.0
 70
     8
 71
     3
 72
    23
 73
    19
 74
     0
 42
0.00000001
 43
0.00000001
 40
0.0
 40
0.0
 40
0.0
 40
0.0
 40
0.0327432182311376
 40
0.0724096054938575
 40
0.1196114857927603
 40
0.1746729151985131
 40
0.2373450901947013
 40
0.3083524168429163
 40
0.3876300477623597
 40
0.4747836155862522
 40
0.5633323159904144
 40
0.6451362168299873
 40
0.7202025267224655
 40
0.7891341563324459
 40
0.8514970735699655
 40
0.9073306044315619
 40
0.9569686823424193
 40
1.0
 40
1.0
 40
1.0
 40
1.0
 10
230.0454144852585
 20
108.7176984017815
 30
0.0
 10
230.0525499622577
 20
108.7116166554335
 30
0.0
 10
230.0683296290844
 20
108.6981672488827
 30
0.0
 10
230.0976901316861
 20
108.6803685340345
 30
0.0
 10
230.1340928005247
 20
108.6623852010311
 30
0.0
 10
230.1777808722749
 20
108.6445083764156
 30
0.0
 10
230.2286791800428
 20
108.6265210373997
 30
0.0
 10
230.2867056238518
 20
108.608000859925
 30
0.0
 10
230.3520812195815
 20
108.5896068611346
 30
0.0
 10
230.4228136479288
 20
108.5718811998856
 30
0.0
 10
230.494269893657
 20
108.5540842801161
 30
0.0
 10
230.5621773502141
 20
108.5363551896121
 30
0.0
 10
230.624527889983
 20
108.5195528905898
 30
0.0
 10
230.6812225893067
 20
108.5031650001856
 30
0.0
 10
230.7323201289654
 20
108.487237857429
 30
0.0
 10
230.7776429262863
 20
108.471437768149
 30
0.0
 10
230.8175576598408
 20
108.456905693806
 30
0.0
 10
230.8420101496704
 20
108.4466811930315
 30
0.0
 10
230.8533647382153
 20
108.4419334147815
 30
0.0
  0
SPLINE
  5
175
330
1F
100
AcDbEntity
  8
0
  6
Continuous
 62
     7
370
     0
100
AcDbSpline
210
0.0
220
0.0
230
1.0
 70
     8
 71
     3
 72
    11
 73
     7
 74
     0
 42
0.00000001
 43
0.00000001
 40
0.0
 40
0.0
 40
0.0
 40
0.0
 40
0.2627412305282691
 40
0.5099565029432329
 40
0.7533267184204503
 40
1.0
 40
1.0
 40
1.0
 40
1.0
 10
229.9717399588808
 20
108.8992093857621
 30
0.0
 10
229.9724887644216
 20
108.8815320377157
 30
0.0
 10
229.973942126934
 20
108.847221935061
 30
0.0
 10
229.9887830831285
 20
108.7984776216805
 30
0.0
 10
230.0116085775903
 20
108.7540440217215
 30
0.0
 10
230.0340953264947
 20
108.7298679268984
 30
0.0
 10
230.0454144852585
 20
108.7176984017815
 30
0.0
  0
SPLINE
  5
176
330
1F
100
AcDbEntity
  8
0
  6
Continuous
 62
     7
370
     0
100
AcDbSpline
210
0.0
220
0.0
230
1.0
 70
     8
 71
     3
 72
    23
 73
    19
 74
     0
 42
0.00000001
 43
0.00000001
 40
0.0
 40
0.0
 40
0.0
 40
0.0
 40
0.0915110363280375
 40
0.177142860314148
 40
0.257108485228235
 40
0.3311983993883849
 40
0.4005922945239581
 40
0.4656249598049642
 40
0.5269734913138602
 40
0.5854431157040231
 40
0.6413985080863308
 40
0.6950441672657243
 40
0.7467815514927477
 40
0.7969589345766993
 40
0.8475448623598797
 40
0.8974385414187385
 40
0.9476489188871287
 40
1.0
 40
1.0
 40
1.0
 40
1.0
 10
230.4067900950884
 20
109.2058435877249
 30
0.0
 10
230.388530382488
 20
109.2057059546434
 30
0.0
 10
230.3531840696461
 20
109.2054395308468
 30
0.0
 10
230.3020869660353
 20
109.2005829579366
 30
0.0
 10
230.2547265558003
 20
109.1939195676352
 30
0.0
 10
230.211184185473
 20
109.184090500325
 30
0.0
 10
230.1716024941734
 20
109.1712242182143
 30
0.0
 10
230.1353940328656
 20
109.1563666147546
 30
0.0
 10
230.1035721337502
 20
109.1375381506883
 30
0.0
 10
230.0753949734552
 20
109.1165656905749
 30
0.0
 10
230.0510886039196
 20
109.0933608219919
 30
0.0
 10
230.0301401139615
 20
109.068908500901
 30
0.0
 10
230.0116127925976
 20
109.0439271540738
 30
0.0
 10
229.9972166552209
 20
109.0170512847204
 30
0.0
 10
229.9854960356106
 20
108.9892987228284
 30
0.0
 10
229.9779349480964
 20
108.9601478111302
 30
0.0
 10
229.9725815215074
 20
108.9301377657591
 30
0.0
 10
229.9720243562151
 20
108.9096613100099
 30
0.0
 10
229.9717399588808
 20
108.8992093857621
 30
0.0
  0
SPLINE
  5
177
330
1F
100
AcDbEntity
  8
0
  6
Continuous
 62
     7
370
     0
100
AcDbSpline
210
0.0
220
0.0
230
1.0
 70
     8
 71
     3
 72
    23
 73
    19
 74
     0
 42
0.00000001
 43
0.00000001
 40
0.0
 40
0.0
 40
0.0
 40
0.0
 40
0.0671554674490462
 40
0.1314033464826141
 40
0.1927317719102091
 40
0.2512526591565257
 40
0.3077037298841914
 40
0.3626989162982003
 40
0.417778332785431
 40
0.4723043857981144
 40
0.5278725997916964
 40
0.5852299868117375
 40
0.6450565760102912
 40
0.707952356429442
 40
0.7744342720454286
 40
0.84494043137526
 40
0.9204035944750272
 40
1.0
 40
1.0
 40
1.0
 40
1.0
 10
230.8673587823317
 20
108.8370593663039
 30
0.0
 10
230.8655176961474
 20
108.8517719775556
 30
0.0
 10
230.8619152361396
 20
108.8805601973
 30
0.0
 10
230.8529780110673
 20
108.9222354763696
 30
0.0
 10
230.8404498199311
 20
108.9609416002346
 30
0.0
 10
230.8257754686364
 20
108.9970395297033
 30
0.0
 10
230.8079870826799
 20
109.0301538065822
 30
0.0
 10
230.7872509719416
 20
109.0606024003721
 30
0.0
 10
230.7633146145816
 20
109.0880265746841
 30
0.0
 10
230.736793918257
 20
109.1131509813385
 30
0.0
 10
230.7068818630519
 20
109.1350273261664
 30
0.0
 10
230.6737321464063
 20
109.154016665082
 30
0.0
 10
230.6372888105412
 20
109.1700583082129
 30
0.0
 10
230.5975839619685
 20
109.1831969371345
 30
0.0
 10
230.5546097399036
 20
109.1933841160789
 30
0.0
 10
230.5082683989786
 20
109.2008779993861
 30
0.0
 10
230.4585778508426
 20
109.2047159525518
 30
0.0
 10
230.4243567444063
 20
109.2054610885925
 30
0.0
 10
230.4067900950884
 20
109.2058435877249
 30
0.0
  0
LINE
  5
178
330
1F
100
AcDbEntity
  8
0
  6
Continuous
 62
     7
370
     0
100
AcDbLine
 10
231.1571178134
 20
108.8370593663
 30
0.0
 11
230.8673587823
 21
108.8370593663
 31
0.0
  0
SPLINE
  5
179
330
1F
100
AcDbEntity
  8
0
  6
Continuous
 62
     7
370
     0
100
AcDbSpline
210
0.0
220
0.0
230
1.0
 70
     8
 71
     3
 72
    23
 73
    19
 74
     0
 42
0.00000001
 43
0.00000001
 40
0.0
 40
0.0
 40
0.0
 40
0.0
 40
0.1004750608070148
 40
0.1956443031597846
 40
0.286083379069932
 40
0.3729828804699542
 40
0.4150256681909619
 40
0.4560516735090279
 40
0.4959387495188998
 40
0.5355660888033517
 40
0.5740871099085042
 40
0.6125192874870976
 40
0.651080960134445
 40
0.6895131377130386
 40
0.7662374603277348
 40
0.8423504388672227
 40
0.9199744947371038
 40
1.0
 40
1.0
 40
1.0
 40
1.0
 10
230.3952655881689
 20
109.4429191586383
 30
0.0
 10
230.4317993559869
 20
109.4420820431431
 30
0.0
 10
230.5029376413398
 20
109.4404520179766
 30
0.0
 10
230.6063035806962
 20
109.4268905055184
 30
0.0
 10
230.7027157047268
 20
109.4036018200273
 30
0.0
 10
230.7783254003417
 20
109.3775324731711
 30
0.0
 10
230.8342227641041
 20
109.3511407966038
 30
0.0
 10
230.8739338077581
 20
109.33054763936
 30
0.0
 10
230.9107935089437
 20
109.306738198207
 30
0.0
 10
230.9451336793154
 20
109.2809726580782
 30
0.0
 10
230.9772732925836
 20
109.2532627859806
 30
0.0
 10
231.0063862885181
 20
109.2229494556364
 30
0.0
 10
231.0337368346019
 20
109.1910669030216
 30
0.0
 10
231.0658775375467
 20
109.1452935467924
 30
0.0
 10
231.1005320292131
 20
109.0847127687858
 30
0.0
 10
231.1304955543737
 20
109.0062279646257
 30
0.0
 10
231.1510808456644
 20
108.923393697851
 30
0.0
 10
231.155085158511
 20
108.8661282484898
 30
0.0
 10
231.1571178134482
 20
108.8370593663039
 30
0.0
  0
SPLINE
  5
17A
330
1F
100
AcDbEntity
  8
0
  6
Continuous
 62
     7
370
     0
100
AcDbSpline
210
0.0
220
0.0
230
1.0
 70
     8
 71
     3
 72
    23
 73
    19
 74
     0
 42
0.00000001
 43
0.00000001
 40
0.0
 40
0.0
 40
0.0
 40
0.0
 40
0.0749954673898322
 40
0.1491654404266561
 40
0.2236642943382247
 40
0.3004120221906725
 40
0.3395704846106348
 40
0.3789205746932795
 40
0.4180957375990935
 40
0.4582296767501551
 40
0.4984267212184583
 40
0.5397075464534805
 40
0.5822159516458436
 40
0.6258238199943749
 40
0.7154812648736979
 40
0.8073840844133601
 40
0.9016341255073719
 40
1.0
 40
1.0
 40
1.0
 40
1.0
 10
229.6819809277644
 20
108.8802762672517
 30
0.0
 10
229.6829588322975
 20
108.9057487261776
 30
0.0
 10
229.6849038773175
 20
108.9564132621378
 30
0.0
 10
229.7021574926108
 20
109.0307603102125
 30
0.0
 10
229.7296773390891
 20
109.1023019460432
 30
0.0
 10
229.7610032820507
 20
109.1590999001355
 30
0.0
 10
229.7915529990018
 20
109.2020502588378
 30
0.0
 10
229.816878946399
 20
109.2329823220289
 30
0.0
 10
229.8452869497609
 20
109.26157485598
 30
0.0
 10
229.8759021413364
 20
109.2882269931786
 30
0.0
 10
229.9092717986974
 20
109.3125405198462
 30
0.0
 10
229.9445680173161
 20
109.3355146913718
 30
0.0
 10
229.9830683231595
 20
109.3552615431177
 30
0.0
 10
230.0371669784653
 20
109.3803948282707
 30
0.0
 10
230.1095379440212
 20
109.4054927638076
 30
0.0
 10
230.2006439377876
 20
109.4273624311048
 30
0.0
 10
230.2965300047157
 20
109.4402410234926
 30
0.0
 10
230.3618882005074
 20
109.442013819835
 30
0.0
 10
230.3952655881689
 20
109.4429191586383
 30
0.0
  0
SPLINE
  5
17B
330
1F
100
AcDbEntity
  8
0
  6
Continuous
 62
     7
370
     0
100
AcDbSpline
210
0.0
220
0.0
230
1.0
 70
     8
 71
     3
 72
    15
 73
    11
 74
     0
 42
0.00000001
 43
0.00000001
 40
0.0
 40
0.0
 40
0.0
 40
0.0
 40
0.1448052410584837
 40
0.2795118010254855
 40
0.4063939211311608
 40
0.5275015404829168
 40
0.6453932904726503
 40
0.7618854106740865
 40
0.8789420729184871
 40
1.0
 40
1.0
 40
1.0
 40
1.0
 10
229.9853224134644
 20
108.4361711613218
 30
0.0
 10
229.9611398694665
 20
108.4492352681976
 30
0.0
 10
229.9144612660069
 20
108.4744523944213
 30
0.0
 10
229.851637035613
 20
108.5195406866684
 30
0.0
 10
229.7987012437635
 20
108.5695744921663
 30
0.0
 10
229.7558772161607
 20
108.6244812597946
 30
0.0
 10
229.7223177014671
 20
108.6833323842899
 30
0.0
 10
229.6996752436425
 20
108.7462279131167
 30
0.0
 10
229.6841670291656
 20
108.8120261749253
 30
0.0
 10
229.6827177461231
 20
108.8572727958759
 30
0.0
 10
229.6819809277644
 20
108.8802762672517
 30
0.0
  0
SPLINE
  5
17C
330
1F
100
AcDbEntity
  8
0
  6
Continuous
 62
     7
370
     0
100
AcDbSpline
210
0.0
220
0.0
230
1.0
 70
     8
 71
     3
 72
    23
 73
    19
 74
     0
 42
0.00000001
 43
0.00000001
 40
0.0
 40
0.0
 40
0.0
 40
0.0
 40
0.031200111153937
 40
0.0704867190162008
 40
0.1172148300204117
 40
0.1715755269954914
 40
0.2341219784876085
 40
0.3039626396728061
 40
0.3821556401561972
 40
0.4676462220680265
 40
0.5543353814021599
 40
0.6350744656665042
 40
0.7100366878785244
 40
0.7790924037748317
 40
0.8429656453505103
 40
0.9010012068505269
 40
0.953246256459026
 40
1.0
 40
1.0
 40
1.0
 40
1.0
 10
230.701076611066
 20
108.2085621496635
 30
0.0
 10
230.693837962792
 20
108.211532652035
 30
0.0
 10
230.6774845413434
 20
108.2182435565237
 30
0.0
 10
230.6494555443746
 20
108.2271276386002
 30
0.0
 10
230.6161955898302
 20
108.2386156632372
 30
0.0
 10
230.576905634032
 20
108.2504464589137
 30
0.0
 10
230.5317960133837
 20
108.2629617861144
 30
0.0
 10
230.4809418308681
 20
108.2771272390296
 30
0.0
 10
230.4243715029725
 20
108.2921914228446
 30
0.0
 10
230.363689461883
 20
108.3082256056494
 30
0.0
 10
230.3024190921006
 20
108.3245299106984
 30
0.0
 10
230.2438824117267
 20
108.340849484417
 30
0.0
 10
230.1900258829477
 20
108.3574159422012
 30
0.0
 10
230.140408348086
 20
108.3733671538477
 30
0.0
 10
230.0952856081087
 20
108.3893841750502
 30
0.0
 10
230.0545295943278
 20
108.4050284941867
 30
0.0
 10
230.0180894938791
 20
108.4199827087816
 30
0.0
 10
229.9958332677458
 20
108.4309783133922
 30
0.0
 10
229.9853224134644
 20
108.4361711613218
 30
0.0
  0
SPLINE
  5
17D
330
1F
100
AcDbEntity
  8
0
  6
Continuous
 62
     7
370
     0
100
AcDbSpline
210
0.0
220
0.0
230
1.0
 70
     8
 71
     3
 72
    15
 73
    11
 74
     0
 42
0.00000001
 43
0.00000001
 40
0.0
 40
0.0
 40
0.0
 40
0.0
 40
0.1177675192120368
 40
0.230176448544057
 40
0.3398429589695384
 40
0.4506252599208614
 40
0.5669428888721625
 40
0.6960213064547937
 40
0.8394383602270619
 40
1.0
 40
1.0
 40
1.0
 40
1.0
 10
230.9200422425347
 20
107.9311508045322
 30
0.0
 10
230.9193485474196
 20
107.9460033189607
 30
0.0
 10
230.9179927213051
 20
107.9750325372542
 30
0.0
 10
230.9091571780211
 20
108.0172954528418
 30
0.0
 10
230.8923639794803
 20
108.0559782964913
 30
0.0
 10
230.8705728744992
 20
108.0926599215669
 30
0.0
 10
230.8402577268298
 20
108.126197320538
 30
0.0
 10
230.8019579588783
 20
108.1570990421591
 30
0.0
 10
230.754829730646
 20
108.1851148422327
 30
0.0
 10
230.7196555985159
 20
108.2004579273618
 30
0.0
 10
230.701076611066
 20
108.2085621496635
 30
0.0
  0
SPLINE
  5
17E
330
1F
100
AcDbEntity
  8
0
  6
Continuous
 62
     7
370
     0
100
AcDbSpline
210
0.0
220
0.0
230
1.0
 70
     8
 71
     3
 72
    19
 73
    15
 74
     0
 42
0.00000001
 43
0.00000001
 40
0.0
 40
0.0
 40
0.0
 40
0.0
 40
0.1055838864195047
 40
0.2058681332620123
 40
0.300946717742213
 40
0.3930019285950097
 40
0.4809485116065868
 40
0.5628738662802266
 40
0.6414613436333616
 40
0.7177416181792268
 40
0.7917717603087844
 40
0.8627163930302565
 40
0.9317768462002763
 40
1.0
 40
1.0
 40
1.0
 40
1.0
 10
230.4508301751018
 20
107.5726563214321
 30
0.0
 10
230.4740577570035
 20
107.5730862392339
 30
0.0
 10
230.5193470439246
 20
107.5739244956979
 30
0.0
 10
230.5848630596738
 20
107.5839940326153
 30
0.0
 10
230.646513820865
 20
107.5982774002216
 30
0.0
 10
230.7031519425407
 20
107.619883229936
 30
0.0
 10
230.754568492433
 20
107.6461194817297
 30
0.0
 10
230.7992180057483
 20
107.6778528435191
 30
0.0
 10
230.8373373851473
 20
107.7136393585131
 30
0.0
 10
230.8671876222667
 20
107.7544216236847
 30
0.0
 10
230.8906373725166
 20
107.7971546176729
 30
0.0
 10
230.9078401884657
 20
107.8410797282399
 30
0.0
 10
230.9180875533647
 20
107.8859531508831
 30
0.0
 10
230.9193933341515
 20
107.9161463031487
 30
0.0
 10
230.9200422425347
 20
107.9311508045322
 30
0.0
  0
SPLINE
  5
17F
330
1F
100
AcDbEntity
  8
0
  6
Continuous
 62
     7
370
     0
100
AcDbSpline
210
0.0
220
0.0
230
1.0
 70
     8
 71
     3
 72
    19
 73
    15
 74
     0
 42
0.00000001
 43
0.00000001
 40
0.0
 40
0.0
 40
0.0
 40
0.0
 40
0.0937964706969321
 40
0.1801880710186105
 40
0.2603631916661885
 40
0.3348466760639744
 40
0.4070930058327154
 40
0.4814483792884674
 40
0.5592709137563652
 40
0.6422698113109349
 40
0.7285859445716477
 40
0.8159775452756136
 40
0.9060351298875359
 40
1.0
 40
1.0
 40
1.0
 40
1.0
 10
229.8927147685764
 20
108.0731491933606
 30
0.0
 10
229.8959019498153
 20
108.0471328168561
 30
0.0
 10
229.9020246966004
 20
107.9971539566453
 30
0.0
 10
229.9191445081596
 20
107.9263164459568
 30
0.0
 10
229.9411788102597
 20
107.8626262539562
 30
0.0
 10
229.9686329432314
 20
107.8052380993558
 30
0.0
 10
230.0047478091024
 20
107.7548400626709
 30
0.0
 10
230.0482600102076
 20
107.709381803222
 30
0.0
 10
230.101103210307
 20
107.6700177031586
 30
0.0
 10
230.1607511372536
 20
107.6349862331675
 30
0.0
 10
230.2271822813796
 20
107.6074809885782
 30
0.0
 10
230.2981034524899
 20
107.5870908980141
 30
0.0
 10
230.3731764184241
 20
107.575009606885
 30
0.0
 10
230.4245817655232
 20
107.5734517755488
 30
0.0
 10
230.4508301751018
 20
107.5726563214321
 30
0.0
  0
LINE
  5
180
330
1F
100
AcDbEntity
  8
0
  6
Continuous
 62
     7
370
     0
100
AcDbLine
 10
229.6029557375
 20
108.0731491934
 30
0.0
 11
229.8927147686
 21
108.0731491934
 31
0.0
  0
SPLINE
  5
181
330
1F
100
AcDbEntity
  8
0
  6
Continuous
 62
     7
370
     0
100
AcDbSpline
210
0.0
220
0.0
230
1.0
 70
     8
 71
     3
 72
    31
 73
    27
 74
     0
 42
0.00000001
 43
0.00000001
 40
0.0
 40
0.0
 40
0.0
 40
0.0
 40
0.0524925849212958
 40
0.1028254751380329
 40
0.1513973394924577
 40
0.1980330772483325
 40
0.2428758954632244
 40
0.2859991683849086
 40
0.3278486614843784
 40
0.3683945968796912
 40
0.4078519911389193
 40
0.4468375528599374
 40
0.4851660451611074
 40
0.5233414044713737
 40
0.5616022144094732
 40
0.5999198855663566
 40
0.6384964264110082
 40
0.6777905770472508
 40
0.7172899891758322
 40
0.7566052415928194
 40
0.7960678905323556
 40
0.8358862309537681
 40
0.8757136832726162
 40
0.9162634539474125
 40
0.9577596754778293
 40
1.0
 40
1.0
 40
1.0
 40
1.0
 10
230.4635894506197
 20
107.3355807505187
 30
0.0
 10
230.4412187053901
 20
107.3357653641124
 30
0.0
 10
230.3973976112132
 20
107.3361269957698
 30
0.0
 10
230.3330074075506
 20
107.3405064692382
 30
0.0
 10
230.2713010985278
 20
107.3468415928414
 30
0.0
 10
230.2123392402873
 20
107.3562778299725
 30
0.0
 10
230.1563067313968
 20
107.368657660701
 30
0.0
 10
230.1030024405705
 20
107.3835234448085
 30
0.0
 10
230.052300021569
 20
107.4006444600307
 30
0.0
 10
230.004376630288
 20
107.4207784771834
 30
0.0
 10
229.959357366811
 20
107.4441720057386
 30
0.0
 10
229.9164327392736
 20
107.4694077040884
 30
0.0
 10
229.8763043792458
 20
107.4980135508287
 30
0.0
 10
229.8388878115298
 20
107.5295400487054
 30
0.0
 10
229.803234979905
 20
107.5630764252921
 30
0.0
 10
229.7708235881427
 20
107.5999922786583
 30
0.0
 10
229.740551731721
 20
107.6392080562373
 30
0.0
 10
229.7131111138044
 20
107.6810826757565
 30
0.0
 10
229.6885970992615
 20
107.7250682786639
 30
0.0
 10
229.666552016072
 20
107.7704261740523
 30
0.0
 10
229.6479787250289
 20
107.8174853980298
 30
0.0
 10
229.6330104197814
 20
107.8660081143026
 30
0.0
 10
229.6203315073879
 20
107.9156696082503
 30
0.0
 10
229.6115389746708
 20
107.9668842184875
 30
0.0
 10
229.6050744084583
 20
108.0194911496304
 30
0.0
 10
229.6036661325516
 20
108.0551575321132
 30
0.0
 10
229.6029557374599
 20
108.0731491933606
 30
0.0
  0
SPLINE
  5
182
330
1F
100
AcDbEntity
  8
0
  6
Continuous
 62
     7
370
     0
100
AcDbSpline
210
0.0
220
0.0
230
1.0
 70
     8
 71
     3
 72
    23
 73
    19
 74
     0
 42
0.00000001
 43
0.00000001
 40
0.0
 40
0.0
 40
0.0
 40
0.0
 40
0.0748159666505558
 40
0.1485345605139197
 40
0.2238723272963846
 40
0.3012971209351247
 40
0.3408936290197579
 40
0.38034006206544
 40
0.4201265887284643
 40
0.4599499070829665
 40
0.5008311555562169
 40
0.5419071755971084
 40
0.5844387941530512
 40
0.6280801713306066
 40
0.7172666799070602
 40
0.8078600064218678
 40
0.9019246558363443
 40
1.0
 40
1.0
 40
1.0
 40
1.0
 10
231.2098012736512
 20
107.9451448486486
 30
0.0
 10
231.208728988151
 20
107.9182923358513
 30
0.0
 10
231.2066001450359
 20
107.8649811729325
 30
0.0
 10
231.1882700380399
 20
107.7863980532311
 30
0.0
 10
231.1594744094208
 20
107.7102514488699
 30
0.0
 10
231.1257044020455
 20
107.6498249237345
 30
0.0
 10
231.093781538058
 20
107.6036678401156
 30
0.0
 10
231.0669648264879
 20
107.5704922378963
 30
0.0
 10
231.0372266351311
 20
107.5398163381896
 30
0.0
 10
231.0052990880743
 20
107.5106791232649
 30
0.0
 10
230.970934298024
 20
107.4836750875351
 30
0.0
 10
230.9338425484831
 20
107.4587950356311
 30
0.0
 10
230.8944153253145
 20
107.4357799684414
 30
0.0
 10
230.8381142421065
 20
107.4077347613271
 30
0.0
 10
230.7633370502839
 20
107.3783968115779
 30
0.0
 10
230.6680859195413
 20
107.3539651605641
 30
0.0
 10
230.5677027648572
 20
107.3381157444355
 30
0.0
 10
230.4987734943209
 20
107.3364374261265
 30
0.0
 10
230.4635894506197
 20
107.3355807505187
 30
0.0
  0
LINE
  5
183
330
1F
100
AcDbEntity
  8
0
  6
Continuous
 62
     7
370
     0
100
AcDbLine
 10
216.1209289999
 20
104.2009148684
 30
0.0
 11
215.5759844584
 21
105.9394690551
 31
0.0
  0
LINE
  5
184
330
1F
100
AcDbEntity
  8
0
  6
Continuous
 62
     7
370
     0
100
AcDbLine
 10
216.4238588961
 20
104.2009148684
 30
0.0
 11
216.1209289999
 21
104.2009148684
 31
0.0
  0
LINE
  5
185
330
1F
100
AcDbEntity
  8
0
  6
Continuous
 62
     7
370
     0
100
AcDbLine
 10
216.9720961538
 20
105.9394690551
 30
0.0
 11
216.4238588961
 21
104.2009148684
 31
0.0
  0
LINE
  5
186
330
1F
100
AcDbEntity
  8
0
  6
Continuous
 62
     7
370
     0
100
AcDbLine
 10
216.9720961538
 20
104.2009148684
 30
0.0
 11
216.9720961538
 21
105.9394690551
 31
0.0
  0
LINE
  5
187
330
1F
100
AcDbEntity
  8
0
  6
Continuous
 62
     7
370
     0
100
AcDbLine
 10
217.2618551849
 20
104.2009148684
 30
0.0
 11
216.9720961538
 21
104.2009148684
 31
0.0
  0
LINE
  5
188
330
1F
100
AcDbEntity
  8
0
  6
Continuous
 62
     7
370
     0
100
AcDbLine
 10
217.2618551849
 20
106.2555698164
 30
0.0
 11
217.2618551849
 21
104.2009148684
 31
0.0
  0
LINE
  5
189
330
1F
100
AcDbEntity
  8
0
  6
Continuous
 62
     7
370
     0
100
AcDbLine
 10
216.8296861754
 20
106.2555698164
 30
0.0
 11
217.2618551849
 21
106.2555698164
 31
0.0
  0
LINE
  5
18A
330
1F
100
AcDbEntity
  8
0
  6
Continuous
 62
     7
370
     0
100
AcDbLine
 10
216.3748797416
 20
104.8384670548
 30
0.0
 11
216.8296861754
 21
106.2555698164
 31
0.0
  0
SPLINE
  5
18B
330
1F
100
AcDbEntity
  8
0
  6
Continuous
 62
     7
370
     0
100
AcDbSpline
210
0.0
220
0.0
230
1.0
 70
     8
 71
     3
 72
    15
 73
    11
 74
     0
 42
0.00000001
 43
0.00000001
 40
0.0
 40
0.0
 40
0.0
 40
0.0
 40
0.0892047702332451
 40
0.1898334556643485
 40
0.2992325919749813
 40
0.4192609378429071
 40
0.5492073901909386
 40
0.6890743636843492
 40
0.8395791979483176
 40
1.0
 40
1.0
 40
1.0
 40
1.0
 10
216.2740403061031
 20
104.5120765552646
 30
0.0
 10
216.2769086436697
 20
104.5218213436364
 30
0.0
 10
216.2830126494403
 20
104.5425588764669
 30
0.0
 10
216.2929082185482
 20
104.5751650920295
 30
0.0
 10
216.3034373858199
 20
104.6112475385813
 30
0.0
 10
216.3160375716239
 20
104.6501860177092
 30
0.0
 10
216.3291717740958
 20
104.692591351928
 30
0.0
 10
216.3429578289479
 20
104.7384283249774
 30
0.0
 10
216.3588597747585
 20
104.7872393096528
 30
0.0
 10
216.3694274124733
 20
104.8210319045712
 30
0.0
 10
216.3748797416479
 20
104.8384670548034
 30
0.0
  0
SPLINE
  5
18C
330
1F
100
AcDbEntity
  8
0
  6
Continuous
 62
     7
370
     0
100
AcDbSpline
210
0.0
220
0.0
230
1.0
 70
     8
 71
     3
 72
    15
 73
    11
 74
     0
 42
0.00000001
 43
0.00000001
 40
0.0
 40
0.0
 40
0.0
 40
0.0
 40
0.1625255217041868
 40
0.3143148980392372
 40
0.4549784905465745
 40
0.5845192373661998
 40
0.7045671033090736
 40
0.8134949897289286
 40
0.9116812596826069
 40
0.9999999999999999
 40
0.9999999999999999
 40
0.9999999999999999
 40
0.9999999999999999
 10
216.181432661215
 20
104.8137716828333
 30
0.0
 10
216.1864876505169
 20
104.7974386226595
 30
0.0
 10
216.1962637055658
 20
104.7658514350637
 30
0.0
 10
216.2107604353562
 20
104.7202366296459
 30
0.0
 10
216.223950029152
 20
104.6778478926006
 30
0.0
 10
216.2358293352814
 20
104.6385502983416
 30
0.0
 10
216.2470399899536
 20
104.6025389576279
 30
0.0
 10
216.2567466504731
 20
104.5695183708484
 30
0.0
 10
216.2660265337229
 20
104.5398554701278
 30
0.0
 10
216.2714649599756
 20
104.5210037268167
 30
0.0
 10
216.2740403061031
 20
104.5120765552646
 30
0.0
  0
LINE
  5
18D
330
1F
100
AcDbEntity
  8
0
  6
Continuous
 62
     7
370
     0
100
AcDbLine
 10
215.7220987426
 20
106.2555698164
 30
0.0
 11
216.1814326612
 21
104.8137716828
 31
0.0
  0
LINE
  5
18E
330
1F
100
AcDbEntity
  8
0
  6
Continuous
 62
     7
370
     0
100
AcDbLine
 10
215.2862254273
 20
106.2555698164
 30
0.0
 11
215.7220987426
 21
106.2555698164
 31
0.0
  0
LINE
  5
18F
330
1F
100
AcDbEntity
  8
0
  6
Continuous
 62
     7
370
     0
100
AcDbLine
 10
215.2862254273
 20
104.2009148684
 30
0.0
 11
215.2862254273
 21
106.2555698164
 31
0.0
  0
LINE
  5
190
330
1F
100
AcDbEntity
  8
0
  6
Continuous
 62
     7
370
     0
100
AcDbLine
 10
215.5759844584
 20
104.2009148684
 30
0.0
 11
215.2862254273
 21
104.2009148684
 31
0.0
  0
LINE
  5
191
330
1F
100
AcDbEntity
  8
0
  6
Continuous
 62
     7
370
     0
100
AcDbLine
 10
215.5759844584
 20
105.9394690551
 30
0.0
 11
215.5759844584
 21
104.2009148684
 31
0.0
  0
SPLINE
  5
192
330
1F
100
AcDbEntity
  8
0
  6
Continuous
 62
     7
370
     0
100
AcDbSpline
210
0.0
220
0.0
230
1.0
 70
     8
 71
     3
 72
    31
 73
    27
 74
     0
 42
0.00000001
 43
0.00000001
 40
0.0
 40
0.0
 40
0.0
 40
0.0
 40
0.0628739462114324
 40
0.1228366299919128
 40
0.1796565674430314
 40
0.233960012230862
 40
0.2855950186955586
 40
0.3345131060783809
 40
0.3809048259061764
 40
0.4248945919393347
 40
0.4665290347654873
 40
0.5064882940692464
 40
0.5450315536447543
 40
0.5818311798231344
 40
0.617448279949443
 40
0.652066912769046
 40
0.6858797142465105
 40
0.7191745547913924
 40
0.7521816462063929
 40
0.7852401639180909
 40
0.8186564497770833
 40
0.8525477406533113
 40
0.887626342258519
 40
0.923635078068751
 40
0.9610218444769891
 40
1.0
 40
1.0
 40
1.0
 40
1.0
 10
220.4755462572917
 20
105.2142482982826
 30
0.0
 10
220.4752758930557
 20
105.1850233149396
 30
0.0
 10
220.4747476833023
 20
105.1279265573519
 30
0.0
 10
220.471609967026
 20
105.0444544464732
 30
0.0
 10
220.465641747549
 20
104.9651465771906
 30
0.0
 10
220.4582977444433
 20
104.8898212782501
 30
0.0
 10
220.4471878060268
 20
104.8186796327481
 30
0.0
 10
220.4352162454365
 20
104.7514193786544
 30
0.0
 10
220.4204103821113
 20
104.6883459367582
 30
0.0
 10
220.4031354156622
 20
104.6294316635953
 30
0.0
 10
220.3836798807223
 20
104.5743650417056
 30
0.0
 10
220.3623438760813
 20
104.5227299081723
 30
0.0
 10
220.3387122022777
 20
104.4745615459328
 30
0.0
 10
220.3120814914463
 20
104.4303297650328
 30
0.0
 10
220.2836702192473
 20
104.3894474626347
 30
0.0
 10
220.2532703033188
 20
104.351761280032
 30
0.0
 10
220.2202372298533
 20
104.3178136303233
 30
0.0
 10
220.1846043776808
 20
104.2877950579058
 30
0.0
 10
220.1470941073595
 20
104.2607545543515
 30
0.0
 10
220.1069602499942
 20
104.2376020732888
 30
0.0
 10
220.0643784652231
 20
104.218420644868
 30
0.0
 10
220.0196332583469
 20
104.2020214765297
 30
0.0
 10
219.9722706246898
 20
104.1900051278331
 30
0.0
 10
219.9226640615731
 20
104.1808068006745
 30
0.0
 10
219.8706307921948
 20
104.1753901595266
 30
0.0
 10
219.8351255682002
 20
104.174849236217
 30
0.0
 10
219.8170030047543
 20
104.1745731383392
 30
0.0
  0
SPLINE
  5
193
330
1F
100
AcDbEntity
  8
0
  6
Continuous
 62
     7
370
     0
100
AcDbSpline
210
0.0
220
0.0
230
1.0
 70
     8
 71
     3
 72
    27
 73
    23
 74
     0
 42
0.00000001
 43
0.00000001
 40
0.0
 40
0.0
 40
0.0
 40
0.0
 40
0.0567243372181508
 40
0.1114372357370108
 40
0.1643678222229016
 40
0.21643537246209
 40
0.2676414903219249
 40
0.3173597799690281
 40
0.3674730633322806
 40
0.4182103970528083
 40
0.4714042826470201
 40
0.5279657201290494
 40
0.5880611158232139
 40
0.6521342629937146
 40
0.6863448363353056
 40
0.7232636803169652
 40
0.762610250771542
 40
0.8047389366452182
 40
0.8494303387909499
 40
0.8967112583864923
 40
0.9468896380534765
 40
1.0
 40
1.0
 40
1.0
 40
1.0
 10
219.8170030047543
 20
106.2555698163574
 30
0.0
 10
219.8433901938636
 20
106.2547940516726
 30
0.0
 10
219.8952288852864
 20
106.2532700308325
 30
0.0
 10
219.9709136424644
 20
106.2408403934071
 30
0.0
 10
220.0422416481096
 20
106.2195775828996
 30
0.0
 10
220.1091665609363
 20
106.1908931342529
 30
0.0
 10
220.1705443099279
 20
106.1544583636751
 30
0.0
 10
220.2253572267611
 20
106.1101663490265
 30
0.0
 10
220.2730140655898
 20
106.0584821477142
 30
0.0
 10
220.3129947257622
 20
105.9987933188996
 30
0.0
 10
220.3479418134804
 20
105.9327464790871
 30
0.0
 10
220.3789880390556
 20
105.8600451856945
 30
0.0
 10
220.4070529252302
 20
105.780770908731
 30
0.0
 10
220.4269683794139
 20
105.7098093640557
 30
0.0
 10
220.4411740565307
 20
105.6485528407604
 30
0.0
 10
220.4505770860969
 20
105.59803019318
 30
0.0
 10
220.4583834857513
 20
105.5435159720111
 30
0.0
 10
220.4643642428812
 20
105.4851420618296
 30
0.0
 10
220.469271312993
 20
105.42297393417
 30
0.0
 10
220.4730608183511
 20
105.3569728819668
 30
0.0
 10
220.4749843803252
 20
105.2869739468192
 30
0.0
 10
220.4753554538383
 20
105.23894463879
 30
0.0
 10
220.4755462572917
 20
105.2142482982826
 30
0.0
  0
SPLINE
  5
194
330
1F
100
AcDbEntity
  8
0
  6
Continuous
 62
     7
370
     0
100
AcDbSpline
210
0.0
220
0.0
230
1.0
 70
     8
 71
     3
 72
    31
 73
    27
 74
     0
 42
0.00000001
 43
0.00000001
 40
0.0
 40
0.0
 40
0.0
 40
0.0
 40
0.0631144583947934
 40
0.12361464576949
 40
0.1809737111859576
 40
0.2352614550083222
 40
0.287100701833872
 40
0.3360307363034437
 40
0.3823823485850663
 40
0.4263340836597074
 40
0.4682106947981602
 40
0.5082496012618052
 40
0.546628336606585
 40
0.5836495392304464
 40
0.6189943150301619
 40
0.6535830186205964
 40
0.6871561361903313
 40
0.7204221919788077
 40
0.7532302188118172
 40
0.7862601560779
 40
0.8195039834988844
 40
0.8535452747120187
 40
0.8883082803397302
 40
0.9239958607406948
 40
0.961350304754645
 40
1.0
 40
1.0
 40
1.0
 40
1.0
 10
219.1584597522169
 20
105.2142482982826
 30
0.0
 10
219.1587251452052
 20
105.2436112034847
 30
0.0
 10
219.1592449383094
 20
105.3011207697179
 30
0.0
 10
219.1624690460747
 20
105.3852675963642
 30
0.0
 10
219.1680980769796
 20
105.4651783534035
 30
0.0
 10
219.1765006704823
 20
105.5407836420775
 30
0.0
 10
219.1864509154247
 20
105.6122541183798
 30
0.0
 10
219.1993862966234
 20
105.6794877865702
 30
0.0
 10
219.2139404809672
 20
105.7426354962147
 30
0.0
 10
219.2314028903905
 20
105.8016314260557
 30
0.0
 10
219.250588361736
 20
105.856982833696
 30
0.0
 10
219.2723548910541
 20
105.9086009229813
 30
0.0
 10
219.2968451892482
 20
105.9564309665874
 30
0.0
 10
219.3228557103841
 20
106.0009689888931
 30
0.0
 10
219.3517557016174
 20
106.0415222403523
 30
0.0
 10
219.3818008174265
 20
106.0792288112154
 30
0.0
 10
219.4151745574369
 20
106.1127058544011
 30
0.0
 10
219.4504891699474
 20
106.1428147372644
 30
0.0
 10
219.4882646717831
 20
106.1693840717371
 30
0.0
 10
219.5283011930356
 20
106.1923102026705
 30
0.0
 10
219.5704446840625
 20
106.2125523232207
 30
0.0
 10
219.6154983531974
 20
106.2277905862829
 30
0.0
 10
219.6625268949282
 20
106.2402130010453
 30
0.0
 10
219.7118923105809
 20
106.2493510799663
 30
0.0
 10
219.763649000082
 20
106.2547382858836
 30
0.0
 10
219.7990174220687
 20
106.2552895082496
 30
0.0
 10
219.8170030047543
 20
106.2555698163574
 30
0.0
  0
SPLINE
  5
195
330
1F
100
AcDbEntity
  8
0
  6
Continuous
 62
     7
370
     0
100
AcDbSpline
210
0.0
220
0.0
230
1.0
 70
     8
 71
     3
 72
    15
 73
    11
 74
     0
 42
0.00000001
 43
0.00000001
 40
0.0
 40
0.0
 40
0.0
 40
0.0
 40
0.0974206681772145
 40
0.2008855880393207
 40
0.3111719701726504
 40
0.4297979458253723
 40
0.5577399263645877
 40
0.6947152693641585
 40
0.8421299102060552
 40
1.0
 40
1.0
 40
1.0
 40
1.0
 10
219.3580806756422
 20
104.3725477036332
 30
0.0
 10
219.3417969187236
 20
104.3960372618812
 30
0.0
 10
219.3082191149034
 20
104.4444737364992
 30
0.0
 10
219.2689192068939
 20
104.5270624187819
 30
0.0
 10
219.2338629931538
 20
104.6179809622816
 30
0.0
 10
219.2063502927419
 20
104.7190131780435
 30
0.0
 10
219.1848009899728
 20
104.8293549638419
 30
0.0
 10
219.1692370131766
 20
104.9492228337649
 30
0.0
 10
219.1604293345679
 20
105.0785650009381
 30
0.0
 10
219.1591311003901
 20
105.1679995421638
 30
0.0
 10
219.1584597522169
 20
105.2142482982826
 30
0.0
  0
SPLINE
  5
196
330
1F
100
AcDbEntity
  8
0
  6
Continuous
 62
     7
370
     0
100
AcDbSpline
210
0.0
220
0.0
230
1.0
 70
     8
 71
     3
 72
    15
 73
    11
 74
     0
 42
0.00000001
 43
0.00000001
 40
0.0
 40
0.0
 40
0.0
 40
0.0
 40
0.1379032299933942
 40
0.2688733426002937
 40
0.3951781273461125
 40
0.5170892381308875
 40
0.6367430265135471
 40
0.7562218164637977
 40
0.87662835946368
 40
1.0
 40
1.0
 40
1.0
 40
1.0
 10
219.8170030047543
 20
104.1745731383392
 30
0.0
 10
219.7932422228165
 20
104.1752509159004
 30
0.0
 10
219.7469152378526
 20
104.1765723955961
 30
0.0
 10
219.679258092267
 20
104.1855510361584
 30
0.0
 10
219.6157582523437
 20
104.2013538651112
 30
0.0
 10
219.5558801332974
 20
104.2225476870358
 30
0.0
 10
219.5002967815581
 20
104.2508956443166
 30
0.0
 10
219.448742808723
 20
104.2853864698465
 30
0.0
 10
219.4001822748739
 20
104.3252176981406
 30
0.0
 10
219.3722278793881
 20
104.3566436229518
 30
0.0
 10
219.3580806756422
 20
104.3725477036332
 30
0.0
  0
LINE
  5
197
330
1F
100
AcDbEntity
  8
0
  6
Continuous
 62
     7
370
     0
100
AcDbLine
 10
222.2667839042
 20
105.0438502317
 30
0.0
 11
223.0306940771
 21
105.0438502317
 31
0.0
  0
LINE
  5
198
330
1F
100
AcDbEntity
  8
0
  6
Continuous
 62
     7
370
     0
100
AcDbLine
 10
222.2667839042
 20
104.8067746608
 30
0.0
 11
222.2667839042
 21
105.0438502317
 31
0.0
  0
LINE
  5
199
330
1F
100
AcDbEntity
  8
0
  6
Continuous
 62
     7
370
     0
100
AcDbLine
 10
223.0306940771
 20
104.8067746608
 30
0.0
 11
222.2667839042
 21
104.8067746608
 31
0.0
  0
LINE
  5
19A
330
1F
100
AcDbEntity
  8
0
  6
Continuous
 62
     7
370
     0
100
AcDbLine
 10
223.0306940771
 20
105.0438502317
 30
0.0
 11
223.0306940771
 21
104.8067746608
 31
0.0
  0
SPLINE
  5
19B
330
1F
100
AcDbEntity
  8
0
  6
Continuous
 62
     7
370
     0
100
AcDbSpline
210
0.0
220
0.0
230
1.0
 70
     8
 71
     3
 72
    15
 73
    11
 74
     0
 42
0.00000001
 43
0.00000001
 40
0.0
 40
0.0
 40
0.0
 40
0.0
 40
0.1324616222426389
 40
0.26164950103549
 40
0.387546698416366
 40
0.5107816292933473
 40
0.6326753605997105
 40
0.7546603541381371
 40
0.8765227798028643
 40
1.0
 40
1.0
 40
1.0
 40
1.0
 10
226.1653599592147
 20
104.9055561486557
 30
0.0
 10
226.1648935535555
 20
104.8827620960687
 30
0.0
 10
226.1639722692925
 20
104.8377373380673
 30
0.0
 10
226.1564221542134
 20
104.7713850337379
 30
0.0
 10
226.1439851339746
 20
104.7074493658876
 30
0.0
 10
226.1273353957171
 20
104.6457410013407
 30
0.0
 10
226.1048393649492
 20
104.5866103958713
 30
0.0
 10
226.0775537852567
 20
104.529866552829
 30
0.0
 10
226.0460783386218
 20
104.4749173694264
 30
0.0
 10
226.0208366638257
 20
104.4410443692356
 30
0.0
 10
226.0081327576714
 20
104.4239963952377
 30
0.0
  0
SPLINE
  5
19C
330
1F
100
AcDbEntity
  8
0
  6
Continuous
 62
     7
370
     0
100
AcDbSpline
210
0.0
220
0.0
230
1.0
 70
     8
 71
     3
 72
    23
 73
    19
 74
     0
 42
0.00000001
 43
0.00000001
 40
0.0
 40
0.0
 40
0.0
 40
0.0
 40
0.0619974190757217
 40
0.1220879540822929
 40
0.1813753107870032
 40
0.2395080083953659
 40
0.2978356978967512
 40
0.3568799706531182
 40
0.4172818251154283
 40
0.4796404090798161
 40
0.5425000674783564
 40
0.6049624196481904
 40
0.6669910330782645
 40
0.7302162430101636
 40
0.794172863251256
 40
0.8604581431502615
 40
0.9285781799847829
 40
1.0
 40
1.0
 40
1.0
 40
1.0
 10
225.5623812936102
 20
105.5706848337185
 30
0.0
 10
225.5831265136792
 20
105.5701412924959
 30
0.0
 10
225.6239788832289
 20
105.5690709280064
 30
0.0
 10
225.6841762643072
 20
105.5602765360019
 30
0.0
 10
225.7417350869078
 20
105.5453474725676
 30
0.0
 10
225.7971068376208
 20
105.5252402006484
 30
0.0
 10
225.849561375293
 20
105.498584576867
 30
0.0
 10
225.8996300266614
 20
105.4663102764648
 30
0.0
 10
225.947110647258
 20
105.4281512714147
 30
0.0
 10
225.991734815474
 20
105.3848275433925
 30
0.0
 10
226.0322107107234
 20
105.3367336507328
 30
0.0
 10
226.0684379580125
 20
105.285438109941
 30
0.0
 10
226.0980263947654
 20
105.2299141254414
 30
0.0
 10
226.1229123008269
 20
105.1716114379574
 30
0.0
 10
226.1416817840344
 20
105.1095729876987
 30
0.0
 10
226.1559284768923
 20
105.0446792269797
 30
0.0
 10
226.1635457105965
 20
104.9761188356435
 30
0.0
 10
226.164745744767
 20
104.9294451688165
 30
0.0
 10
226.1653599592147
 20
104.9055561486557
 30
0.0
  0
SPLINE
  5
19D
330
1F
100
AcDbEntity
  8
0
  6
Continuous
 62
     7
370
     0
100
AcDbSpline
210
0.0
220
0.0
230
1.0
 70
     8
 71
     3
 72
    15
 73
    11
 74
     0
 42
0.00000001
 43
0.00000001
 40
0.0
 40
0.0
 40
0.0
 40
0.0
 40
0.1367294018595732
 40
0.2685149167908296
 40
0.3955294046848086
 40
0.519999953565812
 40
0.6404964768412694
 40
0.7612361017625326
 40
0.880106717175953
 40
1.0
 40
1.0
 40
1.0
 40
1.0
 10
225.1960666093862
 20
105.4336255192841
 30
0.0
 10
225.2106012706066
 20
105.4445325327875
 30
0.0
 10
225.2391450460864
 20
105.4659521819885
 30
0.0
 10
225.2836682195347
 20
105.4939983892241
 30
0.0
 10
225.3288280276497
 20
105.5176394717784
 30
0.0
 10
225.3743615836876
 20
105.5369995304019
 30
0.0
 10
225.4206305802877
 20
105.5520809820132
 30
0.0
 10
225.4673558089064
 20
105.5625588781817
 30
0.0
 10
225.5146963610946
 20
105.5696404569496
 30
0.0
 10
225.5464409935063
 20
105.570335715491
 30
0.0
 10
225.5623812936102
 20
105.5706848337185
 30
0.0
  0
LINE
  5
19E
330
1F
100
AcDbEntity
  8
0
  6
Continuous
 62
     7
370
     0
100
AcDbLine
 10
225.3006103507
 20
105.9658107852
 30
0.0
 11
225.1960666094
 21
105.4336255193
 31
0.0
  0
LINE
  5
19F
330
1F
100
AcDbEntity
  8
0
  6
Continuous
 62
     7
370
     0
100
AcDbLine
 10
226.0599930388
 20
105.9658107852
 30
0.0
 11
225.3006103507
 21
105.9658107852
 31
0.0
  0
LINE
  5
1A0
330
1F
100
AcDbEntity
  8
0
  6
Continuous
 62
     7
370
     0
100
AcDbLine
 10
226.0599930388
 20
106.2292280863
 30
0.0
 11
226.0599930388
 21
105.9658107852
 31
0.0
  0
LINE
  5
1A1
330
1F
100
AcDbEntity
  8
0
  6
Continuous
 62
     7
370
     0
100
AcDbLine
 10
225.0853490251
 20
106.2292280863
 30
0.0
 11
226.0599930388
 21
106.2292280863
 31
0.0
  0
LINE
  5
1A2
330
1F
100
AcDbEntity
  8
0
  6
Continuous
 62
     7
370
     0
100
AcDbLine
 10
224.8746151842
 20
105.1755588822
 30
0.0
 11
225.0853490251
 21
106.2292280863
 31
0.0
  0
LINE
  5
1A3
330
1F
100
AcDbEntity
  8
0
  6
Continuous
 62
     7
370
     0
100
AcDbLine
 10
225.1380324853
 20
105.1492171521
 30
0.0
 11
224.8746151842
 21
105.1755588822
 31
0.0
  0
SPLINE
  5
1A4
330
1F
100
AcDbEntity
  8
0
  6
Continuous
 62
     7
370
     0
100
AcDbSpline
210
0.0
220
0.0
230
1.0
 70
     8
 71
     3
 72
    15
 73
    11
 74
     0
 42
0.00000001
 43
0.00000001
 40
0.0
 40
0.0
 40
0.0
 40
0.0
 40
0.1478596367312524
 40
0.2835613219395479
 40
0.4123693961385312
 40
0.5342363558879448
 40
0.6526916293119828
 40
0.7686630594981232
 40
0.8836524018604038
 40
1.0
 40
1.0
 40
1.0
 40
1.0
 10
225.4895299462982
 20
105.333609262805
 30
0.0
 10
225.4690451774328
 20
105.333010043276
 30
0.0
 10
225.4297600265456
 20
105.3318608758255
 30
0.0
 10
225.3733113046149
 20
105.3221933421169
 30
0.0
 10
225.321923989315
 20
105.3065766729369
 30
0.0
 10
225.2761798860333
 20
105.2833019274534
 30
0.0
 10
225.2353097901575
 20
105.2554964209639
 30
0.0
 10
225.1984646474361
 20
105.224033228959
 30
0.0
 10
225.1653406322461
 20
105.1889336233328
 30
0.0
 10
225.1471707613624
 20
105.1625076943004
 30
0.0
 10
225.1380324852564
 20
105.1492171520945
 30
0.0
  0
SPLINE
  5
1A5
330
1F
100
AcDbEntity
  8
0
  6
Continuous
 62
     7
370
     0
100
AcDbSpline
210
0.0
220
0.0
230
1.0
 70
     8
 71
     3
 72
    23
 73
    19
 74
     0
 42
0.00000001
 43
0.00000001
 40
0.0
 40
0.0
 40
0.0
 40
0.0
 40
0.0728659334565351
 40
0.1418868719641257
 40
0.2074526264147115
 40
0.2704376800000974
 40
0.3316408722476697
 40
0.3901075774931577
 40
0.4480692869488361
 40
0.5055029519245373
 40
0.5624881528337238
 40
0.6190843288847293
 40
0.6764155306922391
 40
0.7354523604507931
 40
0.7962407694486786
 40
0.8604056780892032
 40
0.9283049272851057
 40
1.0
 40
1.0
 40
1.0
 40
1.0
 10
225.9019426581998
 20
104.8899157464079
 30
0.0
 10
225.9016402676098
 20
104.9066653547619
 30
0.0
 10
225.9010514429989
 20
104.9392807269014
 30
0.0
 10
225.8960925791226
 20
104.9867741316021
 30
0.0
 10
225.8877263919622
 20
105.0314323048651
 30
0.0
 10
225.8769013291263
 20
105.0737474577078
 30
0.0
 10
225.8619803453702
 20
105.1130583637521
 30
0.0
 10
225.844283218465
 20
105.1499349927007
 30
0.0
 10
225.8226034942229
 20
105.18359471392
 30
0.0
 10
225.7984833704121
 20
105.2150855692312
 30
0.0
 10
225.7709351438631
 20
105.2433158521162
 30
0.0
 10
225.7395866426643
 20
105.2671527503841
 30
0.0
 10
225.7056676500084
 20
105.288014850277
 30
0.0
 10
225.6684950026355
 20
105.3049327118375
 30
0.0
 10
225.6280468114875
 20
105.3175020472525
 30
0.0
 10
225.584725020128
 20
105.3271730198504
 30
0.0
 10
225.5380801008011
 20
105.3322595554325
 30
0.0
 10
225.5060040663721
 20
105.3331512778295
 30
0.0
 10
225.4895299462982
 20
105.333609262805
 30
0.0
  0
SPLINE
  5
1A6
330
1F
100
AcDbEntity
  8
0
  6
Continuous
 62
     7
370
     0
100
AcDbSpline
210
0.0
220
0.0
230
1.0
 70
     8
 71
     3
 72
    23
 73
    19
 74
     0
 42
0.00000001
 43
0.00000001
 40
0.0
 40
0.0
 40
0.0
 40
0.0
 40
0.065801037609473
 40
0.1286767959489727
 40
0.1886758749524333
 40
0.2475984367338943
 40
0.3048494201188272
 40
0.3617858992828988
 40
0.4195227063685893
 40
0.4786818154207404
 40
0.538769503044019
 40
0.598799056013154
 40
0.6601842815006786
 40
0.7229515306109658
 40
0.7879926891048735
 40
0.8554037684344737
 40
0.9261530612840035
 40
1.0
 40
1.0
 40
1.0
 40
1.0
 10
225.4882951776997
 20
104.4116487092526
 30
0.0
 10
225.5039564567921
 20
104.4120271312177
 30
0.0
 10
225.5345827704079
 20
104.4127671518579
 30
0.0
 10
225.5791382551918
 20
104.4190259491155
 30
0.0
 10
225.6212245190614
 20
104.4293459806973
 30
0.0
 10
225.6606401856455
 20
104.4437880982573
 30
0.0
 10
225.6978473272164
 20
104.4617485803073
 30
0.0
 10
225.7316116195318
 20
104.4850041328616
 30
0.0
 10
225.7637740778935
 20
104.5111456718391
 30
0.0
 10
225.7922650408198
 20
104.5423114034314
 30
0.0
 10
225.8181998218444
 20
104.5762405081233
 30
0.0
 10
225.8405834876377
 20
104.6132755691703
 30
0.0
 10
225.859427371734
 20
104.6528967701821
 30
0.0
 10
225.8752918625016
 20
104.6950965150438
 30
0.0
 10
225.8870066312164
 20
104.7401158762538
 30
0.0
 10
225.8956237898639
 20
104.7877153593952
 30
0.0
 10
225.9011556617273
 20
104.8379252853841
 30
0.0
 10
225.9016766060261
 20
104.8723398414982
 30
0.0
 10
225.9019426581998
 20
104.8899157464079
 30
0.0
  0
SPLINE
  5
1A7
330
1F
100
AcDbEntity
  8
0
  6
Continuous
 62
     7
370
     0
100
AcDbSpline
210
0.0
220
0.0
230
1.0
 70
     8
 71
     3
 72
    23
 73
    19
 74
     0
 42
0.00000001
 43
0.00000001
 40
0.0
 40
0.0
 40
0.0
 40
0.0
 40
0.0773613371189766
 40
0.1504798322806808
 40
0.2199772368520749
 40
0.2866809968624412
 40
0.3496784941856629
 40
0.410679625017485
 40
0.469427113519291
 40
0.5267557014271297
 40
0.5831419808348368
 40
0.6388244277786262
 40
0.6952634704038116
 40
0.7526958048985345
 40
0.8108491833348943
 40
0.8713563036360842
 40
0.9344364309841278
 40
1.0
 40
1.0
 40
1.0
 40
1.0
 10
225.1116907551549
 20
104.7804329306736
 30
0.0
 10
225.114298999985
 20
104.7655908114533
 30
0.0
 10
225.1193724418255
 20
104.7367205812566
 30
0.0
 10
225.1290404459766
 20
104.6949300667326
 30
0.0
 10
225.141596431307
 20
104.6561055106425
 30
0.0
 10
225.1557044631593
 20
104.6199106701556
 30
0.0
 10
225.1724742390942
 20
104.5867282603895
 30
0.0
 10
225.1906444302562
 20
104.5560343484523
 30
0.0
 10
225.2120724572925
 20
104.5289184725338
 30
0.0
 10
225.2346011506587
 20
104.5039624467494
 30
0.0
 10
225.2593281130517
 20
104.4819717745079
 30
0.0
 10
225.2864919411448
 20
104.4634328791705
 30
0.0
 10
225.3153347463266
 20
104.4472588155922
 30
0.0
 10
225.3462078230915
 20
104.4340162109002
 30
0.0
 10
225.3791584880256
 20
104.4243233216857
 30
0.0
 10
225.4137673672239
 20
104.4166579103132
 30
0.0
 10
225.4504801126211
 20
104.4127953456753
 30
0.0
 10
225.4755289682365
 20
104.4120358089633
 30
0.0
 10
225.4882951776997
 20
104.4116487092526
 30
0.0
  0
LINE
  5
1A8
330
1F
100
AcDbEntity
  8
0
  6
Continuous
 62
     7
370
     0
100
AcDbLine
 10
224.8482734541
 20
104.7540912006
 30
0.0
 11
225.1116907552
 21
104.7804329307
 31
0.0
  0
SPLINE
  5
1A9
330
1F
100
AcDbEntity
  8
0
  6
Continuous
 62
     7
370
     0
100
AcDbSpline
210
0.0
220
0.0
230
1.0
 70
     8
 71
     3
 72
    23
 73
    19
 74
     0
 42
0.00000001
 43
0.00000001
 40
0.0
 40
0.0
 40
0.0
 40
0.0
 40
0.0692980234597531
 40
0.135560844101282
 40
0.1996709556470566
 40
0.2617162384956088
 40
0.3226619299471025
 40
0.3829069237782243
 40
0.4430320330728903
 40
0.5035007873501627
 40
0.5637242810171079
 40
0.6239800220534739
 40
0.6836293869955231
 40
0.7438482724857304
 40
0.8051918462295101
 40
0.8676487429597673
 40
0.9327780842312611
 40
1.0
 40
1.0
 40
1.0
 40
1.0
 10
225.4866488195684
 20
104.1745731383392
 30
0.0
 10
225.4645378066663
 20
104.1750216566316
 30
0.0
 10
225.4212842270794
 20
104.1758990484427
 30
0.0
 10
225.3579532907641
 20
104.1835266772743
 30
0.0
 10
225.2977180813604
 20
104.1956900556665
 30
0.0
 10
225.2405597281625
 20
104.2131361056362
 30
0.0
 10
225.1863060283901
 20
104.2351808224459
 30
0.0
 10
225.1355876106549
 20
104.2631851718334
 30
0.0
 10
225.0875243114689
 20
104.2952204032956
 30
0.0
 10
225.0431733632352
 20
104.3322735164088
 30
0.0
 10
225.0027638748266
 20
104.3736019824759
 30
0.0
 10
224.9665561525329
 20
104.4183301403728
 30
0.0
 10
224.9350401854853
 20
104.466487156122
 30
0.0
 10
224.9082311848192
 20
104.5177848688183
 30
0.0
 10
224.8858871207289
 20
104.5721740825295
 30
0.0
 10
224.8687930282767
 20
104.630026024406
 30
0.0
 10
224.8552530845149
 20
104.6907730777942
 30
0.0
 10
224.8506243919867
 20
104.7327638575425
 30
0.0
 10
224.8482734541399
 20
104.7540912005721
 30
0.0
  0
SPLINE
  5
1AA
330
1F
100
AcDbEntity
  8
0
  6
Continuous
 62
     7
370
     0
100
AcDbSpline
210
0.0
220
0.0
230
1.0
 70
     8
 71
     3
 72
    15
 73
    11
 74
     0
 42
0.00000001
 43
0.00000001
 40
0.0
 40
0.0
 40
0.0
 40
0.0
 40
0.1278926194654207
 40
0.2515785135038573
 40
0.3727928197023036
 40
0.4927776986078534
 40
0.6135900692425711
 40
0.7378086492801457
 40
0.8661799015391679
 40
1.0
 40
1.0
 40
1.0
 40
1.0
 10
226.0081327576714
 20
104.4239963952377
 30
0.0
 10
225.9919928010826
 20
104.4040960443127
 30
0.0
 10
225.9602437736282
 20
104.3649499174693
 30
0.0
 10
225.9052706791597
 20
104.3141405878221
 30
0.0
 10
225.8461738232
 20
104.2709596502242
 30
0.0
 10
225.7826015131814
 20
104.2358782678043
 30
0.0
 10
225.7149805305952
 20
104.207687406364
 30
0.0
 10
225.6424801702069
 20
104.188927446631
 30
0.0
 10
225.5659764741459
 20
104.1763293905788
 30
0.0
 10
225.5134552024853
 20
104.1751666106949
 30
0.0
 10
225.4866488195684
 20
104.1745731383392
 30
0.0
  0
LINE
  5
1AB
330
1F
100
AcDbEntity
  8
0
  6
Continuous
 62
     7
370
     0
100
AcDbLine
 10
227.9565976061
 20
105.0438502317
 30
0.0
 11
228.7205077791
 21
105.0438502317
 31
0.0
  0
LINE
  5
1AC
330
1F
100
AcDbEntity
  8
0
  6
Continuous
 62
     7
370
     0
100
AcDbLine
 10
227.9565976061
 20
104.8067746608
 30
0.0
 11
227.9565976061
 21
105.0438502317
 31
0.0
  0
LINE
  5
1AD
330
1F
100
AcDbEntity
  8
0
  6
Continuous
 62
     7
370
     0
100
AcDbLine
 10
228.7205077791
 20
104.8067746608
 30
0.0
 11
227.9565976061
 21
104.8067746608
 31
0.0
  0
LINE
  5
1AE
330
1F
100
AcDbEntity
  8
0
  6
Continuous
 62
     7
370
     0
100
AcDbLine
 10
228.7205077791
 20
105.0438502317
 30
0.0
 11
228.7205077791
 21
104.8067746608
 31
0.0
  0
SPLINE
  5
1AF
330
1F
100
AcDbEntity
  8
0
  6
Continuous
 62
     7
370
     0
100
AcDbSpline
210
0.0
220
0.0
230
1.0
 70
     8
 71
     3
 72
    31
 73
    27
 74
     0
 42
0.00000001
 43
0.00000001
 40
0.0
 40
0.0
 40
0.0
 40
0.0
 40
0.0628739462114323
 40
0.1228366299919128
 40
0.1796565674430313
 40
0.233960012230862
 40
0.2855950186955588
 40
0.3345131060783805
 40
0.3809048259061761
 40
0.4248945919393346
 40
0.466529034765487
 40
0.5064882940692461
 40
0.545031553644754
 40
0.581831179823134
 40
0.6174482799494426
 40
0.6520669127690459
 40
0.6858797142465098
 40
0.7191745547913915
 40
0.752181646206392
 40
0.7852401639180906
 40
0.8186564497770836
 40
0.852547740653311
 40
0.8876263422585193
 40
0.9236350780687504
 40
0.9610218444769894
 40
0.9999999999999999
 40
0.9999999999999999
 40
0.9999999999999999
 40
0.9999999999999999
 10
232.6190838340812
 20
105.2142482982826
 30
0.0
 10
232.6188134698452
 20
105.1850233149396
 30
0.0
 10
232.6182852600918
 20
105.1279265573519
 30
0.0
 10
232.6151475438155
 20
105.0444544464732
 30
0.0
 10
232.6091793243386
 20
104.9651465771906
 30
0.0
 10
232.6018353212328
 20
104.8898212782501
 30
0.0
 10
232.5907253828163
 20
104.8186796327481
 30
0.0
 10
232.5787538222261
 20
104.7514193786544
 30
0.0
 10
232.5639479589008
 20
104.6883459367582
 30
0.0
 10
232.5466729924517
 20
104.6294316635953
 30
0.0
 10
232.5272174575118
 20
104.5743650417056
 30
0.0
 10
232.5058814528708
 20
104.5227299081723
 30
0.0
 10
232.4822497790672
 20
104.4745615459328
 30
0.0
 10
232.4556190682359
 20
104.4303297650328
 30
0.0
 10
232.4272077960368
 20
104.3894474626347
 30
0.0
 10
232.3968078801083
 20
104.351761280032
 30
0.0
 10
232.3637748066428
 20
104.3178136303233
 30
0.0
 10
232.3281419544703
 20
104.2877950579058
 30
0.0
 10
232.290631684149
 20
104.2607545543515
 30
0.0
 10
232.2504978267837
 20
104.2376020732888
 30
0.0
 10
232.2079160420126
 20
104.218420644868
 30
0.0
 10
232.1631708351365
 20
104.2020214765297
 30
0.0
 10
232.1158082014794
 20
104.1900051278331
 30
0.0
 10
232.0662016383626
 20
104.1808068006745
 30
0.0
 10
232.0141683689844
 20
104.1753901595266
 30
0.0
 10
231.9786631449897
 20
104.174849236217
 30
0.0
 10
231.9605405815438
 20
104.1745731383392
 30
0.0
  0
SPLINE
  5
1B0
330
1F
100
AcDbEntity
  8
0
  6
Continuous
 62
     7
370
     0
100
AcDbSpline
210
0.0
220
0.0
230
1.0
 70
     8
 71
     3
 72
    27
 73
    23
 74
     0
 42
0.00000001
 43
0.00000001
 40
0.0
 40
0.0
 40
0.0
 40
0.0
 40
0.0567243372181507
 40
0.111437235737011
 40
0.1643678222229012
 40
0.2164353724620905
 40
0.2676414903219251
 40
0.3173597799690278
 40
0.3674730633322807
 40
0.4182103970528084
 40
0.4714042826470199
 40
0.5279657201290492
 40
0.588061115823214
 40
0.6521342629937146
 40
0.6863448363353055
 40
0.7232636803169652
 40
0.7626102507715419
 40
0.8047389366452181
 40
0.84943033879095
 40
0.8967112583864925
 40
0.9468896380534765
 40
1.0
 40
1.0
 40
1.0
 40
1.0
 10
231.9605405815438
 20
106.2555698163574
 30
0.0
 10
231.9869277706531
 20
106.2547940516726
 30
0.0
 10
232.0387664620759
 20
106.2532700308325
 30
0.0
 10
232.1144512192539
 20
106.2408403934071
 30
0.0
 10
232.1857792248991
 20
106.2195775828996
 30
0.0
 10
232.2527041377258
 20
106.1908931342529
 30
0.0
 10
232.3140818867174
 20
106.1544583636751
 30
0.0
 10
232.3688948035506
 20
106.1101663490265
 30
0.0
 10
232.4165516423793
 20
106.0584821477142
 30
0.0
 10
232.4565323025517
 20
105.9987933188996
 30
0.0
 10
232.4914793902699
 20
105.9327464790871
 30
0.0
 10
232.5225256158451
 20
105.8600451856945
 30
0.0
 10
232.5505905020197
 20
105.780770908731
 30
0.0
 10
232.5705059562034
 20
105.7098093640557
 30
0.0
 10
232.5847116333202
 20
105.6485528407604
 30
0.0
 10
232.5941146628865
 20
105.59803019318
 30
0.0
 10
232.6019210625408
 20
105.5435159720111
 30
0.0
 10
232.6079018196708
 20
105.4851420618296
 30
0.0
 10
232.6128088897825
 20
105.42297393417
 30
0.0
 10
232.6165983951406
 20
105.3569728819668
 30
0.0
 10
232.6185219571148
 20
105.2869739468192
 30
0.0
 10
232.6188930306278
 20
105.23894463879
 30
0.0
 10
232.6190838340812
 20
105.2142482982826
 30
0.0
  0
SPLINE
  5
1B1
330
1F
100
AcDbEntity
  8
0
  6
Continuous
 62
     7
370
     0
100
AcDbSpline
210
0.0
220
0.0
230
1.0
 70
     8
 71
     3
 72
    31
 73
    27
 74
     0
 42
0.00000001
 43
0.00000001
 40
0.0
 40
0.0
 40
0.0
 40
0.0
 40
0.0631144583947934
 40
0.12361464576949
 40
0.1809737111859576
 40
0.2352614550083222
 40
0.287100701833872
 40
0.3360307363034437
 40
0.3823823485850663
 40
0.4263340836597074
 40
0.4682106947981602
 40
0.5082496012618052
 40
0.546628336606585
 40
0.5836495392304464
 40
0.6189943150301619
 40
0.6535830186205964
 40
0.6871561361903313
 40
0.7204221919788073
 40
0.7532302188118167
 40
0.7862601560779001
 40
0.8195039834988846
 40
0.853545274712019
 40
0.8883082803397305
 40
0.9239958607406957
 40
0.9613503047546453
 40
1.0
 40
1.0
 40
1.0
 40
1.0
 10
231.3019973290064
 20
105.2142482982826
 30
0.0
 10
231.3022627219947
 20
105.2436112034847
 30
0.0
 10
231.3027825150989
 20
105.3011207697179
 30
0.0
 10
231.3060066228642
 20
105.3852675963642
 30
0.0
 10
231.3116356537691
 20
105.4651783534035
 30
0.0
 10
231.3200382472718
 20
105.5407836420775
 30
0.0
 10
231.3299884922143
 20
105.6122541183798
 30
0.0
 10
231.3429238734129
 20
105.6794877865702
 30
0.0
 10
231.3574780577567
 20
105.7426354962147
 30
0.0
 10
231.37494046718
 20
105.8016314260557
 30
0.0
 10
231.3941259385255
 20
105.856982833696
 30
0.0
 10
231.4158924678436
 20
105.9086009229812
 30
0.0
 10
231.4403827660377
 20
105.9564309665874
 30
0.0
 10
231.4663932871736
 20
106.0009689888931
 30
0.0
 10
231.4952932784069
 20
106.0415222403523
 30
0.0
 10
231.525338394216
 20
106.0792288112154
 30
0.0
 10
231.5587121342264
 20
106.1127058544011
 30
0.0
 10
231.5940267467369
 20
106.1428147372644
 30
0.0
 10
231.6318022485726
 20
106.1693840717371
 30
0.0
 10
231.6718387698252
 20
106.1923102026705
 30
0.0
 10
231.713982260852
 20
106.2125523232207
 30
0.0
 10
231.759035929987
 20
106.2277905862829
 30
0.0
 10
231.8060644717177
 20
106.2402130010453
 30
0.0
 10
231.8554298873704
 20
106.2493510799663
 30
0.0
 10
231.9071865768716
 20
106.2547382858836
 30
0.0
 10
231.9425549988582
 20
106.2552895082496
 30
0.0
 10
231.9605405815438
 20
106.2555698163574
 30
0.0
  0
SPLINE
  5
1B2
330
1F
100
AcDbEntity
  8
0
  6
Continuous
 62
     7
370
     0
100
AcDbSpline
210
0.0
220
0.0
230
1.0
 70
     8
 71
     3
 72
    15
 73
    11
 74
     0
 42
0.00000001
 43
0.00000001
 40
0.0
 40
0.0
 40
0.0
 40
0.0
 40
0.0974206681772145
 40
0.2008855880393207
 40
0.3111719701726504
 40
0.4297979458253728
 40
0.5577399263645871
 40
0.6947152693641585
 40
0.8421299102060552
 40
1.0
 40
1.0
 40
1.0
 40
1.0
 10
231.5016182524318
 20
104.3725477036332
 30
0.0
 10
231.4853344955131
 20
104.3960372618812
 30
0.0
 10
231.4517566916929
 20
104.4444737364992
 30
0.0
 10
231.4124567836834
 20
104.5270624187819
 30
0.0
 10
231.3774005699433
 20
104.6179809622816
 30
0.0
 10
231.3498878695314
 20
104.7190131780435
 30
0.0
 10
231.3283385667624
 20
104.8293549638419
 30
0.0
 10
231.3127745899661
 20
104.9492228337649
 30
0.0
 10
231.3039669113574
 20
105.0785650009381
 30
0.0
 10
231.3026686771796
 20
105.1679995421638
 30
0.0
 10
231.3019973290064
 20
105.2142482982826
 30
0.0
  0
SPLINE
  5
1B3
330
1F
100
AcDbEntity
  8
0
  6
Continuous
 62
     7
370
     0
100
AcDbSpline
210
0.0
220
0.0
230
1.0
 70
     8
 71
     3
 72
    15
 73
    11
 74
     0
 42
0.00000001
 43
0.00000001
 40
0.0
 40
0.0
 40
0.0
 40
0.0
 40
0.1379032299933935
 40
0.2688733426002931
 40
0.395178127346112
 40
0.5170892381308886
 40
0.6367430265135469
 40
0.7562218164637976
 40
0.8766283594636788
 40
1.0
 40
1.0
 40
1.0
 40
1.0
 10
231.9605405815438
 20
104.1745731383392
 30
0.0
 10
231.9367797996061
 20
104.1752509159004
 30
0.0
 10
231.8904528146421
 20
104.1765723955961
 30
0.0
 10
231.8227956690565
 20
104.1855510361584
 30
0.0
 10
231.7592958291333
 20
104.2013538651112
 30
0.0
 10
231.6994177100869
 20
104.2225476870358
 30
0.0
 10
231.6438343583476
 20
104.2508956443166
 30
0.0
 10
231.5922803855126
 20
104.2853864698465
 30
0.0
 10
231.5437198516634
 20
104.3252176981406
 30
0.0
 10
231.5157654561777
 20
104.3566436229518
 30
0.0
 10
231.5016182524318
 20
104.3725477036332
 30
0.0
  0
CIRCLE
  5
1B4
330
1F
100
AcDbEntity
  8
0
  6
Continuous
 62
     7
370
     0
100
AcDbCircle
 10
223.6892373297
 20
106.8119224806
 30
0.0
 40
25.39999999999998
  0
SPLINE
  5
1B5
330
1F
100
AcDbEntity
  8
0
  6
Continuous
 62
     7
370
     0
100
AcDbSpline
210
0.0
220
0.0
230
1.0
 70
     8
 71
     3
 72
    23
 73
    19
 74
     0
 42
0.00000001
 43
0.00000001
 40
0.0
 40
0.0
 40
0.0
 40
0.0
 40
0.040781845872261
 40
0.0808695887215882
 40
0.1202681657882685
 40
0.1601868504553523
 40
0.2004597376386396
 40
0.242265177897909
 40
0.2864592615494688
 40
0.3329520837492633
 40
0.3844305340495304
 40
0.4433891253601061
 40
0.5116814722136833
 40
0.5890200255490085
 40
0.6762451906507722
 40
0.7737051914728237
 40
0.881567767781983
 40
1.0
 40
1.0
 40
1.0
 40
1.0
 10
231.9605405815438
 20
104.4116487092526
 30
0.0
 10
231.9741462491207
 20
104.4121681372698
 30
0.0
 10
232.0011260171448
 20
104.4131981526901
 30
0.0
 10
232.0408427217727
 20
104.4200589223746
 30
0.0
 10
232.0786811391482
 20
104.4328770210912
 30
0.0
 10
232.1149824773882
 20
104.4496367396415
 30
0.0
 10
232.1495593125485
 20
104.4713445992995
 30
0.0
 10
232.1822298027093
 20
104.4980874646111
 30
0.0
 10
232.2135156629846
 20
104.5294134994296
 30
0.0
 10
232.2435245426666
 20
104.5662830090797
 30
0.0
 10
232.2708465950156
 20
104.6112006060255
 30
0.0
 10
232.2935122101588
 20
104.6665563659906
 30
0.0
 10
232.3129415952403
 20
104.7320751524297
 30
0.0
 10
232.328746777322
 20
104.8082289304791
 30
0.0
 10
232.3407005139359
 20
104.8948785034796
 30
0.0
 10
232.3496506402097
 20
104.992106464363
 30
0.0
 10
232.354916423782
 20
105.1000423793742
 30
0.0
 10
232.3554088302856
 20
105.1755528111779
 30
0.0
 10
232.3556665330662
 20
105.2150714773483
 30
0.0
  0
SPLINE
  5
1B6
330
1F
100
AcDbEntity
  8
0
  6
Continuous
 62
     7
370
     0
100
AcDbSpline
210
0.0
220
0.0
230
1.0
 70
     8
 71
     3
 72
    23
 73
    19
 74
     0
 42
0.00000001
 43
0.00000001
 40
0.0
 40
0.0
 40
0.0
 40
0.0
 40
0.1184055081537695
 40
0.2266543328167021
 40
0.3240923419286021
 40
0.411704803005322
 40
0.4890259050064159
 40
0.5569093973430762
 40
0.6162333444927067
 40
0.6673492812770754
 40
0.7135123932013485
 40
0.7576965045209785
 40
0.7994925114422919
 40
0.8399760647439392
 40
0.8798857418167764
 40
0.9191486593857419
 40
0.9592273564930834
 40
1.0
 40
1.0
 40
1.0
 40
1.0
 10
231.5654146300213
 20
105.2150714773483
 30
0.0
 10
231.5656761824543
 20
105.1755529894581
 30
0.0
 10
231.5661768516639
 20
105.0999058625099
 30
0.0
 10
231.5714076295973
 20
104.9918308903167
 30
0.0
 10
231.5804121985083
 20
104.8943325130868
 30
0.0
 10
231.5923168267577
 20
104.8075457236941
 30
0.0
 10
231.60803575603
 20
104.731353125844
 30
0.0
 10
231.6277727308626
 20
104.6659488817317
 30
0.0
 10
231.6500209958728
 20
104.610547992154
 30
0.0
 10
231.6775528022316
 20
104.5658371085
 30
0.0
 10
231.7076970892853
 20
104.5293912159678
 30
0.0
 10
231.7388190055548
 20
104.4980465697361
 30
0.0
 10
231.7716507421495
 20
104.4714043381516
 30
0.0
 10
231.8059780759559
 20
104.4491901503338
 30
0.0
 10
231.8423336202606
 20
104.4323710268025
 30
0.0
 10
231.8803198332298
 20
104.4201804886145
 30
0.0
 10
231.919944980339
 20
104.4131650210607
 30
0.0
 10
231.9469315060984
 20
104.4121570303806
 30
0.0
 10
231.9605405815438
 20
104.4116487092526
 30
0.0
  0
SPLINE
  5
1B7
330
1F
100
AcDbEntity
  8
0
  6
Continuous
 62
     7
370
     0
100
AcDbSpline
210
0.0
220
0.0
230
1.0
 70
     8
 71
     3
 72
    15
 73
    11
 74
     0
 42
0.00000001
 43
0.00000001
 40
0.0
 40
0.0
 40
0.0
 40
0.0
 40
0.0838881132795467
 40
0.1771540327539705
 40
0.2825136355617234
 40
0.3993998606601634
 40
0.5294908061912208
 40
0.6728021776758331
 40
0.8295357616196704
 40
1.0
 40
1.0
 40
1.0
 40
1.0
 10
231.6843640050109
 20
105.877730625214
 30
0.0
 10
231.6745735806863
 20
105.861362023773
 30
0.0
 10
231.6538982658689
 20
105.8267949839092
 30
0.0
 10
231.6307637907681
 20
105.7667160444199
 30
0.0
 10
231.6103277100104
 20
105.6980572523137
 30
0.0
 10
231.5935020400603
 20
105.6197622422066
 30
0.0
 10
231.5813298482287
 20
105.5319653215335
 30
0.0
 10
231.5717203734418
 20
105.43476844982
 30
0.0
 10
231.5667286089726
 20
105.3280359286048
 30
0.0
 10
231.5658647073708
 20
105.2537652028057
 30
0.0
 10
231.5654146300213
 20
105.2150714773483
 30
0.0
  0
SPLINE
  5
1B8
330
1F
100
AcDbEntity
  8
0
  6
Continuous
 62
     7
370
     0
100
AcDbSpline
210
0.0
220
0.0
230
1.0
 70
     8
 71
     3
 72
    15
 73
    11
 74
     0
 42
0.00000001
 43
0.00000001
 40
0.0
 40
0.0
 40
0.0
 40
0.0
 40
0.1276647678962226
 40
0.2517385630080528
 40
0.3727533493873916
 40
0.4921467589723857
 40
0.6140696213092439
 40
0.7371973244121119
 40
0.8656069906011181
 40
1.0
 40
1.0
 40
1.0
 40
1.0
 10
231.9576594548139
 20
106.0184942454439
 30
0.0
 10
231.9440512340936
 20
106.0181370833655
 30
0.0
 10
231.9172175666246
 20
106.0174328055145
 30
0.0
 10
231.8779295632416
 20
106.0107104805598
 30
0.0
 10
231.8406967839787
 20
105.9994692549163
 30
0.0
 10
231.805092661541
 20
105.9842419232857
 30
0.0
 10
231.7720060338543
 20
105.963748942587
 30
0.0
 10
231.7401247675469
 20
105.9398219289243
 30
0.0
 10
231.7109420577816
 20
105.9106695333809
 30
0.0
 10
231.693356812916
 20
105.8888756581592
 30
0.0
 10
231.6843640050109
 20
105.877730625214
 30
0.0
  0
SPLINE
  5
1B9
330
1F
100
AcDbEntity
  8
0
  6
Continuous
 62
     7
370
     0
100
AcDbSpline
210
0.0
220
0.0
230
1.0
 70
     8
 71
     3
 72
    23
 73
    19
 74
     0
 42
0.00000001
 43
0.00000001
 40
0.0
 40
0.0
 40
0.0
 40
0.0
 40
0.1156291309254414
 40
0.2215410391198767
 40
0.3170478562190417
 40
0.4031508756396168
 40
0.4801812167162793
 40
0.5476493661481897
 40
0.6070358428421808
 40
0.6586524080635068
 40
0.7057228903536459
 40
0.7498040879796477
 40
0.7925868153452742
 40
0.8338739610102598
 40
0.8747683933034333
 40
0.9152226988916381
 40
0.9568807037304797
 40
1.0
 40
1.0
 40
1.0
 40
1.0
 10
232.3556665330662
 20
105.2150714773483
 30
0.0
 10
232.355417081489
 20
105.2537678879646
 30
0.0
 10
232.3549391417069
 20
105.327908746324
 30
0.0
 10
232.3495375463685
 20
105.4339016515225
 30
0.0
 10
232.341072761026
 20
105.5297635582825
 30
0.0
 10
232.3294942794068
 20
105.6155828423932
 30
0.0
 10
232.3141064794819
 20
105.6912663352563
 30
0.0
 10
232.295443177245
 20
105.7569751567412
 30
0.0
 10
232.2732030620294
 20
105.8125691721113
 30
0.0
 10
232.2467596444016
 20
105.8586068243456
 30
0.0
 10
232.2173228296218
 20
105.8963701886786
 30
0.0
 10
232.1865732860055
 20
105.9290576663636
 30
0.0
 10
232.1537422718619
 20
105.9568573012047
 30
0.0
 10
232.1182481204124
 20
105.9791585783667
 30
0.0
 10
232.0812348749142
 20
105.9971504192841
 30
0.0
 10
232.0418520650631
 20
106.009532862371
 30
0.0
 10
232.0004867927572
 20
106.0171402480949
 30
0.0
 10
231.9720983430336
 20
106.0180377562641
 30
0.0
 10
231.9576594548139
 20
106.0184942454439
 30
0.0
  0
SPLINE
  5
1BA
330
1F
100
AcDbEntity
  8
0
  6
Continuous
 62
     7
370
     0
100
AcDbSpline
210
0.0
220
0.0
230
1.0
 70
     8
 71
     3
 72
    23
 73
    19
 74
     0
 42
0.00000001
 43
0.00000001
 40
0.0
 40
0.0
 40
0.0
 40
0.0
 40
0.0407818458722601
 40
0.0808695887215869
 40
0.1202681657882672
 40
0.1601868504553522
 40
0.2004597376386394
 40
0.2422651778979082
 40
0.2864592615494687
 40
0.3329520837492634
 40
0.3844305340495304
 40
0.4433891253601058
 40
0.5116814722136832
 40
0.5890200255490082
 40
0.6762451906507722
 40
0.7737051914728236
 40
0.8815677677819829
 40
1.0
 40
1.0
 40
1.0
 40
1.0
 10
227.0873205127671
 20
104.4116487092526
 30
0.0
 10
227.100926180344
 20
104.4121681372698
 30
0.0
 10
227.1279059483681
 20
104.4131981526901
 30
0.0
 10
227.167622652996
 20
104.4200589223746
 30
0.0
 10
227.2054610703715
 20
104.4328770210912
 30
0.0
 10
227.2417624086115
 20
104.4496367396415
 30
0.0
 10
227.2763392437718
 20
104.4713445992995
 30
0.0
 10
227.3090097339325
 20
104.4980874646111
 30
0.0
 10
227.3402955942079
 20
104.5294134994296
 30
0.0
 10
227.3703044738898
 20
104.5662830090797
 30
0.0
 10
227.3976265262388
 20
104.6112006060255
 30
0.0
 10
227.4202921413821
 20
104.6665563659906
 30
0.0
 10
227.4397215264636
 20
104.7320751524297
 30
0.0
 10
227.4555267085453
 20
104.8082289304791
 30
0.0
 10
227.4674804451592
 20
104.8948785034796
 30
0.0
 10
227.476430571433
 20
104.992106464363
 30
0.0
 10
227.4816963550053
 20
105.1000423793742
 30
0.0
 10
227.4821887615089
 20
105.1755528111779
 30
0.0
 10
227.4824464642895
 20
105.2150714773483
 30
0.0
  0
SPLINE
  5
1BB
330
1F
100
AcDbEntity
  8
0
  6
Continuous
 62
     7
370
     0
100
AcDbSpline
210
0.0
220
0.0
230
1.0
 70
     8
 71
     3
 72
    23
 73
    19
 74
     0
 42
0.00000001
 43
0.00000001
 40
0.0
 40
0.0
 40
0.0
 40
0.0
 40
0.1184055081537695
 40
0.226654332816702
 40
0.324092341928602
 40
0.4117048030053218
 40
0.4890259050064158
 40
0.5569093973430759
 40
0.616233344492707
 40
0.6673492812770753
 40
0.7135123932013475
 40
0.7576965045209778
 40
0.7994925114422909
 40
0.8399760647439392
 40
0.8798857418167761
 40
0.919148659385742
 40
0.959227356493083
 40
1.0
 40
1.0
 40
1.0
 40
1.0
 10
226.6921945612446
 20
105.2150714773483
 30
0.0
 10
226.6924561136776
 20
105.1755529894581
 30
0.0
 10
226.6929567828872
 20
105.0999058625099
 30
0.0
 10
226.6981875608206
 20
104.9918308903167
 30
0.0
 10
226.7071921297316
 20
104.8943325130868
 30
0.0
 10
226.719096757981
 20
104.8075457236941
 30
0.0
 10
226.7348156872533
 20
104.731353125844
 30
0.0
 10
226.7545526620859
 20
104.6659488817317
 30
0.0
 10
226.7768009270961
 20
104.610547992154
 30
0.0
 10
226.8043327334549
 20
104.5658371085
 30
0.0
 10
226.8344770205086
 20
104.5293912159678
 30
0.0
 10
226.8655989367781
 20
104.4980465697361
 30
0.0
 10
226.8984306733728
 20
104.4714043381516
 30
0.0
 10
226.9327580071792
 20
104.4491901503338
 30
0.0
 10
226.9691135514839
 20
104.4323710268025
 30
0.0
 10
227.0070997644531
 20
104.4201804886145
 30
0.0
 10
227.0467249115623
 20
104.4131650210607
 30
0.0
 10
227.0737114373217
 20
104.4121570303806
 30
0.0
 10
227.0873205127671
 20
104.4116487092526
 30
0.0
  0
SPLINE
  5
1BC
330
1F
100
AcDbEntity
  8
0
  6
Continuous
 62
     7
370
     0
100
AcDbSpline
210
0.0
220
0.0
230
1.0
 70
     8
 71
     3
 72
    15
 73
    11
 74
     0
 42
0.00000001
 43
0.00000001
 40
0.0
 40
0.0
 40
0.0
 40
0.0
 40
0.0838881132795455
 40
0.1771540327539697
 40
0.2825136355617227
 40
0.3993998606601628
 40
0.5294908061912204
 40
0.6728021776758328
 40
0.8295357616196701
 40
1.0
 40
1.0
 40
1.0
 40
1.0
 10
226.8111439362342
 20
105.877730625214
 30
0.0
 10
226.8013535119095
 20
105.861362023773
 30
0.0
 10
226.7806781970922
 20
105.8267949839092
 30
0.0
 10
226.7575437219914
 20
105.7667160444199
 30
0.0
 10
226.7371076412337
 20
105.6980572523137
 30
0.0
 10
226.7202819712836
 20
105.6197622422066
 30
0.0
 10
226.708109779452
 20
105.5319653215335
 30
0.0
 10
226.6985003046651
 20
105.43476844982
 30
0.0
 10
226.6935085401959
 20
105.3280359286048
 30
0.0
 10
226.692644638594
 20
105.2537652028057
 30
0.0
 10
226.6921945612446
 20
105.2150714773483
 30
0.0
  0
SPLINE
  5
1BD
330
1F
100
AcDbEntity
  8
0
  6
Continuous
 62
     7
370
     0
100
AcDbSpline
210
0.0
220
0.0
230
1.0
 70
     8
 71
     3
 72
    15
 73
    11
 74
     0
 42
0.00000001
 43
0.00000001
 40
0.0
 40
0.0
 40
0.0
 40
0.0
 40
0.1276647678962239
 40
0.2517385630080486
 40
0.3727533493873887
 40
0.4921467589723853
 40
0.6140696213092445
 40
0.7371973244121091
 40
0.8656069906011172
 40
1.0
 40
1.0
 40
1.0
 40
1.0
 10
227.0844393860372
 20
106.0184942454439
 30
0.0
 10
227.0708311653169
 20
106.0181370833655
 30
0.0
 10
227.0439974978478
 20
106.0174328055145
 30
0.0
 10
227.0047094944649
 20
106.0107104805598
 30
0.0
 10
226.967476715202
 20
105.9994692549163
 30
0.0
 10
226.9318725927643
 20
105.9842419232857
 30
0.0
 10
226.8987859650776
 20
105.963748942587
 30
0.0
 10
226.8669046987702
 20
105.9398219289243
 30
0.0
 10
226.8377219890049
 20
105.9106695333809
 30
0.0
 10
226.8201367441393
 20
105.8888756581592
 30
0.0
 10
226.8111439362342
 20
105.877730625214
 30
0.0
  0
SPLINE
  5
1BE
330
1F
100
AcDbEntity
  8
0
  6
Continuous
 62
     7
370
     0
100
AcDbSpline
210
0.0
220
0.0
230
1.0
 70
     8
 71
     3
 72
    23
 73
    19
 74
     0
 42
0.00000001
 43
0.00000001
 40
0.0
 40
0.0
 40
0.0
 40
0.0
 40
0.1156291309254413
 40
0.2215410391198767
 40
0.3170478562190416
 40
0.4031508756396165
 40
0.4801812167162793
 40
0.5476493661481897
 40
0.6070358428421808
 40
0.6586524080635069
 40
0.7057228903536454
 40
0.7498040879796471
 40
0.7925868153452743
 40
0.8338739610102602
 40
0.8747683933034326
 40
0.9152226988916381
 40
0.9568807037304797
 40
1.0
 40
1.0
 40
1.0
 40
1.0
 10
227.4824464642895
 20
105.2150714773483
 30
0.0
 10
227.4821970127123
 20
105.2537678879646
 30
0.0
 10
227.4817190729302
 20
105.327908746324
 30
0.0
 10
227.4763174775918
 20
105.4339016515225
 30
0.0
 10
227.4678526922493
 20
105.5297635582825
 30
0.0
 10
227.4562742106301
 20
105.6155828423932
 30
0.0
 10
227.4408864107052
 20
105.6912663352563
 30
0.0
 10
227.4222231084683
 20
105.7569751567412
 30
0.0
 10
227.3999829932526
 20
105.8125691721113
 30
0.0
 10
227.3735395756249
 20
105.8586068243456
 30
0.0
 10
227.3441027608451
 20
105.8963701886786
 30
0.0
 10
227.3133532172288
 20
105.9290576663636
 30
0.0
 10
227.2805222030852
 20
105.9568573012047
 30
0.0
 10
227.2450280516356
 20
105.9791585783667
 30
0.0
 10
227.2080148061374
 20
105.9971504192841
 30
0.0
 10
227.1686319962864
 20
106.009532862371
 30
0.0
 10
227.1272667239805
 20
106.0171402480949
 30
0.0
 10
227.0988782742569
 20
106.0180377562641
 30
0.0
 10
227.0844393860372
 20
106.0184942454439
 30
0.0
  0
SPLINE
  5
1BF
330
1F
100
AcDbEntity
  8
0
  6
Continuous
 62
     7
370
     0
100
AcDbSpline
210
0.0
220
0.0
230
1.0
 70
     8
 71
     3
 72
    15
 73
    11
 74
     0
 42
0.00000001
 43
0.00000001
 40
0.0
 40
0.0
 40
0.0
 40
0.0
 40
0.1531481085926319
 40
0.2994334688329067
 40
0.4364263514567512
 40
0.5656705729563586
 40
0.6865083102878727
 40
0.7992685160630042
 40
0.9033947408013441
 40
1.0
 40
1.0
 40
1.0
 40
1.0
 10
226.7642227294909
 20
108.7712050410502
 30
0.0
 10
226.7565699759907
 20
108.7920701163913
 30
0.0
 10
226.7416073979495
 20
108.8328652783052
 30
0.0
 10
226.719293686253
 20
108.8921372047489
 30
0.0
 10
226.6989082388185
 20
108.9484242588755
 30
0.0
 10
226.6789186335997
 20
109.0009193649522
 30
0.0
 10
226.6608736599215
 20
109.0503850671588
 30
0.0
 10
226.644241145152
 20
109.096487247082
 30
0.0
 10
226.6277917283853
 20
109.1389054725034
 30
0.0
 10
226.6179202019884
 20
109.1663120168197
 30
0.0
 10
226.6131693709401
 20
109.1795018576234
 30
0.0
  0
LINE
  5
1C0
330
1F
100
AcDbEntity
  8
0
  6
Continuous
 62
     7
370
     0
100
AcDbLine
 10
226.9638436529
 20
108.231199574
 30
0.0
 11
226.7642227295
 21
108.7712050411
 31
0.0
  0
LINE
  5
1C1
330
1F
100
AcDbEntity
  8
0
  6
Continuous
 62
     7
370
     0
100
AcDbLine
 10
226.262495089
 20
108.231199574
 30
0.0
 11
226.9638436529
 21
108.231199574
 31
0.0
  0
LINE
  5
1C2
330
1F
100
AcDbEntity
  8
0
  6
Continuous
 62
     7
370
     0
100
AcDbLine
 10
226.4728173402
 20
108.8000163083
 30
0.0
 11
226.262495089
 21
108.231199574
 31
0.0
  0
SPLINE
  5
1C3
330
1F
100
AcDbEntity
  8
0
  6
Continuous
 62
     7
370
     0
100
AcDbSpline
210
0.0
220
0.0
230
1.0
 70
     8
 71
     3
 72
    11
 73
     7
 74
     0
 42
0.00000001
 43
0.00000001
 40
0.0
 40
0.0
 40
0.0
 40
0.0
 40
0.247294050035337
 40
0.4956077709090489
 40
0.746359172773196
 40
1.0
 40
1.0
 40
1.0
 40
1.0
 10
226.6131693709401
 20
109.1795018576234
 30
0.0
 10
226.605310579392
 20
109.1469768717476
 30
0.0
 10
226.5895605920362
 20
109.0817927892901
 30
0.0
 10
226.5565839531718
 20
108.9862893639206
 30
0.0
 10
226.5188598236353
 20
108.891659360483
 30
0.0
 10
226.4882233353746
 20
108.8306804322404
 30
0.0
 10
226.4728173402431
 20
108.8000163083487
 30
0.0
  0
SPLINE
  5
1C4
330
1F
100
AcDbEntity
  8
0
  6
Continuous
 62
     7
370
     0
100
AcDbSpline
210
0.0
220
0.0
230
1.0
 70
     8
 71
     3
 72
    23
 73
    19
 74
     0
 42
0.00000001
 43
0.00000001
 40
0.0
 40
0.0
 40
0.0
 40
0.0
 40
0.1156291309254414
 40
0.2215410391198768
 40
0.3170478562190417
 40
0.4031508756396167
 40
0.4801812167162795
 40
0.5476493661481898
 40
0.6070358428421809
 40
0.6586524080635071
 40
0.7057228903536458
 40
0.7498040879796471
 40
0.7925868153452744
 40
0.8338739610102605
 40
0.8747683933034328
 40
0.9152226988916382
 40
0.95688070373048
 40
1.0
 40
1.0
 40
1.0
 40
1.0
 10
224.32143885211
 20
105.2150714773483
 30
0.0
 10
224.3211894005328
 20
105.2537678879646
 30
0.0
 10
224.3207114607507
 20
105.327908746324
 30
0.0
 10
224.3153098654123
 20
105.4339016515225
 30
0.0
 10
224.3068450800698
 20
105.5297635582825
 30
0.0
 10
224.2952665984506
 20
105.6155828423932
 30
0.0
 10
224.2798787985257
 20
105.6912663352563
 30
0.0
 10
224.2612154962889
 20
105.7569751567412
 30
0.0
 10
224.2389753810732
 20
105.8125691721113
 30
0.0
 10
224.2125319634454
 20
105.8586068243456
 30
0.0
 10
224.1830951486656
 20
105.8963701886786
 30
0.0
 10
224.1523456050493
 20
105.9290576663636
 30
0.0
 10
224.1195145909057
 20
105.9568573012047
 30
0.0
 10
224.0840204394562
 20
105.9791585783667
 30
0.0
 10
224.047007193958
 20
105.9971504192841
 30
0.0
 10
224.0076243841069
 20
106.009532862371
 30
0.0
 10
223.966259111801
 20
106.0171402480949
 30
0.0
 10
223.9378706620774
 20
106.0180377562641
 30
0.0
 10
223.9234317738577
 20
106.0184942454439
 30
0.0
  0
SPLINE
  5
1C5
330
1F
100
AcDbEntity
  8
0
  6
Continuous
 62
     7
370
     0
100
AcDbSpline
210
0.0
220
0.0
230
1.0
 70
     8
 71
     3
 72
    23
 73
    19
 74
     0
 42
0.00000001
 43
0.00000001
 40
0.0
 40
0.0
 40
0.0
 40
0.0
 40
0.1184055081537694
 40
0.2266543328167019
 40
0.324092341928602
 40
0.4117048030053217
 40
0.4890259050064157
 40
0.5569093973430758
 40
0.6162333444927071
 40
0.6673492812770747
 40
0.7135123932013474
 40
0.7576965045209781
 40
0.799492511442291
 40
0.8399760647439393
 40
0.8798857418167761
 40
0.9191486593857416
 40
0.959227356493083
 40
1.0
 40
1.0
 40
1.0
 40
1.0
 10
223.5311869490652
 20
105.2150714773483
 30
0.0
 10
223.5314485014981
 20
105.1755529894581
 30
0.0
 10
223.5319491707077
 20
105.0999058625099
 30
0.0
 10
223.5371799486411
 20
104.9918308903167
 30
0.0
 10
223.5461845175521
 20
104.8943325130868
 30
0.0
 10
223.5580891458015
 20
104.8075457236941
 30
0.0
 10
223.5738080750738
 20
104.731353125844
 30
0.0
 10
223.5935450499064
 20
104.6659488817317
 30
0.0
 10
223.6157933149166
 20
104.610547992154
 30
0.0
 10
223.6433251212754
 20
104.5658371085
 30
0.0
 10
223.6734694083291
 20
104.5293912159678
 30
0.0
 10
223.7045913245986
 20
104.4980465697361
 30
0.0
 10
223.7374230611933
 20
104.4714043381516
 30
0.0
 10
223.7717503949997
 20
104.4491901503338
 30
0.0
 10
223.8081059393044
 20
104.4323710268025
 30
0.0
 10
223.8460921522736
 20
104.4201804886145
 30
0.0
 10
223.8857172993827
 20
104.4131650210607
 30
0.0
 10
223.9127038251422
 20
104.4121570303806
 30
0.0
 10
223.9263129005876
 20
104.4116487092526
 30
0.0
  0
SPLINE
  5
1C6
330
1F
100
AcDbEntity
  8
0
  6
Continuous
 62
     7
370
     0
100
AcDbSpline
210
0.0
220
0.0
230
1.0
 70
     8
 71
     3
 72
    15
 73
    11
 74
     0
 42
0.00000001
 43
0.00000001
 40
0.0
 40
0.0
 40
0.0
 40
0.0
 40
0.0838881132795456
 40
0.1771540327539697
 40
0.2825136355617227
 40
0.3993998606601629
 40
0.5294908061912204
 40
0.6728021776758328
 40
0.82953576161967
 40
1.0
 40
1.0
 40
1.0
 40
1.0
 10
223.6501363240547
 20
105.877730625214
 30
0.0
 10
223.64034589973
 20
105.861362023773
 30
0.0
 10
223.6196705849127
 20
105.8267949839092
 30
0.0
 10
223.5965361098119
 20
105.7667160444199
 30
0.0
 10
223.5761000290542
 20
105.6980572523137
 30
0.0
 10
223.5592743591042
 20
105.6197622422066
 30
0.0
 10
223.5471021672725
 20
105.5319653215335
 30
0.0
 10
223.5374926924856
 20
105.43476844982
 30
0.0
 10
223.5325009280164
 20
105.3280359286048
 30
0.0
 10
223.5316370264145
 20
105.2537652028057
 30
0.0
 10
223.5311869490652
 20
105.2150714773483
 30
0.0
  0
SPLINE
  5
1C7
330
1F
100
AcDbEntity
  8
0
  6
Continuous
 62
     7
370
     0
100
AcDbSpline
210
0.0
220
0.0
230
1.0
 70
     8
 71
     3
 72
    15
 73
    11
 74
     0
 42
0.00000001
 43
0.00000001
 40
0.0
 40
0.0
 40
0.0
 40
0.0
 40
0.1276647678962242
 40
0.2517385630080495
 40
0.3727533493873896
 40
0.4921467589723854
 40
0.6140696213092446
 40
0.7371973244121095
 40
0.8656069906011172
 40
1.0
 40
1.0
 40
1.0
 40
1.0
 10
223.9234317738577
 20
106.0184942454439
 30
0.0
 10
223.9098235531374
 20
106.0181370833655
 30
0.0
 10
223.8829898856683
 20
106.0174328055145
 30
0.0
 10
223.8437018822854
 20
106.0107104805598
 30
0.0
 10
223.8064691030225
 20
105.9994692549163
 30
0.0
 10
223.7708649805848
 20
105.9842419232857
 30
0.0
 10
223.7377783528981
 20
105.963748942587
 30
0.0
 10
223.7058970865907
 20
105.9398219289243
 30
0.0
 10
223.6767143768254
 20
105.9106695333809
 30
0.0
 10
223.6591291319598
 20
105.8888756581592
 30
0.0
 10
223.6501363240547
 20
105.877730625214
 30
0.0
  0
SPLINE
  5
1C8
330
1F
100
AcDbEntity
  8
0
  6
Continuous
 62
     7
370
     0
100
AcDbSpline
210
0.0
220
0.0
230
1.0
 70
     8
 71
     3
 72
    23
 73
    19
 74
     0
 42
0.00000001
 43
0.00000001
 40
0.0
 40
0.0
 40
0.0
 40
0.0
 40
0.0407818458722598
 40
0.0808695887215869
 40
0.1202681657882672
 40
0.1601868504553522
 40
0.2004597376386392
 40
0.2422651778979079
 40
0.2864592615494685
 40
0.3329520837492634
 40
0.3844305340495304
 40
0.4433891253601058
 40
0.5116814722136833
 40
0.5890200255490083
 40
0.6762451906507723
 40
0.7737051914728238
 40
0.881567767781983
 40
1.0
 40
1.0
 40
1.0
 40
1.0
 10
223.9263129005876
 20
104.4116487092526
 30
0.0
 10
223.9399185681645
 20
104.4121681372698
 30
0.0
 10
223.9668983361886
 20
104.4131981526901
 30
0.0
 10
224.0066150408165
 20
104.4200589223746
 30
0.0
 10
224.044453458192
 20
104.4328770210912
 30
0.0
 10
224.080754796432
 20
104.4496367396415
 30
0.0
 10
224.1153316315923
 20
104.4713445992995
 30
0.0
 10
224.148002121753
 20
104.4980874646111
 30
0.0
 10
224.1792879820284
 20
104.5294134994296
 30
0.0
 10
224.2092968617104
 20
104.5662830090797
 30
0.0
 10
224.2366189140594
 20
104.6112006060255
 30
0.0
 10
224.2592845292026
 20
104.6665563659906
 30
0.0
 10
224.2787139142841
 20
104.7320751524297
 30
0.0
 10
224.2945190963658
 20
104.8082289304791
 30
0.0
 10
224.3064728329797
 20
104.8948785034796
 30
0.0
 10
224.3154229592535
 20
104.992106464363
 30
0.0
 10
224.3206887428258
 20
105.1000423793742
 30
0.0
 10
224.3211811493294
 20
105.1755528111779
 30
0.0
 10
224.32143885211
 20
105.2150714773483
 30
0.0
  0
SPLINE
  5
1C9
330
1F
100
AcDbEntity
  8
0
  6
Continuous
 62
     7
370
     0
100
AcDbSpline
210
0.0
220
0.0
230
1.0
 70
     8
 71
     3
 72
    23
 73
    19
 74
     0
 42
0.00000001
 43
0.00000001
 40
0.0
 40
0.0
 40
0.0
 40
0.0
 40
0.0603255293380428
 40
0.1181599905079977
 40
0.1741866762963808
 40
0.2295388181457999
 40
0.2834498146386372
 40
0.337826511950592
 40
0.3926321025334832
 40
0.4484655764151909
 40
0.5059654091573053
 40
0.5650585322290048
 40
0.6266544786228438
 40
0.6922320330373639
 40
0.7611310781257618
 40
0.8353098773394203
 40
0.9153255598322017
 40
1.0
 40
1.0
 40
1.0
 40
1.0
 10
223.5706995442174
 20
108.8564040743472
 30
0.0
 10
223.5703171166065
 20
108.8679371517473
 30
0.0
 10
223.5695680532602
 20
108.8905270623718
 30
0.0
 10
223.5656412154597
 20
108.9236827793349
 30
0.0
 10
223.5580065104649
 20
108.9551883741087
 30
0.0
 10
223.547924901254
 20
108.9852103888084
 30
0.0
 10
223.5344538255447
 20
109.0135289336394
 30
0.0
 10
223.5184507371683
 20
109.0403634460177
 30
0.0
 10
223.4993541123924
 20
109.0655651982421
 30
0.0
 10
223.4774800275191
 20
109.0892109587121
 30
0.0
 10
223.452364602947
 20
109.1107262899092
 30
0.0
 10
223.4236768835837
 20
109.1292893541739
 30
0.0
 10
223.3916431277865
 20
109.1450639541428
 30
0.0
 10
223.3562261015268
 20
109.1575837311924
 30
0.0
 10
223.3175373749083
 20
109.1675975148625
 30
0.0
 10
223.2753567015341
 20
109.1742593621546
 30
0.0
 10
223.2298769826311
 20
109.179079852651
 30
0.0
 10
223.1983621748735
 20
109.1793585612609
 30
0.0
 10
223.1821590252203
 20
109.1795018576234
 30
0.0
  0
LINE
  5
1CA
330
1F
100
AcDbEntity
  8
0
  6
Continuous
 62
     7
370
     0
100
AcDbLine
 10
222.5697138004
 20
108.5209586051
 30
0.0
 11
223.1200090058
 21
108.5209586051
 31
0.0
  0
LINE
  5
1CB
330
1F
100
AcDbEntity
  8
0
  6
Continuous
 62
     7
370
     0
100
AcDbLine
 10
222.5697138004
 20
109.1795018576
 30
0.0
 11
222.5697138004
 21
108.5209586051
 31
0.0
  0
LINE
  5
1CC
330
1F
100
AcDbEntity
  8
0
  6
Continuous
 62
     7
370
     0
100
AcDbLine
 10
223.1821590252
 20
109.1795018576
 30
0.0
 11
222.5697138004
 21
109.1795018576
 31
0.0
  0
SPLINE
  5
1CD
330
1F
100
AcDbEntity
  8
0
  6
Continuous
 62
     7
370
     0
100
AcDbSpline
210
0.0
220
0.0
230
1.0
 70
     8
 71
     3
 72
    19
 73
    15
 74
     0
 42
0.00000001
 43
0.00000001
 40
0.0
 40
0.0
 40
0.0
 40
0.0
 40
0.1288602680417313
 40
0.2408921848092289
 40
0.3380442015575112
 40
0.4201204852136088
 40
0.494058456868551
 40
0.5660947835833202
 40
0.6368049543510104
 40
0.7091484493607203
 40
0.7819418055941268
 40
0.8542853006038366
 40
0.9261704072165587
 40
1.0
 40
1.0
 40
1.0
 40
1.0
 10
223.1200090057621
 20
108.520958605086
 30
0.0
 10
223.14760289181
 20
108.5213903376028
 30
0.0
 10
223.1991870736409
 20
108.5221974210491
 30
0.0
 10
223.2713193913505
 20
108.5290890653725
 30
0.0
 10
223.3327921754902
 20
108.5400401808644
 30
0.0
 10
223.3848206552455
 20
108.5560136653627
 30
0.0
 10
223.4285327907471
 20
108.5781901662651
 30
0.0
 10
223.4665500655244
 20
108.6052163766258
 30
0.0
 10
223.4981428994184
 20
108.6390695185725
 30
0.0
 10
223.5244248737013
 20
108.6772655817371
 30
0.0
 10
223.5448543914704
 20
108.7192984426299
 30
0.0
 10
223.5595912711944
 20
108.7634478003896
 30
0.0
 10
223.5692368152878
 20
108.8093426082286
 30
0.0
 10
223.5702076494833
 20
108.8405779790986
 30
0.0
 10
223.5706995442174
 20
108.8564040743472
 30
0.0
  0
SPLINE
  5
1CE
330
1F
100
AcDbEntity
  8
0
  6
Continuous
 62
     7
370
     0
100
AcDbSpline
210
0.0
220
0.0
230
1.0
 70
     8
 71
     3
 72
    23
 73
    19
 74
     0
 42
0.00000001
 43
0.00000001
 40
0.0
 40
0.0
 40
0.0
 40
0.0
 40
0.0718367171319505
 40
0.1395582629178172
 40
0.2049233526537264
 40
0.2678265586039221
 40
0.3285473200936659
 40
0.3887551463289839
 40
0.4480299679797882
 40
0.5086005276974233
 40
0.5693212891871666
 40
0.628511895401924
 40
0.687493275539241
 40
0.747078295388978
 40
0.8077025413165653
 40
0.8697098126206608
 40
0.933428331305089
 40
1.0
 40
1.0
 40
1.0
 40
1.0
 10
221.3995647585082
 20
104.4116487092526
 30
0.0
 10
221.4145378719929
 20
104.4119023428385
 30
0.0
 10
221.4436263631133
 20
104.4123950805924
 30
0.0
 10
221.4860282755572
 20
104.4180256664712
 30
0.0
 10
221.5259804635055
 20
104.4265691071532
 30
0.0
 10
221.563665965944
 20
104.4382835646927
 30
0.0
 10
221.5985300942332
 20
104.4543097180435
 30
0.0
 10
221.6311405965103
 20
104.4730408101578
 30
0.0
 10
221.6611639092433
 20
104.4956787688162
 30
0.0
 10
221.6885915330308
 20
104.5215143938989
 30
0.0
 10
221.7131441185607
 20
104.5500934371154
 30
0.0
 10
221.7341765128884
 20
104.5809239802776
 30
0.0
 10
221.7525233188846
 20
104.6131389897713
 30
0.0
 10
221.7675026472049
 20
104.6474337151949
 30
0.0
 10
221.7783351158539
 20
104.6838788752521
 30
0.0
 10
221.7866938954064
 20
104.7218169202876
 30
0.0
 10
221.7917364998168
 20
104.7616391604674
 30
0.0
 10
221.7923296782916
 20
104.7887873959131
 30
0.0
 10
221.7926327623664
 20
104.8026587654467
 30
0.0
  0
SPLINE
  5
1CF
330
1F
100
AcDbEntity
  8
0
  6
Continuous
 62
     7
370
     0
100
AcDbSpline
210
0.0
220
0.0
230
1.0
 70
     8
 71
     3
 72
    19
 73
    15
 74
     0
 42
0.00000001
 43
0.00000001
 40
0.0
 40
0.0
 40
0.0
 40
0.0
 40
0.079823271279787
 40
0.1598568116661127
 40
0.2397327021152788
 40
0.3213646023254474
 40
0.4025836963489389
 40
0.483265588546352
 40
0.5660170116609762
 40
0.6530713596602558
 40
0.7418556865073695
 40
0.8285909050739395
 40
0.9142807452008549
 40
1.0
 40
1.0
 40
1.0
 40
1.0
 10
221.0023808593216
 20
104.8108905561034
 30
0.0
 10
221.0028363672615
 20
104.7939882594772
 30
0.0
 10
221.0037485830326
 20
104.7601391424818
 30
0.0
 10
221.0117506787444
 20
104.7098660307831
 30
0.0
 10
221.02532857766
 20
104.6605290963135
 30
0.0
 10
221.0427310188281
 20
104.6120817369489
 30
0.0
 10
221.0672782442587
 20
104.5664793728793
 30
0.0
 10
221.0998306259359
 20
104.525775907703
 30
0.0
 10
221.1406777679059
 20
104.4915548883531
 30
0.0
 10
221.1873274375942
 20
104.4626436724885
 30
0.0
 10
221.238234221215
 20
104.4398880591134
 30
0.0
 10
221.2912805782855
 20
104.4240038677576
 30
0.0
 10
221.3450974097869
 20
104.4135083869711
 30
0.0
 10
221.3814068986368
 20
104.4122686727392
 30
0.0
 10
221.3995647585082
 20
104.4116487092526
 30
0.0
  0
SPLINE
  5
1D0
330
1F
100
AcDbEntity
  8
0
  6
Continuous
 62
     7
370
     0
100
AcDbSpline
210
0.0
220
0.0
230
1.0
 70
     8
 71
     3
 72
    23
 73
    19
 74
     0
 42
0.00000001
 43
0.00000001
 40
0.0
 40
0.0
 40
0.0
 40
0.0
 40
0.0709524654154269
 40
0.1390889271416596
 40
0.2035598239190666
 40
0.2664237811295186
 40
0.3275165661984784
 40
0.387860871760897
 40
0.4478987850107175
 40
0.5088188285885848
 40
0.5694824568188304
 40
0.6290357116670979
 40
0.6883784585529112
 40
0.7480679615575833
 40
0.8086301697509071
 40
0.8702311456070246
 40
0.9336825804722019
 40
1.0
 40
1.0
 40
1.0
 40
1.0
 10
221.3917445573843
 20
105.2019006122975
 30
0.0
 10
221.3770460881654
 20
105.201635020845
 30
0.0
 10
221.3482325113249
 20
105.2011143788918
 30
0.0
 10
221.3063743488169
 20
105.195574300706
 30
0.0
 10
221.2667475290883
 20
105.1870665780553
 30
0.0
 10
221.2297006905832
 20
105.1746143934235
 30
0.0
 10
221.1947706332353
 20
105.1590541232439
 30
0.0
 10
221.162596216003
 20
105.1394881969786
 30
0.0
 10
221.1326034495504
 20
105.1167777394799
 30
0.0
 10
221.1057085055468
 20
105.0903811524688
 30
0.0
 10
221.0814422962956
 20
105.0617072822941
 30
0.0
 10
221.0604615596329
 20
105.0309689815726
 30
0.0
 10
221.0419272052041
 20
104.9988792868246
 30
0.0
 10
221.027861875116
 20
104.9643852181443
 30
0.0
 10
221.0159568323528
 20
104.9286019057557
 30
0.0
 10
221.0085142975222
 20
104.8908348343099
 30
0.0
 10
221.0032235852692
 20
104.8515131039333
 30
0.0
 10
221.0026658737139
 20
104.8246293175825
 30
0.0
 10
221.0023808593216
 20
104.8108905561034
 30
0.0
  0
SPLINE
  5
1D1
330
1F
100
AcDbEntity
  8
0
  6
Continuous
 62
     7
370
     0
100
AcDbSpline
210
0.0
220
0.0
230
1.0
 70
     8
 71
     3
 72
    23
 73
    19
 74
     0
 42
0.00000001
 43
0.00000001
 40
0.0
 40
0.0
 40
0.0
 40
0.0
 40
0.0666161804351809
 40
0.130423869924064
 40
0.192670957570017
 40
0.2529685047960664
 40
0.3128803828057838
 40
0.3722002559180859
 40
0.4319271071459047
 40
0.4924217452545996
 40
0.552771220907577
 40
0.6132624068156185
 40
0.673556490556371
 40
0.7343197960333017
 40
0.7968580801403247
 40
0.8617690047507046
 40
0.9288631073150262
 40
1.0
 40
1.0
 40
1.0
 40
1.0
 10
221.7926327623664
 20
104.8026587654467
 30
0.0
 10
221.7923200257193
 20
104.816802413638
 30
0.0
 10
221.7917077371805
 20
104.8444934238384
 30
0.0
 10
221.786793281706
 20
104.8851896798331
 30
0.0
 10
221.7779657954523
 20
104.9237951883639
 30
0.0
 10
221.7666136113792
 20
104.9608931662627
 30
0.0
 10
221.751228155968
 20
104.9958382149199
 30
0.0
 10
221.7327600708229
 20
105.029131404597
 30
0.0
 10
221.7101441695153
 20
105.0598952007923
 30
0.0
 10
221.6853440296637
 20
105.0891740392811
 30
0.0
 10
221.6572785761693
 20
105.1156781558846
 30
0.0
 10
221.626285531131
 20
105.1385336570331
 30
0.0
 10
221.5933471344069
 20
105.1587189353267
 30
0.0
 10
221.5574669696227
 20
105.1742027479038
 30
0.0
 10
221.5194355254325
 20
105.1866056348465
 30
0.0
 10
221.4790721209168
 20
105.1956177609978
 30
0.0
 10
221.4362121825536
 20
105.2011266340219
 30
0.0
 10
221.4068533150397
 20
105.2016376378267
 30
0.0
 10
221.3917445573843
 20
105.2019006122975
 30
0.0
  0
SPLINE
  5
1D2
330
1F
100
AcDbEntity
  8
0
  6
Continuous
 62
     7
370
     0
100
AcDbSpline
210
0.0
220
0.0
230
1.0
 70
     8
 71
     3
 72
    19
 73
    15
 74
     0
 42
0.00000001
 43
0.00000001
 40
0.0
 40
0.0
 40
0.0
 40
0.0
 40
0.0768426979287827
 40
0.1498390532852208
 40
0.2183793964454711
 40
0.2849970207005652
 40
0.3476576708142682
 40
0.4098471591145119
 40
0.4699357615076958
 40
0.5304196066566044
 40
0.6487517360264009
 40
0.7637748930771635
 40
0.8787494877784697
 40
0.9999999999999999
 40
0.9999999999999999
 40
0.9999999999999999
 40
0.9999999999999999
 10
221.399976348041
 20
105.438976183211
 30
0.0
 10
221.4122024341658
 20
105.4391506008484
 30
0.0
 10
221.4360426326454
 20
105.4394907056906
 30
0.0
 10
221.4705286790083
 20
105.4439292851968
 30
0.0
 10
221.5031178726425
 20
105.4498574258863
 30
0.0
 10
221.5333286408821
 20
105.4588406119588
 30
0.0
 10
221.5615097655015
 20
105.4705213737456
 30
0.0
 10
221.5872028927277
 20
105.484920869667
 30
0.0
 10
221.6111768843994
 20
105.5014700226732
 30
0.0
 10
221.6392058236292
 20
105.5272127104328
 30
0.0
 10
221.669283977317
 20
105.563394803996
 30
0.0
 10
221.6950623831683
 20
105.6127901455086
 30
0.0
 10
221.7111263884242
 20
105.6668315823787
 30
0.0
 10
221.7127659907879
 20
105.704474593478
 30
0.0
 10
221.7136075720619
 20
105.7237961399334
 30
0.0
  0
SPLINE
  5
1D3
330
1F
100
AcDbEntity
  8
0
  6
Continuous
 62
     7
370
     0
100
AcDbSpline
210
0.0
220
0.0
230
1.0
 70
     8
 71
     3
 72
    19
 73
    15
 74
     0
 42
0.00000001
 43
0.00000001
 40
0.0
 40
0.0
 40
0.0
 40
0.0
 40
0.1273939413394725
 40
0.2461816112928119
 40
0.3612680043537856
 40
0.4771402680372256
 40
0.5363265834357716
 40
0.5956719150436505
 40
0.6566189532057533
 40
0.7188356214960805
 40
0.7835815527063729
 40
0.8515878166889452
 40
0.9239265274809916
 40
1.0
 40
1.0
 40
1.0
 40
1.0
 10
221.081406049626
 20
105.7361438259185
 30
0.0
 10
221.0821878691796
 20
105.7151739620226
 30
0.0
 10
221.0836986914009
 20
105.674650881975
 30
0.0
 10
221.1001290448812
 20
105.6170908157378
 30
0.0
 10
221.125821349493
 20
105.5653857344026
 30
0.0
 10
221.1559410677951
 20
105.5278904064302
 30
0.0
 10
221.1848183134442
 20
105.5023429001775
 30
0.0
 10
221.2089203517228
 20
105.4852857380205
 30
0.0
 10
221.2352592186731
 20
105.4708045517272
 30
0.0
 10
221.2640257272283
 20
105.4595488604697
 30
0.0
 10
221.2945231512693
 20
105.4495770188307
 30
0.0
 10
221.3278033035272
 20
105.4440034842921
 30
0.0
 10
221.3630839538353
 20
105.4394725319243
 30
0.0
 10
221.3874742907207
 20
105.4391443853621
 30
0.0
 10
221.399976348041
 20
105.438976183211
 30
0.0
  0
SPLINE
  5
1D4
330
1F
100
AcDbEntity
  8
0
  6
Continuous
 62
     7
370
     0
100
AcDbSpline
210
0.0
220
0.0
230
1.0
 70
     8
 71
     3
 72
    19
 73
    15
 74
     0
 42
0.00000001
 43
0.00000001
 40
0.0
 40
0.0
 40
0.0
 40
0.0
 40
0.0762358674075228
 40
0.1486180999543649
 40
0.2182394281414515
 40
0.2842516902686069
 40
0.3482575207850553
 40
0.4106562042500674
 40
0.4728623729995139
 40
0.5341947480221281
 40
0.653476101422413
 40
0.7677667895221952
 40
0.8817126094674201
 40
1.0
 40
1.0
 40
1.0
 40
1.0
 10
221.397506810844
 20
106.0184942454439
 30
0.0
 10
221.3854166893537
 20
106.0183256968034
 30
0.0
 10
221.361847588021
 20
106.0179971194611
 30
0.0
 10
221.327519097447
 20
106.0134456254803
 30
0.0
 10
221.2950253270542
 20
106.0077290415926
 30
0.0
 10
221.2646660528115
 20
105.9985549822619
 30
0.0
 10
221.2365674683969
 20
105.9865666194285
 30
0.0
 10
221.2104360833079
 20
105.9719765247447
 30
0.0
 10
221.1860779286095
 20
105.9552809245589
 30
0.0
 10
221.1573527525215
 20
105.9295660451593
 30
0.0
 10
221.1272678631636
 20
105.8933831320942
 30
0.0
 10
221.1007639217319
 20
105.844776692784
 30
0.0
 10
221.0843836283886
 20
105.7917792693287
 30
0.0
 10
221.0824108693739
 20
105.7549186751089
 30
0.0
 10
221.081406049626
 20
105.7361438259185
 30
0.0
  0
SPLINE
  5
1D5
330
1F
100
AcDbEntity
  8
0
  6
Continuous
 62
     7
370
     0
100
AcDbSpline
210
0.0
220
0.0
230
1.0
 70
     8
 71
     3
 72
    19
 73
    15
 74
     0
 42
0.00000001
 43
0.00000001
 40
0.0
 40
0.0
 40
0.0
 40
0.0
 40
0.1233861213626085
 40
0.2414346864233538
 40
0.3574485461509664
 40
0.4767139204528325
 40
0.5378895868739916
 40
0.5992703938301226
 40
0.6603520522565615
 40
0.7230069362990812
 40
0.7878755372012023
 40
0.855360105861051
 40
0.9253732137563339
 40
0.9999999999999999
 40
0.9999999999999999
 40
0.9999999999999999
 40
0.9999999999999999
 10
221.7136075720619
 20
105.7237961399334
 30
0.0
 10
221.7125935848725
 20
105.7437931131609
 30
0.0
 10
221.710609474533
 20
105.7829220111867
 30
0.0
 10
221.6945847085597
 20
105.8390933080081
 30
0.0
 10
221.6676056117852
 20
105.8899677274256
 30
0.0
 10
221.6367857338894
 20
105.9271205953976
 30
0.0
 10
221.6082609640419
 20
105.9540356607446
 30
0.0
 10
221.5838565692533
 20
105.9711689023965
 30
0.0
 10
221.5576217535555
 20
105.9857508067887
 30
0.0
 10
221.5294566676491
 20
105.9976588948237
 30
0.0
 10
221.499320583041
 20
106.007262891777
 30
0.0
 10
221.4671318648117
 20
106.0135635763981
 30
0.0
 10
221.4330257702868
 20
106.0179824679708
 30
0.0
 10
221.409595586892
 20
106.0183200634477
 30
0.0
 10
221.397506810844
 20
106.0184942454439
 30
0.0
  0
SPLINE
  5
1D6
330
1F
100
AcDbEntity
  8
0
  6
Continuous
 62
     7
370
     0
100
AcDbSpline
210
0.0
220
0.0
230
1.0
 70
     8
 71
     3
 72
    23
 73
    19
 74
     0
 42
0.00000001
 43
0.00000001
 40
0.0
 40
0.0
 40
0.0
 40
0.0
 40
0.0610549117432832
 40
0.1195453450847434
 40
0.1768063562451032
 40
0.2329564830316854
 40
0.2885834899465033
 40
0.3446666617213001
 40
0.4016615108374461
 40
0.4605400973082778
 40
0.520477062322188
 40
0.5812128653554004
 40
0.6434307597220102
 40
0.7079608695212424
 40
0.7753707435336736
 40
0.8464136772813298
 40
0.9211518871893691
 40
1.0
 40
1.0
 40
1.0
 40
1.0
 10
220.9352917654693
 20
107.5726563214321
 30
0.0
 10
220.9597446855768
 20
107.5732683697333
 30
0.0
 10
221.0076234342164
 20
107.5744667585817
 30
0.0
 10
221.0778922922261
 20
107.5844980423988
 30
0.0
 10
221.1446555734192
 20
107.6015758755135
 30
0.0
 10
221.2085750212265
 20
107.6243103399891
 30
0.0
 10
221.26849503387
 20
107.6550434603756
 30
0.0
 10
221.3258169692722
 20
107.6910317761719
 30
0.0
 10
221.378978224082
 20
107.735008467275
 30
0.0
 10
221.4292837566839
 20
107.784407505647
 30
0.0
 10
221.4744044307031
 20
107.8405585855316
 30
0.0
 10
221.5144395301542
 20
107.9020785269285
 30
0.0
 10
221.5469612269576
 20
107.9698899725644
 30
0.0
 10
221.5750393227351
 20
108.0424991291251
 30
0.0
 10
221.5955997226954
 20
108.1212783372935
 30
0.0
 10
221.6107951181877
 20
108.2053320358171
 30
0.0
 10
221.6199521852147
 20
108.2949305990031
 30
0.0
 10
221.6209164715821
 20
108.3564383501374
 30
0.0
 10
221.6214115167067
 20
108.38801518598
 30
0.0
  0
SPLINE
  5
1D7
330
1F
100
AcDbEntity
  8
0
  6
Continuous
 62
     7
370
     0
100
AcDbSpline
210
0.0
220
0.0
230
1.0
 70
     8
 71
     3
 72
    23
 73
    19
 74
     0
 42
0.00000001
 43
0.00000001
 40
0.0
 40
0.0
 40
0.0
 40
0.0
 40
0.0759644026221998
 40
0.1481252239748712
 40
0.2172006111446031
 40
0.2832999093723612
 40
0.347201868136241
 40
0.4092995407059241
 40
0.4704256161074027
 40
0.531588064052835
 40
0.5917391729173695
 40
0.6502577442905727
 40
0.7073030399522857
 40
0.7642084640229153
 40
0.8211475320101308
 40
0.8791188121552541
 40
0.9384228183936663
 40
1.0
 40
1.0
 40
1.0
 40
1.0
 10
220.2516415514289
 20
108.3587923291486
 30
0.0
 10
220.2520855934124
 20
108.3291288885937
 30
0.0
 10
220.2529514439422
 20
108.2712872729895
 30
0.0
 10
220.2628572426588
 20
108.1869572733182
 30
0.0
 10
220.2778877101145
 20
108.1073876240794
 30
0.0
 10
220.2986056229138
 20
108.0323549541391
 30
0.0
 10
220.3264555712861
 20
107.9626013255187
 30
0.0
 10
220.3597537904975
 20
107.8974564736265
 30
0.0
 10
220.399621439412
 20
107.8373534442602
 30
0.0
 10
220.4451789189006
 20
107.7824603693352
 30
0.0
 10
220.4952869236395
 20
107.7331485440566
 30
0.0
 10
220.5488324119085
 20
107.6900772878311
 30
0.0
 10
220.6058274204687
 20
107.6540081573834
 30
0.0
 10
220.6656400582702
 20
107.6242253903222
 30
0.0
 10
220.7286999315459
 20
107.6009772249105
 30
0.0
 10
220.794818175328
 20
107.5846529488908
 30
0.0
 10
220.8640433695656
 20
107.5744434393805
 30
0.0
 10
220.9112464151413
 20
107.5732594490759
 30
0.0
 10
220.9352917654693
 20
107.5726563214321
 30
0.0
  0
SPLINE
  5
1D8
330
1F
100
AcDbEntity
  8
0
  6
Continuous
 62
     7
370
     0
100
AcDbSpline
210
0.0
220
0.0
230
1.0
 70
     8
 71
     3
 72
    23
 73
    19
 74
     0
 42
0.00000001
 43
0.00000001
 40
0.0
 40
0.0
 40
0.0
 40
0.0
 40
0.0559431333569181
 40
0.1103820356898404
 40
0.1640478588828493
 40
0.2167594775435857
 40
0.2696011346144468
 40
0.3230085051908684
 40
0.377581443672136
 40
0.4334493367080536
 40
0.4909218580498926
 40
0.5506247708713252
 40
0.613116872309818
 40
0.6798607463518503
 40
0.7513577440202
 40
0.828261101258994
 40
0.9107950320656292
 40
1.0
 40
1.0
 40
1.0
 40
1.0
 10
220.9394076607977
 20
109.2058435877249
 30
0.0
 10
220.9163217409809
 20
109.2053851104668
 30
0.0
 10
220.8707706487871
 20
109.2044804837497
 30
0.0
 10
220.8037140184306
 20
109.1944241532195
 30
0.0
 10
220.7390641561939
 20
109.1793986213709
 30
0.0
 10
220.6767207323957
 20
109.1583921272127
 30
0.0
 10
220.6172169607624
 20
109.1305762276208
 30
0.0
 10
220.5602445573252
 20
109.0964638335178
 30
0.0
 10
220.5052978085196
 20
109.0569837715123
 30
0.0
 10
220.453243146232
 20
109.0111741188413
 30
0.0
 10
220.4047168150479
 20
108.9585500105467
 30
0.0
 10
220.3636926703203
 20
108.8965077994373
 30
0.0
 10
220.3291164003291
 20
108.8265285633692
 30
0.0
 10
220.3002458518281
 20
108.7487896834542
 30
0.0
 10
220.2782329088118
 20
108.6626891234465
 30
0.0
 10
220.2630192117753
 20
108.5685974144849
 30
0.0
 10
220.2534135938672
 20
108.4664154070734
 30
0.0
 10
220.2522473330129
 20
108.3955838174392
 30
0.0
 10
220.2516415514289
 20
108.3587923291486
 30
0.0
  0
SPLINE
  5
1D9
330
1F
100
AcDbEntity
  8
0
  6
Continuous
 62
     7
370
     0
100
AcDbSpline
210
0.0
220
0.0
230
1.0
 70
     8
 71
     3
 72
    31
 73
    27
 74
     0
 42
0.00000001
 43
0.00000001
 40
0.0
 40
0.0
 40
0.0
 40
0.0
 40
0.0508516157922844
 40
0.0997524678094164
 40
0.1474376477769318
 40
0.1940857839327041
 40
0.2391709270841438
 40
0.283339822245434
 40
0.3265771497238438
 40
0.368936281499902
 40
0.4105718726814495
 40
0.4510505934949117
 40
0.4908768629924156
 40
0.5300443324843858
 40
0.5689366633103303
 40
0.6075778621311335
 40
0.6464200964505128
 40
0.6856793513063945
 40
0.7247985849801968
 40
0.7635130084045106
 40
0.8021725263787551
 40
0.8407403615726128
 40
0.8796493769005859
 40
0.9190706128663397
 40
0.9590978622172242
 40
1.0
 40
1.0
 40
1.0
 40
1.0
 10
221.6214115167067
 20
108.38801518598
 30
0.0
 10
221.6212365679503
 20
108.4083296668515
 30
0.0
 10
221.6208933818015
 20
108.4481793268403
 30
0.0
 10
221.6163484469841
 20
108.5069181816255
 30
0.0
 10
221.6104860642639
 20
108.5638299217042
 30
0.0
 10
221.601560495433
 20
108.6188411105623
 30
0.0
 10
221.5892599291249
 20
108.6717239343577
 30
0.0
 10
221.5756329905058
 20
108.7228809911117
 30
0.0
 10
221.5585929803006
 20
108.7718714374385
 30
0.0
 10
221.5392587139543
 20
108.8188873951508
 30
0.0
 10
221.5176239972939
 20
108.8636874932407
 30
0.0
 10
221.4932229142659
 20
108.9058940490452
 30
0.0
 10
221.4663390555121
 20
108.9453429728287
 30
0.0
 10
221.4376977788884
 20
108.9827821762139
 30
0.0
 10
221.405713092453
 20
109.0167626087016
 30
0.0
 10
221.3719250778387
 20
109.048719619529
 30
0.0
 10
221.3355662414534
 20
109.0779929698267
 30
0.0
 10
221.296999431147
 20
109.1045903062733
 30
0.0
 10
221.2567717671318
 20
109.1285321008154
 30
0.0
 10
221.214966178461
 20
109.149023170518
 30
0.0
 10
221.1722486876576
 20
109.167022000797
 30
0.0
 10
221.1279042643582
 20
109.1808188596169
 30
0.0
 10
221.082545219586
 20
109.1919462287491
 30
0.0
 10
221.0359881879188
 20
109.2003985019664
 30
0.0
 10
220.988060362021
 20
109.2047754823929
 30
0.0
 10
220.9557416883846
 20
109.2054849958786
 30
0.0
 10
220.9394076607977
 20
109.2058435877249
 30
0.0
  0
SPLINE
  5
1DA
330
1F
100
AcDbEntity
  8
0
  6
Continuous
 62
     7
370
     0
100
AcDbSpline
210
0.0
220
0.0
230
1.0
 70
     8
 71
     3
 72
    23
 73
    19
 74
     0
 42
0.00000001
 43
0.00000001
 40
0.0
 40
0.0
 40
0.0
 40
0.0
 40
0.1156291309254414
 40
0.2215410391198768
 40
0.3170478562190417
 40
0.4031508756396167
 40
0.4801812167162795
 40
0.5476493661481898
 40
0.6070358428421809
 40
0.6586524080635072
 40
0.705722890353646
 40
0.749804087979647
 40
0.7925868153452743
 40
0.8338739610102607
 40
0.8747683933034329
 40
0.9152226988916381
 40
0.9568807037304801
 40
1.0
 40
1.0
 40
1.0
 40
1.0
 10
220.2121289562767
 20
105.2150714773483
 30
0.0
 10
220.2118795046995
 20
105.2537678879646
 30
0.0
 10
220.2114015649174
 20
105.327908746324
 30
0.0
 10
220.205999969579
 20
105.4339016515225
 30
0.0
 10
220.1975351842365
 20
105.5297635582825
 30
0.0
 10
220.1859567026173
 20
105.6155828423932
 30
0.0
 10
220.1705689026924
 20
105.6912663352563
 30
0.0
 10
220.1519056004555
 20
105.7569751567412
 30
0.0
 10
220.1296654852399
 20
105.8125691721113
 30
0.0
 10
220.1032220676121
 20
105.8586068243456
 30
0.0
 10
220.0737852528323
 20
105.8963701886786
 30
0.0
 10
220.043035709216
 20
105.9290576663636
 30
0.0
 10
220.0102046950724
 20
105.9568573012047
 30
0.0
 10
219.9747105436228
 20
105.9791585783667
 30
0.0
 10
219.9376972981246
 20
105.9971504192841
 30
0.0
 10
219.8983144882736
 20
106.009532862371
 30
0.0
 10
219.8569492159677
 20
106.0171402480949
 30
0.0
 10
219.828560766244
 20
106.0180377562641
 30
0.0
 10
219.8141218780244
 20
106.0184942454439
 30
0.0
  0
SPLINE
  5
1DB
330
1F
100
AcDbEntity
  8
0
  6
Continuous
 62
     7
370
     0
100
AcDbSpline
210
0.0
220
0.0
230
1.0
 70
     8
 71
     3
 72
    23
 73
    19
 74
     0
 42
0.00000001
 43
0.00000001
 40
0.0
 40
0.0
 40
0.0
 40
0.0
 40
0.0407818458722597
 40
0.0808695887215869
 40
0.1202681657882671
 40
0.1601868504553522
 40
0.2004597376386391
 40
0.2422651778979079
 40
0.2864592615494684
 40
0.3329520837492633
 40
0.3844305340495303
 40
0.4433891253601058
 40
0.5116814722136833
 40
0.5890200255490083
 40
0.6762451906507723
 40
0.7737051914728237
 40
0.881567767781983
 40
1.0
 40
1.0
 40
1.0
 40
1.0
 10
219.8170030047543
 20
104.4116487092526
 30
0.0
 10
219.8306086723312
 20
104.4121681372698
 30
0.0
 10
219.8575884403553
 20
104.4131981526901
 30
0.0
 10
219.8973051449832
 20
104.4200589223746
 30
0.0
 10
219.9351435623587
 20
104.4328770210912
 30
0.0
 10
219.9714449005987
 20
104.4496367396415
 30
0.0
 10
220.006021735759
 20
104.4713445992995
 30
0.0
 10
220.0386922259197
 20
104.4980874646111
 30
0.0
 10
220.0699780861951
 20
104.5294134994296
 30
0.0
 10
220.099986965877
 20
104.5662830090797
 30
0.0
 10
220.127309018226
 20
104.6112006060255
 30
0.0
 10
220.1499746333693
 20
104.6665563659906
 30
0.0
 10
220.1694040184508
 20
104.7320751524297
 30
0.0
 10
220.1852092005325
 20
104.8082289304791
 30
0.0
 10
220.1971629371463
 20
104.8948785034796
 30
0.0
 10
220.2061130634201
 20
104.992106464363
 30
0.0
 10
220.2113788469924
 20
105.1000423793742
 30
0.0
 10
220.2118712534961
 20
105.1755528111779
 30
0.0
 10
220.2121289562767
 20
105.2150714773483
 30
0.0
  0
SPLINE
  5
1DC
330
1F
100
AcDbEntity
  8
0
  6
Continuous
 62
     7
370
     0
100
AcDbSpline
210
0.0
220
0.0
230
1.0
 70
     8
 71
     3
 72
    23
 73
    19
 74
     0
 42
0.00000001
 43
0.00000001
 40
0.0
 40
0.0
 40
0.0
 40
0.0
 40
0.1184055081537695
 40
0.226654332816702
 40
0.3240923419286021
 40
0.4117048030053219
 40
0.4890259050064157
 40
0.5569093973430758
 40
0.6162333444927074
 40
0.6673492812770747
 40
0.7135123932013476
 40
0.7576965045209786
 40
0.7994925114422912
 40
0.8399760647439397
 40
0.8798857418167761
 40
0.9191486593857416
 40
0.9592273564930831
 40
1.0
 40
1.0
 40
1.0
 40
1.0
 10
219.4218770532318
 20
105.2150714773483
 30
0.0
 10
219.4221386056648
 20
105.1755529894581
 30
0.0
 10
219.4226392748743
 20
105.0999058625099
 30
0.0
 10
219.4278700528078
 20
104.9918308903167
 30
0.0
 10
219.4368746217188
 20
104.8943325130868
 30
0.0
 10
219.4487792499681
 20
104.8075457236941
 30
0.0
 10
219.4644981792405
 20
104.731353125844
 30
0.0
 10
219.4842351540731
 20
104.6659488817317
 30
0.0
 10
219.5064834190833
 20
104.610547992154
 30
0.0
 10
219.5340152254421
 20
104.5658371085
 30
0.0
 10
219.5641595124958
 20
104.5293912159678
 30
0.0
 10
219.5952814287652
 20
104.4980465697361
 30
0.0
 10
219.6281131653599
 20
104.4714043381516
 30
0.0
 10
219.6624404991664
 20
104.4491901503338
 30
0.0
 10
219.6987960434711
 20
104.4323710268025
 30
0.0
 10
219.7367822564403
 20
104.4201804886145
 30
0.0
 10
219.7764074035494
 20
104.4131650210607
 30
0.0
 10
219.8033939293089
 20
104.4121570303806
 30
0.0
 10
219.8170030047543
 20
104.4116487092526
 30
0.0
  0
SPLINE
  5
1DD
330
1F
100
AcDbEntity
  8
0
  6
Continuous
 62
     7
370
     0
100
AcDbSpline
210
0.0
220
0.0
230
1.0
 70
     8
 71
     3
 72
    15
 73
    11
 74
     0
 42
0.00000001
 43
0.00000001
 40
0.0
 40
0.0
 40
0.0
 40
0.0
 40
0.0838881132795455
 40
0.1771540327539698
 40
0.2825136355617228
 40
0.3993998606601629
 40
0.5294908061912204
 40
0.6728021776758327
 40
0.82953576161967
 40
1.0
 40
1.0
 40
1.0
 40
1.0
 10
219.5408264282214
 20
105.877730625214
 30
0.0
 10
219.5310360038967
 20
105.861362023773
 30
0.0
 10
219.5103606890794
 20
105.8267949839092
 30
0.0
 10
219.4872262139786
 20
105.7667160444199
 30
0.0
 10
219.4667901332209
 20
105.6980572523137
 30
0.0
 10
219.4499644632708
 20
105.6197622422066
 30
0.0
 10
219.4377922714392
 20
105.5319653215335
 30
0.0
 10
219.4281827966523
 20
105.43476844982
 30
0.0
 10
219.4231910321831
 20
105.3280359286048
 30
0.0
 10
219.4223271305812
 20
105.2537652028057
 30
0.0
 10
219.4218770532318
 20
105.2150714773483
 30
0.0
  0
SPLINE
  5
1DE
330
1F
100
AcDbEntity
  8
0
  6
Continuous
 62
     7
370
     0
100
AcDbSpline
210
0.0
220
0.0
230
1.0
 70
     8
 71
     3
 72
    15
 73
    11
 74
     0
 42
0.00000001
 43
0.00000001
 40
0.0
 40
0.0
 40
0.0
 40
0.0
 40
0.1276647678962251
 40
0.2517385630080496
 40
0.3727533493873909
 40
0.4921467589723849
 40
0.614069621309245
 40
0.7371973244121106
 40
0.8656069906011167
 40
1.0
 40
1.0
 40
1.0
 40
1.0
 10
219.8141218780244
 20
106.0184942454439
 30
0.0
 10
219.800513657304
 20
106.0181370833655
 30
0.0
 10
219.773679989835
 20
106.0174328055145
 30
0.0
 10
219.7343919864521
 20
106.0107104805598
 30
0.0
 10
219.6971592071892
 20
105.9994692549163
 30
0.0
 10
219.6615550847515
 20
105.9842419232857
 30
0.0
 10
219.6284684570648
 20
105.963748942587
 30
0.0
 10
219.5965871907573
 20
105.9398219289243
 30
0.0
 10
219.5674044809921
 20
105.9106695333809
 30
0.0
 10
219.5498192361265
 20
105.8888756581592
 30
0.0
 10
219.5408264282214
 20
105.877730625214
 30
0.0
  0
LINE
  5
1DF
330
1F
100
AcDbEntity
  8
0
  6
Continuous
 62
     7
370
     0
100
AcDbLine
 10
148.2325810598
 20
107.9290928569
 30
0.0
 11
148.2328810598
 21
107.9290928569
 31
0.0
  0
LINE
  5
1E0
330
1F
100
AcDbEntity
  8
0
  6
Continuous
 62
     7
370
     0
100
AcDbLine
 10
148.2328810598
 20
107.9331790282
 30
0.0
 11
148.2325810598
 21
107.9331790423
 31
0.0
  0
LINE
  5
1E1
330
1F
100
AcDbEntity
  8
0
  6
Continuous
 62
     7
370
     0
100
AcDbLine
 10
148.2328810598
 20
107.9331790282
 30
0.0
 11
148.2328810598
 21
107.9290928569
 31
0.0
  0
LINE
  5
1E2
330
1F
100
AcDbEntity
  8
0
  6
Continuous
 62
     7
370
     0
100
AcDbLine
 10
148.2325810598
 20
108.8625779173
 30
0.0
 11
148.2328810598
 21
108.8625779173
 31
0.0
  0
LINE
  5
1E3
330
1F
100
AcDbEntity
  8
0
  6
Continuous
 62
     7
370
     0
100
AcDbLine
 10
148.2325810598
 20
108.4611473356
 30
0.0
 11
148.2328810598
 21
108.4611473272
 31
0.0
  0
LINE
  5
1E4
330
1F
100
AcDbEntity
  8
0
  6
Continuous
 62
     7
370
     0
100
AcDbLine
 10
148.2325810598
 20
106.0184942454
 30
0.0
 11
148.2328810598
 21
106.0184942454
 31
0.0
  0
LINE
  5
1E5
330
1F
100
AcDbEntity
  8
0
  6
Continuous
 62
     7
370
     0
100
AcDbLine
 10
148.2325810598
 20
105.9228760359
 30
0.0
 11
148.2328810598
 21
105.9228760325
 31
0.0
  0
LINE
  5
1E6
330
1F
100
AcDbEntity
  8
0
  6
Continuous
 62
     7
370
     0
100
AcDbLine
 10
148.2325810598
 20
104.4116487093
 30
0.0
 11
148.2328810598
 21
104.4116487093
 31
0.0
  0
LINE
  5
1E7
330
1F
100
AcDbEntity
  8
0
  6
Continuous
 62
     7
370
     0
100
AcDbLine
 10
148.2328810598
 20
104.5137690966
 30
0.0
 11
148.2325810598
 21
104.5137690964
 31
0.0
  0
LINE
  5
1E8
330
1F
100
AcDbEntity
  8
0
  6
Continuous
 62
     7
370
     0
100
AcDbLine
 10
148.2328810598
 20
109.2830708351
 30
0.0
 11
148.2325810598
 21
109.2830708349
 31
0.0
  0
LINE
  5
1E9
330
1F
100
AcDbEntity
  8
0
  6
Continuous
 62
     7
370
     0
100
AcDbLine
 10
148.2325810598
 20
109.2830708349
 30
0.0
 11
148.2325810598
 21
108.4611473356
 31
0.0
  0
LINE
  5
1EA
330
1F
100
AcDbEntity
  8
0
  6
Continuous
 62
     7
370
     0
100
AcDbLine
 10
148.2325810598
 20
107.3744766231
 30
0.0
 11
148.2328810598
 21
107.3744766231
 31
0.0
  0
LINE
  5
1EB
330
1F
100
AcDbEntity
  8
0
  6
Continuous
 62
     7
370
     0
100
AcDbLine
 10
148.2325810598
 20
104.214414498
 30
0.0
 11
148.2328810598
 21
104.2144145016
 31
0.0
  0
LINE
  5
1EC
330
1F
100
AcDbEntity
  8
0
  6
Continuous
 62
     7
370
     0
100
AcDbLine
 10
148.2328810598
 20
81.6119224806
 30
0.0
 11
148.0328810598
 21
81.4119224806
 31
0.0
  0
LINE
  5
1ED
330
1F
100
AcDbEntity
  8
0
  6
Continuous
 62
     7
370
     0
100
AcDbLine
 10
148.0328810598
 20
81.4119224806
 30
0.0
 11
136.1533028951
 21
81.4119224806
 31
0.0
  0
LINE
  5
1EE
330
1F
100
AcDbEntity
  8
0
  6
Continuous
 62
     7
370
     0
100
AcDbLine
 10
136.1533028951
 20
81.4119224806
 30
0.0
 11
136.0039483975
 21
81.6055636336
 31
0.0
  0
ARC
  5
1EF
330
1F
100
AcDbEntity
  8
0
  6
Continuous
 62
     7
370
     0
100
AcDbCircle
 10
39.2328810598
 20
106.8119224806
 30
0.0
 40
100.0
100
AcDbArc
 50
345.4003416144
 51
14.5996583856
  0
LINE
  5
1F0
330
1F
100
AcDbEntity
  8
0
  6
Continuous
 62
     7
370
     0
100
AcDbLine
 10
136.0039483975
 20
132.0182813276
 30
0.0
 11
136.1533028951
 21
132.2119224806
 31
0.0
  0
LINE
  5
1F1
330
1F
100
AcDbEntity
  8
0
  6
Continuous
 62
     7
370
     0
100
AcDbLine
 10
136.1533028951
 20
132.2119224806
 30
0.0
 11
148.0328810598
 21
132.2119224806
 31
0.0
  0
LINE
  5
1F2
330
1F
100
AcDbEntity
  8
0
  6
Continuous
 62
     7
370
     0
100
AcDbLine
 10
148.0328810598
 20
132.2119224806
 30
0.0
 11
148.2328810598
 21
132.0119224806
 31
0.0
  0
LINE
  5
1F3
330
1F
100
AcDbEntity
  8
0
  6
Continuous
 62
     7
370
     0
100
AcDbLine
 10
148.2325810598
 20
104.5137690964
 30
0.0
 11
148.2325810598
 21
104.214414498
 31
0.0
  0
LINE
  5
1F4
330
1F
100
AcDbEntity
  8
0
  6
Continuous
 62
     7
370
     0
100
AcDbLine
 10
148.2325810598
 20
106.2152551492
 30
0.0
 11
148.2325810598
 21
105.9228760359
 31
0.0
  0
LINE
  5
1F5
330
1F
100
AcDbEntity
  8
0
  6
Continuous
 62
     7
370
     0
100
AcDbLine
 10
148.2328810598
 20
106.21525515
 30
0.0
 11
148.2325810598
 21
106.2152551492
 31
0.0
  0
LINE
  5
1F6
330
1F
100
AcDbEntity
  8
0
  6
Continuous
 62
     7
370
     0
100
AcDbLine
 10
148.2328810598
 20
105.9228760325
 30
0.0
 11
148.2328810598
 21
104.5137690966
 31
0.0
  0
LINE
  5
1F7
330
1F
100
AcDbEntity
  8
0
  6
Continuous
 62
     7
370
     0
100
AcDbLine
 10
148.2328810598
 20
104.2144145016
 30
0.0
 11
148.2328810598
 21
81.6119224806
 31
0.0
  0
LINE
  5
1F8
330
1F
100
AcDbEntity
  8
0
  6
Continuous
 62
     7
370
     0
100
AcDbLine
 10
148.2328810598
 20
107.3744766231
 30
0.0
 11
148.2328810598
 21
106.21525515
 31
0.0
  0
LINE
  5
1F9
330
1F
100
AcDbEntity
  8
0
  6
Continuous
 62
     7
370
     0
100
AcDbLine
 10
148.2328810598
 20
108.4611473272
 30
0.0
 11
148.2328810598
 21
107.9331790282
 31
0.0
  0
LINE
  5
1FA
330
1F
100
AcDbEntity
  8
0
  6
Continuous
 62
     7
370
     0
100
AcDbLine
 10
148.2328810598
 20
132.0119224806
 30
0.0
 11
148.2328810598
 21
109.2830708351
 31
0.0
  0
LINE
  5
1FB
330
1F
100
AcDbEntity
  8
0
  6
Continuous
 62
     7
370
     0
100
AcDbLine
 10
148.2325810598
 20
107.9331790423
 30
0.0
 11
148.2325810598
 21
107.3744766231
 31
0.0
  0
LINE
  5
1FC
330
1F
100
AcDbEntity
  8
0
  6
Continuous
 62
     7
370
     0
100
AcDbLine
 10
136.0039483975
 20
132.0182813276
 30
0.0
 11
136.0039483975
 21
81.6055636336
 31
0.0
  0
LINE
  5
1FD
330
1F
100
AcDbEntity
  8
0
  6
Continuous
 62
     7
370
     0
100
AcDbLine
 10
148.2328810598
 20
107.9290928569
 30
0.0
 11
148.2328810598
 21
107.3744766231
 31
0.0
  0
HATCH
  5
1FE
330
1F
100
AcDbEntity
  8
0
  6
Continuous
 62
     7
370
     0
100
AcDbHatch
 10
0.0
 20
0.0
 30
0.0
210
0.0
220
0.0
230
1.0
  2
ANSI31
 70
     0
 71
     0
 91
        1
 92
        0
 93
       24
 72
     1
 10
148.2328810598374
 20
109.2830708351384
 11
148.2328810598374
 21
132.0119224806202
 72
     1
 10
148.2328810598374
 20
132.0119224806202
 11
148.0328810598374
 21
132.2119224806202
 72
     1
 10
148.0328810598374
 20
132.2119224806202
 11
136.1533028951458
 21
132.2119224806202
 72
     1
 10
136.1533028951458
 20
132.2119224806202
 11
136.0039483975264
 21
132.0182813276344
 72
     2
 10
39.23288105983741
 20
106.8119224806202
 40
100.0
 50
345.4003416143963
 51
374.5996583856053
 73
     0
 72
     1
 10
136.0039483975264
 20
81.605563633606
 11
136.1533028951458
 21
81.41192248062018
 72
     1
 10
136.1533028951458
 20
81.41192248062018
 11
148.0328810598374
 21
81.41192248062018
 72
     1
 10
148.0328810598374
 20
81.41192248062018
 11
148.2328810598374
 21
81.61192248062018
 72
     1
 10
148.2328810598374
 20
81.61192248062018
 11
148.2328810598374
 21
104.2144145016133
 72
     1
 10
148.2328810598374
 20
104.2144145016133
 11
148.2325810598374
 21
104.2144144980432
 72
     1
 10
148.2325810598374
 20
104.2144144980432
 11
148.2325810598374
 21
104.5137690964261
 72
     1
 10
148.2325810598374
 20
104.5137690964261
 11
148.2328810598374
 21
104.5137690965668
 72
     1
 10
148.2328810598374
 20
104.5137690965668
 11
148.2328810598374
 21
105.9228760325036
 72
     1
 10
148.2328810598374
 20
105.9228760325036
 11
148.2325810598374
 21
105.922876035947
 72
     1
 10
148.2325810598374
 20
105.922876035947
 11
148.2325810598369
 21
106.2152551491958
 72
     1
 10
148.2325810598369
 20
106.2152551491958
 11
148.2328810598374
 21
106.2152551500247
 72
     1
 10
148.2328810598374
 20
106.2152551500247
 11
148.2328810598374
 21
107.3744766230912
 72
     1
 10
148.2328810598374
 20
107.3744766230912
 11
148.2325810598374
 21
107.3744766230912
 72
     1
 10
148.2325810598374
 20
107.3744766230912
 11
148.2325810598367
 21
107.9331790423216
 72
     1
 10
148.2325810598367
 20
107.9331790423216
 11
148.2328810598374
 21
107.9331790281876
 72
     1
 10
148.2328810598374
 20
107.9331790281876
 11
148.2328810598374
 21
108.461147327165
 72
     1
 10
148.2328810598374
 20
108.461147327165
 11
148.2325810598374
 21
108.4611473356229
 72
     1
 10
148.2325810598374
 20
108.4611473356229
 11
148.2325810598374
 21
109.2830708349132
 72
     1
 10
148.2325810598374
 20
109.2830708349132
 11
148.2328810598374
 21
109.2830708351384
 97
        0
 75
     0
 76
     1
 52
0.0
 41
0.5
 77
     0
 78
     1
 53
45.0
 43
0.0
 44
0.0
 45
-1.122532015133644
 46
1.122532015133644
 79
     0
 98
        1
 10
0.0
 20
0.0
  0
DIMENSION
  5
1FF
330
1F
100
AcDbEntity
  8
0
  6
Continuous
 62
     7
370
     0
100
AcDbDimension
  2
*D9
 10
39.2328810598
 20
106.8119224806
 30
0.0
 11
170.2439068667
 21
89.7104783945
 31
0.0
 70
   164
  1
<>
 71
     1
 42
-1.0
  3
SLDDIMSTYLE1
100
AcDbRadialDimension
 15
138.2091204714
 25
92.5394303384
 35
0.0
 40
0.0
  0
DIMENSION
  5
210
330
1F
100
AcDbEntity
  8
0
  6
Continuous
 62
     7
370
     0
100
AcDbDimension
  2
*D10
 10
139.2328810598
 20
142.2119224806
 30
0.0
 11
162.4414448544
 21
142.2119224806
 31
0.0
 70
   160
 71
     2
 42
-1.0
  3
SLDDIMSTYLE2
100
AcDbAlignedDimension
 13
148.2328810598
 23
132.0119224806
 33
0.0
 14
139.2328810598
 24
106.8119224806
 34
0.0
100
AcDbRotatedDimension
  0
DIMENSION
  5
223
330
1F
100
AcDbEntity
  8
0
  6
Continuous
 62
     7
370
     0
100
AcDbDimension
  2
*D11
 10
148.2328810598
 20
154.2119224806
 30
0.0
 11
164.2328810598
 21
154.2119224806
 31
0.0
 70
   160
  1
<> REF
 71
     2
 42
-1.0
  3
SLDDIMSTYLE3
100
AcDbAlignedDimension
 13
136.0039483975
 23
132.0182813276
 33
0.0
 14
148.2328810598
 24
132.0119224806
 34
0.0
100
AcDbRotatedDimension
  0
MTEXT
  5
237
330
1F
100
AcDbEntity
  8
0
  6
Continuous
 62
     7
370
     0
100
AcDbMText
 10
141.9373706786
 20
74.8271157808
 30
0.0
 40
2.1166666667
 41
0.0
 71
     2
 72
     1
  1
SECTION A-A
  7
SLDTEXTSTYLE0
 73
     1
 44
1.0
  0
OLE2FRAME
  5
238
330
1F
100
AcDbEntity
  8
0
100
AcDbOle2Frame
 70
     2
  3
Paintbrush Picture
 10
229.0524258301
 20
33.6996297921
 30
0.0
 11
265.1686469208
 21
28.555479607
 31
0.0
 71
     2
 72
     0
 73
     1
 90
     7296
310
80557333EF78ADA16C40002412788DD94040000000000000000041161DC7B292
310
7040002412788DD94040000000000000000041161DC7B2927040F6DD59E9338E
310
3C4000000000000000007333EF78ADA16C40F6DD59E9338E3C40000000000000
310
00000000000001000000000100000100000001000000000001000000001C0000
310
D0CF11E0A1B11AE1000000000000000000000000000000003E000300FEFF0900
310
0600000000000000000000000100000001000000000000000010000002000000
310
01000000FEFFFFFF0000000000000000FFFFFFFFFFFFFFFFFFFFFFFFFFFFFFFF
310
FFFFFFFFFFFFFFFFFFFFFFFFFFFFFFFFFFFFFFFFFFFFFFFFFFFFFFFFFFFFFFFF
310
FFFFFFFFFFFFFFFFFFFFFFFFFFFFFFFFFFFFFFFFFFFFFFFFFFFFFFFFFFFFFFFF
310
FFFFFFFFFFFFFFFFFFFFFFFFFFFFFFFFFFFFFFFFFFFFFFFFFFFFFFFFFFFFFFFF
310
FFFFFFFFFFFFFFFFFFFFFFFFFFFFFFFFFFFFFFFFFFFFFFFFFFFFFFFFFFFFFFFF
310
FFFFFFFFFFFFFFFFFFFFFFFFFFFFFFFFFFFFFFFFFFFFFFFFFFFFFFFFFFFFFFFF
310
FFFFFFFFFFFFFFFFFFFFFFFFFFFFFFFFFFFFFFFFFFFFFFFFFFFFFFFFFFFFFFFF
310
FFFFFFFFFFFFFFFFFFFFFFFFFFFFFFFFFFFFFFFFFFFFFFFFFFFFFFFFFFFFFFFF
310
FFFFFFFFFFFFFFFFFFFFFFFFFFFFFFFFFFFFFFFFFFFFFFFFFFFFFFFFFFFFFFFF
310
FFFFFFFFFFFFFFFFFFFFFFFFFFFFFFFFFFFFFFFFFFFFFFFFFFFFFFFFFFFFFFFF
310
FFFFFFFFFFFFFFFFFFFFFFFFFFFFFFFFFFFFFFFFFFFFFFFFFFFFFFFFFFFFFFFF
310
FFFFFFFFFFFFFFFFFFFFFFFFFFFFFFFFFFFFFFFFFFFFFFFFFFFFFFFFFFFFFFFF
310
FFFFFFFFFFFFFFFFFFFFFFFFFFFFFFFFFFFFFFFFFFFFFFFFFFFFFFFFFFFFFFFF
310
FFFFFFFFFFFFFFFFFFFFFFFFFFFFFFFFFFFFFFFFFFFFFFFFFFFFFFFFFFFFFFFF
310
FDFFFFFFFEFFFFFFFEFFFFFFFEFFFFFF05000000060000000700000008000000
310
090000000A0000000B0000000C000000FEFFFFFFFFFFFFFFFFFFFFFFFFFFFFFF
310
FFFFFFFFFFFFFFFFFFFFFFFFFFFFFFFFFFFFFFFFFFFFFFFFFFFFFFFFFFFFFFFF
310
FFFFFFFFFFFFFFFFFFFFFFFFFFFFFFFFFFFFFFFFFFFFFFFFFFFFFFFFFFFFFFFF
310
FFFFFFFFFFFFFFFFFFFFFFFFFFFFFFFFFFFFFFFFFFFFFFFFFFFFFFFFFFFFFFFF
310
FFFFFFFFFFFFFFFFFFFFFFFFFFFFFFFFFFFFFFFFFFFFFFFFFFFFFFFFFFFFFFFF
310
FFFFFFFFFFFFFFFFFFFFFFFFFFFFFFFFFFFFFFFFFFFFFFFFFFFFFFFFFFFFFFFF
310
FFFFFFFFFFFFFFFFFFFFFFFFFFFFFFFFFFFFFFFFFFFFFFFFFFFFFFFFFFFFFFFF
310
FFFFFFFFFFFFFFFFFFFFFFFFFFFFFFFFFFFFFFFFFFFFFFFFFFFFFFFFFFFFFFFF
310
FFFFFFFFFFFFFFFFFFFFFFFFFFFFFFFFFFFFFFFFFFFFFFFFFFFFFFFFFFFFFFFF
310
FFFFFFFFFFFFFFFFFFFFFFFFFFFFFFFFFFFFFFFFFFFFFFFFFFFFFFFFFFFFFFFF
310
FFFFFFFFFFFFFFFFFFFFFFFFFFFFFFFFFFFFFFFFFFFFFFFFFFFFFFFFFFFFFFFF
310
FFFFFFFFFFFFFFFFFFFFFFFFFFFFFFFFFFFFFFFFFFFFFFFFFFFFFFFFFFFFFFFF
310
FFFFFFFFFFFFFFFFFFFFFFFFFFFFFFFFFFFFFFFFFFFFFFFFFFFFFFFFFFFFFFFF
310
FFFFFFFFFFFFFFFFFFFFFFFFFFFFFFFFFFFFFFFFFFFFFFFFFFFFFFFFFFFFFFFF
310
FFFFFFFFFFFFFFFFFFFFFFFFFFFFFFFFFFFFFFFFFFFFFFFFFFFFFFFFFFFFFFFF
310
52006F006F007400200045006E00740072007900000000000000000000000000
310
0000000000000000000000000000000000000000000000000000000000000000
310
16000500FFFFFFFFFFFFFFFF020000000A00030000000000C000000000000046
310
00000000000000000000000090D642EF03C1CD0103000000C000000000000000
310
01004F006C006500000000000000000000000000000000000000000000000000
310
0000000000000000000000000000000000000000000000000000000000000000
310
0A000200FFFFFFFFFFFFFFFFFFFFFFFF00000000000000000000000000000000
310
0000000000000000000000000000000000000000000000001400000000000000
310
010043006F006D0070004F0062006A0000000000000000000000000000000000
310
0000000000000000000000000000000000000000000000000000000000000000
310
120002010100000003000000FFFFFFFF00000000000000000000000000000000
310
0000000000000000000000000000000000000000010000004D00000000000000
310
01004F006C006500310030004E00610074006900760065000000000000000000
310
0000000000000000000000000000000000000000000000000000000000000000
310
1A000200FFFFFFFFFFFFFFFFFFFFFFFF00000000000000000000000000000000
310
000000000000000000000000000000000000000004000000E411000000000000
310
FEFFFFFF02000000FEFFFFFFFFFFFFFFFFFFFFFFFFFFFFFFFFFFFFFFFFFFFFFF
310
FFFFFFFFFFFFFFFFFFFFFFFFFFFFFFFFFFFFFFFFFFFFFFFFFFFFFFFFFFFFFFFF
310
FFFFFFFFFFFFFFFFFFFFFFFFFFFFFFFFFFFFFFFFFFFFFFFFFFFFFFFFFFFFFFFF
310
FFFFFFFFFFFFFFFFFFFFFFFFFFFFFFFFFFFFFFFFFFFFFFFFFFFFFFFFFFFFFFFF
310
FFFFFFFFFFFFFFFFFFFFFFFFFFFFFFFFFFFFFFFFFFFFFFFFFFFFFFFFFFFFFFFF
310
FFFFFFFFFFFFFFFFFFFFFFFFFFFFFFFFFFFFFFFFFFFFFFFFFFFFFFFFFFFFFFFF
310
FFFFFFFFFFFFFFFFFFFFFFFFFFFFFFFFFFFFFFFFFFFFFFFFFFFFFFFFFFFFFFFF
310
FFFFFFFFFFFFFFFFFFFFFFFFFFFFFFFFFFFFFFFFFFFFFFFFFFFFFFFFFFFFFFFF
310
FFFFFFFFFFFFFFFFFFFFFFFFFFFFFFFFFFFFFFFFFFFFFFFFFFFFFFFFFFFFFFFF
310
FFFFFFFFFFFFFFFFFFFFFFFFFFFFFFFFFFFFFFFFFFFFFFFFFFFFFFFFFFFFFFFF
310
FFFFFFFFFFFFFFFFFFFFFFFFFFFFFFFFFFFFFFFFFFFFFFFFFFFFFFFFFFFFFFFF
310
FFFFFFFFFFFFFFFFFFFFFFFFFFFFFFFFFFFFFFFFFFFFFFFFFFFFFFFFFFFFFFFF
310
FFFFFFFFFFFFFFFFFFFFFFFFFFFFFFFFFFFFFFFFFFFFFFFFFFFFFFFFFFFFFFFF
310
FFFFFFFFFFFFFFFFFFFFFFFFFFFFFFFFFFFFFFFFFFFFFFFFFFFFFFFFFFFFFFFF
310
FFFFFFFFFFFFFFFFFFFFFFFFFFFFFFFFFFFFFFFFFFFFFFFFFFFFFFFFFFFFFFFF
310
FFFFFFFFFFFFFFFFFFFFFFFFFFFFFFFFFFFFFFFFFFFFFFFFFFFFFFFFFFFFFFFF
310
0100000200000000000000000000000000000000000000000000000000000000
310
0000000000000000000000000000000000000000000000000000000000000000
310
0100FEFF030A0000FFFFFFFF0A00030000000000C00000000000004607000000
310
5042727573680007000000504272757368000700000050427275736800F439B2
310
7100000000000000000000000000000000000000000000000000000000000000
310
0000000000000000000000000000000000000000000000000000000000000000
310
0000000000000000000000000000000000000000000000000000000000000000
310
0000000000000000000000000000000000000000000000000000000000000000
310
0000000000000000000000000000000000000000000000000000000000000000
310
0000000000000000000000000000000000000000000000000000000000000000
310
0000000000000000000000000000000000000000000000000000000000000000
310
0000000000000000000000000000000000000000000000000000000000000000
310
0000000000000000000000000000000000000000000000000000000000000000
310
0000000000000000000000000000000000000000000000000000000000000000
310
0000000000000000000000000000000000000000000000000000000000000000
310
0000000000000000000000000000000000000000000000000000000000000000
310
E0110000424DDE11000000000000360400002800000096000000170000000100
310
08000000000000000000E7240000E72400000001000000010000000000FF0101
310
01FF020202FF030303FF040404FF050505FF060606FF070707FF080808FF0909
310
09FF0A0A0AFF0B0B0BFF0C0C0CFF0D0D0DFF0E0E0EFF0F0F0FFF101010FF1111
310
11FF121212FF131313FF141414FF151515FF161616FF171717FF181818FF1919
310
19FF1A1A1AFF1B1B1BFF1C1C1CFF1D1D1DFF1E1E1EFF1F1F1FFF202020FF2121
310
21FF222222FF232323FF242424FF252525FF262626FF272727FF282828FF2929
310
29FF2A2A2AFF2B2B2BFF2C2C2CFF2D2D2DFF2E2E2EFF2F2F2FFF303030FF3131
310
31FF323232FF333333FF343434FF353535FF363636FF373737FF383838FF3939
310
39FF3A3A3AFF3B3B3BFF3C3C3CFF3D3D3DFF3E3E3EFF3F3F3FFF404040FF4141
310
41FF424242FF434343FF444444FF454545FF464646FF474747FF484848FF4949
310
49FF4A4A4AFF4B4B4BFF4C4C4CFF4D4D4DFF4E4E4EFF4F4F4FFF505050FF5151
310
51FF525252FF535353FF545454FF555555FF565656FF575757FF585858FF5959
310
59FF5A5A5AFF5B5B5BFF5C5C5CFF5D5D5DFF5E5E5EFF5F5F5FFF606060FF6161
310
61FF626262FF636363FF646464FF656565FF666666FF676767FF686868FF6969
310
69FF6A6A6AFF6B6B6BFF6C6C6CFF6D6D6DFF6E6E6EFF6F6F6FFF707070FF7171
310
71FF727272FF737373FF747474FF757575FF767676FF777777FF787878FF7979
310
79FF7A7A7AFF7B7B7BFF7C7C7CFF7D7D7DFF7E7E7EFF7F7F7FFF808080FF8181
310
81FF828282FF838383FF848484FF858585FF868686FF878787FF888888FF8989
310
89FF8A8A8AFF8B8B8BFF8C8C8CFF8D8D8DFF8E8E8EFF8F8F8FFF909090FF9191
310
91FF929292FF939393FF949494FF959595FF969696FF979797FF989898FF9999
310
99FF9A9A9AFF9B9B9BFF9C9C9CFF9D9D9DFF9E9E9EFF9F9F9FFFA0A0A0FFA1A1
310
A1FFA2A2A2FFA3A3A3FFA4A4A4FFA5A5A5FFA6A6A6FFA7A7A7FFA8A8A8FFA9A9
310
A9FFAAAAAAFFABABABFFACACACFFADADADFFAEAEAEFFAFAFAFFFB0B0B0FFB1B1
310
B1FFB2B2B2FFB3B3B3FFB4B4B4FFB5B5B5FFB6B6B6FFB7B7B7FFB8B8B8FFB9B9
310
B9FFBABABAFFBBBBBBFFBCBCBCFFBDBDBDFFBEBEBEFFBFBFBFFFC0C0C0FFC1C1
310
C1FFC2C2C2FFC3C3C3FFC4C4C4FFC5C5C5FFC6C6C6FFC7C7C7FFC8C8C8FFC9C9
310
C9FFCACACAFFCBCBCBFFCCCCCCFFCDCDCDFFCECECEFFCFCFCFFFD0D0D0FFD1D1
310
D1FFD2D2D2FFD3D3D3FFD4D4D4FFD5D5D5FFD6D6D6FFD7D7D7FFD8D8D8FFD9D9
310
D9FFDADADAFFDBDBDBFFDCDCDCFFDDDDDDFFDEDEDEFFDFDFDFFFE0E0E0FFE1E1
310
E1FFE2E2E2FFE3E3E3FFE4E4E4FFE5E5E5FFE6E6E6FFE7E7E7FFE8E8E8FFE9E9
310
E9FFEAEAEAFFEBEBEBFFECECECFFEDEDEDFFEEEEEEFFEFEFEFFFF0F0F0FFF1F1
310
F1FFF2F2F2FFF3F3F3FFF4F4F4FFF5F5F5FFF6F6F6FFF7F7F7FFF8F8F8FFF9F9
310
F9FFFAFAFAFFFBFBFBFFFCFCFCFFFDFDFDFFFEFEFEFFFFFFFFFFFFFFFFFFFFFF
310
C94E4E4E4F4E4EFFFFFFFFFFC94E4E4E4E4E72FFFFFFFFFFFFFF734E4D4E4E4E
310
C9FFFFFFFFFFAA683516171616265B9BE9FFFFFFFFFF4E4E4E4D4E4EFFFFFFFF
310
FFFFFFFF4E4E4F4E4D4E4E4E4F4E4E4F4D4E4E4E4E4E4D4E4F4E4D4E4E4EAAFF
310
FFFFFFFFFFEA4E4F4F4E4E4E4E4E4D4D4F4F4E4E4E4E4E5B7FAAFFFFFFFFFFFF
310
C9744E1716171616164D8DEAFFFFFFFF0000FFFFFFFFFFFFBA161617161716FF
310
FFFFFFFFB917171616174FFFFFFFFFFFFFFF4E1716161616B9FFFFFFB9341717
310
1716171617171616268CFFFFFFFF161617161617FFFFFFFFFFFFFFB917161717
310
1617167F807F7F7F7F7F7F807F7F807F7F807F7F7F414EFFFFFFFFFFFF8C167F
310
7F807F7F7F7E7F7F807F807F7F807F4E3417258EFFFFEA4E162674AABAEAEBBA
310
AA74341680FFFFFF0000FFFFFFFFFFFFB9171717171617FFFFFFFFFFBB161616
310
16164EFFFFFFFFFFFFFF4E1717171717B9FFFF9C171617171716161616171616
310
171766FFFFFF161717161617FFFFFFFFFFFFFF8E16171717161616FFFFFFFFFF
310
FFFFFFFFFFFFFFFFFFFFFFFFFFAA16D9FFFFFFFFFF3467FFFFFFFFEAFFFFFFFF
310
FFFFFFFFFFFFFFFFFFCA671667EB26278DFFFFFFFFFFFFFFFFFFFF8C2541EAFF
310
0000FFFFFFFFFFFFB9171717171716FFFFFFFFFFBA16171617174EFFFFFFFFFF
310
FFFF4E1717161616BAFF9B1617161616171716171617161616161667FFFF1616
310
16161716FFFFFFFFFFFFFF7F16161617174017FFFFFFFFFFFFFFFFFFFFFFFFFF
310
FFFFFFFFFFFF344E7F7F7F7E7417DAFFFFFFFF80FFFFFFFFFFFFFFFFFFFFFFFF
310
FFFFFF9B163425CAFFFFFFFFFFFFFFFFFFFFFFFFCA2667FF0000FFFFFFFFFFFF
310
BA171717171617FFFFFFFFFFB916171716164EFFFFFFFFFFFFFF4F1716161717
310
B9C91716171616161716161617171616161617168DFF161716161717FFFFFFFF
310
FFFFFF7F17171716164F16FFFFFFFFFFFFFFFFFFFFFFFFFFFFFFFFFFFFFF9B16
310
17161617174EFFFFFFFFFF34FFFFFFFFD9BABABABABADAFFFFFFFFFF7F16AAFF
310
FFFFFFFFFFFFFFFFFFFFFFFFFF9C16BA0000FFFFFFFFFFFFB9161717161717FF
310
FFFFFFFFB917161716174DFFFFFFFFFFFFFF4E1616161616BA4E161617171716
310
419BEAEAAA4E16161617161726E9171717161616FFFFFFFFFFFFFF4F16161717
310
164E16FFFFFFFFFFBAB9B9B9B9B9BABABACAFFFFFFFFFFFFFFFFFFFFFFFFFFFF
310
FFFFBA16FFFFFFFF7F1617161617174DEAFFFFFFEA41FFFFFFFFFFAA4D16174E
310
9BFFFFFFFFFF34730000FFFFFFFFFFFFB9161617171617FFFFFFFFFFBA161616
310
16164EFFFFFFFFFFFFFF4F16161717169B1617161716175BFFFFFFFFFFFF7417
310
16171616168D171717161617FFFFFFFFFFFFEA2616171717167416FFFFFFFFFF
310
16171616171717171717EAFFFFFFFFFFFFFFFFFFFFFFFFFFFFFF6716FFFFFFFF
310
7F4EFFFFFFFFBA2573FFFFFFFFBAFFFFFFFFAA167FB9BB9B269BFFFFFFFF664F
310
0000FFFFFFFFFFFFB9171616161616FFFFFFFFFFBA16161717164EFFFFFFFFFF
310
FFFF4E16161616174E161617171626EAFFFFFFFFFFFFFF4E16161616164E1716
310
16161617FFFFFFFFFFFF671616161716347F16FFFFFFFFFF16B9FFFFFFFFFFFF
310
D9168DFFFFFFFFFFFFFFFFFFFFFFFFFFFFEA1716FFFFFFFF7F4EFFFFFFFFFF7F
310
4EFFFFFFFFFFFFFFFFFF5B66FFFFFFEA347FFFFFFFFF7F4D0000FFFFFFFFFFFF
310
B9171616171617FFFFFFFFFFBA17161716174EFFFFFFFFFFFFFF4D1716161617
310
17161716161673FFFFFFFFFFFFFFFF9B1617161717161616171616174F4E4E4E
310
4E341616171616167E7F16FFFFFFFFFF16BAFFFFFFFFFFFFFF5B41FFFFFFFF34
310
1616171616BAFFFFFF9B1716FFFFFFFF7F4EFFFFFFFFFF4E4EFFFFFFFF734E4E
310
4E4E267EDA9B67164EEAFFFFFFFF744D0000FFFFFFFFFFFFBA171717161617FF
310
FFFFFFFFBA1616171616347F7F7F7F80807F331616161717161717161716B9FF
310
FFFFFFFFFFFFFFE9161616161616171716161716171616161616171616171734
310
EA7F16FFFFFFFFFF16BAFFFFFFFFFFFFFFAA17C9FFFFFF7326BABA5B25FFFFFF
310
FF401716FFFFFFFF7F264F4E4E4E4217AAFFFFFFEA16677F73261616164173CA
310
FFFFFFFFFFFF417F0000FFFFFFFFFFFFBA171616171617FFFFFFFFFFBA161616
310
17171616161616161616161717161616161616161617EAFFFFFFFFFFFFFFFFFF
310
261717161716161617161616161617161617161616174EEAFF8016FFFFFFFFFF
310
17BAFFFFFFFFFFFFFFFF3467FFFFFFC916C9FF3467FFFFFFDA166716FFFFFFFF
310
9C4D4E4E4E4E67AAFFFFFFFF6834FF7F262567AAEAFFFFFFFFFFFFFFFF9B17D9
310
0000FFFFFFFFFFFFB9161616161616FFFFFFFFFFBA1617161717171616161616
310
1716171716161716161617171716FFFFFFFFFFFFFFFFFFFF4E17161716171616
310
1617171616161716171717161616169BFF7F17FFFFFFFFFF17B9FFFFFFFFFFFF
310
FFFF7326FFFFFFFF3473DA16AAFFFFFF7317AA16FFFFFFFFFFFFFFFFFFFFFFFF
310
FFFFEA6725BA4E167FEAFFFFFFFFFFFFFFFFFFFF9C167FFF0000FFFFFFFFFFFF
310
B9161717171716FFFFFFFFFFBA16161716171616171717161617161716161616
310
171617171617EAFFFFFFFFFFFFFFFFFF26161717161616161616161617171616
310
1616161616171616AA8016FFFFFFFFFF16BAFFFFFFFFFFFFFFFFDA179BFFFFFF
310
74348D26FFFFFFFF2566B917FFFFFFFFD8BAB9BAB9BADAFFFFEA41169B7425C9
310
FFFFFFFFFFFFFFFFFFFFAB4F1680FFFF0000FFFFFFFFFFFFBA161717171617FF
310
FFFFFFFFBA17161717161617171617161616161617171616171716171617BBFF
310
FFFFFFFFFFFFFFE9171616161617161617161716FFFFFFFFFFD9671616161617
310
348017FFFFFFFFFF16BAFFFFFFFFFFFFFFFFFF4E5AFFFFFFC916265AFFFFFFAA
310
16AABA16FFFFFFFF7F1617161616179BFFFFEB4127168DFFFFFFFFFFFFFFD99B
310
6734175AC9FFFFFF0000FFFFFFFFFFFFB9161617171617FFFFFFFFFFBB161616
310
1616347F807F7F7F7F8033171716171617171616161672FFFFFFFFFFFFFFFF9C
310
171617171617161716161617FFFFFFFFFFFFFF4117161616174E17FFFFFFFFFF
310
16BAFFFFFFFFFFFFFFFFFF9B16DAFFFFFF34169BFFFFFF5A26FFB917FFFFFFFF
310
7F4EFFFFFFEA5B26FFFFFFEA2616EAFFFFFFFFDA743416331617414E4E4E4ECA
310
0000FFFFFFFFFFFFBA161716161616FFFFFFFFFFBA17171616164EFFFFFFFFFF
310
FFFF4E16161717174E161717171626EBFFFFFFFFFFFFFF4E16161617165B1616
310
16171617FFFFFFFFFFFFFF6716161616161617FFFFFFFFFF16BAFFFFFFFFFFFF
310
FFFFFFEA268CFFFFFF7316EAFFFFEB1774FFB916FFFFFFFF7F4EFFFFFFFF7316
310
FFFFFFFF6826FFFFFFFFEB264D9CEABA257F807F7F6616BA0000FFFFFFFFFFFF
310
BA161716161616FFFFFFFFFFBA16171616164DFFFFFFFFFFFFFF4E1617161617
310
9B1617171717165BEBFFFFFFFFFF671616161617179B171616161616FFFFFFFF
310
FFFFFF3417161617171617FFFFFFFFFF17BAFFFFFFFFFFFFFFFFFFFF6734FFFF
310
FFEBCAFFFFFF8D17C9FFBA17FFFFFFFF7F357F808066174FFFFFFFFF7F16FFFF
310
FFFFD91673B99B415BFFFFFFFFBA16DA00009B7F7F7F807F671617161616167F
310
80807F7E6617161616164EFFFFFFFFFFFFFF4E1616161617B94E171716161616
310
349BC9D9AA4E16171616161634FF161617161717B9B9BAB9BA9B411716171716
310
163416FFFFFFFFFF16B9FFFFFFFFFFFFFFFFFFFFC917CAFFFFFFFFFFFFFF3342
310
FFFFBA17FFFFFFFF9B4E4E4F4E4E66EAFFFFFFFF5B16C9FFFFFFFFAA4E164E73
310
EAFFFFFFFF8D26FF00004E161716161616171617171616171717171617161616
310
17174EFFFFFFFFFFFFFF4E1717171616B9D92616171716171716171717171716
310
16171716AAFF161717171617161617171616161617161716166717FFFFFFFFFF
310
17B9FFFFFFFFFFFFFFFFFFFFFF3467FFFFFFFFFFFFCA168CFFFFBB17FFFFFFFF
310
FFFFFFFFFFFFFFFFFFFFFFEA26265BFFFFFFFFFFFFFFFFFFFFFFFFFFEA3467FF
310
00004D16161616161617161717161617161616171617171616164EFFFFFFFFFF
310
FFFF4D1617161616BAFF9B1616161616161716161616171717161766FFFF1616
310
16171617161617161716171616171717667F16FFFFFFFFFF17BAFFFFFFFFFFFF
310
FFFFFFFFFF8C26EAFFFFFFFFFF6617EAFFFFBA17FFFFFFFFFFFFFFFFFFFFFFFF
310
FFFFEA5A25BA269BFFFFFFFFFFFFFFFFFFFFFFFF6616DAFF00004E1616171616
310
1616161616161716161617171616171616174EFFFFFFFFFFFFFF4D1717171716
310
B9FFFF9C161616161616161716161717171667FFFFFF17161717171716161617
310
1716161616161641E97E16FFFFFFFFFF16B9FFFFFFFFFFFFFFFFFFFFFFEA169B
310
FFFFFFFFEA265BFFFFFFB916FFFFFFFFFFFFFFFFFFFFFFFFFF9B3416AAFF9B17
310
67EAFFFFFFFFFFFFFFFFEA5B169BFFFF00004D17161716161616161717171616
310
161717161716171716174EFFFFFFFFFFFFFF4D1616161616BAFFFFFFBB411616
310
161716161616171634ABFFFFFFFF161716161617171716171617171617267FFF
310
FF7F164E4E4E4E4F17BAFFFFFFFFFFFFFFFFFFFFFFFF66344D4E4E4F4117AAFF
310
FFFFBA174E4E4E4D4E4D4D4E4E4E4E4116174EBBFFFFFFCA342666ABEAFFFFEA
310
AA6725269CFFFFFF0000724F4E4D4D4D4E4D4D4E4E4E4D4E4E4E4E4E4E4E4E4D
310
4E4E74FFFFFFFFFFFFFF734E4E4E4D4ECAFFFFFFFFFFAA663416171717265B9B
310
FFFFFFFFFFFF7F8080807F80807F7F7F7F7F807FBAFFFFFFFF9B4E4E4F4D4D4E
310
4DC9FFFFFFFFFFFFFFFFFFFFFFFFBA4E4E4E4E4D4E4EFFFFFFFFC94E4E4E4F4E
310
4E4E4D4E4E5A807F9CD9FFFFFFFFFFFFFF9B5B2617171716174E8DEAFFFFFFFF
310
0000000000000000000000000000000000000000000000000000000000000000
  1
OLE
  0
ENDSEC
  0
SECTION
  2
OBJECTS
  0
DICTIONARY
  5
C
330
0
100
AcDbDictionary
281
     1
  3
ACAD_GROUP
350
D
  3
ACAD_LAYOUT
350
1A
  3
ACAD_MLINESTYLE
350
17
  3
ACAD_PLOTSETTINGS
350
19
  3
ACAD_PLOTSTYLENAME
350
E
  0
DICTIONARY
  5
D
102
{ACAD_REACTORS
330
C
102
}
330
C
100
AcDbDictionary
281
     1
  0
DICTIONARY
  5
1A
102
{ACAD_REACTORS
330
C
102
}
330
C
100
AcDbDictionary
281
     1
  3
Layout1
350
1E
  3
Layout2
350
26
  3
Model
350
22
  0
DICTIONARY
  5
17
102
{ACAD_REACTORS
330
C
102
}
330
C
100
AcDbDictionary
281
     1
  3
Standard
350
18
  0
DICTIONARY
  5
19
102
{ACAD_REACTORS
330
C
102
}
330
C
100
AcDbDictionary
281
     1
  0
ACDBDICTIONARYWDFLT
  5
E
102
{ACAD_REACTORS
330
C
102
}
330
C
100
AcDbDictionary
281
     1
  3
Normal
350
F
100
AcDbDictionaryWithDefault
340
F
  0
LAYOUT
  5
1E
102
{ACAD_REACTORS
330
1A
102
}
330
1A
100
AcDbPlotSettings
  1

  2
none_device
  4

  6

 40
0.0
 41
0.0
 42
0.0
 43
0.0
 44
0.0
 45
0.0
 46
0.0
 47
0.0
 48
0.0
 49
0.0
140
0.0
141
0.0
142
1.0
143
1.0
 70
   688
 72
     0
 73
     0
 74
     5
  7

 75
    16
147
1.0
148
0.0
149
0.0
100
AcDbLayout
  1
Layout1
 70
     1
 71
     1
 10
0.0
 20
0.0
 11
420.0
 21
297.0
 12
0.0
 22
0.0
 32
0.0
 14
1.0000000000E+20
 24
1.0000000000E+20
 34
1.0000000000E+20
 15
-1.0000000000E+20
 25
-1.0000000000E+20
 35
-1.0000000000E+20
146
0.0
 13
0.0
 23
0.0
 33
0.0
 16
1.0
 26
0.0
 36
0.0
 17
0.0
 27
1.0
 37
0.0
 76
     0
330
1B
  0
LAYOUT
  5
26
102
{ACAD_REACTORS
330
1A
102
}
330
1A
100
AcDbPlotSettings
  1

  2
none_device
  4

  6

 40
0.0
 41
0.0
 42
0.0
 43
0.0
 44
0.0
 45
0.0
 46
0.0
 47
0.0
 48
0.0
 49
0.0
140
0.0
141
0.0
142
1.0
143
1.0
 70
   688
 72
     0
 73
     0
 74
     5
  7

 75
    16
147
1.0
148
0.0
149
0.0
100
AcDbLayout
  1
Layout2
 70
     1
 71
     2
 10
0.0
 20
0.0
 11
0.0
 21
0.0
 12
0.0
 22
0.0
 32
0.0
 14
0.0
 24
0.0
 34
0.0
 15
0.0
 25
0.0
 35
0.0
146
0.0
 13
0.0
 23
0.0
 33
0.0
 16
1.0
 26
0.0
 36
0.0
 17
0.0
 27
1.0
 37
0.0
 76
     0
330
23
  0
LAYOUT
  5
22
102
{ACAD_REACTORS
330
1A
102
}
330
1A
100
AcDbPlotSettings
  1

  2
none_device
  4

  6

 40
0.0
 41
0.0
 42
0.0
 43
0.0
 44
0.0
 45
0.0
 46
0.0
 47
0.0
 48
0.0
 49
0.0
140
0.0
141
0.0
142
1.0
143
1.0
 70
  1712
 72
     0
 73
     0
 74
     0
  7

 75
     0
147
1.0
148
0.0
149
0.0
100
AcDbLayout
  1
Model
 70
     1
 71
     0
 10
0.0
 20
0.0
 11
279.4
 21
215.9
 12
0.0
 22
0.0
 32
0.0
 14
0.0
 24
0.0
 34
0.0
 15
279.4
 25
215.9
 35
0.0
146
0.0
 13
0.0
 23
0.0
 33
0.0
 16
1.0
 26
0.0
 36
0.0
 17
0.0
 27
1.0
 37
0.0
 76
     0
330
1F
331
29
  0
MLINESTYLE
  5
18
102
{ACAD_REACTORS
330
17
102
}
330
17
100
AcDbMlineStyle
  2
Standard
 70
     0
  3

 62
   256
 51
90.0
 52
90.0
 71
     2
 49
0.5
 62
   256
  6
BYLAYER
 49
-0.5
 62
   256
  6
BYLAYER
  0
ACDBPLACEHOLDER
  5
F
102
{ACAD_REACTORS
330
E
102
}
330
E
  0
ENDSEC
  0
EOF
