  0
SECTION
  2
HEADER
  9
$ACADVER
  1
AC1015
  9
$ACADMAINTVER
 70
     6
  9
$DWGCODEPAGE
  3
ANSI_1252
  9
$INSBASE
 10
0.0
 20
0.0
 30
0.0
  9
$EXTMIN
 10
-62.98809523809524
 20
-52.01941553107288
 30
-0.00000001
  9
$EXTMAX
 10
314.0
 20
148.6131494357564
 30
0.00000001
  9
$LIMMIN
 10
-200.0
 20
-200.0
  9
$LIMMAX
 10
500.0
 20
500.0
  9
$ORTHOMODE
 70
     1
  9
$REGENMODE
 70
     1
  9
$FILLMODE
 70
     1
  9
$QTEXTMODE
 70
     0
  9
$MIRRTEXT
 70
     1
  9
$LTSCALE
 40
5.0
  9
$ATTMODE
 70
     1
  9
$TEXTSIZE
 40
2.5
  9
$TRACEWID
 40
1.0
  9
$TEXTSTYLE
  7
STANDARD
  9
$CLAYER
  8
HILFSLINIEN4
  9
$CELTYPE
  6
BYLAYER
  9
$CECOLOR
 62
   256
  9
$CELTSCALE
 40
1.0
  9
$DISPSILH
 70
     0
  9
$DIMSCALE
 40
1.0
  9
$DIMASZ
 40
3.5
  9
$DIMEXO
 40
0.625
  9
$DIMDLI
 40
3.75
  9
$DIMRND
 40
0.0
  9
$DIMDLE
 40
0.0
  9
$DIMEXE
 40
1.25
  9
$DIMTP
 40
0.0
  9
$DIMTM
 40
0.0
  9
$DIMTXT
 40
2.5
  9
$DIMCEN
 40
2.5
  9
$DIMTSZ
 40
0.0
  9
$DIMTOL
 70
     0
  9
$DIMLIM
 70
     0
  9
$DIMTIH
 70
     0
  9
$DIMTOH
 70
     0
  9
$DIMSE1
 70
     0
  9
$DIMSE2
 70
     0
  9
$DIMTAD
 70
     0
  9
$DIMZIN
 70
     8
  9
$DIMBLK
  1

  9
$DIMASO
 70
     1
  9
$DIMSHO
 70
     1
  9
$DIMPOST
  1
mm\X
  9
$DIMAPOST
  1
"
  9
$DIMALT
 70
     1
  9
$DIMALTD
 70
     4
  9
$DIMALTF
 40
0.03937
  9
$DIMLFAC
 40
1.0
  9
$DIMTOFL
 70
     1
  9
$DIMTVP
 40
0.0
  9
$DIMTIX
 70
     0
  9
$DIMSOXD
 70
     0
  9
$DIMSAH
 70
     0
  9
$DIMBLK1
  1

  9
$DIMBLK2
  1

  9
$DIMSTYLE
  2
STANDARD mit Zoll
  9
$DIMCLRD
 70
     0
  9
$DIMCLRE
 70
     0
  9
$DIMCLRT
 70
     0
  9
$DIMTFAC
 40
1.0
  9
$DIMGAP
 40
0.625
  9
$DIMJUST
 70
     0
  9
$DIMSD1
 70
     0
  9
$DIMSD2
 70
     0
  9
$DIMTOLJ
 70
     1
  9
$DIMTZIN
 70
     8
  9
$DIMALTZ
 70
     8
  9
$DIMALTTZ
 70
     0
  9
$DIMUPT
 70
     0
  9
$DIMDEC
 70
     4
  9
$DIMTDEC
 70
     4
  9
$DIMALTU
 70
     2
  9
$DIMALTTD
 70
     4
  9
$DIMTXSTY
  7
STANDARD
  9
$DIMAUNIT
 70
     1
  9
$DIMADEC
 70
     0
  9
$DIMALTRND
 40
0.01
  9
$DIMAZIN
 70
     0
  9
$DIMDSEP
 70
    46
  9
$DIMATFIT
 70
     3
  9
$DIMFRAC
 70
     0
  9
$DIMLDRBLK
  1

  9
$DIMLUNIT
 70
     2
  9
$DIMLWD
 70
    -2
  9
$DIMLWE
 70
    -2
  9
$DIMTMOVE
 70
     0
  9
$LUNITS
 70
     2
  9
$LUPREC
 70
     4
  9
$SKETCHINC
 40
1.0
  9
$FILLETRAD
 40
0.4
  9
$AUNITS
 70
     0
  9
$AUPREC
 70
     0
  9
$MENU
  1
acad
  9
$ELEVATION
 40
0.0
  9
$PELEVATION
 40
0.0
  9
$THICKNESS
 40
0.0
  9
$LIMCHECK
 70
     0
  9
$CHAMFERA
 40
0.0
  9
$CHAMFERB
 40
0.0
  9
$CHAMFERC
 40
0.0
  9
$CHAMFERD
 40
0.0
  9
$SKPOLY
 70
     1
  9
$TDCREATE
 40
2453353.630561689
  9
$TDUCREATE
 40
2453353.588895023
  9
$TDUPDATE
 40
2454055.766439954
  9
$TDUUPDATE
 40
2454055.724773287
  9
$TDINDWG
 40
10.9160274421
  9
$TDUSRTIMER
 40
10.9160268981
  9
$USRTIMER
 70
     1
  9
$ANGBASE
 50
0.0
  9
$ANGDIR
 70
     0
  9
$PDMODE
 70
     3
  9
$PDSIZE
 40
0.0
  9
$PLINEWID
 40
0.0
  9
$SPLFRAME
 70
     0
  9
$SPLINETYPE
 70
     6
  9
$SPLINESEGS
 70
     8
  9
$HANDSEED
  5
53DD
  9
$SURFTAB1
 70
     6
  9
$SURFTAB2
 70
     6
  9
$SURFTYPE
 70
     6
  9
$SURFU
 70
     6
  9
$SURFV
 70
     6
  9
$UCSBASE
  2

  9
$UCSNAME
  2

  9
$UCSORG
 10
0.0
 20
0.0
 30
0.0
  9
$UCSXDIR
 10
1.0
 20
0.0
 30
0.0
  9
$UCSYDIR
 10
0.0
 20
1.0
 30
0.0
  9
$UCSORTHOREF
  2

  9
$UCSORTHOVIEW
 70
     0
  9
$UCSORGTOP
 10
0.0
 20
0.0
 30
0.0
  9
$UCSORGBOTTOM
 10
0.0
 20
0.0
 30
0.0
  9
$UCSORGLEFT
 10
0.0
 20
0.0
 30
0.0
  9
$UCSORGRIGHT
 10
0.0
 20
0.0
 30
0.0
  9
$UCSORGFRONT
 10
0.0
 20
0.0
 30
0.0
  9
$UCSORGBACK
 10
0.0
 20
0.0
 30
0.0
  9
$PUCSBASE
  2

  9
$PUCSNAME
  2

  9
$PUCSORG
 10
0.0
 20
0.0
 30
0.0
  9
$PUCSXDIR
 10
1.0
 20
0.0
 30
0.0
  9
$PUCSYDIR
 10
0.0
 20
1.0
 30
0.0
  9
$PUCSORTHOREF
  2

  9
$PUCSORTHOVIEW
 70
     0
  9
$PUCSORGTOP
 10
0.0
 20
0.0
 30
0.0
  9
$PUCSORGBOTTOM
 10
0.0
 20
0.0
 30
0.0
  9
$PUCSORGLEFT
 10
0.0
 20
0.0
 30
0.0
  9
$PUCSORGRIGHT
 10
0.0
 20
0.0
 30
0.0
  9
$PUCSORGFRONT
 10
0.0
 20
0.0
 30
0.0
  9
$PUCSORGBACK
 10
0.0
 20
0.0
 30
0.0
  9
$USERI1
 70
     0
  9
$USERI2
 70
     0
  9
$USERI3
 70
     0
  9
$USERI4
 70
     0
  9
$USERI5
 70
     0
  9
$USERR1
 40
0.0
  9
$USERR2
 40
0.0
  9
$USERR3
 40
0.0
  9
$USERR4
 40
0.0
  9
$USERR5
 40
0.0
  9
$WORLDVIEW
 70
     1
  9
$SHADEDGE
 70
     3
  9
$SHADEDIF
 70
    70
  9
$TILEMODE
 70
     0
  9
$MAXACTVP
 70
    48
  9
$PINSBASE
 10
0.0
 20
0.0
 30
0.0
  9
$PLIMCHECK
 70
     0
  9
$PEXTMIN
 10
-2.0
 20
-9.0
 30
0.0
  9
$PEXTMAX
 10
410.0
 20
290.0
 30
0.0
  9
$PLIMMIN
 10
-5.74676513671875
 20
-5.776749877929687
  9
$PLIMMAX
 10
414.4115600585936
 20
291.2762591552733
  9
$UNITMODE
 70
     0
  9
$VISRETAIN
 70
     0
  9
$PLINEGEN
 70
     0
  9
$PSLTSCALE
 70
     1
  9
$TREEDEPTH
 70
  3020
  9
$CMLSTYLE
  2
STANDARD
  9
$CMLJUST
 70
     0
  9
$CMLSCALE
 40
1.0
  9
$PROXYGRAPHICS
 70
     1
  9
$MEASUREMENT
 70
     0
  9
$CELWEIGHT
370
    -1
  9
$ENDCAPS
280
     0
  9
$JOINSTYLE
280
     0
  9
$LWDISPLAY
290
     0
  9
$INSUNITS
 70
     0
  9
$HYPERLINKBASE
  1

  9
$STYLESHEET
  1
THORLABS PLOTEINSTELLUNG NORMAL.CTB
  9
$XEDIT
290
     1
  9
$CEPSNTYPE
380
     0
  9
$PSTYLEMODE
290
     1
  9
$FINGERPRINTGUID
  2
{A4AF4F70-9B4A-11D7-A358-0050FC5F506F}
  9
$VERSIONGUID
  2
{66D7AB5F-B348-4F1A-BDEA-972EFB20E2B1}
  9
$EXTNAMES
290
     1
  9
$PSVPSCALE
 40
0.0
  9
$OLESTARTUP
290
     0
  0
ENDSEC
  0
SECTION
  2
CLASSES
  0
CLASS
  1
HATCH
  2
AcDbHatch
  3
AutoCAD 2000
 90
    32768
280
     0
281
     1
  0
CLASS
  1
LWPOLYLINE
  2
AcDbPolyline
  3
AutoCAD 2000
 90
    32768
280
     0
281
     1
  0
CLASS
  1
ACDBDICTIONARYWDFLT
  2
AcDbDictionaryWithDefault
  3
AutoCAD 2000
 90
        0
280
     0
281
     0
  0
CLASS
  1
ACDBPLACEHOLDER
  2
AcDbPlaceHolder
  3
AutoCAD 2000
 90
        0
280
     0
281
     0
  0
CLASS
  1
LAYOUT
  2
AcDbLayout
  3
AutoCAD 2000
 90
        0
280
     0
281
     0
  0
CLASS
  1
DICTIONARYVAR
  2
AcDbDictionaryVar
  3
AutoCAD 2000
 90
        0
280
     0
281
     0
  0
ENDSEC
  0
SECTION
  2
TABLES
  0
TABLE
  2
VPORT
  5
12
330
0
100
AcDbSymbolTable
 70
     2
  0
VPORT
  5
53DC
330
12
100
AcDbSymbolTableRecord
100
AcDbViewportTableRecord
  2
*Active
 70
     0
 10
0.0
 20
0.0
 11
1.0
 21
1.0
 12
130.724594125992
 22
54.50056332220561
 13
0.0
 23
0.0
 14
1.0
 24
1.0
 15
10.0
 25
10.0
 16
0.0
 26
0.0
 36
1.0
 17
0.0
 27
0.0
 37
0.0
 40
277.1419147783181
 41
1.789189189189189
 42
50.0
 43
0.0
 44
0.0
 50
0.0
 51
0.0
 71
     0
 72
   100
 73
     1
 74
     1
 75
     0
 76
     1
 77
     0
 78
     1
281
     0
 65
     1
110
0.0
120
0.0
130
0.0
111
1.0
121
0.0
131
0.0
112
0.0
122
1.0
132
0.0
 79
     0
146
0.0
  0
ENDTAB
  0
TABLE
  2
LTYPE
  5
D
330
0
100
AcDbSymbolTable
 70
     3
  0
LTYPE
  5
E
330
D
100
AcDbSymbolTableRecord
100
AcDbLinetypeTableRecord
  2
BYBLOCK
 70
     0
  3

 72
    65
 73
     0
 40
0.0
  0
LTYPE
  5
F
330
D
100
AcDbSymbolTableRecord
100
AcDbLinetypeTableRecord
  2
BYLAYER
 70
     0
  3

 72
    65
 73
     0
 40
0.0
  0
LTYPE
  5
5
330
D
100
AcDbSymbolTableRecord
100
AcDbLinetypeTableRecord
  2
CONTINUOUS
 70
     0
  3
Solid line
 72
    65
 73
     0
 40
0.0
  0
LTYPE
  5
8C
330
D
100
AcDbSymbolTableRecord
100
AcDbLinetypeTableRecord
  2
VERDECKTX2
 70
     0
  3
Verdeckt (2x) ____ ____ ____ ____ ____ ____ ___
 72
    65
 73
     2
 40
0.75
 49
0.5
 74
     0
 49
-0.25
 74
     0
  0
LTYPE
  5
9F
330
D
100
AcDbSymbolTableRecord
100
AcDbLinetypeTableRecord
  2
MITTE2
 70
     0
  3
Mitte (.5x) ___ _ ___ _ ___ _ ___ _ ___ _ ___
 72
    65
 73
     4
 40
1.125
 49
0.75
 74
     0
 49
-0.125
 74
     0
 49
0.125
 74
     0
 49
-0.125
 74
     0
  0
ENDTAB
  0
TABLE
  2
LAYER
  5
A
330
0
100
AcDbSymbolTable
 70
    18
  0
LAYER
  5
4
330
A
100
AcDbSymbolTableRecord
100
AcDbLayerTableRecord
  2
0
 70
     0
 62
     7
  6
CONTINUOUS
370
    -3
390
597
  0
LAYER
  5
84
330
A
100
AcDbSymbolTableRecord
100
AcDbLayerTableRecord
  2
MECH_KONTUR1
 70
     0
 62
     7
  6
CONTINUOUS
370
    -3
390
597
  0
LAYER
  5
87
330
A
100
AcDbSymbolTableRecord
100
AcDbLayerTableRecord
  2
MECH_VERDECKT
 70
     0
 62
   253
  6
VERDECKTX2
370
    -3
390
597
  0
LAYER
  5
B8
330
A
100
AcDbSymbolTableRecord
100
AcDbLayerTableRecord
  2
MECH_MITTELLINIE
 70
     0
 62
     3
  6
MITTE2
370
    -3
390
597
  0
LAYER
  5
C0
330
A
100
AcDbSymbolTableRecord
100
AcDbLayerTableRecord
  2
MECH_BEM_NORMAL
 70
     0
 62
     2
  6
CONTINUOUS
370
    -3
390
597
  0
LAYER
  5
EB
330
A
100
AcDbSymbolTableRecord
100
AcDbLayerTableRecord
  2
ANSICHTSFENSTER
 70
     0
 62
   120
  6
CONTINUOUS
290
     0
370
    -3
390
597
  0
LAYER
  5
F3
330
A
100
AcDbSymbolTableRecord
100
AcDbLayerTableRecord
  2
HILFSLINIEN4
 70
     0
 62
   151
  6
CONTINUOUS
370
    -3
390
597
  0
LAYER
  5
1B4
330
A
100
AcDbSymbolTableRecord
100
AcDbLayerTableRecord
  2
DEFPOINTS
 70
     0
 62
     7
  6
CONTINUOUS
290
     0
370
    -3
390
597
  0
LAYER
  5
E13
330
A
100
AcDbSymbolTableRecord
100
AcDbLayerTableRecord
  2
MECH_KONTUR5
 70
     0
 62
     5
  6
CONTINUOUS
370
    -3
390
597
  0
LAYER
  5
3D6E
330
A
100
AcDbSymbolTableRecord
100
AcDbLayerTableRecord
  2
RAHMEN035
 70
     0
 62
     5
  6
CONTINUOUS
370
    -3
390
597
  0
LAYER
  5
3D6F
330
A
100
AcDbSymbolTableRecord
100
AcDbLayerTableRecord
  2
RAHMEN025
 70
     0
 62
     7
  6
CONTINUOUS
370
    -3
390
597
  0
LAYER
  5
3D70
330
A
100
AcDbSymbolTableRecord
100
AcDbLayerTableRecord
  2
RAHMEN013
 70
     0
 62
     2
  6
CONTINUOUS
370
    -3
390
597
  0
LAYER
  5
3D71
330
A
100
AcDbSymbolTableRecord
100
AcDbLayerTableRecord
  2
RAHMEN_FÜR_HP5000
 70
     0
 62
    20
  6
CONTINUOUS
370
    -3
390
597
  0
LAYER
  5
3D72
330
A
100
AcDbSymbolTableRecord
100
AcDbLayerTableRecord
  2
Logo Farbe1
 70
     0
 62
   130
  6
CONTINUOUS
370
    -3
390
597
  0
LAYER
  5
3D73
330
A
100
AcDbSymbolTableRecord
100
AcDbLayerTableRecord
  2
Logo Farbe2
 70
     0
 62
   165
  6
CONTINUOUS
370
    -3
390
597
  0
LAYER
  5
4ACA
330
A
100
AcDbSymbolTableRecord
100
AcDbLayerTableRecord
  2
DRUCK_FARBE1
 70
     0
 62
     7
  6
CONTINUOUS
370
    -3
390
597
  0
LAYER
  5
4ACC
330
A
100
AcDbSymbolTableRecord
100
AcDbLayerTableRecord
  2
Logo Umrandung
 70
     0
 62
     1
  6
CONTINUOUS
370
    -3
390
597
  0
LAYER
  5
4D4D
330
A
100
AcDbSymbolTableRecord
100
AcDbLayerTableRecord
  2
TEXT025
 70
     0
 62
     7
  6
CONTINUOUS
370
    -3
390
597
  0
ENDTAB
  0
TABLE
  2
STYLE
  5
B
330
0
100
AcDbSymbolTable
 70
     3
  0
STYLE
  5
C
330
B
100
AcDbSymbolTableRecord
100
AcDbTextStyleTableRecord
  2
STANDARD
 70
     0
 40
0.0
 41
1.0
 50
0.0
 71
     0
 42
2.5
  3
simplex.shx
  4

  0
STYLE
  5
3D74
330
B
100
AcDbSymbolTableRecord
100
AcDbTextStyleTableRecord
  2
HELV_N_BOLD
 70
     0
 40
0.0
 41
1.0
 50
0.0
 71
     0
 42
10.0
  3
swiss.ttf
  4

1001
ACAD
1000
Swis721 BT
1071
       34
  0
STYLE
  5
4ACE
330
B
100
AcDbSymbolTableRecord
100
AcDbTextStyleTableRecord
  2
HELV_N_MEDIUM
 70
     0
 40
0.0
 41
1.08
 50
0.0
 71
     0
 42
10.0
  3
swissl.ttf
  4

1001
ACAD
1000
Swis721 Lt BT
1071
       34
  0
ENDTAB
  0
TABLE
  2
VIEW
  5
10
330
0
100
AcDbSymbolTable
 70
     0
  0
ENDTAB
  0
TABLE
  2
UCS
  5
11
330
0
100
AcDbSymbolTable
 70
     0
  0
ENDTAB
  0
TABLE
  2
APPID
  5
14
330
0
100
AcDbSymbolTable
 70
     6
  0
APPID
  5
15
330
14
100
AcDbSymbolTableRecord
100
AcDbRegAppTableRecord
  2
ACAD
 70
     0
  0
APPID
  5
5A7
330
14
100
AcDbSymbolTableRecord
100
AcDbRegAppTableRecord
  2
CONTENTTABDATA
 70
     0
  0
APPID
  5
5A8
330
14
100
AcDbSymbolTableRecord
100
AcDbRegAppTableRecord
  2
CONTENTCURRENTTAB
 70
     0
  0
APPID
  5
5A9
330
14
100
AcDbSymbolTableRecord
100
AcDbRegAppTableRecord
  2
CONTENTBLOCKDESCRIPTION
 70
     0
  0
APPID
  5
5AA
330
14
100
AcDbSymbolTableRecord
100
AcDbRegAppTableRecord
  2
CONTENTLONGBLOCKNAME
 70
     0
  0
APPID
  5
5AB
330
14
100
AcDbSymbolTableRecord
100
AcDbRegAppTableRecord
  2
CONTENTBLOCKICON
 70
     0
  0
ENDTAB
  0
TABLE
  2
DIMSTYLE
  5
16
330
0
100
AcDbSymbolTable
 70
     2
100
AcDbDimStyleTable
 71
     2
340
4BEB
340
1D
  0
DIMSTYLE
105
1D
102
{ACAD_REACTORS
330
4796
102
}
330
16
100
AcDbSymbolTableRecord
100
AcDbDimStyleTableRecord
  2
STANDARD
 70
     0
 41
2.5
 42
0.625
 43
3.75
 44
1.25
 73
     0
 74
     0
 78
     8
140
2.5
141
2.5
143
0.0394
147
0.625
171
     4
172
     1
273
     8
274
     4
275
     1
284
     8
340
C
  0
DIMSTYLE
105
4BEB
102
{ACAD_REACTORS
330
47D1
330
47D2
330
47D8
330
47F9
330
4D2F
330
4EA8
330
4EE9
330
4799
330
52A4
330
5296
330
52B2
330
4F4E
330
4E6C
330
5306
330
4ECB
330
533C
330
47FA
330
537C
102
}
330
16
100
AcDbSymbolTableRecord
100
AcDbDimStyleTableRecord
  2
STANDARD mit Zoll
 70
     0
  3
mm\X
  4
"
 41
3.5
 42
0.625
 43
3.75
 44
1.25
 73
     0
 74
     0
 78
     8
140
2.5
141
2.5
143
0.03937
147
0.625
148
0.01
170
     1
171
     4
172
     1
274
     4
275
     1
284
     8
285
     8
340
C
  0
ENDTAB
  0
TABLE
  2
BLOCK_RECORD
  5
1
330
0
100
AcDbSymbolTable
 70
    20
  0
BLOCK_RECORD
  5
2
330
1
100
AcDbSymbolTableRecord
100
AcDbBlockTableRecord
  2
*MODEL_SPACE
340
59A
  0
BLOCK_RECORD
  5
3CE8
330
1
100
AcDbSymbolTableRecord
100
AcDbBlockTableRecord
  2
*Paper_Space
340
3CE9
  0
BLOCK_RECORD
  5
4828
330
1
100
AcDbSymbolTableRecord
100
AcDbBlockTableRecord
  2
*D0
340
0
  0
BLOCK_RECORD
  5
4835
330
1
100
AcDbSymbolTableRecord
100
AcDbBlockTableRecord
  2
*D1
340
0
  0
BLOCK_RECORD
  5
484F
330
1
100
AcDbSymbolTableRecord
100
AcDbBlockTableRecord
  2
*D3
340
0
  0
BLOCK_RECORD
  5
485C
330
1
100
AcDbSymbolTableRecord
100
AcDbBlockTableRecord
  2
*D4
340
0
  0
BLOCK_RECORD
  5
4885
330
1
100
AcDbSymbolTableRecord
100
AcDbBlockTableRecord
  2
*D5
340
0
  0
BLOCK_RECORD
  5
4893
330
1
100
AcDbSymbolTableRecord
100
AcDbBlockTableRecord
  2
*D6
340
0
  0
BLOCK_RECORD
  5
4D30
330
1
100
AcDbSymbolTableRecord
100
AcDbBlockTableRecord
  2
*D7
340
0
  0
BLOCK_RECORD
  5
4EA9
330
1
100
AcDbSymbolTableRecord
100
AcDbBlockTableRecord
  2
*D9
340
0
  0
BLOCK_RECORD
  5
4EEA
330
1
100
AcDbSymbolTableRecord
100
AcDbBlockTableRecord
  2
*D11
340
0
  0
BLOCK_RECORD
  5
5103
330
1
100
AcDbSymbolTableRecord
100
AcDbBlockTableRecord
  2
Thorlabs_A3_quer_engl_HP5000
340
0
102
{BLKREFS
331
5187
102
}
  0
BLOCK_RECORD
  5
52B3
330
1
100
AcDbSymbolTableRecord
100
AcDbBlockTableRecord
  2
*D16
340
0
  0
BLOCK_RECORD
  5
5307
330
1
100
AcDbSymbolTableRecord
100
AcDbBlockTableRecord
  2
*D17
340
0
  0
BLOCK_RECORD
  5
533D
330
1
100
AcDbSymbolTableRecord
100
AcDbBlockTableRecord
  2
*D18
340
0
  0
BLOCK_RECORD
  5
537D
330
1
100
AcDbSymbolTableRecord
100
AcDbBlockTableRecord
  2
*D19
340
0
  0
ENDTAB
  0
ENDSEC
  0
SECTION
  2
BLOCKS
  0
BLOCK
  5
3
330
2
100
AcDbEntity
  8
0
100
AcDbBlockBegin
  2
*MODEL_SPACE
 70
     2
 10
0.0
 20
0.0
 30
0.0
  3
*MODEL_SPACE
  1

  0
ENDBLK
  5
6
330
2
100
AcDbEntity
  8
0
100
AcDbBlockEnd
  0
BLOCK
  5
3CEA
330
3CE8
100
AcDbEntity
 67
     1
  8
0
100
AcDbBlockBegin
  2
*Paper_Space
 70
     0
 10
0.0
 20
0.0
 30
0.0
  3
*Paper_Space
  1

  0
ENDBLK
  5
3CEB
330
3CE8
100
AcDbEntity
 67
     1
  8
0
100
AcDbBlockEnd
  0
BLOCK
  5
4833
330
4828
100
AcDbEntity
  8
0
100
AcDbBlockBegin
  2
*D0
 70
     1
 10
0.0
 20
0.0
 30
0.0
  3
*D0
  1

  0
LINE
  5
4E3C
330
4828
100
AcDbEntity
  8
MECH_BEM_NORMAL
 62
     0
370
    -2
100
AcDbLine
 10
217.5
 20
73.625
 30
0.0
 11
217.5
 21
103.2499999999999
 31
0.0
  0
LINE
  5
4E3D
330
4828
100
AcDbEntity
  8
MECH_BEM_NORMAL
 62
     0
370
    -2
100
AcDbLine
 10
282.5
 20
73.625
 30
0.0
 11
282.5
 21
103.2499999999999
 31
0.0
  0
LINE
  5
4E3E
330
4828
100
AcDbEntity
  8
MECH_BEM_NORMAL
 62
     0
370
    -2
100
AcDbLine
 10
221.0
 20
102.0
 30
0.0
 11
241.875
 21
102.0
 31
0.0
  0
LINE
  5
4E3F
330
4828
100
AcDbEntity
  8
MECH_BEM_NORMAL
 62
     0
370
    -2
100
AcDbLine
 10
279.0
 20
102.0
 30
0.0
 11
258.125
 21
102.0
 31
0.0
  0
SOLID
  5
4E40
330
4828
100
AcDbEntity
  8
MECH_BEM_NORMAL
 62
     0
100
AcDbTrace
 10
221.0
 20
102.5833333333332
 30
0.0
 11
221.0
 21
101.4166666666665
 31
0.0
 12
217.5
 22
102.0
 32
0.0
 13
217.5
 23
102.0
 33
0.0
  0
SOLID
  5
4E41
330
4828
100
AcDbEntity
  8
MECH_BEM_NORMAL
 62
     0
100
AcDbTrace
 10
279.0
 20
102.5833333333332
 30
0.0
 11
279.0
 21
101.4166666666665
 31
0.0
 12
282.5
 22
102.0
 32
0.0
 13
282.5
 23
102.0
 33
0.0
  0
MTEXT
  5
4E42
330
4828
100
AcDbEntity
  8
MECH_BEM_NORMAL
 62
     0
100
AcDbMText
 10
250.0
 20
102.0
 30
0.0
 40
2.5
 41
0.0
 71
     5
 72
     1
  1
\A1;65mm\P [2.56"]
 73
     1
 44
1.0
  0
POINT
  5
4E43
330
4828
100
AcDbEntity
  8
DEFPOINTS
 62
     0
100
AcDbPoint
 10
217.5
 20
73.0
 30
0.0
  0
POINT
  5
4E44
330
4828
100
AcDbEntity
  8
DEFPOINTS
 62
     0
100
AcDbPoint
 10
282.5
 20
73.0
 30
0.0
  0
POINT
  5
4E45
330
4828
100
AcDbEntity
  8
DEFPOINTS
 62
     0
100
AcDbPoint
 10
282.5
 20
102.0
 30
0.0
  0
ENDBLK
  5
4834
330
4828
100
AcDbEntity
  8
0
100
AcDbBlockEnd
  0
BLOCK
  5
4840
330
4835
100
AcDbEntity
  8
0
100
AcDbBlockBegin
  2
*D1
 70
     1
 10
0.0
 20
0.0
 30
0.0
  3
*D1
  1

  0
LINE
  5
4E1D
330
4835
100
AcDbEntity
  8
MECH_BEM_NORMAL
 62
     0
370
    -2
100
AcDbLine
 10
216.875
 20
0.0000000000000002
 30
0.0
 11
195.7499999999999
 21
0.0000000000000062
 31
0.0
  0
LINE
  5
4E1E
330
4835
100
AcDbEntity
  8
MECH_BEM_NORMAL
 62
     0
370
    -2
100
AcDbLine
 10
216.875
 20
65.5
 30
0.0
 11
195.7499999999999
 21
65.5
 31
0.0
  0
LINE
  5
4E1F
330
4835
100
AcDbEntity
  8
MECH_BEM_NORMAL
 62
     0
370
    -2
100
AcDbLine
 10
196.9999999999999
 20
3.500000000000006
 30
0.0
 11
196.9999999999999
 21
24.62499999999996
 31
0.0
  0
LINE
  5
4E20
330
4835
100
AcDbEntity
  8
MECH_BEM_NORMAL
 62
     0
370
    -2
100
AcDbLine
 10
196.9999999999999
 20
62.0
 30
0.0
 11
196.9999999999999
 21
40.87499999999996
 31
0.0
  0
SOLID
  5
4E21
330
4835
100
AcDbEntity
  8
MECH_BEM_NORMAL
 62
     0
100
AcDbTrace
 10
196.4166666666665
 20
3.500000000000006
 30
0.0
 11
197.5833333333333
 21
3.500000000000004
 31
0.0
 12
196.9999999999999
 22
0.0000000000000058
 32
0.0
 13
196.9999999999999
 23
0.0000000000000058
 33
0.0
  0
SOLID
  5
4E22
330
4835
100
AcDbEntity
  8
MECH_BEM_NORMAL
 62
     0
100
AcDbTrace
 10
196.4166666666665
 20
62.0
 30
0.0
 11
197.5833333333333
 21
62.0
 31
0.0
 12
197.0
 22
65.5
 32
0.0
 13
197.0
 23
65.5
 33
0.0
  0
MTEXT
  5
4E23
330
4835
100
AcDbEntity
  8
MECH_BEM_NORMAL
 62
     0
100
AcDbMText
 10
196.9999999999999
 20
32.75
 30
0.0
 40
2.5
 41
0.0
 71
     5
 72
     1
  1
\A1;65.5mm\P [2.58"]
 11
0.0000000000000001
 21
1.0
 31
0.0
 73
     1
 44
1.0
  0
POINT
  5
4E24
330
4835
100
AcDbEntity
  8
DEFPOINTS
 62
     0
100
AcDbPoint
 10
217.5
 20
0.0
 30
0.0
  0
POINT
  5
4E25
330
4835
100
AcDbEntity
  8
DEFPOINTS
 62
     0
100
AcDbPoint
 10
217.5
 20
65.5
 30
0.0
  0
POINT
  5
4E26
330
4835
100
AcDbEntity
  8
DEFPOINTS
 62
     0
100
AcDbPoint
 10
197.0
 20
65.5
 30
0.0
  0
ENDBLK
  5
4841
330
4835
100
AcDbEntity
  8
0
100
AcDbBlockEnd
  0
BLOCK
  5
485A
330
484F
100
AcDbEntity
  8
0
100
AcDbBlockBegin
  2
*D3
 70
     1
 10
0.0
 20
0.0
 30
0.0
  3
*D3
  1

  0
LINE
  5
4E46
330
484F
100
AcDbEntity
  8
MECH_BEM_NORMAL
 62
     0
370
    -2
100
AcDbLine
 10
225.0
 20
73.625
 30
0.0
 11
225.0
 21
93.25000000000001
 31
0.0
  0
LINE
  5
4E47
330
484F
100
AcDbEntity
  8
MECH_BEM_NORMAL
 62
     0
370
    -2
100
AcDbLine
 10
275.0
 20
73.625
 30
0.0
 11
275.0
 21
93.25000000000001
 31
0.0
  0
LINE
  5
4E48
330
484F
100
AcDbEntity
  8
MECH_BEM_NORMAL
 62
     0
370
    -2
100
AcDbLine
 10
228.5
 20
92.0
 30
0.0
 11
242.1130952380951
 21
92.0
 31
0.0
  0
LINE
  5
4E49
330
484F
100
AcDbEntity
  8
MECH_BEM_NORMAL
 62
     0
370
    -2
100
AcDbLine
 10
271.4999999999999
 20
92.0
 30
0.0
 11
257.8869047619047
 21
92.0
 31
0.0
  0
SOLID
  5
4E4A
330
484F
100
AcDbEntity
  8
MECH_BEM_NORMAL
 62
     0
100
AcDbTrace
 10
228.5
 20
92.58333333333331
 30
0.0
 11
228.5
 21
91.41666666666669
 31
0.0
 12
225.0
 22
92.0
 32
0.0
 13
225.0
 23
92.0
 33
0.0
  0
SOLID
  5
4E4B
330
484F
100
AcDbEntity
  8
MECH_BEM_NORMAL
 62
     0
100
AcDbTrace
 10
271.4999999999999
 20
92.58333333333331
 30
0.0
 11
271.4999999999999
 21
91.41666666666669
 31
0.0
 12
275.0
 22
92.0
 32
0.0
 13
275.0
 23
92.0
 33
0.0
  0
MTEXT
  5
4E4C
330
484F
100
AcDbEntity
  8
MECH_BEM_NORMAL
 62
     0
100
AcDbMText
 10
250.0
 20
92.0
 30
0.0
 40
2.5
 41
0.0
 71
     5
 72
     1
  1
\A1;50mm\P [1.97"]
 73
     1
 44
1.0
  0
POINT
  5
4E4D
330
484F
100
AcDbEntity
  8
DEFPOINTS
 62
     0
100
AcDbPoint
 10
225.0
 20
73.0
 30
0.0
  0
POINT
  5
4E4E
330
484F
100
AcDbEntity
  8
DEFPOINTS
 62
     0
100
AcDbPoint
 10
275.0
 20
73.0
 30
0.0
  0
POINT
  5
4E4F
330
484F
100
AcDbEntity
  8
DEFPOINTS
 62
     0
100
AcDbPoint
 10
275.0
 20
92.0
 30
0.0
  0
ENDBLK
  5
485B
330
484F
100
AcDbEntity
  8
0
100
AcDbBlockEnd
  0
BLOCK
  5
4867
330
485C
100
AcDbEntity
  8
0
100
AcDbBlockBegin
  2
*D4
 70
     1
 10
0.0
 20
0.0
 30
0.0
  3
*D4
  1

  0
LINE
  5
53BE
330
485C
100
AcDbEntity
  8
MECH_BEM_NORMAL
 62
     0
370
    -2
100
AcDbLine
 10
216.875
 20
0.0000000000000002
 30
0.0
 11
205.7499999999999
 21
0.0000000000000033
 31
0.0
  0
LINE
  5
53BF
330
485C
100
AcDbEntity
  8
MECH_BEM_NORMAL
 62
     0
370
    -2
100
AcDbLine
 10
229.375
 20
40.49999999999999
 30
0.0
 11
205.7499999999999
 21
40.49999999999999
 31
0.0
  0
LINE
  5
53C0
330
485C
100
AcDbEntity
  8
MECH_BEM_NORMAL
 62
     0
370
    -2
100
AcDbLine
 10
206.9999999999999
 20
3.500000000000003
 30
0.0
 11
206.9999999999999
 21
12.36309523809519
 31
0.0
  0
LINE
  5
53C1
330
485C
100
AcDbEntity
  8
MECH_BEM_NORMAL
 62
     0
370
    -2
100
AcDbLine
 10
206.9999999999999
 20
37.0
 30
0.0
 11
206.9999999999999
 21
28.13690476190472
 31
0.0
  0
SOLID
  5
53C2
330
485C
100
AcDbEntity
  8
MECH_BEM_NORMAL
 62
     0
100
AcDbTrace
 10
206.4166666666665
 20
3.500000000000003
 30
0.0
 11
207.5833333333332
 21
3.500000000000002
 31
0.0
 12
206.9999999999999
 22
0.000000000000003
 32
0.0
 13
206.9999999999999
 23
0.000000000000003
 33
0.0
  0
SOLID
  5
53C3
330
485C
100
AcDbEntity
  8
MECH_BEM_NORMAL
 62
     0
100
AcDbTrace
 10
206.4166666666665
 20
37.0
 30
0.0
 11
207.5833333333332
 21
37.0
 31
0.0
 12
206.9999999999999
 22
40.49999999999999
 32
0.0
 13
206.9999999999999
 23
40.49999999999999
 33
0.0
  0
MTEXT
  5
53C4
330
485C
100
AcDbEntity
  8
MECH_BEM_NORMAL
 62
     0
100
AcDbMText
 10
206.9999999999999
 20
20.24999999999999
 30
0.0
 40
2.5
 41
0.0
 71
     5
 72
     1
  1
\A1;40.5mm\P [1.59"]
 11
0.0000000000000001
 21
1.0
 31
0.0
 73
     1
 44
1.0
  0
POINT
  5
53C5
330
485C
100
AcDbEntity
  8
DEFPOINTS
 62
     0
100
AcDbPoint
 10
217.5
 20
0.0
 30
0.0
  0
POINT
  5
53C6
330
485C
100
AcDbEntity
  8
DEFPOINTS
 62
     0
100
AcDbPoint
 10
230.0
 20
40.49999999999999
 30
0.0
  0
POINT
  5
53C7
330
485C
100
AcDbEntity
  8
DEFPOINTS
 62
     0
100
AcDbPoint
 10
206.9999999999999
 20
40.49999999999999
 30
0.0
  0
ENDBLK
  5
4868
330
485C
100
AcDbEntity
  8
0
100
AcDbBlockEnd
  0
BLOCK
  5
4891
330
4885
100
AcDbEntity
  8
0
100
AcDbBlockBegin
  2
*D5
 70
     1
 10
0.0
 20
0.0
 30
0.0
  3
*D5
  1

  0
LINE
  5
4F8A
330
4885
100
AcDbEntity
  8
MECH_BEM_NORMAL
 62
     0
370
    -2
100
AcDbLine
 10
263.5
 20
41.12499999999999
 30
0.0
 11
263.5
 21
49.25
 31
0.0
  0
LINE
  5
4F8B
330
4885
100
AcDbEntity
  8
MECH_BEM_NORMAL
 62
     0
370
    -2
100
AcDbLine
 10
266.5
 20
41.12499999999999
 30
0.0
 11
266.5
 21
49.25
 31
0.0
  0
LINE
  5
4F8C
330
4885
100
AcDbEntity
  8
MECH_BEM_NORMAL
 62
     0
370
    -2
100
AcDbLine
 10
261.0
 20
48.0
 30
0.0
 11
258.4999999999999
 21
48.0
 31
0.0
  0
LINE
  5
4F8D
330
4885
100
AcDbEntity
  8
MECH_BEM_NORMAL
 62
     0
370
    -2
100
AcDbLine
 10
269.0
 20
48.0
 30
0.0
 11
284.9821428571428
 21
48.0
 31
0.0
  0
LINE
  5
4F8E
330
4885
100
AcDbEntity
  8
MECH_BEM_NORMAL
 62
     0
370
    -2
100
AcDbLine
 10
263.5
 20
48.0
 30
0.0
 11
266.5
 21
48.0
 31
0.0
  0
SOLID
  5
4F8F
330
4885
100
AcDbEntity
  8
MECH_BEM_NORMAL
 62
     0
100
AcDbTrace
 10
261.0
 20
48.41666666666665
 30
0.0
 11
261.0
 21
47.58333333333332
 31
0.0
 12
263.5
 22
48.0
 32
0.0
 13
263.5
 23
48.0
 33
0.0
  0
SOLID
  5
4F90
330
4885
100
AcDbEntity
  8
MECH_BEM_NORMAL
 62
     0
100
AcDbTrace
 10
269.0
 20
48.41666666666665
 30
0.0
 11
269.0
 21
47.58333333333332
 31
0.0
 12
266.5
 22
48.0
 32
0.0
 13
266.5
 23
48.0
 33
0.0
  0
MTEXT
  5
4F91
330
4885
100
AcDbEntity
  8
MECH_BEM_NORMAL
 62
     0
100
AcDbMText
 10
299.0
 20
48.0
 30
0.0
 40
2.5
 41
0.0
 71
     5
 72
     1
  1
\A1;for dowel pins\P%%c3H7, 2 Pos.
 73
     1
 44
1.0
  0
POINT
  5
4F92
330
4885
100
AcDbEntity
  8
DEFPOINTS
 62
     0
100
AcDbPoint
 10
263.5
 20
40.49999999999999
 30
0.0
  0
POINT
  5
4F93
330
4885
100
AcDbEntity
  8
DEFPOINTS
 62
     0
100
AcDbPoint
 10
266.5
 20
40.49999999999999
 30
0.0
  0
POINT
  5
4F94
330
4885
100
AcDbEntity
  8
DEFPOINTS
 62
     0
100
AcDbPoint
 10
266.5
 20
48.0
 30
0.0
  0
ENDBLK
  5
4892
330
4885
100
AcDbEntity
  8
0
100
AcDbBlockEnd
  0
BLOCK
  5
489E
330
4893
100
AcDbEntity
  8
0
100
AcDbBlockBegin
  2
*D6
 70
     1
 10
0.0
 20
0.0
 30
0.0
  3
*D6
  1

  0
LINE
  5
53A8
330
4893
100
AcDbEntity
  8
MECH_BEM_NORMAL
 62
     0
370
    -2
100
AcDbLine
 10
216.875
 20
73.0
 30
0.0
 11
185.7499999999999
 21
73.0
 31
0.0
  0
LINE
  5
53A9
330
4893
100
AcDbEntity
  8
MECH_BEM_NORMAL
 62
     0
370
    -2
100
AcDbLine
 10
216.875
 20
0.0000000000000002
 30
0.0
 11
185.7499999999999
 21
0.000000000000009
 31
0.0
  0
LINE
  5
53AA
330
4893
100
AcDbEntity
  8
MECH_BEM_NORMAL
 62
     0
370
    -2
100
AcDbLine
 10
186.9999999999999
 20
69.5
 30
0.0
 11
186.9999999999999
 21
44.62499999999997
 31
0.0
  0
LINE
  5
53AB
330
4893
100
AcDbEntity
  8
MECH_BEM_NORMAL
 62
     0
370
    -2
100
AcDbLine
 10
186.9999999999999
 20
3.500000000000008
 30
0.0
 11
186.9999999999999
 21
28.37499999999997
 31
0.0
  0
SOLID
  5
53AC
330
4893
100
AcDbEntity
  8
MECH_BEM_NORMAL
 62
     0
100
AcDbTrace
 10
186.4166666666666
 20
69.5
 30
0.0
 11
187.5833333333332
 21
69.5
 31
0.0
 12
186.9999999999999
 22
73.0
 32
0.0
 13
186.9999999999999
 23
73.0
 33
0.0
  0
SOLID
  5
53AD
330
4893
100
AcDbEntity
  8
MECH_BEM_NORMAL
 62
     0
100
AcDbTrace
 10
186.4166666666665
 20
3.500000000000008
 30
0.0
 11
187.5833333333332
 21
3.500000000000008
 31
0.0
 12
186.9999999999999
 22
0.0000000000000086
 32
0.0
 13
186.9999999999999
 23
0.0000000000000086
 33
0.0
  0
MTEXT
  5
53AE
330
4893
100
AcDbEntity
  8
MECH_BEM_NORMAL
 62
     0
100
AcDbMText
 10
186.9999999999999
 20
36.5
 30
0.0
 40
2.5
 41
0.0
 71
     5
 72
     1
  1
\A1;73mm\P [2.87"]
 11
0.0000000000000001
 21
1.0
 31
0.0
 73
     1
 44
1.0
  0
POINT
  5
53AF
330
4893
100
AcDbEntity
  8
DEFPOINTS
 62
     0
100
AcDbPoint
 10
217.5
 20
73.0
 30
0.0
  0
POINT
  5
53B0
330
4893
100
AcDbEntity
  8
DEFPOINTS
 62
     0
100
AcDbPoint
 10
217.5
 20
0.0
 30
0.0
  0
POINT
  5
53B1
330
4893
100
AcDbEntity
  8
DEFPOINTS
 62
     0
100
AcDbPoint
 10
186.9999999999999
 20
0.0000000000000086
 30
0.0
  0
ENDBLK
  5
489F
330
4893
100
AcDbEntity
  8
0
100
AcDbBlockEnd
  0
BLOCK
  5
4D3D
330
4D30
100
AcDbEntity
  8
0
100
AcDbBlockBegin
  2
*D7
 70
     1
 10
0.0
 20
0.0
 30
0.0
  3
*D7
  1

  0
LINE
  5
53B2
330
4D30
100
AcDbEntity
  8
MECH_BEM_NORMAL
 62
     0
370
    -2
100
AcDbLine
 10
216.875
 20
0.0000000000000002
 30
0.0
 11
185.7499999999999
 21
0.000000000000009
 31
0.0
  0
LINE
  5
53B3
330
4D30
100
AcDbEntity
  8
MECH_BEM_NORMAL
 62
     0
370
    -2
100
AcDbLine
 10
216.875
 20
-3.999999999999999
 30
0.0
 11
185.7499999999999
 21
-3.999999999999991
 31
0.0
  0
LINE
  5
53B4
330
4D30
100
AcDbEntity
  8
MECH_BEM_NORMAL
 62
     0
370
    -2
100
AcDbLine
 10
187.0
 20
3.500000000000008
 30
0.0
 11
187.0
 21
7.000000000000007
 31
0.0
  0
LINE
  5
53B5
330
4D30
100
AcDbEntity
  8
MECH_BEM_NORMAL
 62
     0
370
    -2
100
AcDbLine
 10
187.0
 20
-7.499999999999992
 30
0.0
 11
187.0
 21
-24.51190476190475
 31
0.0
  0
LINE
  5
53B6
330
4D30
100
AcDbEntity
  8
MECH_BEM_NORMAL
 62
     0
370
    -2
100
AcDbLine
 10
187.0
 20
0.0000000000000086
 30
0.0
 11
187.0
 21
-3.999999999999991
 31
0.0
  0
SOLID
  5
53B7
330
4D30
100
AcDbEntity
  8
MECH_BEM_NORMAL
 62
     0
100
AcDbTrace
 10
186.4166666666666
 20
3.500000000000008
 30
0.0
 11
187.5833333333333
 21
3.500000000000008
 31
0.0
 12
187.0
 22
0.0000000000000086
 32
0.0
 13
187.0
 23
0.0000000000000086
 33
0.0
  0
SOLID
  5
53B8
330
4D30
100
AcDbEntity
  8
MECH_BEM_NORMAL
 62
     0
100
AcDbTrace
 10
186.4166666666666
 20
-7.499999999999992
 30
0.0
 11
187.5833333333333
 21
-7.499999999999992
 31
0.0
 12
187.0
 22
-3.999999999999991
 32
0.0
 13
187.0
 23
-3.999999999999991
 33
0.0
  0
MTEXT
  5
53B9
330
4D30
100
AcDbEntity
  8
MECH_BEM_NORMAL
 62
     0
100
AcDbMText
 10
185.125
 20
-17.75595238095234
 30
0.0
 40
2.5
 41
0.0
 71
     5
 72
     1
  1
\A1;4mm
 11
0.0000000000000001
 21
1.0
 31
0.0
 73
     1
 44
1.0
  0
MTEXT
  5
53BA
330
4D30
100
AcDbEntity
  8
MECH_BEM_NORMAL
 62
     0
100
AcDbMText
 10
189.5297619047618
 20
-17.75595238095234
 30
0.0
 40
2.5
 41
0.0
 71
     5
 72
     1
  1
\A1;[0.16"]
 11
0.0000000000000001
 21
1.0
 31
0.0
 73
     1
 44
1.0
  0
POINT
  5
53BB
330
4D30
100
AcDbEntity
  8
DEFPOINTS
 62
     0
100
AcDbPoint
 10
217.5
 20
0.0
 30
0.0
  0
POINT
  5
53BC
330
4D30
100
AcDbEntity
  8
DEFPOINTS
 62
     0
100
AcDbPoint
 10
217.5
 20
-4.0
 30
0.0
  0
POINT
  5
53BD
330
4D30
100
AcDbEntity
  8
DEFPOINTS
 62
     0
100
AcDbPoint
 10
187.0
 20
-3.999999999999991
 30
0.0
  0
ENDBLK
  5
4D3E
330
4D30
100
AcDbEntity
  8
0
100
AcDbBlockEnd
  0
BLOCK
  5
4EB4
330
4EA9
100
AcDbEntity
  8
0
100
AcDbBlockBegin
  2
*D9
 70
     1
 10
0.0
 20
0.0
 30
0.0
  3
*D9
  1

  0
LINE
  5
4F39
330
4EA9
100
AcDbEntity
  8
MECH_BEM_NORMAL
 62
     0
370
    -2
100
AcDbLine
 10
69.99999999999992
 20
10.62500000000001
 30
0.0
 11
69.99999999999992
 21
126.2499999999999
 31
0.0
  0
LINE
  5
4F3A
330
4EA9
100
AcDbEntity
  8
MECH_BEM_NORMAL
 62
     0
370
    -2
100
AcDbLine
 10
82.9999999999999
 20
89.92500000000005
 30
0.0
 11
82.9999999999999
 21
126.2499999999999
 31
0.0
  0
LINE
  5
4F3B
330
4EA9
100
AcDbEntity
  8
MECH_BEM_NORMAL
 62
     0
370
    -2
100
AcDbLine
 10
79.49999999999993
 20
125.0
 30
0.0
 11
73.4999999999999
 21
125.0
 31
0.0
  0
LINE
  5
4F3C
330
4EA9
100
AcDbEntity
  8
MECH_BEM_NORMAL
 62
     0
370
    -2
100
AcDbLine
 10
69.99999999999992
 20
125.0
 30
0.0
 11
66.4999999999999
 21
125.0
 31
0.0
  0
SOLID
  5
4F3D
330
4EA9
100
AcDbEntity
  8
MECH_BEM_NORMAL
 62
     0
100
AcDbTrace
 10
79.49999999999993
 20
125.5833333333333
 30
0.0
 11
79.49999999999993
 21
124.4166666666665
 31
0.0
 12
82.9999999999999
 22
125.0
 32
0.0
 13
82.9999999999999
 23
125.0
 33
0.0
  0
SOLID
  5
4F3E
330
4EA9
100
AcDbEntity
  8
MECH_BEM_NORMAL
 62
     0
100
AcDbTrace
 10
73.4999999999999
 20
125.5833333333333
 30
0.0
 11
73.4999999999999
 21
124.4166666666665
 31
0.0
 12
69.99999999999992
 22
125.0
 32
0.0
 13
69.99999999999992
 23
125.0
 33
0.0
  0
MTEXT
  5
4F3F
330
4EA9
100
AcDbEntity
  8
MECH_BEM_NORMAL
 62
     0
100
AcDbMText
 10
58.61309523809516
 20
125.0
 30
0.0
 40
2.5
 41
0.0
 71
     5
 72
     1
  1
\A1;13mm\P [0.51"]
 73
     1
 44
1.0
  0
POINT
  5
4F40
330
4EA9
100
AcDbEntity
  8
DEFPOINTS
 62
     0
100
AcDbPoint
 10
69.99999999999992
 20
10.00000000000001
 30
0.0
  0
POINT
  5
4F41
330
4EA9
100
AcDbEntity
  8
DEFPOINTS
 62
     0
100
AcDbPoint
 10
82.9999999999999
 20
89.30000000000005
 30
0.0
  0
POINT
  5
4F42
330
4EA9
100
AcDbEntity
  8
DEFPOINTS
 62
     0
100
AcDbPoint
 10
82.9999999999999
 20
125.0
 30
0.0
  0
ENDBLK
  5
4EB5
330
4EA9
100
AcDbEntity
  8
0
100
AcDbBlockEnd
  0
BLOCK
  5
4EF7
330
4EEA
100
AcDbEntity
  8
0
100
AcDbBlockBegin
  2
*D11
 70
     1
 10
0.0
 20
0.0
 30
0.0
  3
*D11
  1

  0
LINE
  5
4F2E
330
4EEA
100
AcDbEntity
  8
MECH_BEM_NORMAL
 62
     0
370
    -2
100
AcDbLine
 10
149.9999999999999
 20
8.725000000000022
 30
0.0
 11
149.9999999999999
 21
126.2499999999999
 31
0.0
  0
LINE
  5
4F2F
330
4EEA
100
AcDbEntity
  8
MECH_BEM_NORMAL
 62
     0
370
    -2
100
AcDbLine
 10
142.9999999999999
 20
89.92499999999997
 30
0.0
 11
142.9999999999999
 21
126.2499999999999
 31
0.0
  0
LINE
  5
4F30
330
4EEA
100
AcDbEntity
  8
MECH_BEM_NORMAL
 62
     0
370
    -2
100
AcDbLine
 10
139.4999999999999
 20
125.0
 30
0.0
 11
135.9999999999999
 21
125.0
 31
0.0
  0
LINE
  5
4F31
330
4EEA
100
AcDbEntity
  8
MECH_BEM_NORMAL
 62
     0
370
    -2
100
AcDbLine
 10
153.4999999999999
 20
125.0
 30
0.0
 11
156.9999999999999
 21
125.0
 31
0.0
  0
LINE
  5
4F32
330
4EEA
100
AcDbEntity
  8
MECH_BEM_NORMAL
 62
     0
370
    -2
100
AcDbLine
 10
142.9999999999999
 20
125.0
 30
0.0
 11
149.9999999999999
 21
125.0
 31
0.0
  0
SOLID
  5
4F33
330
4EEA
100
AcDbEntity
  8
MECH_BEM_NORMAL
 62
     0
100
AcDbTrace
 10
139.4999999999999
 20
125.5833333333333
 30
0.0
 11
139.4999999999999
 21
124.4166666666665
 31
0.0
 12
142.9999999999999
 22
125.0
 32
0.0
 13
142.9999999999999
 23
125.0
 33
0.0
  0
SOLID
  5
4F34
330
4EEA
100
AcDbEntity
  8
MECH_BEM_NORMAL
 62
     0
100
AcDbTrace
 10
153.4999999999999
 20
125.5833333333333
 30
0.0
 11
153.4999999999999
 21
124.4166666666665
 31
0.0
 12
149.9999999999999
 22
125.0
 32
0.0
 13
149.9999999999999
 23
125.0
 33
0.0
  0
MTEXT
  5
4F35
330
4EEA
100
AcDbEntity
  8
MECH_BEM_NORMAL
 62
     0
100
AcDbMText
 10
165.1249999999999
 20
125.0
 30
0.0
 40
2.5
 41
0.0
 71
     5
 72
     1
  1
\A1;7mm\P [0.28"]
 73
     1
 44
1.0
  0
POINT
  5
4F36
330
4EEA
100
AcDbEntity
  8
DEFPOINTS
 62
     0
100
AcDbPoint
 10
149.9999999999999
 20
8.100000000000022
 30
0.0
  0
POINT
  5
4F37
330
4EEA
100
AcDbEntity
  8
DEFPOINTS
 62
     0
100
AcDbPoint
 10
142.9999999999999
 20
89.29999999999997
 30
0.0
  0
POINT
  5
4F38
330
4EEA
100
AcDbEntity
  8
DEFPOINTS
 62
     0
100
AcDbPoint
 10
142.9999999999999
 20
125.0
 30
0.0
  0
ENDBLK
  5
4EF8
330
4EEA
100
AcDbEntity
  8
0
100
AcDbBlockEnd
  0
BLOCK
  5
5185
330
5103
100
AcDbEntity
  8
0
100
AcDbBlockBegin
  2
Thorlabs_A3_quer_engl_HP5000
 70
     2
 10
0.0
 20
0.0
 30
0.0
  3
Thorlabs_A3_quer_engl_HP5000
  1

  0
LINE
  5
5104
330
5103
100
AcDbEntity
  8
RAHMEN025
100
AcDbLine
 10
221.4999999999999
 20
38.24999999999994
 30
0.0
 11
408.7
 21
38.24999999999994
 31
0.0
  0
LINE
  5
5105
330
5103
100
AcDbEntity
  8
RAHMEN025
100
AcDbLine
 10
276.1
 20
16.99999999999994
 30
0.0
 11
408.6999999999997
 21
16.99999999999994
 31
0.0
  0
LINE
  5
5106
330
5103
100
AcDbEntity
  8
RAHMEN025
100
AcDbLine
 10
221.4999999999999
 20
55.24999999999995
 30
0.0
 11
408.7
 21
55.24999999999995
 31
0.0
  0
LINE
  5
5107
330
5103
100
AcDbEntity
  8
RAHMEN013
100
AcDbLine
 10
221.4999999999999
 20
4.249999999999943
 30
0.0
 11
408.6999999999997
 21
4.249999999999943
 31
0.0
  0
LINE
  5
5108
330
5103
100
AcDbEntity
  8
RAHMEN013
100
AcDbLine
 10
221.4999999999999
 20
21.24999999999994
 30
0.0
 11
320.2999999999999
 21
21.24999999999994
 31
0.0
  0
LINE
  5
5109
330
5103
100
AcDbEntity
  8
RAHMEN013
100
AcDbLine
 10
221.4999999999999
 20
25.49999999999994
 30
0.0
 11
320.2999999999999
 21
25.49999999999994
 31
0.0
  0
LINE
  5
510A
330
5103
100
AcDbEntity
  8
RAHMEN013
100
AcDbLine
 10
221.4999999999999
 20
29.74999999999994
 30
0.0
 11
320.2999999999999
 21
29.74999999999994
 31
0.0
  0
LINE
  5
510B
330
5103
100
AcDbEntity
  8
RAHMEN013
100
AcDbLine
 10
221.4999999999999
 20
33.99999999999994
 30
0.0
 11
320.2999999999999
 21
33.99999999999994
 31
0.0
  0
LINE
  5
510C
330
5103
100
AcDbEntity
  8
RAHMEN013
100
AcDbLine
 10
221.4999999999999
 20
12.74999999999994
 30
0.0
 11
276.1
 21
12.74999999999994
 31
0.0
  0
LINE
  5
510D
330
5103
100
AcDbEntity
  8
RAHMEN013
100
AcDbLine
 10
221.4999999999999
 20
8.499999999999943
 30
0.0
 11
276.1
 21
8.499999999999943
 31
0.0
  0
LINE
  5
510E
330
5103
100
AcDbEntity
  8
RAHMEN025
100
AcDbLine
 10
221.4999999999999
 20
0.0
 30
0.0
 11
221.4999999999999
 21
55.24999999999995
 31
0.0
  0
TEXT
  5
510F
330
5103
100
AcDbEntity
  8
RAHMEN013
100
AcDbText
 10
223.2125
 20
0.8749999999999715
 30
0.0
 40
2.5
  1
rev.
 41
0.75
 72
     1
 11
225.4
 21
2.124999999999971
 31
0.0
100
AcDbText
 73
     2
  0
LINE
  5
5110
330
5103
100
AcDbEntity
  8
RAHMEN013
100
AcDbLine
 10
255.3
 20
38.24999999999994
 30
0.0
 11
255.3
 21
-0.0000000000000568
 31
0.0
  0
LINE
  5
5111
330
5103
100
AcDbEntity
  8
RAHMEN013
100
AcDbLine
 10
229.3
 20
38.24999999999994
 30
0.0
 11
229.3
 21
-0.0000000000000568
 31
0.0
  0
TEXT
  5
5112
330
5103
100
AcDbEntity
  8
RAHMEN013
100
AcDbText
 10
231.2880952380953
 20
0.8749999999999431
 30
0.0
 40
2.5
  1
modification
 72
     1
 11
242.3
 21
2.124999999999943
 31
0.0
100
AcDbText
 73
     2
  0
LINE
  5
5113
330
5103
100
AcDbEntity
  8
RAHMEN025
100
AcDbLine
 10
276.1
 20
55.24999999999995
 30
0.0
 11
276.1
 21
-0.0000000000000568
 31
0.0
  0
LINE
  5
5114
330
5103
100
AcDbEntity
  8
RAHMEN013
100
AcDbLine
 10
268.3
 20
38.24999999999994
 30
0.0
 11
268.3
 21
-0.0000000000000568
 31
0.0
  0
TEXT
  5
5115
330
5103
100
AcDbEntity
  8
RAHMEN013
100
AcDbText
 10
257.9904761904762
 20
0.8749999999999431
 30
0.0
 40
2.5
  1
date
 72
     1
 11
261.8
 21
2.124999999999943
 31
0.0
100
AcDbText
 73
     2
  0
TEXT
  5
5116
330
5103
100
AcDbEntity
  8
RAHMEN013
100
AcDbText
 10
268.8666666666667
 20
0.8749999999999431
 30
0.0
 40
2.5
  1
name
 41
0.7
 72
     1
 11
272.2
 21
2.124999999999943
 31
0.0
100
AcDbText
 73
     2
  0
TEXT
  5
5117
330
5103
100
AcDbEntity
  8
RAHMEN013
100
AcDbText
 10
277.3523125273936
 20
0.8749999999999431
 30
0.0
 40
2.5
  1
origin
100
AcDbText
  0
LINE
  5
5118
330
5103
100
AcDbEntity
  8
RAHMEN025
100
AcDbLine
 10
320.3
 20
55.24999999999995
 30
0.0
 11
320.2999999999999
 21
-0.0000000000000568
 31
0.0
  0
TEXT
  5
5119
330
5103
100
AcDbEntity
  8
RAHMEN013
100
AcDbText
 10
320.9767000439926
 20
0.8749999999999431
 30
0.0
 40
2.5
  1
replacement for
 41
0.6
100
AcDbText
  0
TEXT
  5
511A
330
5103
100
AcDbEntity
  8
RAHMEN013
100
AcDbText
 10
365.4767000439926
 20
0.8749999999999431
 30
0.0
 40
2.5
  1
replaced by
 41
0.6
100
AcDbText
  0
LINE
  5
511B
330
5103
100
AcDbEntity
  8
RAHMEN013
100
AcDbLine
 10
364.4999999999999
 20
4.249999999999943
 30
0.0
 11
364.4999999999999
 21
-0.0000000000001421
 31
0.0
  0
LINE
  5
511C
330
5103
100
AcDbEntity
  8
RAHMEN013
100
AcDbLine
 10
395.6999999999998
 20
8.499999999999943
 30
0.0
 11
408.6999999999997
 21
8.499999999999943
 31
0.0
  0
TEXT
  5
511D
330
5103
100
AcDbEntity
  8
RAHMEN013
100
AcDbText
 10
396.6084594911224
 20
13.63219445009366
 30
0.0
 40
2.5
  1
sheet
100
AcDbText
  0
LINE
  5
511E
330
5103
100
AcDbEntity
  8
RAHMEN013
100
AcDbLine
 10
372.3
 20
55.24999999999988
 30
0.0
 11
372.3
 21
48.87499999999994
 31
0.0
  0
LINE
  5
511F
330
5103
100
AcDbEntity
  8
RAHMEN013
100
AcDbLine
 10
320.3
 20
48.87499999999994
 30
0.0
 11
408.7
 21
48.87499999999994
 31
0.0
  0
TEXT
  5
5120
330
5103
100
AcDbEntity
  8
RAHMEN013
100
AcDbText
 10
321.4262599024915
 20
50.81249999999994
 30
0.0
 40
2.5
  1
scale
100
AcDbText
  0
TEXT
  5
5121
330
5103
100
AcDbEntity
  8
RAHMEN013
100
AcDbText
 10
223.1036659551068
 20
50.81249999999994
 30
0.0
 40
2.5
  1
usage
100
AcDbText
  0
TEXT
  5
5122
330
5103
100
AcDbEntity
  8
RAHMEN013
100
AcDbText
 10
277.7036659551068
 20
50.81249999999994
 30
0.0
 40
2.5
  1
tolerance
100
AcDbText
  0
LINE
  5
5123
330
5103
100
AcDbEntity
  8
RAHMEN013
100
AcDbLine
 10
302.1000000000001
 20
55.24999999999995
 30
0.0
 11
302.1
 21
16.99999999999994
 31
0.0
  0
TEXT
  5
5124
330
5103
100
AcDbEntity
  8
RAHMEN013
100
AcDbText
 10
303.5460981531562
 20
50.81249999999994
 30
0.0
 40
2.5
  1
surface
100
AcDbText
  0
TEXT
  5
5125
330
5103
100
AcDbEntity
  8
RAHMEN013
100
AcDbText
 10
306.4380952380953
 20
34.87499999999994
 30
0.0
 40
2.5
  1
name
 72
     1
 11
311.2
 21
36.12499999999994
 31
0.0
100
AcDbText
 73
     2
  0
TEXT
  5
5126
330
5103
100
AcDbEntity
  8
RAHMEN013
100
AcDbText
 10
290.4904761904763
 20
34.87499999999994
 30
0.0
 40
2.5
  1
date
 72
     1
 11
294.3000000000001
 21
36.12499999999994
 31
0.0
100
AcDbText
 73
     2
  0
TEXT
  5
5127
330
5103
100
AcDbEntity
  8
RAHMEN013
100
AcDbText
 10
277.0989335638842
 20
30.62499999999994
 30
0.0
 40
2.5
  1
drawn
 41
0.8
100
AcDbText
  0
TEXT
  5
5128
330
5103
100
AcDbEntity
  8
RAHMEN013
100
AcDbText
 10
277.0989335638842
 20
26.37499999999994
 30
0.0
 40
2.5
  1
checked
 41
0.6
100
AcDbText
  0
LINE
  5
5129
330
5103
100
AcDbEntity
  8
RAHMEN013
100
AcDbLine
 10
286.5
 20
38.24999999999994
 30
0.0
 11
286.5
 21
16.99999999999997
 31
0.0
  0
LINE
  5
512A
330
5103
100
AcDbEntity
  8
RAHMEN025
100
AcDbLine
 10
395.6999999999999
 20
16.99999999999994
 30
0.0
 11
395.6999999999999
 21
4.249999999999943
 31
0.0
  0
TEXT
  5
512B
330
5103
100
AcDbEntity
  8
RAHMEN013
100
AcDbText
 10
396.3922294743793
 20
5.255790835553909
 30
0.0
 40
2.5
  1
of   sh.
 41
0.8
100
AcDbText
  0
LINE
  5
512C
330
5103
100
AcDbEntity
  8
RAHMEN013
100
AcDbLine
 10
221.4999999999999
 20
16.99999999999994
 30
0.0
 11
276.1
 21
16.99999999999994
 31
0.0
  0
LINE
  5
512D
330
5103
100
AcDbEntity
  8
RAHMEN025
100
AcDbLine
 10
221.4999999999999
 20
-0.0000000000000568
 30
0.0
 11
408.7
 21
-0.0000000000000568
 31
0.0
  0
LINE
  5
512E
330
5103
100
AcDbEntity
  8
RAHMEN025
100
AcDbLine
 10
408.7
 20
-0.0000000000000568
 30
0.0
 11
408.7
 21
55.24999999999995
 31
0.0
  0
TEXT
  5
512F
330
5103
100
AcDbEntity
  8
RAHMEN013
100
AcDbText
 10
321.4620476356916
 20
45.34635004497812
 30
0.0
 40
2.5
  1
material
100
AcDbText
  0
TEXT
  5
5130
330
5103
100
AcDbEntity
  8
RAHMEN013
100
AcDbText
 10
321.4620476356916
 20
42.25715873595919
 30
0.0
 40
2.5
  1
semif. part
 41
0.9
100
AcDbText
  0
TEXT
  5
5131
330
5103
100
AcDbEntity
  8
RAHMEN013
100
AcDbText
 10
321.4620476356916
 20
39.12499999999994
 30
0.0
 40
2.5
  1
raw part no.
 41
0.85
100
AcDbText
  0
LINE
  5
5132
330
5103
100
AcDbEntity
  8
RAHMEN013
100
AcDbLine
 10
302.1000000000001
 20
59.49999999999994
 30
0.0
 11
408.7
 21
59.49999999999994
 31
0.0
  0
LINE
  5
5133
330
5103
100
AcDbEntity
  8
RAHMEN013
100
AcDbLine
 10
302.1000000000001
 20
55.24999999999995
 30
0.0
 11
302.1000000000001
 21
59.49999999999994
 31
0.0
  0
TEXT
  5
5134
330
5103
100
AcDbEntity
  8
RAHMEN013
100
AcDbText
 10
315.5964285714286
 20
56.12499999999994
 30
0.0
 40
2.5
  1
CAD drawing, may only be modified by CAD !
 41
0.9
 72
     1
 11
355.4000000000001
 21
57.37499999999994
 31
0.0
100
AcDbText
 73
     2
  0
ATTDEF
  5
5135
330
5103
100
AcDbEntity
  8
RAHMEN035
100
AcDbText
 10
364.5450880061339
 20
31.98184564905591
 30
0.0
 40
5.0
  1

 72
     4
 11
364.5450880061339
 21
31.98184564905591
 31
0.0
100
AcDbAttributeDefinition
  3
Benennung Zeile 1
  2
BENENNUNG1A
 70
     0
  0
ATTDEF
  5
5136
330
5103
100
AcDbEntity
  8
RAHMEN035
100
AcDbText
 10
321.7999999999999
 20
29.49999999999994
 30
0.0
 40
5.0
  1

 41
1.630363636363637
 72
     5
 11
407.2
 21
29.49999999999994
 31
0.0
100
AcDbAttributeDefinition
  3
oder Zeile 1 eingepaßt
  2
BENENNUNG1B
 70
     0
  0
ATTDEF
  5
5137
330
5103
100
AcDbEntity
  8
RAHMEN035
100
AcDbText
 10
364.5450880061339
 20
23.41041707762733
 30
0.0
 40
5.0
  1

 41
0.9
 72
     4
 11
364.5450880061339
 21
23.41041707762733
 31
0.0
100
AcDbAttributeDefinition
  3
Benennung Zeile 2
  2
BENENNUNG2A
 70
     0
  0
ATTDEF
  5
5138
330
5103
100
AcDbEntity
  8
RAHMEN035
100
AcDbText
 10
321.7999999999999
 20
20.92857142857135
 30
0.0
 40
5.0
  1

 41
1.601250000000002
 72
     5
 11
407.2
 21
20.92857142857135
 31
0.0
100
AcDbAttributeDefinition
  3
oder Zeile 2 eingepaßt
  2
BENENNUNG2B
 70
     0
  0
ATTDEF
  5
5139
330
5103
100
AcDbEntity
  8
RAHMEN035
100
AcDbText
 10
357.9535696603034
 20
10.32473610229661
 30
0.0
 40
5.0
  1

 72
     4
 11
357.9535696603034
 21
10.32473610229661
 31
0.0
100
AcDbAttributeDefinition
  3
Zeichnungsnummer
  2
ZEICHNUNGSNUMMER
 70
     0
  0
ATTDEF
  5
513A
330
5103
100
AcDbEntity
  8
RAHMEN013
100
AcDbText
 10
400.6889142732034
 20
10.79845418694657
 30
0.0
 40
2.5
  1

 72
     4
 11
400.6889142732034
 21
10.79845418694657
 31
0.0
100
AcDbAttributeDefinition
  3
Blatt
  2
BLATT
 70
     0
  0
ATTDEF
  5
513B
330
5103
100
AcDbEntity
  8
RAHMEN013
100
AcDbText
 10
401.6461
 20
6.520830598623604
 30
0.0
 40
2.5
  1

 72
     4
 11
401.6461
 21
6.520830598623604
 31
0.0
100
AcDbAttributeDefinition
  3
von ... Blättern
  2
BLÄTTER
 70
     0
  0
ATTDEF
  5
513C
330
5103
100
AcDbEntity
  8
RAHMEN013
100
AcDbText
 10
339.0916231867283
 20
50.81249999999994
 30
0.0
 40
2.5
  1

100
AcDbAttributeDefinition
  3
Maßstab
  2
MAßSTAB
 70
     0
  0
ATTDEF
  5
513D
330
5103
100
AcDbEntity
  8
RAHMEN013
100
AcDbText
 10
345.1346962179381
 20
44.31249999999994
 30
0.0
 40
2.5
  1

 11
345.1346962179381
 21
45.56249999999994
 31
0.0
100
AcDbAttributeDefinition
  3
Werkstoff, Rohteil Zeile 1
  2
WERKSTOFF1
 70
     0
 74
     2
  0
ATTDEF
  5
513E
330
5103
100
AcDbEntity
  8
RAHMEN013
100
AcDbText
 10
345.1346962179381
 20
40.02678571428567
 30
0.0
 40
2.5
  1

 11
345.1346962179381
 21
41.27678571428567
 31
0.0
100
AcDbAttributeDefinition
  3
Werkstoff, Rohteil Zeile 2
  2
WERKSTOFF2
 70
     0
 74
     2
  0
ATTDEF
  5
513F
330
5103
100
AcDbEntity
  8
RAHMEN025
100
AcDbText
 10
248.7999999999999
 20
43.56249999999994
 30
0.0
 40
3.5
  1

 72
     4
 11
248.7999999999999
 21
43.56249999999994
 31
0.0
100
AcDbAttributeDefinition
  3
Verwendung bei
  2
VERWENDUNGA
 70
     0
  0
ATTDEF
  5
5140
330
5103
100
AcDbEntity
  8
RAHMEN025
100
AcDbText
 10
223.2
 20
41.79999999999992
 30
0.0
 40
3.5
  1

 41
1.365333333333334
 72
     5
 11
274.4000000000001
 21
41.79999999999992
 31
0.0
100
AcDbAttributeDefinition
  3
Verwendung bei, eingepaßt
  2
VERWENDUNGB
 70
     0
  0
ATTDEF
  5
5141
330
5103
100
AcDbEntity
  8
RAHMEN013
100
AcDbText
 10
277.6892857142857
 20
44.31249999999994
 30
0.0
 40
2.5
  1
DIN ISO 2768
 41
0.9
 72
     4
 11
289.1
 21
45.56249999999994
 31
0.0
100
AcDbAttributeDefinition
  3
Zul. Abweichung Zeile 1
  2
ZUL_ABW1
 70
     0
  0
ATTDEF
  5
5142
330
5103
100
AcDbEntity
  8
RAHMEN013
100
AcDbText
 10
286.475
 20
40.02678571428567
 30
0.0
 40
2.5
  1
fein
 41
0.9
 72
     4
 11
289.1
 21
41.27678571428567
 31
0.0
100
AcDbAttributeDefinition
  3
Zul. Abweichung Zeile 2
  2
ZUL_ABW2
 70
     0
  0
ATTDEF
  5
5143
330
5103
100
AcDbEntity
  8
RAHMEN013
100
AcDbText
 10
302.9
 20
44.28571428571422
 30
0.0
 40
2.5
  1

 41
1.133658536585359
 72
     5
 11
319.5
 21
44.28571428571422
 31
0.0
100
AcDbAttributeDefinition
  3
Oberfläche Zeile 1
  2
OBERFL1
 70
     0
  0
ATTDEF
  5
5144
330
5103
100
AcDbEntity
  8
RAHMEN013
100
AcDbText
 10
302.9
 20
39.99999999999994
 30
0.0
 40
2.5
  1

 41
1.05636363636363
 72
     5
 11
319.5
 21
39.99999999999994
 31
0.0
100
AcDbAttributeDefinition
  3
Oberfläche Zeile 2
  2
OBERFL2
 70
     0
  0
ATTDEF
  5
5145
330
5103
100
AcDbEntity
  8
RAHMEN013
100
AcDbText
 10
287.1550213503376
 20
30.70603256725522
 30
0.0
 40
2.5
  1

 41
0.9
100
AcDbAttributeDefinition
  3
Bearbeitet am
  2
BEARBETET
 70
     0
  0
ATTDEF
  5
5146
330
5103
100
AcDbEntity
  8
RAHMEN013
100
AcDbText
 10
303.4181341021422
 20
30.70603256725522
 30
0.0
 40
2.5
  1

100
AcDbAttributeDefinition
  3
Bearbeitet von
  2
NAMEBEARB
 70
     0
  0
ATTDEF
  5
5147
330
5103
100
AcDbEntity
  8
RAHMEN013
100
AcDbText
 10
287.1550213503376
 20
26.45603256725522
 30
0.0
 40
2.5
  1

 41
0.9
100
AcDbAttributeDefinition
  3
Geprüft am
  2
GEPRÜFT
 70
     0
  0
ATTDEF
  5
5148
330
5103
100
AcDbEntity
  8
RAHMEN013
100
AcDbText
 10
303.4181341021422
 20
26.45603256725522
 30
0.0
 40
2.5
  1

100
AcDbAttributeDefinition
  3
Geprüft von
  2
NAMEGEPR
 70
     0
  0
ATTDEF
  5
5149
330
5103
100
AcDbEntity
  8
RAHMEN013
100
AcDbText
 10
349.8999999999998
 20
0.8749999999999431
 30
0.0
 40
2.5
  1

 72
     1
 11
349.8999999999998
 21
2.124999999999943
 31
0.0
100
AcDbAttributeDefinition
  3
Ersatz für
  2
ERSATZF
 70
     0
 74
     2
  0
ATTDEF
  5
514A
330
5103
100
AcDbEntity
  8
RAHMEN013
100
AcDbText
 10
394.0999999999999
 20
0.8749999999998294
 30
0.0
 40
2.5
  1

 72
     1
 11
394.0999999999999
 21
2.124999999999829
 31
0.0
100
AcDbAttributeDefinition
  3
Ersatz durch
  2
ERSATZD
 70
     0
 74
     2
  0
ATTDEF
  5
514B
330
5103
100
AcDbEntity
  8
RAHMEN013
100
AcDbText
 10
222.0
 20
66.99999999999994
 30
0.0
 40
2.5
  1

100
AcDbAttributeDefinition
  3
Bemerkung Zeile 1
  2
BEM1
 70
     0
  0
ATTDEF
  5
514C
330
5103
100
AcDbEntity
  8
RAHMEN013
100
AcDbText
 10
222.0
 20
62.71428571428566
 30
0.0
 40
2.5
  1

100
AcDbAttributeDefinition
  3
Bemerkung Zeile 2
  2
BEM2
 70
     0
  0
ATTDEF
  5
514D
330
5103
100
AcDbEntity
  8
RAHMEN013
100
AcDbText
 10
222.0
 20
58.42857142857136
 30
0.0
 40
2.5
  1

100
AcDbAttributeDefinition
  3
Bemerkung Zeile 3
  2
BEM3
 70
     0
  0
LINE
  5
514E
330
5103
100
AcDbEntity
  8
RAHMEN013
  6
MITTE2
100
AcDbLine
 10
394.325
 20
55.21249999999992
 30
0.0
 11
394.325
 21
48.91249999999991
 31
0.0
  0
LINE
  5
514F
330
5103
100
AcDbEntity
  8
RAHMEN013
  6
MITTE2
100
AcDbLine
 10
391.1749999999999
 20
52.06249999999991
 30
0.0
 11
397.4749999999999
 21
52.06249999999991
 31
0.0
  0
CIRCLE
  5
5150
330
5103
100
AcDbEntity
  8
RAHMEN025
100
AcDbCircle
 10
394.325
 20
52.06249999999991
 30
0.0
 40
2.25
  0
LINE
  5
5151
330
5103
100
AcDbEntity
  8
RAHMEN025
100
AcDbLine
 10
383.625
 20
50.8274999999999
 30
0.0
 11
388.825
 21
49.81249999999988
 31
0.0
  0
LINE
  5
5152
330
5103
100
AcDbEntity
  8
RAHMEN025
100
AcDbLine
 10
383.625
 20
53.29749999999993
 30
0.0
 11
388.825
 21
54.31249999999991
 31
0.0
  0
LINE
  5
5153
330
5103
100
AcDbEntity
  8
RAHMEN013
  6
MITTE2
100
AcDbLine
 10
382.6249999999999
 20
52.06249999999991
 30
0.0
 11
389.825
 21
52.06249999999991
 31
0.0
  0
LINE
  5
5154
330
5103
100
AcDbEntity
  8
RAHMEN025
100
AcDbLine
 10
383.625
 20
53.29749999999993
 30
0.0
 11
383.625
 21
50.8274999999999
 31
0.0
  0
LINE
  5
5155
330
5103
100
AcDbEntity
  8
RAHMEN025
100
AcDbLine
 10
388.825
 20
54.31249999999991
 30
0.0
 11
388.825
 21
49.81249999999988
 31
0.0
  0
CIRCLE
  5
5156
330
5103
100
AcDbEntity
  8
RAHMEN025
100
AcDbCircle
 10
394.325
 20
52.06249999999991
 30
0.0
 40
1.235
  0
ATTDEF
  5
5157
330
5103
100
AcDbEntity
  8
RAHMEN013
100
AcDbText
 10
225.4
 20
36.12499999999994
 30
0.0
 40
2.5
  1

 72
     4
 11
225.4
 21
36.12499999999994
 31
0.0
100
AcDbAttributeDefinition
  3
Zustand 1
  2
ZUST1
 70
     0
  0
ATTDEF
  5
5158
330
5103
100
AcDbEntity
  8
RAHMEN013
100
AcDbText
 10
230.5000000000001
 20
34.84999999999994
 30
0.0
 40
2.5
  1

 41
2.832000000000002
 72
     5
 11
254.1000000000001
 21
34.84999999999994
 31
0.0
100
AcDbAttributeDefinition
  3
Änderung 1
  2
ÄND1
 70
     0
  0
ATTDEF
  5
5159
330
5103
100
AcDbEntity
  8
RAHMEN013
100
AcDbText
 10
256.1000000000001
 20
34.84999999999994
 30
0.0
 40
2.5
  1

 41
1.450909090909073
 72
     5
 11
267.5
 21
34.84999999999994
 31
0.0
100
AcDbAttributeDefinition
  3
Datum 1
  2
DAT1
 70
     0
  0
ATTDEF
  5
515A
330
5103
100
AcDbEntity
  8
RAHMEN013
100
AcDbText
 10
269.1000000000001
 20
34.84999999999994
 30
0.0
 40
2.5
  1

 41
0.5660869565217225
 72
     5
 11
275.2999999999999
 21
34.84999999999994
 31
0.0
100
AcDbAttributeDefinition
  3
Name 1
  2
NAME1
 70
     0
  0
ATTDEF
  5
515B
330
5103
100
AcDbEntity
  8
RAHMEN013
100
AcDbText
 10
225.4
 20
31.87499999999994
 30
0.0
 40
2.5
  1

 72
     4
 11
225.4
 21
31.87499999999994
 31
0.0
100
AcDbAttributeDefinition
  3
Zustand 2
  2
ZUST2
 70
     0
  0
ATTDEF
  5
515C
330
5103
100
AcDbEntity
  8
RAHMEN013
100
AcDbText
 10
230.5000000000001
 20
30.59999999999993
 30
0.0
 40
2.5
  1

 41
2.509367088607596
 72
     5
 11
254.1000000000001
 21
30.59999999999993
 31
0.0
100
AcDbAttributeDefinition
  3
Änderung 2
  2
ÄND2
 70
     0
  0
ATTDEF
  5
515D
330
5103
100
AcDbEntity
  8
RAHMEN013
100
AcDbText
 10
256.1000000000001
 20
30.59999999999993
 30
0.0
 40
2.5
  1

 41
1.276799999999984
 72
     5
 11
267.5
 21
30.59999999999993
 31
0.0
100
AcDbAttributeDefinition
  3
Datum 2
  2
DAT2
 70
     0
  0
ATTDEF
  5
515E
330
5103
100
AcDbEntity
  8
RAHMEN013
100
AcDbText
 10
269.1000000000001
 20
30.59999999999993
 30
0.0
 40
2.5
  1

 41
0.5156435643564203
 72
     5
 11
275.2999999999999
 21
30.59999999999993
 31
0.0
100
AcDbAttributeDefinition
  3
Name 2
  2
NAME2
 70
     0
  0
ATTDEF
  5
515F
330
5103
100
AcDbEntity
  8
RAHMEN013
100
AcDbText
 10
225.4
 20
27.62499999999994
 30
0.0
 40
2.5
  1

 72
     4
 11
225.4
 21
27.62499999999994
 31
0.0
100
AcDbAttributeDefinition
  3
Zustand 3
  2
ZUST3
 70
     0
  0
ATTDEF
  5
5160
330
5103
100
AcDbEntity
  8
RAHMEN013
100
AcDbText
 10
230.5000000000001
 20
26.34999999999994
 30
0.0
 40
2.5
  1

 41
2.509367088607597
 72
     5
 11
254.1000000000001
 21
26.34999999999994
 31
0.0
100
AcDbAttributeDefinition
  3
Änderung 3
  2
ÄND3
 70
     0
  0
ATTDEF
  5
5161
330
5103
100
AcDbEntity
  8
RAHMEN013
100
AcDbText
 10
256.1000000000001
 20
26.34999999999994
 30
0.0
 40
2.5
  1

 41
1.276799999999985
 72
     5
 11
267.5
 21
26.34999999999994
 31
0.0
100
AcDbAttributeDefinition
  3
Datum 3
  2
DAT3
 70
     0
  0
ATTDEF
  5
5162
330
5103
100
AcDbEntity
  8
RAHMEN013
100
AcDbText
 10
269.1000000000001
 20
26.34999999999994
 30
0.0
 40
2.5
  1

 41
0.5156435643564205
 72
     5
 11
275.2999999999999
 21
26.34999999999994
 31
0.0
100
AcDbAttributeDefinition
  3
Name 3
  2
NAME3
 70
     0
  0
ATTDEF
  5
5163
330
5103
100
AcDbEntity
  8
RAHMEN013
100
AcDbText
 10
225.4
 20
23.37499999999994
 30
0.0
 40
2.5
  1

 72
     4
 11
225.4
 21
23.37499999999994
 31
0.0
100
AcDbAttributeDefinition
  3
Zustand 4
  2
ZUST4
 70
     0
  0
ATTDEF
  5
5164
330
5103
100
AcDbEntity
  8
RAHMEN013
100
AcDbText
 10
230.5000000000001
 20
22.09999999999993
 30
0.0
 40
2.5
  1

 41
2.478000000000002
 72
     5
 11
254.1000000000001
 21
22.09999999999993
 31
0.0
100
AcDbAttributeDefinition
  3
Änderung 4
  2
ÄND4
 70
     0
  0
ATTDEF
  5
5165
330
5103
100
AcDbEntity
  8
RAHMEN013
100
AcDbText
 10
256.1000000000001
 20
22.09999999999993
 30
0.0
 40
2.5
  1

 41
1.259999999999984
 72
     5
 11
267.5
 21
22.09999999999993
 31
0.0
100
AcDbAttributeDefinition
  3
Datum 4
  2
DAT4
 70
     0
  0
ATTDEF
  5
5166
330
5103
100
AcDbEntity
  8
RAHMEN013
100
AcDbText
 10
269.1000000000001
 20
22.09999999999993
 30
0.0
 40
2.5
  1

 41
0.5105882352941028
 72
     5
 11
275.2999999999999
 21
22.09999999999993
 31
0.0
100
AcDbAttributeDefinition
  3
Name 4
  2
NAME4
 70
     0
  0
ATTDEF
  5
5167
330
5103
100
AcDbEntity
  8
RAHMEN013
100
AcDbText
 10
225.4
 20
19.12499999999994
 30
0.0
 40
2.5
  1

 72
     4
 11
225.4
 21
19.12499999999994
 31
0.0
100
AcDbAttributeDefinition
  3
Zustand 5
  2
ZUST5
 70
     0
  0
ATTDEF
  5
5168
330
5103
100
AcDbEntity
  8
RAHMEN013
100
AcDbText
 10
230.5000000000001
 20
17.84999999999993
 30
0.0
 40
2.5
  1

 41
2.509367088607597
 72
     5
 11
254.1000000000001
 21
17.84999999999993
 31
0.0
100
AcDbAttributeDefinition
  3
Änderung 5
  2
ÄND5
 70
     0
  0
ATTDEF
  5
5169
330
5103
100
AcDbEntity
  8
RAHMEN013
100
AcDbText
 10
256.1000000000001
 20
17.84999999999993
 30
0.0
 40
2.5
  1

 41
1.276799999999985
 72
     5
 11
267.5
 21
17.84999999999993
 31
0.0
100
AcDbAttributeDefinition
  3
Datum 5
  2
DAT5
 70
     0
  0
ATTDEF
  5
516A
330
5103
100
AcDbEntity
  8
RAHMEN013
100
AcDbText
 10
269.1000000000001
 20
17.84999999999993
 30
0.0
 40
2.5
  1

 41
0.5156435643564203
 72
     5
 11
275.2999999999999
 21
17.84999999999993
 31
0.0
100
AcDbAttributeDefinition
  3
Name 5
  2
NAME5
 70
     0
  0
ATTDEF
  5
516B
330
5103
100
AcDbEntity
  8
RAHMEN013
100
AcDbText
 10
225.4
 20
14.87499999999994
 30
0.0
 40
2.5
  1

 72
     4
 11
225.4
 21
14.87499999999994
 31
0.0
100
AcDbAttributeDefinition
  3
Zustand 6
  2
ZUST6
 70
     0
  0
ATTDEF
  5
516C
330
5103
100
AcDbEntity
  8
RAHMEN013
100
AcDbText
 10
230.5000000000001
 20
13.59999999999993
 30
0.0
 40
2.5
  1

 41
2.541538461538464
 72
     5
 11
254.1000000000001
 21
13.59999999999993
 31
0.0
100
AcDbAttributeDefinition
  3
Änderung 6
  2
ÄND6
 70
     0
  0
ATTDEF
  5
516D
330
5103
100
AcDbEntity
  8
RAHMEN013
100
AcDbText
 10
256.1000000000001
 20
13.59999999999993
 30
0.0
 40
2.5
  1

 41
1.294054054054038
 72
     5
 11
267.5
 21
13.59999999999993
 31
0.0
100
AcDbAttributeDefinition
  3
Datum 6
  2
DAT6
 70
     0
  0
ATTDEF
  5
516E
330
5103
100
AcDbEntity
  8
RAHMEN013
100
AcDbText
 10
269.1000000000001
 20
13.59999999999993
 30
0.0
 40
2.5
  1

 41
0.5207999999999848
 72
     5
 11
275.2999999999999
 21
13.59999999999993
 31
0.0
100
AcDbAttributeDefinition
  3
Name 6
  2
NAME6
 70
     0
  0
ATTDEF
  5
516F
330
5103
100
AcDbEntity
  8
RAHMEN013
100
AcDbText
 10
225.4
 20
10.62499999999994
 30
0.0
 40
2.5
  1

 72
     4
 11
225.4
 21
10.62499999999994
 31
0.0
100
AcDbAttributeDefinition
  3
Zustand 7
  2
ZUST7
 70
     0
  0
ATTDEF
  5
5170
330
5103
100
AcDbEntity
  8
RAHMEN013
100
AcDbText
 10
230.5000000000001
 20
9.349999999999937
 30
0.0
 40
2.5
  1

 41
2.509367088607597
 72
     5
 11
254.1000000000001
 21
9.349999999999937
 31
0.0
100
AcDbAttributeDefinition
  3
Änderung 7
  2
ÄND7
 70
     0
  0
ATTDEF
  5
5171
330
5103
100
AcDbEntity
  8
RAHMEN013
100
AcDbText
 10
256.1000000000001
 20
9.349999999999937
 30
0.0
 40
2.5
  1

 41
1.276799999999984
 72
     5
 11
267.5
 21
9.349999999999937
 31
0.0
100
AcDbAttributeDefinition
  3
Datum 7
  2
DAT7
 70
     0
  0
ATTDEF
  5
5172
330
5103
100
AcDbEntity
  8
RAHMEN013
100
AcDbText
 10
269.1000000000001
 20
9.349999999999937
 30
0.0
 40
2.5
  1

 41
0.5156435643564205
 72
     5
 11
275.2999999999999
 21
9.349999999999937
 31
0.0
100
AcDbAttributeDefinition
  3
Name 7
  2
NAME7
 70
     0
  0
ATTDEF
  5
5173
330
5103
100
AcDbEntity
  8
RAHMEN013
100
AcDbText
 10
225.4
 20
6.374999999999943
 30
0.0
 40
2.5
  1

 72
     4
 11
225.4
 21
6.374999999999943
 31
0.0
100
AcDbAttributeDefinition
  3
Zustand 8
  2
ZUST8
 70
     0
  0
ATTDEF
  5
5174
330
5103
100
AcDbEntity
  8
RAHMEN013
100
AcDbText
 10
230.5000000000001
 20
5.099999999999937
 30
0.0
 40
2.5
  1

 41
2.509367088607597
 72
     5
 11
254.1000000000001
 21
5.099999999999937
 31
0.0
100
AcDbAttributeDefinition
  3
Änderung 8
  2
ÄND8
 70
     0
  0
ATTDEF
  5
5175
330
5103
100
AcDbEntity
  8
RAHMEN013
100
AcDbText
 10
256.1000000000001
 20
5.099999999999937
 30
0.0
 40
2.5
  1

 41
1.276799999999984
 72
     5
 11
267.5
 21
5.099999999999937
 31
0.0
100
AcDbAttributeDefinition
  3
Datum 8
  2
DAT8
 70
     0
  0
ATTDEF
  5
5176
330
5103
100
AcDbEntity
  8
RAHMEN013
100
AcDbText
 10
269.1000000000001
 20
5.099999999999937
 30
0.0
 40
2.5
  1

 41
0.5156435643564203
 72
     5
 11
275.2999999999999
 21
5.099999999999937
 31
0.0
100
AcDbAttributeDefinition
  3
Name 8
  2
NAME8
 70
     0
  0
ATTDEF
  5
5177
330
5103
100
AcDbEntity
  8
RAHMEN035
 62
   151
100
AcDbText
 10
249.9139741116235
 20
2.961425038409609
 30
0.0
 40
20.0
  1
Preliminary
 50
15.0
  7
HELV_N_BOLD
 72
     4
 11
315.1
 21
27.62499999999994
 31
0.0
100
AcDbAttributeDefinition
  3
Entwurf
  2
ENTWURF
 70
     0
  0
HATCH
  5
5178
330
5103
100
AcDbEntity
  8
Logo Farbe1
100
AcDbHatch
 10
0.0
 20
0.0
 30
0.0
210
0.0
220
0.0
230
1.0
  2
SOLID
 70
     1
 71
     0
 91
        1
 92
        7
 72
     1
 73
     1
 93
       63
 10
279.5756874723958
 20
11.34725106956176
 42
0.0
 10
279.6164407412286
 20
11.51026414489274
 42
0.0
 10
279.6566152248983
 20
11.65087483773677
 42
0.0
 10
279.6979535604199
 20
11.7872913449579
 42
0.0
 10
279.779684959617
 20
11.9997929828703
 42
0.0
 10
279.8603890910028
 20
12.18541248505769
 42
0.0
 10
279.9032396157963
 20
12.27539858712404
 42
0.0
 10
279.9461574129661
 20
12.35265062202975
 42
0.0
 10
280.2035219387344
 20
12.79017031583572
 42
0.0
 10
280.325
 20
12.40144051978552
 42
0.0
 10
280.4464780612656
 20
12.79017031583572
 42
0.0
 10
280.7038425870339
 20
12.35265062202975
 42
0.0
 10
280.7467603842037
 20
12.27539858712404
 42
0.0
 10
280.7896109089972
 20
12.18541248505769
 42
0.0
 10
280.870315040383
 20
11.9997929828703
 42
0.0
 10
280.9520464395801
 20
11.7872913449579
 42
0.0
 10
280.9933847751017
 20
11.65087483773677
 42
0.0
 10
281.0335592587714
 20
11.51026414489274
 42
0.0
 10
281.0743125276042
 20
11.3472510695617
 42
0.0
 10
281.114158411693
 20
11.14802164911719
 42
0.0
 10
281.1539474386437
 20
10.94509761166892
 42
0.0
 10
281.1928873100402
 20
10.68420047331215
 42
0.0
 10
281.2315652736101
 20
10.48307506274829
 42
0.0
 10
281.270282735312
 20
10.24302680019673
 42
0.0
 10
281.289235697126
 20
10.15015728730858
 42
0.0
 10
281.3097492969736
 20
10.18297904706489
 42
0.0
 10
281.3486381858625
 20
10.24909015817598
 42
0.0
 10
281.5570462039709
 20
10.58254298714936
 42
0.0
 10
281.7266899938717
 20
10.20932664936774
 42
0.0
 10
281.8080185844754
 20
9.973473736616853
 42
0.0
 10
281.8458829656932
 20
9.856094154841571
 42
0.0
 10
281.883316428803
 20
9.758767150756057
 42
0.0
 10
281.9167607107592
 20
9.668467589474545
 42
0.0
 10
281.9289996943923
 20
9.647661317298172
 42
0.0
 10
281.9585090908474
 20
9.715532929144814
 42
0.0
 10
282.0028363259949
 20
9.821918293498811
 42
0.0
 10
282.0530964967584
 20
9.902334566720526
 42
0.0
 10
282.1277479025235
 20
10.00684653479154
 42
0.0
 10
282.234521283116
 20
10.04955588702853
 42
0.0
 10
282.3089640701951
 20
10.06444444444437
 42
0.0
 10
282.8894497400292
 20
10.06444444444437
 42
1.242198474718124
 10
277.7605502599708
 20
10.06444444444437
 42
0.0
 10
278.3410359298049
 20
10.06444444444437
 42
0.0
 10
278.415478716884
 20
10.04955588702853
 42
0.0
 10
278.5222520974764
 20
10.00684653479154
 42
0.0
 10
278.5969035032416
 20
9.902334566720526
 42
0.0
 10
278.6471636740051
 20
9.821918293498811
 42
0.0
 10
278.6914909091526
 20
9.71553292914487
 42
0.0
 10
278.7210003056077
 20
9.647661317298172
 42
0.0
 10
278.7332392892408
 20
9.668467589474545
 42
0.0
 10
278.766683571197
 20
9.758767150756199
 42
0.0
 10
278.8041170343067
 20
9.856094154841571
 42
0.0
 10
278.8419814155246
 20
9.973473736616909
 42
0.0
 10
278.9233100061283
 20
10.20932664936774
 42
0.0
 10
279.092953796029
 20
10.58254298714933
 42
0.0
 10
279.3013618141374
 20
10.24909015817598
 42
0.0
 10
279.3402507030264
 20
10.18297904706486
 42
0.0
 10
279.360764302874
 20
10.15015728730855
 42
0.0
 10
279.3797172646879
 20
10.24302680019673
 42
0.0
 10
279.4184347263898
 20
10.48307506274829
 42
0.0
 10
279.4571126899597
 20
10.68420047331218
 42
0.0
 10
279.4960525613563
 20
10.94509761166892
 42
0.0
 10
279.5358415883069
 20
11.14802164911731
 42
0.0
 97
        0
 75
     0
 76
     1
 47
0.0260537930419125
 98
        1
 10
279.0094755035162
 20
11.29967567327031
  0
HATCH
  5
5179
330
5103
100
AcDbEntity
  8
Logo Farbe2
100
AcDbHatch
 10
0.0
 20
0.0
 30
0.0
210
0.0
220
0.0
230
1.0
  2
SOLID
 70
     1
 71
     0
 91
        1
 92
        7
 72
     1
 73
     1
 93
      103
 10
281.0737401934818
 20
10.00584527915998
 42
0.0
 10
281.0341361222863
 20
10.19990522801833
 42
0.0
 10
280.9952021209797
 20
10.44129603611878
 42
0.0
 10
280.956257725428
 20
10.64380689298792
 42
0.0
 10
280.9173822529885
 20
10.90427255833265
 42
0.0
 10
280.8787302425368
 20
11.1013978116357
 42
0.0
 10
280.8400931944901
 20
11.29458305186963
 42
0.0
 10
280.8016949319022
 20
11.44817610222111
 42
0.0
 10
280.7631443574294
 20
11.58310311287621
 42
0.0
 10
280.7249000597596
 20
11.70930929518641
 42
0.0
 10
280.6866660530231
 20
11.80871771270116
 42
0.0
 10
280.6481627086711
 20
11.90882640801652
 42
0.0
 10
280.6097020527429
 20
11.99728591665143
 42
0.0
 10
280.5711550239481
 20
12.08594408287948
 42
0.0
 10
280.5333086708235
 20
12.16542142444095
 42
0.0
 10
280.5137126267243
 20
12.20069430381971
 42
0.0
 10
280.5088351100128
 20
12.18508625034314
 42
0.0
 10
280.469946221124
 20
12.06064180589868
 42
0.0
 10
280.4309890472671
 20
11.93597884955676
 42
0.0
 10
280.3917920686972
 20
11.81446821599013
 42
0.0
 10
280.325
 20
11.62745042363786
 42
0.0
 10
280.2582079313027
 20
11.81446821599013
 42
0.0
 10
280.2190109527328
 20
11.93597884955676
 42
0.0
 10
280.180053778876
 20
12.06064180589868
 42
0.0
 10
280.1411648899872
 20
12.18508625034312
 42
0.0
 10
280.1362873732757
 20
12.20069430381968
 42
0.0
 10
280.1166913291764
 20
12.16542142444095
 42
0.0
 10
280.0788449760518
 20
12.08594408287948
 42
0.0
 10
280.0402979472571
 20
11.99728591665143
 42
0.0
 10
280.0018372913289
 20
11.90882640801652
 42
0.0
 10
279.9633339469768
 20
11.80871771270116
 42
0.0
 10
279.9250999402404
 20
11.70930929518641
 42
0.0
 10
279.8868556425706
 20
11.58310311287621
 42
0.0
 10
279.8483050680977
 20
11.44817610222111
 42
0.0
 10
279.8099068055098
 20
11.29458305186963
 42
0.0
 10
279.771269757463
 20
11.10139781163573
 42
0.0
 10
279.7326177470115
 20
10.90427255833265
 42
0.0
 10
279.693742274572
 20
10.64380689298792
 42
0.0
 10
279.6547978790203
 20
10.44129603611878
 42
0.0
 10
279.6158638777137
 20
10.1999052280183
 42
0.0
 10
279.5762598065181
 20
10.00584527915998
 42
0.0
 10
279.5325247262397
 20
9.865893022269233
 42
0.0
 10
279.476832944328
 20
9.815770418548709
 42
0.0
 10
279.4183156510425
 20
9.792363501234518
 42
0.0
 10
279.3542498889337
 20
9.798770077445396
 42
0.0
 10
279.3021566225498
 20
9.835235363914165
 42
0.0
 10
279.2575995016972
 20
9.875336772681578
 42
0.0
 10
279.2144431756013
 20
9.931439996606201
 42
0.0
 10
279.1742667514664
 20
9.995722275221993
 42
0.0
 10
279.1350217448176
 20
10.05851428586004
 42
0.0
 10
279.1288132564484
 20
10.06906871608762
 42
0.0
 10
279.1083797601925
 20
10.00981157694508
 42
0.0
 10
279.0696540134585
 20
9.897506911416542
 42
0.0
 10
279.0304955172877
 20
9.776115573287228
 42
0.0
 10
278.9912236216148
 20
9.674008644537764
 42
0.0
 10
278.9509019414278
 20
9.56514010803292
 42
0.0
 10
278.9076925023816
 20
9.491684061654467
 42
0.0
 10
278.8654993080025
 20
9.441052228399456
 42
0.0
 10
278.8209305384651
 20
9.392026581908339
 42
0.0
 10
278.7682983095313
 20
9.360447244548055
 42
0.0
 10
278.7111111111111
 20
9.34900980486401
 42
0.0
 10
278.6558505412169
 20
9.360061918842831
 42
0.0
 10
278.6049172813386
 20
9.385528548781991
 42
0.0
 10
278.5529221288697
 20
9.432324186003967
 42
0.0
 10
278.5097020527429
 20
9.531730361095867
 42
0.0
 10
278.4706602870651
 20
9.621526422154744
 42
0.0
 10
278.4332025419284
 20
9.711425010482685
 42
0.0
 10
278.3973060956382
 20
9.76885932454715
 42
0.0
 10
278.3678283954009
 20
9.810128104879339
 42
0.0
 10
278.3468038464341
 20
9.818537924466085
 42
0.0
 10
278.3172712465426
 20
9.824444444444395
 42
0.0
 10
277.8250528400645
 20
9.824444444444395
 42
0.7297932027057648
 10
282.8249471599353
 20
9.824444444444395
 42
0.0
 10
282.3327287534574
 20
9.824444444444395
 42
0.0
 10
282.3031961535659
 20
9.818537924466085
 42
0.0
 10
282.2821716045991
 20
9.810128104879339
 42
0.0
 10
282.2526939043618
 20
9.768859324547122
 42
0.0
 10
282.2167974580715
 20
9.711425010482685
 42
0.0
 10
282.1793397129349
 20
9.621526422154801
 42
0.0
 10
282.140297947257
 20
9.531730361095867
 42
0.0
 10
282.0970778711302
 20
9.432324186003967
 42
0.0
 10
282.0450827186614
 20
9.385528548781991
 42
0.0
 10
281.9941494587829
 20
9.360061918842831
 42
0.0
 10
281.9388888888888
 20
9.34900980486401
 42
0.0
 10
281.8817016904687
 20
9.360447244548055
 42
0.0
 10
281.8290694615348
 20
9.392026581908339
 42
0.0
 10
281.7845006919974
 20
9.441052228399456
 42
0.0
 10
281.7423074976182
 20
9.491684061654467
 42
0.0
 10
281.6990980585721
 20
9.565140108032949
 42
0.0
 10
281.6587763783851
 20
9.674008644537792
 42
0.0
 10
281.6195044827122
 20
9.776115573287228
 42
0.0
 10
281.5803459865416
 20
9.897506911416513
 42
0.0
 10
281.5416202398075
 20
10.00981157694508
 42
0.0
 10
281.5211867435515
 20
10.06906871608759
 42
0.0
 10
281.5149782551824
 20
10.05851428586004
 42
0.0
 10
281.4757332485336
 20
9.995722275221993
 42
0.0
 10
281.4355568243987
 20
9.931439996606201
 42
0.0
 10
281.3924004983028
 20
9.875336772681578
 42
0.0
 10
281.3478433774502
 20
9.835235363914165
 42
0.0
 10
281.2957501110662
 20
9.798770077445396
 42
0.0
 10
281.2316843489574
 20
9.792363501234518
 42
0.0
 10
281.1731670556719
 20
9.815770418548709
 42
0.0
 10
281.1174752737601
 20
9.865893022269233
 42
0.0
 97
        0
 75
     0
 76
     1
 47
0.0248147754964865
 98
        1
 10
280.6074862715732
 20
9.733795630575372
  0
HATCH
  5
517A
330
5103
100
AcDbEntity
  8
Logo Farbe2
100
AcDbHatch
 10
0.0
 20
0.0
 30
0.0
210
0.0
220
0.0
230
1.0
  2
SOLID
 70
     1
 71
     0
 91
       17
 92
        7
 72
     0
 73
     1
 93
       88
 10
301.3035285926923
 20
8.148260986261732
 10
305.8849637312837
 20
8.148260986261732
 10
306.1424301545562
 20
8.96147315555163
 10
307.506986305965
 20
8.961473155551658
 10
307.7828433498879
 20
8.148260986261732
 10
311.7006532724055
 20
8.148260986261732
 10
312.0537464128007
 20
8.216200434232291
 10
312.2875628971753
 20
8.306206693810338
 10
312.5265326472703
 20
8.429243436278937
 10
312.7703290331499
 20
8.593925469453097
 10
312.9124653712713
 20
8.735963210197724
 10
313.021485919497
 20
8.88122223741098
 10
313.1645182069114
 20
8.688542072308877
 10
313.3618031863129
 20
8.52894664302093
 10
313.5548602891816
 20
8.400331205908599
 10
313.7881386616675
 20
8.260461563992379
 10
314.0764755958893
 20
8.176809264398912
 10
314.3462568280892
 20
8.111734978776638
 10
315.6604806704159
 20
8.111734978776638
 10
315.9593952211896
 20
8.177077131782169
 10
316.2867693648703
 20
8.29858857382996
 10
316.5015920372103
 20
8.457259812097163
 10
316.7150589144396
 20
8.624205023743741
 10
316.8762164216714
 20
8.823142827442552
 10
316.9983348669984
 20
9.057822847635378
 10
317.0822350215206
 20
9.309348363975772
 10
317.1291223362088
 20
9.552995327489327
 10
317.1291223362088
 20
10.07356215853374
 10
317.0612009936163
 20
10.2674902440375
 10
316.9576556346737
 20
10.45562347175689
 10
316.817353319322
 20
10.64256220577561
 10
316.6841295107616
 20
10.77569382638728
 10
316.4590715744541
 20
10.92562838991921
 10
316.20041163066
 20
11.04563661977815
 10
315.962768750405
 20
11.13697414765397
 10
315.7245481444729
 20
11.21937763898051
 10
315.467078098974
 20
11.28370067701879
 10
315.2037980801097
 20
11.32906207311322
 10
314.9005747284809
 20
11.39144692682407
 10
314.6911194375234
 20
11.46121693392629
 10
314.559516183339
 20
11.53084072175391
 10
314.5349026524678
 20
11.59233073722299
 10
314.5349026524678
 20
11.69824028276036
 10
314.602182105673
 20
11.785642283458
 10
314.7856856980196
 20
11.83347984240654
 10
315.0516708225084
 20
11.84205375596593
 10
315.2372280639994
 20
11.79368136573666
 10
315.3659405755613
 20
11.66505870212569
 10
315.427829149725
 20
11.55682864202322
 10
315.438458753729
 20
11.29128264637606
 10
316.9844973757465
 20
11.29128264637606
 10
316.9844973757465
 20
11.77816129216256
 10
316.9269648653282
 20
12.00812905590939
 10
316.841459643251
 20
12.16952640125237
 10
316.729991960795
 20
12.34589495430952
 10
316.5995202421868
 20
12.50421433070903
 10
316.4859075237042
 20
12.61774861859703
 10
316.3573046098095
 20
12.70954370973152
 10
316.2448909479378
 20
12.80315627201687
 10
316.1022552572396
 20
12.86967336218032
 10
315.9115964767554
 20
12.95379782181169
 10
315.6854676509086
 20
13.02332454115239
 10
315.4503407624054
 20
13.05528570018236
 10
314.3476208305992
 20
13.05528570018236
 10
314.1486917444607
 20
13.01742124918777
 10
313.9806322847256
 20
12.95923849353388
 10
313.798127172234
 20
12.88419034894647
 10
313.6180821598873
 20
12.77568782044687
 10
313.4768760514356
 20
12.68161586075388
 10
313.3563342148273
 20
12.5611574903508
 10
313.2458859904303
 20
12.45998436012388
 10
313.1138613513682
 20
12.29977928952794
 10
313.0068524359511
 20
12.11264447959669
 10
313.0061644675365
 20
12.11906099204938
 10
312.9276262361216
 20
12.31527057455193
 10
312.710204165598
 20
12.57032714900782
 10
312.527865479696
 20
12.71320405869372
 10
312.315320273931
 20
12.82437112084863
 10
312.0643641073761
 20
12.92654139457678
 10
311.845946970789
 20
12.97399063184923
 10
308.8648607731958
 20
12.9739906318492
 10
308.8648607731958
 20
9.801125010072439
 10
307.5839843648666
 20
13.00108898796031
 10
306.080264575957
 20
13.00108898796031
 10
304.7394685714978
 20
9.550480312772066
 10
302.8729442096893
 20
9.550480312772066
 10
302.8729442096893
 20
13.06523923812483
 10
301.3035285926923
 20
13.06523923812483
 97
        0
 92
       22
 72
     0
 73
     1
 93
      126
 10
301.4145285926923
 20
12.95423923812484
 10
302.7619442096893
 20
12.95423923812484
 10
302.7619442096893
 20
9.439480312772047
 10
304.8154227359534
 20
9.439480312772047
 10
306.1562187404128
 20
12.89008898796032
 10
307.5088531270914
 20
12.89008898796032
 10
308.9758607731957
 20
9.225120539565295
 10
308.9758607731957
 20
12.86299063184921
 10
311.8340290667792
 20
12.86299063184921
 10
312.0314093919248
 20
12.82011146024626
 10
312.2685645681407
 20
12.7235599006546
 10
312.4674084831825
 20
12.6195589951389
 10
312.6329645205156
 20
12.48983262973823
 10
312.8313413125319
 20
12.2571179614373
 10
312.8974280415792
 20
12.09201557395368
 10
312.9234137848464
 20
11.84965292801831
 10
312.9234137848464
 20
11.42719596933537
 10
312.8738540432917
 20
11.26211338564667
 10
312.7534773980828
 20
11.0791029238216
 10
312.6291476390904
 20
10.94953000237728
 10
312.393749324035
 20
10.831912774165
 10
312.6305592711648
 20
10.71358953944582
 10
312.7576161222451
 20
10.59508612252352
 10
312.8785322299961
 20
10.4483610779431
 10
313.0279683541278
 20
10.17605039487267
 10
313.1218248999912
 20
9.93636150979151
 10
314.2308717795522
 20
9.93636150979151
 10
314.2345304841608
 20
9.903457301045477
 10
314.2818763595993
 20
9.581730313120715
 10
314.3945147490527
 20
9.428239673160476
 10
314.5426621404774
 20
9.319673645677909
 10
314.7850901013241
 20
9.222770077603712
 10
315.2386482213774
 20
9.22277007760374
 10
315.4732040800619
 20
9.300900687511472
 10
315.5710985462048
 20
9.377350538998797
 10
315.6547644446721
 20
9.533481121969288
 10
315.6657983284673
 20
9.687842621773057
 10
315.5871038952549
 20
9.833887339653131
 10
315.3875522927299
 20
9.943564414848054
 10
315.1632108981087
 20
10.01829301503988
 10
314.8799470918968
 20
10.08221130949081
 10
314.5833935911315
 20
10.14507284704944
 10
314.2803735930425
 20
10.23413423978251
 10
313.9574639324195
 20
10.35962305299304
 10
313.7479185470067
 20
10.443891472908
 10
313.5527526383027
 20
10.57052150719144
 10
313.3230832216784
 20
10.73824038628455
 10
313.1795914676002
 20
10.89006740739421
 10
313.0955791689769
 20
11.08316032243601
 10
313.0705700249619
 20
11.2164520671811
 10
313.0705700249619
 20
11.92707784566357
 10
313.1032079253232
 20
12.05753894718472
 10
313.2055300202877
 20
12.2364775498078
 10
313.3265990620343
 20
12.38338856973396
 10
313.433089679138
 20
12.48093644006871
 10
313.5475641036844
 20
12.59533159963882
 10
313.6775304965031
 20
12.68191562493876
 10
313.8481706157565
 20
12.78475037809937
 10
314.0199282969956
 20
12.85537905868625
 10
314.1773772572414
 20
12.90988842338598
 10
314.3580907935275
 20
12.94428570018237
 10
315.4428310931532
 20
12.94428570018237
 10
315.6615223811636
 20
12.91455865756694
 10
315.8727480423153
 20
12.8496141410709
 10
316.0563892047853
 20
12.76858606819831
 10
316.1849260153573
 20
12.70864388559104
 10
316.2894511949867
 20
12.62160046288312
 10
316.4139433627082
 20
12.53273956902438
 10
316.5172680849187
 20
12.42948617526641
 10
316.6398914479271
 20
12.28069029390158
 10
316.7453612061641
 20
12.11381189254171
 10
316.8225597650109
 20
11.96809398012072
 10
316.8734973757465
 20
11.76448721333255
 10
316.8734973757465
 20
11.40228264637605
 10
315.5451044025219
 20
11.40228264637605
 10
315.5376551860646
 20
11.58837702959039
 10
315.4549187997661
 20
11.73306551502966
 10
315.2943799895961
 20
11.89349226085607
 10
315.0641383685471
 20
11.95351329507121
 10
314.7696996700338
 20
11.94402219306152
 10
314.5374058006479
 20
11.88346549480814
 10
314.4239026524678
 20
11.73601479829065
 10
314.4239026524678
 20
11.57093994995943
 10
314.4716030026352
 20
11.45177398043557
 10
314.6473284898366
 20
11.35880763159684
 10
314.8717494810732
 20
11.28405251760148
 10
315.1831850130236
 20
11.21997809854133
 10
315.4441711762383
 20
11.17501191851818
 10
315.6928912939722
 20
11.11287485102795
 10
315.9247032103495
 20
11.0326882056878
 10
316.1570928524044
 20
10.94336974857071
 10
316.4046230718429
 20
10.82852528121452
 10
316.6134414177294
 20
10.6894096025513
 10
316.733311289978
 20
10.56962267762088
 10
316.8641828767039
 20
10.39524944165375
 10
316.9594975388006
 20
10.22207069938707
 10
317.0181223362088
 20
10.05468598214685
 10
317.0181223362088
 20
9.563578631024142
 10
316.9746197510115
 20
9.33752020010732
 10
316.8958161246103
 20
9.101273640933015
 10
316.7829183087824
 20
8.884313282264088
 10
316.636745673821
 20
8.70387326765018
 10
316.4344150893174
 20
8.545637373206147
 10
316.233438899118
 20
8.397193353709496
 10
315.928076739565
 20
8.283852098542155
 10
315.6484900476825
 20
8.222734978776628
 10
314.3594547960375
 20
8.222734978776657
 10
314.1049684453506
 20
8.284119965925384
 10
313.8328815565704
 20
8.36305780299827
 10
313.6142048264006
 20
8.494172554950324
 10
313.4276207076525
 20
8.618475663380024
 10
313.2452630646294
 20
8.765995491856017
 10
313.1161391108111
 20
8.939939607482671
 10
313.0063766116372
 20
9.275752322857954
 10
312.9275530464537
 20
8.940983205510065
 10
312.8284233569206
 20
8.808902762842564
 10
312.6993871937717
 20
8.679956109718602
 10
312.469861961538
 20
8.52491409885107
 10
312.2420868843197
 20
8.407641082055704
 10
312.0230811662509
 20
8.323336138534273
 10
311.6900714434311
 20
8.259260986261722
 10
307.8624025450595
 20
8.259260986261722
 10
307.5865455011367
 20
9.072473155551648
 10
306.0611428367251
 20
9.072473155551648
 10
305.8036764134526
 20
8.259260986261722
 10
301.4145285926923
 20
8.259260986261722
 97
        0
 92
        6
 72
     0
 73
     1
 93
        3
 10
306.3876952045602
 20
10.10389448054763
 10
306.7975438995207
 20
11.39840870136527
 10
307.2366677588978
 20
10.10389448054763
 97
        0
 92
        6
 72
     0
 73
     1
 93
        3
 10
306.5392686643417
 20
10.21489448054765
 10
306.8011812001559
 20
11.04214977351529
 10
307.0818019388827
 20
10.21489448054765
 97
        0
 92
        6
 72
     0
 73
     1
 93
       15
 10
310.349086266762
 20
10.21927895051348
 10
311.3907943696882
 20
10.21927895051348
 10
311.4696579646699
 20
10.20634107463885
 10
311.5479770965181
 20
10.18260135395792
 10
311.6573236151405
 20
10.09761307103698
 10
311.704101942502
 20
10.02664417471714
 10
311.7341306090476
 20
9.944128497543886
 10
311.7358208759227
 20
9.66223347499428
 10
311.7239680429171
 20
9.614856950831381
 10
311.6924933185237
 20
9.551413300313981
 10
311.637228675848
 20
9.482930090012558
 10
311.5711989954064
 20
9.437512443238603
 10
311.4933696584653
 20
9.398589587754145
 10
311.4030362429598
 20
9.377744643930583
 10
310.349086266762
 20
9.377744643930583
 97
        0
 92
        6
 72
     0
 73
     1
 93
       11
 10
310.349086266762
 20
11.15189938848925
 10
310.349086266762
 20
11.83689062937577
 10
311.2455553345721
 20
11.83689062937577
 10
311.3626594161755
 20
11.81348622554145
 10
311.4459335632361
 20
11.77187796249063
 10
311.5670939355341
 20
11.57815706473459
 10
311.5670939355341
 20
11.46435741376458
 10
311.5546404531269
 20
11.37724596604005
 10
311.4916895784862
 20
11.26401279252431
 10
311.3907747118748
 20
11.18837930464246
 10
311.2690905210059
 20
11.15189938848925
 97
        0
 92
        6
 72
     0
 73
     1
 93
       14
 10
310.460086266762
 20
10.10827895051346
 10
311.3817498327348
 20
10.10827895051346
 10
311.4444644420942
 20
10.09799037779998
 10
311.4960968130657
 20
10.08233982044532
 10
311.5747330459267
 20
10.0212207423948
 10
311.6042510950767
 20
9.976437966099751
 10
311.6232478863423
 20
9.924236743876917
 10
311.6248038798229
 20
9.664735227424358
 10
311.5984672942256
 20
9.611648531205162
 10
311.5610012878302
 20
9.565221154298171
 10
311.514649792823
 20
9.533338888420132
 10
311.4555375979577
 20
9.503776572864921
 10
311.3903953987862
 20
9.488744643930573
 10
310.460086266762
 20
9.488744643930573
 97
        0
 92
        6
 72
     0
 73
     1
 93
       11
 10
310.460086266762
 20
11.26289938848924
 10
310.460086266762
 20
11.72589062937578
 10
311.2345717213679
 20
11.72589062937578
 10
311.3263364297635
 20
11.7075505487943
 10
311.3683841170256
 20
11.68654125246365
 10
311.4560939355341
 20
11.54630377661874
 10
311.4560939355341
 20
11.47225158220152
 10
311.4476599786184
 20
11.41325650171296
 10
311.4061764582595
 20
11.33863782984144
 10
311.3399960127098
 20
11.28903703171749
 10
311.2528100127725
 20
11.26289938848924
 97
        0
 92
       22
 72
     0
 73
     1
 93
       32
 10
312.6420906206925
 20
10.83191248809339
 10
312.6959422265617
 20
10.8588195482209
 10
312.8406193205805
 20
11.00959788069744
 10
312.9618602858461
 20
11.19392238157445
 10
312.9887945407167
 20
11.05037033425267
 10
313.0855648434783
 20
10.82795456708635
 10
313.2494018307864
 20
10.65460048210522
 10
313.4897649364713
 20
10.47907240678128
 10
313.6965242936972
 20
10.34492016335011
 10
313.9166513674348
 20
10.25639633044471
 10
314.244555429699
 20
10.12896659811323
 10
314.5561943151892
 20
10.03737200585337
 10
314.8562208775415
 20
9.973774270641285
 10
315.1333808943321
 20
9.911233292320901
 10
315.3429157819052
 20
9.841436771415175
 10
315.5049279813429
 20
9.752392013290574
 10
315.5527810889387
 20
9.663584033955487
 10
315.5457361522723
 20
9.565026988217567
 10
315.4843218278683
 20
9.450420506394294
 10
315.4199677754966
 20
9.400163756035794
 10
315.2206473519872
 20
9.33377007760373
 10
314.8064529076522
 20
9.33377007760373
 10
314.5969257658433
 20
9.417522494522756
 10
314.4739006559979
 20
9.507678300359685
 10
314.3876790244116
 20
9.625171221510271
 10
314.3446335991578
 20
9.917675581871407
 10
314.3302134833052
 20
10.0473615097915
 10
313.1975664716645
 20
10.04736150979152
 10
313.1287192366043
 20
10.22318213967645
 10
312.9708252185427
 20
10.51090525991205
 10
312.8386476454847
 20
10.67129547309528
 10
312.6945305944872
 20
10.80571060171496
 97
        0
 92
        5
 93
       56
 72
     1
 10
299.2498840016567
 20
9.928643948394665
 11
299.4545414939759
 21
9.908068713360787
 72
     1
 10
299.4545414939759
 20
9.908068713360762
 11
299.604326014001
 21
9.861028686969142
 72
     1
 10
299.604326014001
 20
9.861028686969149
 11
299.6984761596247
 21
9.754118591193044
 72
     1
 10
299.6984761596247
 20
9.754118591193048
 11
299.7840670036589
 21
9.591615661363238
 72
     1
 10
299.7840670036589
 20
9.591615661363249
 11
299.8653785588752
 21
9.287991820858916
 72
     1
 10
299.8653785588753
 20
9.287991820858906
 11
299.9124536316871
 21
8.676467320269459
 72
     1
 10
299.912453631687
 20
8.676467320269466
 11
299.9593992595547
 21
8.139207681308212
 72
     1
 10
299.9593992595547
 20
8.139207681308221
 11
301.1982355130789
 21
8.139207681308221
 72
     1
 10
301.1982355130788
 20
8.139207681308221
 11
301.1869737218887
 21
8.38680282243278
 72
     1
 10
301.1869737218887
 20
8.38680282243277
 11
301.1081383819429
 21
9.343419637162561
 72
     1
 10
301.1081383819429
 20
9.343419637162554
 11
301.0630898163749
 21
9.759828946961745
 72
     1
 10
301.0630898163749
 20
9.759828946961761
 11
300.961730193645
 21
10.05244131076747
 72
     1
 10
300.961730193645
 20
10.05244131076745
 11
300.8153227057508
 21
10.24376450716174
 72
     1
 10
300.8153227057507
 20
10.24376450716175
 11
300.6238659518848
 21
10.42383381426479
 72
     1
 10
300.6238659518849
 20
10.42383381426481
 11
300.4549341812068
 21
10.53637687096748
 72
     1
 10
300.4549341812067
 20
10.53637687096747
 11
300.6238659518848
 21
10.59264839931865
 72
     1
 10
300.6238659518849
 20
10.59264839931864
 11
300.7477498573989
 21
10.66017423334028
 72
     1
 10
300.7477498573989
 20
10.66017423334028
 11
300.927944119671
 21
10.86275173540476
 72
     1
 10
300.9279441196708
 20
10.86275173540477
 11
301.0743523079687
 21
11.04282104250777
 72
     1
 10
301.0743523079688
 20
11.04282104250776
 11
301.1644494391048
 21
11.33543298993457
 72
     1
 10
301.1644494391048
 20
11.33543298993458
 11
301.1757112302949
 21
11.81936855013446
 72
     1
 10
301.1757112302949
 20
11.81936855013447
 11
301.1194008735368
 21
12.23577827631281
 72
     1
 10
301.1194008735368
 20
12.2357782763128
 11
301.0180412508069
 21
12.43835577837754
 72
     1
 10
301.0180412508069
 20
12.43835577837754
 11
300.9039230787057
 21
12.57098321705274
 72
     1
 10
300.9039230787057
 20
12.57098321705274
 11
300.8014141665968
 21
12.68738488384427
 72
     1
 10
300.8014141665968
 20
12.68738488384426
 11
300.691438800237
 21
12.77598536486412
 72
     1
 10
300.691438800237
 20
12.77598536486414
 11
300.4472930625469
 21
12.94812411855696
 72
     1
 10
300.4472930625469
 20
12.94812411855696
 11
300.1395935218269
 21
13.07985161796109
 72
     1
 10
300.1395935218269
 20
13.07985161796108
 11
299.7454182229048
 21
13.11361495135072
 72
     1
 10
299.7454182229048
 20
13.11361495135074
 11
296.7834739862022
 21
13.11361495135074
 72
     1
 10
296.7834739862022
 20
13.11361495135074
 11
296.7834739862022
 21
10.96009555955585
 72
     3
 10
294.2885001068063
 20
10.66013592647999
 11
-0.0000000000000225
 21
2.622255303064139
 40
0.9577478129195032
 50
-83.14448672197197
 51
85.86297439398109
 73
     1
 72
     1
 10
291.7830453863523
 20
10.84135662035808
 11
291.7830453863523
 21
13.10523740759815
 72
     1
 10
291.7830453863523
 20
13.10523740759816
 11
290.47778984938
 21
13.10523740759816
 72
     1
 10
290.4777898493799
 20
13.10523740759816
 11
290.4777898493799
 21
11.30681818181817
 72
     1
 10
290.4777898493799
 20
11.30681818181815
 11
288.7176718339681
 21
11.30681818181815
 72
     1
 10
288.7176718339682
 20
11.30681818181815
 11
288.7176718339682
 21
13.12499999999993
 72
     1
 10
288.7176718339682
 20
13.12499999999994
 11
283.2
 21
13.12499999999994
 72
     1
 10
283.2
 20
13.12499999999994
 11
283.2
 21
12.01828066861786
 72
     1
 10
283.2
 20
12.01828066861784
 11
284.6832456287813
 21
12.01828066861784
 72
     1
 10
284.6832456287813
 20
12.01828066861784
 11
284.6832456287813
 21
8.124999999999928
 72
     1
 10
284.6832456287813
 20
8.124999999999943
 11
286.0676075619337
 21
8.124999999999943
 72
     1
 10
286.0676075619336
 20
8.124999999999943
 11
286.0676075619336
 21
12.03804367739853
 72
     1
 10
286.0676075619336
 20
12.03804367739851
 11
287.412416296996
 21
12.03804367739851
 72
     1
 10
287.412416296996
 20
12.03804367739851
 11
287.412416296996
 21
8.124999999999925
 72
     1
 10
287.412416296996
 20
8.124999999999943
 11
288.6781186358782
 21
8.124999999999943
 72
     1
 10
288.6781186358782
 20
8.124999999999943
 11
288.6781186358782
 21
10.18033625803431
 72
     1
 10
288.6781186358782
 20
10.18033625803431
 11
290.4975664484251
 21
10.18033625803431
 72
     1
 10
290.4975664484251
 20
10.18033625803431
 11
290.4975664484251
 21
8.124999999999943
 72
     1
 10
290.4975664484251
 20
8.124999999999943
 11
291.7830453863523
 21
8.124999999999943
 72
     1
 10
291.7830453863523
 20
8.124999999999943
 11
291.7830453863523
 21
10.47891523260192
 72
     3
 10
294.2885001068063
 20
10.66013592647999
 11
0.0000000000000158
 21
2.622255303064139
 40
0.9577478129195032
 50
94.13702560601873
 51
263.1444867219718
 73
     1
 72
     1
 10
296.7834739862022
 20
10.36017629340412
 11
296.7834739862022
 21
8.1279533756379
 72
     1
 10
296.7834739862022
 20
8.1279533756379
 11
298.1687177276206
 21
8.1279533756379
 72
     1
 10
298.1687177276206
 20
8.1279533756379
 11
298.1687177276206
 21
9.92864394839465
 72
     1
 10
298.1687177276206
 20
9.928643948394665
 11
299.2498840016567
 21
9.928643948394665
 97
        0
 92
        7
 72
     0
 73
     1
 93
      162
 10
317.4367697599841
 20
8.554213097251817
 10
317.4445265071016
 20
8.527927059722998
 10
317.4534766118836
 20
8.502313461133553
 10
317.4636200743303
 20
8.47737261229372
 10
317.4749568944416
 20
8.45310420239366
 10
317.4874869168122
 20
8.429508542243382
 10
317.5012104522528
 20
8.406585476437726
 10
317.5161271899526
 20
8.384335160382192
 10
317.5322374407226
 20
8.362757283265807
 10
317.5495408937516
 20
8.341852000494128
 10
317.5680377044455
 20
8.321619467472459
 10
317.5877278728038
 20
8.302059528795297
 10
317.6086113988268
 20
8.283172029057595
 10
317.6294082086658
 20
8.266085677299201
 10
317.6507907412601
 20
8.249975426529289
 10
317.6727589966097
 20
8.234841742964164
 10
317.6953132855253
 20
8.220684315792937
 10
317.7184532971963
 20
8.207503300421024
 10
317.7421790316226
 20
8.195298696848396
 10
317.7664907996148
 20
8.184070505075084
 10
317.791388134957
 20
8.173818569695725
 10
317.8168715038653
 20
8.16454304611571
 10
317.8429405955288
 20
8.156243934334952
 10
317.8695955653529
 20
8.148921078948177
 10
317.8968362579323
 20
8.142574790766047
 10
317.9246629840779
 20
8.137204603572541
 10
317.9530752775733
 20
8.132810983583681
 10
317.9820736046347
 20
8.129393775394134
 10
318.0116576544514
 20
8.126952823598543
 10
318.0418275824289
 20
8.125488283602265
 10
318.0725832331615
 20
8.124999999999943
 10
318.1031491339647
 20
8.125493722789428
 10
318.1331400349816
 20
8.126974424941863
 10
318.1625559362123
 20
8.129442572673298
 10
318.1913969930618
 20
8.132897855173041
 10
318.2196628947198
 20
8.137340272441036
 10
318.2473539519968
 20
8.14277013528806
 10
318.2744700094874
 20
8.149186977498004
 10
318.3010110671919
 20
8.156591265286976
 10
318.3269771251098
 20
8.164982532438841
 10
318.3523681832414
 20
8.174361245169734
 10
318.3771843969922
 20
8.184727092668907
 10
318.4014254555513
 20
8.196080074936389
 10
318.4250916697294
 20
8.20842034737754
 10
318.4481828841212
 20
8.221747754586914
 10
318.4706990987267
 20
8.236062451970042
 10
318.4926403135457
 20
8.251364439526668
 10
318.5140066839839
 20
8.267653561851659
 10
318.5347978992302
 20
8.284929818944874
 10
318.5558713305884
 20
8.303811879495583
 10
318.5757405259073
 20
8.323355500611029
 10
318.5944054851871
 20
8.343560993102272
 10
318.611866208428
 20
8.364428201563811
 10
318.6281228510354
 20
8.385957281400891
 10
318.6431752576037
 20
8.408147921803163
 10
318.6570234281331
 20
8.431000433580891
 10
318.6696675180289
 20
8.454514816734416
 10
318.6811072164804
 20
8.47869091585801
 10
318.6913428342982
 20
8.503528730952098
 10
318.7003743714824
 20
8.529028262016453
 10
318.7082015172224
 20
8.555189509051245
 10
318.7148245823286
 20
8.582012627461551
 10
318.720243411396
 20
8.609497617247399
 10
318.7244580044243
 20
8.637644167598438
 10
318.727468516819
 20
8.666452589324819
 10
318.7292747931749
 20
8.69592272702215
 10
318.729876988897
 20
8.726054736094596
 10
318.729016043271
 20
8.760056182918305
 10
318.7264336726091
 20
8.792766522113737
 10
318.7221297215057
 20
8.824185753680865
 10
318.7161040345559
 20
8.854313877619745
 10
318.70835692257
 20
8.88315073852496
 10
318.6988880747374
 20
8.910696336396682
 10
318.687697801869
 20
8.936950826639758
 10
318.6750367727902
 20
8.961017364993523
 10
318.660152048592
 20
8.985012261481813
 10
318.6430434738689
 20
9.008935360699638
 10
318.6237113594315
 20
9.032786818052159
 10
318.6021555498746
 20
9.056566478134016
 10
318.578376045198
 20
9.080274340945322
 10
318.5523728454019
 20
9.103910561891268
 10
318.6999999999999
 20
9.137302508941559
 10
318.6999999999999
 20
9.277899747233135
 10
318.0391912861113
 20
9.277899747233135
 10
318.0391912861113
 20
8.743628905239177
 10
318.2061511767681
 20
8.743628905239177
 10
318.2061511767681
 20
9.077548531147442
 10
318.2545912567396
 20
9.0751759577048
 10
318.3132019915007
 20
9.064982786442044
 10
318.3658393170289
 20
9.047759122236755
 10
318.4124993996965
 20
9.02350629747147
 10
318.4532638049272
 20
8.992162788849981
 10
318.4876317545962
 20
8.95412101958334
 10
318.5146090108042
 20
8.910184295369987
 10
318.5342046393158
 20
8.860342828082025
 10
318.5464191888306
 20
8.804595821771783
 10
318.5512961046358
 20
8.742381192838649
 10
318.5486562529889
 20
8.679097323316256
 10
318.537940344224
 20
8.621466328647386
 10
318.5191209185699
 20
8.568816071554721
 10
318.4921973937189
 20
8.521144798067041
 10
318.4571707508362
 20
8.478453357497414
 10
318.4137584367387
 20
8.440495034060546
 10
318.3680026142849
 20
8.411503730984975
 10
318.3198926401996
 20
8.388315426519056
 10
318.2679742456987
 20
8.370008381856678
 10
318.2122446403627
 20
8.356582785666773
 10
318.1527110587826
 20
8.348039981205602
 10
318.0891718424642
 20
8.344367230178932
 10
318.0236461294048
 20
8.345617681570274
 10
317.9622081993579
 20
8.351842253839578
 10
317.9045780815453
 20
8.36304634018947
 10
317.8507557785678
 20
8.379229893119173
 10
317.8007418222805
 20
8.400392668236804
 10
317.7543152321739
 20
8.426659514189879
 10
317.7081465583078
 20
8.460713102235843
 10
317.6687255546602
 20
8.500793023733933
 10
317.6376032333793
 20
8.545755672628843
 10
317.614780777647
 20
8.595599314220322
 10
317.600257388288
 20
8.650324345422234
 10
317.5939754066961
 20
8.710481369023483
 10
317.5958426738421
 20
8.760952871774179
 10
317.6016529955166
 20
8.811039681457799
 10
317.6197297668986
 20
8.871798271156308
 10
317.6480237033715
 20
8.926314731001269
 10
317.6880567968406
 20
8.976960415204388
 10
317.7369790585546
 20
9.015050605261194
 10
317.7945086564785
 20
9.040228837205575
 10
317.84411235185
 20
9.049428710516281
 10
317.84411235185
 20
9.263839759214874
 10
317.815194680164
 20
9.259661375632532
 10
317.7871917243544
 20
9.254155985786553
 10
317.7601034844209
 20
9.247323434271635
 10
317.7339296495531
 20
9.239163721087749
 10
317.7086705305615
 20
9.229677001640254
 10
317.6843261274463
 20
9.218863275929152
 10
317.6608961293967
 20
9.206722388549053
 10
317.6383808472233
 20
9.193254494905374
 10
317.6167801255207
 20
9.178459594998031
 10
317.5960939642893
 20
9.162337533421805
 10
317.5763225189341
 20
9.144888310176554
 10
317.5574656340497
 20
9.126112080667667
 10
317.5395231542312
 20
9.106008844895342
 10
317.5224953902889
 20
9.084578447453907
 10
317.5066365853714
 20
9.06174178702156
 10
317.4920465097124
 20
9.038114579585737
 10
317.4787250079061
 20
9.013697135957073
 10
317.4666722353582
 20
8.988489456135624
 10
317.455888347474
 20
8.962491229310728
 10
317.4463730334424
 20
8.935702921698293
 10
317.4381264486692
 20
8.908124067082127
 10
317.4311484377487
 20
8.879754976273346
 10
317.4254393114921
 20
8.850595649271838
 10
317.4209987590882
 20
8.820645930672156
 10
317.417827091348
 20
8.78990582047399
 10
317.4159239974605
 20
8.758375474083436
 10
317.4152896328314
 20
8.726054736094567
 10
317.4158862339611
 20
8.695732977092575
 10
317.4176763481607
 20
8.666083812435175
 10
317.4206596646197
 20
8.637107242122169
 10
317.4248363387432
 20
8.608803266154183
 10
317.4302063705313
 20
8.581171884530704
 97
        0
 92
        7
 72
     0
 73
     1
 93
       97
 10
318.6999999999999
 20
9.488503364914208
 10
318.6999999999999
 20
9.688855047215952
 10
318.1604570315869
 20
9.688855047215952
 10
318.1229877144302
 20
9.690823411349356
 10
318.0879085315205
 20
9.696728348344123
 10
318.0388745153479
 20
9.711491282957581
 10
317.9970122544887
 20
9.738064150550428
 10
317.9710719938583
 20
9.762035891642028
 10
317.9408085118616
 20
9.802422555687513
 10
317.9278383815465
 20
9.851666858333203
 10
317.9249560785635
 20
9.887449095035719
 10
317.9282512935552
 20
9.929079079565156
 10
317.9381369385302
 20
9.964338377272838
 10
317.962779833859
 20
10.00754555144286
 10
318.0028337388117
 20
10.02958438005302
 10
318.0343583352046
 20
10.03947018043331
 10
318.0722539292298
 20
10.04540169174254
 10
318.1165202100769
 20
10.04737891398073
 10
318.6999999999999
 20
10.04737891398073
 10
318.6999999999999
 20
10.24772997466109
 10
318.1674869478933
 20
10.24772997466109
 10
318.1173726667452
 20
10.24920949808108
 10
318.0604515146969
 20
10.25907285558096
 10
318.0134299597901
 20
10.27682707777859
 10
317.9763083985548
 20
10.3024714638596
 10
317.9490855764801
 20
10.3360068153774
 10
317.9317618409336
 20
10.37743309896973
 10
317.9240879031999
 20
10.42840774518492
 10
317.9276977397069
 20
10.48098159068246
 10
317.9359227231367
 20
10.51500619290303
 10
317.9564848747231
 20
10.55718507297598
 10
318.001627665983
 20
10.58702286668386
 10
318.0452373311618
 20
10.59739604742031
 10
318.0803867572886
 20
10.60231711315913
 10
318.1217224040896
 20
10.60526965935917
 10
318.1692441161592
 20
10.60625384142588
 10
318.6999999999999
 20
10.60625384142588
 10
318.6999999999999
 20
10.80660552372762
 10
318.0725832331615
 20
10.80660552372762
 10
318.0427677847822
 20
10.80584543617223
 10
318.0144813696183
 20
10.80356517350611
 10
317.98772398767
 20
10.7997645803239
 10
317.962495483532
 20
10.79444381203094
 10
317.9387960126094
 20
10.78760286862723
 10
317.9166255749025
 20
10.77924175011281
 10
317.895984015006
 20
10.76936030108225
 10
317.87687164373
 20
10.7579588323463
 10
317.8592881502645
 20
10.74503703309429
 10
317.8432335346091
 20
10.7305949033261
 10
317.8287081075747
 20
10.71463275385266
 10
317.8157115583503
 20
10.69715027386297
 10
317.8042440423416
 20
10.67814761876269
 10
317.7943055595485
 20
10.65762463314618
 10
317.7858959545655
 20
10.63558162782436
 10
317.7790155382036
 20
10.61201829198637
 10
317.7736639996518
 20
10.58693478103762
 10
317.7698414943156
 20
10.56033109497809
 10
317.7675480221949
 20
10.5322070784025
 10
317.7667834278845
 20
10.50256304212189
 10
317.7678330356024
 20
10.47373566094273
 10
317.7709818587567
 20
10.44583573887851
 10
317.7762298973469
 20
10.41886358673977
 10
317.7835771513732
 20
10.39281889371588
 10
317.7930236208358
 20
10.36770165980681
 10
317.8045693057342
 20
10.34351204041775
 10
317.8182142060689
 20
10.32025003554898
 10
317.8339581664345
 20
10.29791564520019
 10
317.8518014976412
 20
10.27650855856091
 10
317.8717438888789
 20
10.25602924184718
 10
317.8937854955526
 20
10.23647738424821
 10
317.9179261622571
 20
10.21785298576401
 10
317.8937854955527
 20
10.20695440873311
 10
317.8717438888789
 20
10.19417604861695
 10
317.8518014976412
 20
10.17951837163161
 10
317.8339581664345
 20
10.16298106696646
 10
317.8182142060689
 20
10.14456429002669
 10
317.8045693057342
 20
10.12426804081246
 10
317.7930236208358
 20
10.10209216391837
 10
317.7835771513732
 20
10.07803681474976
 10
317.7762298973469
 20
10.05210183790126
 10
317.7709818587567
 20
10.02428754418352
 10
317.7678330356024
 20
9.994593467380809
 10
317.7667834278845
 20
9.963020073708634
 10
317.7678330356024
 20
9.933692287310293
 10
317.7709818587567
 20
9.905462905908905
 10
317.7762298973468
 20
9.87833208491034
 10
317.7835771513732
 20
9.85229951350351
 10
317.7930236208358
 20
9.827365347093916
 10
317.8045693057343
 20
9.803529741086805
 10
317.8182142060689
 20
9.780792384671627
 10
317.8339581664344
 20
9.759153588659074
 10
317.8518014976412
 20
9.738613042238313
 10
317.8717438888789
 20
9.719171056220147
 10
317.8937854955526
 20
9.700827475199162
 10
317.9253063505796
 20
9.678310172756283
 10
317.7913882903624
 20
9.678310172756283
 10
317.7913882903624
 20
9.488503364914208
 97
        0
 92
        7
 72
     0
 73
     1
 93
       79
 10
318.6999999999999
 20
11.02277436231349
 10
318.6999999999999
 20
11.21258070393952
 10
318.5752199179926
 20
11.21258070393952
 10
318.5957983833182
 20
11.22427759824137
 10
318.6148524775885
 20
11.23765069462297
 10
318.6323823562092
 20
11.25269921605766
 10
318.6483878637746
 20
11.26942254092398
 10
318.6628690002851
 20
11.28782020300596
 10
318.6758259211458
 20
11.30789142527677
 10
318.6872584709512
 20
11.3296354307098
 10
318.6971666497015
 20
11.35305175308877
 10
318.7055504573968
 20
11.37813977079253
 10
318.7124100494421
 20
11.40489886219964
 10
318.7177452704324
 20
11.4333282502834
 10
318.7215561203676
 20
11.46342746882754
 10
318.7238425992476
 20
11.49519558540026
 10
318.7246047070725
 20
11.52863228919051
 10
318.7235917750165
 20
11.56016947341666
 10
318.720552823443
 20
11.59048812431183
 10
318.7154878523524
 20
11.61959057295609
 10
318.7083970171497
 20
11.64747852880853
 10
318.6992800070242
 20
11.67415416754403
 10
318.6881371327867
 20
11.69961950943186
 10
318.6749683944374
 20
11.72387657474178
 10
318.6597736365706
 20
11.74692738374309
 10
318.6425528591863
 20
11.76877411211091
 10
318.6233060622849
 20
11.78941846930388
 10
318.6020334012713
 20
11.80886278640227
 10
318.5787348761458
 20
11.82710908367556
 10
318.556583242486
 20
11.84234036179907
 10
318.5334799064769
 20
11.85625255933175
 10
318.509424401903
 20
11.86884443303071
 10
318.4844170395747
 20
11.88011536127464
 10
318.4584576640866
 20
11.89006394541536
 10
318.4315464308441
 20
11.89868940842615
 10
318.4036831844418
 20
11.90599066246963
 10
318.3748680802855
 20
11.91196677511362
 10
318.3451009629691
 20
11.91661650311542
 10
318.3143819878985
 20
11.91993906944824
 10
318.2827109996682
 20
11.9219333862747
 10
318.250087998278
 20
11.92259836575729
 10
318.2181206520497
 20
11.92196928491
 10
318.1871101365468
 20
11.92008281939485
 10
318.1570564517695
 20
11.91693959083318
 10
318.1279592869069
 20
11.91254037625182
 10
318.0998189527699
 20
11.90688626348816
 10
318.0726354493584
 20
11.89997771875823
 10
318.046408621267
 20
11.89181567449412
 10
318.0211384684958
 20
11.88240090772256
 10
317.99682514645
 20
11.87173419547031
 10
317.9734684997244
 20
11.8598164701695
 10
317.9510686837244
 20
11.84664850884678
 10
317.9296255430445
 20
11.83223093312352
 10
317.9091390776848
 20
11.81656467543203
 10
317.8880805652402
 20
11.79837649975866
 10
317.8687066467643
 20
11.7790972231395
 10
317.8510176330678
 20
11.75872762260115
 10
317.8350130579342
 20
11.73726847517036
 10
317.8206932321748
 20
11.7147207132794
 10
317.8080581557892
 20
11.69108495854951
 10
317.7971078287774
 20
11.66636198800722
 10
317.7878419403289
 20
11.64055288949035
 10
317.7802609566597
 20
11.61365812921477
 10
317.7743645669591
 20
11.58567879501791
 10
317.770152771227
 20
11.55661550852107
 10
317.7676258802741
 20
11.5264690467514
 10
317.7667834278845
 20
11.49524034214039
 10
317.7683300219043
 20
11.46357075255818
 10
317.7729698039638
 20
11.43218244665501
 10
317.7807027740631
 20
11.40107542443132
 10
317.791528932202
 20
11.37024953048154
 10
317.8054482783807
 20
11.33970460940025
 10
317.8219683330522
 20
11.31070876882435
 10
317.8405973936968
 20
11.28453881909024
 10
317.8613356157199
 20
11.26120890208443
 10
317.8841828437157
 20
11.24073315969371
 10
317.9091390776848
 20
11.22312557839922
 10
317.4451666217286
 20
11.22312557839922
 10
317.4451666217286
 20
11.02277436231349
 97
        0
 92
       22
 72
     0
 73
     1
 93
       32
 10
318.0324672927888
 20
11.26208201513526
 10
317.9887775159995
 20
11.29586263383242
 10
317.9549446342921
 20
11.339751915275
 10
317.9334141437639
 20
11.39183327883876
 10
317.9240754894538
 20
11.45280618177846
 10
317.9273862559485
 20
11.51433480510493
 10
317.943586045704
 20
11.56767287781053
 10
317.9727460550886
 20
11.61418829676054
 10
318.0143219672426
 20
11.65342205522668
 10
318.0631555465827
 20
11.68334728161653
 10
318.1140116497469
 20
11.70399139213856
 10
318.1697001202908
 20
11.71710448909749
 10
318.2299552673188
 20
11.72268946266925
 10
318.2961399602753
 20
11.72092783370237
 10
318.3558356889682
 20
11.71211900361859
 10
318.4091612379236
 20
11.69623272778571
 10
318.4566866015572
 20
11.67296250337096
 10
318.5014718535717
 20
11.63904696601486
 10
318.5359083222517
 20
11.59570664159
 10
318.5578227868825
 20
11.54461526670704
 10
318.5672592848382
 20
11.48552066607618
 10
318.5640843928788
 20
11.42277241913308
 10
318.5484335720464
 20
11.36822576565345
 10
318.5202623307113
 20
11.32094178777583
 10
318.4797068115357
 20
11.28099954476539
 10
318.4322826401881
 20
11.25148041438257
 10
318.3814832499255
 20
11.23083681022214
 10
318.3251915824941
 20
11.2177236364574
 10
318.2636631064072
 20
11.21213689168467
 10
318.1957697588525
 20
11.21390001531276
 10
318.1348650298463
 20
11.22270893706951
 10
318.0807721728537
 20
11.23859474352491
 97
        0
 92
        7
 72
     0
 73
     1
 93
       12
 10
318.6999999999999
 20
12.11445543635096
 10
318.6999999999999
 20
12.33413923309007
 10
318.1340950008429
 20
12.33413923309007
 10
318.1340950008429
 20
12.90531682488219
 10
318.6999999999999
 20
12.90531682488219
 10
318.6999999999999
 20
13.12499999999994
 10
317.4451666217286
 20
13.12499999999994
 10
317.4451666217285
 20
12.90531682488219
 10
317.9442881930009
 20
12.90531682488219
 10
317.9442881930009
 20
12.33413923309007
 10
317.4451666217286
 20
12.33413923309007
 10
317.4451666217286
 20
12.11445543635096
 97
        0
 92
       20
 93
        1
 72
     3
 10
294.2885001068063
 20
10.66013592647999
 11
0.0
 21
1.418043763589117
 40
0.8418553211183608
 50
0.0
 51
360.0
 73
     1
 97
        0
 92
       20
 93
        4
 72
     1
 10
298.1687177276206
 20
12.05514613969569
 11
298.1687177276206
 21
10.96404090281613
 72
     1
 10
298.1687177276206
 20
10.96404090281615
 11
299.431992277655
 21
10.96404090281615
 72
     3
 10
299.3539433853799
 20
11.51076505629546
 11
-0.4194136260840624
 21
0.3644058831363924
 40
0.9861367087070348
 50
139.1101149142422
 51
302.702408729263
 73
     1
 72
     1
 10
299.4331970553732
 20
12.05514613969569
 11
298.1687177276206
 21
12.05514613969569
 97
        0
 75
     0
 76
     1
 47
0.0690960993340888
 98
       17
 10
301.357997729788
 20
10.33540167395241
 10
301.357997729788
 20
10.33540167395241
 10
301.357997729788
 20
10.33540167395241
 10
301.357997729788
 20
10.33540167395241
 10
301.357997729788
 20
10.33540167395241
 10
301.357997729788
 20
10.33540167395241
 10
301.357997729788
 20
10.33540167395241
 10
301.357997729788
 20
10.33540167395241
 10
301.357997729788
 20
10.33540167395241
 10
299.2150836791375
 20
10.36994970406541
 10
317.4989785594333
 20
8.573451094389014
 10
318.0174254367425
 20
9.540796459453218
 10
318.0174254367425
 20
11.13000678407158
 10
318.0174254367425
 20
11.13000678407158
 10
318.0174254367425
 20
12.20099634385482
 10
293.5812937904024
 20
10.64633404934943
 10
299.2496467938949
 20
11.54458335418766
  0
LINE
  5
517B
330
5103
100
AcDbEntity
  8
RAHMEN013
100
AcDbLine
 10
0.0
 20
285.5
 30
0.0
 11
0.0
 21
0.0
 31
0.0
  0
LINE
  5
517C
330
5103
100
AcDbEntity
  8
RAHMEN013
100
AcDbLine
 10
221.5000000000001
 20
-0.0000000000000568
 30
0.0
 11
0.0
 21
0.0
 31
0.0
  0
TEXT
  5
517D
330
5103
100
AcDbEntity
  8
RAHMEN_FÜR_HP5000
100
AcDbText
 10
-0.0000000000000002
 20
-9.0
 30
0.0
 40
3.5
  1
Rahmen für HP 5000
 11
0.0
 21
-5.5
 31
0.0
100
AcDbText
 73
     3
  0
LINE
  5
517E
330
5103
100
AcDbEntity
  8
RAHMEN013
100
AcDbLine
 10
408.7
 20
285.4999999999998
 30
0.0
 11
408.7
 21
55.25
 31
0.0
  0
LINE
  5
517F
330
5103
100
AcDbEntity
  8
RAHMEN013
100
AcDbLine
 10
408.7
 20
285.4999999999998
 30
0.0
 11
0.0
 21
285.5
 31
0.0
  0
LINE
  5
5180
330
5103
100
AcDbEntity
  8
RAHMEN025
100
AcDbLine
 10
119.0000000000001
 20
285.4999999999999
 30
0.0
 11
119.0000000000001
 21
285.1999999999999
 31
0.0
  0
LINE
  5
5181
330
5103
100
AcDbEntity
  8
RAHMEN025
100
AcDbLine
 10
224.7000000000002
 20
285.4999999999999
 30
0.0
 11
224.7000000000002
 21
285.1999999999999
 31
0.0
  0
LINE
  5
5182
330
5103
100
AcDbEntity
  8
RAHMEN025
100
AcDbLine
 10
14.00000000000011
 20
285.4999999999999
 30
0.0
 11
14.00000000000011
 21
285.1999999999999
 31
0.0
  0
LINE
  5
5183
330
5103
100
AcDbEntity
  8
RAHMEN025
100
AcDbLine
 10
14.00000000000011
 20
0.0000000000000568
 30
0.0
 11
14.00000000000011
 21
0.3000000000000114
 31
0.0
  0
LINE
  5
5184
330
5103
100
AcDbEntity
  8
RAHMEN025
100
AcDbLine
 10
119.0000000000001
 20
0.0000000000000568
 30
0.0
 11
119.0000000000001
 21
0.3000000000000114
 31
0.0
  0
ENDBLK
  5
5186
330
5103
100
AcDbEntity
  8
0
100
AcDbBlockEnd
  0
BLOCK
  5
52BE
330
52B3
100
AcDbEntity
  8
0
100
AcDbBlockBegin
  2
*D16
 70
     1
 10
0.0
 20
0.0
 30
0.0
  3
*D16
  1

  0
LINE
  5
52FC
330
52B3
100
AcDbEntity
  8
MECH_BEM_NORMAL
 62
     0
370
    -2
100
AcDbLine
 10
-2.625000000000113
 20
112.0
 30
0.0
 11
-60.24999999999995
 21
112.0
 31
0.0
  0
LINE
  5
52FD
330
52B3
100
AcDbEntity
  8
MECH_BEM_NORMAL
 62
     0
370
    -2
100
AcDbLine
 10
-33.125
 20
0.0000000000000002
 30
0.0
 11
-60.24999999999998
 21
0.0000000000000079
 31
0.0
  0
LINE
  5
52FE
330
52B3
100
AcDbEntity
  8
MECH_BEM_NORMAL
 62
     0
370
    -2
100
AcDbLine
 10
-58.99999999999996
 20
108.5
 30
0.0
 11
-58.99999999999997
 21
63.88690476190479
 31
0.0
  0
LINE
  5
52FF
330
52B3
100
AcDbEntity
  8
MECH_BEM_NORMAL
 62
     0
370
    -2
100
AcDbLine
 10
-58.99999999999998
 20
3.500000000000007
 30
0.0
 11
-58.99999999999997
 21
48.11309523809526
 31
0.0
  0
SOLID
  5
5300
330
52B3
100
AcDbEntity
  8
MECH_BEM_NORMAL
 62
     0
100
AcDbTrace
 10
-59.5833333333333
 20
108.5
 30
0.0
 11
-58.41666666666663
 21
108.5
 31
0.0
 12
-58.99999999999995
 22
112.0
 32
0.0
 13
-58.99999999999995
 23
112.0
 33
0.0
  0
SOLID
  5
5301
330
52B3
100
AcDbEntity
  8
MECH_BEM_NORMAL
 62
     0
100
AcDbTrace
 10
-59.58333333333332
 20
3.500000000000007
 30
0.0
 11
-58.41666666666665
 21
3.500000000000007
 31
0.0
 12
-58.99999999999998
 22
0.0000000000000075
 32
0.0
 13
-58.99999999999998
 23
0.0000000000000075
 33
0.0
  0
MTEXT
  5
5302
330
52B3
100
AcDbEntity
  8
MECH_BEM_NORMAL
 62
     0
100
AcDbMText
 10
-58.99999999999998
 20
56.00000000000001
 30
0.0
 40
2.5
 41
0.0
 71
     5
 72
     1
  1
\A1;112mm\P [4.41"]
 11
0.0000000000000001
 21
1.0
 31
0.0
 73
     1
 44
1.0
  0
POINT
  5
5303
330
52B3
100
AcDbEntity
  8
DEFPOINTS
 62
     0
100
AcDbPoint
 10
-2.000000000000113
 20
112.0
 30
0.0
  0
POINT
  5
5304
330
52B3
100
AcDbEntity
  8
DEFPOINTS
 62
     0
100
AcDbPoint
 10
-32.5
 20
0.0
 30
0.0
  0
POINT
  5
5305
330
52B3
100
AcDbEntity
  8
DEFPOINTS
 62
     0
100
AcDbPoint
 10
-58.99999999999998
 20
0.0000000000000075
 30
0.0
  0
ENDBLK
  5
52BF
330
52B3
100
AcDbEntity
  8
0
100
AcDbBlockEnd
  0
BLOCK
  5
5312
330
5307
100
AcDbEntity
  8
0
100
AcDbBlockBegin
  2
*D17
 70
     1
 10
0.0
 20
0.0
 30
0.0
  3
*D17
  1

  0
LINE
  5
53C8
330
5307
100
AcDbEntity
  8
MECH_BEM_NORMAL
 62
     0
370
    -2
100
AcDbLine
 10
-45.625
 20
52.3
 30
0.0
 11
-50.24999999999998
 21
52.3
 31
0.0
  0
LINE
  5
53C9
330
5307
100
AcDbEntity
  8
MECH_BEM_NORMAL
 62
     0
370
    -2
100
AcDbLine
 10
-33.125
 20
0.0000000000000002
 30
0.0
 11
-50.24999999999999
 21
0.000000000000005
 31
0.0
  0
LINE
  5
53CA
330
5307
100
AcDbEntity
  8
MECH_BEM_NORMAL
 62
     0
370
    -2
100
AcDbLine
 10
-48.99999999999998
 20
48.8
 30
0.0
 11
-48.99999999999998
 21
34.27500000000001
 31
0.0
  0
LINE
  5
53CB
330
5307
100
AcDbEntity
  8
MECH_BEM_NORMAL
 62
     0
370
    -2
100
AcDbLine
 10
-48.99999999999999
 20
3.500000000000004
 30
0.0
 11
-48.99999999999998
 21
18.02500000000001
 31
0.0
  0
SOLID
  5
53CC
330
5307
100
AcDbEntity
  8
MECH_BEM_NORMAL
 62
     0
100
AcDbTrace
 10
-49.58333333333332
 20
48.8
 30
0.0
 11
-48.41666666666665
 21
48.8
 31
0.0
 12
-48.99999999999998
 22
52.3
 32
0.0
 13
-48.99999999999998
 23
52.3
 33
0.0
  0
SOLID
  5
53CD
330
5307
100
AcDbEntity
  8
MECH_BEM_NORMAL
 62
     0
100
AcDbTrace
 10
-49.58333333333333
 20
3.500000000000004
 30
0.0
 11
-48.41666666666665
 21
3.500000000000004
 31
0.0
 12
-48.99999999999999
 22
0.0000000000000047
 32
0.0
 13
-48.99999999999999
 23
0.0000000000000047
 33
0.0
  0
MTEXT
  5
53CE
330
5307
100
AcDbEntity
  8
MECH_BEM_NORMAL
 62
     0
100
AcDbMText
 10
-48.99999999999999
 20
26.15
 30
0.0
 40
2.5
 41
0.0
 71
     5
 72
     1
  1
\A1;52.3mm\P [2.06"]
 11
0.0000000000000001
 21
1.0
 31
0.0
 73
     1
 44
1.0
  0
POINT
  5
53CF
330
5307
100
AcDbEntity
  8
DEFPOINTS
 62
     0
100
AcDbPoint
 10
-45.0
 20
52.3
 30
0.0
  0
POINT
  5
53D0
330
5307
100
AcDbEntity
  8
DEFPOINTS
 62
     0
100
AcDbPoint
 10
-32.5
 20
0.0
 30
0.0
  0
POINT
  5
53D1
330
5307
100
AcDbEntity
  8
DEFPOINTS
 62
     0
100
AcDbPoint
 10
-48.99999999999999
 20
0.0000000000000047
 30
0.0
  0
ENDBLK
  5
5313
330
5307
100
AcDbEntity
  8
0
100
AcDbBlockEnd
  0
BLOCK
  5
5348
330
533D
100
AcDbEntity
  8
0
100
AcDbBlockBegin
  2
*D18
 70
     1
 10
0.0
 20
0.0
 30
0.0
  3
*D18
  1

  0
LINE
  5
53D2
330
533D
100
AcDbEntity
  8
MECH_BEM_NORMAL
 62
     0
370
    -2
100
AcDbLine
 10
82.99999999999988
 20
89.92500000000005
 30
0.0
 11
82.99999999999988
 21
126.2499999999999
 31
0.0
  0
LINE
  5
53D3
330
533D
100
AcDbEntity
  8
MECH_BEM_NORMAL
 62
     0
370
    -2
100
AcDbLine
 10
142.9999999999999
 20
89.92499999999997
 30
0.0
 11
142.9999999999999
 21
126.2499999999999
 31
0.0
  0
LINE
  5
53D4
330
533D
100
AcDbEntity
  8
MECH_BEM_NORMAL
 62
     0
370
    -2
100
AcDbLine
 10
86.49999999999989
 20
125.0
 30
0.0
 11
104.8749999999998
 21
125.0
 31
0.0
  0
LINE
  5
53D5
330
533D
100
AcDbEntity
  8
MECH_BEM_NORMAL
 62
     0
370
    -2
100
AcDbLine
 10
139.4999999999999
 20
125.0
 30
0.0
 11
121.1249999999999
 21
125.0
 31
0.0
  0
SOLID
  5
53D6
330
533D
100
AcDbEntity
  8
MECH_BEM_NORMAL
 62
     0
100
AcDbTrace
 10
86.49999999999989
 20
125.5833333333333
 30
0.0
 11
86.49999999999989
 21
124.4166666666666
 31
0.0
 12
82.99999999999988
 22
125.0
 32
0.0
 13
82.99999999999988
 23
125.0
 33
0.0
  0
SOLID
  5
53D7
330
533D
100
AcDbEntity
  8
MECH_BEM_NORMAL
 62
     0
100
AcDbTrace
 10
139.4999999999999
 20
125.5833333333333
 30
0.0
 11
139.4999999999999
 21
124.4166666666666
 31
0.0
 12
142.9999999999999
 22
125.0
 32
0.0
 13
142.9999999999999
 23
125.0
 33
0.0
  0
MTEXT
  5
53D8
330
533D
100
AcDbEntity
  8
MECH_BEM_NORMAL
 62
     0
100
AcDbMText
 10
112.9999999999999
 20
125.0
 30
0.0
 40
2.5
 41
0.0
 71
     5
 72
     1
  1
\A1;60mm\P [2.36"]
 73
     1
 44
1.0
  0
POINT
  5
53D9
330
533D
100
AcDbEntity
  8
DEFPOINTS
 62
     0
100
AcDbPoint
 10
82.99999999999988
 20
89.30000000000005
 30
0.0
  0
POINT
  5
53DA
330
533D
100
AcDbEntity
  8
DEFPOINTS
 62
     0
100
AcDbPoint
 10
142.9999999999999
 20
89.29999999999997
 30
0.0
  0
POINT
  5
53DB
330
533D
100
AcDbEntity
  8
DEFPOINTS
 62
     0
100
AcDbPoint
 10
142.9999999999999
 20
125.0
 30
0.0
  0
ENDBLK
  5
5349
330
533D
100
AcDbEntity
  8
0
100
AcDbBlockEnd
  0
BLOCK
  5
5388
330
537D
100
AcDbEntity
  8
0
100
AcDbBlockBegin
  2
*D19
 70
     1
 10
0.0
 20
0.0
 30
0.0
  3
*D19
  1

  0
LINE
  5
539E
330
537D
100
AcDbEntity
  8
MECH_BEM_NORMAL
 62
     0
370
    -2
100
AcDbLine
 10
235.0
 20
46.12499999999999
 30
0.0
 11
235.0
 21
83.25000000000001
 31
0.0
  0
LINE
  5
539F
330
537D
100
AcDbEntity
  8
MECH_BEM_NORMAL
 62
     0
370
    -2
100
AcDbLine
 10
265.0
 20
46.12499999999999
 30
0.0
 11
265.0
 21
83.25000000000001
 31
0.0
  0
LINE
  5
53A0
330
537D
100
AcDbEntity
  8
MECH_BEM_NORMAL
 62
     0
370
    -2
100
AcDbLine
 10
238.5
 20
82.0
 30
0.0
 11
242.3511904761904
 21
82.0
 31
0.0
  0
LINE
  5
53A1
330
537D
100
AcDbEntity
  8
MECH_BEM_NORMAL
 62
     0
370
    -2
100
AcDbLine
 10
261.5
 20
82.0
 30
0.0
 11
257.6488095238095
 21
82.0
 31
0.0
  0
SOLID
  5
53A2
330
537D
100
AcDbEntity
  8
MECH_BEM_NORMAL
 62
     0
100
AcDbTrace
 10
238.5
 20
82.58333333333332
 30
0.0
 11
238.5
 21
81.41666666666667
 31
0.0
 12
235.0
 22
82.0
 32
0.0
 13
235.0
 23
82.0
 33
0.0
  0
SOLID
  5
53A3
330
537D
100
AcDbEntity
  8
MECH_BEM_NORMAL
 62
     0
100
AcDbTrace
 10
261.5
 20
82.58333333333332
 30
0.0
 11
261.5
 21
81.41666666666667
 31
0.0
 12
265.0
 22
82.0
 32
0.0
 13
265.0
 23
82.0
 33
0.0
  0
MTEXT
  5
53A4
330
537D
100
AcDbEntity
  8
MECH_BEM_NORMAL
 62
     0
100
AcDbMText
 10
250.0
 20
82.0
 30
0.0
 40
2.5
 41
0.0
 71
     5
 72
     1
  1
\A1;30mm\P [1.18"]
 73
     1
 44
1.0
  0
POINT
  5
53A5
330
537D
100
AcDbEntity
  8
DEFPOINTS
 62
     0
100
AcDbPoint
 10
235.0
 20
45.49999999999999
 30
0.0
  0
POINT
  5
53A6
330
537D
100
AcDbEntity
  8
DEFPOINTS
 62
     0
100
AcDbPoint
 10
265.0
 20
45.49999999999999
 30
0.0
  0
POINT
  5
53A7
330
537D
100
AcDbEntity
  8
DEFPOINTS
 62
     0
100
AcDbPoint
 10
265.0
 20
82.0
 30
0.0
  0
ENDBLK
  5
5389
330
537D
100
AcDbEntity
  8
0
100
AcDbBlockEnd
  0
ENDSEC
  0
SECTION
  2
ENTITIES
  0
LINE
  5
1790
330
2
100
AcDbEntity
  8
MECH_KONTUR5
100
AcDbLine
 10
85.99999999999992
 20
92.30000000000003
 30
0.0
 11
107.9999999999998
 21
92.30000000000002
 31
0.0
  0
LINE
  5
1872
330
2
100
AcDbEntity
  8
MECH_KONTUR5
100
AcDbLine
 10
82.9999999999999
 20
15.29999999999999
 30
0.0
 11
82.9999999999999
 21
89.30000000000005
 31
0.0
  0
LINE
  5
1878
330
2
100
AcDbEntity
  8
MECH_KONTUR5
100
AcDbLine
 10
85.99999999999992
 20
12.29999999999999
 30
0.0
 11
90.59999999999996
 21
12.29999999999999
 31
0.0
  0
LINE
  5
187F
330
2
100
AcDbEntity
  8
MECH_KONTUR5
100
AcDbLine
 10
142.9999999999999
 20
15.29999999999999
 30
0.0
 11
142.9999999999999
 21
89.29999999999997
 31
0.0
  0
LINE
  5
188C
330
2
100
AcDbEntity
  8
MECH_KONTUR5
100
AcDbLine
 10
135.3999999999998
 20
12.29999999999999
 30
0.0
 11
139.9999999999999
 21
12.29999999999999
 31
0.0
  0
LINE
  5
1891
330
2
100
AcDbEntity
  8
MECH_KONTUR5
100
AcDbLine
 10
90.59999999999993
 20
8.070166537925826
 30
0.0
 11
135.3999999999998
 21
8.070166537925857
 31
0.0
  0
LINE
  5
1892
330
2
100
AcDbEntity
  8
MECH_KONTUR5
100
AcDbLine
 10
90.59999999999996
 20
12.29999999999999
 30
0.0
 11
90.59999999999993
 21
8.070166537925826
 31
0.0
  0
LINE
  5
1893
330
2
100
AcDbEntity
  8
MECH_KONTUR5
100
AcDbLine
 10
135.3999999999998
 20
12.29999999999999
 30
0.0
 11
135.3999999999998
 21
8.070166537925857
 31
0.0
  0
CIRCLE
  5
25A4
330
2
100
AcDbEntity
  8
MECH_KONTUR5
100
AcDbCircle
 10
0.0
 20
52.3
 30
0.0
 40
35.5
  0
LINE
  5
2624
330
2
100
AcDbEntity
  8
MECH_MITTELLINIE
100
AcDbLine
 10
0.0
 20
97.3
 30
0.0
 11
0.0
 21
7.299999999999998
 31
0.0
  0
ARC
  5
31E3
330
2
100
AcDbEntity
  8
MECH_KONTUR5
100
AcDbCircle
 10
0.0
 20
52.3
 30
0.0
 40
40.0
100
AcDbArc
 50
310.1236288970198
 51
229.8763711029801
  0
LINE
  5
3621
330
2
100
AcDbEntity
  8
MECH_KONTUR5
100
AcDbLine
 10
82.9999999999999
 20
89.30000000000005
 30
0.0
 11
85.99999999999992
 21
92.30000000000003
 31
0.0
  0
LINE
  5
3622
330
2
100
AcDbEntity
  8
MECH_KONTUR5
100
AcDbLine
 10
139.9999999999999
 20
92.3
 30
0.0
 11
142.9999999999999
 21
89.29999999999997
 31
0.0
  0
LINE
  5
3623
330
2
100
AcDbEntity
  8
MECH_KONTUR5
100
AcDbLine
 10
139.9999999999999
 20
12.29999999999999
 30
0.0
 11
142.9999999999999
 21
15.29999999999999
 31
0.0
  0
LINE
  5
3624
330
2
100
AcDbEntity
  8
MECH_KONTUR5
100
AcDbLine
 10
82.9999999999999
 20
15.29999999999999
 30
0.0
 11
85.99999999999992
 21
12.29999999999999
 31
0.0
  0
LINE
  5
3668
330
2
100
AcDbEntity
  8
MECH_KONTUR1
100
AcDbLine
 10
32.5
 20
0.0
 30
0.0
 11
-32.5
 21
0.0
 31
0.0
  0
LINE
  5
3670
330
2
100
AcDbEntity
  8
MECH_KONTUR1
100
AcDbLine
 10
69.99999999999992
 20
10.00000000000001
 30
0.0
 11
142.9999999999999
 21
10.0
 31
0.0
  0
LINE
  5
3671
330
2
100
AcDbEntity
  8
MECH_KONTUR1
100
AcDbLine
 10
69.99999999999992
 20
0.0
 30
0.0
 11
145.9999999999999
 21
0.0000000000000284
 31
0.0
  0
LINE
  5
3674
330
2
100
AcDbEntity
  8
MECH_KONTUR1
100
AcDbLine
 10
-32.5
 20
10.0
 30
0.0
 11
-32.5
 21
0.0
 31
0.0
  0
LINE
  5
3675
330
2
100
AcDbEntity
  8
MECH_KONTUR1
100
AcDbLine
 10
32.5
 20
10.0
 30
0.0
 11
32.5
 21
0.0
 31
0.0
  0
LINE
  5
3681
330
2
100
AcDbEntity
  8
MECH_KONTUR1
100
AcDbLine
 10
69.99999999999992
 20
10.00000000000001
 30
0.0
 11
69.99999999999992
 21
0.0
 31
0.0
  0
LINE
  5
3683
330
2
100
AcDbEntity
  8
MECH_MITTELLINIE
100
AcDbLine
 10
77.49999999999992
 20
12.50000000000001
 30
0.0
 11
77.49999999999992
 21
-3.0
 31
0.0
  0
ARC
  5
3684
330
2
100
AcDbEntity
  8
MECH_KONTUR1
100
AcDbCircle
 10
0.0
 20
52.22983346207417
 30
0.0
 40
36.0
100
AcDbArc
 50
232.3921415926278
 51
307.6078584073723
  0
LINE
  5
3685
330
2
100
AcDbEntity
  8
MECH_KONTUR1
100
AcDbLine
 10
-32.5
 20
10.0
 30
0.0
 11
-24.92169614668313
 21
23.12600730913976
 31
0.0
  0
LINE
  5
3689
330
2
100
AcDbEntity
  8
MECH_KONTUR1
100
AcDbLine
 10
32.5
 20
10.0
 30
0.0
 11
24.92169614668313
 21
23.12600730913981
 31
0.0
  0
LINE
  5
368F
330
2
100
AcDbEntity
  8
MECH_KONTUR1
100
AcDbLine
 10
143.0
 20
24.12600730913979
 30
0.0
 11
142.9999999999999
 21
0.0000000000000273
 31
0.0
  0
LINE
  5
3690
330
2
100
AcDbEntity
  8
MECH_KONTUR1
100
AcDbLine
 10
145.9999999999999
 20
24.12600730913979
 30
0.0
 11
145.9999999999999
 21
0.0
 31
0.0
  0
ARC
  5
3C94
330
2
100
AcDbEntity
  8
MECH_KONTUR1
100
AcDbCircle
 10
-23.18964533911423
 20
22.12600730913976
 30
0.0
 40
2.0
100
AcDbArc
 50
52.39214159262804
 51
149.9999999999998
  0
ARC
  5
3C95
330
2
100
AcDbEntity
  8
MECH_KONTUR1
100
AcDbCircle
 10
23.18964533911423
 20
22.12600730913981
 30
0.0
 40
2.0
100
AcDbArc
 50
30.00000000000007
 51
127.6078584073723
  0
LINE
  5
3C96
330
2
100
AcDbEntity
  8
MECH_KONTUR1
100
AcDbLine
 10
143.0
 20
24.12600730913979
 30
0.0
 11
145.9999999999999
 21
24.12600730913979
 31
0.0
  0
LINE
  5
4582
330
2
100
AcDbEntity
  8
MECH_KONTUR5
100
AcDbLine
 10
85.99999999999992
 20
92.30000000000003
 30
0.0
 11
85.99999999999992
 21
12.29999999999999
 31
0.0
  0
LINE
  5
4583
330
2
100
AcDbEntity
  8
MECH_KONTUR5
100
AcDbLine
 10
139.9999999999999
 20
12.29999999999999
 30
0.0
 11
139.9999999999999
 21
92.3
 31
0.0
  0
LINE
  5
464D
330
2
100
AcDbEntity
  8
MECH_VERDECKT
100
AcDbLine
 10
101.4299999999999
 20
5.099999999999994
 30
0.0
 11
101.4299999999999
 21
10.59999999999999
 31
0.0
  0
LINE
  5
464E
330
2
100
AcDbEntity
  8
MECH_VERDECKT
100
AcDbLine
 10
104.5699999999999
 20
5.099999999999994
 30
0.0
 11
104.5699999999999
 21
10.59999999999999
 31
0.0
  0
LINE
  5
464F
330
2
100
AcDbEntity
  8
MECH_VERDECKT
100
AcDbLine
 10
100.9999999999999
 20
4.599999999999994
 30
0.0
 11
100.9999999999999
 21
10.59999999999999
 31
0.0
  0
LINE
  5
4650
330
2
100
AcDbEntity
  8
MECH_VERDECKT
100
AcDbLine
 10
104.9999999999998
 20
4.599999999999994
 30
0.0
 11
104.9999999999998
 21
10.59999999999999
 31
0.0
  0
LINE
  5
4651
330
2
100
AcDbEntity
  8
MECH_VERDECKT
100
AcDbLine
 10
100.9999999999999
 20
10.59999999999999
 30
0.0
 11
104.9999999999998
 21
10.59999999999999
 31
0.0
  0
LINE
  5
4652
330
2
100
AcDbEntity
  8
MECH_VERDECKT
100
AcDbLine
 10
100.9999999999999
 20
5.099999999999994
 30
0.0
 11
104.9999999999998
 21
5.099999999999994
 31
0.0
  0
LINE
  5
46B5
330
2
100
AcDbEntity
  8
MECH_VERDECKT
100
AcDbLine
 10
106.4999999999999
 20
1.0
 30
0.0
 11
106.4999999999999
 21
4.599999999999994
 31
0.0
  0
LINE
  5
46B6
330
2
100
AcDbEntity
  8
MECH_VERDECKT
100
AcDbLine
 10
99.49999999999995
 20
1.0
 30
0.0
 11
99.49999999999995
 21
4.599999999999994
 31
0.0
  0
LINE
  5
46B7
330
2
100
AcDbEntity
  8
MECH_VERDECKT
100
AcDbLine
 10
99.89999999999994
 20
0.5999999999999944
 30
0.0
 11
106.0999999999999
 21
0.5999999999999944
 31
0.0
  0
LINE
  5
46BD
330
2
100
AcDbEntity
  8
MECH_VERDECKT
100
AcDbLine
 10
101.2679491924312
 20
2.600000000000021
 30
0.0
 11
102.9999999999998
 21
3.600000000000051
 31
0.0
  0
LINE
  5
46C0
330
2
100
AcDbEntity
  8
MECH_VERDECKT
100
AcDbLine
 10
104.7320508075687
 20
2.599999999999993
 30
0.0
 11
102.9999999999998
 21
3.600000000000051
 31
0.0
  0
ARC
  5
46CA
330
2
100
AcDbEntity
  8
MECH_VERDECKT
100
AcDbCircle
 10
106.0999999999999
 20
1.0
 30
0.0
 40
0.4
100
AcDbArc
 50
269.9999999999998
 51
0.0
  0
ARC
  5
46CB
330
2
100
AcDbEntity
  8
MECH_VERDECKT
100
AcDbCircle
 10
99.89999999999994
 20
1.0
 30
0.0
 40
0.4
100
AcDbArc
 50
180.0
 51
270.0
  0
LINE
  5
46CC
330
2
100
AcDbEntity
  8
MECH_VERDECKT
100
AcDbLine
 10
104.7320508075687
 20
0.5999999999999944
 30
0.0
 11
104.7320508075687
 21
2.599999999999993
 31
0.0
  0
LINE
  5
46CD
330
2
100
AcDbEntity
  8
MECH_VERDECKT
100
AcDbLine
 10
103.8660254037844
 20
0.5999999999999944
 30
0.0
 11
103.8660254037844
 21
2.599999999999993
 31
0.0
  0
LINE
  5
46CE
330
2
100
AcDbEntity
  8
MECH_VERDECKT
100
AcDbLine
 10
102.1339745962154
 20
0.5999999999999944
 30
0.0
 11
102.1339745962154
 21
2.599999999999993
 31
0.0
  0
LINE
  5
46CF
330
2
100
AcDbEntity
  8
MECH_VERDECKT
100
AcDbLine
 10
101.2679491924309
 20
0.5999999999999944
 30
0.0
 11
101.2679491924309
 21
2.599999999999993
 31
0.0
  0
ARC
  5
46D2
330
2
100
AcDbEntity
  8
MECH_VERDECKT
100
AcDbCircle
 10
102.9999999999997
 20
-1.305124837953314
 30
0.0
 40
4.0
100
AcDbArc
 50
77.49608338265649
 51
102.5039166173417
  0
ARC
  5
46D7
330
2
100
AcDbEntity
  8
MECH_VERDECKT
100
AcDbCircle
 10
104.2990381056765
 20
1.659296976279135
 30
0.0
 40
1.035578185767547
100
AcDbArc
 50
65.28302774248603
 51
114.7169722575132
  0
ARC
  5
46D9
330
2
100
AcDbEntity
  8
MECH_VERDECKT
100
AcDbCircle
 10
101.7009618943232
 20
1.659296976279135
 30
0.0
 40
1.035578185767547
100
AcDbArc
 50
65.28302774248674
 51
114.7169722575139
  0
LINE
  5
46E0
330
2
100
AcDbEntity
  8
MECH_VERDECKT
100
AcDbLine
 10
98.99999999999996
 20
4.599999999999994
 30
0.0
 11
106.9999999999998
 21
4.600000000000021
 31
0.0
  0
LINE
  5
46E1
330
2
100
AcDbEntity
  8
MECH_VERDECKT
100
AcDbLine
 10
106.9999999999997
 20
0.0000000000000284
 30
0.0
 11
106.9999999999997
 21
4.60000000000005
 31
0.0
  0
LINE
  5
46E2
330
2
100
AcDbEntity
  8
MECH_VERDECKT
100
AcDbLine
 10
98.99999999999987
 20
0.0000000000000284
 30
0.0
 11
98.99999999999987
 21
4.600000000000021
 31
0.0
  0
LINE
  5
46E4
330
2
100
AcDbEntity
  8
MECH_VERDECKT
100
AcDbLine
 10
118.9999999999999
 20
4.599999999999994
 30
0.0
 11
126.9999999999999
 21
4.600000000000021
 31
0.0
  0
ARC
  5
46E5
330
2
100
AcDbEntity
  8
MECH_VERDECKT
100
AcDbCircle
 10
122.9999999999997
 20
-1.305124837953314
 30
0.0
 40
4.0
100
AcDbArc
 50
77.49608338265649
 51
102.5039166173417
  0
LINE
  5
46E6
330
2
100
AcDbEntity
  8
MECH_VERDECKT
100
AcDbLine
 10
124.7320508075687
 20
2.599999999999993
 30
0.0
 11
122.9999999999999
 21
3.600000000000051
 31
0.0
  0
LINE
  5
46E7
330
2
100
AcDbEntity
  8
MECH_VERDECKT
100
AcDbLine
 10
119.8999999999999
 20
0.5999999999999944
 30
0.0
 11
126.0999999999999
 21
0.5999999999999944
 31
0.0
  0
LINE
  5
46E8
330
2
100
AcDbEntity
  8
MECH_VERDECKT
100
AcDbLine
 10
120.9999999999999
 20
5.099999999999994
 30
0.0
 11
124.9999999999999
 21
5.099999999999994
 31
0.0
  0
LINE
  5
46E9
330
2
100
AcDbEntity
  8
MECH_VERDECKT
100
AcDbLine
 10
120.9999999999999
 20
10.59999999999999
 30
0.0
 11
124.9999999999999
 21
10.59999999999999
 31
0.0
  0
LINE
  5
46EA
330
2
100
AcDbEntity
  8
MECH_VERDECKT
100
AcDbLine
 10
118.9999999999997
 20
0.0000000000000284
 30
0.0
 11
118.9999999999997
 21
4.600000000000021
 31
0.0
  0
LINE
  5
46EB
330
2
100
AcDbEntity
  8
MECH_VERDECKT
100
AcDbLine
 10
121.267949192431
 20
0.5999999999999944
 30
0.0
 11
121.267949192431
 21
2.599999999999993
 31
0.0
  0
LINE
  5
46EC
330
2
100
AcDbEntity
  8
MECH_VERDECKT
100
AcDbLine
 10
122.1339745962154
 20
0.5999999999999944
 30
0.0
 11
122.1339745962153
 21
2.599999999999993
 31
0.0
  0
ARC
  5
46ED
330
2
100
AcDbEntity
  8
MECH_VERDECKT
100
AcDbCircle
 10
119.8999999999999
 20
1.0
 30
0.0
 40
0.4
100
AcDbArc
 50
180.0
 51
270.0
  0
LINE
  5
46EE
330
2
100
AcDbEntity
  8
MECH_VERDECKT
100
AcDbLine
 10
121.2679491924313
 20
2.600000000000021
 30
0.0
 11
122.9999999999999
 21
3.600000000000051
 31
0.0
  0
LINE
  5
46EF
330
2
100
AcDbEntity
  8
MECH_VERDECKT
100
AcDbLine
 10
119.4999999999998
 20
1.0
 30
0.0
 11
119.4999999999998
 21
4.599999999999994
 31
0.0
  0
LINE
  5
46F0
330
2
100
AcDbEntity
  8
MECH_VERDECKT
100
AcDbLine
 10
120.9999999999999
 20
4.599999999999994
 30
0.0
 11
120.9999999999999
 21
10.59999999999999
 31
0.0
  0
LINE
  5
46F1
330
2
100
AcDbEntity
  8
MECH_VERDECKT
100
AcDbLine
 10
121.4299999999999
 20
5.099999999999994
 30
0.0
 11
121.4299999999999
 21
10.59999999999999
 31
0.0
  0
ARC
  5
46F2
330
2
100
AcDbEntity
  8
MECH_VERDECKT
100
AcDbCircle
 10
121.7009618943232
 20
1.659296976279135
 30
0.0
 40
1.035578185767547
100
AcDbArc
 50
65.28302774248674
 51
114.7169722575139
  0
LINE
  5
46F3
330
2
100
AcDbEntity
  8
MECH_VERDECKT
100
AcDbLine
 10
126.9999999999997
 20
0.0000000000000284
 30
0.0
 11
126.9999999999997
 21
4.60000000000005
 31
0.0
  0
ARC
  5
46F4
330
2
100
AcDbEntity
  8
MECH_VERDECKT
100
AcDbCircle
 10
124.2990381056765
 20
1.659296976279135
 30
0.0
 40
1.035578185767547
100
AcDbArc
 50
65.28302774248603
 51
114.7169722575132
  0
LINE
  5
46F5
330
2
100
AcDbEntity
  8
MECH_VERDECKT
100
AcDbLine
 10
123.8660254037842
 20
0.5999999999999944
 30
0.0
 11
123.8660254037842
 21
2.599999999999993
 31
0.0
  0
LINE
  5
46F6
330
2
100
AcDbEntity
  8
MECH_VERDECKT
100
AcDbLine
 10
124.7320508075687
 20
0.5999999999999944
 30
0.0
 11
124.7320508075687
 21
2.599999999999993
 31
0.0
  0
ARC
  5
46F7
330
2
100
AcDbEntity
  8
MECH_VERDECKT
100
AcDbCircle
 10
126.0999999999999
 20
1.0
 30
0.0
 40
0.4
100
AcDbArc
 50
269.9999999999998
 51
0.0
  0
LINE
  5
46F8
330
2
100
AcDbEntity
  8
MECH_VERDECKT
100
AcDbLine
 10
126.4999999999999
 20
1.0
 30
0.0
 11
126.4999999999999
 21
4.599999999999994
 31
0.0
  0
LINE
  5
46F9
330
2
100
AcDbEntity
  8
MECH_VERDECKT
100
AcDbLine
 10
124.9999999999999
 20
4.599999999999994
 30
0.0
 11
124.9999999999999
 21
10.59999999999999
 31
0.0
  0
LINE
  5
46FA
330
2
100
AcDbEntity
  8
MECH_VERDECKT
100
AcDbLine
 10
124.5699999999999
 20
5.099999999999994
 30
0.0
 11
124.5699999999999
 21
10.59999999999999
 31
0.0
  0
ARC
  5
46FC
330
2
100
AcDbEntity
  8
MECH_KONTUR5
100
AcDbCircle
 10
0.0
 20
52.3
 30
0.0
 40
37.00000000000001
100
AcDbArc
 50
310.2547077233321
 51
229.7452922766679
  0
LINE
  5
46FD
330
2
100
AcDbEntity
  8
MECH_MITTELLINIE
100
AcDbLine
 10
-45.0
 20
52.3
 30
0.0
 11
44.99999999999997
 21
52.30000000000003
 31
0.0
  0
CIRCLE
  5
46FE
330
2
100
AcDbEntity
  8
MECH_KONTUR5
100
AcDbCircle
 10
0.0
 20
52.3
 30
0.0
 40
2.5
  0
LINE
  5
4716
330
2
100
AcDbEntity
  8
MECH_MITTELLINIE
100
AcDbLine
 10
-25.0
 20
10.0
 30
0.0
 11
-25.0
 21
0.0
 31
0.0
  0
LINE
  5
4717
330
2
100
AcDbEntity
  8
MECH_KONTUR1
100
AcDbLine
 10
-25.86602540378442
 20
6.5
 30
0.0
 11
-24.13397459621557
 21
6.5
 31
0.0
  0
CIRCLE
  5
4718
330
2
100
AcDbEntity
  8
MECH_KONTUR1
100
AcDbCircle
 10
-25.0
 20
5.0
 30
0.0
 40
3.5
  0
LINE
  5
4719
330
2
100
AcDbEntity
  8
MECH_KONTUR1
100
AcDbLine
 10
-25.86602540378442
 20
3.5
 30
0.0
 11
-24.13397459621557
 21
3.5
 31
0.0
  0
LINE
  5
471A
330
2
100
AcDbEntity
  8
MECH_MITTELLINIE
100
AcDbLine
 10
-30.0
 20
5.0
 30
0.0
 11
-20.0
 21
5.0
 31
0.0
  0
LINE
  5
471B
330
2
100
AcDbEntity
  8
MECH_KONTUR1
100
AcDbLine
 10
-26.73205080756889
 20
5.0
 30
0.0
 11
-25.86602540378442
 21
6.5
 31
0.0
  0
LINE
  5
471C
330
2
100
AcDbEntity
  8
MECH_KONTUR1
100
AcDbLine
 10
-25.86602540378442
 20
3.5
 30
0.0
 11
-26.73205080756889
 21
5.0
 31
0.0
  0
LINE
  5
471D
330
2
100
AcDbEntity
  8
MECH_KONTUR1
100
AcDbLine
 10
-23.2679491924311
 20
5.0
 30
0.0
 11
-24.13397459621557
 21
6.5
 31
0.0
  0
LINE
  5
471E
330
2
100
AcDbEntity
  8
MECH_KONTUR1
100
AcDbLine
 10
-24.13397459621557
 20
3.5
 30
0.0
 11
-23.2679491924311
 21
5.0
 31
0.0
  0
LINE
  5
471F
330
2
100
AcDbEntity
  8
MECH_MITTELLINIE
100
AcDbLine
 10
25.0
 20
10.0
 30
0.0
 11
25.0
 21
0.0
 31
0.0
  0
LINE
  5
4720
330
2
100
AcDbEntity
  8
MECH_KONTUR1
100
AcDbLine
 10
24.13397459621557
 20
6.5
 30
0.0
 11
25.86602540378442
 21
6.5
 31
0.0
  0
CIRCLE
  5
4721
330
2
100
AcDbEntity
  8
MECH_KONTUR1
100
AcDbCircle
 10
25.0
 20
5.0
 30
0.0
 40
3.5
  0
LINE
  5
4722
330
2
100
AcDbEntity
  8
MECH_KONTUR1
100
AcDbLine
 10
24.13397459621557
 20
3.5
 30
0.0
 11
25.86602540378442
 21
3.5
 31
0.0
  0
LINE
  5
4723
330
2
100
AcDbEntity
  8
MECH_MITTELLINIE
100
AcDbLine
 10
20.0
 20
5.0
 30
0.0
 11
30.0
 21
5.0
 31
0.0
  0
LINE
  5
4724
330
2
100
AcDbEntity
  8
MECH_KONTUR1
100
AcDbLine
 10
23.2679491924311
 20
5.0
 30
0.0
 11
24.13397459621557
 21
6.5
 31
0.0
  0
LINE
  5
4725
330
2
100
AcDbEntity
  8
MECH_KONTUR1
100
AcDbLine
 10
24.13397459621557
 20
3.5
 30
0.0
 11
23.2679491924311
 21
5.0
 31
0.0
  0
LINE
  5
4726
330
2
100
AcDbEntity
  8
MECH_KONTUR1
100
AcDbLine
 10
26.73205080756889
 20
5.0
 30
0.0
 11
25.86602540378442
 21
6.5
 31
0.0
  0
LINE
  5
4727
330
2
100
AcDbEntity
  8
MECH_KONTUR1
100
AcDbLine
 10
25.86602540378442
 20
3.5
 30
0.0
 11
26.73205080756889
 21
5.0
 31
0.0
  0
LINE
  5
477B
330
2
100
AcDbEntity
  8
MECH_VERDECKT
100
AcDbLine
 10
145.9999999999999
 20
7.0
 30
0.0
 11
137.9999999999999
 21
7.0
 31
0.0
  0
LINE
  5
477C
330
2
100
AcDbEntity
  8
MECH_VERDECKT
100
AcDbLine
 10
145.9999999999999
 20
3.0
 30
0.0
 11
137.9999999999999
 21
3.0
 31
0.0
  0
LINE
  5
477D
330
2
100
AcDbEntity
  8
MECH_VERDECKT
100
AcDbLine
 10
144.9999999999999
 20
6.569999999999991
 30
0.0
 11
137.9999999999999
 21
6.569999999999991
 31
0.0
  0
LINE
  5
477E
330
2
100
AcDbEntity
  8
MECH_VERDECKT
100
AcDbLine
 10
144.9999999999999
 20
3.430000000000006
 30
0.0
 11
137.9999999999999
 21
3.430000000000006
 31
0.0
  0
LINE
  5
477F
330
2
100
AcDbEntity
  8
MECH_VERDECKT
100
AcDbLine
 10
137.9999999999999
 20
3.0
 30
0.0
 11
137.9999999999999
 21
7.0
 31
0.0
  0
ARC
  5
4780
330
2
100
AcDbEntity
  8
MECH_KONTUR1
100
AcDbCircle
 10
149.5999999999999
 20
8.100000000000022
 30
0.0
 40
0.4
100
AcDbArc
 50
0.0
 51
89.99999999999998
  0
LINE
  5
4782
330
2
100
AcDbEntity
  8
MECH_KONTUR1
100
AcDbLine
 10
149.5999999999999
 20
8.5
 30
0.0
 11
145.9999999999999
 21
8.5
 31
0.0
  0
ARC
  5
4783
330
2
100
AcDbEntity
  8
MECH_VERDECKT
100
AcDbCircle
 10
148.9407030237208
 20
3.700961894323369
 30
0.0
 40
1.035578185767547
100
AcDbArc
 50
155.2830277424863
 51
204.7169722575138
  0
ARC
  5
4784
330
2
100
AcDbEntity
  8
MECH_VERDECKT
100
AcDbCircle
 10
148.9407030237208
 20
6.299038105676686
 30
0.0
 40
1.035578185767547
100
AcDbArc
 50
155.2830277424861
 51
204.7169722575135
  0
ARC
  5
4785
330
2
100
AcDbEntity
  8
MECH_VERDECKT
100
AcDbCircle
 10
151.9051248379533
 20
4.999999999999943
 30
0.0
 40
4.0
100
AcDbArc
 50
167.496083382656
 51
192.5039166173421
  0
LINE
  5
4786
330
2
100
AcDbEntity
  8
MECH_VERDECKT
100
AcDbLine
 10
149.9999999999999
 20
3.26794919243116
 30
0.0
 11
147.9999999999999
 21
3.26794919243116
 31
0.0
  0
LINE
  5
4787
330
2
100
AcDbEntity
  8
MECH_VERDECKT
100
AcDbLine
 10
149.9999999999999
 20
4.13397459621558
 30
0.0
 11
147.9999999999999
 21
4.13397459621558
 31
0.0
  0
LINE
  5
4788
330
2
100
AcDbEntity
  8
MECH_VERDECKT
100
AcDbLine
 10
149.9999999999999
 20
5.866025403784476
 30
0.0
 11
147.9999999999999
 21
5.866025403784476
 31
0.0
  0
LINE
  5
4789
330
2
100
AcDbEntity
  8
MECH_VERDECKT
100
AcDbLine
 10
149.9999999999999
 20
6.732050807568952
 30
0.0
 11
147.9999999999999
 21
6.732050807568897
 31
0.0
  0
ARC
  5
478A
330
2
100
AcDbEntity
  8
MECH_KONTUR1
100
AcDbCircle
 10
149.5999999999999
 20
1.900000000000034
 30
0.0
 40
0.4
100
AcDbArc
 50
270.0
 51
0.0
  0
LINE
  5
478B
330
2
100
AcDbEntity
  8
MECH_VERDECKT
100
AcDbLine
 10
147.9999999999999
 20
6.732050807568897
 30
0.0
 11
146.9999999999997
 21
5.000000000000056
 31
0.0
  0
LINE
  5
478C
330
2
100
AcDbEntity
  8
MECH_VERDECKT
100
AcDbLine
 10
147.9999999999999
 20
3.267949192431386
 30
0.0
 11
146.9999999999997
 21
5.000000000000056
 31
0.0
  0
LINE
  5
478D
330
2
100
AcDbEntity
  8
MECH_KONTUR1
100
AcDbLine
 10
149.9999999999999
 20
1.900000000000034
 30
0.0
 11
149.9999999999999
 21
8.100000000000022
 31
0.0
  0
LINE
  5
478E
330
2
100
AcDbEntity
  8
MECH_KONTUR1
100
AcDbLine
 10
149.5999999999999
 20
1.5
 30
0.0
 11
145.9999999999999
 21
1.5
 31
0.0
  0
LINE
  5
478F
330
2
100
AcDbEntity
  8
MECH_VERDECKT
100
AcDbLine
 10
144.9999999999999
 20
3.0
 30
0.0
 11
144.9999999999999
 21
7.0
 31
0.0
  0
LINE
  5
4791
330
2
100
AcDbEntity
  8
MECH_VERDECKT
100
AcDbLine
 10
71.99999999999987
 20
10.00000000000001
 30
0.0
 11
71.99999999999987
 21
3.200000000000017
 31
0.0
  0
LINE
  5
4792
330
2
100
AcDbEntity
  8
MECH_VERDECKT
100
AcDbLine
 10
82.9999999999999
 20
10.00000000000001
 30
0.0
 11
82.99999999999986
 21
3.200000000000017
 31
0.0
  0
LINE
  5
4793
330
2
100
AcDbEntity
  8
MECH_VERDECKT
100
AcDbLine
 10
82.9999999999999
 20
3.200000000000017
 30
0.0
 11
71.99999999999987
 21
3.200000000000017
 31
0.0
  0
LINE
  5
4794
330
2
100
AcDbEntity
  8
MECH_VERDECKT
100
AcDbLine
 10
74.19999999999987
 20
3.200000000000017
 30
0.0
 11
74.19999999999984
 21
0.0000000000000284
 31
0.0
  0
LINE
  5
4795
330
2
100
AcDbEntity
  8
MECH_VERDECKT
100
AcDbLine
 10
80.79999999999992
 20
3.200000000000017
 30
0.0
 11
80.79999999999989
 21
0.0000000000000284
 31
0.0
  0
DIMENSION
  5
4796
330
2
100
AcDbEntity
  8
MECH_BEM_NORMAL
100
AcDbDimension
  2
*D5
 10
266.5
 20
48.0
 30
0.0
 11
299.0
 21
48.0
 31
0.0
 70
   160
  1
for dowel pins\P%%c<>H7, 2 Pos.
 71
     5
 42
3.0
  3
STANDARD
100
AcDbAlignedDimension
 13
263.5
 23
40.49999999999999
 33
0.0
 14
266.5
 24
40.49999999999999
 34
0.0
100
AcDbRotatedDimension
  0
LINE
  5
4798
330
2
100
AcDbEntity
  8
MECH_BEM_NORMAL
100
AcDbLine
 10
285.0
 20
83.0
 30
0.0
 11
314.0
 21
83.0
 31
0.0
  0
DIMENSION
  5
4799
330
2
100
AcDbEntity
  8
MECH_BEM_NORMAL
100
AcDbDimension
  2
*D6
 10
186.9999999999999
 20
0.0000000000000086
 30
0.0
 11
186.9999999999999
 21
36.5
 31
0.0
 70
   160
 71
     5
 42
73.0
  3
STANDARD mit Zoll
100
AcDbAlignedDimension
 13
217.5
 23
73.0
 33
0.0
 14
217.5
 24
0.0
 34
0.0
 50
90.0
100
AcDbRotatedDimension
  0
DIMENSION
  5
47D1
330
2
100
AcDbEntity
  8
MECH_BEM_NORMAL
100
AcDbDimension
  2
*D4
 10
206.9999999999999
 20
40.49999999999999
 30
0.0
 11
206.9999999999999
 21
20.24999999999999
 31
0.0
 70
   160
 71
     5
 42
40.49999999999999
  3
STANDARD mit Zoll
100
AcDbAlignedDimension
 13
217.5
 23
0.0
 33
0.0
 14
230.0
 24
40.49999999999999
 34
0.0
 50
90.0
100
AcDbRotatedDimension
  0
DIMENSION
  5
47D2
330
2
100
AcDbEntity
  8
MECH_BEM_NORMAL
100
AcDbDimension
  2
*D1
 10
197.0
 20
65.5
 30
0.0
 11
196.9999999999999
 21
32.75
 31
0.0
 70
   160
 71
     5
 42
65.5
  3
STANDARD mit Zoll
100
AcDbAlignedDimension
 13
217.5
 23
0.0
 33
0.0
 14
217.5
 24
65.5
 34
0.0
 50
90.0
100
AcDbRotatedDimension
  0
LINE
  5
47D3
330
2
100
AcDbEntity
  8
MECH_MITTELLINIE
100
AcDbLine
 10
250.0
 20
-3.0
 30
0.0
 11
250.0
 21
76.0
 31
0.0
  0
LINE
  5
47D4
330
2
100
AcDbEntity
  8
MECH_KONTUR1
100
AcDbLine
 10
260.1999999999999
 20
54.0
 30
0.0
 11
260.1999999999999
 21
0.0
 31
0.0
  0
LINE
  5
47D5
330
2
100
AcDbEntity
  8
MECH_KONTUR1
100
AcDbLine
 10
239.7999999999999
 20
54.00000000000003
 30
0.0
 11
239.7999999999999
 21
0.0
 31
0.0
  0
LINE
  5
47D6
330
2
100
AcDbEntity
  8
MECH_KONTUR1
100
AcDbLine
 10
282.5
 20
73.0
 30
0.0
 11
282.5
 21
-4.0
 31
0.0
  0
LINE
  5
47D7
330
2
100
AcDbEntity
  8
MECH_KONTUR1
100
AcDbLine
 10
217.5
 20
73.0
 30
0.0
 11
217.5
 21
-4.0
 31
0.0
  0
DIMENSION
  5
47D8
330
2
100
AcDbEntity
  8
MECH_BEM_NORMAL
100
AcDbDimension
  2
*D0
 10
282.5
 20
102.0
 30
0.0
 11
250.0
 21
102.0
 31
0.0
 70
   160
 71
     5
 42
65.0
  3
STANDARD mit Zoll
100
AcDbAlignedDimension
 13
217.5
 23
73.0
 33
0.0
 14
282.5
 24
73.0
 34
0.0
100
AcDbRotatedDimension
  0
LINE
  5
47D9
330
2
100
AcDbEntity
  8
MECH_KONTUR1
100
AcDbLine
 10
217.5
 20
0.0
 30
0.0
 11
282.5
 21
0.0
 31
0.0
  0
DIMENSION
  5
47F9
330
2
100
AcDbEntity
  8
MECH_BEM_NORMAL
100
AcDbDimension
  2
*D3
 10
275.0
 20
92.0
 30
0.0
 11
250.0
 21
92.0
 31
0.0
 70
   160
 71
     5
 42
50.0
  3
STANDARD mit Zoll
100
AcDbAlignedDimension
 13
225.0
 23
73.0
 33
0.0
 14
275.0
 24
73.0
 34
0.0
100
AcDbRotatedDimension
  0
CIRCLE
  5
47FB
330
2
100
AcDbEntity
  8
MECH_KONTUR1
100
AcDbCircle
 10
235.0
 20
40.49999999999999
 30
0.0
 40
1.5
  0
LINE
  5
47FC
330
2
100
AcDbEntity
  8
MECH_MITTELLINIE
100
AcDbLine
 10
230.0
 20
40.49999999999999
 30
0.0
 11
270.0
 21
40.49999999999999
 31
0.0
  0
LINE
  5
47FD
330
2
100
AcDbEntity
  8
MECH_MITTELLINIE
100
AcDbLine
 10
217.5
 20
65.5
 30
0.0
 11
282.5
 21
65.5
 31
0.0
  0
LINE
  5
47FE
330
2
100
AcDbEntity
  8
MECH_KONTUR1
100
AcDbLine
 10
217.5
 20
73.0
 30
0.0
 11
282.5
 21
73.0
 31
0.0
  0
LINE
  5
47FF
330
2
100
AcDbEntity
  8
MECH_BEM_NORMAL
100
AcDbLine
 10
223.4999999999998
 20
68.50000000000007
 30
0.0
 11
215.0
 21
83.00000000000016
 31
0.0
  0
LINE
  5
4804
330
2
100
AcDbEntity
  8
MECH_MITTELLINIE
100
AcDbLine
 10
235.0
 20
35.5
 30
0.0
 11
235.0
 21
45.49999999999999
 31
0.0
  0
CIRCLE
  5
4806
330
2
100
AcDbEntity
  8
MECH_KONTUR1
100
AcDbCircle
 10
225.0
 20
65.5
 30
0.0
 40
4.0
  0
LINE
  5
4809
330
2
100
AcDbEntity
  8
MECH_MITTELLINIE
100
AcDbLine
 10
225.0
 20
58.00000000000003
 30
0.0
 11
225.0
 21
73.0
 31
0.0
  0
CIRCLE
  5
480A
330
2
100
AcDbEntity
  8
MECH_KONTUR1
100
AcDbCircle
 10
225.0
 20
65.5
 30
0.0
 40
2.25
  0
LINE
  5
480D
330
2
100
AcDbEntity
  8
MECH_BEM_NORMAL
100
AcDbLine
 10
277.0
 20
68.99999999999997
 30
0.0
 11
285.0
 21
83.0
 31
0.0
  0
CIRCLE
  5
480F
330
2
100
AcDbEntity
  8
MECH_VERDECKT
100
AcDbCircle
 10
250.0
 20
40.0
 30
0.0
 40
4.0
  0
CIRCLE
  5
4810
330
2
100
AcDbEntity
  8
MECH_VERDECKT
100
AcDbCircle
 10
250.0
 20
20.0
 30
0.0
 40
4.0
  0
CIRCLE
  5
4811
330
2
100
AcDbEntity
  8
MECH_KONTUR1
100
AcDbCircle
 10
250.0
 20
20.0
 30
0.0
 40
2.25
  0
CIRCLE
  5
4812
330
2
100
AcDbEntity
  8
MECH_KONTUR1
100
AcDbCircle
 10
250.0
 20
40.0
 30
0.0
 40
2.25
  0
LINE
  5
4813
330
2
100
AcDbEntity
  8
MECH_KONTUR1
100
AcDbLine
 10
243.7999999999999
 20
58.00000000000003
 30
0.0
 11
256.1999999999999
 21
58.0
 31
0.0
  0
ARC
  5
4814
330
2
100
AcDbEntity
  8
MECH_KONTUR1
100
AcDbCircle
 10
243.7999999999999
 20
54.00000000000003
 30
0.0
 40
4.0
100
AcDbArc
 50
90.00000000000005
 51
180.0
  0
ARC
  5
4815
330
2
100
AcDbEntity
  8
MECH_KONTUR1
100
AcDbCircle
 10
256.1999999999999
 20
54.0
 30
0.0
 40
4.0
100
AcDbArc
 50
0.0
 51
89.99999999999998
  0
LINE
  5
4816
330
2
100
AcDbEntity
  8
MECH_MITTELLINIE
100
AcDbLine
 10
265.0
 20
35.5
 30
0.0
 11
265.0
 21
45.49999999999999
 31
0.0
  0
CIRCLE
  5
4817
330
2
100
AcDbEntity
  8
MECH_KONTUR1
100
AcDbCircle
 10
265.0
 20
40.49999999999999
 30
0.0
 40
1.5
  0
CIRCLE
  5
4818
330
2
100
AcDbEntity
  8
MECH_KONTUR1
100
AcDbCircle
 10
275.0
 20
65.50000000000003
 30
0.0
 40
3.299999999999998
  0
CIRCLE
  5
4819
330
2
100
AcDbEntity
  8
MECH_KONTUR1
100
AcDbCircle
 10
275.0
 20
65.50000000000003
 30
0.0
 40
5.5
  0
LINE
  5
481A
330
2
100
AcDbEntity
  8
MECH_MITTELLINIE
100
AcDbLine
 10
275.0
 20
58.00000000000003
 30
0.0
 11
275.0
 21
73.00000000000003
 31
0.0
  0
TEXT
  5
4AF9
330
2
100
AcDbEntity
  8
DRUCK_FARBE1
100
AcDbText
 10
-2.10244399185336
 20
74.80000000000005
 30
0.0
 40
5.0
  1
Y
 41
1.08
  7
HELV_N_MEDIUM
 72
     1
 11
0.0
 21
77.30000000000005
 31
0.0
100
AcDbText
 73
     2
  0
LWPOLYLINE
  5
4AFA
330
2
100
AcDbEntity
  8
DRUCK_FARBE1
100
AcDbPolyline
 90
        2
 70
     0
 43
0.35
 10
0.0
 20
17.30000000000002
 10
0.0
 20
30.8
  0
LWPOLYLINE
  5
4AFB
330
2
100
AcDbEntity
  8
DRUCK_FARBE1
100
AcDbPolyline
 90
        2
 70
     0
 43
0.35
 10
0.0
 20
54.8
 10
0.0
 20
73.3
  0
LWPOLYLINE
  5
4AFC
330
2
100
AcDbEntity
  8
DRUCK_FARBE1
100
AcDbPolyline
 90
        2
 70
     0
 43
0.35
 10
0.0
 20
80.29999999999999
 10
0.0
 20
87.3
  0
LWPOLYLINE
  5
4AFD
330
2
100
AcDbEntity
  8
DRUCK_FARBE1
100
AcDbPolyline
 90
        2
 70
     0
 43
0.35
 10
2.5
 20
52.3
 10
21.99999999999994
 20
52.3
  0
LWPOLYLINE
  5
4AFE
330
2
100
AcDbEntity
  8
DRUCK_FARBE1
100
AcDbPolyline
 90
        2
 70
     0
 43
0.3
 10
27.99999999999994
 20
52.3
 10
34.99999999999994
 20
52.3
  0
TEXT
  5
4AFF
330
2
100
AcDbEntity
  8
DRUCK_FARBE1
100
AcDbText
 10
22.79674134419546
 20
49.8
 30
0.0
 40
5.0
  1
X
 41
1.08
  7
HELV_N_MEDIUM
 72
     1
 11
24.99999999999994
 21
52.3
 31
0.0
100
AcDbText
 73
     2
  0
LWPOLYLINE
  5
4B00
330
2
100
AcDbEntity
  8
DRUCK_FARBE1
100
AcDbPolyline
 90
        2
 70
     0
 43
0.35
 10
-35.0
 20
52.30000000000004
 10
-2.5
 20
52.3
  0
ELLIPSE
  5
4B03
330
2
100
AcDbEntity
  8
Logo Umrandung
100
AcDbEllipse
 10
-8.817249839790632
 20
36.60270388972013
 30
0.0
 11
0.0
 21
2.127065645383674
 31
0.0
210
0.0
220
0.0
230
1.0
 40
0.8418553211183608
 41
0.0
 42
6.283185307179585
  0
ELLIPSE
  5
4B04
330
2
100
AcDbEntity
  8
Logo Umrandung
100
AcDbEllipse
 10
-8.817249839790632
 20
36.60270388972013
 30
0.0
 11
0.0
 21
3.933382954596209
 31
0.0
210
0.0
220
0.0
230
1.0
 40
0.9577478129195032
 41
1.639960170867241
 42
4.597748090990031
  0
ELLIPSE
  5
4B05
330
2
100
AcDbEntity
  8
Logo Umrandung
100
AcDbEllipse
 10
-1.219084921930174
 20
37.87864758444333
 30
0.0
 11
-0.629120439126112
 21
0.5466088247045664
 31
0.0
210
0.0
220
0.0
230
0.9999999999999998
 40
0.9861367087070354
 41
2.421014422375695
 42
5.276825416685122
  0
ELLIPSE
  5
4B06
330
2
100
AcDbEntity
  8
Logo Umrandung
100
AcDbEllipse
 10
-8.817249839790632
 20
36.60270388972013
 30
0.0
 11
0.0
 21
3.933382954596209
 31
0.0
210
0.0
220
0.0
230
1.0
 40
0.9577478129195032
 41
4.827029869779346
 42
7.784817789902136
  0
LWPOLYLINE
  5
4B07
330
2
100
AcDbEntity
  8
Logo Umrandung
100
AcDbPolyline
 90
       20
 70
     0
 43
0.0
 10
-12.5754319204716
 20
36.87453493053724
 10
-12.5754319204716
 20
40.27035611139733
 10
-14.53331522592998
 20
40.27035611139733
 10
-14.53331522592998
 20
37.57272727272736
 10
-17.17349224904774
 20
37.57272727272736
 10
-17.17349224904774
 20
40.3
 10
-25.45000000000003
 20
40.3
 10
-25.45000000000003
 20
38.63992100292692
 10
-23.22513155682804
 20
38.63992100292692
 10
-23.22513155682804
 20
32.80000000000002
 10
-21.14858865709948
 20
32.80000000000002
 10
-21.14858865709948
 20
38.66956551609789
 10
-19.13137555450589
 20
38.66956551609789
 10
-19.13137555450589
 20
32.80000000000002
 10
-17.23282204618259
 20
32.80000000000002
 10
-17.23282204618259
 20
35.88300438705157
 10
-14.50365032736226
 20
35.88300438705157
 10
-14.50365032736226
 20
32.80000000000002
 10
-12.5754319204716
 20
32.80000000000002
 10
-12.5754319204716
 20
36.330872848903
  0
LWPOLYLINE
  5
4B08
330
2
100
AcDbEntity
  8
Logo Umrandung
100
AcDbPolyline
 90
       36
 70
     0
 43
0.0
 10
-5.074789020696698
 20
37.05264333933392
 10
-5.074789020696698
 20
40.28292242702621
 10
-0.6318726656427316
 20
40.28292242702621
 10
-0.0406097172597129
 20
40.23227742694175
 10
0.4209395938203217
 20
40.03468617783554
 10
0.7871582003556341
 20
39.77647804729632
 10
0.9521212498952992
 20
39.64357732576653
 10
1.105884618058324
 20
39.46897482557931
 10
1.277061876210382
 20
39.27003366756643
 10
1.429101310305212
 20
38.96616741446932
 10
1.513566845442369
 20
38.34155282520178
 10
1.496674158657242
 20
37.61564948490199
 10
1.361528461953183
 20
37.17673156376177
 10
1.141916179506323
 20
36.90662760310718
 10
0.8716247860984367
 20
36.60276135001053
 10
0.68579892782725
 20
36.50147259897807
 10
0.4324012718102496
 20
36.41706530645132
 10
0.68579892782725
 20
36.24825072139731
 10
0.9729840586261387
 20
35.97814676074273
 10
1.192595290467579
 20
35.69116196615131
 10
1.344634724562411
 20
35.25224342044274
 10
1.412207572914438
 20
34.62762945574378
 10
1.530460582833143
 20
33.19270423364922
 10
1.54735326961827
 20
32.82131152196244
 10
-0.3109011106679418
 20
32.82131152196244
 10
-0.3813195524694492
 20
33.62720098040401
 10
-0.4519321616870684
 20
34.5444877312885
 10
-0.5738994945115792
 20
34.999923492045
 10
-0.7022857605628589
 20
35.24367788678971
 10
-0.8435109789984378
 20
35.40404303045384
 10
-1.068187759035935
 20
35.47460307004128
 10
-1.375173997514933
 20
35.50546592259211
 10
-2.996923408569045
 20
35.50546592259211
 10
-2.996923408569045
 20
32.80443006345699
 10
-5.074789020696698
 20
32.80443006345699
 10
-5.074789020696698
 20
36.15276444010634
  0
LWPOLYLINE
  5
4B09
330
2
100
AcDbEntity
  8
Logo Umrandung
100
AcDbPolyline
 90
        4
 70
     0
 43
0.0
 10
-1.102011583517422
 20
37.05856135422435
 10
-2.996923408569045
 20
37.05856135422435
 10
-2.996923408569045
 20
38.69521920954371
 10
-1.100204416939958
 20
38.69521920954371
  0
LWPOLYLINE
  5
4B0A
330
2
100
AcDbEntity
  8
Logo Umrandung
100
AcDbPolyline
 90
      126
 70
     1
 43
0.0
 10
17.50104360016888
 20
39.9069859477739
 10
17.79711408788711
 20
39.84266719036956
 10
18.15284685221121
 20
39.69783985098205
 10
18.45111272477373
 20
39.54183849270849
 10
18.69944678077348
 20
39.34724894460746
 10
18.99701196879771
 20
38.99817694215606
 10
19.09614206236885
 20
38.75052336093061
 10
19.13512067726986
 20
38.38697939202754
 10
19.13512067726986
 20
37.75329395400318
 10
19.06078106493754
 20
37.50567007847017
 10
18.88021609712422
 20
37.23115438573249
 10
18.69372145863548
 20
37.03679500356604
 10
18.34062398605253
 20
36.86036916124761
 10
18.69583890674737
 20
36.68288430916884
 10
18.88642418336775
 20
36.50512918378536
 10
19.06779834499428
 20
36.28504161691477
 10
19.29195253119171
 20
35.87657559230921
 10
19.43273734998678
 20
35.51704226468739
 10
21.09630766932827
 20
35.51704226468739
 10
21.10179572624127
 20
35.46768595156857
 10
21.17281453939898
 20
34.98509546968118
 10
21.34177212357911
 20
34.75485950974085
 10
21.56399321071619
 20
34.59201046851699
 10
21.92763515198629
 20
34.44665511640572
 10
22.60797233206602
 20
34.44665511640572
 10
22.95980612009286
 20
34.56385103126732
 10
23.10664781930717
 20
34.67852580849832
 10
23.23214666700818
 20
34.91272168295402
 10
23.24869749270094
 20
35.14426393265971
 10
23.1306558428825
 20
35.36333100947983
 10
22.83132843909463
 20
35.52784662227217
 10
22.49481634716305
 20
35.63993952255997
 10
22.0699206378453
 20
35.73581696423637
 10
21.6250903866973
 20
35.83010927057428
 10
21.17056038956382
 20
35.96370135967389
 10
20.6861958986289
 20
36.15193457948974
 10
20.37187782051018
 20
36.27833720936211
 10
20.07912895745396
 20
36.46828226078731
 10
19.73462483251767
 20
36.71986057942696
 10
19.51938720140032
 20
36.94760111109145
 10
19.39336875346537
 20
37.23724048365413
 10
19.35585503744295
 20
37.43717810077178
 10
19.35585503744295
 20
38.50311676849546
 10
19.40481188798473
 20
38.69880842077717
 10
19.55829503043144
 20
38.96721632471182
 10
19.73989859305146
 20
39.18758285460107
 10
19.89963451870693
 20
39.33390466010314
 10
20.07134615552665
 20
39.5054973994584
 10
20.2662957447548
 20
39.63537343740835
 10
20.52225592363487
 20
39.78962556714917
 10
20.77989244549342
 20
39.89556858802949
 10
21.01606588586212
 20
39.97733263507909
 10
21.28713619029116
 20
40.02892855027368
 10
22.91424663972969
 20
40.02892855027368
 10
23.24228357174541
 20
39.98433798635054
 10
23.55912206347301
 20
39.88692121160646
 10
23.83458380717792
 20
39.76537910229756
 10
24.02738902303592
 20
39.67546582838665
 10
24.18417679248017
 20
39.54490069432477
 10
24.3709150440622
 20
39.41160935353671
 10
24.52590212737817
 20
39.25672926289978
 10
24.70983717189068
 20
39.03353544085249
 10
24.86804180924622
 20
38.7832178388126
 10
24.98383964751627
 20
38.56464097018116
 10
25.06024606361977
 20
38.25923081999899
 10
25.06024606361977
 20
37.71592396956423
 10
23.06765660378272
 20
37.71592396956423
 10
23.05648277909694
 20
37.99506554438571
 10
22.932378199649
 20
38.21209827254464
 10
22.6915699843941
 20
38.45273839128422
 10
22.34620755282064
 20
38.54276994260697
 10
21.90454950505084
 20
38.5285332895924
 10
21.55610870097182
 20
38.43769824221235
 10
21.38585397870172
 20
38.2165221974361
 10
21.38585397870172
 20
37.96890992493925
 10
21.45740450395277
 20
37.7901609706535
 10
21.72099273475481
 20
37.65071144739538
 10
22.05762422160971
 20
37.53857877640233
 10
22.52477751953546
 20
37.44246714781211
 10
22.91625676435744
 20
37.37501787777738
 10
23.2893369409582
 20
37.28181227654207
 10
23.63705481552432
 20
37.16153230853187
 10
23.98563927860657
 20
37.02755462285624
 10
24.35693460776445
 20
36.85528792182189
 10
24.67016212659399
 20
36.6466144038271
 10
24.84996693496686
 20
36.46693401643149
 10
25.04627431505577
 20
36.20537416248082
 10
25.18924630820078
 20
35.94560604908064
 10
25.2771835043133
 20
35.69452897322038
 10
25.2771835043133
 20
34.95786794653632
 10
25.21192962651746
 20
34.6187803001611
 10
25.09372418691548
 20
34.26441046139966
 10
24.92437746317358
 20
33.93896992339626
 10
24.70511851073155
 20
33.66830990147535
 10
24.40162263397627
 20
33.43095605980947
 10
24.10015834867698
 20
33.20829003056438
 10
23.64211510934744
 20
33.03827814781335
 10
23.2227350715238
 20
32.94660246816508
 10
21.28918219405631
 20
32.94660246816508
 10
20.90745266802598
 20
33.03867994888819
 10
20.49932233485554
 20
33.15708670449753
 10
20.17130723960069
 20
33.35375883242564
 10
19.8914310614786
 20
33.54021349507017
 10
19.61789459694404
 20
33.76149323778415
 10
19.42420866621653
 20
34.02240941122416
 10
19.25956491745585
 20
34.52612848428701
 10
19.14132956968062
 20
34.0239748082652
 10
18.99263503538094
 20
33.82585414426397
 10
18.79908079065756
 20
33.63243416457798
 10
18.45479294230692
 20
33.39987114827671
 10
18.11313032647962
 20
33.22396162308367
 10
17.78462174937629
 20
33.09750420780152
 10
17.2851071651466
 20
33.00139147939272
 10
11.54360381758931
 20
33.00139147939272
 10
11.12981825170503
 20
34.22120973332759
 10
8.841714255087707
 20
34.22120973332759
 10
8.455514620178972
 20
33.00139147939272
 10
1.871792889038488
 20
33.00139147939272
 10
1.871792889038488
 20
40.04385885718736
 10
3.892916314533977
 20
40.04385885718736
 10
3.892916314533977
 20
34.77172046915821
 10
6.973134103930192
 20
34.77172046915821
 10
8.984328110619117
 20
39.9476334819406
 10
11.01327969063709
 20
39.9476334819406
 10
13.21379115979373
 20
34.45018080934804
 10
13.21379115979373
 20
39.90698594777397
  0
LWPOLYLINE
  5
4B0B
330
2
100
AcDbEntity
  8
Logo Umrandung
100
AcDbPolyline
 90
       88
 70
     1
 43
0.0
 10
17.51892045618359
 20
40.07348594777396
 10
17.84654616106417
 20
40.00231209186527
 10
18.22298041089669
 20
39.84905668127309
 10
18.54179821954397
 20
39.6823060880407
 10
18.815306248397
 20
39.46799072351186
 10
19.14143935418239
 20
39.08540586182799
 10
19.25924670130479
 20
38.79109148807417
 10
19.2602786539266
 20
38.7814667193952
 10
19.4207920270523
 20
39.06216893429204
 10
19.61882898564562
 20
39.30247654018585
 10
19.78450132224105
 20
39.45423623552635
 10
19.96531407715355
 20
39.63492379113096
 10
20.1771232398309
 20
39.7760317306704
 10
20.44719075835104
 20
39.93878552341979
 10
20.72094842708832
 20
40.05135774030097
 10
20.97303761669099
 20
40.13863187378182
 10
21.27143124589878
 20
40.19542855027365
 10
22.92551114360793
 20
40.19542855027365
 10
23.2782014763631
 20
40.14748681172874
 10
23.61739471513323
 20
40.0431967327177
 10
23.90338288585934
 20
39.91701004327061
 10
24.1173364219066
 20
39.81723440802543
 10
24.28595691471417
 20
39.67681556459744
 10
24.47886128555632
 20
39.53912292789565
 10
24.64928036328041
 20
39.36882149606354
 10
24.84498794119252
 20
39.1313424314644
 10
25.01218946487659
 20
38.86678960187877
 10
25.14044729799222
 20
38.62469358386424
 10
25.22674606361983
 20
38.27974193824399
 10
25.22674606361983
 20
37.54942396956424
 10
22.90768813059338
 20
37.54942396956419
 10
22.89174372458768
 20
37.94774296303494
 10
22.79891086334186
 20
38.11008805318861
 10
22.60584209599908
 20
38.30302204860508
 10
22.32750623376245
 20
38.375580633949
 10
21.9285285470293
 20
38.36271976360993
 10
21.65327315850953
 20
38.29096342518713
 10
21.55235397870176
 20
38.15986042414066
 10
21.55235397870176
 20
38.00099610583457
 10
21.58927427500855
 20
37.90876108263101
 10
21.78667915628505
 20
37.80432540088956
 10
22.10086209272133
 20
37.69967039023628
 10
22.55569712016466
 20
37.60609310966996
 10
22.95061714846104
 20
37.53805101552829
 10
23.33682221670931
 20
37.44156645847088
 10
23.69415312560767
 20
37.31796122148113
 10
24.05061744599009
 20
37.18095492966732
 10
24.43860736168125
 20
37.00094258487895
 10
24.77619426614245
 20
36.776040739581
 10
24.97602997898292
 20
36.57634330866356
 10
25.18648345201057
 20
36.29593520763547
 10
25.34180149042453
 20
36.01373536605638
 10
25.44368350431312
 20
35.72284323780074
 10
25.44368350431312
 20
34.94199299123403
 10
25.3733525322811
 20
34.57652254596378
 10
25.24750230049761
 20
34.1992342714533
 10
25.06432463250705
 20
33.84721424116394
 10
24.82258837165926
 20
33.54880753561575
 10
24.50238805581551
 20
33.29838971814584
 10
24.18015404730539
 20
33.06038286074505
 10
23.68909283178429
 20
32.87811569767335
 10
23.24072100562392
 20
32.78010246816511
 10
21.26938524213386
 20
32.78010246816507
 10
20.86471339383382
 20
32.8777138965985
 10
20.43220799250133
 20
33.00319234598869
 10
20.08229043377235
 20
33.21299680886304
 10
19.79270477946937
 20
33.40591996453152
 10
19.49677731036712
 20
33.64531310846347
 10
19.28222887924555
 20
33.93433335611659
 10
19.11869805690678
 20
33.71644481529667
 10
18.90549354972489
 20
33.50338820417978
 10
18.53979897090532
 20
33.25636515441853
 10
18.18134434576307
 20
33.07181004071562
 10
17.83061961920106
 20
32.93680065134857
 10
17.3009799086082
 20
32.8348914793927
 10
11.42426502483181
 20
32.83489147939274
 10
11.01047945894743
 20
34.0547097333276
 10
8.96364523183422
 20
34.05470973332757
 10
8.577445596925485
 20
32.83489147939274
 10
1.70529288903856
 20
32.83489147939274
 10
1.70529288903856
 20
40.21035885718736
 10
4.059416314534018
 20
40.21035885718736
 10
4.059416314534018
 20
34.93822046915822
 10
6.859202857246598
 20
34.93822046915822
 10
8.870396863935635
 20
40.11413348194057
 10
11.12597654729984
 20
40.11413348194057
 10
13.0472911597937
 20
35.31418751510882
 10
13.0472911597937
 20
40.07348594777396
  0
LWPOLYLINE
  5
4B0C
330
2
100
AcDbEntity
  8
Logo Umrandung
100
AcDbPolyline
 90
       32
 70
     1
 43
0.0
 10
19.19279042876921
 20
37.40338357236179
 10
19.0109289808708
 20
37.12689682104628
 10
18.79391333984261
 20
36.90072932233148
 10
18.71313593103894
 20
36.8603687321402
 10
18.79179589173071
 20
36.82106590257257
 10
19.0079714682269
 20
36.61944320964305
 10
19.20623782781392
 20
36.37885788986823
 10
19.44307885490633
 20
35.94727320951482
 10
19.54634970749673
 20
35.6835422646874
 10
21.24532022495776
 20
35.68354226468736
 10
21.26695039873692
 20
35.48901337280709
 10
21.33151853661745
 20
35.05025683226553
 10
21.46085098399673
 20
34.87401745053964
 10
21.64538864876516
 20
34.73878374178426
 10
21.95967936147842
 20
34.61315511640572
 10
22.58097102798086
 20
34.6131551164057
 10
22.87995166324498
 20
34.7127456340538
 10
22.9764827418025
 20
34.78813075959159
 10
23.06860422840844
 20
34.96004048232645
 10
23.07917163340805
 20
35.10787605093337
 10
23.0073919720143
 20
35.24108801993597
 10
22.76437367285773
 20
35.37465515712288
 10
22.45007134149812
 20
35.47934993848149
 10
22.03433131631248
 20
35.57316140596204
 10
21.58429147278382
 20
35.66855800878018
 10
21.11683314454848
 20
35.80594989716995
 10
20.62497705115237
 20
35.99709449566715
 10
20.29478644054591
 20
36.12988024502525
 10
19.98464740470711
 20
36.33110861017202
 10
19.6241027461794
 20
36.59440072315799
 10
19.37834726521753
 20
36.85443185062968
 10
19.23319181107506
 20
37.18805550137908
  0
LWPOLYLINE
  5
4B0D
330
2
100
AcDbEntity
  8
Logo Umrandung
100
AcDbPolyline
 90
        3
 70
     1
 43
0.0
 10
10.37270290832394
 20
35.93484172082161
 10
9.558902996512527
 20
35.93484172082161
 10
9.951771800233927
 20
37.17572466027307
  0
LWPOLYLINE
  5
4B0E
330
2
100
AcDbEntity
  8
Logo Umrandung
100
AcDbPolyline
 90
        3
 70
     1
 43
0.0
 10
10.60500163834672
 20
35.76834172082159
 10
9.331542806840387
 20
35.76834172082159
 10
9.946315849281177
 20
37.71011305204801
  0
LWPOLYLINE
  5
4B0F
330
2
100
AcDbEntity
  8
Logo Umrandung
100
AcDbPolyline
 90
       11
 70
     1
 43
0.0
 10
16.60185758205186
 20
38.20133594406381
 10
15.44012940014312
 20
38.20133594406381
 10
15.44012940014312
 20
37.50684908273402
 10
16.62921501915883
 20
37.50684908273402
 10
16.75999401906477
 20
37.54605554757636
 10
16.85926468738938
 20
37.62045674476233
 10
16.92148996792769
 20
37.73238475256958
 10
16.93414090330128
 20
37.82087737330236
 10
16.93414090330128
 20
37.93195566492821
 10
16.80257617553837
 20
38.14231187869561
 10
16.73950464464536
 20
38.17382582319156
  0
LWPOLYLINE
  5
4B10
330
2
100
AcDbEntity
  8
Logo Umrandung
100
AcDbPolyline
 90
       11
 70
     1
 43
0.0
 10
16.61833300185816
 20
38.3678359440638
 10
15.27362940014308
 20
38.3678359440638
 10
15.27362940014308
 20
37.34034908273399
 10
16.65363578150885
 20
37.34034908273399
 10
16.83616206781238
 20
37.39506895696386
 10
16.98753436772943
 20
37.50851918878661
 10
17.08196067969032
 20
37.67836894906024
 10
17.10064090330108
 20
37.80903612064701
 10
17.10064090330108
 20
37.97973559710202
 10
16.91890034485408
 20
38.27031694373606
 10
16.7939891242633
 20
38.33272933831231
  0
LWPOLYLINE
  5
4B11
330
2
100
AcDbEntity
  8
Logo Umrandung
100
AcDbPolyline
 90
       15
 70
     1
 43
0.0
 10
16.83619155453237
 20
35.94141842577035
 10
15.27362940014308
 20
35.94141842577035
 10
15.27362940014308
 20
34.679116965896
 10
16.8545543644397
 20
34.679116965896
 10
16.99005448769792
 20
34.71038438163136
 10
17.1067984931098
 20
34.76876866485802
 10
17.20584301377215
 20
34.83689513501893
 10
17.28873997778548
 20
34.93961995047105
 10
17.3359520643757
 20
35.03478542624714
 10
17.35373131388399
 20
35.10585021249152
 10
17.35119591357141
 20
35.52869274631596
 10
17.30615291375301
 20
35.6524662620758
 10
17.23598542271082
 20
35.75891960655563
 10
17.0719656447772
 20
35.88640203093702
 10
16.95448694700502
 20
35.92201161195841
  0
LWPOLYLINE
  5
4B12
330
2
100
AcDbEntity
  8
Logo Umrandung
100
AcDbPolyline
 90
       15
 70
     1
 43
0.0
 10
16.8226247491022
 20
35.77491842577034
 10
15.44012940014312
 20
35.77491842577034
 10
15.44012940014312
 20
34.84561696589598
 10
16.83559309817946
 20
34.84561696589598
 10
16.93330639693675
 20
34.86816485929749
 10
17.02197468923458
 20
34.91250833263034
 10
17.0915019317453
 20
34.96033173144736
 10
17.14770094133831
 20
35.02997279680782
 10
17.17879889191447
 20
35.09265698376061
 10
17.18710827965031
 20
35.12587013277336
 10
17.18487182951338
 20
35.49885511581553
 10
17.15637664261493
 20
35.57715694914977
 10
17.11209956889018
 20
35.64433111359231
 10
16.99414521959846
 20
35.73600973066813
 10
16.9166966631414
 20
35.75948556670009
  0
LWPOLYLINE
  5
4B14
330
2
100
AcDbEntity
  8
DRUCK_FARBE1
100
AcDbPolyline
 90
        2
 70
     0
 43
0.35
 10
0.0
 20
42.29999999999999
 10
0.0
 20
49.8
  0
HATCH
  5
4B16
330
2
100
AcDbEntity
  8
DRUCK_FARBE1
100
AcDbHatch
 10
0.0
 20
0.0
 30
0.0
210
0.0
220
0.0
230
1.0
  2
SOLID
 70
     1
 71
     0
 91
       12
 92
        5
 93
       56
 72
     1
 10
-17.17349224904774
 20
37.57272727272733
 11
-17.17349224904774
 21
40.3
 72
     1
 10
-17.17349224904774
 20
40.3
 11
-25.45000000000005
 21
40.30000000000002
 72
     1
 10
-25.45000000000005
 20
40.30000000000002
 11
-25.45000000000003
 21
38.63992100292692
 72
     1
 10
-25.45000000000003
 20
38.63992100292692
 11
-23.22513155682804
 21
38.63992100292692
 72
     1
 10
-23.22513155682804
 20
38.63992100292692
 11
-23.22513155682805
 21
32.80000000000002
 72
     1
 10
-23.22513155682805
 20
32.80000000000002
 11
-21.14858865709948
 21
32.80000000000002
 72
     1
 10
-21.14858865709948
 20
32.80000000000002
 11
-21.14858865709948
 21
38.66956551609789
 72
     1
 10
-21.14858865709948
 20
38.66956551609789
 11
-19.13137555450589
 21
38.66956551609789
 72
     1
 10
-19.13137555450589
 20
38.66956551609789
 11
-19.13137555450589
 21
32.80000000000002
 72
     1
 10
-19.13137555450589
 20
32.80000000000002
 11
-17.23282204618259
 21
32.80000000000002
 72
     1
 10
-17.23282204618259
 20
32.80000000000002
 11
-17.23282204618259
 21
35.88300438705157
 72
     1
 10
-17.23282204618259
 20
35.88300438705157
 11
-14.50365032736226
 21
35.88300438705157
 72
     1
 10
-14.50365032736226
 20
35.88300438705157
 11
-14.50365032736226
 21
32.80000000000005
 72
     1
 10
-14.50365032736226
 20
32.80000000000005
 11
-12.5754319204716
 21
32.80000000000002
 72
     1
 10
-12.5754319204716
 20
32.80000000000002
 11
-12.5754319204716
 21
36.33087284890338
 72
     3
 10
-8.817249839790632
 20
36.60270388972013
 11
0.0
 21
3.933382954596209
 40
0.9577478129195032
 50
94.13702560601839
 51
263.1444867219714
 73
     1
 72
     1
 10
-5.074789020696698
 20
36.15276444010635
 11
-5.074789020696698
 21
32.80443006345699
 72
     1
 10
-5.074789020696698
 20
32.80443006345699
 11
-2.996923408569045
 21
32.80443006345699
 72
     1
 10
-2.996923408569045
 20
32.80443006345699
 11
-2.996923408569045
 21
35.50546592259211
 72
     1
 10
-2.996923408569045
 20
35.50546592259211
 11
-1.375173997514894
 21
35.50546592259211
 72
     1
 10
-1.375173997514894
 20
35.50546592259211
 11
-1.068187759036083
 21
35.47460307004128
 72
     1
 10
-1.068187759036083
 20
35.47460307004128
 11
-0.8435109789984281
 21
35.40404303045382
 72
     1
 10
-0.8435109789984281
 20
35.40404303045382
 11
-0.7022857605628109
 21
35.24367788678971
 72
     1
 10
-0.7022857605628109
 20
35.24367788678971
 11
-0.5738994945115889
 21
34.99992349204502
 72
     1
 10
-0.5738994945115889
 20
34.99992349204502
 11
-0.4519321616870701
 21
34.5444877312885
 72
     1
 10
-0.4519321616870701
 20
34.5444877312885
 11
-0.3813195524694473
 21
33.62720098040382
 72
     1
 10
-0.3813195524694473
 20
33.62720098040382
 11
-0.3109011106679401
 21
32.82131152196244
 72
     1
 10
-0.3109011106679401
 20
32.82131152196244
 11
1.547353269618271
 21
32.82131152196244
 72
     1
 10
1.547353269618271
 20
32.82131152196244
 11
1.530460582833144
 21
33.19270423364925
 72
     1
 10
1.530460582833144
 20
33.19270423364925
 11
1.412207572914442
 21
34.62762945574381
 72
     1
 10
1.412207572914442
 20
34.62762945574381
 11
1.344634724562409
 21
35.25224342044274
 72
     1
 10
1.344634724562409
 20
35.25224342044274
 11
1.192595290467575
 21
35.69116196615134
 72
     1
 10
1.192595290467575
 20
35.69116196615134
 11
0.9729840586261568
 21
35.97814676074273
 72
     1
 10
0.9729840586261568
 20
35.97814676074273
 11
0.6857989278270683
 21
36.24825072139744
 72
     1
 10
0.6857989278270683
 20
36.24825072139744
 11
0.4324012718102395
 21
36.41706530645132
 72
     1
 10
0.4324012718102395
 20
36.41706530645132
 11
0.6857989278271459
 21
36.50147259897802
 72
     1
 10
0.6857989278271459
 20
36.50147259897802
 11
0.8716247860984188
 21
36.60276135001053
 72
     1
 10
0.8716247860984188
 20
36.60276135001053
 11
1.141916179506522
 21
36.90662760310728
 72
     1
 10
1.141916179506522
 20
36.90662760310728
 11
1.361528461953185
 21
37.17673156376177
 72
     1
 10
1.361528461953185
 20
37.17673156376177
 11
1.49667415865724
 21
37.61564948490196
 72
     1
 10
1.49667415865724
 20
37.61564948490196
 11
1.513566845442369
 21
38.34155282520178
 72
     1
 10
1.513566845442369
 20
38.34155282520178
 11
1.429101310305214
 21
38.9661674144693
 72
     1
 10
1.429101310305214
 20
38.9661674144693
 11
1.277061876210406
 21
39.2700336675664
 72
     1
 10
1.277061876210406
 20
39.2700336675664
 11
1.105884618059034
 21
39.46897482557904
 72
     1
 10
1.105884618059034
 20
39.46897482557904
 11
0.9521212498952735
 21
39.6435773257666
 72
     1
 10
0.9521212498952735
 20
39.6435773257666
 11
0.7871582003554866
 21
39.77647804729626
 72
     1
 10
0.7871582003554866
 20
39.77647804729626
 11
0.4209395938204488
 21
40.03468617783545
 72
     1
 10
0.4209395938204488
 20
40.03468617783545
 11
-0.0406097172596945
 21
40.23227742694179
 72
     1
 10
-0.0406097172596945
 20
40.23227742694179
 11
-0.6318726656427894
 21
40.28292242702621
 72
     1
 10
-0.6318726656427894
 20
40.28292242702621
 11
-5.074789020696696
 21
40.28292242702621
 72
     1
 10
-5.074789020696696
 20
40.28292242702621
 11
-5.074789020696698
 21
37.05264333933389
 72
     3
 10
-8.817249839790632
 20
36.60270388972013
 11
0.0
 21
3.933382954596209
 40
0.9577478129195032
 50
276.8555132780284
 51
445.8629743939814
 73
     1
 72
     1
 10
-12.5754319204716
 20
36.87453493053685
 11
-12.5754319204716
 21
40.27035611139733
 72
     1
 10
-12.5754319204716
 20
40.27035611139733
 11
-14.53331522592998
 21
40.27035611139733
 72
     1
 10
-14.53331522592998
 20
40.27035611139733
 11
-14.53331522592998
 21
37.57272727272736
 72
     1
 10
-14.53331522592998
 20
37.57272727272736
 11
-17.17349224904774
 21
37.57272727272733
 97
        0
 92
       20
 93
        1
 72
     3
 10
-8.817249839790632
 20
36.60270388972013
 11
0.0
 21
2.127065645383674
 40
0.8418553211183608
 50
0.0
 51
360.0
 73
     1
 97
        0
 92
       20
 93
        4
 72
     1
 10
-2.996923408569045
 20
37.05856135422435
 11
-2.996923408569045
 21
38.69521920954371
 72
     1
 10
-2.996923408569045
 20
38.69521920954371
 11
-1.10020441694023
 21
38.69521920954371
 72
     3
 10
-1.219084921930174
 20
37.87864758444333
 11
-0.6291204391261124
 21
0.5466088247045669
 40
0.9861367087070355
 50
57.29759127073893
 51
220.8898850857596
 73
     0
 72
     1
 10
-1.102011583517439
 20
37.05856135422431
 11
-2.996923408569045
 21
37.05856135422435
 97
        0
 92
        7
 72
     0
 73
     1
 93
       87
 10
1.70529288903856
 20
32.83489147939274
 10
8.577445596925487
 20
32.83489147939274
 10
8.963645231834219
 20
34.05470973332757
 10
11.01047945894742
 20
34.0547097333276
 10
11.42426502483181
 20
32.83489147939274
 10
17.30097990860823
 20
32.8348914793927
 10
17.83061961920103
 20
32.93680065134857
 10
18.18134434576293
 20
33.07181004071553
 10
18.53979897090523
 20
33.25636515441853
 10
18.90549354972488
 20
33.50338820417978
 10
19.1186980569068
 20
33.71644481529667
 10
19.28222887924555
 20
33.93433335611661
 10
19.4967773103671
 20
33.64531310846354
 10
19.79270477946937
 20
33.40591996453145
 10
20.08229043377198
 20
33.21299680886339
 10
20.43220799250135
 20
33.00319234598866
 10
20.86471339383387
 20
32.87771389659842
 10
21.26938524213398
 20
32.78010246816505
 10
23.24072100562401
 20
32.78010246816511
 10
23.68909283178446
 20
32.87811569767335
 10
24.18015404730539
 20
33.06038286074503
 10
24.50238805581571
 20
33.29838971814526
 10
24.82258837165919
 20
33.54880753561566
 10
25.06432463250709
 20
33.84721424116396
 10
25.24750230049762
 20
34.19923427145333
 10
25.3733525322811
 20
34.5765225459638
 10
25.44368350431312
 20
34.94199299123401
 10
25.44368350431312
 20
35.7228432378007
 10
25.34180149042452
 20
36.01373536605638
 10
25.18648345201057
 20
36.29593520763553
 10
24.97602997898298
 20
36.57634330866347
 10
24.77619426614245
 20
36.77604073958097
 10
24.43860736168121
 20
37.00094258487897
 10
24.05061744598989
 20
37.18095492966722
 10
23.69415312560807
 20
37.31796122148103
 10
23.33682221670929
 20
37.44156645847088
 10
22.95061714846093
 20
37.53805101552826
 10
22.55569712016451
 20
37.60609310967005
 10
22.10086209272144
 20
37.69967039023618
 10
21.786679156285
 20
37.80432540088956
 10
21.55235397870176
 20
37.92829350903288
 10
21.55235397870176
 20
38.15986042414066
 10
21.65327315850955
 20
38.29096342518713
 10
21.92852854702928
 20
38.36271976360992
 10
22.32750623376247
 20
38.375580633949
 10
22.6058420959991
 20
38.3030220486051
 10
22.79891086334187
 20
38.11008805318859
 10
22.89174372458768
 20
37.94774296303497
 10
22.90768813059338
 20
37.54942396956419
 10
25.22674606361983
 20
37.54942396956424
 10
25.22674606361981
 20
38.27974193824399
 10
25.14044729799222
 20
38.62469358386424
 10
25.01218946487651
 20
38.86678960187902
 10
24.84498794119256
 20
39.13134243146443
 10
24.64928036328039
 20
39.36882149606366
 10
24.47886128555635
 20
39.53912292789565
 10
24.28595691471425
 20
39.67681556459746
 10
24.11733642190659
 20
39.81723440802538
 10
23.90338288585978
 20
39.91701004327045
 10
23.61739471513346
 20
40.04319673271766
 10
23.27820147636296
 20
40.14748681172874
 10
22.92551114360774
 20
40.19542855027365
 10
21.27143124589881
 20
40.19542855027365
 10
20.97303761669107
 20
40.13863187378183
 10
20.72094842708879
 20
40.05135774030114
 10
20.447190758351
 20
39.93878552341979
 10
20.17712323983084
 20
39.77603173067025
 10
19.9653140771535
 20
39.63492379113093
 10
19.78450132224112
 20
39.45423623552663
 10
19.61882898564562
 20
39.30247654018585
 10
19.4207920270523
 20
39.06216893429204
 10
19.2602786539266
 20
38.7814667193952
 10
19.25924670130478
 20
38.7910914880742
 10
19.14143935418243
 20
39.08540586182795
 10
18.81530624839701
 20
39.46799072351193
 10
18.54179821954398
 20
39.6823060880407
 10
18.2229804108966
 20
39.849056681273
 10
17.84654616106418
 20
40.00231209186527
 10
17.51892045618366
 20
40.07348594777396
 10
13.0472911597937
 20
40.07348594777399
 10
13.0472911597937
 20
35.31418751510879
 10
11.12597654729984
 20
40.11413348194057
 10
8.870396863935635
 20
40.11413348194057
 10
6.859202857246593
 20
34.93822046915822
 10
4.059416314534018
 20
34.93822046915824
 10
4.059416314534018
 20
40.21035885718736
 10
1.70529288903856
 20
40.21035885718736
 97
        0
 92
       22
 72
     0
 73
     1
 93
      125
 10
13.21379115979373
 20
39.90698594777395
 10
13.21379115979373
 20
34.45018080934807
 10
11.01327969063709
 20
39.9476334819406
 10
8.984328110619108
 20
39.9476334819406
 10
6.973134103930192
 20
34.77172046915821
 10
3.892916314533977
 20
34.77172046915821
 10
3.892916314533977
 20
40.04385885718736
 10
1.871792889038488
 20
40.04385885718736
 10
1.871792889038488
 20
33.00139147939272
 10
8.455514620178968
 20
33.00139147939272
 10
8.841714255087705
 20
34.22120973332759
 10
11.12981825170503
 20
34.22120973332759
 10
11.54360381758931
 20
33.00139147939272
 10
17.2851071651466
 20
33.00139147939272
 10
17.78462174937626
 20
33.09750420780152
 10
18.11313032647969
 20
33.22396162308363
 10
18.45479294230694
 20
33.39987114827676
 10
18.79908079065762
 20
33.63243416457807
 10
18.99263503538094
 20
33.82585414426397
 10
19.14132956968062
 20
34.02397480826518
 10
19.25956491745585
 20
34.52612848428701
 10
19.42420866621653
 20
34.02240941122416
 10
19.61789459694406
 20
33.76149323778411
 10
19.89143106147857
 20
33.54021349507012
 10
20.17130723960045
 20
33.35375883242575
 10
20.49932233485555
 20
33.15708670449753
 10
20.907452668026
 20
33.03867994888817
 10
21.28918219405625
 20
32.94660246816508
 10
23.22273507152387
 20
32.94660246816508
 10
23.64211510934746
 20
33.0382781478133
 10
24.10015834867692
 20
33.20829003056434
 10
24.40162263397616
 20
33.43095605980975
 10
24.70511851073155
 20
33.66830990147535
 10
24.92437746317357
 20
33.93896992339623
 10
25.09372418691548
 20
34.26441046139966
 10
25.21192962651746
 20
34.6187803001611
 10
25.2771835043133
 20
34.95786794653632
 10
25.2771835043133
 20
35.69452897322038
 10
25.18924630820077
 20
35.9456060490806
 10
25.04627431505578
 20
36.20537416248076
 10
24.84996693496685
 20
36.46693401643152
 10
24.67016212659405
 20
36.64661440382707
 10
24.35693460776448
 20
36.85528792182187
 10
23.98563927860667
 20
37.02755462285618
 10
23.63705481552413
 20
37.16153230853179
 10
23.28933694095849
 20
37.28181227654194
 10
22.91625676435729
 20
37.37501787777735
 10
22.52477751953559
 20
37.44246714781194
 10
22.05762422160967
 20
37.53857877640239
 10
21.72099273475476
 20
37.65071144739535
 10
21.45740450395277
 20
37.79016097065346
 10
21.38585397870172
 20
37.96890992493925
 10
21.38585397870172
 20
38.2165221974361
 10
21.55610870097185
 20
38.43769824221235
 10
21.90454950505078
 20
38.5285332895924
 10
22.34620755282063
 20
38.54276994260697
 10
22.69156998439405
 20
38.45273839128422
 10
22.93237819964899
 20
38.21209827254464
 10
23.05648277909694
 20
37.99506554438571
 10
23.06765660378272
 20
37.71592396956423
 10
25.06024606361977
 20
37.71592396956423
 10
25.06024606361979
 20
38.25923081999901
 10
24.98383964751625
 20
38.5646409701812
 10
24.8680418092462
 20
38.78321783881263
 10
24.70983717189062
 20
39.03353544085245
 10
24.52590212737817
 20
39.25672926289978
 10
24.37091504406208
 20
39.41160935353679
 10
24.18417679247998
 20
39.54490069432491
 10
24.02738902303598
 20
39.67546582838669
 10
23.83458380717871
 20
39.76537910229781
 10
23.5591220634731
 20
39.88692121160642
 10
23.24228357174551
 20
39.98433798635052
 10
22.91424663972964
 20
40.02892855027368
 10
21.2871361902911
 20
40.02892855027364
 10
21.01606588586221
 20
39.97733263507911
 10
20.77989244549328
 20
39.89556858802949
 10
20.52225592363482
 20
39.78962556714911
 10
20.26629574475472
 20
39.63537343740854
 10
20.07134615552662
 20
39.50549739945832
 10
19.8996345187068
 20
39.3339046601031
 10
19.73989859305139
 20
39.18758285460103
 10
19.55829503043147
 20
38.96721632471179
 10
19.40481188798473
 20
38.69880842077717
 10
19.35585503744295
 20
38.50311676849549
 10
19.35585503744295
 20
37.43717810077175
 10
19.39336875346537
 20
37.23724048365415
 10
19.51938720140034
 20
36.9476011110914
 10
19.73462483251759
 20
36.71986057942699
 10
20.0791289574537
 20
36.46828226078756
 10
20.37187782051014
 20
36.27833720936213
 10
20.6861958986273
 20
36.15193457949053
 10
21.17056038956389
 20
35.96370135967394
 10
21.62509038669707
 20
35.83010927057431
 10
22.06992063784562
 20
35.7358169642365
 10
22.49481634716316
 20
35.63993952255997
 10
22.83132843909466
 20
35.52784662227221
 10
23.13065584288251
 20
35.36333100947983
 10
23.24869749270094
 20
35.14426393265971
 10
23.23214666700818
 20
34.91272168295402
 10
23.10664781930716
 20
34.67852580849835
 10
22.95980612009294
 20
34.56385103126739
 10
22.60797233206607
 20
34.44665511640572
 10
21.92763515198632
 20
34.44665511640572
 10
21.56399321071618
 20
34.59201046851699
 10
21.34177212357911
 20
34.75485950974085
 10
21.17281453939898
 20
34.98509546968118
 10
21.09453236960434
 20
35.51704226468739
 10
19.43273734998678
 20
35.51704226468739
 10
19.29195253119176
 20
35.87657559230911
 10
19.0677983449943
 20
36.28504161691472
 10
18.88642418336776
 20
36.50512918378534
 10
18.69583890674735
 20
36.68288430916881
 10
18.34062398605253
 20
36.86036916124761
 10
18.69372145863544
 20
37.03679500356604
 10
18.88021609712422
 20
37.23115438573252
 10
19.06078106493754
 20
37.50567007847013
 10
19.13512067726986
 20
37.75329395400318
 10
19.13512067726986
 20
38.38697939202754
 10
19.09614206236885
 20
38.75052336093067
 10
18.99701196879771
 20
38.99817694215603
 10
18.69944678077342
 20
39.34724894460753
 10
18.4511127247738
 20
39.54183849270849
 10
18.15284685221119
 20
39.6978398509821
 10
17.7971140878871
 20
39.84266719036954
 10
17.50104360016877
 20
39.9069859477739
 97
        0
 92
        6
 72
     0
 73
     1
 93
        3
 10
9.331542806840387
 20
35.76834172082159
 10
9.946315849281177
 20
37.71011305204801
 10
10.60500163834672
 20
35.76834172082159
 97
        0
 92
        6
 72
     0
 73
     1
 93
        3
 10
9.558902996512523
 20
35.93484172082163
 10
9.951771800233927
 20
37.17572466027304
 10
10.37270290832394
 20
35.93484172082157
 97
        0
 92
        6
 72
     0
 73
     1
 93
       11
 10
15.27362940014276
 20
35.94141842577035
 10
16.8904624022298
 20
35.94141842577035
 10
17.07196564477722
 20
35.88640203093702
 10
17.2798081714427
 20
35.72485889557443
 10
17.35119591357141
 20
35.52869274631599
 10
17.35394001632358
 20
35.0710437687393
 10
17.28873997778547
 20
34.93961995047107
 10
17.20584301377216
 20
34.83689513501893
 10
17.10679849310977
 20
34.76876866485806
 10
16.92753280977222
 20
34.67911696589602
 10
15.27362940014307
 20
34.679116965896
 97
        0
 92
        6
 72
     0
 73
     1
 93
       11
 10
15.27362940014307
 20
37.34034908273399
 10
15.27362940014308
 20
38.36783594406382
 10
16.61833300185826
 20
38.36783594406377
 10
16.79398912426323
 20
38.33272933831235
 10
16.91890034485408
 20
38.27031694373603
 10
17.10064090330108
 20
37.97973559710202
 10
17.10064090330108
 20
37.80903612064701
 10
17.08196067969033
 20
37.67836894906024
 10
16.98753436772944
 20
37.50851918878668
 10
16.83616206781236
 20
37.39506895696386
 10
16.65363578150882
 20
37.34034908273399
 97
        0
 92
        6
 72
     0
 73
     1
 93
        9
 10
15.44012940014277
 20
35.77491842577034
 10
16.86578249525548
 20
35.77491842577034
 10
16.99414521959848
 20
35.73600973066815
 10
17.13975258950696
 20
35.62283813174518
 10
17.18487182951338
 20
35.49885511581553
 10
17.18738839980326
 20
35.07915296757888
 10
17.07384154695751
 20
34.93844721746386
 10
16.88822009555893
 20
34.84561696589598
 10
15.44012940014312
 20
34.84561696589598
 97
        0
 92
        6
 72
     0
 73
     1
 93
        8
 10
15.44012940014312
 20
37.50684908273402
 10
15.44012940014312
 20
38.20133594406381
 10
16.60185758205196
 20
38.20133594406381
 10
16.78906066058955
 20
38.16392156542621
 10
16.93414090330128
 20
37.93195566492821
 10
16.93414090330128
 20
37.75514068040168
 10
16.82948364853341
 20
37.5668879649876
 10
16.62921501915883
 20
37.50684908273402
 97
        0
 92
       22
 72
     0
 73
     1
 93
       31
 10
18.7131359310389
 20
36.86036873214014
 10
18.79391333984266
 20
36.90072932233148
 10
19.01092898087085
 20
37.12689682104634
 10
19.19279042876921
 20
37.40338357236179
 10
19.23319181107506
 20
37.18805550137914
 10
19.37834726521756
 20
36.85443185062968
 10
19.62410274617942
 20
36.59440072315799
 10
19.98464740470689
 20
36.33110861017207
 10
20.29478644054598
 20
36.1298802450252
 10
20.62497705115112
 20
35.99709449566673
 10
21.11683314454816
 20
35.80594989717011
 10
21.58429147278409
 20
35.66855800878009
 10
22.0343313163118
 20
35.57316140596224
 10
22.45007134149808
 20
35.47934993848146
 10
22.76437367285764
 20
35.37465515712291
 10
23.00739197201433
 20
35.24108801993595
 10
23.07917163340805
 20
35.10787605093339
 10
23.06860422840844
 20
34.96004048232649
 10
22.94828309950648
 20
34.73550685102326
 10
22.58097102798092
 20
34.6131551164057
 10
21.95967936147841
 20
34.61315511640576
 10
21.64538864876515
 20
34.73878374178426
 10
21.46085098399673
 20
34.87401745053964
 10
21.33151853661745
 20
35.05025683226553
 10
21.26695039873692
 20
35.48901337280709
 10
21.24532022495775
 20
35.68354226468736
 10
19.54634970749675
 20
35.6835422646874
 10
19.4430788549063
 20
35.9472732095149
 10
19.20623782781395
 20
36.3788578898682
 10
19.00797146822682
 20
36.61944320964313
 10
18.79179589173071
 20
36.82106590257255
 97
        0
 75
     0
 76
     1
 47
0.0580558680451376
 98
       12
 10
-15.19074371980741
 20
36.96434489720131
 10
-15.19074371980741
 20
36.96434489720131
 10
-15.19074371980741
 20
36.96434489720131
 10
1.808659533630816
 20
36.53251499924275
 10
1.808659533630816
 20
36.53251499924275
 10
1.808659533630816
 20
36.53251499924275
 10
1.808659533630816
 20
36.53251499924275
 10
1.808659533630816
 20
36.53251499924275
 10
1.808659533630816
 20
36.53251499924275
 10
1.808659533630816
 20
36.53251499924275
 10
1.808659533630816
 20
36.53251499924275
 10
1.808659533630816
 20
36.53251499924275
  0
LINE
  5
4BFC
330
2
100
AcDbEntity
  8
MECH_KONTUR5
100
AcDbLine
 10
4.999999999999928
 20
91.98626966596886
 30
0.0
 11
4.999999999999928
 21
109.0701665379256
 31
0.0
  0
LINE
  5
4BFD
330
2
100
AcDbEntity
  8
MECH_KONTUR5
100
AcDbLine
 10
-5.000000000000085
 20
91.98626966596886
 30
0.0
 11
-5.000000000000071
 21
109.0701665379256
 31
0.0
  0
ARC
  5
4BFE
330
2
100
AcDbEntity
  8
MECH_KONTUR5
100
AcDbCircle
 10
-2.000000000000099
 20
109.0701665379258
 30
0.0
 40
3.0
100
AcDbArc
 50
90.0
 51
180.0
  0
ARC
  5
4BFF
330
2
100
AcDbEntity
  8
MECH_KONTUR5
100
AcDbCircle
 10
1.999999999999893
 20
109.0701665379256
 30
0.0
 40
3.0
100
AcDbArc
 50
0.0
 51
90.0
  0
LINE
  5
4C00
330
2
100
AcDbEntity
  8
MECH_KONTUR5
100
AcDbLine
 10
1.999999999999943
 20
112.0
 30
0.0
 11
-2.000000000000112
 21
112.0
 31
0.0
  0
LINE
  5
4C0F
330
2
100
AcDbEntity
  8
MECH_KONTUR5
100
AcDbLine
 10
107.9999999999997
 20
87.79999999999992
 30
0.0
 11
107.9999999999997
 21
72.29999999999989
 31
0.0
  0
LINE
  5
4C10
330
2
100
AcDbEntity
  8
MECH_KONTUR5
100
AcDbLine
 10
117.9999999999997
 20
87.79999999999992
 30
0.0
 11
117.9999999999997
 21
72.29999999999989
 31
0.0
  0
ELLIPSE
  5
4C11
330
2
100
AcDbEntity
  8
MECH_KONTUR5
100
AcDbEllipse
 10
112.9999999999997
 20
72.29999999999989
 30
0.0
 11
5.0
 21
0.0
 31
0.0
210
0.0
220
0.0
230
1.0
 40
0.8330822928712109
 41
3.141592653589792
 42
6.283185307179585
  0
LINE
  5
4C12
330
2
100
AcDbEntity
  8
MECH_KONTUR5
100
AcDbLine
 10
117.9999999999997
 20
87.79999999999992
 30
0.0
 11
117.9999999999999
 21
109.0999999999999
 31
0.0
  0
LINE
  5
4C13
330
2
100
AcDbEntity
  8
MECH_KONTUR5
100
AcDbLine
 10
107.9999999999998
 20
87.79999999999992
 30
0.0
 11
107.9999999999998
 21
109.0999999999999
 31
0.0
  0
LINE
  5
4C14
330
2
100
AcDbEntity
  8
MECH_KONTUR5
100
AcDbLine
 10
107.9999999999997
 20
87.79999999999992
 30
0.0
 11
117.9999999999997
 21
87.79999999999992
 31
0.0
  0
ARC
  5
4C15
330
2
100
AcDbEntity
  8
MECH_KONTUR5
100
AcDbCircle
 10
114.9999999999999
 20
109.0
 30
0.0
 40
3.0
100
AcDbArc
 50
0.0
 51
90.0
  0
LINE
  5
4C16
330
2
100
AcDbEntity
  8
MECH_KONTUR5
100
AcDbLine
 10
110.9999999999998
 20
112.0
 30
0.0
 11
114.9999999999999
 21
112.0
 31
0.0
  0
ARC
  5
4C17
330
2
100
AcDbEntity
  8
MECH_KONTUR5
100
AcDbCircle
 10
110.9999999999998
 20
109.0
 30
0.0
 40
3.0
100
AcDbArc
 50
90.0
 51
180.0
  0
LINE
  5
4C19
330
2
100
AcDbEntity
  8
MECH_KONTUR5
100
AcDbLine
 10
117.9999999999997
 20
92.30000000000002
 30
0.0
 11
139.9999999999999
 21
92.3
 31
0.0
  0
MTEXT
  5
4D00
330
2
100
AcDbEntity
  8
MECH_BEM_NORMAL
100
AcDbMText
 10
300.0
 20
81.0
 30
0.0
 40
2.5
 41
32.5
 71
     5
 72
     1
  1
Counter bore\Pfor cap screw M6 DIN 912
 73
     1
 44
1.0
  0
LINE
  5
4D01
330
2
100
AcDbEntity
  8
MECH_BEM_NORMAL
100
AcDbLine
 10
170.0
 20
83.0
 30
0.0
 11
215.0
 21
83.00000000000016
 31
0.0
  0
MTEXT
  5
4D02
330
2
100
AcDbEntity
  8
MECH_BEM_NORMAL
100
AcDbMText
 10
192.0
 20
82.5
 30
0.0
 40
2.5
 41
0.0
 71
     5
 72
     1
  1
Counter bore for\Pcap screw M4 DIN 912
 73
     1
 44
1.0
  0
LINE
  5
4D04
330
2
100
AcDbEntity
  8
MECH_KONTUR1
100
AcDbLine
 10
217.5
 20
-4.0
 30
0.0
 11
282.5
 21
-4.0
 31
0.0
  0
LINE
  5
4D07
330
2
100
AcDbEntity
  8
MECH_VERDECKT
100
AcDbLine
 10
273.43
 20
-3.0
 30
0.0
 11
273.43
 21
4.0
 31
0.0
  0
LINE
  5
4D08
330
2
100
AcDbEntity
  8
MECH_VERDECKT
100
AcDbLine
 10
276.5699999999999
 20
-3.0
 30
0.0
 11
276.5699999999999
 21
4.0
 31
0.0
  0
LINE
  5
4D09
330
2
100
AcDbEntity
  8
MECH_VERDECKT
100
AcDbLine
 10
273.0
 20
-4.0
 30
0.0
 11
273.0
 21
4.0
 31
0.0
  0
LINE
  5
4D0A
330
2
100
AcDbEntity
  8
MECH_VERDECKT
100
AcDbLine
 10
277.0
 20
-4.0
 30
0.0
 11
277.0
 21
4.0
 31
0.0
  0
LINE
  5
4D0B
330
2
100
AcDbEntity
  8
MECH_VERDECKT
100
AcDbLine
 10
273.0
 20
4.0
 30
0.0
 11
277.0
 21
4.0
 31
0.0
  0
LINE
  5
4D0C
330
2
100
AcDbEntity
  8
MECH_KONTUR1
100
AcDbLine
 10
271.8999999999999
 20
-8.000000000000026
 30
0.0
 11
278.1
 21
-8.000000000000026
 31
0.0
  0
LINE
  5
4D0D
330
2
100
AcDbEntity
  8
MECH_VERDECKT
100
AcDbLine
 10
276.7320508075688
 20
-6.0
 30
0.0
 11
275.0
 21
-4.999999999999943
 31
0.0
  0
LINE
  5
4D0E
330
2
100
AcDbEntity
  8
MECH_VERDECKT
100
AcDbLine
 10
276.7320508075688
 20
-8.000000000000026
 30
0.0
 11
276.7320508075688
 21
-6.0
 31
0.0
  0
LINE
  5
4D0F
330
2
100
AcDbEntity
  8
MECH_VERDECKT
100
AcDbLine
 10
275.8660254037844
 20
-8.000000000000026
 30
0.0
 11
275.8660254037844
 21
-6.0
 31
0.0
  0
LINE
  5
4D10
330
2
100
AcDbEntity
  8
MECH_VERDECKT
100
AcDbLine
 10
274.1339745962156
 20
-8.000000000000026
 30
0.0
 11
274.1339745962156
 21
-6.0
 31
0.0
  0
ARC
  5
4D11
330
2
100
AcDbEntity
  8
MECH_VERDECKT
100
AcDbCircle
 10
274.9999999999999
 20
-9.905124837953367
 30
0.0
 40
4.0
100
AcDbArc
 50
77.49608338265606
 51
102.5039166173421
  0
ARC
  5
4D12
330
2
100
AcDbEntity
  8
MECH_VERDECKT
100
AcDbCircle
 10
276.2990381056765
 20
-6.940703023720857
 30
0.0
 40
1.035578185767547
100
AcDbArc
 50
65.28302774248617
 51
114.7169722575136
  0
LINE
  5
4D13
330
2
100
AcDbEntity
  8
MECH_VERDECKT
100
AcDbLine
 10
273.2679491924311
 20
-8.000000000000026
 30
0.0
 11
273.2679491924311
 21
-6.0
 31
0.0
  0
LINE
  5
4D14
330
2
100
AcDbEntity
  8
MECH_VERDECKT
100
AcDbLine
 10
273.0
 20
-3.0
 30
0.0
 11
277.0
 21
-3.0
 31
0.0
  0
LINE
  5
4D15
330
2
100
AcDbEntity
  8
MECH_VERDECKT
100
AcDbLine
 10
273.2679491924312
 20
-6.0
 30
0.0
 11
275.0
 21
-4.999999999999943
 31
0.0
  0
ARC
  5
4D16
330
2
100
AcDbEntity
  8
MECH_VERDECKT
100
AcDbCircle
 10
273.7009618943233
 20
-6.940703023720857
 30
0.0
 40
1.035578185767547
100
AcDbArc
 50
65.28302774248633
 51
114.7169722575137
  0
LINE
  5
4D17
330
2
100
AcDbEntity
  8
MECH_KONTUR1
100
AcDbLine
 10
278.5
 20
-7.599999999999994
 30
0.0
 11
278.5
 21
-4.0
 31
0.0
  0
ARC
  5
4D18
330
2
100
AcDbEntity
  8
MECH_KONTUR1
100
AcDbCircle
 10
278.1
 20
-7.599999999999994
 30
0.0
 40
0.4
100
AcDbArc
 50
270.0
 51
0.0
  0
LINE
  5
4D19
330
2
100
AcDbEntity
  8
MECH_KONTUR1
100
AcDbLine
 10
271.4999999999999
 20
-7.599999999999994
 30
0.0
 11
271.4999999999999
 21
-4.0
 31
0.0
  0
ARC
  5
4D1A
330
2
100
AcDbEntity
  8
MECH_KONTUR1
100
AcDbCircle
 10
271.8999999999999
 20
-7.599999999999994
 30
0.0
 40
0.4
100
AcDbArc
 50
180.0
 51
270.0
  0
LINE
  5
4D1B
330
2
100
AcDbEntity
  8
MECH_VERDECKT
100
AcDbLine
 10
223.0
 20
4.0
 30
0.0
 11
227.0
 21
4.0
 31
0.0
  0
LINE
  5
4D1C
330
2
100
AcDbEntity
  8
MECH_VERDECKT
100
AcDbLine
 10
223.0
 20
-3.0
 30
0.0
 11
227.0
 21
-3.0
 31
0.0
  0
LINE
  5
4D1D
330
2
100
AcDbEntity
  8
MECH_KONTUR1
100
AcDbLine
 10
221.9
 20
-8.000000000000026
 30
0.0
 11
228.1
 21
-8.000000000000026
 31
0.0
  0
LINE
  5
4D1E
330
2
100
AcDbEntity
  8
MECH_VERDECKT
100
AcDbLine
 10
223.0
 20
-4.0
 30
0.0
 11
223.0
 21
4.0
 31
0.0
  0
LINE
  5
4D1F
330
2
100
AcDbEntity
  8
MECH_VERDECKT
100
AcDbLine
 10
226.5699999999999
 20
-3.0
 30
0.0
 11
226.5699999999999
 21
4.0
 31
0.0
  0
LINE
  5
4D20
330
2
100
AcDbEntity
  8
MECH_VERDECKT
100
AcDbLine
 10
223.43
 20
-3.0
 30
0.0
 11
223.43
 21
4.0
 31
0.0
  0
ARC
  5
4D21
330
2
100
AcDbEntity
  8
MECH_VERDECKT
100
AcDbCircle
 10
223.7009618943233
 20
-6.940703023720857
 30
0.0
 40
1.035578185767547
100
AcDbArc
 50
65.28302774248633
 51
114.7169722575137
  0
LINE
  5
4D22
330
2
100
AcDbEntity
  8
MECH_VERDECKT
100
AcDbLine
 10
223.2679491924312
 20
-6.0
 30
0.0
 11
225.0
 21
-4.999999999999943
 31
0.0
  0
LINE
  5
4D23
330
2
100
AcDbEntity
  8
MECH_KONTUR1
100
AcDbLine
 10
221.4999999999999
 20
-7.599999999999994
 30
0.0
 11
221.4999999999999
 21
-4.0
 31
0.0
  0
ARC
  5
4D24
330
2
100
AcDbEntity
  8
MECH_VERDECKT
100
AcDbCircle
 10
226.2990381056765
 20
-6.940703023720857
 30
0.0
 40
1.035578185767547
100
AcDbArc
 50
65.28302774248617
 51
114.7169722575136
  0
ARC
  5
4D25
330
2
100
AcDbEntity
  8
MECH_VERDECKT
100
AcDbCircle
 10
224.9999999999999
 20
-9.905124837953367
 30
0.0
 40
4.0
100
AcDbArc
 50
77.49608338265606
 51
102.5039166173421
  0
LINE
  5
4D26
330
2
100
AcDbEntity
  8
MECH_VERDECKT
100
AcDbLine
 10
226.7320508075687
 20
-6.0
 30
0.0
 11
225.0
 21
-4.999999999999943
 31
0.0
  0
LINE
  5
4D27
330
2
100
AcDbEntity
  8
MECH_VERDECKT
100
AcDbLine
 10
223.2679491924311
 20
-8.000000000000026
 30
0.0
 11
223.2679491924311
 21
-6.0
 31
0.0
  0
LINE
  5
4D28
330
2
100
AcDbEntity
  8
MECH_VERDECKT
100
AcDbLine
 10
224.1339745962156
 20
-8.000000000000026
 30
0.0
 11
224.1339745962156
 21
-6.0
 31
0.0
  0
LINE
  5
4D29
330
2
100
AcDbEntity
  8
MECH_VERDECKT
100
AcDbLine
 10
225.8660254037844
 20
-8.000000000000026
 30
0.0
 11
225.8660254037844
 21
-6.0
 31
0.0
  0
LINE
  5
4D2A
330
2
100
AcDbEntity
  8
MECH_VERDECKT
100
AcDbLine
 10
226.7320508075688
 20
-8.000000000000026
 30
0.0
 11
226.7320508075687
 21
-6.0
 31
0.0
  0
ARC
  5
4D2B
330
2
100
AcDbEntity
  8
MECH_KONTUR1
100
AcDbCircle
 10
221.9
 20
-7.599999999999994
 30
0.0
 40
0.4
100
AcDbArc
 50
180.0
 51
270.0
  0
LINE
  5
4D2C
330
2
100
AcDbEntity
  8
MECH_VERDECKT
100
AcDbLine
 10
227.0
 20
-4.0
 30
0.0
 11
227.0
 21
4.0
 31
0.0
  0
LINE
  5
4D2D
330
2
100
AcDbEntity
  8
MECH_KONTUR1
100
AcDbLine
 10
228.5
 20
-7.599999999999994
 30
0.0
 11
228.5
 21
-4.0
 31
0.0
  0
ARC
  5
4D2E
330
2
100
AcDbEntity
  8
MECH_KONTUR1
100
AcDbCircle
 10
228.1
 20
-7.599999999999994
 30
0.0
 40
0.4
100
AcDbArc
 50
270.0
 51
0.0
  0
DIMENSION
  5
4D2F
330
2
100
AcDbEntity
  8
MECH_BEM_NORMAL
100
AcDbDimension
  2
*D7
 10
187.0
 20
-3.999999999999991
 30
0.0
 11
187.0
 21
-17.75595238095234
 31
0.0
 70
    32
 71
     5
 42
4.0
  3
STANDARD mit Zoll
100
AcDbAlignedDimension
 13
217.5
 23
0.0
 33
0.0
 14
217.5
 24
-4.0
 34
0.0
 50
90.0
100
AcDbRotatedDimension
  0
MTEXT
  5
4D58
330
2
100
AcDbEntity
  8
TEXT025
100
AcDbMText
 10
130.0
 20
143.0
 30
0.0
 40
5.0
 41
270.0
 71
     5
 72
     5
  1
{\fArial|b0|i0|c0|p34;COPYRIGHT \fSymbol|b0|i0|c2|p18;Ó\fArial|b0|i0|c0|p34; 2006 by THORLABS INC.}
 73
     1
 44
1.0
  0
TEXT
  5
4D59
330
2
100
AcDbEntity
  8
TEXT025
100
AcDbText
 10
67.16666666666668
 20
-47.75
 30
0.0
 40
3.5
  1
INFORMATION ONLY, NOT FOR MANUFACTURING
 72
     1
 11
130.0
 21
-46.0
 31
0.0
100
AcDbText
 73
     2
  0
LINE
  5
4D5A
330
2
100
AcDbEntity
  8
TEXT025
100
AcDbLine
 10
65.0
 20
-50.0
 30
0.0
 11
195.0
 21
-50.0
 31
0.0
  0
LINE
  5
4D5B
330
2
100
AcDbEntity
  8
TEXT025
100
AcDbLine
 10
198.0
 20
-52.01941553107288
 30
0.0
 11
62.0
 21
-52.01941553107288
 31
0.0
  0
MTEXT
  5
4E5D
330
2
100
AcDbEntity
  8
MECH_BEM_NORMAL
100
AcDbMText
 10
108.0
 20
-24.0
 30
0.0
 40
2.5
 41
65.0
 71
     5
 72
     1
  1
Stopper (for orthogonal adjusting) can be removed
 73
     1
 44
1.0
  0
LINE
  5
4E5F
330
2
100
AcDbEntity
  8
MECH_BEM_NORMAL
100
AcDbLine
 10
81.0
 20
-24.0
 30
0.0
 11
134.0
 21
-24.0
 31
0.0
  0
LINE
  5
4E60
330
2
100
AcDbEntity
  8
MECH_BEM_NORMAL
100
AcDbLine
 10
134.0
 20
-24.0
 30
0.0
 11
145.0
 21
1.0
 31
0.0
  0
LINE
  5
4E61
330
2
100
AcDbEntity
  8
MECH_BEM_NORMAL
100
AcDbLine
 10
44.0
 20
-13.0
 30
0.0
 11
117.0
 21
-13.0
 31
0.0
  0
MTEXT
  5
4E62
330
2
100
AcDbEntity
  8
MECH_BEM_NORMAL
100
AcDbMText
 10
70.0
 20
-13.5
 30
0.0
 40
2.5
 41
65.0
 71
     5
 72
     1
  1
Cap screws DIN 912 M4x6\Pand #8-32x1/4"
 73
     1
 44
1.0
  0
LINE
  5
4E63
330
2
100
AcDbEntity
  8
MECH_BEM_NORMAL
100
AcDbLine
 10
97.0
 20
-13.0
 30
0.0
 11
101.0
 21
1.0
 31
0.0
  0
LINE
  5
4E6B
330
2
100
AcDbEntity
  8
MECH_BEM_NORMAL
100
AcDbLine
 10
117.0
 20
-13.0
 30
0.0
 11
121.0
 21
1.0
 31
0.0
  0
LINE
  5
4EA4
330
2
100
AcDbEntity
  8
MECH_MITTELLINIE
100
AcDbLine
 10
78.9999999999999
 20
52.30000000000003
 30
0.0
 11
146.9999999999999
 21
52.30000000000003
 31
0.0
  0
DIMENSION
  5
4EA8
330
2
100
AcDbEntity
  8
MECH_BEM_NORMAL
100
AcDbDimension
  2
*D9
 10
82.9999999999999
 20
125.0
 30
0.0
 11
58.61309523809516
 21
125.0
 31
0.0
 70
   160
 71
     5
 42
13.0
  3
STANDARD mit Zoll
100
AcDbAlignedDimension
 13
69.99999999999992
 23
10.00000000000001
 33
0.0
 14
82.9999999999999
 24
89.30000000000005
 34
0.0
100
AcDbRotatedDimension
  0
DIMENSION
  5
4EE9
330
2
100
AcDbEntity
  8
MECH_BEM_NORMAL
100
AcDbDimension
  2
*D11
 10
142.9999999999999
 20
125.0
 30
0.0
 11
165.1249999999999
 21
125.0
 31
0.0
 70
   160
 71
     5
 42
7.000000000000056
  3
STANDARD mit Zoll
100
AcDbAlignedDimension
 13
149.9999999999999
 23
8.100000000000022
 33
0.0
 14
142.9999999999999
 24
89.29999999999997
 34
0.0
100
AcDbRotatedDimension
  0
MTEXT
  5
4F7B
330
2
100
AcDbEntity
  8
MECH_BEM_NORMAL
100
AcDbMText
 10
250.0
 20
121.0
 30
0.0
 40
3.5
 41
65.0
 71
     5
 72
     1
  1
Top view\Padapter only 
 73
     1
 44
1.0
  0
LINE
  5
4F7E
330
2
100
AcDbEntity
  8
MECH_BEM_NORMAL
100
AcDbLine
 10
284.9821428571428
 20
48.0
 30
0.0
 11
313.0
 21
48.0
 31
0.0
  0
DIMENSION
  5
52B2
330
2
100
AcDbEntity
  8
MECH_BEM_NORMAL
100
AcDbDimension
  2
*D16
 10
-58.99999999999998
 20
0.0000000000000075
 30
0.0
 11
-58.99999999999998
 21
56.00000000000001
 31
0.0
 70
   160
 71
     5
 42
112.0
  3
STANDARD mit Zoll
100
AcDbAlignedDimension
 13
-2.000000000000113
 23
112.0
 33
0.0
 14
-32.5
 24
0.0
 34
0.0
 50
90.0
100
AcDbRotatedDimension
  0
DIMENSION
  5
5306
330
2
100
AcDbEntity
  8
MECH_BEM_NORMAL
100
AcDbDimension
  2
*D17
 10
-48.99999999999999
 20
0.0000000000000047
 30
0.0
 11
-48.99999999999999
 21
26.15
 31
0.0
 70
   160
 71
     5
 42
52.3
  3
STANDARD mit Zoll
100
AcDbAlignedDimension
 13
-45.0
 23
52.3
 33
0.0
 14
-32.5
 24
0.0
 34
0.0
 50
90.0
100
AcDbRotatedDimension
  0
DIMENSION
  5
533C
330
2
100
AcDbEntity
  8
MECH_BEM_NORMAL
100
AcDbDimension
  2
*D18
 10
142.9999999999999
 20
125.0
 30
0.0
 11
112.9999999999999
 21
125.0
 31
0.0
 70
   160
 71
     5
 42
60.00000000000003
  3
STANDARD mit Zoll
100
AcDbAlignedDimension
 13
82.99999999999988
 23
89.30000000000005
 33
0.0
 14
142.9999999999999
 24
89.29999999999997
 34
0.0
100
AcDbRotatedDimension
1001
ACAD
1000
DSTYLE
1002
{
1070
   279
1070
     0
1002
}
  0
DIMENSION
  5
537C
330
2
100
AcDbEntity
  8
MECH_BEM_NORMAL
100
AcDbDimension
  2
*D19
 10
265.0
 20
82.0
 30
0.0
 11
250.0
 21
82.0
 31
0.0
 70
   160
 71
     5
 42
30.0
  3
STANDARD mit Zoll
100
AcDbAlignedDimension
 13
235.0
 23
45.49999999999999
 33
0.0
 14
265.0
 24
45.49999999999999
 34
0.0
100
AcDbRotatedDimension
  0
VIEWPORT
  5
3CF0
330
3CE8
100
AcDbEntity
 67
     1
  8
0
100
AcDbViewport
 10
205.4520799707093
 20
137.3984909834842
 30
0.0
 40
559.3644830992785
 41
312.6357382881163
 68
     1
 69
     1
 12
205.4520799707093
 22
137.3984909834842
 13
0.0
 23
0.0
 14
10.0
 24
10.0
 15
10.0
 25
10.0
 16
0.0
 26
0.0
 36
1.0
 17
0.0
 27
0.0
 37
0.0
 42
50.0
 43
0.0
 44
0.0
 45
312.6357382881163
 50
0.0
 51
0.0
 72
   100
 90
    32800
  1

281
     0
 71
     1
 74
     0
110
0.0
120
0.0
130
0.0
111
1.0
121
0.0
131
0.0
112
0.0
122
1.0
132
0.0
 79
     0
146
0.0
  0
VIEWPORT
  5
3CF2
330
3CE8
100
AcDbEntity
 67
     1
  8
ANSICHTSFENSTER
100
AcDbViewport
 10
204.0
 20
144.0
 30
0.0
 40
412.0
 41
292.0
 68
     2
 69
     2
 12
128.3046530549845
 22
20.12417111827126
 13
0.0
 23
0.0
 14
1.0
 24
1.0
 15
10.0
 25
10.0
 16
0.0
 26
0.0
 36
1.0
 17
0.0
 27
0.0
 37
0.0
 42
50.0
 43
0.0
 44
0.0
 45
292.0000038989384
 50
0.0
 51
0.0
 72
   100
 90
    37408
  1

281
     0
 71
     1
 74
     0
110
0.0
120
0.0
130
0.0
111
1.0
121
0.0
131
0.0
112
0.0
122
1.0
132
0.0
 79
     0
146
0.0
  0
MTEXT
  5
505F
330
3CE8
100
AcDbEntity
 67
     1
  8
TEXT025
100
AcDbMText
 10
358.0
 20
10.5
 30
0.0
 40
2.5
 41
50.0
 71
     5
 72
     1
  1
14184 BP1M2-50  \P14185 BP1M2-100\P14185 BP1M2-300
 73
     1
 44
1.0
  0
INSERT
  5
5187
330
3CE8
100
AcDbEntity
 67
     1
  8
HILFSLINIEN4
100
AcDbBlockReference
 66
     1
  2
Thorlabs_A3_quer_engl_HP5000
 10
0.0
 20
0.0
 30
0.0
  0
ATTRIB
  5
5188
330
5187
100
AcDbEntity
 67
     1
  8
RAHMEN035
100
AcDbText
 10
322.0450880061339
 20
30.31517898238924
 30
0.0
 40
5.0
  1
Beam Profiler Adapter
 72
     4
 11
364.5450880061339
 21
31.98184564905591
 31
0.0
100
AcDbAttribute
  2
BENENNUNG1A
 70
     0
  0
ATTRIB
  5
5189
330
5187
100
AcDbEntity
 67
     1
  8
RAHMEN035
100
AcDbText
 10
321.7999999999999
 20
29.49999999999994
 30
0.0
 40
5.0
  1

 41
1.630363636363637
 72
     5
 11
407.2
 21
29.49999999999994
 31
0.0
100
AcDbAttribute
  2
BENENNUNG1B
 70
     0
  0
ATTRIB
  5
518A
330
5187
100
AcDbEntity
 67
     1
  8
RAHMEN035
100
AcDbText
 10
323.4022308632767
 20
20.91041707762733
 30
0.0
 40
5.0
  1
to BP1M2 extension set
 41
0.9
 72
     4
 11
364.5450880061339
 21
23.41041707762733
 31
0.0
100
AcDbAttribute
  2
BENENNUNG2A
 70
     0
  0
ATTRIB
  5
518B
330
5187
100
AcDbEntity
 67
     1
  8
RAHMEN035
100
AcDbText
 10
321.7999999999999
 20
20.92857142857135
 30
0.0
 40
5.0
  1

 41
1.601250000000002
 72
     5
 11
407.2
 21
20.92857142857135
 31
0.0
100
AcDbAttribute
  2
BENENNUNG2B
 70
     0
  0
ATTRIB
  5
518C
330
5187
100
AcDbEntity
 67
     1
  8
RAHMEN035
100
AcDbText
 10
357.9535696603034
 20
10.32473610229661
 30
0.0
 40
5.0
  1

 72
     4
 11
357.9535696603034
 21
10.32473610229661
 31
0.0
100
AcDbAttribute
  2
ZEICHNUNGSNUMMER
 70
     0
  0
ATTRIB
  5
518D
330
5187
100
AcDbEntity
 67
     1
  8
RAHMEN013
100
AcDbText
 10
399.85558093987
 20
9.548454186946571
 30
0.0
 40
2.5
  1
2
 72
     4
 11
400.6889142732034
 21
10.79845418694657
 31
0.0
100
AcDbAttribute
  2
BLATT
 70
     0
  0
ATTRIB
  5
518E
330
5187
100
AcDbEntity
 67
     1
  8
RAHMEN013
100
AcDbText
 10
400.8127666666667
 20
5.270830598623604
 30
0.0
 40
2.5
  1
2
 72
     4
 11
401.6461
 21
6.520830598623604
 31
0.0
100
AcDbAttribute
  2
BLÄTTER
 70
     0
  0
ATTRIB
  5
518F
330
5187
100
AcDbEntity
 67
     1
  8
RAHMEN013
100
AcDbText
 10
339.0916231867283
 20
50.81249999999994
 30
0.0
 40
2.5
  1
1 : 1
100
AcDbAttribute
  2
MAßSTAB
 70
     0
  0
ATTRIB
  5
5190
330
5187
100
AcDbEntity
 67
     1
  8
RAHMEN013
100
AcDbText
 10
345.1346962179381
 20
44.31249999999994
 30
0.0
 40
2.5
  1

 11
345.1346962179381
 21
45.56249999999994
 31
0.0
100
AcDbAttribute
  2
WERKSTOFF1
 70
     0
 74
     2
  0
ATTRIB
  5
5191
330
5187
100
AcDbEntity
 67
     1
  8
RAHMEN013
100
AcDbText
 10
345.1346962179381
 20
40.02678571428567
 30
0.0
 40
2.5
  1

 11
345.1346962179381
 21
41.27678571428567
 31
0.0
100
AcDbAttribute
  2
WERKSTOFF2
 70
     0
 74
     2
  0
ATTRIB
  5
5192
330
5187
100
AcDbEntity
 67
     1
  8
RAHMEN025
100
AcDbText
 10
248.7999999999999
 20
43.56249999999994
 30
0.0
 40
3.5
  1

 72
     4
 11
248.7999999999999
 21
43.56249999999994
 31
0.0
100
AcDbAttribute
  2
VERWENDUNGA
 70
     0
  0
ATTRIB
  5
5193
330
5187
100
AcDbEntity
 67
     1
  8
RAHMEN025
100
AcDbText
 10
223.2
 20
41.79999999999992
 30
0.0
 40
3.5
  1

 41
1.365333333333334
 72
     5
 11
274.4000000000001
 21
41.79999999999992
 31
0.0
100
AcDbAttribute
  2
VERWENDUNGB
 70
     0
  0
ATTRIB
  5
5194
330
5187
100
AcDbEntity
 67
     1
  8
RAHMEN013
100
AcDbText
 10
277.6892857142857
 20
44.31249999999994
 30
0.0
 40
2.5
  1
DIN ISO 2768
 41
0.9
 72
     4
 11
289.1
 21
45.56249999999994
 31
0.0
100
AcDbAttribute
  2
ZUL_ABW1
 70
     0
  0
ATTRIB
  5
5195
330
5187
100
AcDbEntity
 67
     1
  8
RAHMEN013
100
AcDbText
 10
286.475
 20
40.02678571428567
 30
0.0
 40
2.5
  1
fein
 41
0.9
 72
     4
 11
289.1
 21
41.27678571428567
 31
0.0
100
AcDbAttribute
  2
ZUL_ABW2
 70
     0
  0
ATTRIB
  5
5196
330
5187
100
AcDbEntity
 67
     1
  8
RAHMEN013
100
AcDbText
 10
302.9
 20
44.28571428571422
 30
0.0
 40
2.5
  1

 41
1.133658536585359
 72
     5
 11
319.5
 21
44.28571428571422
 31
0.0
100
AcDbAttribute
  2
OBERFL1
 70
     0
  0
ATTRIB
  5
5197
330
5187
100
AcDbEntity
 67
     1
  8
RAHMEN013
100
AcDbText
 10
302.9
 20
39.99999999999994
 30
0.0
 40
2.5
  1

 41
1.05636363636363
 72
     5
 11
319.5
 21
39.99999999999994
 31
0.0
100
AcDbAttribute
  2
OBERFL2
 70
     0
  0
ATTRIB
  5
5198
330
5187
100
AcDbEntity
 67
     1
  8
RAHMEN013
100
AcDbText
 10
287.1550213503376
 20
30.70603256725522
 30
0.0
 40
2.5
  1
13.11.06
 41
0.9
100
AcDbAttribute
  2
BEARBETET
 70
     0
  0
ATTRIB
  5
5199
330
5187
100
AcDbEntity
 67
     1
  8
RAHMEN013
100
AcDbText
 10
303.4181341021422
 20
30.70603256725522
 30
0.0
 40
2.5
  1
Hit.
100
AcDbAttribute
  2
NAMEBEARB
 70
     0
  0
ATTRIB
  5
519A
330
5187
100
AcDbEntity
 67
     1
  8
RAHMEN013
100
AcDbText
 10
287.1550213503376
 20
26.45603256725522
 30
0.0
 40
2.5
  1

 41
0.9
100
AcDbAttribute
  2
GEPRÜFT
 70
     0
  0
ATTRIB
  5
519B
330
5187
100
AcDbEntity
 67
     1
  8
RAHMEN013
100
AcDbText
 10
303.4181341021422
 20
26.45603256725522
 30
0.0
 40
2.5
  1

100
AcDbAttribute
  2
NAMEGEPR
 70
     0
  0
ATTRIB
  5
519C
330
5187
100
AcDbEntity
 67
     1
  8
RAHMEN013
100
AcDbText
 10
349.8999999999998
 20
0.8749999999999431
 30
0.0
 40
2.5
  1

 72
     1
 11
349.8999999999998
 21
2.124999999999943
 31
0.0
100
AcDbAttribute
  2
ERSATZF
 70
     0
 74
     2
  0
ATTRIB
  5
519D
330
5187
100
AcDbEntity
 67
     1
  8
RAHMEN013
100
AcDbText
 10
394.0999999999999
 20
0.8749999999998294
 30
0.0
 40
2.5
  1

 72
     1
 11
394.0999999999999
 21
2.124999999999829
 31
0.0
100
AcDbAttribute
  2
ERSATZD
 70
     0
 74
     2
  0
ATTRIB
  5
519E
330
5187
100
AcDbEntity
 67
     1
  8
RAHMEN013
100
AcDbText
 10
222.0
 20
66.99999999999994
 30
0.0
 40
2.5
  1

100
AcDbAttribute
  2
BEM1
 70
     0
  0
ATTRIB
  5
519F
330
5187
100
AcDbEntity
 67
     1
  8
RAHMEN013
100
AcDbText
 10
222.0
 20
62.71428571428566
 30
0.0
 40
2.5
  1

100
AcDbAttribute
  2
BEM2
 70
     0
  0
ATTRIB
  5
51A0
330
5187
100
AcDbEntity
 67
     1
  8
RAHMEN013
100
AcDbText
 10
222.0
 20
58.42857142857136
 30
0.0
 40
2.5
  1

100
AcDbAttribute
  2
BEM3
 70
     0
  0
ATTRIB
  5
51A1
330
5187
100
AcDbEntity
 67
     1
  8
RAHMEN013
100
AcDbText
 10
225.4
 20
36.12499999999994
 30
0.0
 40
2.5
  1

 72
     4
 11
225.4
 21
36.12499999999994
 31
0.0
100
AcDbAttribute
  2
ZUST1
 70
     0
  0
ATTRIB
  5
51A2
330
5187
100
AcDbEntity
 67
     1
  8
RAHMEN013
100
AcDbText
 10
230.5000000000001
 20
34.84999999999994
 30
0.0
 40
2.5
  1

 41
2.832000000000002
 72
     5
 11
254.1000000000001
 21
34.84999999999994
 31
0.0
100
AcDbAttribute
  2
ÄND1
 70
     0
  0
ATTRIB
  5
51A3
330
5187
100
AcDbEntity
 67
     1
  8
RAHMEN013
100
AcDbText
 10
256.1000000000001
 20
34.84999999999994
 30
0.0
 40
2.5
  1

 41
1.450909090909073
 72
     5
 11
267.5
 21
34.84999999999994
 31
0.0
100
AcDbAttribute
  2
DAT1
 70
     0
  0
ATTRIB
  5
51A4
330
5187
100
AcDbEntity
 67
     1
  8
RAHMEN013
100
AcDbText
 10
269.1000000000001
 20
34.84999999999994
 30
0.0
 40
2.5
  1

 41
0.5660869565217225
 72
     5
 11
275.2999999999999
 21
34.84999999999994
 31
0.0
100
AcDbAttribute
  2
NAME1
 70
     0
  0
ATTRIB
  5
51A5
330
5187
100
AcDbEntity
 67
     1
  8
RAHMEN013
100
AcDbText
 10
225.4
 20
31.87499999999994
 30
0.0
 40
2.5
  1

 72
     4
 11
225.4
 21
31.87499999999994
 31
0.0
100
AcDbAttribute
  2
ZUST2
 70
     0
  0
ATTRIB
  5
51A6
330
5187
100
AcDbEntity
 67
     1
  8
RAHMEN013
100
AcDbText
 10
230.5000000000001
 20
30.59999999999993
 30
0.0
 40
2.5
  1

 41
2.509367088607596
 72
     5
 11
254.1000000000001
 21
30.59999999999993
 31
0.0
100
AcDbAttribute
  2
ÄND2
 70
     0
  0
ATTRIB
  5
51A7
330
5187
100
AcDbEntity
 67
     1
  8
RAHMEN013
100
AcDbText
 10
256.1000000000001
 20
30.59999999999993
 30
0.0
 40
2.5
  1

 41
1.276799999999984
 72
     5
 11
267.5
 21
30.59999999999993
 31
0.0
100
AcDbAttribute
  2
DAT2
 70
     0
  0
ATTRIB
  5
51A8
330
5187
100
AcDbEntity
 67
     1
  8
RAHMEN013
100
AcDbText
 10
269.1000000000001
 20
30.59999999999993
 30
0.0
 40
2.5
  1

 41
0.5156435643564203
 72
     5
 11
275.2999999999999
 21
30.59999999999993
 31
0.0
100
AcDbAttribute
  2
NAME2
 70
     0
  0
ATTRIB
  5
51A9
330
5187
100
AcDbEntity
 67
     1
  8
RAHMEN013
100
AcDbText
 10
225.4
 20
27.62499999999994
 30
0.0
 40
2.5
  1

 72
     4
 11
225.4
 21
27.62499999999994
 31
0.0
100
AcDbAttribute
  2
ZUST3
 70
     0
  0
ATTRIB
  5
51AA
330
5187
100
AcDbEntity
 67
     1
  8
RAHMEN013
100
AcDbText
 10
230.5000000000001
 20
26.34999999999994
 30
0.0
 40
2.5
  1

 41
2.509367088607597
 72
     5
 11
254.1000000000001
 21
26.34999999999994
 31
0.0
100
AcDbAttribute
  2
ÄND3
 70
     0
  0
ATTRIB
  5
51AB
330
5187
100
AcDbEntity
 67
     1
  8
RAHMEN013
100
AcDbText
 10
256.1000000000001
 20
26.34999999999994
 30
0.0
 40
2.5
  1

 41
1.276799999999985
 72
     5
 11
267.5
 21
26.34999999999994
 31
0.0
100
AcDbAttribute
  2
DAT3
 70
     0
  0
ATTRIB
  5
51AC
330
5187
100
AcDbEntity
 67
     1
  8
RAHMEN013
100
AcDbText
 10
269.1000000000001
 20
26.34999999999994
 30
0.0
 40
2.5
  1

 41
0.5156435643564205
 72
     5
 11
275.2999999999999
 21
26.34999999999994
 31
0.0
100
AcDbAttribute
  2
NAME3
 70
     0
  0
ATTRIB
  5
51AD
330
5187
100
AcDbEntity
 67
     1
  8
RAHMEN013
100
AcDbText
 10
225.4
 20
23.37499999999994
 30
0.0
 40
2.5
  1

 72
     4
 11
225.4
 21
23.37499999999994
 31
0.0
100
AcDbAttribute
  2
ZUST4
 70
     0
  0
ATTRIB
  5
51AE
330
5187
100
AcDbEntity
 67
     1
  8
RAHMEN013
100
AcDbText
 10
230.5000000000001
 20
22.09999999999993
 30
0.0
 40
2.5
  1

 41
2.478000000000002
 72
     5
 11
254.1000000000001
 21
22.09999999999993
 31
0.0
100
AcDbAttribute
  2
ÄND4
 70
     0
  0
ATTRIB
  5
51AF
330
5187
100
AcDbEntity
 67
     1
  8
RAHMEN013
100
AcDbText
 10
256.1000000000001
 20
22.09999999999993
 30
0.0
 40
2.5
  1

 41
1.259999999999984
 72
     5
 11
267.5
 21
22.09999999999993
 31
0.0
100
AcDbAttribute
  2
DAT4
 70
     0
  0
ATTRIB
  5
51B0
330
5187
100
AcDbEntity
 67
     1
  8
RAHMEN013
100
AcDbText
 10
269.1000000000001
 20
22.09999999999993
 30
0.0
 40
2.5
  1

 41
0.5105882352941028
 72
     5
 11
275.2999999999999
 21
22.09999999999993
 31
0.0
100
AcDbAttribute
  2
NAME4
 70
     0
  0
ATTRIB
  5
51B1
330
5187
100
AcDbEntity
 67
     1
  8
RAHMEN013
100
AcDbText
 10
225.4
 20
19.12499999999994
 30
0.0
 40
2.5
  1

 72
     4
 11
225.4
 21
19.12499999999994
 31
0.0
100
AcDbAttribute
  2
ZUST5
 70
     0
  0
ATTRIB
  5
51B2
330
5187
100
AcDbEntity
 67
     1
  8
RAHMEN013
100
AcDbText
 10
230.5000000000001
 20
17.84999999999993
 30
0.0
 40
2.5
  1

 41
2.509367088607597
 72
     5
 11
254.1000000000001
 21
17.84999999999993
 31
0.0
100
AcDbAttribute
  2
ÄND5
 70
     0
  0
ATTRIB
  5
51B3
330
5187
100
AcDbEntity
 67
     1
  8
RAHMEN013
100
AcDbText
 10
256.1000000000001
 20
17.84999999999993
 30
0.0
 40
2.5
  1

 41
1.276799999999985
 72
     5
 11
267.5
 21
17.84999999999993
 31
0.0
100
AcDbAttribute
  2
DAT5
 70
     0
  0
ATTRIB
  5
51B4
330
5187
100
AcDbEntity
 67
     1
  8
RAHMEN013
100
AcDbText
 10
269.1000000000001
 20
17.84999999999993
 30
0.0
 40
2.5
  1

 41
0.5156435643564203
 72
     5
 11
275.2999999999999
 21
17.84999999999993
 31
0.0
100
AcDbAttribute
  2
NAME5
 70
     0
  0
ATTRIB
  5
51B5
330
5187
100
AcDbEntity
 67
     1
  8
RAHMEN013
100
AcDbText
 10
225.4
 20
14.87499999999994
 30
0.0
 40
2.5
  1

 72
     4
 11
225.4
 21
14.87499999999994
 31
0.0
100
AcDbAttribute
  2
ZUST6
 70
     0
  0
ATTRIB
  5
51B6
330
5187
100
AcDbEntity
 67
     1
  8
RAHMEN013
100
AcDbText
 10
230.5000000000001
 20
13.59999999999993
 30
0.0
 40
2.5
  1

 41
2.541538461538464
 72
     5
 11
254.1000000000001
 21
13.59999999999993
 31
0.0
100
AcDbAttribute
  2
ÄND6
 70
     0
  0
ATTRIB
  5
51B7
330
5187
100
AcDbEntity
 67
     1
  8
RAHMEN013
100
AcDbText
 10
256.1000000000001
 20
13.59999999999993
 30
0.0
 40
2.5
  1

 41
1.294054054054038
 72
     5
 11
267.5
 21
13.59999999999993
 31
0.0
100
AcDbAttribute
  2
DAT6
 70
     0
  0
ATTRIB
  5
51B8
330
5187
100
AcDbEntity
 67
     1
  8
RAHMEN013
100
AcDbText
 10
269.1000000000001
 20
13.59999999999993
 30
0.0
 40
2.5
  1

 41
0.5207999999999848
 72
     5
 11
275.2999999999999
 21
13.59999999999993
 31
0.0
100
AcDbAttribute
  2
NAME6
 70
     0
  0
ATTRIB
  5
51B9
330
5187
100
AcDbEntity
 67
     1
  8
RAHMEN013
100
AcDbText
 10
225.4
 20
10.62499999999994
 30
0.0
 40
2.5
  1

 72
     4
 11
225.4
 21
10.62499999999994
 31
0.0
100
AcDbAttribute
  2
ZUST7
 70
     0
  0
ATTRIB
  5
51BA
330
5187
100
AcDbEntity
 67
     1
  8
RAHMEN013
100
AcDbText
 10
230.5000000000001
 20
9.349999999999937
 30
0.0
 40
2.5
  1

 41
2.509367088607597
 72
     5
 11
254.1000000000001
 21
9.349999999999937
 31
0.0
100
AcDbAttribute
  2
ÄND7
 70
     0
  0
ATTRIB
  5
51BB
330
5187
100
AcDbEntity
 67
     1
  8
RAHMEN013
100
AcDbText
 10
256.1000000000001
 20
9.349999999999937
 30
0.0
 40
2.5
  1

 41
1.276799999999984
 72
     5
 11
267.5
 21
9.349999999999937
 31
0.0
100
AcDbAttribute
  2
DAT7
 70
     0
  0
ATTRIB
  5
51BC
330
5187
100
AcDbEntity
 67
     1
  8
RAHMEN013
100
AcDbText
 10
269.1000000000001
 20
9.349999999999937
 30
0.0
 40
2.5
  1

 41
0.5156435643564205
 72
     5
 11
275.2999999999999
 21
9.349999999999937
 31
0.0
100
AcDbAttribute
  2
NAME7
 70
     0
  0
ATTRIB
  5
51BD
330
5187
100
AcDbEntity
 67
     1
  8
RAHMEN013
100
AcDbText
 10
225.4
 20
6.374999999999943
 30
0.0
 40
2.5
  1

 72
     4
 11
225.4
 21
6.374999999999943
 31
0.0
100
AcDbAttribute
  2
ZUST8
 70
     0
  0
ATTRIB
  5
51BE
330
5187
100
AcDbEntity
 67
     1
  8
RAHMEN013
100
AcDbText
 10
230.5000000000001
 20
5.099999999999937
 30
0.0
 40
2.5
  1

 41
2.509367088607597
 72
     5
 11
254.1000000000001
 21
5.099999999999937
 31
0.0
100
AcDbAttribute
  2
ÄND8
 70
     0
  0
ATTRIB
  5
51BF
330
5187
100
AcDbEntity
 67
     1
  8
RAHMEN013
100
AcDbText
 10
256.1000000000001
 20
5.099999999999937
 30
0.0
 40
2.5
  1

 41
1.276799999999984
 72
     5
 11
267.5
 21
5.099999999999937
 31
0.0
100
AcDbAttribute
  2
DAT8
 70
     0
  0
ATTRIB
  5
51C0
330
5187
100
AcDbEntity
 67
     1
  8
RAHMEN013
100
AcDbText
 10
269.1000000000001
 20
5.099999999999937
 30
0.0
 40
2.5
  1

 41
0.5156435643564203
 72
     5
 11
275.2999999999999
 21
5.099999999999937
 31
0.0
100
AcDbAttribute
  2
NAME8
 70
     0
  0
ATTRIB
  5
51C1
330
5187
100
AcDbEntity
 67
     1
  8
RAHMEN035
 62
   151
100
AcDbText
 10
315.1
 20
27.62499999999994
 30
0.0
 40
20.0
  1

 50
15.0
  7
HELV_N_BOLD
 72
     4
 11
315.1
 21
27.62499999999994
 31
0.0
100
AcDbAttribute
  2
ENTWURF
 70
     0
  0
SEQEND
  5
51C2
330
5187
100
AcDbEntity
 67
     1
  8
HILFSLINIEN4
  0
ENDSEC
  0
SECTION
  2
OBJECTS
  0
DICTIONARY
  5
1A
330
0
100
AcDbDictionary
281
     1
  3
ACAD_GROUP
350
18
  3
ACAD_LAYOUT
350
598
  3
ACAD_MLINESTYLE
350
19
  3
ACAD_PLOTSETTINGS
350
599
  3
ACAD_PLOTSTYLENAME
350
596
  3
AcDbVariableDictionary
350
2C4A
  0
DICTIONARY
  5
18
102
{ACAD_REACTORS
330
1A
102
}
330
1A
100
AcDbDictionary
281
     1
  0
DICTIONARY
  5
598
102
{ACAD_REACTORS
330
1A
102
}
330
1A
100
AcDbDictionary
281
     1
  3
Layout1
350
3CE9
  3
Model
350
59A
  0
DICTIONARY
  5
19
102
{ACAD_REACTORS
330
1A
102
}
330
1A
100
AcDbDictionary
281
     1
  3
STANDARD
350
1C
  0
DICTIONARY
  5
599
102
{ACAD_REACTORS
330
1A
102
}
330
1A
100
AcDbDictionary
281
     1
  0
ACDBDICTIONARYWDFLT
  5
596
102
{ACAD_REACTORS
330
1A
102
}
330
1A
100
AcDbDictionary
281
     1
  3
Normal
350
597
100
AcDbDictionaryWithDefault
340
597
  0
DICTIONARY
  5
2C4A
102
{ACAD_REACTORS
330
1A
102
}
330
1A
100
AcDbDictionary
281
     1
  3
SORTENTS
350
2C4B
  0
LAYOUT
  5
3CE9
102
{ACAD_REACTORS
330
598
102
}
330
598
100
AcDbPlotSettings
  1

  2
\\file-server01\Hardware PS
  4
A3
  6

 40
5.746749877929687
 41
5.704421997070312
 42
5.746734619140625
 43
5.74676513671875
 44
297.0530090332031
 45
420.1583251953125
 46
0.03
 47
0.0
 48
0.0
 49
0.0
140
408.6999999999998
141
285.4999999999998
142
1.0
143
1.0
 70
   692
 72
     1
 73
     1
 74
     4
  7
Thorlabs Ploteinstellung normal.ctb
 75
    16
147
1.0
148
0.0
149
0.0
100
AcDbLayout
  1
Layout1
 70
     1
 71
     1
 10
-5.74676513671875
 20
-5.776749877929687
 11
414.4115600585936
 21
291.2762591552733
 12
0.0
 22
0.0
 32
0.0
 14
-2.0
 24
-9.0
 34
0.0
 15
410.0
 25
290.0
 35
0.0
146
0.0
 13
0.0
 23
0.0
 33
0.0
 16
1.0
 26
0.0
 36
0.0
 17
0.0
 27
1.0
 37
0.0
 76
     0
330
3CE8
331
3CF0
  0
LAYOUT
  5
59A
102
{ACAD_REACTORS
330
598
102
}
330
598
100
AcDbPlotSettings
  1

  2
\\file-server01\HP LaserJet 5000 Series PS
  4
A4
  6

 40
5.746749877929687
 41
5.365768432617186
 42
5.70440673828125
 43
5.746734619140625
 44
209.8886566162109
 45
297.0530090332031
 46
0.0
 47
6.74
 48
29.13369226337498
 49
64.92780210221383
140
116.9602582227819
141
185.5194933070301
142
1.0
143
0.4425905686143343
 70
 11956
 72
     1
 73
     0
 74
     4
  7
Thorlabs Ploteinstellung normal.ctb
 75
     0
147
2.259424558301835
148
-29.13369226337498
149
-64.92780210221383
100
AcDbLayout
  1
Model
 70
     1
 71
     0
 10
0.0
 20
0.0
 11
12.0
 21
9.0
 12
0.0
 22
0.0
 32
0.0
 14
0.0
 24
0.0
 34
0.0
 15
0.0
 25
0.0
 35
0.0
146
0.0
 13
0.0
 23
0.0
 33
0.0
 16
1.0
 26
0.0
 36
0.0
 17
0.0
 27
1.0
 37
0.0
 76
     0
330
2
  0
MLINESTYLE
  5
1C
102
{ACAD_REACTORS
330
19
102
}
330
19
100
AcDbMlineStyle
  2
STANDARD
 70
     0
  3

 62
     0
 51
90.0
 52
90.0
 71
     2
 49
0.5
 62
   256
  6
BYLAYER
 49
-0.5
 62
   256
  6
BYLAYER
  0
ACDBPLACEHOLDER
  5
597
102
{ACAD_REACTORS
330
596
102
}
330
596
  0
DICTIONARYVAR
  5
2C4B
102
{ACAD_REACTORS
330
2C4A
102
}
330
2C4A
100
DictionaryVariables
280
     0
  1
96
  0
ENDSEC
  0
EOF
