  0
SECTION
  2
HEADER
  9
$ACADVER
  1
AC1015
  9
$ACADMAINTVER
 70
     6
  9
$DWGCODEPAGE
  3
ANSI_1252
  9
$INSBASE
 10
0.0
 20
0.0
 30
0.0
  9
$EXTMIN
 10
0.0
 20
0.0
 30
0.0
  9
$EXTMAX
 10
11.0
 20
8.5
 30
0.0
  9
$LIMMIN
 10
0.0
 20
0.0
  9
$LIMMAX
 10
0.0
 20
0.0
  9
$ORTHOMODE
 70
     0
  9
$REGENMODE
 70
     1
  9
$FILLMODE
 70
     1
  9
$QTEXTMODE
 70
     0
  9
$MIRRTEXT
 70
     1
  9
$LTSCALE
 40
1.0
  9
$ATTMODE
 70
     1
  9
$TEXTSIZE
 40
0.1388888889
  9
$TRACEWID
 40
0.05
  9
$TEXTSTYLE
  7
Standard
  9
$CLAYER
  8
0
  9
$CELTYPE
  6
ByLayer
  9
$CECOLOR
 62
   256
  9
$CELTSCALE
 40
1.0
  9
$DISPSILH
 70
     0
  9
$DIMSCALE
 40
1.0
  9
$DIMASZ
 40
0.156
  9
$DIMEXO
 40
0.05
  9
$DIMDLI
 40
0.38
  9
$DIMRND
 40
0.0
  9
$DIMDLE
 40
0.0
  9
$DIMEXE
 40
0.125
  9
$DIMTP
 40
0.0
  9
$DIMTM
 40
0.0
  9
$DIMTXT
 40
0.1388888889
  9
$DIMCEN
 40
0.09
  9
$DIMTSZ
 40
0.0
  9
$DIMTOL
 70
     0
  9
$DIMLIM
 70
     0
  9
$DIMTIH
 70
     1
  9
$DIMTOH
 70
     1
  9
$DIMSE1
 70
     0
  9
$DIMSE2
 70
     0
  9
$DIMTAD
 70
     0
  9
$DIMZIN
 70
     0
  9
$DIMBLK
  1

  9
$DIMASO
 70
     1
  9
$DIMSHO
 70
     1
  9
$DIMPOST
  1

  9
$DIMAPOST
  1

  9
$DIMALT
 70
     0
  9
$DIMALTD
 70
     2
  9
$DIMALTF
 40
25.4
  9
$DIMLFAC
 40
0.5
  9
$DIMTOFL
 70
     0
  9
$DIMTVP
 40
0.0
  9
$DIMTIX
 70
     0
  9
$DIMSOXD
 70
     0
  9
$DIMSAH
 70
     0
  9
$DIMBLK1
  1

  9
$DIMBLK2
  1

  9
$DIMSTYLE
  2
Standard
  9
$DIMCLRD
 70
     0
  9
$DIMCLRE
 70
     0
  9
$DIMCLRT
 70
     0
  9
$DIMTFAC
 40
1.0
  9
$DIMGAP
 40
0.06
  9
$DIMJUST
 70
     0
  9
$DIMSD1
 70
     0
  9
$DIMSD2
 70
     0
  9
$DIMTOLJ
 70
     1
  9
$DIMTZIN
 70
     0
  9
$DIMALTZ
 70
     0
  9
$DIMALTTZ
 70
     0
  9
$DIMUPT
 70
     0
  9
$DIMDEC
 70
     4
  9
$DIMTDEC
 70
     4
  9
$DIMALTU
 70
     2
  9
$DIMALTTD
 70
     2
  9
$DIMTXSTY
  7
Standard
  9
$DIMAUNIT
 70
     0
  9
$DIMADEC
 70
     0
  9
$DIMALTRND
 40
0.0
  9
$DIMAZIN
 70
     0
  9
$DIMDSEP
 70
    46
  9
$DIMATFIT
 70
     3
  9
$DIMFRAC
 70
     0
  9
$DIMLDRBLK
  1

  9
$DIMLUNIT
 70
     2
  9
$DIMLWD
 70
    -2
  9
$DIMLWE
 70
    -2
  9
$DIMTMOVE
 70
     0
  9
$LUNITS
 70
     2
  9
$LUPREC
 70
     2
  9
$SKETCHINC
 40
0.1
  9
$FILLETRAD
 40
0.5
  9
$AUNITS
 70
     0
  9
$AUPREC
 70
     0
  9
$MENU
  1
.
  9
$ELEVATION
 40
0.0
  9
$PELEVATION
 40
0.0
  9
$THICKNESS
 40
0.0
  9
$LIMCHECK
 70
     0
  9
$CHAMFERA
 40
0.5
  9
$CHAMFERB
 40
0.5
  9
$CHAMFERC
 40
1.0
  9
$CHAMFERD
 40
0.0
  9
$SKPOLY
 70
     0
  9
$TDCREATE
 40
2454805.327489815
  9
$TDUCREATE
 40
2454805.535823148
  9
$TDUPDATE
 40
2454805.327489826
  9
$TDUUPDATE
 40
2454805.53582316
  9
$TDINDWG
 40
0.0000000116
  9
$TDUSRTIMER
 40
0.0000000116
  9
$USRTIMER
 70
     1
  9
$ANGBASE
 50
0.0
  9
$ANGDIR
 70
     0
  9
$PDMODE
 70
     0
  9
$PDSIZE
 40
-1.0
  9
$PLINEWID
 40
0.0
  9
$SPLFRAME
 70
     0
  9
$SPLINETYPE
 70
     6
  9
$SPLINESEGS
 70
     8
  9
$HANDSEED
  5
46F
  9
$SURFTAB1
 70
     6
  9
$SURFTAB2
 70
     6
  9
$SURFTYPE
 70
     6
  9
$SURFU
 70
     6
  9
$SURFV
 70
     6
  9
$UCSBASE
  2

  9
$UCSNAME
  2

  9
$UCSORG
 10
0.0
 20
0.0
 30
0.0
  9
$UCSXDIR
 10
1.0
 20
0.0
 30
0.0
  9
$UCSYDIR
 10
0.0
 20
1.0
 30
0.0
  9
$UCSORTHOREF
  2

  9
$UCSORTHOVIEW
 70
     0
  9
$UCSORGTOP
 10
0.0
 20
0.0
 30
0.0
  9
$UCSORGBOTTOM
 10
0.0
 20
0.0
 30
0.0
  9
$UCSORGLEFT
 10
0.0
 20
0.0
 30
0.0
  9
$UCSORGRIGHT
 10
0.0
 20
0.0
 30
0.0
  9
$UCSORGFRONT
 10
0.0
 20
0.0
 30
0.0
  9
$UCSORGBACK
 10
0.0
 20
0.0
 30
0.0
  9
$PUCSBASE
  2

  9
$PUCSNAME
  2

  9
$PUCSORG
 10
0.0
 20
0.0
 30
0.0
  9
$PUCSXDIR
 10
1.0
 20
0.0
 30
0.0
  9
$PUCSYDIR
 10
0.0
 20
1.0
 30
0.0
  9
$PUCSORTHOREF
  2

  9
$PUCSORTHOVIEW
 70
     0
  9
$PUCSORGTOP
 10
0.0
 20
0.0
 30
0.0
  9
$PUCSORGBOTTOM
 10
0.0
 20
0.0
 30
0.0
  9
$PUCSORGLEFT
 10
0.0
 20
0.0
 30
0.0
  9
$PUCSORGRIGHT
 10
0.0
 20
0.0
 30
0.0
  9
$PUCSORGFRONT
 10
0.0
 20
0.0
 30
0.0
  9
$PUCSORGBACK
 10
0.0
 20
0.0
 30
0.0
  9
$USERI1
 70
     0
  9
$USERI2
 70
     0
  9
$USERI3
 70
     0
  9
$USERI4
 70
     0
  9
$USERI5
 70
     0
  9
$USERR1
 40
0.0
  9
$USERR2
 40
0.0
  9
$USERR3
 40
0.0
  9
$USERR4
 40
0.0
  9
$USERR5
 40
0.0
  9
$WORLDVIEW
 70
     1
  9
$SHADEDGE
 70
     3
  9
$SHADEDIF
 70
    70
  9
$TILEMODE
 70
     1
  9
$MAXACTVP
 70
    64
  9
$PINSBASE
 10
0.0
 20
0.0
 30
0.0
  9
$PLIMCHECK
 70
     0
  9
$PEXTMIN
 10
1.0000000000E+20
 20
1.0000000000E+20
 30
1.0000000000E+20
  9
$PEXTMAX
 10
-1.0000000000E+20
 20
-1.0000000000E+20
 30
-1.0000000000E+20
  9
$PLIMMIN
 10
0.0
 20
0.0
  9
$PLIMMAX
 10
12.0
 20
9.0
  9
$UNITMODE
 70
     0
  9
$VISRETAIN
 70
     1
  9
$PLINEGEN
 70
     0
  9
$PSLTSCALE
 70
     1
  9
$TREEDEPTH
 70
  3020
  9
$CMLSTYLE
  2
Standard
  9
$CMLJUST
 70
     0
  9
$CMLSCALE
 40
1.0
  9
$PROXYGRAPHICS
 70
     1
  9
$MEASUREMENT
 70
     0
  9
$CELWEIGHT
370
    -1
  9
$ENDCAPS
280
     0
  9
$JOINSTYLE
280
     0
  9
$LWDISPLAY
290
     1
  9
$INSUNITS
 70
     1
  9
$HYPERLINKBASE
  1

  9
$STYLESHEET
  1

  9
$XEDIT
290
     1
  9
$CEPSNTYPE
380
     0
  9
$PSTYLEMODE
290
     1
  9
$FINGERPRINTGUID
  2
{A66114A1-FF62-4881-BAB2-CE24E2F20D8F}
  9
$VERSIONGUID
  2
{FAEB1C32-E019-11D5-929B-00C0DF256EC4}
  9
$EXTNAMES
290
     1
  9
$PSVPSCALE
 40
0.0
  9
$OLESTARTUP
290
     0
  0
ENDSEC
  0
SECTION
  2
CLASSES
  0
CLASS
  1
ACDBDICTIONARYWDFLT
  2
AcDbDictionaryWithDefault
  3
ObjectDBX Classes
 90
        0
280
     0
281
     0
  0
CLASS
  1
ACDBPLACEHOLDER
  2
AcDbPlaceHolder
  3
ObjectDBX Classes
 90
        0
280
     0
281
     0
  0
CLASS
  1
LAYOUT
  2
AcDbLayout
  3
ObjectDBX Classes
 90
        0
280
     0
281
     0
  0
ENDSEC
  0
SECTION
  2
TABLES
  0
TABLE
  2
VPORT
  5
8
330
0
100
AcDbSymbolTable
 70
     1
  0
VPORT
  5
29
330
8
100
AcDbSymbolTableRecord
100
AcDbViewportTableRecord
  2
*Active
 70
     0
 10
0.0
 20
0.0
 11
1.0
 21
1.0
 12
5.5
 22
4.25
 13
0.0
 23
0.0
 14
0.5
 24
0.5
 15
0.5
 25
0.5
 16
0.0
 26
0.0
 36
1.0
 17
0.0
 27
0.0
 37
0.0
 40
8.5
 41
1.2941176471
 42
50.0
 43
0.0
 44
0.0
 50
0.0
 51
0.0
 71
     0
 72
  2000
 73
     1
 74
     3
 75
     0
 76
     0
 77
     0
 78
     0
281
     0
 65
     1
110
0.0
120
0.0
130
0.0
111
1.0
121
0.0
131
0.0
112
0.0
122
1.0
132
0.0
 79
     0
146
0.0
  0
ENDTAB
  0
TABLE
  2
LTYPE
  5
5
330
0
100
AcDbSymbolTable
 70
     6
  0
LTYPE
  5
14
330
5
100
AcDbSymbolTableRecord
100
AcDbLinetypeTableRecord
  2
ByBlock
 70
     0
  3

 72
    65
 73
     0
 40
0.0
  0
LTYPE
  5
15
330
5
100
AcDbSymbolTableRecord
100
AcDbLinetypeTableRecord
  2
ByLayer
 70
     0
  3

 72
    65
 73
     0
 40
0.0
  0
LTYPE
  5
16
330
5
100
AcDbSymbolTableRecord
100
AcDbLinetypeTableRecord
  2
Continuous
 70
     0
  3
Solid line
 72
    65
 73
     0
 40
0.0
  0
LTYPE
  5
2A
330
5
100
AcDbSymbolTableRecord
100
AcDbLinetypeTableRecord
  2
HIDDEN
 70
     0
  3
Hidden __ __ __ __ __ __ __ __ __ __ __ __ __ __
 72
    65
 73
     2
 40
0.075
 49
0.05
 74
     0
 49
-0.025
 74
     0
  0
LTYPE
  5
2B
330
5
100
AcDbSymbolTableRecord
100
AcDbLinetypeTableRecord
  2
PHANTOM
 70
     0
  3
Phantom ______  __  __  ______  __  __  ______
 72
    65
 73
     6
 40
0.5
 49
0.25
 74
     0
 49
-0.05
 74
     0
 49
0.05
 74
     0
 49
-0.05
 74
     0
 49
0.05
 74
     0
 49
-0.05
 74
     0
  0
LTYPE
  5
2C
330
5
100
AcDbSymbolTableRecord
100
AcDbLinetypeTableRecord
  2
CENTER
 70
     0
  3
Center ____ _ ____ _ ____ _ ____ _ ____ _ ____
 72
    65
 73
     4
 40
0.4
 49
0.25
 74
     0
 49
-0.05
 74
     0
 49
0.05
 74
     0
 49
-0.05
 74
     0
  0
LTYPE
  5
2D
330
5
100
AcDbSymbolTableRecord
100
AcDbLinetypeTableRecord
  2
CENTERX2
 70
     0
  3
Center (2x) ________  __  ________  __  _____
 72
    65
 73
     4
 40
0.8
 49
0.5
 74
     0
 49
-0.1
 74
     0
 49
0.1
 74
     0
 49
-0.1
 74
     0
  0
LTYPE
  5
2E
330
5
100
AcDbSymbolTableRecord
100
AcDbLinetypeTableRecord
  2
DOT2
 70
     0
  3
Dot (.5x) ........................................
 72
    65
 73
     2
 40
0.025
 49
0.0
 74
     0
 49
-0.025
 74
     0
  0
ENDTAB
  0
TABLE
  2
LAYER
  5
2
330
0
100
AcDbSymbolTable
 70
     2
  0
LAYER
  5
10
330
2
100
AcDbSymbolTableRecord
100
AcDbLayerTableRecord
  2
0
 70
     0
 62
     7
  6
Continuous
370
    -3
390
F
  0
LAYER
  5
2F
330
2
100
AcDbSymbolTableRecord
100
AcDbLayerTableRecord
  2
FORMAT
 70
     0
 62
     7
  6
Continuous
370
    -3
390
F
  0
ENDTAB
  0
TABLE
  2
STYLE
  5
3
330
0
100
AcDbSymbolTable
 70
    21
  0
STYLE
  5
11
330
3
100
AcDbSymbolTableRecord
100
AcDbTextStyleTableRecord
  2
Standard
 70
     0
 40
0.0
 41
1.0
 50
0.0
 71
     0
 42
0.2
  3
txt
  4

  0
STYLE
  5
4D
330
3
100
AcDbSymbolTableRecord
100
AcDbTextStyleTableRecord
  2
SLDTEXTSTYLE0
 70
     0
 40
0.0
 41
0.75
 50
0.0
 71
     0
 42
0.2
  3
TXT
  4

  0
STYLE
  5
56
330
3
100
AcDbSymbolTableRecord
100
AcDbTextStyleTableRecord
  2
SLDTEXTSTYLE1
 70
     0
 40
0.0
 41
0.6428571429
 50
0.0
 71
     0
 42
0.2
  3
TXT
  4

  0
STYLE
  5
58
330
3
100
AcDbSymbolTableRecord
100
AcDbTextStyleTableRecord
  2
SLDTEXTSTYLE2
 70
     0
 40
0.0
 41
0.7211538462
 50
0.0
 71
     0
 42
0.2
  3
TXT
  4

  0
STYLE
  5
63
330
3
100
AcDbSymbolTableRecord
100
AcDbTextStyleTableRecord
  2
SLDTEXTSTYLE3
 70
     0
 40
0.0
 41
0.6375
 50
0.0
 71
     0
 42
0.2
  3
TXT
  4

  0
STYLE
  5
69
330
3
100
AcDbSymbolTableRecord
100
AcDbTextStyleTableRecord
  2
SLDTEXTSTYLE4
 70
     0
 40
0.0
 41
0.7016129032
 50
0.0
 71
     0
 42
0.2
  3
TXT
  4

  0
STYLE
  5
6B
330
3
100
AcDbSymbolTableRecord
100
AcDbTextStyleTableRecord
  2
SLDTEXTSTYLE5
 70
     0
 40
0.0
 41
0.6853448276
 50
0.0
 71
     0
 42
0.2
  3
TXT
  4

  0
STYLE
  5
6D
330
3
100
AcDbSymbolTableRecord
100
AcDbTextStyleTableRecord
  2
SLDTEXTSTYLE6
 70
     0
 40
0.0
 41
0.689516129
 50
0.0
 71
     0
 42
0.2
  3
TXT
  4

  0
STYLE
  5
6F
330
3
100
AcDbSymbolTableRecord
100
AcDbTextStyleTableRecord
  2
SLDTEXTSTYLE7
 70
     0
 40
0.0
 41
0.6666666667
 50
0.0
 71
     0
 42
0.2
  3
TXT
  4

  0
STYLE
  5
71
330
3
100
AcDbSymbolTableRecord
100
AcDbTextStyleTableRecord
  2
SLDTEXTSTYLE8
 70
     0
 40
0.0
 41
0.7010869565
 50
0.0
 71
     0
 42
0.2
  3
TXT
  4

  0
STYLE
  5
73
330
3
100
AcDbSymbolTableRecord
100
AcDbTextStyleTableRecord
  2
SLDTEXTSTYLE9
 70
     0
 40
0.0
 41
0.7083333333
 50
0.0
 71
     0
 42
0.2
  3
TXT
  4

  0
STYLE
  5
82
330
3
100
AcDbSymbolTableRecord
100
AcDbTextStyleTableRecord
  2
SLDTEXTSTYLE10
 70
     0
 40
0.0
 41
0.65625
 50
0.0
 71
     0
 42
0.2
  3
TXT
  4

  0
STYLE
  5
89
330
3
100
AcDbSymbolTableRecord
100
AcDbTextStyleTableRecord
  2
SLDTEXTSTYLE11
 70
     0
 40
0.0
 41
0.7142857143
 50
0.0
 71
     0
 42
0.2
  3
TXT
  4

  0
STYLE
  5
92
330
3
100
AcDbSymbolTableRecord
100
AcDbTextStyleTableRecord
  2
SLDTEXTSTYLE12
 70
     0
 40
0.0
 41
0.6995192308
 50
0.0
 71
     0
 42
0.2
  3
TXT
  4

  0
STYLE
  5
9A
330
3
100
AcDbSymbolTableRecord
100
AcDbTextStyleTableRecord
  2
SLDTEXTSTYLE13
 70
     0
 40
0.0
 41
0.69375
 50
0.0
 71
     0
 42
0.2
  3
TXT
  4

  0
STYLE
  5
9C
330
3
100
AcDbSymbolTableRecord
100
AcDbTextStyleTableRecord
  2
SLDTEXTSTYLE14
 70
     0
 40
0.0
 41
0.6988636364
 50
0.0
 71
     0
 42
0.2
  3
TXT
  4

  0
STYLE
  5
9E
330
3
100
AcDbSymbolTableRecord
100
AcDbTextStyleTableRecord
  2
SLDTEXTSTYLE15
 70
     0
 40
0.0
 41
0.7115384615
 50
0.0
 71
     0
 42
0.2
  3
TXT
  4

  0
STYLE
  5
A1
330
3
100
AcDbSymbolTableRecord
100
AcDbTextStyleTableRecord
  2
SLDTEXTSTYLE16
 70
     0
 40
0.0
 41
0.6796875
 50
0.0
 71
     0
 42
0.2
  3
TXT
  4

  0
STYLE
  5
433
330
3
100
AcDbSymbolTableRecord
100
AcDbTextStyleTableRecord
  2
SLDTEXTSTYLE17
 70
     0
 40
0.0
 41
0.675
 50
0.0
 71
     0
 42
0.2
  3
TXT
  4

  0
STYLE
  5
435
330
3
100
AcDbSymbolTableRecord
100
AcDbTextStyleTableRecord
  2
SLDTEXTSTYLE18
 70
     0
 40
0.0
 41
0.625
 50
0.0
 71
     0
 42
0.2
  3
TXT
  4

  0
STYLE
  5
43B
330
3
100
AcDbSymbolTableRecord
100
AcDbTextStyleTableRecord
  2
SLDTEXTSTYLE19
 70
     0
 40
0.0
 41
0.6875
 50
0.0
 71
     0
 42
0.2
  3
TXT
  4

  0
ENDTAB
  0
TABLE
  2
VIEW
  5
6
330
0
100
AcDbSymbolTable
 70
     0
  0
ENDTAB
  0
TABLE
  2
UCS
  5
7
330
0
100
AcDbSymbolTable
 70
     0
  0
ENDTAB
  0
TABLE
  2
APPID
  5
9
330
0
100
AcDbSymbolTable
 70
     1
  0
APPID
  5
12
330
9
100
AcDbSymbolTableRecord
100
AcDbRegAppTableRecord
  2
ACAD
 70
     0
  0
ENDTAB
  0
TABLE
  2
DIMSTYLE
  5
A
330
0
100
AcDbSymbolTable
 70
     7
100
AcDbDimStyleTable
  0
DIMSTYLE
105
27
330
A
100
AcDbSymbolTableRecord
100
AcDbDimStyleTableRecord
  2
Standard
 70
     0
340
11
  0
DIMSTYLE
105
D6
102
{ACAD_REACTORS
330
D5
102
}
330
A
100
AcDbSymbolTableRecord
100
AcDbDimStyleTableRecord
  2
SLDDIMSTYLE0
 70
     0
 41
0.156
 44
0.0
 78
     4
140
0.1041666667
147
0.0260416667
170
     1
172
     1
173
     1
271
     2
272
     2
284
    12
340
4D
  0
DIMSTYLE
105
3AF
102
{ACAD_REACTORS
330
3AE
330
3C1
330
3D3
330
41E
102
}
330
A
100
AcDbSymbolTableRecord
100
AcDbDimStyleTableRecord
  2
SLDDIMSTYLE1
 70
     0
 41
0.156
 44
0.0
 78
    12
140
0.1041666667
147
0.0260416667
170
     1
173
     1
271
     2
272
     2
284
    12
340
4D
  0
DIMSTYLE
105
3E6
102
{ACAD_REACTORS
330
3E5
102
}
330
A
100
AcDbSymbolTableRecord
100
AcDbDimStyleTableRecord
  2
SLDDIMSTYLE2
 70
     0
 41
0.156
 44
0.0
 78
     4
140
0.1041666667
147
0.0260416667
170
     1
173
     1
271
     2
272
     2
284
    12
340
4D
  0
DIMSTYLE
105
3F9
102
{ACAD_REACTORS
330
3F8
102
}
330
A
100
AcDbSymbolTableRecord
100
AcDbDimStyleTableRecord
  2
SLDDIMSTYLE3
 70
     0
 41
0.156
 44
0.0
 78
    12
140
0.1041666667
147
0.0260416667
170
     1
173
     1
271
     3
272
     3
284
    12
340
4D
  0
DIMSTYLE
105
40C
102
{ACAD_REACTORS
330
40B
102
}
330
A
100
AcDbSymbolTableRecord
100
AcDbDimStyleTableRecord
  2
SLDDIMSTYLE4
 70
     0
 41
0.156
 44
0.0
 78
     8
140
0.1041666667
147
0.0260416667
170
     1
173
     1
271
     2
272
     2
284
    12
340
4D
  0
DIMSTYLE
105
43F
330
A
100
AcDbSymbolTableRecord
100
AcDbDimStyleTableRecord
  2
SLDDIMSTYLE5
 70
     0
 41
0.156
 44
0.0
140
0.156
147
0.039
173
     1
271
     0
272
     0
340
11
  0
ENDTAB
  0
TABLE
  2
BLOCK_RECORD
  5
1
330
0
100
AcDbSymbolTable
 70
    22
  0
BLOCK_RECORD
  5
1F
330
1
100
AcDbSymbolTableRecord
100
AcDbBlockTableRecord
  2
*Model_Space
340
22
  0
BLOCK_RECORD
  5
1B
330
1
100
AcDbSymbolTableRecord
100
AcDbBlockTableRecord
  2
*Paper_Space
340
1E
  0
BLOCK_RECORD
  5
23
330
1
100
AcDbSymbolTableRecord
100
AcDbBlockTableRecord
  2
*Paper_Space0
340
26
  0
BLOCK_RECORD
  5
66
330
1
100
AcDbSymbolTableRecord
100
AcDbBlockTableRecord
  2
SW_NOTE_0
340
0
102
{BLKREFS
331
75
102
}
1001
ACAD
1000
DesignCenter Data
1002
{
1070
     1
1070
     0
1002
}
  0
BLOCK_RECORD
  5
7F
330
1
100
AcDbSymbolTableRecord
100
AcDbBlockTableRecord
  2
SW_NOTE_1
340
0
102
{BLKREFS
331
85
102
}
1001
ACAD
1000
DesignCenter Data
1002
{
1070
     1
1070
     0
1002
}
  0
BLOCK_RECORD
  5
86
330
1
100
AcDbSymbolTableRecord
100
AcDbBlockTableRecord
  2
SW_NOTE_2
340
0
102
{BLKREFS
331
8C
102
}
1001
ACAD
1000
DesignCenter Data
1002
{
1070
     1
1070
     0
1002
}
  0
BLOCK_RECORD
  5
8E
330
1
100
AcDbSymbolTableRecord
100
AcDbBlockTableRecord
  2
SW_NOTE_3
340
0
102
{BLKREFS
331
94
102
}
1001
ACAD
1000
DesignCenter Data
1002
{
1070
     1
1070
     0
1002
}
  0
BLOCK_RECORD
  5
96
330
1
100
AcDbSymbolTableRecord
100
AcDbBlockTableRecord
  2
SW_NOTE_4
340
0
102
{BLKREFS
331
A5
102
}
1001
ACAD
1000
DesignCenter Data
1002
{
1070
     1
1070
     0
1002
}
  0
BLOCK_RECORD
  5
A6
330
1
100
AcDbSymbolTableRecord
100
AcDbBlockTableRecord
  2
SW_TABLEANNOTATION_0
340
0
102
{BLKREFS
331
C2
102
}
1001
ACAD
1000
DesignCenter Data
1002
{
1070
     1
1070
     0
1002
}
  0
BLOCK_RECORD
  5
D7
330
1
100
AcDbSymbolTableRecord
100
AcDbBlockTableRecord
  2
*D7
340
0
  0
BLOCK_RECORD
  5
3B0
330
1
100
AcDbSymbolTableRecord
100
AcDbBlockTableRecord
  2
*D8
340
0
  0
BLOCK_RECORD
  5
3C2
330
1
100
AcDbSymbolTableRecord
100
AcDbBlockTableRecord
  2
*D9
340
0
  0
BLOCK_RECORD
  5
3D4
330
1
100
AcDbSymbolTableRecord
100
AcDbBlockTableRecord
  2
*D10
340
0
  0
BLOCK_RECORD
  5
3E7
330
1
100
AcDbSymbolTableRecord
100
AcDbBlockTableRecord
  2
*D11
340
0
  0
BLOCK_RECORD
  5
3FA
330
1
100
AcDbSymbolTableRecord
100
AcDbBlockTableRecord
  2
*D12
340
0
  0
BLOCK_RECORD
  5
40D
330
1
100
AcDbSymbolTableRecord
100
AcDbBlockTableRecord
  2
*D13
340
0
  0
BLOCK_RECORD
  5
41F
330
1
100
AcDbSymbolTableRecord
100
AcDbBlockTableRecord
  2
*D14
340
0
  0
BLOCK_RECORD
  5
430
330
1
100
AcDbSymbolTableRecord
100
AcDbBlockTableRecord
  2
SW_NOTE_5
340
0
102
{BLKREFS
331
437
102
}
1001
ACAD
1000
DesignCenter Data
1002
{
1070
     1
1070
     0
1002
}
  0
BLOCK_RECORD
  5
438
330
1
100
AcDbSymbolTableRecord
100
AcDbBlockTableRecord
  2
SW_NOTE_6
340
0
102
{BLKREFS
331
43E
102
}
1001
ACAD
1000
DesignCenter Data
1002
{
1070
     1
1070
     0
1002
}
  0
BLOCK_RECORD
  5
442
330
1
100
AcDbSymbolTableRecord
100
AcDbBlockTableRecord
  2
SW_NOTE_7
340
0
102
{BLKREFS
331
447
102
}
1001
ACAD
1000
DesignCenter Data
1002
{
1070
     1
1070
     0
1002
}
  0
BLOCK_RECORD
  5
449
330
1
100
AcDbSymbolTableRecord
100
AcDbBlockTableRecord
  2
SW_NOTE_8
340
0
102
{BLKREFS
331
44E
102
}
1001
ACAD
1000
DesignCenter Data
1002
{
1070
     1
1070
     0
1002
}
  0
BLOCK_RECORD
  5
450
330
1
100
AcDbSymbolTableRecord
100
AcDbBlockTableRecord
  2
SW_NOTE_9
340
0
102
{BLKREFS
331
455
102
}
1001
ACAD
1000
DesignCenter Data
1002
{
1070
     1
1070
     0
1002
}
  0
BLOCK_RECORD
  5
457
330
1
100
AcDbSymbolTableRecord
100
AcDbBlockTableRecord
  2
SW_NOTE_10
340
0
102
{BLKREFS
331
45C
102
}
1001
ACAD
1000
DesignCenter Data
1002
{
1070
     1
1070
     0
1002
}
  0
BLOCK_RECORD
  5
45E
330
1
100
AcDbSymbolTableRecord
100
AcDbBlockTableRecord
  2
SW_NOTE_11
340
0
102
{BLKREFS
331
463
102
}
1001
ACAD
1000
DesignCenter Data
1002
{
1070
     1
1070
     0
1002
}
  0
ENDTAB
  0
ENDSEC
  0
SECTION
  2
BLOCKS
  0
BLOCK
  5
20
330
1F
100
AcDbEntity
  8
0
100
AcDbBlockBegin
  2
*Model_Space
 70
     0
 71
     0
 10
0.0
 20
0.0
 30
0.0
  3
*Model_Space
  1

  0
ENDBLK
  5
21
330
1F
100
AcDbEntity
  8
0
100
AcDbBlockEnd
  0
BLOCK
  5
1C
330
1B
100
AcDbEntity
 67
     1
  8
0
100
AcDbBlockBegin
  2
*Paper_Space
 70
     0
 71
     0
 10
0.0
 20
0.0
 30
0.0
  3
*Paper_Space
  1

  0
ENDBLK
  5
1D
330
1B
100
AcDbEntity
 67
     1
  8
0
100
AcDbBlockEnd
  0
BLOCK
  5
24
330
23
100
AcDbEntity
  8
0
100
AcDbBlockBegin
  2
*Paper_Space0
 70
     0
 71
     0
 10
0.0
 20
0.0
 30
0.0
  3
*Paper_Space0
  1

  0
ENDBLK
  5
25
330
23
100
AcDbEntity
  8
0
100
AcDbBlockEnd
  0
BLOCK
  5
67
330
66
100
AcDbEntity
  8
0
100
AcDbBlockBegin
  2
SW_NOTE_0
 70
     0
 71
     0
 10
0.0
 20
0.0
 30
0.0
  3
SW_NOTE_0
  1

  0
MTEXT
  5
6A
330
66
100
AcDbEntity
  8
0
  6
Continuous
 62
     0
370
     0
100
AcDbMText
 10
0.0
 20
0.076640625
 30
0.0
 40
0.06
 41
0.0
 71
     1
 72
     1
  1
THE INFORMATION CONTAINED IN THIS
  7
SLDTEXTSTYLE4
 73
     1
 44
1.0
  0
MTEXT
  5
6C
330
66
100
AcDbEntity
  8
0
  6
Continuous
 62
     0
370
     0
100
AcDbMText
 10
0.0
 20
-0.0227294496
 30
0.0
 40
0.06
 41
0.0
 71
     1
 72
     1
  1
DRAWING IS THE SOLE PROPERTY OF
  7
SLDTEXTSTYLE5
 73
     1
 44
1.0
  0
MTEXT
  5
6E
330
66
100
AcDbEntity
  8
0
  6
Continuous
 62
     0
370
     0
100
AcDbMText
 10
0.0
 20
-0.1220995241
 30
0.0
 40
0.06
 41
0.0
 71
     1
 72
     1
  1
THORLABS, INC.  ANY REPRODUCTION 
  7
SLDTEXTSTYLE6
 73
     1
 44
1.0
  0
MTEXT
  5
70
330
66
100
AcDbEntity
  8
0
  6
Continuous
 62
     0
370
     0
100
AcDbMText
 10
0.0
 20
-0.2214695987
 30
0.0
 40
0.06
 41
0.0
 71
     1
 72
     1
  1
IN PART OR AS A WHOLE WITHOUT
  7
SLDTEXTSTYLE7
 73
     1
 44
1.0
  0
MTEXT
  5
72
330
66
100
AcDbEntity
  8
0
  6
Continuous
 62
     0
370
     0
100
AcDbMText
 10
0.0
 20
-0.3208396733
 30
0.0
 40
0.06
 41
0.0
 71
     1
 72
     1
  1
THE WRITTEN PERMISSION OF
  7
SLDTEXTSTYLE8
 73
     1
 44
1.0
  0
MTEXT
  5
74
330
66
100
AcDbEntity
  8
0
  6
Continuous
 62
     0
370
     0
100
AcDbMText
 10
0.0
 20
-0.4202097478
 30
0.0
 40
0.06
 41
0.0
 71
     1
 72
     1
  1
THORLABS, INC. IS PROHIBITED.
  7
SLDTEXTSTYLE9
 73
     1
 44
1.0
  0
ENDBLK
  5
68
330
66
100
AcDbEntity
  8
0
100
AcDbBlockEnd
  0
BLOCK
  5
80
330
7F
100
AcDbEntity
  8
0
100
AcDbBlockBegin
  2
SW_NOTE_1
 70
     0
 71
     0
 10
0.0
 20
0.0
 30
0.0
  3
SW_NOTE_1
  1

  0
MTEXT
  5
83
330
7F
100
AcDbEntity
  8
0
  6
Continuous
 62
     0
370
     0
100
AcDbMText
 10
0.0
 20
0.1330566406
 30
0.0
 40
0.1041666667
 41
0.0
 71
     1
 72
     1
  1
PO BOX 366
  7
SLDTEXTSTYLE10
 73
     1
 44
1.0
  0
MTEXT
  5
84
330
7F
100
AcDbEntity
  8
0
  6
Continuous
 62
     0
370
     0
100
AcDbMText
 10
0.0
 20
-0.0058322466
 30
0.0
 40
0.1041666667
 41
0.0
 71
     1
 72
     1
  1
NEWTON NJ
  7
SLDTEXTSTYLE0
 73
     1
 44
1.0
  0
ENDBLK
  5
81
330
7F
100
AcDbEntity
  8
0
100
AcDbBlockEnd
  0
BLOCK
  5
87
330
86
100
AcDbEntity
  8
0
100
AcDbBlockBegin
  2
SW_NOTE_2
 70
     0
 71
     0
 10
0.0
 20
0.0
 30
0.0
  3
SW_NOTE_2
  1

  0
MTEXT
  5
8A
330
86
100
AcDbEntity
  8
0
  6
Continuous
 62
     0
370
     0
100
AcDbMText
 10
0.0
 20
0.1330566406
 30
0.0
 40
0.1041666667
 41
0.0
 71
     1
 72
     1
  1
MATCHED ACHROMATIC PAIR
  7
SLDTEXTSTYLE11
 73
     1
 44
1.0
  0
MTEXT
  5
8B
330
86
100
AcDbEntity
  8
0
  6
Continuous
 62
     0
370
     0
100
AcDbMText
 10
0.3201197686
 20
-0.0058322466
 30
0.0
 40
0.1041666667
 41
0.0
 71
     1
 72
     1
  1
F1=40mm, F2=75mm
  7
SLDTEXTSTYLE0
 73
     1
 44
1.0
  0
ENDBLK
  5
88
330
86
100
AcDbEntity
  8
0
100
AcDbBlockEnd
  0
BLOCK
  5
8F
330
8E
100
AcDbEntity
  8
0
100
AcDbBlockBegin
  2
SW_NOTE_3
 70
     0
 71
     0
 10
0.0
 20
0.0
 30
0.0
  3
SW_NOTE_3
  1

  0
MTEXT
  5
91
330
8E
100
AcDbEntity
  8
0
  6
Continuous
 62
     0
370
     0
100
AcDbMText
 10
0.0
 20
0.1149609375
 30
0.0
 40
0.09
 41
0.0
 71
     1
 72
     1
  1
NOTE:
  7
SLDTEXTSTYLE0
 73
     1
 44
1.0
  0
MTEXT
  5
93
330
8E
100
AcDbEntity
  8
0
  6
Continuous
 62
     0
370
     0
100
AcDbMText
 10
0.0
 20
-0.0144091455
 30
0.0
 40
0.09
 41
0.0
 71
     1
 72
     1
  1
FOR INFORMATION ONLY.  NOT INTENDED FOR MANUFACTURING.
  7
SLDTEXTSTYLE12
 73
     1
 44
1.0
  0
ENDBLK
  5
90
330
8E
100
AcDbEntity
  8
0
100
AcDbBlockEnd
  0
BLOCK
  5
97
330
96
100
AcDbEntity
  8
0
100
AcDbBlockBegin
  2
SW_NOTE_4
 70
     0
 71
     0
 10
0.0
 20
0.0
 30
0.0
  3
SW_NOTE_4
  1

  0
LINE
  5
99
330
96
100
AcDbEntity
  8
0
  6
Continuous
 62
     0
370
     0
100
AcDbLine
 10
1.0817708433
 20
-0.6526041506
 30
0.0
 11
1.4039930543
 21
-0.6526041506
 31
0.0
  0
MTEXT
  5
9B
330
96
100
AcDbEntity
  8
0
  6
Continuous
 62
     0
370
     0
100
AcDbMText
 10
0.0
 20
0.1197509766
 30
0.0
 40
0.09375
 41
0.0
 71
     1
 72
     1
  1
DESIGN WAVELENGTH:  486.1, 587.6 & 656.3nm
  7
SLDTEXTSTYLE13
 73
     1
 44
1.0
  0
MTEXT
  5
9D
330
96
100
AcDbEntity
  8
0
  6
Continuous
 62
     0
370
     0
100
AcDbMText
 10
0.0
 20
-0.0052490219
 30
0.0
 40
0.09375
 41
0.0
 71
     1
 72
     1
  1
COATING:  BBAR 400-700nm
  7
SLDTEXTSTYLE14
 73
     1
 44
1.0
  0
MTEXT
  5
9F
330
96
100
AcDbEntity
  8
0
  6
Continuous
 62
     0
370
     0
100
AcDbMText
 10
0.0
 20
-0.1302490204
 30
0.0
 40
0.09375
 41
0.0
 71
     1
 72
     1
  1
COATING RANGE: R(AVG)<0.5% FROM 400-700nm
  7
SLDTEXTSTYLE15
 73
     1
 44
1.0
  0
MTEXT
  5
A0
330
96
100
AcDbEntity
  8
0
  6
Continuous
 62
     0
370
     0
100
AcDbMText
 10
0.0
 20
-0.2552490189
 30
0.0
 40
0.09375
 41
0.0
 71
     1
 72
     1
  1
MAGNIFICATION: 1:1.25
  7
SLDTEXTSTYLE0
 73
     1
 44
1.0
  0
MTEXT
  5
A2
330
96
100
AcDbEntity
  8
0
  6
Continuous
 62
     0
370
     0
100
AcDbMText
 10
0.0
 20
-0.6091552547
 30
0.0
 40
0.09375
 41
0.0
 71
     1
 72
     1
  1
Dimensions are in 
  7
SLDTEXTSTYLE16
 73
     1
 44
1.0
  0
MTEXT
  5
A3
330
96
100
AcDbEntity
  8
0
  6
Continuous
 62
     0
370
     0
100
AcDbMText
 10
1.0817708433
 20
-0.5052490159
 30
0.0
 40
0.09375
 41
0.0
 71
     1
 72
     1
  1
[mm]
  7
SLDTEXTSTYLE0
 73
     1
 44
1.0
  0
MTEXT
  5
A4
330
96
100
AcDbEntity
  8
0
  6
Continuous
 62
     0
370
     0
100
AcDbMText
 10
1.1922743109
 20
-0.6854573399
 30
0.0
 40
0.09375
 41
0.0
 71
     1
 72
     1
  1
in
  7
SLDTEXTSTYLE0
 73
     1
 44
1.0
  0
ENDBLK
  5
98
330
96
100
AcDbEntity
  8
0
100
AcDbBlockEnd
  0
BLOCK
  5
A7
330
A6
100
AcDbEntity
  8
0
100
AcDbBlockBegin
  2
SW_TABLEANNOTATION_0
 70
     0
 71
     0
 10
0.0
 20
0.0
 30
0.0
  3
SW_TABLEANNOTATION_0
  1

  0
LINE
  5
A9
330
A6
100
AcDbEntity
  8
0
  6
Continuous
 62
     0
370
     0
100
AcDbLine
 10
0.0
 20
0.0
 30
0.0
 11
0.0
 21
-1.0877351438
 31
0.0
  0
LINE
  5
AA
330
A6
100
AcDbEntity
  8
0
  6
Continuous
 62
     0
370
     0
100
AcDbLine
 10
0.0
 20
-1.0877351438
 30
0.0
 11
5.3007222216
 21
-1.0877351438
 31
0.0
  0
LINE
  5
AB
330
A6
100
AcDbEntity
  8
0
  6
Continuous
 62
     0
370
     0
100
AcDbLine
 10
5.3007222216
 20
-1.0877351438
 30
0.0
 11
5.3007222216
 21
0.0
 31
0.0
  0
LINE
  5
AC
330
A6
100
AcDbEntity
  8
0
  6
Continuous
 62
     0
370
     0
100
AcDbLine
 10
5.3007222216
 20
0.0
 30
0.0
 11
0.0
 21
0.0
 31
0.0
  0
LINE
  5
AD
330
A6
100
AcDbEntity
  8
0
  6
Continuous
 62
     0
370
     0
100
AcDbLine
 10
1.7669074072
 20
0.0
 30
0.0
 11
1.7669074072
 21
-1.0877351438
 31
0.0
  0
LINE
  5
AE
330
A6
100
AcDbEntity
  8
0
  6
Continuous
 62
     0
370
     0
100
AcDbLine
 10
3.5338148144
 20
0.0
 30
0.0
 11
3.5338148144
 21
-1.0877351438
 31
0.0
  0
LINE
  5
AF
330
A6
100
AcDbEntity
  8
0
  6
Continuous
 62
     0
370
     0
100
AcDbLine
 10
0.0
 20
-0.2175470288
 30
0.0
 11
5.3007222216
 21
-0.2175470288
 31
0.0
  0
LINE
  5
B0
330
A6
100
AcDbEntity
  8
0
  6
Continuous
 62
     0
370
     0
100
AcDbLine
 10
0.0
 20
-0.4350940575
 30
0.0
 11
5.3007222216
 21
-0.4350940575
 31
0.0
  0
LINE
  5
B1
330
A6
100
AcDbEntity
  8
0
  6
Continuous
 62
     0
370
     0
100
AcDbLine
 10
0.0
 20
-0.6526410863
 30
0.0
 11
5.3007222216
 21
-0.6526410863
 31
0.0
  0
LINE
  5
B2
330
A6
100
AcDbEntity
  8
0
  6
Continuous
 62
     0
370
     0
100
AcDbLine
 10
0.0
 20
-0.870188115
 30
0.0
 11
5.3007222216
 21
-0.870188115
 31
0.0
  0
MTEXT
  5
B3
330
A6
100
AcDbEntity
  8
0
  6
Continuous
 62
     0
370
     0
100
AcDbMText
 10
0.6662347763
 20
-0.0391846857
 30
0.0
 40
0.1377952756
 41
0.0
 71
     1
 72
     1
  1
PART
  7
SLDTEXTSTYLE0
 73
     1
 44
1.0
  0
MTEXT
  5
B4
330
A6
100
AcDbEntity
  8
0
  6
Continuous
 62
     0
370
     0
100
AcDbMText
 10
2.2344873384
 20
-0.0391846857
 30
0.0
 40
0.1377952756
 41
0.0
 71
     1
 72
     1
  1
PART NO.
  7
SLDTEXTSTYLE0
 73
     1
 44
1.0
  0
MTEXT
  5
B5
330
A6
100
AcDbEntity
  8
0
  6
Continuous
 62
     0
370
     0
100
AcDbMText
 10
3.9896246982
 20
-0.0391846857
 30
0.0
 40
0.1377952756
 41
0.0
 71
     1
 72
     1
  1
MATERIAL
  7
SLDTEXTSTYLE0
 73
     1
 44
1.0
  0
MTEXT
  5
B6
330
A6
100
AcDbEntity
  8
0
  6
Continuous
 62
     0
370
     0
100
AcDbMText
 10
0.8155129793
 20
-0.2567317144
 30
0.0
 40
0.1377952756
 41
0.0
 71
     1
 72
     1
  1
A
  7
SLDTEXTSTYLE0
 73
     1
 44
1.0
  0
MTEXT
  5
B7
330
A6
100
AcDbEntity
  8
0
  6
Continuous
 62
     0
370
     0
100
AcDbMText
 10
2.0224357113
 20
-0.2567317144
 30
0.0
 40
0.1377952756
 41
0.0
 71
     1
 72
     1
  1
AC254-040-A1
  7
SLDTEXTSTYLE0
 73
     1
 44
1.0
  0
MTEXT
  5
B8
330
A6
100
AcDbEntity
  8
0
  6
Continuous
 62
     0
370
     0
100
AcDbMText
 10
4.0877081451
 20
-0.2567317144
 30
0.0
 40
0.1377952756
 41
0.0
 71
     1
 72
     1
  1
BK7-SF5
  7
SLDTEXTSTYLE0
 73
     1
 44
1.0
  0
MTEXT
  5
B9
330
A6
100
AcDbEntity
  8
0
  6
Continuous
 62
     0
370
     0
100
AcDbMText
 10
0.8307278706
 20
-0.4742787432
 30
0.0
 40
0.1377952756
 41
0.0
 71
     1
 72
     1
  1
B
  7
SLDTEXTSTYLE0
 73
     1
 44
1.0
  0
MTEXT
  5
BA
330
A6
100
AcDbEntity
  8
0
  6
Continuous
 62
     0
370
     0
100
AcDbMText
 10
2.0224357113
 20
-0.4742787432
 30
0.0
 40
0.1377952756
 41
0.0
 71
     1
 72
     1
  1
AC254-075-A1
  7
SLDTEXTSTYLE0
 73
     1
 44
1.0
  0
MTEXT
  5
BB
330
A6
100
AcDbEntity
  8
0
  6
Continuous
 62
     0
370
     0
100
AcDbMText
 10
4.0877081451
 20
-0.4742787432
 30
0.0
 40
0.1377952756
 41
0.0
 71
     1
 72
     1
  1
BK7-SF5
  7
SLDTEXTSTYLE0
 73
     1
 44
1.0
  0
MTEXT
  5
BC
330
A6
100
AcDbEntity
  8
0
  6
Continuous
 62
     0
370
     0
100
AcDbMText
 10
0.8088145975
 20
-0.691825772
 30
0.0
 40
0.1377952756
 41
0.0
 71
     1
 72
     1
  1
C
  7
SLDTEXTSTYLE0
 73
     1
 44
1.0
  0
MTEXT
  5
BD
330
A6
100
AcDbEntity
  8
0
  6
Continuous
 62
     0
370
     0
100
AcDbMText
 10
2.088079873
 20
-0.691825772
 30
0.0
 40
0.1377952756
 41
0.0
 71
     1
 72
     1
  1
LENS MOUNT
  7
SLDTEXTSTYLE0
 73
     1
 44
1.0
  0
MTEXT
  5
BE
330
A6
100
AcDbEntity
  8
0
  6
Continuous
 62
     0
370
     0
100
AcDbMText
 10
3.5793966839
 20
-0.691825772
 30
0.0
 40
0.1377952756
 41
0.0
 71
     1
 72
     1
  1
6061-T6 ALUMINUM
  7
SLDTEXTSTYLE0
 73
     1
 44
1.0
  0
MTEXT
  5
BF
330
A6
100
AcDbEntity
  8
0
  6
Continuous
 62
     0
370
     0
100
AcDbMText
 10
0.8151302112
 20
-0.9093728007
 30
0.0
 40
0.1377952756
 41
0.0
 71
     1
 72
     1
  1
D
  7
SLDTEXTSTYLE0
 73
     1
 44
1.0
  0
MTEXT
  5
C0
330
A6
100
AcDbEntity
  8
0
  6
Continuous
 62
     0
370
     0
100
AcDbMText
 10
2.3577375412
 20
-0.9093728007
 30
0.0
 40
0.1377952756
 41
0.0
 71
     1
 72
     1
  1
SM1RR
  7
SLDTEXTSTYLE0
 73
     1
 44
1.0
  0
MTEXT
  5
C1
330
A6
100
AcDbEntity
  8
0
  6
Continuous
 62
     0
370
     0
100
AcDbMText
 10
3.5793966839
 20
-0.9093728007
 30
0.0
 40
0.1377952756
 41
0.0
 71
     1
 72
     1
  1
6061-T6 ALUMINUM
  7
SLDTEXTSTYLE0
 73
     1
 44
1.0
  0
ENDBLK
  5
A8
330
A6
100
AcDbEntity
  8
0
100
AcDbBlockEnd
  0
BLOCK
  5
D8
330
D7
100
AcDbEntity
  8
0
100
AcDbBlockBegin
  2
*D7
 70
     1
 71
     0
 10
0.0
 20
0.0
 30
0.0
  3
*D7
  1

  0
SOLID
  5
DA
330
D7
100
AcDbEntity
  8
0
  6
Continuous
 62
     7
370
     0
100
AcDbTrace
 10
2.2376828941
 20
4.7820125019
 30
0.0
 11
2.3380905114
 21
4.9042021512
 31
0.0
 12
2.2930339971
 22
4.9301619379
 32
0.0
 13
2.2930339971
 23
4.9301619379
 33
0.0
  0
LINE
  5
DB
330
D7
100
AcDbEntity
  8
0
  6
Continuous
 62
     7
370
     0
100
AcDbLine
 10
2.7081104485
 20
5.1215240116
 30
0.0
 11
2.7081104485
 21
4.9808810933
 31
0.0
  0
LINE
  5
DC
330
D7
100
AcDbEntity
  8
0
  6
Continuous
 62
     7
370
     0
100
AcDbLine
 10
2.7081104485
 20
4.9808810933
 30
0.0
 11
2.7292116158
 21
4.9808810933
 31
0.0
  0
LINE
  5
DD
330
D7
100
AcDbEntity
  8
0
  6
Continuous
 62
     7
370
     0
100
AcDbLine
 10
2.7081104485
 20
5.1215240116
 30
0.0
 11
2.7292116158
 21
5.1215240116
 31
0.0
  0
LINE
  5
DE
330
D7
100
AcDbEntity
  8
0
  6
Continuous
 62
     7
370
     0
100
AcDbLine
 10
3.138719787
 20
5.1215240116
 30
0.0
 11
3.138719787
 21
4.9808810933
 31
0.0
  0
LINE
  5
DF
330
D7
100
AcDbEntity
  8
0
  6
Continuous
 62
     7
370
     0
100
AcDbLine
 10
3.138719787
 20
4.9808810933
 30
0.0
 11
3.1176186197
 21
4.9808810933
 31
0.0
  0
LINE
  5
E0
330
D7
100
AcDbEntity
  8
0
  6
Continuous
 62
     7
370
     0
100
AcDbLine
 10
3.138719787
 20
5.1215240116
 30
0.0
 11
3.1176186197
 21
5.1215240116
 31
0.0
  0
LINE
  5
E1
330
D7
100
AcDbEntity
  8
0
  6
Continuous
 62
     7
370
     0
100
AcDbLine
 10
2.2376828941
 20
4.7820125019
 30
0.0
 11
2.3451131722
 21
4.9684714241
 31
0.0
  0
LINE
  5
E2
330
D7
100
AcDbEntity
  8
0
  6
Continuous
 62
     7
370
     0
100
AcDbLine
 10
2.3451131722
 20
4.9684714241
 30
0.0
 11
2.5951131722
 21
4.9684714241
 31
0.0
  0
MTEXT
  5
E3
330
D7
100
AcDbEntity
  8
0
  6
Continuous
 62
     7
370
     0
100
AcDbMText
 10
2.7143462072
 20
4.9360658056
 30
0.0
 40
0.1041666667
 41
0.0
 71
     1
 72
     1
  1
%%c
  7
SLDTEXTSTYLE0
 73
     1
 44
1.0
  0
MTEXT
  5
E4
330
D7
100
AcDbEntity
  8
0
  6
Continuous
 62
     7
370
     0
100
AcDbMText
 10
2.8632622383
 20
4.9360658056
 30
0.0
 40
0.1041666667
 41
0.0
 71
     1
 72
     1
  1
1.20
  7
SLDTEXTSTYLE0
 73
     1
 44
1.0
  0
MTEXT
  5
E5
330
D7
100
AcDbEntity
  8
0
  6
Continuous
 62
     7
370
     0
100
AcDbMText
 10
2.7503127831
 20
5.1015280624
 30
0.0
 40
0.1041666667
 41
0.0
 71
     1
 72
     1
  1
30.48
  7
SLDTEXTSTYLE0
 73
     1
 44
1.0
  0
ENDBLK
  5
D9
330
D7
100
AcDbEntity
  8
0
100
AcDbBlockEnd
  0
BLOCK
  5
3B1
330
3B0
100
AcDbEntity
  8
0
100
AcDbBlockBegin
  2
*D8
 70
     1
 71
     0
 10
0.0
 20
0.0
 30
0.0
  3
*D8
  1

  0
SOLID
  5
3B3
330
3B0
100
AcDbEntity
  8
0
  6
Continuous
 62
     7
370
     0
100
AcDbTrace
 10
4.1298535397
 20
5.1514100773
 30
0.0
 11
4.2858535397
 21
5.1254100773
 31
0.0
 12
4.2858535397
 22
5.1774100773
 32
0.0
 13
4.2858535397
 23
5.1774100773
 33
0.0
  0
SOLID
  5
3B4
330
3B0
100
AcDbEntity
  8
0
  6
Continuous
 62
     7
370
     0
100
AcDbTrace
 10
6.975841779
 20
5.1514100773
 30
0.0
 11
6.819841779
 21
5.1774100773
 31
0.0
 12
6.819841779
 22
5.1254100773
 32
0.0
 13
6.819841779
 23
5.1254100773
 33
0.0
  0
LINE
  5
3B5
330
3B0
100
AcDbEntity
  8
0
  6
Continuous
 62
     7
370
     0
100
AcDbLine
 10
5.3280433547
 20
5.3044626649
 30
0.0
 11
5.3280433547
 21
5.1638197466
 31
0.0
  0
LINE
  5
3B6
330
3B0
100
AcDbEntity
  8
0
  6
Continuous
 62
     7
370
     0
100
AcDbLine
 10
5.3280433547
 20
5.1638197466
 30
0.0
 11
5.349144522
 21
5.1638197466
 31
0.0
  0
LINE
  5
3B7
330
3B0
100
AcDbEntity
  8
0
  6
Continuous
 62
     7
370
     0
100
AcDbLine
 10
5.3280433547
 20
5.3044626649
 30
0.0
 11
5.349144522
 21
5.3044626649
 31
0.0
  0
LINE
  5
3B8
330
3B0
100
AcDbEntity
  8
0
  6
Continuous
 62
     7
370
     0
100
AcDbLine
 10
5.7586526932
 20
5.3044626649
 30
0.0
 11
5.7586526932
 21
5.1638197466
 31
0.0
  0
LINE
  5
3B9
330
3B0
100
AcDbEntity
  8
0
  6
Continuous
 62
     7
370
     0
100
AcDbLine
 10
5.7586526932
 20
5.1638197466
 30
0.0
 11
5.7375515259
 21
5.1638197466
 31
0.0
  0
LINE
  5
3BA
330
3B0
100
AcDbEntity
  8
0
  6
Continuous
 62
     7
370
     0
100
AcDbLine
 10
5.7586526932
 20
5.3044626649
 30
0.0
 11
5.7375515259
 21
5.3044626649
 31
0.0
  0
LINE
  5
3BB
330
3B0
100
AcDbEntity
  8
0
  6
Continuous
 62
     7
370
     0
100
AcDbLine
 10
4.1298535397
 20
4.3121296455
 30
0.0
 11
4.1298535397
 21
5.2764100773
 31
0.0
  0
LINE
  5
3BC
330
3B0
100
AcDbEntity
  8
0
  6
Continuous
 62
     7
370
     0
100
AcDbLine
 10
6.975841779
 20
4.3121296455
 30
0.0
 11
6.975841779
 21
5.2764100773
 31
0.0
  0
LINE
  5
3BD
330
3B0
100
AcDbEntity
  8
0
  6
Continuous
 62
     7
370
     0
100
AcDbLine
 10
4.1298535397
 20
5.1514100773
 30
0.0
 11
5.2022034714
 21
5.1514100773
 31
0.0
  0
LINE
  5
3BE
330
3B0
100
AcDbEntity
  8
0
  6
Continuous
 62
     7
370
     0
100
AcDbLine
 10
6.975841779
 20
5.1514100773
 30
0.0
 11
5.8844925764
 21
5.1514100773
 31
0.0
  0
MTEXT
  5
3BF
330
3B0
100
AcDbEntity
  8
0
  6
Continuous
 62
     7
370
     0
100
AcDbMText
 10
5.408737129
 20
5.1190044588
 30
0.0
 40
0.1041666667
 41
0.0
 71
     1
 72
     1
  1
2.85
  7
SLDTEXTSTYLE0
 73
     1
 44
1.0
  0
MTEXT
  5
3C0
330
3B0
100
AcDbEntity
  8
0
  6
Continuous
 62
     7
370
     0
100
AcDbMText
 10
5.3702456893
 20
5.2844667156
 30
0.0
 40
0.1041666667
 41
0.0
 71
     1
 72
     1
  1
72.29
  7
SLDTEXTSTYLE0
 73
     1
 44
1.0
  0
ENDBLK
  5
3B2
330
3B0
100
AcDbEntity
  8
0
100
AcDbBlockEnd
  0
BLOCK
  5
3C3
330
3C2
100
AcDbEntity
  8
0
100
AcDbBlockBegin
  2
*D9
 70
     1
 71
     0
 10
0.0
 20
0.0
 30
0.0
  3
*D9
  1

  0
SOLID
  5
3C5
330
3C2
100
AcDbEntity
  8
0
  6
Continuous
 62
     7
370
     0
100
AcDbTrace
 10
4.1298535397
 20
3.0321280929
 30
0.0
 11
4.2858535397
 21
3.0061280929
 31
0.0
 12
4.2858535397
 22
3.0581280929
 32
0.0
 13
4.2858535397
 23
3.0581280929
 33
0.0
  0
SOLID
  5
3C6
330
3C2
100
AcDbEntity
  8
0
  6
Continuous
 62
     7
370
     0
100
AcDbTrace
 10
6.7693596026
 20
3.0321280929
 30
0.0
 11
6.6133596026
 21
3.0581280929
 31
0.0
 12
6.6133596026
 22
3.0061280929
 32
0.0
 13
6.6133596026
 23
3.0061280929
 33
0.0
  0
LINE
  5
3C7
330
3C2
100
AcDbEntity
  8
0
  6
Continuous
 62
     7
370
     0
100
AcDbLine
 10
5.3240564164
 20
3.1851806805
 30
0.0
 11
5.3240564164
 21
3.0445377622
 31
0.0
  0
LINE
  5
3C8
330
3C2
100
AcDbEntity
  8
0
  6
Continuous
 62
     7
370
     0
100
AcDbLine
 10
5.3240564164
 20
3.0445377622
 30
0.0
 11
5.3451575837
 21
3.0445377622
 31
0.0
  0
LINE
  5
3C9
330
3C2
100
AcDbEntity
  8
0
  6
Continuous
 62
     7
370
     0
100
AcDbLine
 10
5.3240564164
 20
3.1851806805
 30
0.0
 11
5.3451575837
 21
3.1851806805
 31
0.0
  0
LINE
  5
3CA
330
3C2
100
AcDbEntity
  8
0
  6
Continuous
 62
     7
370
     0
100
AcDbLine
 10
5.7546657549
 20
3.1851806805
 30
0.0
 11
5.7546657549
 21
3.0445377622
 31
0.0
  0
LINE
  5
3CB
330
3C2
100
AcDbEntity
  8
0
  6
Continuous
 62
     7
370
     0
100
AcDbLine
 10
5.7546657549
 20
3.0445377622
 30
0.0
 11
5.7335645876
 21
3.0445377622
 31
0.0
  0
LINE
  5
3CC
330
3C2
100
AcDbEntity
  8
0
  6
Continuous
 62
     7
370
     0
100
AcDbLine
 10
5.7546657549
 20
3.1851806805
 30
0.0
 11
5.7335645876
 21
3.1851806805
 31
0.0
  0
LINE
  5
3CD
330
3C2
100
AcDbEntity
  8
0
  6
Continuous
 62
     7
370
     0
100
AcDbLine
 10
4.1298535397
 20
4.2121296455
 30
0.0
 11
4.1298535397
 21
2.9071280929
 31
0.0
  0
LINE
  5
3CE
330
3C2
100
AcDbEntity
  8
0
  6
Continuous
 62
     7
370
     0
100
AcDbLine
 10
6.7693596026
 20
3.6221296455
 30
0.0
 11
6.7693596026
 21
2.9071280929
 31
0.0
  0
LINE
  5
3CF
330
3C2
100
AcDbEntity
  8
0
  6
Continuous
 62
     7
370
     0
100
AcDbLine
 10
4.1298535397
 20
3.0321280929
 30
0.0
 11
5.1982165331
 21
3.0321280929
 31
0.0
  0
LINE
  5
3D0
330
3C2
100
AcDbEntity
  8
0
  6
Continuous
 62
     7
370
     0
100
AcDbLine
 10
6.7693596026
 20
3.0321280929
 30
0.0
 11
5.8805056382
 21
3.0321280929
 31
0.0
  0
MTEXT
  5
3D1
330
3C2
100
AcDbEntity
  8
0
  6
Continuous
 62
     7
370
     0
100
AcDbMText
 10
5.4047501907
 20
2.9997224744
 30
0.0
 40
0.1041666667
 41
0.0
 71
     1
 72
     1
  1
2.64
  7
SLDTEXTSTYLE0
 73
     1
 44
1.0
  0
MTEXT
  5
3D2
330
3C2
100
AcDbEntity
  8
0
  6
Continuous
 62
     7
370
     0
100
AcDbMText
 10
5.366258751
 20
3.1651847312
 30
0.0
 40
0.1041666667
 41
0.0
 71
     1
 72
     1
  1
67.04
  7
SLDTEXTSTYLE0
 73
     1
 44
1.0
  0
ENDBLK
  5
3C4
330
3C2
100
AcDbEntity
  8
0
100
AcDbBlockEnd
  0
BLOCK
  5
3D5
330
3D4
100
AcDbEntity
  8
0
100
AcDbBlockBegin
  2
*D10
 70
     1
 71
     0
 10
0.0
 20
0.0
 30
0.0
  3
*D10
  1

  0
SOLID
  5
3D7
330
3D4
100
AcDbEntity
  8
0
  6
Continuous
 62
     7
370
     0
100
AcDbTrace
 10
9.296135916
 20
3.0321280929
 30
0.0
 11
9.140135916
 21
3.0581280929
 31
0.0
 12
9.140135916
 22
3.0061280929
 32
0.0
 13
9.140135916
 23
3.0061280929
 33
0.0
  0
SOLID
  5
3D8
330
3D4
100
AcDbEntity
  8
0
  6
Continuous
 62
     7
370
     0
100
AcDbTrace
 10
8.1871580026
 20
3.0321280929
 30
0.0
 11
8.3431580026
 21
3.0061280929
 31
0.0
 12
8.3431580026
 22
3.0581280929
 32
0.0
 13
8.3431580026
 23
3.0581280929
 33
0.0
  0
LINE
  5
3D9
330
3D4
100
AcDbEntity
  8
0
  6
Continuous
 62
     7
370
     0
100
AcDbLine
 10
8.4575457742
 20
3.1851806805
 30
0.0
 11
8.4575457742
 21
3.0445377622
 31
0.0
  0
LINE
  5
3DA
330
3D4
100
AcDbEntity
  8
0
  6
Continuous
 62
     7
370
     0
100
AcDbLine
 10
8.4575457742
 20
3.0445377622
 30
0.0
 11
8.4786469415
 21
3.0445377622
 31
0.0
  0
LINE
  5
3DB
330
3D4
100
AcDbEntity
  8
0
  6
Continuous
 62
     7
370
     0
100
AcDbLine
 10
8.4575457742
 20
3.1851806805
 30
0.0
 11
8.4786469415
 21
3.1851806805
 31
0.0
  0
LINE
  5
3DC
330
3D4
100
AcDbEntity
  8
0
  6
Continuous
 62
     7
370
     0
100
AcDbLine
 10
8.8881551127
 20
3.1851806805
 30
0.0
 11
8.8881551127
 21
3.0445377622
 31
0.0
  0
LINE
  5
3DD
330
3D4
100
AcDbEntity
  8
0
  6
Continuous
 62
     7
370
     0
100
AcDbLine
 10
8.8881551127
 20
3.0445377622
 30
0.0
 11
8.8670539454
 21
3.0445377622
 31
0.0
  0
LINE
  5
3DE
330
3D4
100
AcDbEntity
  8
0
  6
Continuous
 62
     7
370
     0
100
AcDbLine
 10
8.8881551127
 20
3.1851806805
 30
0.0
 11
8.8670539454
 21
3.1851806805
 31
0.0
  0
LINE
  5
3DF
330
3D4
100
AcDbEntity
  8
0
  6
Continuous
 62
     7
370
     0
100
AcDbLine
 10
9.296135916
 20
4.2121296455
 30
0.0
 11
9.296135916
 21
2.9071280929
 31
0.0
  0
LINE
  5
3E0
330
3D4
100
AcDbEntity
  8
0
  6
Continuous
 62
     7
370
     0
100
AcDbLine
 10
8.1871580026
 20
3.6221296455
 30
0.0
 11
8.1871580026
 21
2.9071280929
 31
0.0
  0
LINE
  5
3E1
330
3D4
100
AcDbEntity
  8
0
  6
Continuous
 62
     7
370
     0
100
AcDbLine
 10
9.296135916
 20
3.0321280929
 30
0.0
 11
9.013994996
 21
3.0321280929
 31
0.0
  0
LINE
  5
3E2
330
3D4
100
AcDbEntity
  8
0
  6
Continuous
 62
     7
370
     0
100
AcDbLine
 10
8.1871580026
 20
3.0321280929
 30
0.0
 11
8.3317058909
 21
3.0321280929
 31
0.0
  0
MTEXT
  5
3E3
330
3D4
100
AcDbEntity
  8
0
  6
Continuous
 62
     7
370
     0
100
AcDbMText
 10
8.5382395485
 20
2.9997224744
 30
0.0
 40
0.1041666667
 41
0.0
 71
     1
 72
     1
  1
1.11
  7
SLDTEXTSTYLE0
 73
     1
 44
1.0
  0
MTEXT
  5
3E4
330
3D4
100
AcDbEntity
  8
0
  6
Continuous
 62
     7
370
     0
100
AcDbMText
 10
8.4997481088
 20
3.1651847312
 30
0.0
 40
0.1041666667
 41
0.0
 71
     1
 72
     1
  1
28.17
  7
SLDTEXTSTYLE0
 73
     1
 44
1.0
  0
ENDBLK
  5
3D6
330
3D4
100
AcDbEntity
  8
0
100
AcDbBlockEnd
  0
BLOCK
  5
3E8
330
3E7
100
AcDbEntity
  8
0
100
AcDbBlockBegin
  2
*D11
 70
     1
 71
     0
 10
0.0
 20
0.0
 30
0.0
  3
*D11
  1

  0
SOLID
  5
3EA
330
3E7
100
AcDbEntity
  8
0
  6
Continuous
 62
     7
370
     0
100
AcDbTrace
 10
9.296135916
 20
5.137857471
 30
0.0
 11
9.140135916
 21
5.163857471
 31
0.0
 12
9.140135916
 22
5.111857471
 32
0.0
 13
9.140135916
 23
5.111857471
 33
0.0
  0
SOLID
  5
3EB
330
3E7
100
AcDbEntity
  8
0
  6
Continuous
 62
     7
370
     0
100
AcDbTrace
 10
7.9989596502
 20
5.137857471
 30
0.0
 11
8.1549596502
 21
5.111857471
 31
0.0
 12
8.1549596502
 22
5.163857471
 32
0.0
 13
8.1549596502
 23
5.163857471
 33
0.0
  0
LINE
  5
3EC
330
3E7
100
AcDbEntity
  8
0
  6
Continuous
 62
     7
370
     0
100
AcDbLine
 10
8.4575457742
 20
5.2909100585
 30
0.0
 11
8.4575457742
 21
5.1502671402
 31
0.0
  0
LINE
  5
3ED
330
3E7
100
AcDbEntity
  8
0
  6
Continuous
 62
     7
370
     0
100
AcDbLine
 10
8.4575457742
 20
5.1502671402
 30
0.0
 11
8.4786469415
 21
5.1502671402
 31
0.0
  0
LINE
  5
3EE
330
3E7
100
AcDbEntity
  8
0
  6
Continuous
 62
     7
370
     0
100
AcDbLine
 10
8.4575457742
 20
5.2909100585
 30
0.0
 11
8.4786469415
 21
5.2909100585
 31
0.0
  0
LINE
  5
3EF
330
3E7
100
AcDbEntity
  8
0
  6
Continuous
 62
     7
370
     0
100
AcDbLine
 10
8.8881551127
 20
5.2909100585
 30
0.0
 11
8.8881551127
 21
5.1502671402
 31
0.0
  0
LINE
  5
3F0
330
3E7
100
AcDbEntity
  8
0
  6
Continuous
 62
     7
370
     0
100
AcDbLine
 10
8.8881551127
 20
5.1502671402
 30
0.0
 11
8.8670539454
 21
5.1502671402
 31
0.0
  0
LINE
  5
3F1
330
3E7
100
AcDbEntity
  8
0
  6
Continuous
 62
     7
370
     0
100
AcDbLine
 10
8.8881551127
 20
5.2909100585
 30
0.0
 11
8.8670539454
 21
5.2909100585
 31
0.0
  0
LINE
  5
3F2
330
3E7
100
AcDbEntity
  8
0
  6
Continuous
 62
     7
370
     0
100
AcDbLine
 10
9.296135916
 20
4.3121296455
 30
0.0
 11
9.296135916
 21
5.262857471
 31
0.0
  0
LINE
  5
3F3
330
3E7
100
AcDbEntity
  8
0
  6
Continuous
 62
     7
370
     0
100
AcDbLine
 10
7.9989596502
 20
4.3121296455
 30
0.0
 11
7.9989596502
 21
5.262857471
 31
0.0
  0
LINE
  5
3F4
330
3E7
100
AcDbEntity
  8
0
  6
Continuous
 62
     7
370
     0
100
AcDbLine
 10
9.296135916
 20
5.137857471
 30
0.0
 11
9.013994996
 21
5.137857471
 31
0.0
  0
LINE
  5
3F5
330
3E7
100
AcDbEntity
  8
0
  6
Continuous
 62
     7
370
     0
100
AcDbLine
 10
7.9989596502
 20
5.137857471
 30
0.0
 11
8.3317058909
 21
5.137857471
 31
0.0
  0
MTEXT
  5
3F6
330
3E7
100
AcDbEntity
  8
0
  6
Continuous
 62
     7
370
     0
100
AcDbMText
 10
8.5382395485
 20
5.1054518525
 30
0.0
 40
0.1041666667
 41
0.0
 71
     1
 72
     1
  1
1.30
  7
SLDTEXTSTYLE0
 73
     1
 44
1.0
  0
MTEXT
  5
3F7
330
3E7
100
AcDbEntity
  8
0
  6
Continuous
 62
     7
370
     0
100
AcDbMText
 10
8.4997481088
 20
5.2709141093
 30
0.0
 40
0.1041666667
 41
0.0
 71
     1
 72
     1
  1
32.95
  7
SLDTEXTSTYLE0
 73
     1
 44
1.0
  0
ENDBLK
  5
3E9
330
3E7
100
AcDbEntity
  8
0
100
AcDbBlockEnd
  0
BLOCK
  5
3FB
330
3FA
100
AcDbEntity
  8
0
100
AcDbBlockBegin
  2
*D12
 70
     1
 71
     0
 10
0.0
 20
0.0
 30
0.0
  3
*D12
  1

  0
SOLID
  5
3FD
330
3FA
100
AcDbEntity
  8
0
  6
Continuous
 62
     7
370
     0
100
AcDbTrace
 10
6.7693596026
 20
2.3234666756
 30
0.0
 11
6.9253596026
 21
2.2974666756
 31
0.0
 12
6.9253596026
 22
2.3494666756
 32
0.0
 13
6.9253596026
 23
2.3494666756
 33
0.0
  0
SOLID
  5
3FE
330
3FA
100
AcDbEntity
  8
0
  6
Continuous
 62
     7
370
     0
100
AcDbTrace
 10
8.1871580026
 20
2.3234666756
 30
0.0
 11
8.0311580026
 21
2.3494666756
 31
0.0
 12
8.0311580026
 22
2.2974666756
 32
0.0
 13
8.0311580026
 23
2.2974666756
 33
0.0
  0
LINE
  5
3FF
330
3FA
100
AcDbEntity
  8
0
  6
Continuous
 62
     7
370
     0
100
AcDbLine
 10
7.2659729512
 20
2.4765192631
 30
0.0
 11
7.2659729512
 21
2.3358763448
 31
0.0
  0
LINE
  5
400
330
3FA
100
AcDbEntity
  8
0
  6
Continuous
 62
     7
370
     0
100
AcDbLine
 10
7.2659729512
 20
2.3358763448
 30
0.0
 11
7.2870741185
 21
2.3358763448
 31
0.0
  0
LINE
  5
401
330
3FA
100
AcDbEntity
  8
0
  6
Continuous
 62
     7
370
     0
100
AcDbLine
 10
7.2659729512
 20
2.4765192631
 30
0.0
 11
7.2870741185
 21
2.4765192631
 31
0.0
  0
LINE
  5
402
330
3FA
100
AcDbEntity
  8
0
  6
Continuous
 62
     7
370
     0
100
AcDbLine
 10
7.6965822897
 20
2.4765192631
 30
0.0
 11
7.6965822897
 21
2.3358763448
 31
0.0
  0
LINE
  5
403
330
3FA
100
AcDbEntity
  8
0
  6
Continuous
 62
     7
370
     0
100
AcDbLine
 10
7.6965822897
 20
2.3358763448
 30
0.0
 11
7.6754811224
 21
2.3358763448
 31
0.0
  0
LINE
  5
404
330
3FA
100
AcDbEntity
  8
0
  6
Continuous
 62
     7
370
     0
100
AcDbLine
 10
7.6965822897
 20
2.4765192631
 30
0.0
 11
7.6754811224
 21
2.4765192631
 31
0.0
  0
LINE
  5
405
330
3FA
100
AcDbEntity
  8
0
  6
Continuous
 62
     7
370
     0
100
AcDbLine
 10
6.7693596026
 20
3.6221296455
 30
0.0
 11
6.7693596026
 21
2.1984666756
 31
0.0
  0
LINE
  5
406
330
3FA
100
AcDbEntity
  8
0
  6
Continuous
 62
     7
370
     0
100
AcDbLine
 10
8.1871580026
 20
3.6221296455
 30
0.0
 11
8.1871580026
 21
2.1984666756
 31
0.0
  0
LINE
  5
407
330
3FA
100
AcDbEntity
  8
0
  6
Continuous
 62
     7
370
     0
100
AcDbLine
 10
6.7693596026
 20
2.3234666756
 30
0.0
 11
7.1401330679
 21
2.3234666756
 31
0.0
  0
LINE
  5
408
330
3FA
100
AcDbEntity
  8
0
  6
Continuous
 62
     7
370
     0
100
AcDbLine
 10
8.1871580026
 20
2.3234666756
 30
0.0
 11
7.822422173
 21
2.3234666756
 31
0.0
  0
MTEXT
  5
409
330
3FA
100
AcDbEntity
  8
0
  6
Continuous
 62
     7
370
     0
100
AcDbMText
 10
7.3081752858
 20
2.2910610571
 30
0.0
 40
0.1041666667
 41
0.0
 71
     1
 72
     1
  1
1.418
  7
SLDTEXTSTYLE0
 73
     1
 44
1.0
  0
MTEXT
  5
40A
330
3FA
100
AcDbEntity
  8
0
  6
Continuous
 62
     7
370
     0
100
AcDbMText
 10
7.3081752858
 20
2.4565233139
 30
0.0
 40
0.1041666667
 41
0.0
 71
     1
 72
     1
  1
36.01
  7
SLDTEXTSTYLE0
 73
     1
 44
1.0
  0
ENDBLK
  5
3FC
330
3FA
100
AcDbEntity
  8
0
100
AcDbBlockEnd
  0
BLOCK
  5
40E
330
40D
100
AcDbEntity
  8
0
100
AcDbBlockBegin
  2
*D13
 70
     1
 71
     0
 10
0.0
 20
0.0
 30
0.0
  3
*D13
  1

  0
SOLID
  5
410
330
40D
100
AcDbEntity
  8
0
  6
Continuous
 62
     7
370
     0
100
AcDbTrace
 10
7.349857527
 20
3.2683485653
 30
0.0
 11
7.193857527
 21
3.2943485653
 31
0.0
 12
7.193857527
 22
3.2423485653
 32
0.0
 13
7.193857527
 23
3.2423485653
 33
0.0
  0
SOLID
  5
411
330
40D
100
AcDbEntity
  8
0
  6
Continuous
 62
     7
370
     0
100
AcDbTrace
 10
7.5068336659
 20
3.2683485653
 30
0.0
 11
7.6628336659
 21
3.2423485653
 31
0.0
 12
7.6628336659
 22
3.2943485653
 32
0.0
 13
7.6628336659
 23
3.2943485653
 33
0.0
  0
LINE
  5
412
330
40D
100
AcDbEntity
  8
0
  6
Continuous
 62
     7
370
     0
100
AcDbLine
 10
7.7683538013
 20
3.4214011529
 30
0.0
 11
7.7683538013
 21
3.2807582346
 31
0.0
  0
LINE
  5
413
330
40D
100
AcDbEntity
  8
0
  6
Continuous
 62
     7
370
     0
100
AcDbLine
 10
7.7683538013
 20
3.2807582346
 30
0.0
 11
7.7894549687
 21
3.2807582346
 31
0.0
  0
LINE
  5
414
330
40D
100
AcDbEntity
  8
0
  6
Continuous
 62
     7
370
     0
100
AcDbLine
 10
7.7683538013
 20
3.4214011529
 30
0.0
 11
7.7894549687
 21
3.4214011529
 31
0.0
  0
LINE
  5
415
330
40D
100
AcDbEntity
  8
0
  6
Continuous
 62
     7
370
     0
100
AcDbLine
 10
8.1219802605
 20
3.4214011529
 30
0.0
 11
8.1219802605
 21
3.2807582346
 31
0.0
  0
LINE
  5
416
330
40D
100
AcDbEntity
  8
0
  6
Continuous
 62
     7
370
     0
100
AcDbLine
 10
8.1219802605
 20
3.2807582346
 30
0.0
 11
8.1008790932
 21
3.2807582346
 31
0.0
  0
LINE
  5
417
330
40D
100
AcDbEntity
  8
0
  6
Continuous
 62
     7
370
     0
100
AcDbLine
 10
8.1219802605
 20
3.4214011529
 30
0.0
 11
8.1008790932
 21
3.4214011529
 31
0.0
  0
LINE
  5
418
330
40D
100
AcDbEntity
  8
0
  6
Continuous
 62
     7
370
     0
100
AcDbLine
 10
7.349857527
 20
4.2121296455
 30
0.0
 11
7.349857527
 21
3.1433485653
 31
0.0
  0
LINE
  5
419
330
40D
100
AcDbEntity
  8
0
  6
Continuous
 62
     7
370
     0
100
AcDbLine
 10
7.5068336659
 20
4.2121296455
 30
0.0
 11
7.5068336659
 21
3.1433485653
 31
0.0
  0
LINE
  5
41A
330
40D
100
AcDbEntity
  8
0
  6
Continuous
 62
     7
370
     0
100
AcDbLine
 10
7.349857527
 20
3.2683485653
 30
0.0
 11
6.849857527
 21
3.2683485653
 31
0.0
  0
LINE
  5
41B
330
40D
100
AcDbEntity
  8
0
  6
Continuous
 62
     7
370
     0
100
AcDbLine
 10
7.5068336659
 20
3.2683485653
 30
0.0
 11
7.6425139181
 21
3.2683485653
 31
0.0
  0
MTEXT
  5
41C
330
40D
100
AcDbEntity
  8
0
  6
Continuous
 62
     7
370
     0
100
AcDbMText
 10
7.810556136
 20
3.2359429469
 30
0.0
 40
0.1041666667
 41
0.0
 71
     1
 72
     1
  1
0.16
  7
SLDTEXTSTYLE0
 73
     1
 44
1.0
  0
MTEXT
  5
41D
330
40D
100
AcDbEntity
  8
0
  6
Continuous
 62
     7
370
     0
100
AcDbMText
 10
7.810556136
 20
3.4014052037
 30
0.0
 40
0.1041666667
 41
0.0
 71
     1
 72
     1
  1
3.99
  7
SLDTEXTSTYLE0
 73
     1
 44
1.0
  0
ENDBLK
  5
40F
330
40D
100
AcDbEntity
  8
0
100
AcDbBlockEnd
  0
BLOCK
  5
420
330
41F
100
AcDbEntity
  8
0
100
AcDbBlockBegin
  2
*D14
 70
     1
 71
     0
 10
0.0
 20
0.0
 30
0.0
  3
*D14
  1

  0
SOLID
  5
422
330
41F
100
AcDbEntity
  8
0
  6
Continuous
 62
     7
370
     0
100
AcDbTrace
 10
7.9989596502
 20
5.4921311982
 30
0.0
 11
8.1549596502
 21
5.4661311982
 31
0.0
 12
8.1549596502
 22
5.5181311982
 32
0.0
 13
8.1549596502
 23
5.5181311982
 33
0.0
  0
SOLID
  5
423
330
41F
100
AcDbEntity
  8
0
  6
Continuous
 62
     7
370
     0
100
AcDbTrace
 10
6.975841779
 20
5.4921311982
 30
0.0
 11
6.819841779
 21
5.5181311982
 31
0.0
 12
6.819841779
 22
5.4661311982
 32
0.0
 13
6.819841779
 23
5.4661311982
 33
0.0
  0
LINE
  5
424
330
41F
100
AcDbEntity
  8
0
  6
Continuous
 62
     7
370
     0
100
AcDbLine
 10
7.249356776
 20
5.6451837857
 30
0.0
 11
7.249356776
 21
5.5045408675
 31
0.0
  0
LINE
  5
425
330
41F
100
AcDbEntity
  8
0
  6
Continuous
 62
     7
370
     0
100
AcDbLine
 10
7.249356776
 20
5.5045408675
 30
0.0
 11
7.2704579433
 21
5.5045408675
 31
0.0
  0
LINE
  5
426
330
41F
100
AcDbEntity
  8
0
  6
Continuous
 62
     7
370
     0
100
AcDbLine
 10
7.249356776
 20
5.6451837857
 30
0.0
 11
7.2704579433
 21
5.6451837857
 31
0.0
  0
LINE
  5
427
330
41F
100
AcDbEntity
  8
0
  6
Continuous
 62
     7
370
     0
100
AcDbLine
 10
7.6799661145
 20
5.6451837857
 30
0.0
 11
7.6799661145
 21
5.5045408675
 31
0.0
  0
LINE
  5
428
330
41F
100
AcDbEntity
  8
0
  6
Continuous
 62
     7
370
     0
100
AcDbLine
 10
7.6799661145
 20
5.5045408675
 30
0.0
 11
7.6588649472
 21
5.5045408675
 31
0.0
  0
LINE
  5
429
330
41F
100
AcDbEntity
  8
0
  6
Continuous
 62
     7
370
     0
100
AcDbLine
 10
7.6799661145
 20
5.6451837857
 30
0.0
 11
7.6588649472
 21
5.6451837857
 31
0.0
  0
LINE
  5
42A
330
41F
100
AcDbEntity
  8
0
  6
Continuous
 62
     7
370
     0
100
AcDbLine
 10
7.9989596502
 20
4.3121296455
 30
0.0
 11
7.9989596502
 21
5.6171311982
 31
0.0
  0
LINE
  5
42B
330
41F
100
AcDbEntity
  8
0
  6
Continuous
 62
     7
370
     0
100
AcDbLine
 10
6.975841779
 20
4.3121296455
 30
0.0
 11
6.975841779
 21
5.6171311982
 31
0.0
  0
LINE
  5
42C
330
41F
100
AcDbEntity
  8
0
  6
Continuous
 62
     7
370
     0
100
AcDbLine
 10
7.9989596502
 20
5.4921311982
 30
0.0
 11
8.4989596502
 21
5.4921311982
 31
0.0
  0
LINE
  5
42D
330
41F
100
AcDbEntity
  8
0
  6
Continuous
 62
     7
370
     0
100
AcDbLine
 10
6.975841779
 20
5.4921311982
 30
0.0
 11
6.475841779
 21
5.4921311982
 31
0.0
  0
MTEXT
  5
42E
330
41F
100
AcDbEntity
  8
0
  6
Continuous
 62
     7
370
     0
100
AcDbMText
 10
7.3300505503
 20
5.4597255797
 30
0.0
 40
0.1041666667
 41
0.0
 71
     1
 72
     1
  1
1.02
  7
SLDTEXTSTYLE0
 73
     1
 44
1.0
  0
MTEXT
  5
42F
330
41F
100
AcDbEntity
  8
0
  6
Continuous
 62
     7
370
     0
100
AcDbMText
 10
7.2915591106
 20
5.6251878365
 30
0.0
 40
0.1041666667
 41
0.0
 71
     1
 72
     1
  1
25.99
  7
SLDTEXTSTYLE0
 73
     1
 44
1.0
  0
ENDBLK
  5
421
330
41F
100
AcDbEntity
  8
0
100
AcDbBlockEnd
  0
BLOCK
  5
431
330
430
100
AcDbEntity
  8
0
100
AcDbBlockBegin
  2
SW_NOTE_5
 70
     0
 71
     0
 10
0.0
 20
0.0
 30
0.0
  3
SW_NOTE_5
  1

  0
MTEXT
  5
434
330
430
100
AcDbEntity
  8
0
  6
Continuous
 62
     0
370
     0
100
AcDbMText
 10
0.0
 20
0.1596679688
 30
0.0
 40
0.125
 41
0.0
 71
     1
 72
     1
  1
SECTION A-A 
  7
SLDTEXTSTYLE17
 73
     1
 44
1.0
  0
MTEXT
  5
436
330
430
100
AcDbEntity
  8
0
  6
Continuous
 62
     0
370
     0
100
AcDbMText
 10
0.1009259241
 20
-0.0069986959
 30
0.0
 40
0.125
 41
0.0
 71
     1
 72
     1
  1
SCALE 1 : 1
  7
SLDTEXTSTYLE18
 73
     1
 44
1.0
  0
ENDBLK
  5
432
330
430
100
AcDbEntity
  8
0
100
AcDbBlockEnd
  0
BLOCK
  5
439
330
438
100
AcDbEntity
  8
0
100
AcDbBlockBegin
  2
SW_NOTE_6
 70
     0
 71
     0
 10
0.0
 20
0.0
 30
0.0
  3
SW_NOTE_6
  1

  0
MTEXT
  5
43C
330
438
100
AcDbEntity
  8
0
  6
Continuous
 62
     0
370
     0
100
AcDbMText
 10
-1.3413047635
 20
0.1665190991
 30
0.0
 40
0.09
 41
0.0
 71
     1
 72
     1
  1
INTERNAL  SM1 THREAD
  7
SLDTEXTSTYLE19
 73
     1
 44
1.0
  0
MTEXT
  5
43D
330
438
100
AcDbEntity
  8
0
  6
Continuous
 62
     0
370
     0
100
AcDbMText
 10
-0.9607422514
 20
0.0371490161
 30
0.0
 40
0.09
 41
0.0
 71
     1
 72
     1
  1
(1.035-40)
  7
SLDTEXTSTYLE0
 73
     1
 44
1.0
  0
ENDBLK
  5
43A
330
438
100
AcDbEntity
  8
0
100
AcDbBlockEnd
  0
BLOCK
  5
443
330
442
100
AcDbEntity
  8
0
100
AcDbBlockBegin
  2
SW_NOTE_7
 70
     0
 71
     0
 10
0.0
 20
0.0
 30
0.0
  3
SW_NOTE_7
  1

  0
CIRCLE
  5
445
330
442
100
AcDbEntity
  8
0
  6
Continuous
 62
     0
370
     0
100
AcDbCircle
 10
0.1955387938
 20
0.023407732
 30
0.0
 40
0.1969348668812023
  0
MTEXT
  5
446
330
442
100
AcDbEntity
  8
0
  6
Continuous
 62
     0
370
     0
100
AcDbMText
 10
0.1275980695
 20
0.0942676422
 30
0.0
 40
0.1377952756
 41
0.0
 71
     1
 72
     1
  1
A
  7
SLDTEXTSTYLE0
 73
     1
 44
1.0
  0
ENDBLK
  5
444
330
442
100
AcDbEntity
  8
0
100
AcDbBlockEnd
  0
BLOCK
  5
44A
330
449
100
AcDbEntity
  8
0
100
AcDbBlockBegin
  2
SW_NOTE_8
 70
     0
 71
     0
 10
0.0
 20
0.0
 30
0.0
  3
SW_NOTE_8
  1

  0
CIRCLE
  5
44C
330
449
100
AcDbEntity
  8
0
  6
Continuous
 62
     0
370
     0
100
AcDbCircle
 10
-0.1963731842
 20
0.0148631865
 30
0.0
 40
0.1969348668812023
  0
MTEXT
  5
44D
330
449
100
AcDbEntity
  8
0
  6
Continuous
 62
     0
370
     0
100
AcDbMText
 10
-0.2490990172
 20
0.0857230966
 30
0.0
 40
0.1377952756
 41
0.0
 71
     1
 72
     1
  1
B
  7
SLDTEXTSTYLE0
 73
     1
 44
1.0
  0
ENDBLK
  5
44B
330
449
100
AcDbEntity
  8
0
100
AcDbBlockEnd
  0
BLOCK
  5
451
330
450
100
AcDbEntity
  8
0
100
AcDbBlockBegin
  2
SW_NOTE_9
 70
     0
 71
     0
 10
0.0
 20
0.0
 30
0.0
  3
SW_NOTE_9
  1

  0
CIRCLE
  5
453
330
450
100
AcDbEntity
  8
0
  6
Continuous
 62
     0
370
     0
100
AcDbCircle
 10
0.1830527544
 20
-0.0726294079
 30
0.0
 40
0.1969348668812025
  0
MTEXT
  5
454
330
450
100
AcDbEntity
  8
0
  6
Continuous
 62
     0
370
     0
100
AcDbMText
 10
0.1084136483
 20
-0.0017694978
 30
0.0
 40
0.1377952756
 41
0.0
 71
     1
 72
     1
  1
C
  7
SLDTEXTSTYLE0
 73
     1
 44
1.0
  0
ENDBLK
  5
452
330
450
100
AcDbEntity
  8
0
100
AcDbBlockEnd
  0
BLOCK
  5
458
330
457
100
AcDbEntity
  8
0
100
AcDbBlockBegin
  2
SW_NOTE_10
 70
     0
 71
     0
 10
0.0
 20
0.0
 30
0.0
  3
SW_NOTE_10
  1

  0
CIRCLE
  5
45A
330
457
100
AcDbEntity
  8
0
  6
Continuous
 62
     0
370
     0
100
AcDbCircle
 10
0.1965191208
 20
0.0127897207
 30
0.0
 40
0.1969348668812023
  0
MTEXT
  5
45B
330
457
100
AcDbEntity
  8
0
  6
Continuous
 62
     0
370
     0
100
AcDbMText
 10
0.1281956284
 20
0.0836496309
 30
0.0
 40
0.1377952756
 41
0.0
 71
     1
 72
     1
  1
D
  7
SLDTEXTSTYLE0
 73
     1
 44
1.0
  0
ENDBLK
  5
459
330
457
100
AcDbEntity
  8
0
100
AcDbBlockEnd
  0
BLOCK
  5
45F
330
45E
100
AcDbEntity
  8
0
100
AcDbBlockBegin
  2
SW_NOTE_11
 70
     0
 71
     0
 10
0.0
 20
0.0
 30
0.0
  3
SW_NOTE_11
  1

  0
CIRCLE
  5
461
330
45E
100
AcDbEntity
  8
0
  6
Continuous
 62
     0
370
     0
100
AcDbCircle
 10
-0.1942044624
 20
-0.0326797884
 30
0.0
 40
0.1969348668812025
  0
MTEXT
  5
462
330
45E
100
AcDbEntity
  8
0
  6
Continuous
 62
     0
370
     0
100
AcDbMText
 10
-0.2625279548
 20
0.0381801218
 30
0.0
 40
0.1377952756
 41
0.0
 71
     1
 72
     1
  1
D
  7
SLDTEXTSTYLE0
 73
     1
 44
1.0
  0
ENDBLK
  5
460
330
45E
100
AcDbEntity
  8
0
100
AcDbBlockEnd
  0
ENDSEC
  0
SECTION
  2
ENTITIES
  0
LINE
  5
30
330
1F
100
AcDbEntity
  8
0
  6
Continuous
 62
     7
370
     0
100
AcDbLine
 10
0.329927
 20
8.1920731707
 30
0.0
 11
10.629927
 21
8.1920731707
 31
0.0
  0
LINE
  5
31
330
1F
100
AcDbEntity
  8
0
  6
Continuous
 62
     7
370
     0
100
AcDbLine
 10
0.329927
 20
8.1920731707
 30
0.0
 11
0.329927
 21
0.3920731707
 31
0.0
  0
LINE
  5
32
330
1F
100
AcDbEntity
  8
0
  6
Continuous
 62
     7
370
     0
100
AcDbLine
 10
10.629927
 20
0.3920731707
 30
0.0
 11
0.329927
 21
0.3920731707
 31
0.0
  0
LINE
  5
33
330
1F
100
AcDbEntity
  8
0
  6
Continuous
 62
     7
370
     0
100
AcDbLine
 10
10.629927
 20
0.3920731707
 30
0.0
 11
10.629927
 21
8.1920731707
 31
0.0
  0
LINE
  5
34
330
1F
100
AcDbEntity
  8
0
  6
Continuous
 62
     7
370
     0
100
AcDbLine
 10
7.8832069922
 20
1.2010186622
 30
0.0
 11
6.3491817542
 21
1.2010186622
 31
0.0
  0
LINE
  5
35
330
1F
100
AcDbEntity
  8
0
  6
Continuous
 62
     7
370
     0
100
AcDbLine
 10
6.3491817542
 20
0.3920731707
 30
0.0
 11
6.3491817542
 21
1.6988536355
 31
0.0
  0
LINE
  5
36
330
1F
100
AcDbEntity
  8
0
  6
Continuous
 62
     7
370
     0
100
AcDbLine
 10
7.8832069922
 20
1.270166923
 30
0.0
 11
10.629927
 21
1.270166923
 31
0.0
  0
LINE
  5
37
330
1F
100
AcDbEntity
  8
0
  6
Continuous
 62
     7
370
     0
100
AcDbLine
 10
7.8832069922
 20
1.9437769943
 30
0.0
 11
7.8832069922
 21
0.3920731707
 31
0.0
  0
LINE
  5
38
330
1F
100
AcDbEntity
  8
0
  6
Continuous
 62
     7
370
     0
100
AcDbLine
 10
7.8832069922
 20
1.323339557
 30
0.0
 11
6.3491817542
 21
1.323339557
 31
0.0
  0
LINE
  5
39
330
1F
100
AcDbEntity
  8
0
  6
Continuous
 62
     7
370
     0
100
AcDbLine
 10
7.8832069922
 20
1.6988536355
 30
0.0
 11
6.3491817542
 21
1.6988536355
 31
0.0
  0
LINE
  5
3A
330
1F
100
AcDbEntity
  8
0
  6
Continuous
 62
     7
370
     0
100
AcDbLine
 10
7.8832069922
 20
0.7890359178
 30
0.0
 11
10.629927
 21
0.7890359178
 31
0.0
  0
LINE
  5
3B
330
1F
100
AcDbEntity
  8
0
  6
Continuous
 62
     7
370
     0
100
AcDbLine
 10
7.8832069922
 20
1.4456604517
 30
0.0
 11
6.3491817542
 21
1.4456604517
 31
0.0
  0
LINE
  5
3C
330
1F
100
AcDbEntity
  8
0
  6
Continuous
 62
     7
370
     0
100
AcDbLine
 10
7.8832069922
 20
1.5679813464
 30
0.0
 11
6.3491817542
 21
1.5679813464
 31
0.0
  0
LINE
  5
3D
330
1F
100
AcDbEntity
  8
0
  6
Continuous
 62
     7
370
     0
100
AcDbLine
 10
6.9294188505
 20
1.6988536355
 30
0.0
 11
6.9294188505
 21
1.2010186622
 31
0.0
  0
LINE
  5
3E
330
1F
100
AcDbEntity
  8
0
  6
Continuous
 62
     7
370
     0
100
AcDbLine
 10
7.2989435727
 20
1.6988536355
 30
0.0
 11
7.2989435727
 21
1.2010186622
 31
0.0
  0
LINE
  5
3F
330
1F
100
AcDbEntity
  8
0
  6
Continuous
 62
     7
370
     0
100
AcDbLine
 10
8.9000563418
 20
0.7890359178
 30
0.0
 11
8.9000563418
 21
0.3920731707
 31
0.0
  0
LINE
  5
40
330
1F
100
AcDbEntity
  8
0
  6
Continuous
 62
     7
370
     0
100
AcDbLine
 10
9.3113942988
 20
0.96139916
 30
0.0
 11
9.3113942988
 21
0.7890359178
 31
0.0
  0
LINE
  5
41
330
1F
100
AcDbEntity
  8
0
  6
Continuous
 62
     7
370
     0
100
AcDbLine
 10
10.0324602448
 20
1.270166923
 30
0.0
 11
10.0324602448
 21
0.96139916
 31
0.0
  0
LINE
  5
42
330
1F
100
AcDbEntity
  8
0
  6
Continuous
 62
     7
370
     0
100
AcDbLine
 10
6.3491817542
 20
1.0381709011
 30
0.0
 11
7.8832069922
 21
1.0381709011
 31
0.0
  0
LINE
  5
43
330
1F
100
AcDbEntity
  8
0
  6
Continuous
 62
     7
370
     0
100
AcDbLine
 10
7.8832069922
 20
1.9437769943
 30
0.0
 11
10.629927
 21
1.9437769943
 31
0.0
  0
LINE
  5
44
330
1F
100
AcDbEntity
  8
0
  6
Continuous
 62
     7
370
     0
100
AcDbLine
 10
10.315241862
 20
1.2693980507
 30
0.0
 11
10.315241862
 21
0.96139916
 31
0.0
  0
LINE
  5
45
330
1F
100
AcDbEntity
  8
0
  6
Continuous
 62
     7
370
     0
100
AcDbLine
 10
7.8832069922
 20
0.96139916
 30
0.0
 11
10.629927
 21
0.96139916
 31
0.0
  0
LINE
  5
46
330
1F
100
AcDbEntity
  8
0
  6
Continuous
 62
     7
370
     0
100
AcDbLine
 10
10.629927
 20
1.9437769943
 30
0.0
 11
10.629927
 21
1.9698084888
 31
0.0
  0
LINE
  5
47
330
1F
100
AcDbEntity
  8
0
  6
Continuous
 62
     7
370
     0
100
AcDbLine
 10
7.8832069922
 20
1.6268095213
 30
0.0
 11
10.629927
 21
1.6268095213
 31
0.0
  0
LINE
  5
48
330
1F
100
AcDbEntity
  8
0
  6
Continuous
 62
     7
370
     0
100
AcDbLine
 10
6.692177
 20
0.3920731707
 30
0.0
 11
6.692177
 21
0.3072739649
 31
0.0
  0
LINE
  5
49
330
1F
100
AcDbEntity
  8
0
  6
Continuous
 62
     7
370
     0
100
AcDbLine
 10
2.754677
 20
0.3920731707
 30
0.0
 11
2.754677
 21
0.3072739649
 31
0.0
  0
LINE
  5
4A
330
1F
100
AcDbEntity
  8
0
  6
Continuous
 62
     7
370
     0
100
AcDbLine
 10
2.754677
 20
0.3920731707
 30
0.0
 11
2.7672319738
 21
0.3575
 31
0.0
  0
LINE
  5
4B
330
1F
100
AcDbEntity
  8
0
  6
Continuous
 62
     7
370
     0
100
AcDbLine
 10
2.7672319738
 20
0.3575
 30
0.0
 11
2.7414258825
 21
0.3575
 31
0.0
  0
LINE
  5
4C
330
1F
100
AcDbEntity
  8
0
  6
Continuous
 62
     7
370
     0
100
AcDbLine
 10
2.7414258825
 20
0.3575
 30
0.0
 11
2.754677
 21
0.3920731707
 31
0.0
  0
MTEXT
  5
4E
330
1F
100
AcDbEntity
  8
0
  6
Continuous
 62
     7
370
     0
100
AcDbMText
 10
10.4043270877
 20
1.1203120088
 30
0.0
 40
0.1041666667
 41
0.0
 71
     1
 72
     1
  1
C
  7
SLDTEXTSTYLE0
 73
     1
 44
1.0
  0
MTEXT
  5
4F
330
1F
100
AcDbEntity
  8
0
  6
Continuous
 62
     7
370
     0
100
AcDbMText
 10
1.7387909509
 20
0.3094873007
 30
0.0
 40
0.09375
 41
0.0
 71
     1
 72
     1
  1
5
  7
SLDTEXTSTYLE0
 73
     1
 44
1.0
  0
MTEXT
  5
50
330
1F
100
AcDbEntity
  8
0
  6
Continuous
 62
     7
370
     0
100
AcDbMText
 10
3.723800327
 20
0.3126246278
 30
0.0
 40
0.09375
 41
0.0
 71
     1
 72
     1
  1
4
  7
SLDTEXTSTYLE0
 73
     1
 44
1.0
  0
MTEXT
  5
51
330
1F
100
AcDbEntity
  8
0
  6
Continuous
 62
     7
370
     0
100
AcDbMText
 10
5.6324457277
 20
0.3105200602
 30
0.0
 40
0.09375
 41
0.0
 71
     1
 72
     1
  1
3
  7
SLDTEXTSTYLE0
 73
     1
 44
1.0
  0
MTEXT
  5
52
330
1F
100
AcDbEntity
  8
0
  6
Continuous
 62
     7
370
     0
100
AcDbMText
 10
7.6059721724
 20
0.3113400111
 30
0.0
 40
0.09375
 41
0.0
 71
     1
 72
     1
  1
2
  7
SLDTEXTSTYLE0
 73
     1
 44
1.0
  0
MTEXT
  5
53
330
1F
100
AcDbEntity
  8
0
  6
Continuous
 62
     7
370
     0
100
AcDbMText
 10
9.6619921328
 20
0.300272888
 30
0.0
 40
0.09375
 41
0.0
 71
     1
 72
     1
  1
1
  7
SLDTEXTSTYLE0
 73
     1
 44
1.0
  0
MTEXT
  5
54
330
1F
100
AcDbEntity
  8
0
  6
Continuous
 62
     7
370
     0
100
AcDbMText
 10
8.9974087262
 20
0.5912119192
 30
0.0
 40
0.09375
 41
0.0
 71
     1
 72
     1
  1
MAP104075-1-CT-ENGRAVE
  7
SLDTEXTSTYLE0
 73
     1
 44
1.0
  0
MTEXT
  5
55
330
1F
100
AcDbEntity
  8
0
  6
Continuous
 62
     7
370
     0
100
AcDbMText
 10
7.9301743649
 20
1.2499730493
 30
0.0
 40
0.0833333333
 41
0.0
 71
     1
 72
     1
  1
MATERIAL:
  7
SLDTEXTSTYLE0
 73
     1
 44
1.0
  0
MTEXT
  5
57
330
1F
100
AcDbEntity
  8
0
  6
Continuous
 62
     7
370
     0
100
AcDbMText
 10
8.9438302275
 20
0.7457341193
 30
0.0
 40
0.0833333333
 41
0.0
 71
     1
 72
     1
  1
PART  NO.
  7
SLDTEXTSTYLE1
 73
     1
 44
1.0
  0
MTEXT
  5
59
330
1F
100
AcDbEntity
  8
0
  6
Continuous
 62
     7
370
     0
100
AcDbMText
 10
6.3927073562
 20
1.1440291591
 30
0.0
 40
0.06
 41
0.0
 71
     1
 72
     1
  1
PROPRIETARY AND CONFIDENTIAL
  7
SLDTEXTSTYLE2
 73
     1
 44
1.0
  0
MTEXT
  5
5A
330
1F
100
AcDbEntity
  8
0
  6
Continuous
 62
     7
370
     0
100
AcDbMText
 10
6.4985660702
 20
1.5406501707
 30
0.0
 40
0.065
 41
0.0
 71
     1
 72
     1
  1
DRAWN
  7
SLDTEXTSTYLE0
 73
     1
 44
1.0
  0
MTEXT
  5
5B
330
1F
100
AcDbEntity
  8
0
  6
Continuous
 62
     7
370
     0
100
AcDbMText
 10
6.4369653776
 20
1.4183941661
 30
0.0
 40
0.065
 41
0.0
 71
     1
 72
     1
  1
ENG APPR.
  7
SLDTEXTSTYLE0
 73
     1
 44
1.0
  0
MTEXT
  5
5C
330
1F
100
AcDbEntity
  8
0
  6
Continuous
 62
     7
370
     0
100
AcDbMText
 10
6.4273055419
 20
1.298296273
 30
0.0
 40
0.065
 41
0.0
 71
     1
 72
     1
  1
MFG APPR.
  7
SLDTEXTSTYLE0
 73
     1
 44
1.0
  0
MTEXT
  5
5D
330
1F
100
AcDbEntity
  8
0
  6
Continuous
 62
     7
370
     0
100
AcDbMText
 10
6.9752663896
 20
1.6608078346
 30
0.0
 40
0.065
 41
0.0
 71
     1
 72
     1
  1
NAME
  7
SLDTEXTSTYLE0
 73
     1
 44
1.0
  0
MTEXT
  5
5E
330
1F
100
AcDbEntity
  8
0
  6
Continuous
 62
     7
370
     0
100
AcDbMText
 10
7.9386050459
 20
1.5661804433
 30
0.0
 40
0.1
 41
0.0
 71
     1
 72
     1
  1
TITLE:
  7
SLDTEXTSTYLE0
 73
     1
 44
1.0
  0
MTEXT
  5
5F
330
1F
100
AcDbEntity
  8
0
  6
Continuous
 62
     7
370
     0
100
AcDbMText
 10
10.0657693915
 20
1.2262994671
 30
0.0
 40
0.0833333333
 41
0.0
 71
     1
 72
     1
  1
SIZE
  7
SLDTEXTSTYLE0
 73
     1
 44
1.0
  0
MTEXT
  5
60
330
1F
100
AcDbEntity
  8
0
  6
Continuous
 62
     7
370
     0
100
AcDbMText
 10
10.1162261111
 20
1.1164461388
 30
0.0
 40
0.1041666667
 41
0.0
 71
     1
 72
     1
  1
A
  7
SLDTEXTSTYLE0
 73
     1
 44
1.0
  0
MTEXT
  5
61
330
1F
100
AcDbEntity
  8
0
  6
Continuous
 62
     7
370
     0
100
AcDbMText
 10
10.335100974
 20
1.2278993505
 30
0.0
 40
0.0833333333
 41
0.0
 71
     1
 72
     1
  1
REV.
  7
SLDTEXTSTYLE0
 73
     1
 44
1.0
  0
MTEXT
  5
62
330
1F
100
AcDbEntity
  8
0
  6
Continuous
 62
     7
370
     0
100
AcDbMText
 10
8.3227727705
 20
0.9309786574
 30
0.0
 40
0.0833333333
 41
0.0
 71
     1
 72
     1
  1
SCALE: 1:1
  7
SLDTEXTSTYLE0
 73
     1
 44
1.0
  0
MTEXT
  5
64
330
1F
100
AcDbEntity
  8
0
  6
Continuous
 62
     7
370
     0
100
AcDbMText
 10
9.6378279873
 20
0.926579063
 30
0.0
 40
0.0833333333
 41
0.0
 71
     1
 72
     1
  1
SHEET 1 OF 1
  7
SLDTEXTSTYLE3
 73
     1
 44
1.0
  0
MTEXT
  5
65
330
1F
100
AcDbEntity
  8
0
  6
Continuous
 62
     7
370
     0
100
AcDbMText
 10
8.0600738764
 20
0.6044052155
 30
0.0
 40
0.1041666667
 41
0.0
 71
     1
 72
     1
  1
13324-E01
  7
SLDTEXTSTYLE0
 73
     1
 44
1.0
  0
INSERT
  5
75
330
1F
100
AcDbEntity
  8
0
  6
Continuous
 62
     7
370
     0
100
AcDbBlockReference
  2
SW_NOTE_0
 10
6.3891646717
 20
0.9312082413
 30
0.0
  0
MTEXT
  5
76
330
1F
100
AcDbEntity
  8
0
  6
Continuous
 62
     7
370
     0
100
AcDbMText
 10
7.9076399399
 20
0.7468305835
 30
0.0
 40
0.0833333333
 41
0.0
 71
     1
 72
     1
  1
DWG.  NO.
  7
SLDTEXTSTYLE1
 73
     1
 44
1.0
  0
MTEXT
  5
77
330
1F
100
AcDbEntity
  8
0
  6
Continuous
 62
     7
370
     0
100
AcDbMText
 10
7.0592138229
 20
1.5434434118
 30
0.0
 40
0.065
 41
0.0
 71
     1
 72
     1
  1
AP
  7
SLDTEXTSTYLE0
 73
     1
 44
1.0
  0
MTEXT
  5
78
330
1F
100
AcDbEntity
  8
0
  6
Continuous
 62
     7
370
     0
100
AcDbMText
 10
7.0628716471
 20
1.4267005168
 30
0.0
 40
0.065
 41
0.0
 71
     1
 72
     1
  1
TO
  7
SLDTEXTSTYLE0
 73
     1
 44
1.0
  0
MTEXT
  5
79
330
1F
100
AcDbEntity
  8
0
  6
Continuous
 62
     7
370
     0
100
AcDbMText
 10
7.0636219211
 20
1.3041261123
 30
0.0
 40
0.065
 41
0.0
 71
     1
 72
     1
  1
TO
  7
SLDTEXTSTYLE0
 73
     1
 44
1.0
  0
MTEXT
  5
7A
330
1F
100
AcDbEntity
  8
0
  6
Continuous
 62
     7
370
     0
100
AcDbMText
 10
7.3775562039
 20
1.5451308061
 30
0.0
 40
0.065
 41
0.0
 71
     1
 72
     1
  1
04/14/06
  7
SLDTEXTSTYLE0
 73
     1
 44
1.0
  0
MTEXT
  5
7B
330
1F
100
AcDbEntity
  8
0
  6
Continuous
 62
     7
370
     0
100
AcDbMText
 10
7.4731545031
 20
1.6582684693
 30
0.0
 40
0.065
 41
0.0
 71
     1
 72
     1
  1
DATE
  7
SLDTEXTSTYLE0
 73
     1
 44
1.0
  0
MTEXT
  5
7C
330
1F
100
AcDbEntity
  8
0
  6
Continuous
 62
     7
370
     0
100
AcDbMText
 10
7.3821011998
 20
1.4184142209
 30
0.0
 40
0.065
 41
0.0
 71
     1
 72
     1
  1
04/14/06
  7
SLDTEXTSTYLE0
 73
     1
 44
1.0
  0
MTEXT
  5
7D
330
1F
100
AcDbEntity
  8
0
  6
Continuous
 62
     7
370
     0
100
AcDbMText
 10
7.3821011998
 20
1.2979456571
 30
0.0
 40
0.065
 41
0.0
 71
     1
 72
     1
  1
04/14/06
  7
SLDTEXTSTYLE0
 73
     1
 44
1.0
  0
MTEXT
  5
7E
330
1F
100
AcDbEntity
  8
0
  6
Continuous
 62
     7
370
     0
100
AcDbMText
 10
7.9182509893
 20
1.8945248266
 30
0.0
 40
0.1875
 41
0.0
 71
     1
 72
     1
  1
THORLABS INC.
  7
SLDTEXTSTYLE0
 73
     1
 44
1.0
  0
INSERT
  5
85
330
1F
100
AcDbEntity
  8
0
  6
Continuous
 62
     7
370
     0
100
AcDbBlockReference
  2
SW_NOTE_1
 10
9.7899715108
 20
1.7786954532
 30
0.0
  0
INSERT
  5
8C
330
1F
100
AcDbEntity
  8
0
  6
Continuous
 62
     7
370
     0
100
AcDbBlockReference
  2
SW_NOTE_2
 10
8.2779319569
 20
1.4616600239
 30
0.0
  0
MTEXT
  5
8D
330
1F
100
AcDbEntity
  8
0
  6
Continuous
 62
     7
370
     0
100
AcDbMText
 10
8.3691642187
 20
1.131481397
 30
0.0
 40
0.1041666667
 41
0.0
 71
     1
 72
     1
  1
SEE TABLE
  7
SLDTEXTSTYLE0
 73
     1
 44
1.0
  0
INSERT
  5
94
330
1F
100
AcDbEntity
  8
0
  6
Continuous
 62
     7
370
     0
100
AcDbBlockReference
  2
SW_NOTE_3
 10
0.3688112847
 20
0.5879500903
 30
0.0
  0
MTEXT
  5
95
330
1F
100
AcDbEntity
  8
0
  6
Continuous
 62
     7
370
     0
100
AcDbMText
 10
0.6944051415
 20
2.1542583147
 30
0.0
 40
0.09
 41
0.0
 71
     1
 72
     1
  1
SPECIFICATIONS:
  7
SLDTEXTSTYLE0
 73
     1
 44
1.0
  0
INSERT
  5
A5
330
1F
100
AcDbEntity
  8
0
  6
Continuous
 62
     7
370
     0
100
AcDbBlockReference
  2
SW_NOTE_4
 10
0.6753970863
 20
1.8479396185
 30
0.0
  0
INSERT
  5
C2
330
1F
100
AcDbEntity
  8
0
  6
Continuous
 62
     7
370
     0
100
AcDbBlockReference
  2
SW_TABLEANNOTATION_0
 10
0.3174104478
 20
8.1967910448
 30
0.0
  0
CIRCLE
  5
C3
330
1F
100
AcDbEntity
  8
0
  6
Continuous
 62
     7
370
     0
100
AcDbCircle
 10
1.9381468934
 20
4.2621296455
 30
0.0
 40
0.5899999999999994
  0
CIRCLE
  5
C4
330
1F
100
AcDbEntity
  8
0
  6
Continuous
 62
     7
370
     0
100
AcDbCircle
 10
1.9381468934
 20
4.2621296455
 30
0.0
 40
0.6
  0
CIRCLE
  5
C5
330
1F
100
AcDbEntity
  8
0
  6
Continuous
 62
     7
370
     0
100
AcDbCircle
 10
1.9381468934
 20
4.2621296455
 30
0.0
 40
0.5159999999999992
  0
CIRCLE
  5
C6
330
1F
100
AcDbEntity
  8
0
  6
Continuous
 62
     7
370
     0
100
AcDbCircle
 10
1.9381468934
 20
4.2621296455
 30
0.0
 40
0.506
  0
ARC
  5
C7
330
1F
100
AcDbEntity
  8
0
  6
Continuous
 62
     7
370
     0
100
AcDbCircle
 10
1.9381468934
 20
4.2621296455
 30
0.0
 40
0.5001794919243138
100
AcDbArc
 50
87.7418162628
 51
266.0234953088
  0
SPLINE
  5
C8
330
1F
100
AcDbEntity
  8
0
  6
Continuous
 62
     7
370
     0
100
AcDbSpline
210
0.0
220
0.0
230
1.0
 70
    24
 71
     1
 72
     4
 73
     2
 74
     0
 42
0.00000001
 43
0.00000001
 40
0.0
 40
0.0
 40
1.0
 40
1.0
 10
1.90346074828971
 20
3.763154302400494
 30
0.0
 10
1.903167952297114
 20
3.757778114506675
 30
0.0
  0
SPLINE
  5
C9
330
1F
100
AcDbEntity
  8
0
  6
Continuous
 62
     7
370
     0
100
AcDbSpline
210
0.0
220
0.0
230
1.0
 70
    24
 71
     1
 72
     4
 73
     2
 74
     0
 42
0.00000001
 43
0.00000001
 40
0.0
 40
0.0
 40
1.0
 40
1.0
 10
1.958113186106751
 20
4.766657034851296
 30
0.0
 10
1.957855234503297
 20
4.761920709565731
 30
0.0
  0
ARC
  5
CA
330
1F
100
AcDbEntity
  8
0
  6
Continuous
 62
     7
370
     0
100
AcDbCircle
 10
1.9381468934
 20
4.2621296455
 30
0.0
 40
0.4500000000000013
100
AcDbArc
 50
87.8376296596
 51
265.927681912
  0
LINE
  5
CB
330
1F
100
AcDbEntity
  8
0
  6
Continuous
 62
     7
370
     0
100
AcDbLine
 10
1.9034607483
 20
3.7631543024
 30
0.0
 11
1.9061899038
 21
3.8132658002
 31
0.0
  0
LINE
  5
CC
330
1F
100
AcDbEntity
  8
0
  6
Continuous
 62
     7
370
     0
100
AcDbLine
 10
1.9578552345
 20
4.7619207096
 30
0.0
 11
1.9551260789
 21
4.7118091751
 31
0.0
  0
ARC
  5
CD
330
1F
100
AcDbEntity
  8
0
  6
Continuous
 62
     7
370
     0
100
AcDbCircle
 10
1.9381468934
 20
4.2621296455
 30
0.0
 40
0.5001794919243143
100
AcDbArc
 50
267.7418162628
 51
86.0234953088
  0
SPLINE
  5
CE
330
1F
100
AcDbEntity
  8
0
  6
Continuous
 62
     7
370
     0
100
AcDbSpline
210
0.0
220
0.0
230
1.0
 70
    24
 71
     1
 72
     4
 73
     2
 74
     0
 42
0.00000001
 43
0.00000001
 40
0.0
 40
0.0
 40
1.0
 40
1.0
 10
1.972833037311774
 20
4.761104958989351
 30
0.0
 10
1.973094495124724
 20
4.765905816862764
 30
0.0
  0
SPLINE
  5
CF
330
1F
100
AcDbEntity
  8
0
  6
Continuous
 62
     7
370
     0
100
AcDbSpline
210
0.0
220
0.0
230
1.0
 70
    24
 71
     1
 72
     4
 73
     2
 74
     0
 42
0.00000001
 43
0.00000001
 40
0.0
 40
0.0
 40
1.0
 40
1.0
 10
1.918175631218793
 20
3.757510945926363
 30
0.0
 10
1.918438551098187
 20
3.762338588490358
 30
0.0
  0
LINE
  5
D0
330
1F
100
AcDbEntity
  8
0
  6
Continuous
 62
     7
370
     0
100
AcDbLine
 10
1.9728330373
 20
4.761104959
 30
0.0
 11
1.9701038863
 21
4.7109934979
 31
0.0
  0
LINE
  5
D1
330
1F
100
AcDbEntity
  8
0
  6
Continuous
 62
     7
370
     0
100
AcDbLine
 10
1.9184385511
 20
3.7623385885
 30
0.0
 11
1.9211677089
 21
3.8124500863
 31
0.0
  0
ARC
  5
D2
330
1F
100
AcDbEntity
  8
0
  6
Continuous
 62
     7
370
     0
100
AcDbCircle
 10
1.9381468934
 20
4.2621296455
 30
0.0
 40
0.4500000000000012
100
AcDbArc
 50
267.8376296596
 51
85.927681912
  0
ARC
  5
D3
330
1F
100
AcDbEntity
  8
0
  6
Continuous
 62
     7
370
     0
100
AcDbCircle
 10
1.9381468934
 20
4.2621296455
 30
0.0
 40
0.4500000000000013
100
AcDbArc
 50
265.927681912
 51
267.8376296596
  0
ARC
  5
D4
330
1F
100
AcDbEntity
  8
0
  6
Continuous
 62
     7
370
     0
100
AcDbCircle
 10
1.9381468934
 20
4.2621296455
 30
0.0
 40
0.4500000000000012
100
AcDbArc
 50
85.927681912
 51
87.8376296596
  0
DIMENSION
  5
D5
330
1F
100
AcDbEntity
  8
0
  6
Continuous
 62
     7
370
     0
100
AcDbDimension
  2
*D7
 10
1.6386108928
 20
3.7422467892
 30
0.0
 11
2.9151201761
 21
4.9684714241
 31
0.0
 70
   163
  1
<>
 71
     1
 42
-1.0
  3
SLDDIMSTYLE0
100
AcDbDiametricDimension
 15
2.2376828941
 25
4.7820125019
 35
0.0
 40
0.0
  0
LINE
  5
E6
330
1F
100
AcDbEntity
  8
0
  6
PHANTOM
 62
     7
370
    30
100
AcDbLine
 10
1.9381468934
 20
5.0853937405
 30
0.0
 11
1.9381468934
 21
3.4517290521
 31
0.0
  0
LINE
  5
E7
330
1F
100
AcDbEntity
  8
0
  6
Continuous
 62
     7
370
    30
100
AcDbLine
 10
1.9381468934
 20
5.0853937405
 30
0.0
 11
1.4681468934
 21
5.0853937405
 31
0.0
  0
SOLID
  5
E8
330
1F
100
AcDbEntity
  8
0
  6
Continuous
 62
     7
370
    30
100
AcDbTrace
 10
1.4681468934
 20
5.0853937405
 30
0.0
 11
1.7081468934
 21
5.0253937405
 31
0.0
 12
1.7081468934
 22
5.1453937405
 32
0.0
 13
1.7081468934
 23
5.1453937405
 33
0.0
  0
LINE
  5
E9
330
1F
100
AcDbEntity
  8
0
  6
Continuous
 62
     7
370
    30
100
AcDbLine
 10
1.9381468934
 20
3.4517290521
 30
0.0
 11
1.4681468934
 21
3.4517290521
 31
0.0
  0
SOLID
  5
EA
330
1F
100
AcDbEntity
  8
0
  6
Continuous
 62
     7
370
    30
100
AcDbTrace
 10
1.4681468934
 20
3.4517290521
 30
0.0
 11
1.7081468934
 21
3.3917290521
 31
0.0
 12
1.7081468934
 22
3.5117290521
 32
0.0
 13
1.7081468934
 23
3.5117290521
 33
0.0
  0
MTEXT
  5
EB
330
1F
100
AcDbEntity
  8
0
  6
Continuous
 62
     7
100
AcDbMText
 10
1.280419267
 20
5.2012318728
 30
0.0
 40
0.1458333333
 41
0.0
 71
     1
 72
     1
  1
A
  7
SLDTEXTSTYLE0
 73
     1
 44
1.0
  0
MTEXT
  5
EC
330
1F
100
AcDbEntity
  8
0
  6
Continuous
 62
     7
100
AcDbMText
 10
1.280419267
 20
3.5675671844
 30
0.0
 40
0.1458333333
 41
0.0
 71
     1
 72
     1
  1
A
  7
SLDTEXTSTYLE0
 73
     1
 44
1.0
  0
LINE
  5
ED
330
1F
100
AcDbEntity
  8
0
  6
Continuous
 62
     7
370
     0
100
AcDbLine
 10
6.5550045841
 20
7.0031916141
 30
0.0
 11
6.5550045841
 21
6.995027533
 31
0.0
  0
LINE
  5
EE
330
1F
100
AcDbEntity
  8
0
  6
Continuous
 62
     7
370
     0
100
AcDbLine
 10
6.9721297794
 20
6.2724672107
 30
0.0
 11
6.979199698
 21
6.2683845066
 31
0.0
  0
LINE
  5
EF
330
1F
100
AcDbEntity
  8
0
  6
Continuous
 62
     7
370
     0
100
AcDbLine
 10
6.8596379682
 20
7.382009413
 30
0.0
 11
6.6792930331
 21
7.277898498
 31
0.0
  0
LINE
  5
F0
330
1F
100
AcDbEntity
  8
0
  6
Continuous
 62
     7
370
     0
100
AcDbLine
 10
6.8774305935
 20
7.3922808769
 30
0.0
 11
6.8724027179
 21
7.3893783461
 31
0.0
  0
LINE
  5
F1
330
1F
100
AcDbEntity
  8
0
  6
Continuous
 62
     7
370
     0
100
AcDbLine
 10
6.9776407368
 20
7.4501309613
 30
0.0
 11
6.9012908823
 21
7.4060551284
 31
0.0
  0
LINE
  5
F2
330
1F
100
AcDbEntity
  8
0
  6
Continuous
 62
     7
370
     0
100
AcDbLine
 10
7.6676857604
 20
7.8484854742
 30
0.0
 11
7.0193011963
 21
7.4741810326
 31
0.0
  0
LINE
  5
F3
330
1F
100
AcDbEntity
  8
0
  6
Continuous
 62
     7
370
     0
100
AcDbLine
 10
7.2792442726
 20
6.2386398631
 30
0.0
 11
8.267637
 21
6.8092268393
 31
0.0
  0
LINE
  5
F4
330
1F
100
AcDbEntity
  8
0
  6
Continuous
 62
     7
370
     0
100
AcDbLine
 10
8.3919254489
 20
7.0839337232
 30
0.0
 11
8.3919254489
 21
7.0920978043
 31
0.0
  0
LINE
  5
F5
330
1F
100
AcDbEntity
  8
0
  6
Continuous
 62
     7
370
     0
100
AcDbLine
 10
7.9748002536
 20
7.8146581266
 30
0.0
 11
7.9677303351
 21
7.8187408306
 31
0.0
  0
LINE
  5
F6
330
1F
100
AcDbEntity
  8
0
  6
Continuous
 62
     7
370
     0
100
AcDbLine
 10
6.8724027179
 20
7.3893783461
 30
0.0
 11
6.8584917987
 21
7.3813477434
 31
0.0
  0
LINE
  5
F7
330
1F
100
AcDbEntity
  8
0
  6
Continuous
 62
     7
370
     0
100
AcDbLine
 10
6.9014921558
 20
7.4061713212
 30
0.0
 11
6.8774305935
 21
7.3922808769
 31
0.0
  0
LINE
  5
F8
330
1F
100
AcDbEntity
  8
0
  6
Continuous
 62
     7
370
     0
100
AcDbLine
 10
7.0193011963
 20
7.4741810326
 30
0.0
 11
6.9776407368
 21
7.4501309613
 31
0.0
  0
LWPOLYLINE
  5
F9
330
1F
100
AcDbEntity
  8
0
  6
Continuous
 62
     7
370
     0
100
AcDbPolyline
 90
       82
 70
   128
 43
0.0
 10
7.3893905822
 20
6.5132822752
 10
7.388140385
 20
6.5513368694
 10
7.3843886588
 20
6.5906114291
 10
7.378157967
 20
6.6308697523
 10
7.3694857816
 20
6.6718697208
 10
7.3584242584
 20
6.713364756
 10
7.3450399224
 20
6.7551053018
 10
7.3294132688
 20
6.7968403256
 10
7.3116382781
 20
6.8383188282
 10
7.291821851
 20
6.8792913529
 10
7.270083166
 20
6.9195114861
 10
7.2465529621
 20
6.9587373393
 10
7.2213727527
 20
6.9967330035
 10
7.1946939745
 20
7.0332699683
 10
7.1666770768
 20
7.0681284962
 10
7.1374905566
 20
7.1010989438
 10
7.107309945
 20
7.131983023
 10
7.0763167517
 20
7.1605949933
 10
7.0446973736
 20
7.186762779
 10
7.0126419731
 20
7.2103290039
 10
6.9803433354
 20
7.2311519379
 10
6.9479957082
 20
7.2491063495
 10
6.9157936339
 20
7.2640842587
 10
6.8839307796
 20
7.2759955867
 10
6.8525987723
 20
7.2847686973
 10
6.8219860463
 20
7.290350828
 10
6.7922767101
 20
7.2927084071
 10
6.7636494393
 20
7.291827256
 10
6.7362764016
 20
7.287712674
 10
6.7103222216
 20
7.2803894067
 10
6.6859429909
 20
7.269901497
 10
6.6632853289
 20
7.2563120204
 10
6.6424855017
 20
7.2397027058
 10
6.6236686017
 20
7.2201734434
 10
6.606947796
 20
7.1978416845
 10
6.5924236455
 20
7.1728417351
 10
6.5801835002
 20
7.1453239476
 10
6.5703009737
 20
7.1154538173
 10
6.5628355007
 20
7.0834109868
 10
6.5578319795
 20
7.0493881652
 10
6.5553205018
 20
7.01358997
 10
6.5553161719
 20
6.9762316957
 10
6.5578190158
 20
6.9375380192
 10
6.5628139813
 20
6.897741649
 10
6.5702710279
 20
6.8570819251
 10
6.5801453081
 20
6.8158033798
 10
6.5923774369
 20
6.7741542673
 10
6.6068938487
 20
6.73238507
 10
6.6236072401
 20
6.690746993
 10
6.6424170949
 20
6.6494904525
 10
6.6632102884
 20
6.6088635702
 10
6.6858617679
 20
6.5691106809
 10
6.7102353046
 20
6.5304708633
 10
6.7361843133
 20
6.4931765016
 10
6.7635527336
 20
6.4574518887
 10
6.7921759686
 20
6.4235118764
 10
6.8218818748
 20
6.3915605841
 10
6.8524917973
 20
6.3617901706
 10
6.8838216445
 20
6.3343796786
 10
6.9156829951
 20
6.3094939581
 10
6.947884231
 20
6.2872826747
 10
6.9802316903
 20
6.2678794097
 10
7.0125308315
 20
6.2514008566
 10
7.0445874039
 20
6.2379461194
 10
7.0762086154
 20
6.2275961164
 10
7.1072042923
 20
6.2204130938
 10
7.1373880229
 20
6.2164402512
 10
7.1665782789
 20
6.2157014815
 10
7.1945995064
 20
6.218201228
 10
7.2212831827
 20
6.2239244569
 10
7.2464688289
 20
6.2328367479
 10
7.2700049755
 20
6.2448845015
 10
7.2917500734
 20
6.2599952611
 10
7.3115733451
 20
6.2780781488
 10
7.329355571
 20
6.299024412
 10
7.3449898068
 20
6.3227080774
 10
7.3583820263
 20
6.3489867086
 10
7.3694516871
 20
6.377702263
 10
7.378132215
 20
6.4086820416
 10
7.3843714042
 20
6.4417397286
 10
7.3881317317
 20
6.4766765111
 10
7.3893905822
 20
6.5132822752
  0
LWPOLYLINE
  5
FA
330
1F
100
AcDbEntity
  8
0
  6
Continuous
 62
     7
370
     0
100
AcDbPolyline
 90
       22
 70
   128
 43
0.0
 10
7.4035327178
 20
6.5132811824
 10
7.4022525308
 20
6.4760549817
 10
7.398428469
 20
6.4405260503
 10
7.3920835308
 20
6.4069080636
 10
7.3832558753
 20
6.3754032039
 10
7.3719985931
 20
6.3462009453
 10
7.3583793868
 20
6.3194769135
 10
7.342480164
 20
6.29539183
 10
7.3243965444
 20
6.2740905454
 10
7.3042372851
 20
6.2557011681
 10
7.2821236262
 20
6.2403342939
 10
7.2581885618
 20
6.2280823411
 10
7.2325760403
 20
6.2190189943
 10
7.2054400984
 20
6.2131987616
 10
7.1769439347
 20
6.2106566465
 10
7.1472589287
 20
6.2114079377
 10
7.1165636093
 20
6.2154481167
 10
7.085042582
 20
6.2227528854
 10
7.0528854178
 20
6.2332783122
 10
7.0202855137
 20
6.2469610958
 10
6.9874389294
 20
6.2637189464
 10
6.979199698
 20
6.2683845066
  0
LWPOLYLINE
  5
FB
330
1F
100
AcDbEntity
  8
0
  6
Continuous
 62
     7
370
     0
100
AcDbPolyline
 90
       43
 70
   128
 43
0.0
 10
6.5550045841
 20
7.0031916141
 10
6.5553258563
 20
7.0220686687
 10
6.5578799014
 20
7.058473613
 10
6.5629682281
 20
7.0930730925
 10
6.5705602345
 20
7.1256590219
 10
6.5806102615
 20
7.1560354256
 10
6.5930578669
 20
7.1840196162
 10
6.6078281894
 20
7.2094432937
 10
6.6248323986
 20
7.2321535569
 10
6.6439682291
 20
7.2520138237
 10
6.6651205958
 20
7.2689046522
 10
6.6881622859
 20
7.2827244588
 10
6.7129547239
 20
7.2933901297
 10
6.7393488052
 20
7.3008375202
 10
6.7671857928
 20
7.3050218409
 10
6.7962982716
 20
7.3059179268
 10
6.8265111558
 20
7.3035203887
 10
6.8576427416
 20
7.2978436456
 10
6.8895057999
 20
7.2889218383
 10
6.9219087025
 20
7.2768086234
 10
6.9546565747
 20
7.2615768512
 10
6.9875524668
 20
7.2433181276
 10
7.0203985391
 20
7.2221422624
 10
7.0529972513
 20
7.19817661
 10
7.0851525512
 20
7.1715653026
 10
7.1166710528
 20
7.1424683836
 10
7.1473632002
 20
7.1110608454
 10
7.1770444072
 20
7.0775315767
 10
7.2055361675
 20
7.0420822263
 10
7.2326671284
 20
7.0049259909
 10
7.2582741211
 20
6.9662863324
 10
7.282203142
 20
6.9263956342
 10
7.3043102793
 20
6.8854938038
 10
7.324462578
 20
6.8438268296
 10
7.3425388398
 20
6.8016453015
 10
7.3584303519
 20
6.7592029044
 10
7.372041541
 20
6.7167548917
 10
7.3832905477
 20
6.6745565509
 10
7.3921097192
 20
6.6328616677
 10
7.398446016
 20
6.591921
 10
7.4022613307
 20
6.5519807698
 10
7.4035327178
 20
6.5132811824
 10
7.4035327178
 20
6.5132811824
  0
SPLINE
  5
FC
330
1F
100
AcDbEntity
  8
0
  6
Continuous
 62
     7
370
     0
100
AcDbSpline
210
0.0
220
0.0
230
1.0
 70
    24
 71
     1
 72
     4
 73
     2
 74
     0
 42
0.00000001
 43
0.00000001
 40
0.0
 40
0.0
 40
1.0
 40
1.0
 10
8.018936877926896
 20
7.687281953223239
 30
0.0
 10
8.036680412783245
 20
7.682847532408472
 30
0.0
  0
ARC
  5
FD
330
1F
100
AcDbEntity
  8
0
  6
Continuous
 62
     7
370
     0
100
AcDbCircle
 10
8.0013945599
 20
7.6493181234
 30
0.0
 40
0.0418208715076145
100
AcDbArc
 50
65.199296126
 51
112.987309411
  0
SPLINE
  5
FE
330
1F
100
AcDbEntity
  8
0
  6
Continuous
 62
     7
370
     0
100
AcDbSpline
210
0.0
220
0.0
230
1.0
 70
     8
 71
     3
 72
    13
 73
     9
 74
     0
 42
0.00000001
 43
0.00000001
 40
0.0
 40
0.0
 40
0.0
 40
0.0
 40
0.2505394783770739
 40
0.4996876272643412
 40
0.6251017812183127
 40
0.7498743002531959
 40
0.8749192415306466
 40
1.0
 40
1.0
 40
1.0
 40
1.0
 10
7.990497414957207
 20
7.658156452388967
 30
0.0
 10
7.988018869066115
 20
7.660585926154367
 30
0.0
 10
7.983075541477954
 20
7.665431382005065
 30
0.0
 10
7.978796161556686
 20
7.672317944799696
 30
0.0
 10
7.978092971207153
 20
7.677890742755204
 30
0.0
 10
7.979067616321465
 20
7.681800218777295
 30
0.0
 10
7.981308494565558
 20
7.685287049085042
 30
0.0
 10
7.983810959159648
 20
7.686974307185217
 30
0.0
 10
7.985062370629114
 20
7.687818057040258
 30
0.0
  0
ARC
  5
FF
330
1F
100
AcDbEntity
  8
0
  6
Continuous
 62
     7
370
     0
100
AcDbCircle
 10
8.017685054
 20
7.6797823122
 30
0.0
 40
0.0347396823589997
100
AcDbArc
 50
218.4997872209
 51
291.132108105
  0
SPLINE
  5
100
330
1F
100
AcDbEntity
  8
0
  6
Continuous
 62
     7
370
     0
100
AcDbSpline
210
0.0
220
0.0
230
1.0
 70
    24
 71
     1
 72
     4
 73
     2
 74
     0
 42
0.00000001
 43
0.00000001
 40
0.0
 40
0.0
 40
1.0
 40
1.0
 10
8.016631325795178
 20
7.662908373762628
 30
0.0
 10
8.03020938944458
 20
7.647378816158436
 30
0.0
  0
ARC
  5
101
330
1F
100
AcDbEntity
  8
0
  6
Continuous
 62
     7
370
     0
100
AcDbCircle
 10
8.0100902385
 20
7.6750261765
 30
0.0
 40
0.013770510688339
100
AcDbArc
 50
228.1055277216
 51
298.3597977087
  0
SPLINE
  5
102
330
1F
100
AcDbEntity
  8
0
  6
Continuous
 62
     7
370
     0
100
AcDbSpline
210
0.0
220
0.0
230
1.0
 70
     8
 71
     3
 72
    12
 73
     8
 74
     0
 42
0.00000001
 43
0.00000001
 40
0.0
 40
0.0
 40
0.0
 40
0.0
 40
0.2494023648056388
 40
0.4991486310883329
 40
0.7488658669771227
 40
0.8743546734024654
 40
1.0
 40
1.0
 40
1.0
 40
1.0
 10
8.000731141570542
 20
7.674443295716466
 30
0.0
 10
7.999967288428568
 20
7.673859497508594
 30
0.0
 10
7.998438528865818
 20
7.672691096092198
 30
0.0
 10
7.997907695478077
 20
7.670019717701391
 30
0.0
 10
7.99854733684982
 20
7.667707248773399
 30
0.0
 10
7.99972643117801
 20
7.665967047277677
 30
0.0
 10
8.000505203322234
 20
7.665173006828201
 30
0.0
 10
8.000894832080494
 20
7.664775739159304
 30
0.0
  0
ARC
  5
103
330
1F
100
AcDbEntity
  8
0
  6
Continuous
 62
     7
370
     0
100
AcDbCircle
 10
8.0097837433
 20
7.6473343983
 30
0.0
 40
0.0285804463788631
100
AcDbArc
 50
60.3112495972
 51
108.4659538632
  0
ARC
  5
104
330
1F
100
AcDbEntity
  8
0
  6
Continuous
 62
     7
370
     0
100
AcDbCircle
 10
8.0513906177
 20
7.7321821185
 30
0.0
 40
0.0659989617835314
100
AcDbArc
 50
245.4217491603
 51
287.2293088796
  0
ARC
  5
105
330
1F
100
AcDbEntity
  8
0
  6
Continuous
 62
     7
370
     0
100
AcDbCircle
 10
7.4764908924
 20
7.0888039387
 30
0.0
 40
0.8307612966669071
100
AcDbArc
 50
44.3119893462
 51
48.5978999033
  0
LINE
  5
106
330
1F
100
AcDbEntity
  8
0
  6
Continuous
 62
     7
370
     0
100
AcDbLine
 10
8.01303807
 20
7.7045185273
 30
0.0
 11
8.025906036
 21
7.7119470459
 31
0.0
  0
ARC
  5
107
330
1F
100
AcDbEntity
  8
0
  6
Continuous
 62
     7
370
     0
100
AcDbCircle
 10
7.4777311745
 20
7.0967843017
 30
0.0
 40
0.8098730526575794
100
AcDbArc
 50
46.3565154037
 51
48.6256262903
  0
LINE
  5
108
330
1F
100
AcDbEntity
  8
0
  6
Continuous
 62
     7
370
     0
100
AcDbLine
 10
7.9320648229
 20
7.7265261077
 30
0.0
 11
7.9446572926
 21
7.7337955858
 31
0.0
  0
ARC
  5
109
330
1F
100
AcDbEntity
  8
0
  6
Continuous
 62
     7
370
     0
100
AcDbCircle
 10
7.5001091062
 20
7.1412870071
 30
0.0
 40
0.7273861051753868
100
AcDbArc
 50
49.3848172271
 51
53.5695523399
  0
LINE
  5
10A
330
1F
100
AcDbEntity
  8
0
  6
Continuous
 62
     7
370
     0
100
AcDbLine
 10
7.9862120318
 20
7.7007144283
 30
0.0
 11
7.973619562
 21
7.6934449503
 31
0.0
  0
ARC
  5
10B
330
1F
100
AcDbEntity
  8
0
  6
Continuous
 62
     7
370
     0
100
AcDbCircle
 10
7.512701576
 20
7.1485564852
 30
0.0
 40
0.7273861051748426
100
AcDbArc
 50
49.3848172271
 51
53.5695523399
  0
ARC
  5
10C
330
1F
100
AcDbEntity
  8
0
  6
Continuous
 62
     7
370
     0
100
AcDbCircle
 10
7.8719421449
 20
7.756823136
 30
0.0
 40
0.0524927252004575
100
AcDbArc
 50
66.1779139874
 51
127.200020808
  0
SPLINE
  5
10D
330
1F
100
AcDbEntity
  8
0
  6
Continuous
 62
     7
370
     0
100
AcDbSpline
210
0.0
220
0.0
230
1.0
 70
    24
 71
     1
 72
     4
 73
     2
 74
     0
 42
0.00000001
 43
0.00000001
 40
0.0
 40
0.0
 40
1.0
 40
1.0
 10
7.828543490466596
 20
7.790282785754751
 30
0.0
 10
7.840205074511728
 20
7.798635150599136
 30
0.0
  0
SPLINE
  5
10E
330
1F
100
AcDbEntity
  8
0
  6
Continuous
 62
     7
370
     0
100
AcDbSpline
210
0.0
220
0.0
230
1.0
 70
     8
 71
     3
 72
    12
 73
     8
 74
     0
 42
0.00000001
 43
0.00000001
 40
0.0
 40
0.0
 40
0.0
 40
0.0
 40
0.2503262674180359
 40
0.4997345046006514
 40
0.6249000363599466
 40
0.7501600021982637
 40
1.0
 40
1.0
 40
1.0
 40
1.0
 10
7.833993340995234
 20
7.771155987719408
 30
0.0
 10
7.83167493100298
 20
7.772412944909661
 30
0.0
 10
7.827046613404147
 20
7.774922249607303
 30
0.0
 10
7.82385616352333
 20
7.779050435793973
 30
0.0
 10
7.823595055788051
 20
7.782573307256536
 30
0.0
 10
7.824483155471465
 20
7.786141412504562
 30
0.0
 10
7.826920239996396
 20
7.78862713761643
 30
0.0
 10
7.828543490466596
 20
7.790282785754751
 30
0.0
  0
ARC
  5
10F
330
1F
100
AcDbEntity
  8
0
  6
Continuous
 62
     7
370
     0
100
AcDbCircle
 10
7.8568751351
 20
7.8173202913
 30
0.0
 40
0.0515239694913756
100
AcDbArc
 50
243.6342294827
 51
305.3691121819
  0
SPLINE
  5
110
330
1F
100
AcDbEntity
  8
0
  6
Continuous
 62
     7
370
     0
100
AcDbSpline
210
0.0
220
0.0
230
1.0
 70
     8
 71
     3
 72
     9
 73
     5
 74
     0
 42
0.00000001
 43
0.00000001
 40
0.0
 40
0.0
 40
0.0
 40
0.0
 40
0.4987092906772083
 40
1.0
 40
1.0
 40
1.0
 40
1.0
 10
7.90296542770206
 20
7.789646084658064
 30
0.0
 10
7.901050559428798
 20
7.786976254224967
 30
0.0
 10
7.897210911142595
 20
7.781622773784542
 30
0.0
 10
7.890209231832815
 20
7.777414936988551
 30
0.0
 10
7.886699355045163
 20
7.775305587496374
 30
0.0
  0
SPLINE
  5
111
330
1F
100
AcDbEntity
  8
0
  6
Continuous
 62
     7
370
     0
100
AcDbSpline
210
0.0
220
0.0
230
1.0
 70
     8
 71
     3
 72
    11
 73
     7
 74
     0
 42
0.00000001
 43
0.00000001
 40
0.0
 40
0.0
 40
0.0
 40
0.0
 40
0.2504031889031619
 40
0.5003824607867491
 40
0.7500984159891376
 40
1.0
 40
1.0
 40
1.0
 40
1.0
 10
7.893143849470497
 20
7.804843693307886
 30
0.0
 10
7.894905238887797
 20
7.803877172613586
 30
0.0
 10
7.898425035799702
 20
7.801945767484391
 30
0.0
 10
7.902339786645705
 20
7.798299374419948
 30
0.0
 10
7.904077700510776
 20
7.794013970895355
 30
0.0
 10
7.903336277128229
 20
7.791102407326368
 30
0.0
 10
7.90296542770206
 20
7.789646084658064
 30
0.0
  0
LINE
  5
112
330
1F
100
AcDbEntity
  8
0
  6
Continuous
 62
     7
370
     0
100
AcDbLine
 10
7.7479322598
 20
7.8329287244
 30
0.0
 11
7.7689273621
 21
7.845048939
 31
0.0
  0
ARC
  5
113
330
1F
100
AcDbEntity
  8
0
  6
Continuous
 62
     7
370
     0
100
AcDbCircle
 10
7.73397434
 20
7.8533742483
 30
0.0
 40
0.0247556654518682
100
AcDbArc
 50
268.5616794796
 51
304.3208959899
  0
SPLINE
  5
114
330
1F
100
AcDbEntity
  8
0
  6
Continuous
 62
     7
370
     0
100
AcDbSpline
210
0.0
220
0.0
230
1.0
 70
     8
 71
     3
 72
    11
 73
     7
 74
     0
 42
0.00000001
 43
0.00000001
 40
0.0
 40
0.0
 40
0.0
 40
0.0
 40
0.249476793806361
 40
0.5035301868969168
 40
0.7522417857346172
 40
1.0
 40
1.0
 40
1.0
 40
1.0
 10
7.732478512876619
 20
7.831118253291359
 30
0.0
 10
7.732182885272816
 20
7.830821684428466
 30
0.0
 10
7.731586206839027
 20
7.830223106209298
 30
0.0
 10
7.731487363621025
 20
7.829454789572578
 30
0.0
 10
7.732040731080406
 20
7.82887348456845
 30
0.0
 10
7.732916106141548
 20
7.828708644472505
 30
0.0
 10
7.733352953168772
 20
7.828626382698006
 30
0.0
  0
SPLINE
  5
115
330
1F
100
AcDbEntity
  8
0
  6
Continuous
 62
     7
370
     0
100
AcDbSpline
210
0.0
220
0.0
230
1.0
 70
    24
 71
     1
 72
     4
 73
     2
 74
     0
 42
0.00000001
 43
0.00000001
 40
0.0
 40
0.0
 40
1.0
 40
1.0
 10
7.735876072260585
 20
7.833276680888388
 30
0.0
 10
7.732478512876619
 20
7.831118253291359
 30
0.0
  0
LINE
  5
116
330
1F
100
AcDbEntity
  8
0
  6
Continuous
 62
     7
370
     0
100
AcDbLine
 10
7.7585356305
 20
7.8463577654
 30
0.0
 11
7.7358760723
 21
7.8332766809
 31
0.0
  0
ARC
  5
117
330
1F
100
AcDbEntity
  8
0
  6
Continuous
 62
     7
370
     0
100
AcDbCircle
 10
7.72738822
 20
7.5595766468
 30
0.0
 40
0.2884676258737937
100
AcDbArc
 50
83.8013800025
 51
86.6977912051
  0
LINE
  5
118
330
1F
100
AcDbEntity
  8
0
  6
Continuous
 62
     7
370
     0
100
AcDbLine
 10
7.722768519
 20
7.835305925
 30
0.0
 11
7.7440046804
 21
7.8475653001
 31
0.0
  0
ARC
  5
119
330
1F
100
AcDbEntity
  8
0
  6
Continuous
 62
     7
370
     0
100
AcDbCircle
 10
7.7073707379
 20
7.858412325
 30
0.0
 40
0.02776683963435
100
AcDbArc
 50
272.6447685645
 51
303.6789323134
  0
SPLINE
  5
11A
330
1F
100
AcDbEntity
  8
0
  6
Continuous
 62
     7
370
     0
100
AcDbSpline
210
0.0
220
0.0
230
1.0
 70
     8
 71
     3
 72
    10
 73
     6
 74
     0
 42
0.00000001
 43
0.00000001
 40
0.0
 40
0.0
 40
0.0
 40
0.0
 40
0.4988594542991847
 40
0.749198759526635
 40
1.0
 40
1.0
 40
1.0
 40
1.0
 10
7.707207906788314
 20
7.832016549103421
 30
0.0
 10
7.707102094446573
 20
7.831668522617307
 30
0.0
 10
7.706943183004699
 20
7.831145848326118
 30
0.0
 10
7.707676226006098
 20
7.830760076997564
 30
0.0
 10
7.708326540770713
 20
7.830703417798413
 30
0.0
 10
7.708651997872644
 20
7.830675062085521
 30
0.0
  0
SPLINE
  5
11B
330
1F
100
AcDbEntity
  8
0
  6
Continuous
 62
     7
370
     0
100
AcDbSpline
210
0.0
220
0.0
230
1.0
 70
     8
 71
     3
 72
     9
 73
     5
 74
     0
 42
0.00000001
 43
0.00000001
 40
0.0
 40
0.0
 40
0.0
 40
0.0
 40
0.5015784057012755
 40
1.0
 40
1.0
 40
1.0
 40
1.0
 10
7.710379386047543
 20
7.834430189835163
 30
0.0
 10
7.709656852116204
 20
7.834005151171665
 30
0.0
 10
7.708216331704786
 20
7.833157748933717
 30
0.0
 10
7.707543340258113
 20
7.8323961476363
 30
0.0
 10
7.707207906788314
 20
7.832016549103421
 30
0.0
  0
LINE
  5
11C
330
1F
100
AcDbEntity
  8
0
  6
Continuous
 62
     7
370
     0
100
AcDbLine
 10
7.7338195167
 20
7.8479618892
 30
0.0
 11
7.710379386
 21
7.8344301898
 31
0.0
  0
ARC
  5
11D
330
1F
100
AcDbEntity
  8
0
  6
Continuous
 62
     7
370
     0
100
AcDbCircle
 10
7.7284788643
 20
7.5868483971
 30
0.0
 40
0.2611681035913608
100
AcDbArc
 50
88.8282712613
 51
91.9231746433
  0
LINE
  5
11E
330
1F
100
AcDbEntity
  8
0
  6
Continuous
 62
     7
370
     0
100
AcDbLine
 10
7.6938749694
 20
7.8329527135
 30
0.0
 11
7.7197142123
 21
7.8478693909
 31
0.0
  0
SPLINE
  5
11F
330
1F
100
AcDbEntity
  8
0
  6
Continuous
 62
     7
370
     0
100
AcDbSpline
210
0.0
220
0.0
230
1.0
 70
     8
 71
     3
 72
    13
 73
     9
 74
     0
 42
0.00000001
 43
0.00000001
 40
0.0
 40
0.0
 40
0.0
 40
0.0
 40
0.2493026324883156
 40
0.3767800005130923
 40
0.4994269650589674
 40
0.6183515801712582
 40
0.7497380290330115
 40
1.0
 40
1.0
 40
1.0
 40
1.0
 10
7.69017902535907
 20
7.823702191327919
 30
0.0
 10
7.688492660420653
 20
7.823809777525649
 30
0.0
 10
7.685943996670012
 20
7.823972376400883
 30
0.0
 10
7.684697779781022
 20
7.825081100112902
 30
0.0
 10
7.684831139768731
 20
7.826251570324571
 30
0.0
 10
7.686091104965868
 20
7.827742199890354
 30
0.0
 10
7.688899798527688
 20
7.829971129125571
 30
0.0
 10
7.69190460132155
 20
7.831771885965211
 30
0.0
 10
7.693874969415559
 20
7.832952713482126
 30
0.0
  0
ARC
  5
120
330
1F
100
AcDbEntity
  8
0
  6
Continuous
 62
     7
370
     0
100
AcDbCircle
 10
7.6900716788
 20
7.8826947311
 30
0.0
 40
0.0589926374427623
100
AcDbArc
 50
270.1042589267
 51
289.8503240136
  0
SPLINE
  5
121
330
1F
100
AcDbEntity
  8
0
  6
Continuous
 62
     7
370
     0
100
AcDbSpline
210
0.0
220
0.0
230
1.0
 70
     8
 71
     3
 72
    12
 73
     8
 74
     0
 42
0.00000001
 43
0.00000001
 40
0.0
 40
0.0
 40
0.0
 40
0.0
 40
0.2503253654036807
 40
0.499997877742097
 40
0.7494826629082496
 40
0.8746982187917912
 40
1.0
 40
1.0
 40
1.0
 40
1.0
 10
7.714637498505166
 20
7.822263247456284
 30
0.0
 10
7.713517210440188
 20
7.82240533993387
 30
0.0
 10
7.7112795560417
 20
7.822689154309299
 30
0.0
 10
7.709021104155656
 20
7.82362354868101
 30
0.0
 10
7.708756407721863
 20
7.824959753290907
 30
0.0
 10
7.70931264127791
 20
7.826201737871526
 30
0.0
 10
7.709839796983939
 20
7.826872013011505
 30
0.0
 10
7.710103465557564
 20
7.827207265932178
 30
0.0
  0
ARC
  5
122
330
1F
100
AcDbEntity
  8
0
  6
Continuous
 62
     7
370
     0
100
AcDbCircle
 10
7.7189202598
 20
7.8730930541
 30
0.0
 40
0.0510099135944337
100
AcDbArc
 50
265.1838114899
 51
288.1388076759
  0
LINE
  5
123
330
1F
100
AcDbEntity
  8
0
  6
Continuous
 62
     7
370
     0
100
AcDbLine
 10
7.7287971542
 20
7.8211523153
 30
0.0
 11
7.7348006745
 21
7.8246180738
 31
0.0
  0
ARC
  5
124
330
1F
100
AcDbEntity
  8
0
  6
Continuous
 62
     7
370
     0
100
AcDbCircle
 10
7.6820798913
 20
7.5032048985
 30
0.0
 40
0.3213612647863957
100
AcDbArc
 50
79.1298965729
 51
81.6411184973
  0
LINE
  5
125
330
1F
100
AcDbEntity
  8
0
  6
Continuous
 62
     7
370
     0
100
AcDbLine
 10
7.7838239329
 20
7.8425501119
 30
0.0
 11
7.7426831748
 21
7.8188000577
 31
0.0
  0
ARC
  5
126
330
1F
100
AcDbEntity
  8
0
  6
Continuous
 62
     7
370
     0
100
AcDbCircle
 10
7.7233409398
 20
7.5276370813
 30
0.0
 40
0.3206686908886049
100
AcDbArc
 50
79.1280194157
 51
81.8271154196
  0
SPLINE
  5
127
330
1F
100
AcDbEntity
  8
0
  6
Continuous
 62
     7
370
     0
100
AcDbSpline
210
0.0
220
0.0
230
1.0
 70
    24
 71
     1
 72
     4
 73
     2
 74
     0
 42
0.00000001
 43
0.00000001
 40
0.0
 40
0.0
 40
1.0
 40
1.0
 10
7.569839789980411
 20
7.203700201644087
 30
0.0
 10
7.576911578811296
 20
7.195072277616237
 30
0.0
  0
SPLINE
  5
128
330
1F
100
AcDbEntity
  8
0
  6
Continuous
 62
     7
370
     0
100
AcDbSpline
210
0.0
220
0.0
230
1.0
 70
    24
 71
     1
 72
     4
 73
     2
 74
     0
 42
0.00000001
 43
0.00000001
 40
0.0
 40
0.0
 40
1.0
 40
1.0
 10
7.562576384681165
 20
7.210259795764478
 30
0.0
 10
7.569839789980411
 20
7.203700201644087
 30
0.0
  0
ARC
  5
129
330
1F
100
AcDbEntity
  8
0
  6
Continuous
 62
     7
370
     0
100
AcDbCircle
 10
7.5518919666
 20
7.1933976179
 30
0.0
 40
0.0199622101618355
100
AcDbArc
 50
57.6403383918
 51
117.1667356664
  0
ARC
  5
12A
330
1F
100
AcDbEntity
  8
0
  6
Continuous
 62
     7
370
     0
100
AcDbCircle
 10
7.5507959175
 20
7.1982817664
 30
0.0
 40
0.0151684342197018
100
AcDbArc
 50
121.9122110406
 51
215.3379342815
  0
ARC
  5
12B
330
1F
100
AcDbEntity
  8
0
  6
Continuous
 62
     7
370
     0
100
AcDbCircle
 10
7.5228039815
 20
7.1713786331
 30
0.0
 40
0.0239293996715555
100
AcDbArc
 50
49.2561199063
 51
73.3546578478
  0
SPLINE
  5
12C
330
1F
100
AcDbEntity
  8
0
  6
Continuous
 62
     7
370
     0
100
AcDbSpline
210
0.0
220
0.0
230
1.0
 70
     8
 71
     3
 72
     9
 73
     5
 74
     0
 42
0.00000001
 43
0.00000001
 40
0.0
 40
0.0
 40
0.0
 40
0.0
 40
0.5001654445837137
 40
1.0
 40
1.0
 40
1.0
 40
1.0
 10
7.518446537749406
 20
7.192871636036482
 30
0.0
 10
7.520131112215756
 20
7.193656439739357
 30
0.0
 10
7.523499146702328
 20
7.195225527950813
 30
0.0
 10
7.527605820703489
 20
7.194611974799353
 30
0.0
 10
7.5296584782771
 20
7.194305299732669
 30
0.0
  0
SPLINE
  5
12D
330
1F
100
AcDbEntity
  8
0
  6
Continuous
 62
     7
370
     0
100
AcDbSpline
210
0.0
220
0.0
230
1.0
 70
     8
 71
     3
 72
    14
 73
    10
 74
     0
 42
0.00000001
 43
0.00000001
 40
0.0
 40
0.0
 40
0.0
 40
0.0
 40
0.2499004290089014
 40
0.3800976031652376
 40
0.499957105849648
 40
0.6257216768224702
 40
0.7499966555365214
 40
0.8749516763669369
 40
1.0
 40
1.0
 40
1.0
 40
1.0
 10
7.51807497759975
 20
7.165248136046679
 30
0.0
 10
7.51651509340037
 20
7.167710257758202
 30
0.0
 10
7.514142515459022
 20
7.17145513552797
 30
0.0
 10
7.512350739372224
 20
7.176770256250697
 30
0.0
 10
7.511789902854173
 20
7.180767130859181
 30
0.0
 10
7.512139006110716
 20
7.184534496303891
 30
0.0
 10
7.513381688289654
 20
7.187973985501797
 30
0.0
 10
7.515472974603146
 20
7.190880797206762
 30
0.0
 10
7.51745510345305
 20
7.192207858004129
 30
0.0
 10
7.518446537749406
 20
7.192871636036482
 30
0.0
  0
ARC
  5
12E
330
1F
100
AcDbEntity
  8
0
  6
Continuous
 62
     7
370
     0
100
AcDbCircle
 10
6.6715762225
 20
6.5810899226
 30
0.0
 40
1.028494511768137
100
AcDbArc
 50
32.029875732
 51
34.6090719532
  0
LINE
  5
12F
330
1F
100
AcDbEntity
  8
0
  6
Continuous
 62
     7
370
     0
100
AcDbLine
 10
7.6003028499
 20
7.1593525596
 30
0.0
 11
7.5435047273
 21
7.1265637013
 31
0.0
  0
ARC
  5
130
330
1F
100
AcDbEntity
  8
0
  6
Continuous
 62
     7
370
     0
100
AcDbCircle
 10
6.727822063
 20
6.6135221117
 30
0.0
 40
1.029151884525503
100
AcDbArc
 50
32.0304026711
 51
34.4076456822
  0
ARC
  5
131
330
1F
100
AcDbEntity
  8
0
  6
Continuous
 62
     7
370
     0
100
AcDbCircle
 10
6.8136926195
 20
6.6892299631
 30
0.0
 40
0.8883180764825043
100
AcDbArc
 50
43.5091954327
 51
43.6433484729
  0
ARC
  5
132
330
1F
100
AcDbEntity
  8
0
  6
Continuous
 62
     7
370
     0
100
AcDbCircle
 10
7.4634420527
 20
7.3092630017
 30
0.0
 40
0.0098027442860913
100
AcDbArc
 50
191.9078827393
 51
225.1110401843
  0
SPLINE
  5
133
330
1F
100
AcDbEntity
  8
0
  6
Continuous
 62
     7
370
     0
100
AcDbSpline
210
0.0
220
0.0
230
1.0
 70
    24
 71
     1
 72
     4
 73
     2
 74
     0
 42
0.00000001
 43
0.00000001
 40
0.0
 40
0.0
 40
1.0
 40
1.0
 10
7.455263360539616
 20
7.312814003345551
 30
0.0
 10
7.453850257514977
 20
7.307240315193329
 30
0.0
  0
SPLINE
  5
134
330
1F
100
AcDbEntity
  8
0
  6
Continuous
 62
     7
370
     0
100
AcDbSpline
210
0.0
220
0.0
230
1.0
 70
    24
 71
     1
 72
     4
 73
     2
 74
     0
 42
0.00000001
 43
0.00000001
 40
0.0
 40
0.0
 40
1.0
 40
1.0
 10
7.463849303864427
 20
7.331694347054906
 30
0.0
 10
7.455263360539616
 20
7.312814003345551
 30
0.0
  0
ARC
  5
135
330
1F
100
AcDbEntity
  8
0
  6
Continuous
 62
     7
370
     0
100
AcDbCircle
 10
6.8708422369
 20
6.7363379744
 30
0.0
 40
0.8403014886825447
100
AcDbArc
 50
45.1132693275
 51
46.8952041216
  0
SPLINE
  5
136
330
1F
100
AcDbEntity
  8
0
  6
Continuous
 62
     7
370
     0
100
AcDbSpline
210
0.0
220
0.0
230
1.0
 70
    24
 71
     1
 72
     4
 73
     2
 74
     0
 42
0.00000001
 43
0.00000001
 40
0.0
 40
0.0
 40
1.0
 40
1.0
 10
7.436664650074804
 20
7.332684221005764
 30
0.0
 10
7.445049561177566
 20
7.349846361200997
 30
0.0
  0
SPLINE
  5
137
330
1F
100
AcDbEntity
  8
0
  6
Continuous
 62
     7
370
     0
100
AcDbSpline
210
0.0
220
0.0
230
1.0
 70
    24
 71
     1
 72
     4
 73
     2
 74
     0
 42
0.00000001
 43
0.00000001
 40
0.0
 40
0.0
 40
1.0
 40
1.0
 10
7.43514539046022
 20
7.324091305744888
 30
0.0
 10
7.436664650074804
 20
7.332684221005764
 30
0.0
  0
SPLINE
  5
138
330
1F
100
AcDbEntity
  8
0
  6
Continuous
 62
     7
370
     0
100
AcDbSpline
210
0.0
220
0.0
230
1.0
 70
    24
 71
     1
 72
     4
 73
     2
 74
     0
 42
0.00000001
 43
0.00000001
 40
0.0
 40
0.0
 40
1.0
 40
1.0
 10
7.437353692846304
 20
7.318637859617375
 30
0.0
 10
7.43514539046022
 20
7.324091305744888
 30
0.0
  0
SPLINE
  5
139
330
1F
100
AcDbEntity
  8
0
  6
Continuous
 62
     7
370
     0
100
AcDbSpline
210
0.0
220
0.0
230
1.0
 70
    24
 71
     1
 72
     4
 73
     2
 74
     0
 42
0.00000001
 43
0.00000001
 40
0.0
 40
0.0
 40
1.0
 40
1.0
 10
7.429297619161184
 20
7.323057054011739
 30
0.0
 10
7.437353692846304
 20
7.318637859617375
 30
0.0
  0
ARC
  5
13A
330
1F
100
AcDbEntity
  8
0
  6
Continuous
 62
     7
370
     0
100
AcDbCircle
 10
7.4199668886
 20
7.3000225694
 30
0.0
 40
0.0248525655502102
100
AcDbArc
 50
67.9482824453
 51
117.7054686968
  0
SPLINE
  5
13B
330
1F
100
AcDbEntity
  8
0
  6
Continuous
 62
     7
370
     0
100
AcDbSpline
210
0.0
220
0.0
230
1.0
 70
     8
 71
     3
 72
    14
 73
    10
 74
     0
 42
0.00000001
 43
0.00000001
 40
0.0
 40
0.0
 40
0.0
 40
0.0
 40
0.250381722561147
 40
0.3755492991303458
 40
0.5004182237810778
 40
0.6251583274705481
 40
0.7499167264440004
 40
0.8736417210984235
 40
1.0
 40
1.0
 40
1.0
 40
1.0
 10
7.413399764317263
 20
7.292516949476402
 30
0.0
 10
7.41102143181914
 20
7.295000027920992
 30
0.0
 10
7.407454154249384
 20
7.298724414669404
 30
0.0
 10
7.403514971961004
 20
7.303991877208242
 30
0.0
 10
7.401480839376684
 20
7.308186107303677
 30
0.0
 10
7.401087593691626
 20
7.312412356469251
 30
0.0
 10
7.402214098469754
 20
7.316275347965576
 30
0.0
 10
7.404686988446137
 20
7.319600002282573
 30
0.0
 10
7.407161823756569
 20
7.321211524371227
 30
0.0
 10
7.408412270961391
 20
7.322025769780921
 30
0.0
  0
ARC
  5
13C
330
1F
100
AcDbEntity
  8
0
  6
Continuous
 62
     7
370
     0
100
AcDbCircle
 10
6.7756492119
 20
6.6655631587
 30
0.0
 40
0.8943136043695631
100
AcDbArc
 50
41.9903026391
 51
44.5108786897
  0
LINE
  5
13D
330
1F
100
AcDbEntity
  8
0
  6
Continuous
 62
     7
370
     0
100
AcDbLine
 10
7.4971531343
 20
7.2966521278
 30
0.0
 11
7.4403550117
 21
7.2638632696
 31
0.0
  0
ARC
  5
13E
330
1F
100
AcDbEntity
  8
0
  6
Continuous
 62
     7
370
     0
100
AcDbCircle
 10
6.8254741352
 20
6.6919248606
 30
0.0
 40
0.9037962965018568
100
AcDbArc
 50
41.997398512
 51
43.5052786893
  0
LINE
  5
13F
330
1F
100
AcDbEntity
  8
0
  6
Continuous
 62
     7
370
     0
100
AcDbLine
 10
7.4579576407
 20
7.3008111821
 30
0.0
 11
7.4810074851
 21
7.314117574
 31
0.0
  0
ARC
  5
140
330
1F
100
AcDbEntity
  8
0
  6
Continuous
 62
     7
370
     0
100
AcDbCircle
 10
7.3181381941
 20
7.3909576409
 30
0.0
 40
0.0473110198313675
100
AcDbArc
 50
59.218329169
 51
127.5146486412
  0
SPLINE
  5
141
330
1F
100
AcDbEntity
  8
0
  6
Continuous
 62
     7
370
     0
100
AcDbSpline
210
0.0
220
0.0
230
1.0
 70
    24
 71
     1
 72
     4
 73
     2
 74
     0
 42
0.00000001
 43
0.00000001
 40
0.0
 40
0.0
 40
1.0
 40
1.0
 10
7.277676281969163
 20
7.419917746891587
 30
0.0
 10
7.289327474666547
 20
7.428484631788179
 30
0.0
  0
SPLINE
  5
142
330
1F
100
AcDbEntity
  8
0
  6
Continuous
 62
     7
370
     0
100
AcDbSpline
210
0.0
220
0.0
230
1.0
 70
     8
 71
     3
 72
    12
 73
     8
 74
     0
 42
0.00000001
 43
0.00000001
 40
0.0
 40
0.0
 40
0.0
 40
0.0
 40
0.2503262674180357
 40
0.4997345046006518
 40
0.6249000363599455
 40
0.7501600021982627
 40
1.0
 40
1.0
 40
1.0
 40
1.0
 10
7.283199709805984
 20
7.397971689557954
 30
0.0
 10
7.280878425538428
 20
7.399546495219275
 30
0.0
 10
7.276244369929924
 20
7.402690331202292
 30
0.0
 10
7.273032771936231
 20
7.407576855818516
 30
0.0
 10
7.272754981200745
 20
7.411573233870349
 30
0.0
 10
7.273627026887319
 20
7.415539240993106
 30
0.0
 10
7.27605746105329
 20
7.418167297293953
 30
0.0
 10
7.277676281969163
 20
7.419917746891587
 30
0.0
  0
ARC
  5
143
330
1F
100
AcDbEntity
  8
0
  6
Continuous
 62
     7
370
     0
100
AcDbCircle
 10
7.3087235321
 20
7.4368831107
 30
0.0
 40
0.0465356228854736
100
AcDbArc
 50
236.737256301
 51
305.650466228
  0
SPLINE
  5
144
330
1F
100
AcDbEntity
  8
0
  6
Continuous
 62
     7
370
     0
100
AcDbSpline
210
0.0
220
0.0
230
1.0
 70
     8
 71
     3
 72
     9
 73
     5
 74
     0
 42
0.00000001
 43
0.00000001
 40
0.0
 40
0.0
 40
0.0
 40
0.0
 40
0.4987092906772032
 40
0.9999999999999999
 40
0.9999999999999999
 40
0.9999999999999999
 40
0.9999999999999999
 10
7.352134460567943
 20
7.413964005140786
 30
0.0
 10
7.350212805145355
 20
7.411118527378796
 30
0.0
 10
7.34635954742886
 20
7.405412843095018
 30
0.0
 10
7.339356744510388
 20
7.401187140753836
 30
0.0
 10
7.335846304468139
 20
7.399068835429839
 30
0.0
  0
SPLINE
  5
145
330
1F
100
AcDbEntity
  8
0
  6
Continuous
 62
     7
370
     0
100
AcDbSpline
210
0.0
220
0.0
230
1.0
 70
     8
 71
     3
 72
    11
 73
     7
 74
     0
 42
0.00000001
 43
0.00000001
 40
0.0
 40
0.0
 40
0.0
 40
0.0
 40
0.250403188903161
 40
0.5003824607867572
 40
0.7500984159891433
 40
1.0
 40
1.0
 40
1.0
 40
1.0
 10
7.342350462598509
 20
7.431603657304298
 30
0.0
 10
7.344112025746758
 20
7.43039802377887
 30
0.0
 10
7.347632169826449
 20
7.427988797790561
 30
0.0
 10
7.351537450857266
 20
7.423649025426903
 30
0.0
 10
7.353260949811252
 20
7.418753859017612
 30
0.0
 10
7.352510049979276
 20
7.415561018524314
 30
0.0
 10
7.352134460567943
 20
7.413964005140786
 30
0.0
  0
LINE
  5
146
330
1F
100
AcDbEntity
  8
0
  6
Continuous
 62
     7
370
     0
100
AcDbLine
 10
7.2110437767
 20
7.4668920069
 30
0.0
 11
7.2232574393
 21
7.4739428042
 31
0.0
  0
ARC
  5
147
330
1F
100
AcDbEntity
  8
0
  6
Continuous
 62
     7
370
     0
100
AcDbCircle
 10
7.0672590893
 20
7.0583804313
 30
0.0
 40
0.433077064414887
100
AcDbArc
 50
67.4040200378
 51
70.609352541
  0
LINE
  5
148
330
1F
100
AcDbEntity
  8
0
  6
Continuous
 62
     7
370
     0
100
AcDbLine
 10
7.2458741891
 20
7.4652640755
 30
0.0
 11
7.2336605265
 21
7.4582132782
 31
0.0
  0
ARC
  5
149
330
1F
100
AcDbEntity
  8
0
  6
Continuous
 62
     7
370
     0
100
AcDbCircle
 10
7.0794727519
 20
7.0654312287
 30
0.0
 40
0.4330770644168326
100
AcDbArc
 50
67.4040200378
 51
70.6093525409
  0
ARC
  5
14A
330
1F
100
AcDbEntity
  8
0
  6
Continuous
 62
     7
370
     0
100
AcDbCircle
 10
7.1594579566
 20
7.4155659231
 30
0.0
 40
0.0855710741414507
100
AcDbArc
 50
88.8277745116
 51
125.2100260277
  0
SPLINE
  5
14B
330
1F
100
AcDbEntity
  8
0
  6
Continuous
 62
     7
370
     0
100
AcDbSpline
210
0.0
220
0.0
230
1.0
 70
    24
 71
     1
 72
     4
 73
     2
 74
     0
 42
0.00000001
 43
0.00000001
 40
0.0
 40
0.0
 40
1.0
 40
1.0
 10
7.098318560826957
 20
7.477779586557489
 30
0.0
 10
7.110119789095283
 20
7.485481257338597
 30
0.0
  0
SPLINE
  5
14C
330
1F
100
AcDbEntity
  8
0
  6
Continuous
 62
     7
370
     0
100
AcDbSpline
210
0.0
220
0.0
230
1.0
 70
     8
 71
     3
 72
    12
 73
     8
 74
     0
 42
0.00000001
 43
0.00000001
 40
0.0
 40
0.0
 40
0.0
 40
0.0
 40
0.2503262674180367
 40
0.4997345046006505
 40
0.6249000363599414
 40
0.7501600021982567
 40
1.0
 40
1.0
 40
1.0
 40
1.0
 10
7.102088277899519
 20
7.467260139970515
 30
0.0
 10
7.099945941145335
 20
7.467541884581199
 30
0.0
 10
7.095669124303128
 20
7.468104340550749
 30
0.0
 10
7.092933946260738
 20
7.469918480889394
 30
0.0
 10
7.092965674503959
 20
7.471999544147869
 30
0.0
 10
7.094104863325157
 20
7.474357857634113
 30
0.0
 10
7.09663399872573
 20
7.476411639555472
 30
0.0
 10
7.098318560826957
 20
7.477779586557489
 30
0.0
  0
ARC
  5
14D
330
1F
100
AcDbEntity
  8
0
  6
Continuous
 62
     7
370
     0
100
AcDbCircle
 10
7.10782611
 20
7.548972849
 30
0.0
 40
0.0819139153943318
100
AcDbArc
 50
265.9833075679
 51
303.7353703225
  0
SPLINE
  5
14E
330
1F
100
AcDbEntity
  8
0
  6
Continuous
 62
     7
370
     0
100
AcDbSpline
210
0.0
220
0.0
230
1.0
 70
     8
 71
     3
 72
     9
 73
     5
 74
     0
 42
0.00000001
 43
0.00000001
 40
0.0
 40
0.0
 40
0.0
 40
0.0
 40
0.4987092906772064
 40
1.0
 40
1.0
 40
1.0
 40
1.0
 10
7.169824259501816
 20
7.493466953203465
 30
0.0
 10
7.167832713896694
 20
7.491343460563209
 30
0.0
 10
7.163839314049624
 20
7.487085483661727
 30
0.0
 10
7.156830902534687
 20
7.482933600255805
 30
0.0
 10
7.153317650955139
 20
7.480852299678224
 30
0.0
  0
SPLINE
  5
14F
330
1F
100
AcDbEntity
  8
0
  6
Continuous
 62
     7
370
     0
100
AcDbSpline
210
0.0
220
0.0
230
1.0
 70
     8
 71
     3
 72
    11
 73
     7
 74
     0
 42
0.00000001
 43
0.00000001
 40
0.0
 40
0.0
 40
0.0
 40
0.0
 40
0.2504031889031652
 40
0.5003824607867556
 40
0.7500984159891391
 40
1.0
 40
1.0
 40
1.0
 40
1.0
 10
7.161208549706965
 20
7.501119088790357
 30
0.0
 10
7.162842378173542
 20
7.50088796870233
 30
0.0
 10
7.166107269136755
 20
7.500426119798205
 30
0.0
 10
7.169676676872609
 20
7.498921079577706
 30
0.0
 10
7.171125881738978
 20
7.496524191857467
 30
0.0
 10
7.170258241035804
 20
7.494486285143987
 30
0.0
 10
7.169824259501816
 20
7.493466953203465
 30
0.0
  0
LINE
  5
150
330
1F
100
AcDbEntity
  8
0
  6
Continuous
 62
     7
370
     0
100
AcDbLine
 10
7.0531132515
 20
7.484220422
 30
0.0
 11
7.0728686212
 21
7.4956249542
 31
0.0
  0
ARC
  5
151
330
1F
100
AcDbEntity
  8
0
  6
Continuous
 62
     7
370
     0
100
AcDbCircle
 10
7.0164728823
 20
7.5427049529
 30
0.0
 40
0.0690141797607137
100
AcDbArc
 50
288.1271317942
 51
302.0670105353
  0
SPLINE
  5
152
330
1F
100
AcDbEntity
  8
0
  6
Continuous
 62
     7
370
     0
100
AcDbSpline
210
0.0
220
0.0
230
1.0
 70
     8
 71
     3
 72
    13
 73
     9
 74
     0
 42
0.00000001
 43
0.00000001
 40
0.0
 40
0.0
 40
0.0
 40
0.0
 40
0.255632681535482
 40
0.3827690308633294
 40
0.5009930149491891
 40
0.6250249963042993
 40
0.7509663452181642
 40
1.0
 40
1.0
 40
1.0
 40
1.0
 10
7.040660632690051
 20
7.479964369011068
 30
0.0
 10
7.039813294110272
 20
7.479467887570875
 30
0.0
 10
7.038544540189425
 20
7.47872448606774
 30
0.0
 10
7.037183416476714
 20
7.477851187407777
 30
0.0
 10
7.036450657966639
 20
7.477307911857986
 30
0.0
 10
7.036164321742739
 20
7.476950636159414
 30
0.0
 10
7.036391123577119
 20
7.476742283838822
 30
0.0
 10
7.037324881903757
 20
7.476966884757966
 30
0.0
 10
7.037945022570397
 20
7.477116049868201
 30
0.0
  0
LINE
  5
153
330
1F
100
AcDbEntity
  8
0
  6
Continuous
 62
     7
370
     0
100
AcDbLine
 10
7.0632857539
 20
7.4930255735
 30
0.0
 11
7.0406606327
 21
7.479964369
 31
0.0
  0
ARC
  5
154
330
1F
100
AcDbEntity
  8
0
  6
Continuous
 62
     7
370
     0
100
AcDbCircle
 10
7.1225344749
 20
7.2930545852
 30
0.0
 40
0.2085636763173303
100
AcDbArc
 50
106.503849826
 51
110.1073037326
  0
LINE
  5
155
330
1F
100
AcDbEntity
  8
0
  6
Continuous
 62
     7
370
     0
100
AcDbLine
 10
7.0246854029
 20
7.4738107985
 30
0.0
 11
7.050834579
 21
7.4889063966
 31
0.0
  0
SPLINE
  5
156
330
1F
100
AcDbEntity
  8
0
  6
Continuous
 62
     7
370
     0
100
AcDbSpline
210
0.0
220
0.0
230
1.0
 70
     8
 71
     3
 72
    13
 73
     9
 74
     0
 42
0.00000001
 43
0.00000001
 40
0.0
 40
0.0
 40
0.0
 40
0.0
 40
0.2493827994174813
 40
0.3744361297780069
 40
0.4994378368474245
 40
0.6245077693644066
 40
0.7497582852968239
 40
1.0
 40
1.0
 40
1.0
 40
1.0
 10
7.019707341214135
 20
7.468285651622881
 30
0.0
 10
7.018252489092766
 20
7.467871821473585
 30
0.0
 10
7.016068099475693
 20
7.467250475655631
 30
0.0
 10
7.015223058947655
 20
7.467432405991271
 30
0.0
 10
7.015546747674392
 20
7.468019483924809
 30
0.0
 10
7.016938648894794
 20
7.469091973448012
 30
0.0
 10
7.019805443663595
 20
7.470957902935134
 30
0.0
 10
7.022733823669467
 20
7.472669876745313
 30
0.0
 10
7.02468540288785
 20
7.473810798519009
 30
0.0
  0
ARC
  5
157
330
1F
100
AcDbEntity
  8
0
  6
Continuous
 62
     7
370
     0
100
AcDbCircle
 10
6.9736416066
 20
7.6148752459
 30
0.0
 40
0.1536572844196049
100
AcDbArc
 50
287.4453099259
 51
295.3049041355
  0
LINE
  5
158
330
1F
100
AcDbEntity
  8
0
  6
Continuous
 62
     7
370
     0
100
AcDbLine
 10
7.0326164061
 20
7.4720920111
 30
0.0
 11
7.0393201457
 21
7.4759619976
 31
0.0
  0
ARC
  5
159
330
1F
100
AcDbEntity
  8
0
  6
Continuous
 62
     7
370
     0
100
AcDbCircle
 10
7.084539131
 20
7.257481668
 30
0.0
 40
0.2208021030374143
100
AcDbArc
 50
100.385645505
 51
103.6007613803
  0
LINE
  5
15A
330
1F
100
AcDbEntity
  8
0
  6
Continuous
 62
     7
370
     0
100
AcDbLine
 10
7.085875293
 20
7.4984163506
 30
0.0
 11
7.0447345348
 21
7.4746662965
 31
0.0
  0
ARC
  5
15B
330
1F
100
AcDbEntity
  8
0
  6
Continuous
 62
     7
370
     0
100
AcDbCircle
 10
7.1256234251
 20
7.2815092844
 30
0.0
 40
0.2205189093070105
100
AcDbArc
 50
100.3842159242
 51
103.8411162577
  0
LINE
  5
15C
330
1F
100
AcDbEntity
  8
0
  6
Continuous
 62
     7
370
     0
100
AcDbLine
 10
7.5013877061
 20
7.0201406746
 30
0.0
 11
7.5171942976
 21
7.0292656257
 31
0.0
  0
ARC
  5
15D
330
1F
100
AcDbEntity
  8
0
  6
Continuous
 62
     7
370
     0
100
AcDbCircle
 10
6.5902508909
 20
6.533486995
 30
0.0
 40
1.032957937081398
100
AcDbArc
 50
26.7882390618
 51
28.1074337711
  0
LINE
  5
15E
330
1F
100
AcDbEntity
  8
0
  6
Continuous
 62
     7
370
     0
100
AcDbLine
 10
7.5281566693
 20
7.0081602136
 30
0.0
 11
7.5123500778
 21
6.9990352625
 31
0.0
  0
ARC
  5
15F
330
1F
100
AcDbEntity
  8
0
  6
Continuous
 62
     7
370
     0
100
AcDbCircle
 10
6.6060574824
 20
6.5426119461
 30
0.0
 40
1.032957937089421
100
AcDbArc
 50
26.7882390618
 51
28.1074337711
  0
LINE
  5
160
330
1F
100
AcDbEntity
  8
0
  6
Continuous
 62
     7
370
     0
100
AcDbLine
 10
7.4433682253
 20
7.1159352055
 30
0.0
 11
7.4591748168
 21
7.1250601566
 31
0.0
  0
ARC
  5
161
330
1F
100
AcDbEntity
  8
0
  6
Continuous
 62
     7
370
     0
100
AcDbCircle
 10
6.5954072979
 20
6.5372783495
 30
0.0
 40
1.026587303332875
100
AcDbArc
 50
32.9853641063
 51
34.310011021
  0
LINE
  5
162
330
1F
100
AcDbEntity
  8
0
  6
Continuous
 62
     7
370
     0
100
AcDbLine
 10
7.472325242
 20
7.1053028709
 30
0.0
 11
7.4565186505
 21
7.0961779198
 31
0.0
  0
ARC
  5
163
330
1F
100
AcDbEntity
  8
0
  6
Continuous
 62
     7
370
     0
100
AcDbCircle
 10
6.6112138894
 20
6.5464033006
 30
0.0
 40
1.026587303326214
100
AcDbArc
 50
32.9853641063
 51
34.310011021
  0
ARC
  5
164
330
1F
100
AcDbEntity
  8
0
  6
Continuous
 62
     7
370
     0
100
AcDbCircle
 10
7.361878162
 20
7.202569607
 30
0.0
 40
0.0309703943002458
100
AcDbArc
 50
30.6242761891
 51
112.3018439464
  0
ARC
  5
165
330
1F
100
AcDbEntity
  8
0
  6
Continuous
 62
     7
370
     0
100
AcDbCircle
 10
7.3566660558
 20
7.2196571577
 30
0.0
 40
0.0132874977590235
100
AcDbArc
 50
119.4883377368
 51
204.6661098009
  0
SPLINE
  5
166
330
1F
100
AcDbEntity
  8
0
  6
Continuous
 62
     7
370
     0
100
AcDbSpline
210
0.0
220
0.0
230
1.0
 70
    24
 71
     1
 72
     4
 73
     2
 74
     0
 42
0.00000001
 43
0.00000001
 40
0.0
 40
0.0
 40
1.0
 40
1.0
 10
7.335114077540709
 20
7.216443115220025
 30
0.0
 10
7.344590973322972
 20
7.214111891257537
 30
0.0
  0
ARC
  5
167
330
1F
100
AcDbEntity
  8
0
  6
Continuous
 62
     7
370
     0
100
AcDbCircle
 10
7.3339889809
 20
7.1995634775
 30
0.0
 40
0.0169170923249996
100
AcDbArc
 50
86.1866434786
 51
118.3299235169
  0
SPLINE
  5
168
330
1F
100
AcDbEntity
  8
0
  6
Continuous
 62
     7
370
     0
100
AcDbSpline
210
0.0
220
0.0
230
1.0
 70
     8
 71
     3
 72
    13
 73
     9
 74
     0
 42
0.00000001
 43
0.00000001
 40
0.0
 40
0.0
 40
0.0
 40
0.0
 40
0.2504377364906173
 40
0.5000689343450765
 40
0.6250971126538015
 40
0.7501160952415882
 40
0.8750331882777951
 40
1.0
 40
1.0
 40
1.0
 40
1.0
 10
7.330914378780434
 20
7.183169080006922
 30
0.0
 10
7.32873232653673
 20
7.185811221403831
 30
0.0
 10
7.324375249382605
 20
7.19108699514007
 30
0.0
 10
7.320541188743414
 20
7.198386421784942
 30
0.0
 10
7.319766828441099
 20
7.204227175916046
 30
0.0
 10
7.320373104333316
 20
7.208372869950705
 30
0.0
 10
7.322412481776161
 20
7.211993924335817
 30
0.0
 10
7.324778009589173
 20
7.213634134974537
 30
0.0
 10
7.325961008826831
 20
7.214454403467907
 30
0.0
  0
SPLINE
  5
169
330
1F
100
AcDbEntity
  8
0
  6
Continuous
 62
     7
370
     0
100
AcDbSpline
210
0.0
220
0.0
230
1.0
 70
     8
 71
     3
 72
     9
 73
     5
 74
     0
 42
0.00000001
 43
0.00000001
 40
0.0
 40
0.0
 40
0.0
 40
0.0
 40
0.4991331653274212
 40
1.0
 40
1.0
 40
1.0
 40
1.0
 10
7.346699627993072
 20
7.170770225384866
 30
0.0
 10
7.343693873418529
 20
7.172429347256963
 30
0.0
 10
7.337671924200685
 20
7.175753353729279
 30
0.0
 10
7.333169495827867
 20
7.180694315916148
 30
0.0
 10
7.330914378780434
 20
7.183169080006922
 30
0.0
  0
ARC
  5
16A
330
1F
100
AcDbEntity
  8
0
  6
Continuous
 62
     7
370
     0
100
AcDbCircle
 10
7.3558645079
 20
7.1888751819
 30
0.0
 40
0.0202924733578868
100
AcDbArc
 50
243.1510868934
 51
294.3584707547
  0
ARC
  5
16B
330
1F
100
AcDbEntity
  8
0
  6
Continuous
 62
     7
370
     0
100
AcDbCircle
 10
7.358508509
 20
7.1808180254
 30
0.0
 40
0.0118972373426141
100
AcDbArc
 50
298.7668930757
 51
342.808847959
  0
SPLINE
  5
16C
330
1F
100
AcDbEntity
  8
0
  6
Continuous
 62
     7
370
     0
100
AcDbSpline
210
0.0
220
0.0
230
1.0
 70
     8
 71
     3
 72
     9
 73
     5
 74
     0
 42
0.00000001
 43
0.00000001
 40
0.0
 40
0.0
 40
0.0
 40
0.0
 40
0.5005936253021371
 40
1.0
 40
1.0
 40
1.0
 40
1.0
 10
7.369516937283519
 20
7.18557461872915
 30
0.0
 10
7.36984798229548
 20
7.184152884743597
 30
0.0
 10
7.370509287184773
 20
7.18131278867826
 30
0.0
 10
7.370085745126232
 20
7.178637651961728
 30
0.0
 10
7.369874225522244
 20
7.177301671632304
 30
0.0
  0
ARC
  5
16D
330
1F
100
AcDbEntity
  8
0
  6
Continuous
 62
     7
370
     0
100
AcDbCircle
 10
7.3821733535
 20
7.2014398882
 30
0.0
 40
0.0202951138883979
100
AcDbArc
 50
231.4191112299
 51
297.8885754059
  0
SPLINE
  5
16E
330
1F
100
AcDbEntity
  8
0
  6
Continuous
 62
     7
370
     0
100
AcDbSpline
210
0.0
220
0.0
230
1.0
 70
     8
 71
     3
 72
    14
 73
    10
 74
     0
 42
0.00000001
 43
0.00000001
 40
0.0
 40
0.0
 40
0.0
 40
0.0
 40
0.2502303647990335
 40
0.3753621555521077
 40
0.5003358146303214
 40
0.6242231379257519
 40
0.7500761921902378
 40
0.875016056261575
 40
1.0
 40
1.0
 40
1.0
 40
1.0
 10
7.388528999868852
 20
7.218346113765127
 30
0.0
 10
7.390957561351352
 20
7.215420642406432
 30
0.0
 10
7.394600564764207
 20
7.21103224119826
 30
0.0
 10
7.39818228369467
 20
7.204584670093823
 30
0.0
 10
7.399725560354208
 20
7.199542782628606
 30
0.0
 10
7.399859556441681
 20
7.194535357843025
 30
0.0
 10
7.398363141629632
 20
7.190031573825429
 30
0.0
 10
7.395649986013818
 20
7.186173519166198
 30
0.0
 10
7.392994461999183
 20
7.18439252498574
 30
0.0
 10
7.391666465811265
 20
7.183501870836383
 30
0.0
  0
SPLINE
  5
16F
330
1F
100
AcDbEntity
  8
0
  6
Continuous
 62
     7
370
     0
100
AcDbSpline
210
0.0
220
0.0
230
1.0
 70
     8
 71
     3
 72
    13
 73
     9
 74
     0
 42
0.00000001
 43
0.00000001
 40
0.0
 40
0.0
 40
0.0
 40
0.0
 40
0.2501705057672816
 40
0.3840880187057493
 40
0.4999102936424485
 40
0.6140227116266285
 40
0.749821308406839
 40
1.0
 40
1.0
 40
1.0
 40
1.0
 10
7.206391733463766
 20
7.339321577439677
 30
0.0
 10
7.205681959839878
 20
7.338875226905386
 30
0.0
 10
7.204592240873636
 20
7.338189942715554
 30
0.0
 10
7.203665325933145
 20
7.337056630937336
 30
0.0
 10
7.203426982890231
 20
7.336116136870566
 30
0.0
 10
7.203781709857592
 20
7.33516028457315
 30
0.0
 10
7.204755385770567
 20
7.333954282429751
 30
0.0
 10
7.205854690696074
 20
7.333159465994092
 30
0.0
 10
7.206567226578907
 20
7.332644290252098
 30
0.0
  0
SPLINE
  5
170
330
1F
100
AcDbEntity
  8
0
  6
Continuous
 62
     7
370
     0
100
AcDbSpline
210
0.0
220
0.0
230
1.0
 70
    24
 71
     1
 72
     4
 73
     2
 74
     0
 42
0.00000001
 43
0.00000001
 40
0.0
 40
0.0
 40
1.0
 40
1.0
 10
7.227773025015036
 20
7.330081835125967
 30
0.0
 10
7.206391733463766
 20
7.339321577439677
 30
0.0
  0
ARC
  5
171
330
1F
100
AcDbEntity
  8
0
  6
Continuous
 62
     7
370
     0
100
AcDbCircle
 10
7.2466702628
 20
7.3634034016
 30
0.0
 40
0.0383070801846987
100
AcDbArc
 50
240.4416765246
 51
263.4991656053
  0
SPLINE
  5
172
330
1F
100
AcDbEntity
  8
0
  6
Continuous
 62
     7
370
     0
100
AcDbSpline
210
0.0
220
0.0
230
1.0
 70
     8
 71
     3
 72
     9
 73
     5
 74
     0
 42
0.00000001
 43
0.00000001
 40
0.0
 40
0.0
 40
0.0
 40
0.0
 40
0.5006506955429295
 40
1.0
 40
1.0
 40
1.0
 40
1.0
 10
7.252772732354596
 20
7.327759236482546
 30
0.0
 10
7.251264828103367
 20
7.327006408247279
 30
0.0
 10
7.24825293924622
 20
7.32550270867796
 30
0.0
 10
7.244304749690641
 20
7.325395941941911
 30
0.0
 10
7.242333223982197
 20
7.325342628046524
 30
0.0
  0
SPLINE
  5
173
330
1F
100
AcDbEntity
  8
0
  6
Continuous
 62
     7
370
     0
100
AcDbSpline
210
0.0
220
0.0
230
1.0
 70
     8
 71
     3
 72
    14
 73
    10
 74
     0
 42
0.00000001
 43
0.00000001
 40
0.0
 40
0.0
 40
0.0
 40
0.0
 40
0.2500047170987221
 40
0.379956398859507
 40
0.5001514804933396
 40
0.6248780927804749
 40
0.750865810674958
 40
0.8742378331988611
 40
1.0
 40
1.0
 40
1.0
 40
1.0
 10
7.249712152369441
 20
7.345437773746096
 30
0.0
 10
7.251410372347967
 20
7.344118154820245
 30
0.0
 10
7.253991321839643
 20
7.342112602042074
 30
0.0
 10
7.256330524457954
 20
7.339009547517349
 30
0.0
 10
7.257363532649581
 20
7.336535031157843
 30
0.0
 10
7.257526584437775
 20
7.334044679534029
 30
0.0
 10
7.25688585299322
 20
7.331621573578039
 30
0.0
 10
7.255292357135356
 20
7.329434834280212
 30
0.0
 10
7.253617961887442
 20
7.328321329995267
 30
0.0
 10
7.252772732354596
 20
7.327759236482546
 30
0.0
  0
SPLINE
  5
174
330
1F
100
AcDbEntity
  8
0
  6
Continuous
 62
     7
370
     0
100
AcDbSpline
210
0.0
220
0.0
230
1.0
 70
    24
 71
     1
 72
     4
 73
     2
 74
     0
 42
0.00000001
 43
0.00000001
 40
0.0
 40
0.0
 40
1.0
 40
1.0
 10
7.23833030504388
 20
7.351182407978369
 30
0.0
 10
7.249712152369441
 20
7.345437773746096
 30
0.0
  0
SPLINE
  5
175
330
1F
100
AcDbEntity
  8
0
  6
Continuous
 62
     7
370
     0
100
AcDbSpline
210
0.0
220
0.0
230
1.0
 70
    24
 71
     1
 72
     4
 73
     2
 74
     0
 42
0.00000001
 43
0.00000001
 40
0.0
 40
0.0
 40
1.0
 40
1.0
 10
7.227940486965847
 20
7.35285795539194
 30
0.0
 10
7.23833030504388
 20
7.351182407978369
 30
0.0
  0
SPLINE
  5
176
330
1F
100
AcDbEntity
  8
0
  6
Continuous
 62
     7
370
     0
100
AcDbSpline
210
0.0
220
0.0
230
1.0
 70
     8
 71
     3
 72
     9
 73
     5
 74
     0
 42
0.00000001
 43
0.00000001
 40
0.0
 40
0.0
 40
0.0
 40
0.0
 40
0.4998463205888429
 40
1.0
 40
1.0
 40
1.0
 40
1.0
 10
7.231274147407636
 20
7.356898763548263
 30
0.0
 10
7.2309208986646
 20
7.356155485849261
 30
0.0
 10
7.230214183963528
 20
7.354668473404861
 30
0.0
 10
7.228698541247128
 20
7.353461585045509
 30
0.0
 10
7.227940486965847
 20
7.35285795539194
 30
0.0
  0
ARC
  5
177
330
1F
100
AcDbEntity
  8
0
  6
Continuous
 62
     7
370
     0
100
AcDbCircle
 10
6.8932175546
 20
6.8457245499
 30
0.0
 40
0.6128469112447371
100
AcDbArc
 50
56.5220035861
 51
58.1625798813
  0
SPLINE
  5
178
330
1F
100
AcDbEntity
  8
0
  6
Continuous
 62
     7
370
     0
100
AcDbSpline
210
0.0
220
0.0
230
1.0
 70
     8
 71
     3
 72
     9
 73
     5
 74
     0
 42
0.00000001
 43
0.00000001
 40
0.0
 40
0.0
 40
0.0
 40
0.0
 40
0.500057297812861
 40
1.0
 40
1.0
 40
1.0
 40
1.0
 10
7.20971521877251
 20
7.360081507472467
 30
0.0
 10
7.211229389407807
 20
7.360975546516435
 30
0.0
 10
7.214257383683503
 20
7.362763419721923
 30
0.0
 10
7.215753111300304
 20
7.365166321702761
 30
0.0
 10
7.216500889406785
 20
7.366367635012151
 30
0.0
  0
LINE
  5
179
330
1F
100
AcDbEntity
  8
0
  6
Continuous
 62
     7
370
     0
100
AcDbLine
 10
7.191543952
 20
7.3495914584
 30
0.0
 11
7.2097152188
 21
7.3600815075
 31
0.0
  0
ARC
  5
17A
330
1F
100
AcDbEntity
  8
0
  6
Continuous
 62
     7
370
     0
100
AcDbCircle
 10
7.195494794
 20
7.3396573105
 30
0.0
 40
0.0106909517017163
100
AcDbArc
 50
111.6878718346
 51
175.6021949839
  0
ARC
  5
17B
330
1F
100
AcDbEntity
  8
0
  6
Continuous
 62
     7
370
     0
100
AcDbCircle
 10
7.2094394684
 20
7.350277597
 30
0.0
 40
0.026484218774016
100
AcDbArc
 50
201.7187249058
 51
247.3633210488
  0
SPLINE
  5
17C
330
1F
100
AcDbEntity
  8
0
  6
Continuous
 62
     7
370
     0
100
AcDbSpline
210
0.0
220
0.0
230
1.0
 70
     8
 71
     3
 72
     9
 73
     5
 74
     0
 42
0.00000001
 43
0.00000001
 40
0.0
 40
0.0
 40
0.0
 40
0.0
 40
0.4989850375674072
 40
1.0
 40
1.0
 40
1.0
 40
1.0
 10
7.215845507005286
 20
7.317308046512276
 30
0.0
 10
7.212775008254292
 20
7.318491292248456
 30
0.0
 10
7.20662151963274
 20
7.320862597291888
 30
0.0
 10
7.201707869108862
 20
7.324174368952283
 30
0.0
 10
7.199246056676234
 20
7.325833616106301
 30
0.0
  0
ARC
  5
17D
330
1F
100
AcDbEntity
  8
0
  6
Continuous
 62
     7
370
     0
100
AcDbCircle
 10
7.2234074927
 20
7.3437429139
 30
0.0
 40
0.0274951967396091
100
AcDbArc
 50
254.0362375845
 51
290.4619572689
  0
SPLINE
  5
17E
330
1F
100
AcDbEntity
  8
0
  6
Continuous
 62
     7
370
     0
100
AcDbSpline
210
0.0
220
0.0
230
1.0
 70
    24
 71
     1
 72
     4
 73
     2
 74
     0
 42
0.00000001
 43
0.00000001
 40
0.0
 40
0.0
 40
1.0
 40
1.0
 10
7.219668374847983
 20
7.329764737430175
 30
0.0
 10
7.233019411541546
 20
7.317982540103392
 30
0.0
  0
SPLINE
  5
17F
330
1F
100
AcDbEntity
  8
0
  6
Continuous
 62
     7
370
     0
100
AcDbSpline
210
0.0
220
0.0
230
1.0
 70
     8
 71
     3
 72
     9
 73
     5
 74
     0
 42
0.00000001
 43
0.00000001
 40
0.0
 40
0.0
 40
0.0
 40
0.0
 40
0.498418510476786
 40
0.9999999999999999
 40
0.9999999999999999
 40
0.9999999999999999
 40
0.9999999999999999
 10
7.213587269810393
 20
7.329365029970583
 30
0.0
 10
7.21464454352609
 20
7.329275127050601
 30
0.0
 10
7.216765800448682
 20
7.329094750683967
 30
0.0
 10
7.218698812023181
 20
7.329540938087638
 30
0.0
 10
7.219668374847983
 20
7.329764737430175
 30
0.0
  0
SPLINE
  5
180
330
1F
100
AcDbEntity
  8
0
  6
Continuous
 62
     7
370
     0
100
AcDbSpline
210
0.0
220
0.0
230
1.0
 70
     8
 71
     3
 72
     9
 73
     5
 74
     0
 42
0.00000001
 43
0.00000001
 40
0.0
 40
0.0
 40
0.0
 40
0.0
 40
0.501198428036169
 40
1.0
 40
1.0
 40
1.0
 40
1.0
 10
7.206567226578907
 20
7.332644290252098
 30
0.0
 10
7.207587910572318
 20
7.331961455420138
 30
0.0
 10
7.209624397393335
 20
7.330599051242942
 30
0.0
 10
7.212268424789079
 20
7.329775712586617
 30
0.0
 10
7.213587269810393
 20
7.329365029970583
 30
0.0
  0
ARC
  5
181
330
1F
100
AcDbEntity
  8
0
  6
Continuous
 62
     7
370
     0
100
AcDbCircle
 10
7.1275691015
 20
7.403865225
 30
0.0
 40
0.0221965284830213
100
AcDbArc
 50
250.3048063391
 51
304.385217123
  0
SPLINE
  5
182
330
1F
100
AcDbEntity
  8
0
  6
Continuous
 62
     7
370
     0
100
AcDbSpline
210
0.0
220
0.0
230
1.0
 70
     8
 71
     3
 72
    12
 73
     8
 74
     0
 42
0.00000001
 43
0.00000001
 40
0.0
 40
0.0
 40
0.0
 40
0.0
 40
0.2499205863330408
 40
0.3770821375923715
 40
0.5003335730961702
 40
0.7497132612425222
 40
1.0
 40
1.0
 40
1.0
 40
1.0
 10
7.11797747057867
 20
7.389244697744272
 30
0.0
 10
7.117448126488123
 20
7.38867228914006
 30
0.0
 10
7.116649447979424
 20
7.387808634555939
 30
0.0
 10
7.116359708415686
 20
7.386605087584756
 30
0.0
 10
7.116537853289853
 20
7.385437680973617
 30
0.0
 10
7.117719949094683
 20
7.384129962739553
 30
0.0
 10
7.119298034801417
 20
7.383355269438902
 30
0.0
 10
7.120088510013982
 20
7.382967219633437
 30
0.0
  0
SPLINE
  5
183
330
1F
100
AcDbEntity
  8
0
  6
Continuous
 62
     7
370
     0
100
AcDbSpline
210
0.0
220
0.0
230
1.0
 70
    24
 71
     1
 72
     4
 73
     2
 74
     0
 42
0.00000001
 43
0.00000001
 40
0.0
 40
0.0
 40
1.0
 40
1.0
 10
7.101342380672397
 20
7.393987167065569
 30
0.0
 10
7.11797747057867
 20
7.389244697744272
 30
0.0
  0
SPLINE
  5
184
330
1F
100
AcDbEntity
  8
0
  6
Continuous
 62
     7
370
     0
100
AcDbSpline
210
0.0
220
0.0
230
1.0
 70
     8
 71
     3
 72
    12
 73
     8
 74
     0
 42
0.00000001
 43
0.00000001
 40
0.0
 40
0.0
 40
0.0
 40
0.0
 40
0.2504931653223365
 40
0.5001218721704453
 40
0.6252456824059361
 40
0.750404088927232
 40
1.0
 40
1.0
 40
1.0
 40
1.0
 10
7.109742858751714
 20
7.376529386082701
 30
0.0
 10
7.107418478561708
 20
7.377633553077775
 30
0.0
 10
7.102777739678611
 20
7.379838076558704
 30
0.0
 10
7.098668623527439
 20
7.38329057665847
 30
0.0
 10
7.097570976227853
 20
7.38649252938727
 30
0.0
 10
7.097855414569601
 20
7.389855353928693
 30
0.0
 10
7.099948399471868
 20
7.392335395965103
 30
0.0
 10
7.101342380672397
 20
7.393987167065569
 30
0.0
  0
SPLINE
  5
185
330
1F
100
AcDbEntity
  8
0
  6
Continuous
 62
     7
370
     0
100
AcDbSpline
210
0.0
220
0.0
230
1.0
 70
    24
 71
     1
 72
     4
 73
     2
 74
     0
 42
0.00000001
 43
0.00000001
 40
0.0
 40
0.0
 40
1.0
 40
1.0
 10
7.123388004570755
 20
7.372216688191161
 30
0.0
 10
7.109742858751714
 20
7.376529386082701
 30
0.0
  0
SPLINE
  5
186
330
1F
100
AcDbEntity
  8
0
  6
Continuous
 62
     7
370
     0
100
AcDbSpline
210
0.0
220
0.0
230
1.0
 70
     8
 71
     3
 72
     9
 73
     5
 74
     0
 42
0.00000001
 43
0.00000001
 40
0.0
 40
0.0
 40
0.0
 40
0.0
 40
0.4972076014325953
 40
1.0
 40
1.0
 40
1.0
 40
1.0
 10
7.14257516650416
 20
7.372653192113226
 30
0.0
 10
7.139360985654064
 20
7.37216658021761
 30
0.0
 10
7.132896521231487
 20
7.371187890643649
 30
0.0
 10
7.126569288894008
 20
7.37187248124212
 30
0.0
 10
7.123388004570755
 20
7.372216688191161
 30
0.0
  0
SPLINE
  5
187
330
1F
100
AcDbEntity
  8
0
  6
Continuous
 62
     7
370
     0
100
AcDbSpline
210
0.0
220
0.0
230
1.0
 70
     8
 71
     3
 72
     9
 73
     5
 74
     0
 42
0.00000001
 43
0.00000001
 40
0.0
 40
0.0
 40
0.0
 40
0.0
 40
0.5005315226334689
 40
1.0
 40
1.0
 40
1.0
 40
1.0
 10
7.155324286967382
 20
7.377665962418821
 30
0.0
 10
7.15344401957341
 20
7.37663588716733
 30
0.0
 10
7.149687478159038
 20
7.374577924371958
 30
0.0
 10
7.144944256302604
 20
7.373294314687737
 30
0.0
 10
7.14257516650416
 20
7.372653192113226
 30
0.0
  0
SPLINE
  5
188
330
1F
100
AcDbEntity
  8
0
  6
Continuous
 62
     7
370
     0
100
AcDbSpline
210
0.0
220
0.0
230
1.0
 70
     8
 71
     3
 72
    14
 73
    10
 74
     0
 42
0.00000001
 43
0.00000001
 40
0.0
 40
0.0
 40
0.0
 40
0.0
 40
0.250079695316688
 40
0.3795939076678457
 40
0.5000103126991001
 40
0.6249779831585922
 40
0.7499325412132952
 40
0.8625387534417155
 40
0.9999999999999999
 40
0.9999999999999999
 40
0.9999999999999999
 40
0.9999999999999999
 10
7.151660326187965
 20
7.401866963975742
 30
0.0
 10
7.154695953859385
 20
7.400408969381861
 30
0.0
 10
7.159303708073736
 20
7.398195891408658
 30
0.0
 10
7.163446209383692
 20
7.394255623259201
 30
0.0
 10
7.165007288434499
 20
7.390864865163175
 30
0.0
 10
7.164882422742982
 20
7.387313508979017
 30
0.0
 10
7.163387013800117
 20
7.38384034920144
 30
0.0
 10
7.160017873293672
 20
7.380562166843475
 30
0.0
 10
7.156989160351835
 20
7.378693282111555
 30
0.0
 10
7.155324286967382
 20
7.377665962418821
 30
0.0
  0
ARC
  5
189
330
1F
100
AcDbEntity
  8
0
  6
Continuous
 62
     7
370
     0
100
AcDbCircle
 10
7.1325799982
 20
7.3573980834
 30
0.0
 40
0.0483894643273854
100
AcDbArc
 50
66.7772092641
 51
112.4568953518
  0
SPLINE
  5
18A
330
1F
100
AcDbEntity
  8
0
  6
Continuous
 62
     7
370
     0
100
AcDbSpline
210
0.0
220
0.0
230
1.0
 70
    24
 71
     1
 72
     4
 73
     2
 74
     0
 42
0.00000001
 43
0.00000001
 40
0.0
 40
0.0
 40
1.0
 40
1.0
 10
7.127201030104902
 20
7.39521656865782
 30
0.0
 10
7.114095790255771
 20
7.402118037731444
 30
0.0
  0
ARC
  5
18B
330
1F
100
AcDbEntity
  8
0
  6
Continuous
 62
     7
370
     0
100
AcDbCircle
 10
7.1347855039
 20
7.3764892965
 30
0.0
 40
0.0202048253159323
100
AcDbArc
 50
69.1482517599
 51
112.0477596621
  0
SPLINE
  5
18C
330
1F
100
AcDbEntity
  8
0
  6
Continuous
 62
     7
370
     0
100
AcDbSpline
210
0.0
220
0.0
230
1.0
 70
     8
 71
     3
 72
    14
 73
    10
 74
     0
 42
0.00000001
 43
0.00000001
 40
0.0
 40
0.0
 40
0.0
 40
0.0
 40
0.2499126333277128
 40
0.3788826257082603
 40
0.5000564188327836
 40
0.6248407341220399
 40
0.7500055571874044
 40
0.8749218735121103
 40
1.0
 40
1.0
 40
1.0
 40
1.0
 10
7.140104681890273
 20
7.385547334811546
 30
0.0
 10
7.141313937752228
 20
7.386303432149212
 30
0.0
 10
7.143147242575717
 20
7.387449721317436
 30
0.0
 10
7.144745586760101
 20
7.389214308068993
 30
0.0
 10
7.145428652007409
 20
7.390603784929425
 30
0.0
 10
7.145499268448591
 20
7.391987937759438
 30
0.0
 10
7.144939887476315
 20
7.393307787945135
 30
0.0
 10
7.143767207420988
 20
7.394481591116027
 30
0.0
 10
7.14257428271864
 20
7.395074267887753
 30
0.0
 10
7.141977434304202
 20
7.39537079808013
 30
0.0
  0
ARC
  5
18D
330
1F
100
AcDbEntity
  8
0
  6
Continuous
 62
     7
370
     0
100
AcDbCircle
 10
7.0167248083
 20
7.476890694
 30
0.0
 40
0.0707712191851657
100
AcDbArc
 50
262.9238456356
 51
299.4646158202
  0
SPLINE
  5
18E
330
1F
100
AcDbEntity
  8
0
  6
Continuous
 62
     7
370
     0
100
AcDbSpline
210
0.0
220
0.0
230
1.0
 70
     8
 71
     3
 72
    13
 73
     9
 74
     0
 42
0.00000001
 43
0.00000001
 40
0.0
 40
0.0
 40
0.0
 40
0.0
 40
0.2502092620005207
 40
0.3753081960891695
 40
0.5003750810855462
 40
0.625535560228701
 40
0.750718316437413
 40
1.0
 40
1.0
 40
1.0
 40
1.0
 10
7.050567010623118
 20
7.431543057567604
 30
0.0
 10
7.053300194388809
 20
7.431062104196049
 30
0.0
 10
7.057399907806612
 20
7.430340685089347
 30
0.0
 10
7.060811010222356
 20
7.428220472395597
 30
0.0
 10
7.061675038141635
 20
7.426023279626149
 30
0.0
 10
7.060998365557519
 20
7.423470014526982
 30
0.0
 10
7.058534814345131
 20
7.419810410966497
 30
0.0
 10
7.054333200018406
 20
7.417086417580247
 30
0.0
 10
7.051536177439477
 20
7.415273050047265
 30
0.0
  0
ARC
  5
18F
330
1F
100
AcDbEntity
  8
0
  6
Continuous
 62
     7
370
     0
100
AcDbCircle
 10
7.0427052739
 20
7.3668535078
 30
0.0
 40
0.065165518164662
100
AcDbArc
 50
83.070810453
 51
112.5877415879
  0
SPLINE
  5
190
330
1F
100
AcDbEntity
  8
0
  6
Continuous
 62
     7
370
     0
100
AcDbSpline
210
0.0
220
0.0
230
1.0
 70
    24
 71
     1
 72
     4
 73
     2
 74
     0
 42
0.00000001
 43
0.00000001
 40
0.0
 40
0.0
 40
1.0
 40
1.0
 10
7.030557444012422
 20
7.424910080567622
 30
0.0
 10
7.01767534219012
 20
7.427020336460106
 30
0.0
  0
SPLINE
  5
191
330
1F
100
AcDbEntity
  8
0
  6
Continuous
 62
     7
370
     0
100
AcDbSpline
210
0.0
220
0.0
230
1.0
 70
    24
 71
     1
 72
     4
 73
     2
 74
     0
 42
0.00000001
 43
0.00000001
 40
0.0
 40
0.0
 40
1.0
 40
1.0
 10
7.035701399604386
 20
7.426105308723923
 30
0.0
 10
7.030557444012422
 20
7.424910080567622
 30
0.0
  0
SPLINE
  5
192
330
1F
100
AcDbEntity
  8
0
  6
Continuous
 62
     7
370
     0
100
AcDbSpline
210
0.0
220
0.0
230
1.0
 70
     8
 71
     3
 72
     9
 73
     5
 74
     0
 42
0.00000001
 43
0.00000001
 40
0.0
 40
0.0
 40
0.0
 40
0.0
 40
0.499813390079229
 40
1.0
 40
1.0
 40
1.0
 40
1.0
 10
7.040981650856209
 20
7.426239500306061
 30
0.0
 10
7.040209059149346
 20
7.426308037474
 30
0.0
 10
7.038663298827196
 20
7.426445162987837
 30
0.0
 10
7.036688944968
 20
7.4262186216618
 30
0.0
 10
7.035701399604386
 20
7.426105308723923
 30
0.0
  0
SPLINE
  5
193
330
1F
100
AcDbEntity
  8
0
  6
Continuous
 62
     7
370
     0
100
AcDbSpline
210
0.0
220
0.0
230
1.0
 70
     8
 71
     3
 72
    10
 73
     6
 74
     0
 42
0.00000001
 43
0.00000001
 40
0.0
 40
0.0
 40
0.0
 40
0.0
 40
0.2506462839715478
 40
0.5011586610055121
 40
1.0
 40
1.0
 40
1.0
 40
1.0
 10
7.043898859536471
 20
7.423878872652139
 30
0.0
 10
7.043939627939297
 20
7.42417036408546
 30
0.0
 10
7.044021142964567
 20
7.424753191223777
 30
0.0
 10
7.043360273553714
 20
7.425710977467362
 30
0.0
 10
7.041932267770298
 20
7.426028276075133
 30
0.0
 10
7.040981650856209
 20
7.426239500306061
 30
0.0
  0
SPLINE
  5
194
330
1F
100
AcDbEntity
  8
0
  6
Continuous
 62
     7
370
     0
100
AcDbSpline
210
0.0
220
0.0
230
1.0
 70
     8
 71
     3
 72
     9
 73
     5
 74
     0
 42
0.00000001
 43
0.00000001
 40
0.0
 40
0.0
 40
0.0
 40
0.0
 40
0.5011623542816186
 40
1.0
 40
1.0
 40
1.0
 40
1.0
 10
7.04018278947983
 20
7.420312507197724
 30
0.0
 10
7.041076504697371
 20
7.420921789936492
 30
0.0
 10
7.042859789514965
 20
7.422137529174611
 30
0.0
 10
7.043553040064466
 20
7.42329932510528
 30
0.0
 10
7.043898859536471
 20
7.423878872652139
 30
0.0
  0
ARC
  5
195
330
1F
100
AcDbEntity
  8
0
  6
Continuous
 62
     7
370
     0
100
AcDbCircle
 10
6.9922031535
 20
7.1252915014
 30
0.0
 40
0.2988970380345255
100
AcDbArc
 50
80.762787119
 51
86.4204845655
  0
LINE
  5
196
330
1F
100
AcDbEntity
  8
0
  6
Continuous
 62
     7
370
     0
100
AcDbLine
 10
7.0090736759
 20
7.4225716617
 30
0.0
 11
7.0108644009
 21
7.4236054253
 31
0.0
  0
SPLINE
  5
197
330
1F
100
AcDbEntity
  8
0
  6
Continuous
 62
     7
370
     0
100
AcDbSpline
210
0.0
220
0.0
230
1.0
 70
     8
 71
     3
 72
    13
 73
     9
 74
     0
 42
0.00000001
 43
0.00000001
 40
0.0
 40
0.0
 40
0.0
 40
0.0
 40
0.2500649107443983
 40
0.3783596976340433
 40
0.5001025157054373
 40
0.622952087243964
 40
0.7501470080801298
 40
1.0
 40
1.0
 40
1.0
 40
1.0
 10
7.008006609940035
 20
7.406658518450167
 30
0.0
 10
7.005081575088647
 20
7.407131287358383
 30
0.0
 10
7.000655862985953
 20
7.407846608434943
 30
0.0
 10
6.997297011719492
 20
7.409756576737623
 30
0.0
 10
6.996516116682076
 20
7.411734512704478
 30
0.0
 10
6.997551938065067
 20
7.41415279840294
 30
0.0
 10
7.001227258883401
 20
7.417805519171403
 30
0.0
 10
7.00594646594704
 20
7.420672103183927
 30
0.0
 10
7.009073675949931
 20
7.422571661749
 30
0.0
  0
LINE
  5
198
330
1F
100
AcDbEntity
  8
0
  6
Continuous
 62
     7
370
     0
100
AcDbLine
 10
6.9594186214
 20
7.4119192859
 30
0.0
 11
6.9397321258
 21
7.4005545139
 31
0.0
  0
SPLINE
  5
199
330
1F
100
AcDbEntity
  8
0
  6
Continuous
 62
     7
370
     0
100
AcDbSpline
210
0.0
220
0.0
230
1.0
 70
     8
 71
     3
 72
    11
 73
     7
 74
     0
 42
0.00000001
 43
0.00000001
 40
0.0
 40
0.0
 40
0.0
 40
0.0
 40
0.4988199337615883
 40
0.7491888849042899
 40
0.8745696102450826
 40
0.9999999999999999
 40
0.9999999999999999
 40
0.9999999999999999
 40
0.9999999999999999
 10
6.965067781005001
 20
7.409426863853322
 30
0.0
 10
6.963269428940553
 20
7.409497125416816
 30
0.0
 10
6.960568443501439
 20
7.409602652840326
 30
0.0
 10
6.959448092664487
 20
7.410577477785534
 30
0.0
 10
6.959269752426582
 20
7.411291621233757
 30
0.0
 10
6.959368991867834
 20
7.411710036744055
 30
0.0
 10
6.959418621413918
 20
7.411919285925522
 30
0.0
  0
ARC
  5
19A
330
1F
100
AcDbEntity
  8
0
  6
Continuous
 62
     7
370
     0
100
AcDbCircle
 10
6.9596115862
 20
7.488578667
 30
0.0
 40
0.0793396370003255
100
AcDbArc
 50
273.9433489456
 51
302.079761352
  0
SPLINE
  5
19B
330
1F
100
AcDbEntity
  8
0
  6
Continuous
 62
     7
370
     0
100
AcDbSpline
210
0.0
220
0.0
230
1.0
 70
     8
 71
     3
 72
    13
 73
     9
 74
     0
 42
0.00000001
 43
0.00000001
 40
0.0
 40
0.0
 40
0.0
 40
0.0
 40
0.1251722017704564
 40
0.2501710903368912
 40
0.3751630043242014
 40
0.5002554073255644
 40
0.7499099807477174
 40
0.9999999999999999
 40
0.9999999999999999
 40
0.9999999999999999
 40
0.9999999999999999
 10
7.008139660521932
 20
7.434251442375036
 30
0.0
 10
7.009237007393292
 20
7.434223338734654
 30
0.0
 10
7.011430181751518
 20
7.434167170366139
 30
0.0
 10
7.013483862360761
 20
7.433387003332671
 30
0.0
 10
7.014075298097899
 20
7.43199928306599
 30
0.0
 10
7.012869537859255
 20
7.429533126966416
 30
0.0
 10
7.009168652392678
 20
7.425904060902417
 30
0.0
 10
7.004223529188444
 20
7.422871189761987
 30
0.0
 10
7.001748813152532
 20
7.421353432865729
 30
0.0
  0
ARC
  5
19C
330
1F
100
AcDbEntity
  8
0
  6
Continuous
 62
     7
370
     0
100
AcDbCircle
 10
7.0092184939
 20
7.3960762004
 30
0.0
 40
0.0381904828453584
100
AcDbArc
 50
91.6187495134
 51
104.5447446994
  0
SPLINE
  5
19D
330
1F
100
AcDbEntity
  8
0
  6
Continuous
 62
     7
370
     0
100
AcDbSpline
210
0.0
220
0.0
230
1.0
 70
    24
 71
     1
 72
     4
 73
     2
 74
     0
 42
0.00000001
 43
0.00000001
 40
0.0
 40
0.0
 40
1.0
 40
1.0
 10
6.989420541640198
 20
7.429771651709218
 30
0.0
 10
6.999627489025993
 20
7.433042747521864
 30
0.0
  0
LINE
  5
19E
330
1F
100
AcDbEntity
  8
0
  6
Continuous
 62
     7
370
     0
100
AcDbLine
 10
6.9955044149
 20
7.433283797
 30
0.0
 11
6.9894205416
 21
7.4297716517
 31
0.0
  0
ARC
  5
19F
330
1F
100
AcDbEntity
  8
0
  6
Continuous
 62
     7
370
     0
100
AcDbCircle
 10
7.0099923804
 20
7.1916025193
 30
0.0
 40
0.2421151402820977
100
AcDbArc
 50
93.4305804601
 51
96.468303436
  0
LINE
  5
1A0
330
1F
100
AcDbEntity
  8
0
  6
Continuous
 62
     7
370
     0
100
AcDbLine
 10
6.9259191294
 20
7.3993875759
 30
0.0
 11
6.982717252
 21
7.4321764341
 31
0.0
  0
ARC
  5
1A1
330
1F
100
AcDbEntity
  8
0
  6
Continuous
 62
     7
370
     0
100
AcDbCircle
 10
6.9532366578
 20
7.1583665375
 30
0.0
 40
0.2425641941776505
100
AcDbArc
 50
93.1915385181
 51
96.4663570963
  0
ARC
  5
1A2
330
1F
100
AcDbEntity
  8
0
  6
Continuous
 62
     7
370
     0
100
AcDbCircle
 10
7.3278833186
 20
6.6019826538
 30
0.0
 40
0.9096595347460347
100
AcDbArc
 50
118.8231632412
 51
119.6723399896
  0
SPLINE
  5
1A3
330
1F
100
AcDbEntity
  8
0
  6
Continuous
 62
     7
370
     0
100
AcDbSpline
210
0.0
220
0.0
230
1.0
 70
     8
 71
     3
 72
     9
 73
     5
 74
     0
 42
0.00000001
 43
0.00000001
 40
0.0
 40
0.0
 40
0.0
 40
0.0
 40
0.5006506955429147
 40
1.0
 40
1.0
 40
1.0
 40
1.0
 10
6.899044182849677
 20
7.404430769082561
 30
0.0
 10
6.897559076481052
 20
7.403578741555299
 30
0.0
 10
6.894592724128312
 20
7.401876901260565
 30
0.0
 10
6.891082230188475
 20
7.399922218758338
 30
0.0
 10
6.889329267481317
 20
7.398946149410416
 30
0.0
  0
ARC
  5
1A4
330
1F
100
AcDbEntity
  8
0
  6
Continuous
 62
     7
370
     0
100
AcDbCircle
 10
3.8267679594
 20
12.8025403802
 30
0.0
 40
6.211283269915219
100
AcDbArc
 50
299.2777196317
 51
299.4392347984
  0
LINE
  5
1A5
330
1F
100
AcDbEntity
  8
0
  6
Continuous
 62
     7
370
     0
100
AcDbLine
 10
7.240270356
 20
7.1419073569
 30
0.0
 11
7.2634809066
 21
7.1553065225
 31
0.0
  0
ARC
  5
1A6
330
1F
100
AcDbEntity
  8
0
  6
Continuous
 62
     7
370
     0
100
AcDbCircle
 10
6.562491391
 20
6.5392949812
 30
0.0
 40
0.9069321919508839
100
AcDbArc
 50
41.6402529876
 51
43.5190235641
  0
LINE
  5
1A7
330
1F
100
AcDbEntity
  8
0
  6
Continuous
 62
     7
370
     0
100
AcDbLine
 10
7.2086819164
 20
7.1571842354
 30
0.0
 11
7.2201494436
 21
7.163804298
 31
0.0
  0
ARC
  5
1A8
330
1F
100
AcDbEntity
  8
0
  6
Continuous
 62
     7
370
     0
100
AcDbCircle
 10
6.5510238638
 20
6.5326749187
 30
0.0
 40
0.906932191951841
100
AcDbArc
 50
41.6402529876
 51
43.5190235641
  0
LINE
  5
1A9
330
1F
100
AcDbEntity
  8
0
  6
Continuous
 62
     7
370
     0
100
AcDbLine
 10
7.2188849675
 20
7.1295618349
 30
0.0
 11
7.2288028289
 21
7.1352872944
 31
0.0
  0
ARC
  5
1AA
330
1F
100
AcDbEntity
  8
0
  6
Continuous
 62
     7
370
     0
100
AcDbCircle
 10
6.54333123
 20
6.528975695
 30
0.0
 40
0.9039228748615455
100
AcDbArc
 50
41.6379892155
 51
43.8420969428
  0
LINE
  5
1AB
330
1F
100
AcDbEntity
  8
0
  6
Continuous
 62
     7
370
     0
100
AcDbLine
 10
7.1830847711
 20
7.1480547525
 30
0.0
 11
7.1952869547
 21
7.1550989231
 31
0.0
  0
ARC
  5
1AC
330
1F
100
AcDbEntity
  8
0
  6
Continuous
 62
     7
370
     0
100
AcDbCircle
 10
6.5212905973
 20
6.512802562
 30
0.0
 40
0.91734228837302
100
AcDbArc
 50
40.1514344524
 51
43.827696952
  0
LINE
  5
1AD
330
1F
100
AcDbEntity
  8
0
  6
Continuous
 62
     7
370
     0
100
AcDbLine
 10
7.2792527506
 20
7.1371029384
 30
0.0
 11
7.222454628
 21
7.1043140801
 31
0.0
  0
ARC
  5
1AE
330
1F
100
AcDbEntity
  8
0
  6
Continuous
 62
     7
370
     0
100
AcDbCircle
 10
6.5634943137
 20
6.5328939226
 30
0.0
 40
0.9366849389279501
100
AcDbArc
 50
40.1694560954
 51
41.6427878756
  0
ARC
  5
1AF
330
1F
100
AcDbEntity
  8
0
  6
Continuous
 62
     7
370
     0
100
AcDbCircle
 10
7.1585330775
 20
7.1246706862
 30
0.0
 40
0.0506619153810108
100
AcDbArc
 50
54.5252525457
 51
94.7721082355
  0
LINE
  5
1B0
330
1F
100
AcDbEntity
  8
0
  6
Continuous
 62
     7
370
     0
100
AcDbLine
 10
7.2008712604
 20
7.1733965788
 30
0.0
 11
7.1879344204
 21
7.1659283001
 31
0.0
  0
SPLINE
  5
1B1
330
1F
100
AcDbEntity
  8
0
  6
Continuous
 62
     7
370
     0
100
AcDbSpline
210
0.0
220
0.0
230
1.0
 70
    24
 71
     1
 72
     4
 73
     2
 74
     0
 42
0.00000001
 43
0.00000001
 40
0.0
 40
0.0
 40
1.0
 40
1.0
 10
7.176995247935323
 20
7.184019768562529
 30
0.0
 10
7.200871260421228
 20
7.173396578807264
 30
0.0
  0
LINE
  5
1B2
330
1F
100
AcDbEntity
  8
0
  6
Continuous
 62
     7
370
     0
100
AcDbLine
 10
7.2148415313
 20
7.2058679629
 30
0.0
 11
7.1769952479
 21
7.1840197686
 31
0.0
  0
ARC
  5
1B3
330
1F
100
AcDbEntity
  8
0
  6
Continuous
 62
     7
370
     0
100
AcDbCircle
 10
6.6463738142
 20
6.6129630682
 30
0.0
 40
0.8213962257151418
100
AcDbArc
 50
46.2054189517
 51
47.6617711927
  0
LINE
  5
1B4
330
1F
100
AcDbEntity
  8
0
  6
Continuous
 62
     7
370
     0
100
AcDbLine
 10
7.1418266259
 20
7.1867787776
 30
0.0
 11
7.199588985
 21
7.2201242778
 31
0.0
  0
ARC
  5
1B5
330
1F
100
AcDbEntity
  8
0
  6
Continuous
 62
     7
370
     0
100
AcDbCircle
 10
6.5904460409
 20
6.5816002059
 30
0.0
 40
0.8186950917118756
100
AcDbArc
 50
46.4691357436
 51
47.6632250736
  0
LINE
  5
1B6
330
1F
100
AcDbEntity
  8
0
  6
Continuous
 62
     7
370
     0
100
AcDbLine
 10
7.0957000534
 20
7.2437030035
 30
0.0
 11
7.1082925232
 21
7.2509724816
 31
0.0
  0
ARC
  5
1B7
330
1F
100
AcDbEntity
  8
0
  6
Continuous
 62
     7
370
     0
100
AcDbCircle
 10
6.6637443368
 20
6.6584639029
 30
0.0
 40
0.7273861051755672
100
AcDbArc
 50
49.3848172271
 51
53.5695523399
  0
LINE
  5
1B8
330
1F
100
AcDbEntity
  8
0
  6
Continuous
 62
     7
370
     0
100
AcDbLine
 10
7.1498472624
 20
7.2178913241
 30
0.0
 11
7.1372547926
 21
7.2106218461
 31
0.0
  0
ARC
  5
1B9
330
1F
100
AcDbEntity
  8
0
  6
Continuous
 62
     7
370
     0
100
AcDbCircle
 10
6.6763368066
 20
6.665733381
 30
0.0
 40
0.7273861051771594
100
AcDbArc
 50
49.3848172271
 51
53.5695523399
  0
SPLINE
  5
1BA
330
1F
100
AcDbEntity
  8
0
  6
Continuous
 62
     7
370
     0
100
AcDbSpline
210
0.0
220
0.0
230
1.0
 70
    24
 71
     1
 72
     4
 73
     2
 74
     0
 42
0.00000001
 43
0.00000001
 40
0.0
 40
0.0
 40
1.0
 40
1.0
 10
7.033377360324375
 20
7.303237519308179
 30
0.0
 10
7.039801942029027
 20
7.303105859792879
 30
0.0
  0
ARC
  5
1BB
330
1F
100
AcDbEntity
  8
0
  6
Continuous
 62
     7
370
     0
100
AcDbCircle
 10
7.0357064439
 20
7.3215039017
 30
0.0
 40
0.0184142704847534
100
AcDbArc
 50
244.7095002275
 51
262.7336218935
  0
SPLINE
  5
1BC
330
1F
100
AcDbEntity
  8
0
  6
Continuous
 62
     7
370
     0
100
AcDbSpline
210
0.0
220
0.0
230
1.0
 70
     8
 71
     3
 72
    14
 73
    10
 74
     0
 42
0.00000001
 43
0.00000001
 40
0.0
 40
0.0
 40
0.0
 40
0.0
 40
0.2500538291742563
 40
0.3811582947725162
 40
0.5001174285988261
 40
0.6244839575521581
 40
0.7452085715133493
 40
0.8651112780037808
 40
1.0
 40
1.0
 40
1.0
 40
1.0
 10
7.029718692271299
 20
7.314449945055489
 30
0.0
 10
7.028571770819194
 20
7.313733352088493
 30
0.0
 10
7.026823512748657
 20
7.312641045866878
 30
0.0
 10
7.025174873200378
 20
7.310982867318883
 30
0.0
 10
7.024444615287887
 20
7.309647938229947
 30
0.0
 10
7.02436710794615
 20
7.308317080442467
 30
0.0
 10
7.024907574813491
 20
7.307037163765267
 30
0.0
 10
7.026089463729198
 20
7.305858956697805
 30
0.0
 10
7.027233865286893
 20
7.305202245139247
 30
0.0
 10
7.027839721082294
 20
7.304854576525039
 30
0.0
  0
ARC
  5
1BD
330
1F
100
AcDbEntity
  8
0
  6
Continuous
 62
     7
370
     0
100
AcDbCircle
 10
7.0403334616
 20
7.2991026971
 30
0.0
 40
0.0186604219943832
100
AcDbArc
 50
68.2396368779
 51
124.6692813878
  0
SPLINE
  5
1BE
330
1F
100
AcDbEntity
  8
0
  6
Continuous
 62
     7
370
     0
100
AcDbSpline
210
0.0
220
0.0
230
1.0
 70
     8
 71
     3
 72
    12
 73
     8
 74
     0
 42
0.00000001
 43
0.00000001
 40
0.0
 40
0.0
 40
0.0
 40
0.0
 40
0.2504185685207538
 40
0.5000021284469076
 40
0.6269887454320969
 40
0.7506566053527292
 40
1.0
 40
1.0
 40
1.0
 40
1.0
 10
7.047206319963803
 20
7.307900295416204
 30
0.0
 10
7.048003591090438
 20
7.30857839506996
 30
0.0
 10
7.049595474881732
 20
7.309932333287001
 30
0.0
 10
7.050441542011616
 20
7.311930031254123
 30
0.0
 10
7.050248043966114
 20
7.313488140507149
 30
0.0
 10
7.049532520709425
 20
7.314997934101855
 30
0.0
 10
7.048165292785215
 20
7.315858302086073
 30
0.0
 10
7.047251354538836
 20
7.316433424340976
 30
0.0
  0
SPLINE
  5
1BF
330
1F
100
AcDbEntity
  8
0
  6
Continuous
 62
     7
370
     0
100
AcDbSpline
210
0.0
220
0.0
230
1.0
 70
    24
 71
     1
 72
     4
 73
     2
 74
     0
 42
0.00000001
 43
0.00000001
 40
0.0
 40
0.0
 40
1.0
 40
1.0
 10
7.064901432826135
 20
7.300127598490011
 30
0.0
 10
7.047206319963803
 20
7.307900295416204
 30
0.0
  0
SPLINE
  5
1C0
330
1F
100
AcDbEntity
  8
0
  6
Continuous
 62
     7
370
     0
100
AcDbSpline
210
0.0
220
0.0
230
1.0
 70
     8
 71
     3
 72
    12
 73
     8
 74
     0
 42
0.00000001
 43
0.00000001
 40
0.0
 40
0.0
 40
0.0
 40
0.0
 40
0.2504240434343337
 40
0.4999145453398489
 40
0.6247093935793001
 40
0.7503037755853279
 40
1.0
 40
1.0
 40
1.0
 40
1.0
 10
7.056698878321582
 20
7.322061196908589
 30
0.0
 10
7.059212104258942
 20
7.320681607842868
 30
0.0
 10
7.064229187221828
 20
7.317927572602929
 30
0.0
 10
7.068390526442365
 20
7.313285168015344
 30
0.0
 10
7.069377457839487
 20
7.309171509941003
 30
0.0
 10
7.068918372125145
 20
7.304949275901563
 30
0.0
 10
7.066506289964204
 20
7.302053966511879
 30
0.0
 10
7.064901432826135
 20
7.300127598490011
 30
0.0
  0
ARC
  5
1C1
330
1F
100
AcDbEntity
  8
0
  6
Continuous
 62
     7
370
     0
100
AcDbCircle
 10
7.0356388807
 20
7.2797123306
 30
0.0
 40
0.0472964055478357
100
AcDbArc
 50
63.5589427776
 51
119.3108994572
  0
SPLINE
  5
1C2
330
1F
100
AcDbEntity
  8
0
  6
Continuous
 62
     7
370
     0
100
AcDbSpline
210
0.0
220
0.0
230
1.0
 70
     8
 71
     3
 72
    13
 73
     9
 74
     0
 42
0.00000001
 43
0.00000001
 40
0.0
 40
0.0
 40
0.0
 40
0.0
 40
0.2497868956771497
 40
0.3752957420394605
 40
0.5002657264245787
 40
0.6270469575917159
 40
0.7507135917215056
 40
1.0
 40
1.0
 40
1.0
 40
1.0
 10
7.013409290874693
 20
7.301564097599242
 30
0.0
 10
7.011121734957906
 20
7.30287523633517
 30
0.0
 10
7.007684765244504
 20
7.30484517468395
 30
0.0
 10
7.005317661126045
 20
7.308167707326738
 30
0.0
 10
7.004603268825535
 20
7.310830564763723
 30
0.0
 10
7.004968060809928
 20
7.313542337481579
 30
0.0
 10
7.006878453813489
 20
7.317133247347426
 30
0.0
 10
7.010238864217174
 20
7.319423101811325
 30
0.0
 10
7.012485003930816
 20
7.320953668745703
 30
0.0
  0
SPLINE
  5
1C3
330
1F
100
AcDbEntity
  8
0
  6
Continuous
 62
     7
370
     0
100
AcDbSpline
210
0.0
220
0.0
230
1.0
 70
    24
 71
     1
 72
     4
 73
     2
 74
     0
 42
0.00000001
 43
0.00000001
 40
0.0
 40
0.0
 40
1.0
 40
1.0
 10
7.026178608909405
 20
7.297759198874936
 30
0.0
 10
7.013409290874693
 20
7.301564097599242
 30
0.0
  0
SPLINE
  5
1C4
330
1F
100
AcDbEntity
  8
0
  6
Continuous
 62
     7
370
     0
100
AcDbSpline
210
0.0
220
0.0
230
1.0
 70
    24
 71
     1
 72
     4
 73
     2
 74
     0
 42
0.00000001
 43
0.00000001
 40
0.0
 40
0.0
 40
1.0
 40
1.0
 10
7.016296785925895
 20
7.293540572085556
 30
0.0
 10
7.026178608909405
 20
7.297759198874936
 30
0.0
  0
ARC
  5
1C5
330
1F
100
AcDbEntity
  8
0
  6
Continuous
 62
     7
370
     0
100
AcDbCircle
 10
6.7860332589
 20
6.8505682438
 30
0.0
 40
0.4992452058392658
100
AcDbArc
 50
62.5339262367
 51
65.7601659325
  0
LINE
  5
1C6
330
1F
100
AcDbEntity
  8
0
  6
Continuous
 62
     7
370
     0
100
AcDbLine
 10
6.9784094396
 20
7.2985279694
 30
0.0
 11
6.9910019093
 21
7.3057974474
 31
0.0
  0
ARC
  5
1C7
330
1F
100
AcDbEntity
  8
0
  6
Continuous
 62
     7
370
     0
100
AcDbCircle
 10
6.768494881
 20
6.8329622654
 30
0.0
 40
0.5107010344686668
100
AcDbArc
 50
61.0390101253
 51
65.7303088728
  0
SPLINE
  5
1C8
330
1F
100
AcDbEntity
  8
0
  6
Continuous
 62
     7
370
     0
100
AcDbSpline
210
0.0
220
0.0
230
1.0
 70
    24
 71
     1
 72
     4
 73
     2
 74
     0
 42
0.00000001
 43
0.00000001
 40
0.0
 40
0.0
 40
1.0
 40
1.0
 10
7.051310349862612
 20
7.29463603608223
 30
0.0
 10
7.015783481175341
 20
7.279799925874444
 30
0.0
  0
SPLINE
  5
1C9
330
1F
100
AcDbEntity
  8
0
  6
Continuous
 62
     7
370
     0
100
AcDbSpline
210
0.0
220
0.0
230
1.0
 70
    24
 71
     1
 72
     4
 73
     2
 74
     0
 42
0.00000001
 43
0.00000001
 40
0.0
 40
0.0
 40
1.0
 40
1.0
 10
7.039801942029027
 20
7.303105859792879
 30
0.0
 10
7.051310349862612
 20
7.29463603608223
 30
0.0
  0
LINE
  5
1CA
330
1F
100
AcDbEntity
  8
0
  6
Continuous
 62
     7
370
     0
100
AcDbLine
 10
6.9115674904
 20
7.3501056202
 30
0.0
 11
6.9325625927
 21
7.3622258348
 31
0.0
  0
ARC
  5
1CB
330
1F
100
AcDbEntity
  8
0
  6
Continuous
 62
     7
370
     0
100
AcDbCircle
 10
6.8976095706
 20
7.3705511441
 30
0.0
 40
0.0247556654519851
100
AcDbArc
 50
268.5616794797
 51
304.3208959898
  0
SPLINE
  5
1CC
330
1F
100
AcDbEntity
  8
0
  6
Continuous
 62
     7
370
     0
100
AcDbSpline
210
0.0
220
0.0
230
1.0
 70
     8
 71
     3
 72
    11
 73
     7
 74
     0
 42
0.00000001
 43
0.00000001
 40
0.0
 40
0.0
 40
0.0
 40
0.0
 40
0.2494767938230585
 40
0.5035301869048671
 40
0.7522417857808505
 40
0.9999999999999999
 40
0.9999999999999999
 40
0.9999999999999999
 40
0.9999999999999999
 10
6.896113743460019
 20
7.3482951490859
 30
0.0
 10
6.8958181158562
 20
7.347998580222987
 30
0.0
 10
6.895221437422414
 20
7.347400002003809
 30
0.0
 10
6.895122594204473
 20
7.346631685367061
 30
0.0
 10
6.895675961663844
 20
7.346050380362941
 30
0.0
 10
6.89655133672501
 20
7.345885540267019
 30
0.0
 10
6.896988183752173
 20
7.345803278492546
 30
0.0
  0
SPLINE
  5
1CD
330
1F
100
AcDbEntity
  8
0
  6
Continuous
 62
     7
370
     0
100
AcDbSpline
210
0.0
220
0.0
230
1.0
 70
    24
 71
     1
 72
     4
 73
     2
 74
     0
 42
0.00000001
 43
0.00000001
 40
0.0
 40
0.0
 40
1.0
 40
1.0
 10
6.899511302843986
 20
7.350453576682929
 30
0.0
 10
6.896113743460019
 20
7.348295149085899
 30
0.0
  0
LINE
  5
1CE
330
1F
100
AcDbEntity
  8
0
  6
Continuous
 62
     7
370
     0
100
AcDbLine
 10
6.9221708611
 20
7.3635346612
 30
0.0
 11
6.8995113028
 21
7.3504535767
 31
0.0
  0
ARC
  5
1CF
330
1F
100
AcDbEntity
  8
0
  6
Continuous
 62
     7
370
     0
100
AcDbCircle
 10
6.8910234506
 20
7.0767535426
 30
0.0
 40
0.2884676258755444
100
AcDbArc
 50
83.8013800026
 51
86.6977912051
  0
LINE
  5
1D0
330
1F
100
AcDbEntity
  8
0
  6
Continuous
 62
     7
370
     0
100
AcDbLine
 10
6.8864037495
 20
7.3524828208
 30
0.0
 11
6.907639911
 21
7.3647421959
 31
0.0
  0
ARC
  5
1D1
330
1F
100
AcDbEntity
  8
0
  6
Continuous
 62
     7
370
     0
100
AcDbCircle
 10
6.8710059685
 20
7.3755892208
 30
0.0
 40
0.0277668396342869
100
AcDbArc
 50
272.6447685645
 51
303.6789323134
  0
SPLINE
  5
1D2
330
1F
100
AcDbEntity
  8
0
  6
Continuous
 62
     7
370
     0
100
AcDbSpline
210
0.0
220
0.0
230
1.0
 70
     8
 71
     3
 72
    10
 73
     6
 74
     0
 42
0.00000001
 43
0.00000001
 40
0.0
 40
0.0
 40
0.0
 40
0.0
 40
0.4988594542991847
 40
0.749198759526635
 40
1.0
 40
1.0
 40
1.0
 40
1.0
 10
6.870843137371714
 20
7.349193444897962
 30
0.0
 10
6.870737325029974
 20
7.348845418411847
 30
0.0
 10
6.870578413588101
 20
7.348322744120659
 30
0.0
 10
6.871311456589497
 20
7.347936972792104
 30
0.0
 10
6.871961771354113
 20
7.347880313592952
 30
0.0
 10
6.872287228456044
 20
7.347851957880062
 30
0.0
  0
SPLINE
  5
1D3
330
1F
100
AcDbEntity
  8
0
  6
Continuous
 62
     7
370
     0
100
AcDbSpline
210
0.0
220
0.0
230
1.0
 70
     8
 71
     3
 72
     9
 73
     5
 74
     0
 42
0.00000001
 43
0.00000001
 40
0.0
 40
0.0
 40
0.0
 40
0.0
 40
0.501578405701303
 40
1.0
 40
1.0
 40
1.0
 40
1.0
 10
6.874014616630943
 20
7.351607085629703
 30
0.0
 10
6.873292082699605
 20
7.351182046966205
 30
0.0
 10
6.871851562288186
 20
7.350334644728258
 30
0.0
 10
6.871178570841514
 20
7.34957304343084
 30
0.0
 10
6.870843137371714
 20
7.349193444897962
 30
0.0
  0
LINE
  5
1D4
330
1F
100
AcDbEntity
  8
0
  6
Continuous
 62
     7
370
     0
100
AcDbLine
 10
6.8974547473
 20
7.365138785
 30
0.0
 11
6.8740146166
 21
7.3516070856
 31
0.0
  0
ARC
  5
1D5
330
1F
100
AcDbEntity
  8
0
  6
Continuous
 62
     7
370
     0
100
AcDbCircle
 10
6.8921140949
 20
7.1040252929
 30
0.0
 40
0.2611681035913954
100
AcDbArc
 50
88.8282712613
 51
91.9231746433
  0
LINE
  5
1D6
330
1F
100
AcDbEntity
  8
0
  6
Continuous
 62
     7
370
     0
100
AcDbLine
 10
6.8575102
 20
7.3501296093
 30
0.0
 11
6.8833494429
 21
7.3650462867
 31
0.0
  0
SPLINE
  5
1D7
330
1F
100
AcDbEntity
  8
0
  6
Continuous
 62
     7
370
     0
100
AcDbSpline
210
0.0
220
0.0
230
1.0
 70
     8
 71
     3
 72
    13
 73
     9
 74
     0
 42
0.00000001
 43
0.00000001
 40
0.0
 40
0.0
 40
0.0
 40
0.0
 40
0.2493026324882238
 40
0.376780000512898
 40
0.4994269650591106
 40
0.6183515801764151
 40
0.7497380290331054
 40
0.9999999999999999
 40
0.9999999999999999
 40
0.9999999999999999
 40
0.9999999999999999
 10
6.853814255942471
 20
7.34087908712246
 30
0.0
 10
6.852127891004067
 20
7.340986673320194
 30
0.0
 10
6.849579227253449
 20
7.341149272195437
 30
0.0
 10
6.848333010364356
 20
7.34225799590742
 30
0.0
 10
6.848466370352149
 20
7.343428466119132
 30
0.0
 10
6.849726335549279
 20
7.344919095684912
 30
0.0
 10
6.852535029111135
 20
7.347148024920138
 30
0.0
 10
6.855539831904954
 20
7.348948781759754
 30
0.0
 10
6.857510199998958
 20
7.350129609276667
 30
0.0
  0
ARC
  5
1D8
330
1F
100
AcDbEntity
  8
0
  6
Continuous
 62
     7
370
     0
100
AcDbCircle
 10
6.8537069094
 20
7.3998716269
 30
0.0
 40
0.0589926374427499
100
AcDbArc
 50
270.1042589267
 51
289.8503240136
  0
SPLINE
  5
1D9
330
1F
100
AcDbEntity
  8
0
  6
Continuous
 62
     7
370
     0
100
AcDbSpline
210
0.0
220
0.0
230
1.0
 70
     8
 71
     3
 72
    12
 73
     8
 74
     0
 42
0.00000001
 43
0.00000001
 40
0.0
 40
0.0
 40
0.0
 40
0.0
 40
0.2503253654036814
 40
0.4999978777420903
 40
0.7494826629082497
 40
0.8746982187917912
 40
1.0
 40
1.0
 40
1.0
 40
1.0
 10
6.878272729088567
 20
7.339440143250824
 30
0.0
 10
6.877152441023589
 20
7.33958223572841
 30
0.0
 10
6.874914786625101
 20
7.33986605010384
 30
0.0
 10
6.872656334739057
 20
7.34080044447555
 30
0.0
 10
6.872391638305263
 20
7.342136649085448
 30
0.0
 10
6.872947871861311
 20
7.343378633666066
 30
0.0
 10
6.87347502756734
 20
7.344048908806046
 30
0.0
 10
6.873738696140964
 20
7.344384161726718
 30
0.0
  0
ARC
  5
1DA
330
1F
100
AcDbEntity
  8
0
  6
Continuous
 62
     7
370
     0
100
AcDbCircle
 10
6.8825554904
 20
7.3902699499
 30
0.0
 40
0.0510099135944837
100
AcDbArc
 50
265.1838114899
 51
288.1388076759
  0
LINE
  5
1DB
330
1F
100
AcDbEntity
  8
0
  6
Continuous
 62
     7
370
     0
100
AcDbLine
 10
6.8924323848
 20
7.3383292111
 30
0.0
 11
6.898435905
 21
7.3417949696
 31
0.0
  0
ARC
  5
1DC
330
1F
100
AcDbEntity
  8
0
  6
Continuous
 62
     7
370
     0
100
AcDbCircle
 10
6.8457151219
 20
7.0203817943
 30
0.0
 40
0.321361264785642
100
AcDbArc
 50
79.1298965729
 51
81.6411184973
  0
LINE
  5
1DD
330
1F
100
AcDbEntity
  8
0
  6
Continuous
 62
     7
370
     0
100
AcDbLine
 10
6.9474591635
 20
7.3597270077
 30
0.0
 11
6.9063184053
 21
7.3359769535
 31
0.0
  0
ARC
  5
1DE
330
1F
100
AcDbEntity
  8
0
  6
Continuous
 62
     7
370
     0
100
AcDbCircle
 10
6.8869761704
 20
7.0448139771
 30
0.0
 40
0.3206686908881435
100
AcDbArc
 50
79.1280194157
 51
81.8271154196
  0
LWPOLYLINE
  5
1DF
330
1F
100
AcDbEntity
  8
0
  6
Continuous
 62
     7
370
     0
100
AcDbPolyline
 90
       42
 70
   128
 43
0.0
 10
8.267637
 20
6.8092268393
 10
8.2818094373
 20
6.8182206851
 10
8.302961804
 20
6.8351115136
 10
8.3220976345
 20
6.8549717804
 10
8.3391018437
 20
6.8776820436
 10
8.3538721662
 20
6.9031057211
 10
8.3663197716
 20
6.9310899117
 10
8.3763697985
 20
6.9614663154
 10
8.3839618049
 20
6.9940522447
 10
8.3890501316
 20
7.0286517243
 10
8.3916041768
 20
7.0650566685
 10
8.39160858
 20
7.103048134
 10
8.389063315
 20
7.1423976355
 10
8.3839836891
 20
7.1828685204
 10
8.3764002519
 20
7.2242173922
 10
8.366358611
 20
7.2661955738
 10
8.353919158
 20
7.3085506036
 10
8.3391567053
 20
7.3510277533
 10
8.3221600361
 20
7.3933715604
 10
8.3030313701
 20
7.4353273643
 10
8.2818857497
 20
7.4766428379
 10
8.2588503468
 20
7.5170695049
 10
8.2340636993
 20
7.5563642347
 10
8.2076748769
 20
7.5942907042
 10
8.1798425851
 20
7.6306208191
 10
8.1507342105
 20
7.6651360858
 10
8.1205248144
 20
7.6976289254
 10
8.0893960796
 20
7.7279039222
 10
8.057535218
 20
7.7557789988
 10
8.0251338446
 20
7.7810865112
 10
7.992386825
 20
7.803674257
 10
7.9594911037
 20
7.8234063909
 10
7.9266445194
 20
7.8401642415
 10
7.8940446153
 20
7.8538470251
 10
7.8618874511
 20
7.8643724519
 10
7.8303664237
 20
7.8716772206
 10
7.7996711044
 20
7.8757173996
 10
7.7699860984
 20
7.8764686907
 10
7.7414899347
 20
7.8739265757
 10
7.7143539928
 20
7.868106343
 10
7.6887414712
 20
7.8590429962
 10
7.6676857604
 20
7.8484854742
  0
LINE
  5
1E0
330
1F
100
AcDbEntity
  8
0
  6
Continuous
 62
     7
370
     0
100
AcDbLine
 10
6.9880096931
 20
7.3300210112
 30
0.0
 11
7.0090047954
 21
7.3421412258
 31
0.0
  0
ARC
  5
1E1
330
1F
100
AcDbEntity
  8
0
  6
Continuous
 62
     7
370
     0
100
AcDbCircle
 10
6.9774873597
 20
7.3447641447
 30
0.0
 40
0.0181129644475879
100
AcDbArc
 50
256.0410188553
 51
305.5158595924
  0
SPLINE
  5
1E2
330
1F
100
AcDbEntity
  8
0
  6
Continuous
 62
     7
370
     0
100
AcDbSpline
210
0.0
220
0.0
230
1.0
 70
     8
 71
     3
 72
    11
 73
     7
 74
     0
 42
0.00000001
 43
0.00000001
 40
0.0
 40
0.0
 40
0.0
 40
0.0
 40
0.2494767938119735
 40
0.50353018689641
 40
0.7522417857728363
 40
0.9999999999999999
 40
0.9999999999999999
 40
0.9999999999999999
 40
0.9999999999999999
 10
6.971998637155414
 20
7.330781133694567
 30
0.0
 10
6.971713617212261
 20
7.330437590617066
 30
0.0
 10
6.971138348695086
 20
7.329744202236615
 30
0.0
 10
6.971098648483506
 20
7.328712063381088
 30
0.0
 10
6.971725726121167
 20
7.327798992062011
 30
0.0
 10
6.972654516766077
 20
7.327390122353372
 30
0.0
 10
6.973118020297411
 20
7.327186080080931
 30
0.0
  0
SPLINE
  5
1E3
330
1F
100
AcDbEntity
  8
0
  6
Continuous
 62
     7
370
     0
100
AcDbSpline
210
0.0
220
0.0
230
1.0
 70
    24
 71
     1
 72
     4
 73
     2
 74
     0
 42
0.00000001
 43
0.00000001
 40
0.0
 40
0.0
 40
1.0
 40
1.0
 10
6.975379542714629
 20
7.333013183064319
 30
0.0
 10
6.971998637155414
 20
7.330781133694567
 30
0.0
  0
LINE
  5
1E4
330
1F
100
AcDbEntity
  8
0
  6
Continuous
 62
     7
370
     0
100
AcDbLine
 10
6.9980391009
 20
7.3460942676
 30
0.0
 11
6.9753795427
 21
7.3330131831
 31
0.0
  0
ARC
  5
1E5
330
1F
100
AcDbEntity
  8
0
  6
Continuous
 62
     7
370
     0
100
AcDbCircle
 10
6.8686619853
 20
6.9710612246
 30
0.0
 40
0.3967218438779164
100
AcDbArc
 50
70.9668331797
 51
73.3088746795
  0
LINE
  5
1E6
330
1F
100
AcDbEntity
  8
0
  6
Continuous
 62
     7
370
     0
100
AcDbLine
 10
6.9613691603
 20
7.3388086093
 30
0.0
 11
6.9826053218
 21
7.3510679843
 31
0.0
  0
ARC
  5
1E7
330
1F
100
AcDbEntity
  8
0
  6
Continuous
 62
     7
370
     0
100
AcDbCircle
 10
6.950360763
 20
7.3545444686
 30
0.0
 40
0.019204220419804
100
AcDbArc
 50
259.5274345008
 51
304.9756340229
  0
SPLINE
  5
1E8
330
1F
100
AcDbEntity
  8
0
  6
Continuous
 62
     7
370
     0
100
AcDbSpline
210
0.0
220
0.0
230
1.0
 70
     8
 71
     3
 72
    10
 73
     6
 74
     0
 42
0.00000001
 43
0.00000001
 40
0.0
 40
0.0
 40
0.0
 40
0.0
 40
0.4988594542991853
 40
0.7491987595266284
 40
1.0
 40
1.0
 40
1.0
 40
1.0
 10
6.945173290931008
 20
7.337950112461859
 30
0.0
 10
6.945101536475478
 20
7.337475549298067
 30
0.0
 10
6.944993773961186
 20
7.336762839274099
 30
0.0
 10
6.945820607916374
 20
7.336024721871169
 30
0.0
 10
6.946520063449683
 20
7.335781749339999
 30
0.0
 10
6.946870113584151
 20
7.335660151092278
 30
0.0
  0
SPLINE
  5
1E9
330
1F
100
AcDbEntity
  8
0
  6
Continuous
 62
     7
370
     0
100
AcDbSpline
210
0.0
220
0.0
230
1.0
 70
     8
 71
     3
 72
     9
 73
     5
 74
     0
 42
0.00000001
 43
0.00000001
 40
0.0
 40
0.0
 40
0.0
 40
0.0
 40
0.5015784057012789
 40
1.0
 40
1.0
 40
1.0
 40
1.0
 10
6.948274786364216
 20
7.340622351386306
 30
0.0
 10
6.947553243517403
 20
7.34019371772109
 30
0.0
 10
6.946114699037392
 20
7.339339148105763
 30
0.0
 10
6.945486432526841
 20
7.338412148889261
 30
0.0
 10
6.945173290931008
 20
7.337950112461859
 30
0.0
  0
LINE
  5
1EA
330
1F
100
AcDbEntity
  8
0
  6
Continuous
 62
     7
370
     0
100
AcDbLine
 10
6.971714917
 20
7.3541540508
 30
0.0
 11
6.9482747864
 21
7.3406223514
 31
0.0
  0
ARC
  5
1EB
330
1F
100
AcDbEntity
  8
0
  6
Continuous
 62
     7
370
     0
100
AcDbCircle
 10
6.8799656716
 20
7.0108915364
 30
0.0
 40
0.3553126480050386
100
AcDbArc
 50
75.0354615761
 51
77.5561175322
  0
LINE
  5
1EC
330
1F
100
AcDbEntity
  8
0
  6
Continuous
 62
     7
370
     0
100
AcDbLine
 10
6.9306903674
 20
7.3429403343
 30
0.0
 11
6.9565296104
 21
7.3578570117
 31
0.0
  0
SPLINE
  5
1ED
330
1F
100
AcDbEntity
  8
0
  6
Continuous
 62
     7
370
     0
100
AcDbSpline
210
0.0
220
0.0
230
1.0
 70
     8
 71
     3
 72
    13
 73
     9
 74
     0
 42
0.00000001
 43
0.00000001
 40
0.0
 40
0.0
 40
0.0
 40
0.0
 40
0.2493026324882369
 40
0.3767800005182309
 40
0.4994269650588444
 40
0.6183515801822868
 40
0.7497380290330954
 40
0.9999999999999999
 40
0.9999999999999999
 40
0.9999999999999999
 40
0.9999999999999999
 10
6.927960244194856
 20
7.33031266127049
 30
0.0
 10
6.926136926278216
 20
7.330914016159598
 30
0.0
 10
6.92338128058479
 20
7.331822865348906
 30
0.0
 10
6.921884229542101
 20
7.333804493073036
 30
0.0
 10
6.921863177675288
 20
7.335505710919399
 30
0.0
 10
6.923012493724201
 20
7.337372462565271
 30
0.0
 10
6.925731640947507
 20
7.339903670477601
 30
0.0
 10
6.928726511993805
 20
7.34173769310441
 30
0.0
 10
6.930690367447986
 20
7.342940334314354
 30
0.0
  0
ARC
  5
1EE
330
1F
100
AcDbEntity
  8
0
  6
Continuous
 62
     7
370
     0
100
AcDbCircle
 10
6.9382253259
 20
7.3720320563
 30
0.0
 40
0.0429637035306623
100
AcDbArc
 50
256.1769273289
 51
284.2287913899
  0
SPLINE
  5
1EF
330
1F
100
AcDbEntity
  8
0
  6
Continuous
 62
     7
370
     0
100
AcDbSpline
210
0.0
220
0.0
230
1.0
 70
     8
 71
     3
 72
    12
 73
     8
 74
     0
 42
0.00000001
 43
0.00000001
 40
0.0
 40
0.0
 40
0.0
 40
0.0
 40
0.2503253654036873
 40
0.4999978777421036
 40
0.7494826629082525
 40
0.8746982187917948
 40
1.0
 40
1.0
 40
1.0
 40
1.0
 10
6.95403392781276
 20
7.322468964436424
 30
0.0
 10
6.952844043247173
 20
7.322911542464088
 30
0.0
 10
6.950467377356395
 20
7.323795544267944
 30
0.0
 10
6.94799821667106
 20
7.325608621438091
 30
0.0
 10
6.947587271968721
 20
7.327541357776934
 30
0.0
 10
6.948050866587791
 20
7.329156587683927
 30
0.0
 10
6.948540611475026
 20
7.329976365152261
 30
0.0
 10
6.948785568201056
 20
7.330386394965642
 30
0.0
  0
ARC
  5
1F0
330
1F
100
AcDbEntity
  8
0
  6
Continuous
 62
     7
370
     0
100
AcDbCircle
 10
6.966352191
 20
7.3605108001
 30
0.0
 40
0.0399865085310851
100
AcDbArc
 50
252.0576149912
 51
282.3884248013
  0
LINE
  5
1F1
330
1F
100
AcDbEntity
  8
0
  6
Continuous
 62
     7
370
     0
100
AcDbLine
 10
6.9689272967
 20
7.3179895933
 30
0.0
 11
6.9749308169
 21
7.3214553518
 31
0.0
  0
ARC
  5
1F2
330
1F
100
AcDbEntity
  8
0
  6
Continuous
 62
     7
370
     0
100
AcDbCircle
 10
6.8117475128
 20
6.9037007978
 30
0.0
 40
0.4431034760839812
100
AcDbArc
 50
67.1963358732
 51
69.2234221541
  0
LINE
  5
1F3
330
1F
100
AcDbEntity
  8
0
  6
Continuous
 62
     7
370
     0
100
AcDbLine
 10
7.0246238968
 20
7.3359206371
 30
0.0
 11
6.9834831386
 21
7.3121705829
 31
0.0
  0
ARC
  5
1F4
330
1F
100
AcDbEntity
  8
0
  6
Continuous
 62
     7
370
     0
100
AcDbCircle
 10
6.8532453126
 20
6.9283300417
 30
0.0
 40
0.4421546252260044
100
AcDbArc
 50
67.1948305234
 51
69.3735469009
  0
SPLINE
  5
1F5
330
1F
100
AcDbEntity
  8
0
  6
Continuous
 62
     7
370
     0
100
AcDbSpline
210
0.0
220
0.0
230
1.0
 70
     8
 71
     3
 72
     9
 73
     5
 74
     0
 42
0.00000001
 43
0.00000001
 40
0.0
 40
0.0
 40
0.0
 40
0.0
 40
0.5000883479088498
 40
1.0
 40
1.0
 40
1.0
 40
1.0
 10
7.121960734612543
 20
7.281998447595084
 30
0.0
 10
7.112629464488509
 20
7.278338861503797
 30
0.0
 10
7.093970221250682
 20
7.27102098235986
 30
0.0
 10
7.071361574380111
 20
7.269740109387596
 30
0.0
 10
7.060059248371497
 20
7.269099786063912
 30
0.0
  0
ARC
  5
1F6
330
1F
100
AcDbEntity
  8
0
  6
Continuous
 62
     7
370
     0
100
AcDbCircle
 10
6.7644206721
 20
6.7617721222
 30
0.0
 40
0.6312450601700442
100
AcDbArc
 50
55.5001185682
 51
57.2097385327
  0
SPLINE
  5
1F7
330
1F
100
AcDbEntity
  8
0
  6
Continuous
 62
     7
370
     0
100
AcDbSpline
210
0.0
220
0.0
230
1.0
 70
    24
 71
     1
 72
     4
 73
     2
 74
     0
 42
0.00000001
 43
0.00000001
 40
0.0
 40
0.0
 40
1.0
 40
1.0
 10
7.085944749695048
 20
7.284363121604388
 30
0.0
 10
7.10628111252533
 20
7.292433751874096
 30
0.0
  0
SPLINE
  5
1F8
330
1F
100
AcDbEntity
  8
0
  6
Continuous
 62
     7
370
     0
100
AcDbSpline
210
0.0
220
0.0
230
1.0
 70
    24
 71
     1
 72
     4
 73
     2
 74
     0
 42
0.00000001
 43
0.00000001
 40
0.0
 40
0.0
 40
1.0
 40
1.0
 10
7.061156853744184
 20
7.279321667743175
 30
0.0
 10
7.085944749695048
 20
7.284363121604388
 30
0.0
  0
SPLINE
  5
1F9
330
1F
100
AcDbEntity
  8
0
  6
Continuous
 62
     7
370
     0
100
AcDbSpline
210
0.0
220
0.0
230
1.0
 70
    24
 71
     1
 72
     4
 73
     2
 74
     0
 42
0.00000001
 43
0.00000001
 40
0.0
 40
0.0
 40
1.0
 40
1.0
 10
7.039383544553461
 20
7.278571739663573
 30
0.0
 10
7.061156853744184
 20
7.279321667743175
 30
0.0
  0
LINE
  5
1FA
330
1F
100
AcDbEntity
  8
0
  6
Continuous
 62
     7
370
     0
100
AcDbLine
 10
7.0287310268
 20
7.2724221721
 30
0.0
 11
7.0393835446
 21
7.2785717397
 31
0.0
  0
ARC
  5
1FB
330
1F
100
AcDbEntity
  8
0
  6
Continuous
 62
     7
370
     0
100
AcDbCircle
 10
6.7143039988
 20
6.7385834105
 30
0.0
 40
0.6195548234722839
100
AcDbArc
 50
54.4317275211
 51
59.5022338249
  0
LINE
  5
1FC
330
1F
100
AcDbEntity
  8
0
  6
Continuous
 62
     7
370
     0
100
AcDbLine
 10
7.0880092065
 20
7.2502371317
 30
0.0
 11
7.0746820803
 21
7.2425435455
 31
0.0
  0
ARC
  5
1FD
330
1F
100
AcDbEntity
  8
0
  6
Continuous
 62
     7
370
     0
100
AcDbCircle
 10
6.7171680546
 20
6.7308778454
 30
0.0
 40
0.6381670848179087
100
AcDbArc
 50
54.4718027779
 51
57.4995455501
  0
LINE
  5
1FE
330
1F
100
AcDbEntity
  8
0
  6
Continuous
 62
     7
370
     0
100
AcDbLine
 10
7.1147666827
 20
7.2547099343
 30
0.0
 11
7.1273132365
 21
7.2619529056
 31
0.0
  0
ARC
  5
1FF
330
1F
100
AcDbEntity
  8
0
  6
Continuous
 62
     7
370
     0
100
AcDbCircle
 10
6.682810966
 20
6.6694708337
 30
0.0
 40
0.7273861051745644
100
AcDbArc
 50
49.3848172271
 51
53.5695523399
  0
LINE
  5
200
330
1F
100
AcDbEntity
  8
0
  6
Continuous
 62
     7
370
     0
100
AcDbLine
 10
7.1688679757
 20
7.2288717482
 30
0.0
 11
7.1563214219
 21
7.2216287769
 31
0.0
  0
ARC
  5
201
330
1F
100
AcDbEntity
  8
0
  6
Continuous
 62
     7
370
     0
100
AcDbCircle
 10
6.6953575198
 20
6.676713805
 30
0.0
 40
0.7273861051752046
100
AcDbArc
 50
49.3848172271
 51
53.5695523399
  0
LINE
  5
202
330
1F
100
AcDbEntity
  8
0
  6
Continuous
 62
     7
370
     0
100
AcDbLine
 10
6.9166951767
 20
7.4101786204
 30
0.0
 11
6.937770632
 21
7.4223452218
 31
0.0
  0
ARC
  5
203
330
1F
100
AcDbEntity
  8
0
  6
Continuous
 62
     7
370
     0
100
AcDbCircle
 10
6.9821399702
 20
7.2140075117
 30
0.0
 40
0.2067997216754109
100
AcDbArc
 50
108.4492536876
 51
110.6471743928
  0
ARC
  5
204
330
1F
100
AcDbEntity
  8
0
  6
Continuous
 62
     7
370
     0
100
AcDbCircle
 10
7.0085297
 20
7.1693856167
 30
0.0
 40
0.258016510997858
100
AcDbArc
 50
112.6373605425
 51
121.1373074744
  0
SPLINE
  5
205
330
1F
100
AcDbEntity
  8
0
  6
Continuous
 62
     7
370
     0
100
AcDbSpline
210
0.0
220
0.0
230
1.0
 70
     8
 71
     3
 72
    13
 73
     9
 74
     0
 42
0.00000001
 43
0.00000001
 40
0.0
 40
0.0
 40
0.0
 40
0.0
 40
0.2501206955155475
 40
0.3808254451869293
 40
0.5003377339303936
 40
0.6236969560650563
 40
0.7504281227974089
 40
1.0
 40
1.0
 40
1.0
 40
1.0
 10
6.8720045317161
 20
7.386332957775229
 30
0.0
 10
6.870242002538292
 20
7.385658313148676
 30
0.0
 10
6.867558434281734
 20
7.384631121697282
 30
0.0
 10
6.865735147848494
 20
7.38409283724912
 30
0.0
 10
6.865451659413164
 20
7.384235141625425
 30
0.0
 10
6.86641897162867
 20
7.385005280764609
 30
0.0
 10
6.869219537718737
 20
7.386799104787266
 30
0.0
 10
6.872762186851332
 20
7.388861808417393
 30
0.0
 10
6.875111744232124
 20
7.390229835663997
 30
0.0
  0
ARC
  5
206
330
1F
100
AcDbEntity
  8
0
  6
Continuous
 62
     7
370
     0
100
AcDbCircle
 10
6.9473150174
 20
7.1908565699
 30
0.0
 40
0.2094819501965199
100
AcDbArc
 50
104.4536295816
 51
111.069997975
  0
LINE
  5
207
330
1F
100
AcDbEntity
  8
0
  6
Continuous
 62
     7
370
     0
100
AcDbLine
 10
6.9518272026
 20
7.4264972663
 30
0.0
 11
6.89502908
 21
7.393708408
 31
0.0
  0
ARC
  5
208
330
1F
100
AcDbEntity
  8
0
  6
Continuous
 62
     7
370
     0
100
AcDbCircle
 10
7.004692896
 20
7.2216527174
 30
0.0
 40
0.2115563063166809
100
AcDbArc
 50
104.4709717296
 51
108.4413111091
  0
LINE
  5
209
330
1F
100
AcDbEntity
  8
0
  6
Continuous
 62
     7
370
     0
100
AcDbLine
 10
7.0861707526
 20
7.4068061416
 30
0.0
 11
7.1059261223
 21
7.4182106738
 31
0.0
  0
ARC
  5
20A
330
1F
100
AcDbEntity
  8
0
  6
Continuous
 62
     7
370
     0
100
AcDbCircle
 10
7.0735571506
 20
7.4238502252
 30
0.0
 40
0.0212038614180795
100
AcDbArc
 50
260.2100246254
 51
306.5035701502
  0
SPLINE
  5
20B
330
1F
100
AcDbEntity
  8
0
  6
Continuous
 62
     7
370
     0
100
AcDbSpline
210
0.0
220
0.0
230
1.0
 70
     8
 71
     3
 72
    13
 73
     9
 74
     0
 42
0.00000001
 43
0.00000001
 40
0.0
 40
0.0
 40
0.0
 40
0.0
 40
0.2556326815350433
 40
0.382769030844446
 40
0.5009930149477642
 40
0.6250249962997952
 40
0.7509663452186212
 40
0.9999999999999999
 40
0.9999999999999999
 40
0.9999999999999999
 40
0.9999999999999999
 10
7.071746905951956
 20
7.408569869646743
 30
0.0
 10
7.070905170359906
 20
7.408056784071798
 30
0.0
 10
7.069644806016578
 20
7.407288520534121
 30
0.0
 10
7.068350032842647
 20
7.406218187573641
 30
0.0
 10
7.067707700814872
 20
7.405405901707517
 30
0.0
 10
7.067563451431198
 20
7.404624426417354
 30
0.0
 10
7.068036919102218
 20
7.403676650933906
 30
0.0
 10
7.06918754078563
 20
7.403243086441304
 30
0.0
 10
7.069951707784134
 20
7.402955141514013
 30
0.0
  0
LINE
  5
20C
330
1F
100
AcDbEntity
  8
0
  6
Continuous
 62
     7
370
     0
100
AcDbLine
 10
7.0943720271
 20
7.4216310741
 30
0.0
 11
7.071746906
 21
7.4085698696
 31
0.0
  0
ARC
  5
20D
330
1F
100
AcDbEntity
  8
0
  6
Continuous
 62
     7
370
     0
100
AcDbCircle
 10
6.9972758609
 20
7.0737173125
 30
0.0
 40
0.3612085976426146
100
AcDbArc
 50
74.4065850006
 51
76.9051663755
  0
LINE
  5
20E
330
1F
100
AcDbEntity
  8
0
  6
Continuous
 62
     7
370
     0
100
AcDbLine
 10
7.0529633628
 20
7.4104375884
 30
0.0
 11
7.0791125388
 21
7.4255331864
 31
0.0
  0
SPLINE
  5
20F
330
1F
100
AcDbEntity
  8
0
  6
Continuous
 62
     7
370
     0
100
AcDbSpline
210
0.0
220
0.0
230
1.0
 70
     8
 71
     3
 72
    13
 73
     9
 74
     0
 42
0.00000001
 43
0.00000001
 40
0.0
 40
0.0
 40
0.0
 40
0.0
 40
0.2492945499287384
 40
0.3757665645063378
 40
0.4994575090414242
 40
0.6241755381076726
 40
0.7497536491744919
 40
1.0
 40
1.0
 40
1.0
 40
1.0
 10
7.05035775153041
 20
7.397880551789262
 30
0.0
 10
7.048571477866801
 20
7.398495955626077
 30
0.0
 10
7.045878992539565
 20
7.399423565899185
 30
0.0
 10
7.044427039357688
 20
7.401415340465567
 30
0.0
 10
7.044418176245792
 20
7.403137392402222
 30
0.0
 10
7.045524568353702
 20
7.404988903749832
 30
0.0
 10
7.048144961534869
 20
7.407484641366568
 30
0.0
 10
7.051037402785865
 20
7.409257267887009
 30
0.0
 10
7.052963362752371
 20
7.410437588390585
 30
0.0
  0
ARC
  5
210
330
1F
100
AcDbEntity
  8
0
  6
Continuous
 62
     7
370
     0
100
AcDbCircle
 10
7.0610191312
 20
7.4400302738
 30
0.0
 40
0.0434771673720597
100
AcDbArc
 50
255.8052886886
 51
281.9941869916
  0
LINE
  5
211
330
1F
100
AcDbEntity
  8
0
  6
Continuous
 62
     7
370
     0
100
AcDbLine
 10
7.0491279996
 20
7.3854218155
 30
0.0
 11
7.0700542279
 21
7.39750227
 31
0.0
  0
ARC
  5
212
330
1F
100
AcDbEntity
  8
0
  6
Continuous
 62
     7
370
     0
100
AcDbCircle
 10
6.9282222903
 20
6.9995826378
 30
0.0
 40
0.4043390429100779
100
AcDbArc
 50
70.293717149
 51
72.6012114928
  0
LINE
  5
213
330
1F
100
AcDbEntity
  8
0
  6
Continuous
 62
     7
370
     0
100
AcDbLine
 10
7.1213629295
 20
7.4130298465
 30
0.0
 11
7.0645648069
 21
7.3802409883
 31
0.0
  0
ARC
  5
214
330
1F
100
AcDbEntity
  8
0
  6
Continuous
 62
     7
370
     0
100
AcDbCircle
 10
6.9850204129
 20
7.0323714961
 30
0.0
 40
0.4043390429119334
100
AcDbArc
 50
70.293717149
 51
72.6012114928
  0
ARC
  5
215
330
1F
100
AcDbEntity
  8
0
  6
Continuous
 62
     7
370
     0
100
AcDbCircle
 10
6.8682612594
 20
6.8481261526
 30
0.0
 40
0.5820917961345954
100
AcDbArc
 50
58.7186671722
 51
59.3851699248
  0
LINE
  5
216
330
1F
100
AcDbEntity
  8
0
  6
Continuous
 62
     7
370
     0
100
AcDbLine
 10
7.1820089744
 20
7.3522380695
 30
0.0
 11
7.1705070102
 21
7.3455981269
 31
0.0
  0
ARC
  5
217
330
1F
100
AcDbEntity
  8
0
  6
Continuous
 62
     7
370
     0
100
AcDbCircle
 10
6.8797632236
 20
6.8547660952
 30
0.0
 40
0.5820917960882626
100
AcDbArc
 50
58.7186671722
 51
59.3851699249
  0
LINE
  5
218
330
1F
100
AcDbEntity
  8
0
  6
Continuous
 62
     7
370
     0
100
AcDbLine
 10
7.1906882351
 20
7.364083138
 30
0.0
 11
7.1762017293
 21
7.3557202562
 31
0.0
  0
SPLINE
  5
219
330
1F
100
AcDbEntity
  8
0
  6
Continuous
 62
     7
370
     0
100
AcDbSpline
210
0.0
220
0.0
230
1.0
 70
     8
 71
     3
 72
    13
 73
     9
 74
     0
 42
0.00000001
 43
0.00000001
 40
0.0
 40
0.0
 40
0.0
 40
0.0
 40
0.2500979381483561
 40
0.37775411293321
 40
0.4995112558105622
 40
0.6243482411510051
 40
0.7495213959044107
 40
1.0
 40
1.0
 40
1.0
 40
1.0
 10
7.192628964720762
 20
7.381462696416582
 30
0.0
 10
7.194695748082863
 20
7.380250257603294
 30
0.0
 10
7.197817468802977
 20
7.378418960025274
 30
0.0
 10
7.200292488647997
 20
7.375234284304229
 30
0.0
 10
7.200478617677474
 20
7.372594414730852
 30
0.0
 10
7.199141722654676
 20
7.370099349008127
 30
0.0
 10
7.195861006719584
 20
7.367190554684607
 30
0.0
 10
7.192757562346586
 20
7.365326235983657
 30
0.0
 10
7.190688235114316
 20
7.364083137995152
 30
0.0
  0
SPLINE
  5
21A
330
1F
100
AcDbEntity
  8
0
  6
Continuous
 62
     7
370
     0
100
AcDbSpline
210
0.0
220
0.0
230
1.0
 70
    24
 71
     1
 72
     4
 73
     2
 74
     0
 42
0.00000001
 43
0.00000001
 40
0.0
 40
0.0
 40
1.0
 40
1.0
 10
7.180433292890342
 20
7.386606634671493
 30
0.0
 10
7.192628964720762
 20
7.381462696416582
 30
0.0
  0
SPLINE
  5
21B
330
1F
100
AcDbEntity
  8
0
  6
Continuous
 62
     7
370
     0
100
AcDbSpline
210
0.0
220
0.0
230
1.0
 70
    24
 71
     1
 72
     4
 73
     2
 74
     0
 42
0.00000001
 43
0.00000001
 40
0.0
 40
0.0
 40
1.0
 40
1.0
 10
7.170697909791231
 20
7.379709823902038
 30
0.0
 10
7.180433292890342
 20
7.386606634671493
 30
0.0
  0
SPLINE
  5
21C
330
1F
100
AcDbEntity
  8
0
  6
Continuous
 62
     7
370
     0
100
AcDbSpline
210
0.0
220
0.0
230
1.0
 70
    24
 71
     1
 72
     4
 73
     2
 74
     0
 42
0.00000001
 43
0.00000001
 40
0.0
 40
0.0
 40
1.0
 40
1.0
 10
7.176594543741916
 20
7.377687140210657
 30
0.0
 10
7.170697909791231
 20
7.379709823902038
 30
0.0
  0
ARC
  5
21D
330
1F
100
AcDbEntity
  8
0
  6
Continuous
 62
     7
370
     0
100
AcDbCircle
 10
7.1761489017
 20
7.3758622047
 30
0.0
 40
0.0018785596421473
100
AcDbArc
 50
347.4180751837
 51
76.2771610959
  0
SPLINE
  5
21E
330
1F
100
AcDbEntity
  8
0
  6
Continuous
 62
     7
370
     0
100
AcDbSpline
210
0.0
220
0.0
230
1.0
 70
     8
 71
     3
 72
     9
 73
     5
 74
     0
 42
0.00000001
 43
0.00000001
 40
0.0
 40
0.0
 40
0.0
 40
0.0
 40
0.5014428105295667
 40
1.0
 40
1.0
 40
1.0
 40
1.0
 10
7.174997644751681
 20
7.373161779393978
 30
0.0
 10
7.175597439118921
 20
7.373503860705733
 30
0.0
 10
7.176793576254894
 20
7.374186054775666
 30
0.0
 10
7.177586854257633
 20
7.375031490145947
 30
0.0
 10
7.177982348709148
 20
7.375452988028033
 30
0.0
  0
LINE
  5
21F
330
1F
100
AcDbEntity
  8
0
  6
Continuous
 62
     7
370
     0
100
AcDbLine
 10
7.1603963489
 20
7.3647326307
 30
0.0
 11
7.1749976448
 21
7.3731617794
 31
0.0
  0
ARC
  5
220
330
1F
100
AcDbEntity
  8
0
  6
Continuous
 62
     7
370
     0
100
AcDbCircle
 10
6.9024381751
 20
6.8946537857
 30
0.0
 40
0.5362056880715153
100
AcDbArc
 50
61.2439960981
 51
62.2958293184
  0
LINE
  5
221
330
1F
100
AcDbEntity
  8
0
  6
Continuous
 62
     7
370
     0
100
AcDbLine
 10
7.1402217175
 20
7.3627487967
 30
0.0
 11
7.1517236817
 21
7.3693887393
 31
0.0
  0
ARC
  5
222
330
1F
100
AcDbEntity
  8
0
  6
Continuous
 62
     7
370
     0
100
AcDbCircle
 10
6.8909362109
 20
6.8880138431
 30
0.0
 40
0.5362056880425219
100
AcDbArc
 50
61.2439960981
 51
62.2958293184
  0
LINE
  5
223
330
1F
100
AcDbEntity
  8
0
  6
Continuous
 62
     7
370
     0
100
AcDbLine
 10
7.1332370202
 20
7.349053884
 30
0.0
 11
7.1488943847
 21
7.3580926881
 31
0.0
  0
SPLINE
  5
224
330
1F
100
AcDbEntity
  8
0
  6
Continuous
 62
     7
370
     0
100
AcDbSpline
210
0.0
220
0.0
230
1.0
 70
    24
 71
     1
 72
     4
 73
     2
 74
     0
 42
0.00000001
 43
0.00000001
 40
0.0
 40
0.0
 40
1.0
 40
1.0
 10
7.157146579032708
 20
7.344719952096241
 30
0.0
 10
7.133237020239397
 20
7.349053884014019
 30
0.0
  0
LINE
  5
225
330
1F
100
AcDbEntity
  8
0
  6
Continuous
 62
     7
370
     0
100
AcDbLine
 10
7.1646997651
 20
7.3490803136
 30
0.0
 11
7.157146579
 21
7.3447199521
 31
0.0
  0
LINE
  5
226
330
1F
100
AcDbEntity
  8
0
  6
Continuous
 62
     7
370
     0
100
AcDbLine
 10
7.2767037638
 20
7.2621277149
 30
0.0
 11
7.3200140541
 21
7.2871302134
 31
0.0
  0
SPLINE
  5
227
330
1F
100
AcDbEntity
  8
0
  6
Continuous
 62
     7
370
     0
100
AcDbSpline
210
0.0
220
0.0
230
1.0
 70
    24
 71
     1
 72
     4
 73
     2
 74
     0
 42
0.00000001
 43
0.00000001
 40
0.0
 40
0.0
 40
1.0
 40
1.0
 10
7.309345600349242
 20
7.296730560335138
 30
0.0
 10
7.276703763798353
 20
7.262127714947111
 30
0.0
  0
ARC
  5
228
330
1F
100
AcDbEntity
  8
0
  6
Continuous
 62
     7
370
     0
100
AcDbCircle
 10
6.7956040779
 20
6.7154381683
 30
0.0
 40
0.7757778012774061
100
AcDbArc
 50
48.5300106561
 51
49.7590430725
  0
SPLINE
  5
229
330
1F
100
AcDbEntity
  8
0
  6
Continuous
 62
     7
370
     0
100
AcDbSpline
210
0.0
220
0.0
230
1.0
 70
    24
 71
     1
 72
     4
 73
     2
 74
     0
 42
0.00000001
 43
0.00000001
 40
0.0
 40
0.0
 40
1.0
 40
1.0
 10
7.242583829803448
 20
7.291634683635443
 30
0.0
 10
7.296759260130711
 20
7.307616080966835
 30
0.0
  0
LINE
  5
22A
330
1F
100
AcDbEntity
  8
0
  6
Continuous
 62
     7
370
     0
100
AcDbLine
 10
7.2858941202
 20
7.3166371821
 30
0.0
 11
7.2425838298
 21
7.2916346836
 31
0.0
  0
ARC
  5
22B
330
1F
100
AcDbEntity
  8
0
  6
Continuous
 62
     7
370
     0
100
AcDbCircle
 10
6.8271875602
 20
6.7535277638
 30
0.0
 40
0.7262946544776492
100
AcDbArc
 50
50.8338848608
 51
52.2533684182
  0
LINE
  5
22C
330
1F
100
AcDbEntity
  8
0
  6
Continuous
 62
     7
370
     0
100
AcDbLine
 10
7.2150058131
 20
7.2950386563
 30
0.0
 11
7.2718039357
 21
7.3278275145
 31
0.0
  0
ARC
  5
22D
330
1F
100
AcDbEntity
  8
0
  6
Continuous
 62
     7
370
     0
100
AcDbCircle
 10
6.7649806139
 20
6.7139055457
 30
0.0
 40
0.7350090965858962
100
AcDbArc
 50
49.9854588181
 51
52.2460633513
  0
SPLINE
  5
22E
330
1F
100
AcDbEntity
  8
0
  6
Continuous
 62
     7
370
     0
100
AcDbSpline
210
0.0
220
0.0
230
1.0
 70
    24
 71
     1
 72
     4
 73
     2
 74
     0
 42
0.00000001
 43
0.00000001
 40
0.0
 40
0.0
 40
1.0
 40
1.0
 10
7.280773879646011
 20
7.289434218813732
 30
0.0
 10
7.237578236232165
 20
7.276835256671249
 30
0.0
  0
SPLINE
  5
22F
330
1F
100
AcDbEntity
  8
0
  6
Continuous
 62
     7
370
     0
100
AcDbSpline
210
0.0
220
0.0
230
1.0
 70
    24
 71
     1
 72
     4
 73
     2
 74
     0
 42
0.00000001
 43
0.00000001
 40
0.0
 40
0.0
 40
1.0
 40
1.0
 10
7.254831362920327
 20
7.261915586235214
 30
0.0
 10
7.280773879646011
 20
7.289434218813732
 30
0.0
  0
ARC
  5
230
330
1F
100
AcDbEntity
  8
0
  6
Continuous
 62
     7
370
     0
100
AcDbCircle
 10
6.7127124945
 20
6.6534002365
 30
0.0
 40
0.8149747224763018
100
AcDbArc
 50
46.1849924982
 51
48.3025474868
  0
LINE
  5
231
330
1F
100
AcDbEntity
  8
0
  6
Continuous
 62
     7
370
     0
100
AcDbLine
 10
7.3337438605
 20
7.2742576668
 30
0.0
 11
7.2769457379
 21
7.2414688085
 31
0.0
  0
ARC
  5
232
330
1F
100
AcDbEntity
  8
0
  6
Continuous
 62
     7
370
     0
100
AcDbCircle
 10
6.7638715329
 20
6.6801924876
 30
0.0
 40
0.8232058714733541
100
AcDbArc
 50
46.1907415216
 51
47.5006895499
  0
SPLINE
  5
233
330
1F
100
AcDbEntity
  8
0
  6
Continuous
 62
     7
370
     0
100
AcDbSpline
210
0.0
220
0.0
230
1.0
 70
     8
 71
     3
 72
    13
 73
     9
 74
     0
 42
0.00000001
 43
0.00000001
 40
0.0
 40
0.0
 40
0.0
 40
0.0
 40
0.1251129426035944
 40
0.2501916918368782
 40
0.3801980578915502
 40
0.5002961448318648
 40
0.7186864425433859
 40
1.0
 40
1.0
 40
1.0
 40
1.0
 10
7.397376498584018
 20
7.176579797398991
 30
0.0
 10
7.398815970941778
 20
7.177270675739902
 30
0.0
 10
7.401694522249466
 20
7.178652243604658
 30
0.0
 10
7.406912492278315
 20
7.179231678193373
 30
0.0
 10
7.412278815711935
 20
7.178800218073565
 30
0.0
 10
7.419006492091305
 20
7.176555380733346
 30
0.0
 10
7.426887185545515
 20
7.170767933739512
 30
0.0
 10
7.43171495240182
 20
7.164887129629984
 30
0.0
 10
7.434432794689553
 20
7.161576468910344
 30
0.0
  0
ARC
  5
234
330
1F
100
AcDbEntity
  8
0
  6
Continuous
 62
     7
370
     0
100
AcDbCircle
 10
7.4048414929
 20
7.164055227
 30
0.0
 40
0.0145805008603433
100
AcDbArc
 50
120.7961248425
 51
201.9735142213
  0
SPLINE
  5
235
330
1F
100
AcDbEntity
  8
0
  6
Continuous
 62
     7
370
     0
100
AcDbSpline
210
0.0
220
0.0
230
1.0
 70
    24
 71
     1
 72
     4
 73
     2
 74
     0
 42
0.00000001
 43
0.00000001
 40
0.0
 40
0.0
 40
1.0
 40
1.0
 10
7.382138058068916
 20
7.16141378709091
 30
0.0
 10
7.391320164534233
 20
7.158599525048002
 30
0.0
  0
ARC
  5
236
330
1F
100
AcDbEntity
  8
0
  6
Continuous
 62
     7
370
     0
100
AcDbCircle
 10
7.3804764078
 20
7.1460599398
 30
0.0
 40
0.0154435005394335
100
AcDbArc
 50
83.823278016
 51
118.498134445
  0
SPLINE
  5
237
330
1F
100
AcDbEntity
  8
0
  6
Continuous
 62
     7
370
     0
100
AcDbSpline
210
0.0
220
0.0
230
1.0
 70
     8
 71
     3
 72
    13
 73
     9
 74
     0
 42
0.00000001
 43
0.00000001
 40
0.0
 40
0.0
 40
0.0
 40
0.0
 40
0.2504377364906127
 40
0.5000689343450705
 40
0.6250971126538004
 40
0.7501160952415895
 40
0.8750331882777967
 40
1.0
 40
1.0
 40
1.0
 40
1.0
 10
7.376741380943467
 20
7.126289002530922
 30
0.0
 10
7.374714850675139
 20
7.129157435050232
 30
0.0
 10
7.370668316610816
 20
7.134885062257189
 30
0.0
 10
7.367200818739907
 20
7.142759971689591
 30
0.0
 10
7.366664954068672
 20
7.148988269083475
 30
0.0
 10
7.367413678878177
 20
7.153370778845681
 30
0.0
 10
7.369544039899554
 20
7.157145672774141
 30
0.0
 10
7.371919754465114
 20
7.158803242500679
 30
0.0
 10
7.373107848092459
 20
7.159632192264901
 30
0.0
  0
SPLINE
  5
238
330
1F
100
AcDbEntity
  8
0
  6
Continuous
 62
     7
370
     0
100
AcDbSpline
210
0.0
220
0.0
230
1.0
 70
     8
 71
     3
 72
     9
 73
     5
 74
     0
 42
0.00000001
 43
0.00000001
 40
0.0
 40
0.0
 40
0.0
 40
0.0
 40
0.4991331653274185
 40
1.0
 40
1.0
 40
1.0
 40
1.0
 10
7.391643437614549
 20
7.112691159103289
 30
0.0
 10
7.388779475421101
 20
7.114534881231871
 30
0.0
 10
7.38304160346148
 20
7.118228729400371
 30
0.0
 10
7.378843880937092
 20
7.123599141314569
 30
0.0
 10
7.376741380943467
 20
7.126289002530922
 30
0.0
  0
ARC
  5
239
330
1F
100
AcDbEntity
  8
0
  6
Continuous
 62
     7
370
     0
100
AcDbCircle
 10
7.4010890363
 20
7.1286003594
 30
0.0
 40
0.0185019455300096
100
AcDbArc
 50
239.3015794734
 51
294.400941872
  0
ARC
  5
23A
330
1F
100
AcDbEntity
  8
0
  6
Continuous
 62
     7
370
     0
100
AcDbCircle
 10
7.4026556544
 20
7.1226252562
 30
0.0
 40
0.0124569928318807
100
AcDbArc
 50
299.1980519877
 51
342.3886847471
  0
SPLINE
  5
23B
330
1F
100
AcDbEntity
  8
0
  6
Continuous
 62
     7
370
     0
100
AcDbSpline
210
0.0
220
0.0
230
1.0
 70
     8
 71
     3
 72
     9
 73
     5
 74
     0
 42
0.00000001
 43
0.00000001
 40
0.0
 40
0.0
 40
0.0
 40
0.0
 40
0.5005936253021219
 40
1.0
 40
1.0
 40
1.0
 40
1.0
 10
7.41452912398202
 20
7.127583959212414
 30
0.0
 10
7.414792515838129
 20
7.12607503649989
 30
0.0
 10
7.41531867486772
 20
7.123060769764846
 30
0.0
 10
7.414791882879857
 20
7.120256674721153
 30
0.0
 10
7.414528799602981
 20
7.118856291781075
 30
0.0
  0
ARC
  5
23C
330
1F
100
AcDbEntity
  8
0
  6
Continuous
 62
     7
370
     0
100
AcDbCircle
 10
7.4272807093
 20
7.1411299427
 30
0.0
 40
0.0186036716158813
100
AcDbArc
 50
226.7302673644
 51
298.1167191818
  0
SPLINE
  5
23D
330
1F
100
AcDbEntity
  8
0
  6
Continuous
 62
     7
370
     0
100
AcDbSpline
210
0.0
220
0.0
230
1.0
 70
     8
 71
     3
 72
    14
 73
    10
 74
     0
 42
0.00000001
 43
0.00000001
 40
0.0
 40
0.0
 40
0.0
 40
0.0
 40
0.2502303647990997
 40
0.3753621555522072
 40
0.5003358146304515
 40
0.6242231379293631
 40
0.7500761921901749
 40
0.8750160562615447
 40
1.0
 40
1.0
 40
1.0
 40
1.0
 10
7.434432794689553
 20
7.161576468910344
 30
0.0
 10
7.436687008628776
 20
7.158403529326775
 30
0.0
 10
7.440068479154876
 20
7.153643909356265
 30
0.0
 10
7.443297667495592
 20
7.146727232533153
 30
0.0
 10
7.444592524381737
 20
7.141363792086198
 30
0.0
 10
7.444511136845394
 20
7.136085439619129
 30
0.0
 10
7.442859223763622
 20
7.13139019609894
 30
0.0
 10
7.440047596570879
 20
7.127412661558789
 30
0.0
 10
7.437381387644173
 20
7.125618793868301
 30
0.0
 10
7.436048048057958
 20
7.124721701828665
 30
0.0
  0
ARC
  5
23E
330
1F
100
AcDbEntity
  8
0
  6
Continuous
 62
     7
370
     0
100
AcDbCircle
 10
7.4366884108
 20
6.9958623002
 30
0.0
 40
0.0379824562492134
100
AcDbArc
 50
36.9363758541
 51
87.7797357437
  0
LINE
  5
23F
330
1F
100
AcDbEntity
  8
0
  6
Continuous
 62
     7
370
     0
100
AcDbLine
 10
7.4799847535
 20
7.0261552931
 30
0.0
 11
7.4670479135
 21
7.0186870143
 31
0.0
  0
SPLINE
  5
240
330
1F
100
AcDbEntity
  8
0
  6
Continuous
 62
     7
370
     0
100
AcDbSpline
210
0.0
220
0.0
230
1.0
 70
    24
 71
     1
 72
     4
 73
     2
 74
     0
 42
0.00000001
 43
0.00000001
 40
0.0
 40
0.0
 40
1.0
 40
1.0
 10
7.460153724958984
 20
7.041770963447583
 30
0.0
 10
7.479984753498107
 20
7.026155293080544
 30
0.0
  0
LINE
  5
241
330
1F
100
AcDbEntity
  8
0
  6
Continuous
 62
     7
370
     0
100
AcDbLine
 10
7.4980000084
 20
7.0636191578
 30
0.0
 11
7.460153725
 21
7.0417709634
 31
0.0
  0
ARC
  5
242
330
1F
100
AcDbEntity
  8
0
  6
Continuous
 62
     7
370
     0
100
AcDbCircle
 10
6.601316544
 20
6.5400905588
 30
0.0
 40
1.038327226482881
100
AcDbArc
 50
30.2785172897
 51
31.5242063762
  0
LINE
  5
243
330
1F
100
AcDbEntity
  8
0
  6
Continuous
 62
     7
370
     0
100
AcDbLine
 10
7.4286443966
 20
7.0496435264
 30
0.0
 11
7.4864067558
 21
7.0829890265
 31
0.0
  0
ARC
  5
244
330
1F
100
AcDbEntity
  8
0
  6
Continuous
 62
     7
370
     0
100
AcDbCircle
 10
6.5437105534
 20
6.5068395575
 30
0.0
 40
1.038144525347223
100
AcDbArc
 50
30.5050290967
 51
31.5242729334
  0
LINE
  5
245
330
1F
100
AcDbEntity
  8
0
  6
Continuous
 62
     7
370
     0
100
AcDbLine
 10
7.4760535394
 20
7.0055155715
 30
0.0
 11
7.4918601309
 21
7.0146405226
 31
0.0
  0
ARC
  5
246
330
1F
100
AcDbEntity
  8
0
  6
Continuous
 62
     7
370
     0
100
AcDbCircle
 10
6.5649167243
 20
6.5188618919
 30
0.0
 40
1.032957937082756
100
AcDbArc
 50
26.7882390618
 51
28.1074337711
  0
LINE
  5
247
330
1F
100
AcDbEntity
  8
0
  6
Continuous
 62
     7
370
     0
100
AcDbLine
 10
7.5028225026
 20
6.9935351105
 30
0.0
 11
7.4870159111
 21
6.9844101594
 31
0.0
  0
ARC
  5
248
330
1F
100
AcDbEntity
  8
0
  6
Continuous
 62
     7
370
     0
100
AcDbCircle
 10
6.5807233158
 20
6.527986843
 30
0.0
 40
1.032957937089885
100
AcDbArc
 50
26.7882390618
 51
28.1074337711
  0
ARC
  5
249
330
1F
100
AcDbEntity
  8
0
  6
Continuous
 62
     7
370
     0
100
AcDbCircle
 10
7.4875152417
 20
6.9020255363
 30
0.0
 40
0.0325945998734155
100
AcDbArc
 50
30.1454743397
 51
86.2761577656
  0
LINE
  5
24A
330
1F
100
AcDbEntity
  8
0
  6
Continuous
 62
     7
370
     0
100
AcDbLine
 10
7.5286383633
 20
6.9258627329
 30
0.0
 11
7.5157015233
 21
6.9183944541
 31
0.0
  0
SPLINE
  5
24B
330
1F
100
AcDbEntity
  8
0
  6
Continuous
 62
     7
370
     0
100
AcDbSpline
210
0.0
220
0.0
230
1.0
 70
    24
 71
     1
 72
     4
 73
     2
 74
     0
 42
0.00000001
 43
0.00000001
 40
0.0
 40
0.0
 40
1.0
 40
1.0
 10
7.511212521982733
 20
6.942339504065419
 30
0.0
 10
7.528638363286663
 20
6.925862732863053
 30
0.0
  0
LINE
  5
24C
330
1F
100
AcDbEntity
  8
0
  6
Continuous
 62
     7
370
     0
100
AcDbLine
 10
7.5490588054
 20
6.9641876984
 30
0.0
 11
7.511212522
 21
6.9423395041
 31
0.0
  0
ARC
  5
24D
330
1F
100
AcDbEntity
  8
0
  6
Continuous
 62
     7
370
     0
100
AcDbCircle
 10
6.6240590596
 20
6.5513596488
 30
0.0
 40
1.012942016215943
100
AcDbArc
 50
24.0512409806
 51
25.3176568212
  0
LINE
  5
24E
330
1F
100
AcDbEntity
  8
0
  6
Continuous
 62
     7
370
     0
100
AcDbLine
 10
7.4819464545
 20
6.9511850805
 30
0.0
 11
7.5397088136
 21
6.9845305807
 31
0.0
  0
ARC
  5
24F
330
1F
100
AcDbEntity
  8
0
  6
Continuous
 62
     7
370
     0
100
AcDbCircle
 10
6.5652821347
 20
6.5175424747
 30
0.0
 40
1.014060838797227
100
AcDbArc
 50
24.2819144942
 51
25.3172333306
  0
LINE
  5
250
330
1F
100
AcDbEntity
  8
0
  6
Continuous
 62
     7
370
     0
100
AcDbLine
 10
7.0107282617
 20
7.4686613092
 30
0.0
 11
7.031723364
 21
7.4807815238
 31
0.0
  0
ARC
  5
251
330
1F
100
AcDbEntity
  8
0
  6
Continuous
 62
     7
370
     0
100
AcDbCircle
 10
6.8408310406
 20
7.7607062561
 30
0.0
 40
0.3378687862354452
100
AcDbArc
 50
297.6084525089
 51
300.1887150545
  0
SPLINE
  5
252
330
1F
100
AcDbEntity
  8
0
  6
Continuous
 62
     7
370
     0
100
AcDbSpline
210
0.0
220
0.0
230
1.0
 70
     8
 71
     3
 72
    11
 73
     7
 74
     0
 42
0.00000001
 43
0.00000001
 40
0.0
 40
0.0
 40
0.0
 40
0.0
 40
0.249476793821848
 40
0.5035301869008572
 40
0.7522417857842184
 40
1.0
 40
1.0
 40
1.0
 40
1.0
 10
6.997497897248206
 20
7.461516075566514
 30
0.0
 10
6.997160929607854
 20
7.461316638635435
 30
0.0
 10
6.996480812726731
 20
7.460914106144769
 30
0.0
 10
6.996150517117544
 20
7.460691675231737
 30
0.0
 10
6.996413939169808
 20
7.46079739693907
 30
0.0
 10
6.997077390887142
 20
7.46113856676093
 30
0.0
 10
6.997408479723499
 20
7.461308824092953
 30
0.0
  0
SPLINE
  5
253
330
1F
100
AcDbEntity
  8
0
  6
Continuous
 62
     7
370
     0
100
AcDbSpline
210
0.0
220
0.0
230
1.0
 70
    24
 71
     1
 72
     4
 73
     2
 74
     0
 42
0.00000001
 43
0.00000001
 40
0.0
 40
0.0
 40
1.0
 40
1.0
 10
7.000960296125561
 20
7.463522294104749
 30
0.0
 10
6.997497897248206
 20
7.461516075566514
 30
0.0
  0
LINE
  5
254
330
1F
100
AcDbEntity
  8
0
  6
Continuous
 62
     7
370
     0
100
AcDbLine
 10
7.0236198543
 20
7.4766033786
 30
0.0
 11
7.0009602961
 21
7.4635222941
 31
0.0
  0
ARC
  5
255
330
1F
100
AcDbEntity
  8
0
  6
Continuous
 62
     7
370
     0
100
AcDbCircle
 10
7.9872132309
 20
5.6133077262
 30
0.0
 40
2.096019985367934
100
AcDbArc
 50
118.1800562332
 51
118.7161662824
  0
LINE
  5
256
330
1F
100
AcDbEntity
  8
0
  6
Continuous
 62
     7
370
     0
100
AcDbLine
 10
6.9913769152
 20
7.4574162737
 30
0.0
 11
6.9973804354
 21
7.4608820322
 31
0.0
  0
ARC
  5
257
330
1F
100
AcDbEntity
  8
0
  6
Continuous
 62
     7
370
     0
100
AcDbCircle
 10
7.0791456589
 20
7.2751996138
 30
0.0
 40
0.2022529691323703
100
AcDbArc
 50
112.2993524965
 51
115.7188352924
  0
LINE
  5
258
330
1F
100
AcDbEntity
  8
0
  6
Continuous
 62
     7
370
     0
100
AcDbLine
 10
7.0435423969
 20
7.4860769479
 30
0.0
 11
7.0024016387
 21
7.4623268937
 31
0.0
  0
ARC
  5
259
330
1F
100
AcDbEntity
  8
0
  6
Continuous
 62
     7
370
     0
100
AcDbCircle
 10
7.1202520752
 20
7.2990287104
 30
0.0
 40
0.202166807081936
100
AcDbArc
 50
112.2988476812
 51
115.96992733
  0
ARC
  5
25A
330
1F
100
AcDbEntity
  8
0
  6
Continuous
 62
     7
370
     0
100
AcDbCircle
 10
7.1318304699
 20
7.3816792338
 30
0.0
 40
0.1219815316159027
100
AcDbArc
 50
98.627840979
 51
123.9178925076
  0
SPLINE
  5
25B
330
1F
100
AcDbEntity
  8
0
  6
Continuous
 62
     7
370
     0
100
AcDbSpline
210
0.0
220
0.0
230
1.0
 70
    24
 71
     1
 72
     4
 73
     2
 74
     0
 42
0.00000001
 43
0.00000001
 40
0.0
 40
0.0
 40
1.0
 40
1.0
 10
7.051867806491341
 20
7.475458972709645
 30
0.0
 10
7.063764253111763
 20
7.482904152550853
 30
0.0
  0
SPLINE
  5
25C
330
1F
100
AcDbEntity
  8
0
  6
Continuous
 62
     7
370
     0
100
AcDbSpline
210
0.0
220
0.0
230
1.0
 70
     8
 71
     3
 72
    12
 73
     8
 74
     0
 42
0.00000001
 43
0.00000001
 40
0.0
 40
0.0
 40
0.0
 40
0.0
 40
0.2503262674180357
 40
0.4997345046006477
 40
0.6249000363599432
 40
0.750160002198259
 40
1.0
 40
1.0
 40
1.0
 40
1.0
 10
7.054433921297913
 20
7.468353115776191
 30
0.0
 10
7.052423169280378
 20
7.468246327491109
 30
0.0
 10
7.048409039346185
 20
7.468033142549337
 30
0.0
 10
7.045998641417932
 20
7.468929999287043
 30
0.0
 10
7.046235800413267
 20
7.470440670736854
 30
0.0
 10
7.047549162187551
 20
7.472321047516957
 30
0.0
 10
7.050141288505715
 20
7.474204485444285
 30
0.0
 10
7.051867806491341
 20
7.475458972709645
 30
0.0
  0
ARC
  5
25D
330
1F
100
AcDbEntity
  8
0
  6
Continuous
 62
     7
370
     0
100
AcDbCircle
 10
7.043282285
 20
7.581144627
 30
0.0
 40
0.1133414487329833
100
AcDbArc
 50
275.6464524007
 51
302.6710015312
  0
SPLINE
  5
25E
330
1F
100
AcDbEntity
  8
0
  6
Continuous
 62
     7
370
     0
100
AcDbSpline
210
0.0
220
0.0
230
1.0
 70
     8
 71
     3
 72
     9
 73
     5
 74
     0
 42
0.00000001
 43
0.00000001
 40
0.0
 40
0.0
 40
0.0
 40
0.0
 40
0.4987092906772057
 40
1.0
 40
1.0
 40
1.0
 40
1.0
 10
7.121181306425153
 20
7.497653839381407
 30
0.0
 10
7.119123397832595
 20
7.495750738640367
 30
0.0
 10
7.11499692850261
 20
7.491934686329698
 30
0.0
 10
7.107982095654865
 20
7.487805513561275
 30
0.0
 10
7.104465625120839
 20
7.485735597615276
 30
0.0
  0
SPLINE
  5
25F
330
1F
100
AcDbEntity
  8
0
  6
Continuous
 62
     7
370
     0
100
AcDbSpline
210
0.0
220
0.0
230
1.0
 70
     8
 71
     3
 72
    11
 73
     7
 74
     0
 42
0.00000001
 43
0.00000001
 40
0.0
 40
0.0
 40
0.0
 40
0.0
 40
0.2504031889031634
 40
0.5003824607867521
 40
0.7500984159891405
 40
1.0
 40
1.0
 40
1.0
 40
1.0
 10
7.113531315417019
 20
7.502280373880274
 30
0.0
 10
7.115067662814341
 20
7.502342890874872
 30
0.0
 10
7.118137756668428
 20
7.502467819026687
 30
0.0
 10
7.121432053426818
 20
7.501821035340301
 30
0.0
 10
7.122643940484256
 20
7.500183035305695
 30
0.0
 10
7.121668971858725
 20
7.498497113486322
 30
0.0
 10
7.121181306425153
 20
7.497653839381407
 30
0.0
  0
SPLINE
  5
260
330
1F
100
AcDbEntity
  8
0
  6
Continuous
 62
     7
370
     0
100
AcDbSpline
210
0.0
220
0.0
230
1.0
 70
     8
 71
     3
 72
     9
 73
     5
 74
     0
 42
0.00000001
 43
0.00000001
 40
0.0
 40
0.0
 40
0.0
 40
0.0
 40
0.5000883479088511
 40
0.9999999999999999
 40
0.9999999999999999
 40
0.9999999999999999
 40
0.9999999999999999
 10
7.223322670377859
 20
7.48717479740191
 30
0.0
 10
7.214016151009065
 20
7.482996396194459
 30
0.0
 10
7.195406400536553
 20
7.474641070130729
 30
0.0
 10
7.173098193625737
 20
7.469638950507525
 30
0.0
 10
7.16194606105376
 20
7.467138332622731
 30
0.0
  0
ARC
  5
261
330
1F
100
AcDbEntity
  8
0
  6
Continuous
 62
     7
370
     0
100
AcDbCircle
 10
7.1118457707
 20
7.1268943671
 30
0.0
 40
0.3771327188222069
100
AcDbArc
 50
72.8070422226
 51
75.2171880779
  0
SPLINE
  5
262
330
1F
100
AcDbEntity
  8
0
  6
Continuous
 62
     7
370
     0
100
AcDbSpline
210
0.0
220
0.0
230
1.0
 70
    24
 71
     1
 72
     4
 73
     2
 74
     0
 42
0.00000001
 43
0.00000001
 40
0.0
 40
0.0
 40
1.0
 40
1.0
 10
7.187840927300785
 20
7.482298829323569
 30
0.0
 10
7.2080733375251
 20
7.491543983860169
 30
0.0
  0
SPLINE
  5
263
330
1F
100
AcDbEntity
  8
0
  6
Continuous
 62
     7
370
     0
100
AcDbSpline
210
0.0
220
0.0
230
1.0
 70
    24
 71
     1
 72
     4
 73
     2
 74
     0
 42
0.00000001
 43
0.00000001
 40
0.0
 40
0.0
 40
1.0
 40
1.0
 10
7.163349811446842
 20
7.474242457634284
 30
0.0
 10
7.187840927300785
 20
7.482298829323569
 30
0.0
  0
SPLINE
  5
264
330
1F
100
AcDbEntity
  8
0
  6
Continuous
 62
     7
370
     0
100
AcDbSpline
210
0.0
220
0.0
230
1.0
 70
    24
 71
     1
 72
     4
 73
     2
 74
     0
 42
0.00000001
 43
0.00000001
 40
0.0
 40
0.0
 40
1.0
 40
1.0
 10
7.142029382304859
 20
7.469542892893815
 30
0.0
 10
7.163349811446842
 20
7.474242457634284
 30
0.0
  0
LINE
  5
265
330
1F
100
AcDbEntity
  8
0
  6
Continuous
 62
     7
370
     0
100
AcDbLine
 10
7.1313768646
 20
7.4633933253
 30
0.0
 11
7.1420293823
 21
7.4695428929
 31
0.0
  0
ARC
  5
266
330
1F
100
AcDbEntity
  8
0
  6
Continuous
 62
     7
370
     0
100
AcDbCircle
 10
7.0576326852
 20
7.1022005687
 30
0.0
 40
0.3686440171465474
100
AcDbArc
 50
71.2919812619
 51
78.4606019002
  0
LINE
  5
267
330
1F
100
AcDbEntity
  8
0
  6
Continuous
 62
     7
370
     0
100
AcDbLine
 10
7.1892007404
 20
7.459061012
 30
0.0
 11
7.1758736142
 21
7.4513674258
 31
0.0
  0
ARC
  5
268
330
1F
100
AcDbEntity
  8
0
  6
Continuous
 62
     7
370
     0
100
AcDbCircle
 10
7.0669860833
 20
7.0967018707
 30
0.0
 40
0.3824141338037376
100
AcDbArc
 50
71.3620384796
 51
75.622049443
  0
ARC
  5
269
330
1F
100
AcDbEntity
  8
0
  6
Continuous
 62
     7
370
     0
100
AcDbCircle
 10
7.2686547085
 20
7.4126515201
 30
0.0
 40
0.0531029383905949
100
AcDbArc
 50
66.8961967887
 51
127.1602615448
  0
SPLINE
  5
26A
330
1F
100
AcDbEntity
  8
0
  6
Continuous
 62
     7
370
     0
100
AcDbSpline
210
0.0
220
0.0
230
1.0
 70
    24
 71
     1
 72
     4
 73
     2
 74
     0
 42
0.00000001
 43
0.00000001
 40
0.0
 40
0.0
 40
1.0
 40
1.0
 10
7.224914332518983
 20
7.446641320696211
 30
0.0
 10
7.236578063248381
 20
7.454971856788051
 30
0.0
  0
SPLINE
  5
26B
330
1F
100
AcDbEntity
  8
0
  6
Continuous
 62
     7
370
     0
100
AcDbSpline
210
0.0
220
0.0
230
1.0
 70
     8
 71
     3
 72
    12
 73
     8
 74
     0
 42
0.00000001
 43
0.00000001
 40
0.0
 40
0.0
 40
0.0
 40
0.0
 40
0.2503262674180343
 40
0.4997345046006484
 40
0.6249000363599415
 40
0.7501600021982574
 40
1.0
 40
1.0
 40
1.0
 40
1.0
 10
7.230342018028767
 20
7.427801962211557
 30
0.0
 10
7.228025586525731
 20
7.429026464541443
 30
0.0
 10
7.223401218649556
 20
7.431470978541189
 30
0.0
 10
7.220216861096302
 20
7.43552185991804
 30
0.0
 10
7.219959891324899
 20
7.438996493301893
 30
0.0
 10
7.220851663610621
 20
7.442524080802914
 30
0.0
 10
7.223290148991348
 20
7.444995320649235
 30
0.0
 10
7.224914332518983
 20
7.446641320696211
 30
0.0
  0
ARC
  5
26C
330
1F
100
AcDbEntity
  8
0
  6
Continuous
 62
     7
370
     0
100
AcDbCircle
 10
7.2529014337
 20
7.4747711501
 30
0.0
 40
0.0521059674558791
100
AcDbArc
 50
244.3449120262
 51
305.3352023289
  0
SPLINE
  5
26D
330
1F
100
AcDbEntity
  8
0
  6
Continuous
 62
     7
370
     0
100
AcDbSpline
210
0.0
220
0.0
230
1.0
 70
     8
 71
     3
 72
     9
 73
     5
 74
     0
 42
0.00000001
 43
0.00000001
 40
0.0
 40
0.0
 40
0.0
 40
0.0
 40
0.4987092906772033
 40
1.0
 40
1.0
 40
1.0
 40
1.0
 10
7.299304309847782
 20
7.446547637504397
 30
0.0
 10
7.297389152319596
 20
7.443895816837747
 30
0.0
 10
7.293548924026304
 20
7.438578449152358
 30
0.0
 10
7.286547256891427
 20
7.43437244804457
 30
0.0
 10
7.283037386206943
 20
7.432264018765835
 30
0.0
  0
SPLINE
  5
26E
330
1F
100
AcDbEntity
  8
0
  6
Continuous
 62
     7
370
     0
100
AcDbSpline
210
0.0
220
0.0
230
1.0
 70
     8
 71
     3
 72
    11
 73
     7
 74
     0
 42
0.00000001
 43
0.00000001
 40
0.0
 40
0.0
 40
0.0
 40
0.0
 40
0.2504031889031606
 40
0.5003824607867514
 40
0.7500984159891428
 40
1.0
 40
1.0
 40
1.0
 40
1.0
 10
7.289492204490317
 20
7.46149536139633
 30
0.0
 10
7.291252296427412
 20
7.460553273779893
 30
0.0
 10
7.294769500575457
 20
7.45867069344274
 30
0.0
 10
7.298681446496806
 20
7.455095240451153
 30
0.0
 10
7.30041747807645
 20
7.450872276495909
 30
0.0
 10
7.299675457821189
 20
7.447989540853848
 30
0.0
 10
7.299304309847782
 20
7.446547637504397
 30
0.0
  0
LINE
  5
26F
330
1F
100
AcDbEntity
  8
0
  6
Continuous
 62
     7
370
     0
100
AcDbLine
 10
7.3657986316
 20
7.4008967221
 30
0.0
 11
7.3764167123
 21
7.4070264096
 31
0.0
  0
ARC
  5
270
330
1F
100
AcDbEntity
  8
0
  6
Continuous
 62
     7
370
     0
100
AcDbCircle
 10
6.9661713132
 20
6.8566507373
 30
0.0
 40
0.675207883171013
100
AcDbArc
 50
53.7110175354
 51
54.4519499472
  0
LINE
  5
271
330
1F
100
AcDbEntity
  8
0
  6
Continuous
 62
     7
370
     0
100
AcDbLine
 10
7.3464907617
 20
7.3989548857
 30
0.0
 11
7.3587273823
 21
7.4060189364
 31
0.0
  0
ARC
  5
272
330
1F
100
AcDbEntity
  8
0
  6
Continuous
 62
     7
370
     0
100
AcDbCircle
 10
6.9539346927
 20
6.8495866867
 30
0.0
 40
0.675207883127268
100
AcDbArc
 50
53.7110175354
 51
54.4519499472
  0
LINE
  5
273
330
1F
100
AcDbEntity
  8
0
  6
Continuous
 62
     7
370
     0
100
AcDbLine
 10
7.3186543532
 20
7.3736809095
 30
0.0
 11
7.353562011
 21
7.3938326714
 31
0.0
  0
ARC
  5
274
330
1F
100
AcDbEntity
  8
0
  6
Continuous
 62
     7
370
     0
100
AcDbCircle
 10
6.9063364331
 20
6.8122220883
 30
0.0
 40
0.6965931919351371
100
AcDbArc
 50
52.3076396847
 51
53.7075957853
  0
SPLINE
  5
275
330
1F
100
AcDbEntity
  8
0
  6
Continuous
 62
     7
370
     0
100
AcDbSpline
210
0.0
220
0.0
230
1.0
 70
    24
 71
     1
 72
     4
 73
     2
 74
     0
 42
0.00000001
 43
0.00000001
 40
0.0
 40
0.0
 40
1.0
 40
1.0
 10
7.394578705823307
 20
7.360274894398511
 30
0.0
 10
7.332248511682868
 20
7.363439809719253
 30
0.0
  0
LINE
  5
276
330
1F
100
AcDbEntity
  8
0
  6
Continuous
 62
     7
370
     0
100
AcDbLine
 10
7.4075499828
 20
7.3677630532
 30
0.0
 11
7.3945787058
 21
7.3602748944
 31
0.0
  0
ARC
  5
277
330
1F
100
AcDbEntity
  8
0
  6
Continuous
 62
     7
370
     0
100
AcDbCircle
 10
6.9270183555
 20
6.8054857066
 30
0.0
 40
0.7396394116749153
100
AcDbArc
 50
49.4822458636
 51
52.2936423529
  0
LINE
  5
278
330
1F
100
AcDbEntity
  8
0
  6
Continuous
 62
     7
370
     0
100
AcDbLine
 10
7.3900108708
 20
7.3967853099
 30
0.0
 11
7.3793927901
 21
7.3906556223
 31
0.0
  0
ARC
  5
279
330
1F
100
AcDbEntity
  8
0
  6
Continuous
 62
     7
370
     0
100
AcDbCircle
 10
6.9640987922
 20
6.8455675885
 30
0.0
 40
0.6965931919433394
100
AcDbArc
 50
52.3076396848
 51
53.7075957853
  0
SPLINE
  5
27A
330
1F
100
AcDbEntity
  8
0
  6
Continuous
 62
     7
370
     0
100
AcDbSpline
210
0.0
220
0.0
230
1.0
 70
    24
 71
     1
 72
     4
 73
     2
 74
     0
 42
0.00000001
 43
0.00000001
 40
0.0
 40
0.0
 40
1.0
 40
1.0
 10
7.464661167231622
 20
7.235761579125361
 30
0.0
 10
7.50245095066835
 20
7.290717187213476
 30
0.0
  0
ARC
  5
27B
330
1F
100
AcDbEntity
  8
0
  6
Continuous
 62
     7
370
     0
100
AcDbCircle
 10
6.7201613445
 20
6.6170835513
 30
0.0
 40
0.9680095496036569
100
AcDbArc
 50
38.161286232
 51
39.7265210804
  0
SPLINE
  5
27C
330
1F
100
AcDbEntity
  8
0
  6
Continuous
 62
     7
370
     0
100
AcDbSpline
210
0.0
220
0.0
230
1.0
 70
    24
 71
     1
 72
     4
 73
     2
 74
     0
 42
0.00000001
 43
0.00000001
 40
0.0
 40
0.0
 40
1.0
 40
1.0
 10
7.556079003058461
 20
7.22435932267638
 30
0.0
 10
7.481282628768173
 20
7.215194643652345
 30
0.0
  0
ARC
  5
27D
330
1F
100
AcDbEntity
  8
0
  6
Continuous
 62
     7
370
     0
100
AcDbCircle
 10
6.7577714379
 20
6.6348438839
 30
0.0
 40
0.9923826988995383
100
AcDbArc
 50
36.44425626
 51
37.8859254763
  0
SPLINE
  5
27E
330
1F
100
AcDbEntity
  8
0
  6
Continuous
 62
     7
370
     0
100
AcDbSpline
210
0.0
220
0.0
230
1.0
 70
    24
 71
     1
 72
     4
 73
     2
 74
     0
 42
0.00000001
 43
0.00000001
 40
0.0
 40
0.0
 40
1.0
 40
1.0
 10
7.529262719715623
 20
7.241855869480458
 30
0.0
 10
7.540994555823143
 20
7.244257510836028
 30
0.0
  0
ARC
  5
27F
330
1F
100
AcDbEntity
  8
0
  6
Continuous
 62
     7
370
     0
100
AcDbCircle
 10
6.767372647
 20
6.6442869264
 30
0.0
 40
0.9682794661669526
100
AcDbArc
 50
38.107954097
 51
39.7423228463
  0
SPLINE
  5
280
330
1F
100
AcDbEntity
  8
0
  6
Continuous
 62
     7
370
     0
100
AcDbSpline
210
0.0
220
0.0
230
1.0
 70
    24
 71
     1
 72
     4
 73
     2
 74
     0
 42
0.00000001
 43
0.00000001
 40
0.0
 40
0.0
 40
1.0
 40
1.0
 10
7.518830454834044
 20
7.271699756459219
 30
0.0
 10
7.511909360724499
 20
7.263342825776599
 30
0.0
  0
ARC
  5
281
330
1F
100
AcDbEntity
  8
0
  6
Continuous
 62
     7
370
     0
100
AcDbCircle
 10
6.798824462
 20
6.6681289644
 30
0.0
 40
0.939524523775237
100
AcDbArc
 50
39.9726256033
 51
41.5032927209
  0
SPLINE
  5
282
330
1F
100
AcDbEntity
  8
0
  6
Continuous
 62
     7
370
     0
100
AcDbSpline
210
0.0
220
0.0
230
1.0
 70
    24
 71
     1
 72
     4
 73
     2
 74
     0
 42
0.00000001
 43
0.00000001
 40
0.0
 40
0.0
 40
1.0
 40
1.0
 10
7.616726700731129
 20
7.13039666968402
 30
0.0
 10
7.623048403025721
 20
7.121206292461624
 30
0.0
  0
SPLINE
  5
283
330
1F
100
AcDbEntity
  8
0
  6
Continuous
 62
     7
370
     0
100
AcDbSpline
210
0.0
220
0.0
230
1.0
 70
    24
 71
     1
 72
     4
 73
     2
 74
     0
 42
0.00000001
 43
0.00000001
 40
0.0
 40
0.0
 40
1.0
 40
1.0
 10
7.610086887497991
 20
7.137453065155918
 30
0.0
 10
7.616726700731129
 20
7.13039666968402
 30
0.0
  0
ARC
  5
284
330
1F
100
AcDbEntity
  8
0
  6
Continuous
 62
     7
370
     0
100
AcDbCircle
 10
7.5993516425
 20
7.1229975238
 30
0.0
 40
0.0180057813425501
100
AcDbArc
 50
53.4009897259
 51
117.6685659749
  0
ARC
  5
285
330
1F
100
AcDbEntity
  8
0
  6
Continuous
 62
     7
370
     0
100
AcDbCircle
 10
7.6001660237
 20
7.1247886783
 30
0.0
 40
0.0168692475146425
100
AcDbArc
 50
122.9507159495
 51
209.8791786505
  0
ARC
  5
286
330
1F
100
AcDbEntity
  8
0
  6
Continuous
 62
     7
370
     0
100
AcDbCircle
 10
7.5698582706
 20
7.100960469
 30
0.0
 40
0.0219954544604089
100
AcDbArc
 50
44.5277382794
 51
70.1031316178
  0
SPLINE
  5
287
330
1F
100
AcDbEntity
  8
0
  6
Continuous
 62
     7
370
     0
100
AcDbSpline
210
0.0
220
0.0
230
1.0
 70
     8
 71
     3
 72
     9
 73
     5
 74
     0
 42
0.00000001
 43
0.00000001
 40
0.0
 40
0.0
 40
0.0
 40
0.0
 40
0.500165444583709
 40
1.0
 40
1.0
 40
1.0
 40
1.0
 10
7.566419396498473
 20
7.120451330895157
 30
0.0
 10
7.568093368773608
 20
7.121226923250071
 30
0.0
 10
7.57144020589173
 20
7.122777594859463
 30
0.0
 10
7.575376464858437
 20
7.122021076760707
 30
0.0
 10
7.577343943109064
 20
7.121642942873152
 30
0.0
  0
SPLINE
  5
288
330
1F
100
AcDbEntity
  8
0
  6
Continuous
 62
     7
370
     0
100
AcDbSpline
210
0.0
220
0.0
230
1.0
 70
     8
 71
     3
 72
    14
 73
    10
 74
     0
 42
0.00000001
 43
0.00000001
 40
0.0
 40
0.0
 40
0.0
 40
0.0
 40
0.2499004290087548
 40
0.3800976031649928
 40
0.4999571058493526
 40
0.6257216768336765
 40
0.749996655536669
 40
0.8749516763670134
 40
1.0
 40
1.0
 40
1.0
 40
1.0
 10
7.5644577429341
 20
7.091562479904216
 30
0.0
 10
7.563096115289921
 20
7.094173755391839
 30
0.0
 10
7.561025084815866
 20
7.09814549548843
 30
0.0
 10
7.559602060656553
 20
7.103752987012233
 30
0.0
 10
7.559290616016627
 20
7.10795174455387
 30
0.0
 10
7.559844247483026
 20
7.111888203588438
 30
0.0
 10
7.561242310097552
 20
7.115458218156104
 30
0.0
 10
7.563430260391073
 20
7.118447187735938
 30
0.0
 10
7.565422769923691
 20
7.119783116983049
 30
0.0
 10
7.566419396498473
 20
7.120451330895157
 30
0.0
  0
ARC
  5
289
330
1F
100
AcDbEntity
  8
0
  6
Continuous
 62
     7
370
     0
100
AcDbCircle
 10
6.6646458624
 20
6.5766050779
 30
0.0
 40
1.036746133975699
100
AcDbArc
 50
27.2167786545
 51
29.7822692717
  0
LINE
  5
28A
330
1F
100
AcDbEntity
  8
0
  6
Continuous
 62
     7
370
     0
100
AcDbLine
 10
7.6434041554
 20
7.0835584546
 30
0.0
 11
7.5866060328
 21
7.0507695963
 31
0.0
  0
ARC
  5
28B
330
1F
100
AcDbEntity
  8
0
  6
Continuous
 62
     7
370
     0
100
AcDbCircle
 10
6.721662203
 20
6.6095101764
 30
0.0
 40
1.036498913111812
100
AcDbArc
 50
27.2165814992
 51
29.5825761057
  0
LINE
  5
28C
330
1F
100
AcDbEntity
  8
0
  6
Continuous
 62
     7
370
     0
100
AcDbLine
 10
7.8243744625
 20
7.8128441155
 30
0.0
 11
7.8453695648
 21
7.82496433
 31
0.0
  0
ARC
  5
28D
330
1F
100
AcDbEntity
  8
0
  6
Continuous
 62
     7
370
     0
100
AcDbCircle
 10
7.8138521291
 20
7.8275872489
 30
0.0
 40
0.0181129644474421
100
AcDbArc
 50
256.0410188551
 51
305.5158595926
  0
SPLINE
  5
28E
330
1F
100
AcDbEntity
  8
0
  6
Continuous
 62
     7
370
     0
100
AcDbSpline
210
0.0
220
0.0
230
1.0
 70
     8
 71
     3
 72
    11
 73
     7
 74
     0
 42
0.00000001
 43
0.00000001
 40
0.0
 40
0.0
 40
0.0
 40
0.0
 40
0.249476793784969
 40
0.503530186877879
 40
0.752241785786033
 40
1.0
 40
1.0
 40
1.0
 40
1.0
 10
7.808363406572013
 20
7.813604237900027
 30
0.0
 10
7.808078386628889
 20
7.813260694822564
 30
0.0
 10
7.807503118111729
 20
7.812567306442141
 30
0.0
 10
7.807463417900001
 20
7.811535167586575
 30
0.0
 10
7.808090495537757
 20
7.810622096267474
 30
0.0
 10
7.809019286182702
 20
7.81021322655882
 30
0.0
 10
7.809482789714011
 20
7.810009184286391
 30
0.0
  0
SPLINE
  5
28F
330
1F
100
AcDbEntity
  8
0
  6
Continuous
 62
     7
370
     0
100
AcDbSpline
210
0.0
220
0.0
230
1.0
 70
    24
 71
     1
 72
     4
 73
     2
 74
     0
 42
0.00000001
 43
0.00000001
 40
0.0
 40
0.0
 40
1.0
 40
1.0
 10
7.811744312131228
 20
7.81583628726978
 30
0.0
 10
7.808363406572013
 20
7.813604237900027
 30
0.0
  0
LINE
  5
290
330
1F
100
AcDbEntity
  8
0
  6
Continuous
 62
     7
370
     0
100
AcDbLine
 10
7.8344038703
 20
7.8289173718
 30
0.0
 11
7.8117443121
 21
7.8158362873
 31
0.0
  0
ARC
  5
291
330
1F
100
AcDbEntity
  8
0
  6
Continuous
 62
     7
370
     0
100
AcDbCircle
 10
7.7050267547
 20
7.4538843288
 30
0.0
 40
0.3967218438795213
100
AcDbArc
 50
70.9668331797
 51
73.3088746795
  0
LINE
  5
292
330
1F
100
AcDbEntity
  8
0
  6
Continuous
 62
     7
370
     0
100
AcDbLine
 10
7.7977339297
 20
7.8216317135
 30
0.0
 11
7.8189700912
 21
7.8338910886
 31
0.0
  0
ARC
  5
293
330
1F
100
AcDbEntity
  8
0
  6
Continuous
 62
     7
370
     0
100
AcDbCircle
 10
7.7867255324
 20
7.8373675728
 30
0.0
 40
0.0192042204199397
100
AcDbArc
 50
259.527434501
 51
304.9756340227
  0
SPLINE
  5
294
330
1F
100
AcDbEntity
  8
0
  6
Continuous
 62
     7
370
     0
100
AcDbSpline
210
0.0
220
0.0
230
1.0
 70
     8
 71
     3
 72
    10
 73
     6
 74
     0
 42
0.00000001
 43
0.00000001
 40
0.0
 40
0.0
 40
0.0
 40
0.0
 40
0.4988594542991727
 40
0.7491987595266384
 40
0.9999999999999999
 40
0.9999999999999999
 40
0.9999999999999999
 40
0.9999999999999999
 10
7.781538060347607
 20
7.820773216667318
 30
0.0
 10
7.781466305892079
 20
7.820298653503527
 30
0.0
 10
7.781358543377787
 20
7.819585943479559
 30
0.0
 10
7.782185377332975
 20
7.818847826076629
 30
0.0
 10
7.782884832866283
 20
7.818604853545458
 30
0.0
 10
7.783234883000751
 20
7.818483255297738
 30
0.0
  0
SPLINE
  5
295
330
1F
100
AcDbEntity
  8
0
  6
Continuous
 62
     7
370
     0
100
AcDbSpline
210
0.0
220
0.0
230
1.0
 70
     8
 71
     3
 72
     9
 73
     5
 74
     0
 42
0.00000001
 43
0.00000001
 40
0.0
 40
0.0
 40
0.0
 40
0.0
 40
0.501578405701286
 40
1.0
 40
1.0
 40
1.0
 40
1.0
 10
7.784639555780816
 20
7.823445455591765
 30
0.0
 10
7.783918012934002
 20
7.82301682192655
 30
0.0
 10
7.782479468453992
 20
7.822162252311223
 30
0.0
 10
7.781851201943441
 20
7.821235253094721
 30
0.0
 10
7.781538060347607
 20
7.820773216667318
 30
0.0
  0
LINE
  5
296
330
1F
100
AcDbEntity
  8
0
  6
Continuous
 62
     7
370
     0
100
AcDbLine
 10
7.8080796864
 20
7.836977155
 30
0.0
 11
7.7846395558
 21
7.8234454556
 31
0.0
  0
ARC
  5
297
330
1F
100
AcDbEntity
  8
0
  6
Continuous
 62
     7
370
     0
100
AcDbCircle
 10
7.716330441
 20
7.4937146406
 30
0.0
 40
0.355312648005258
100
AcDbArc
 50
75.0354615761
 51
77.5561175322
  0
LINE
  5
298
330
1F
100
AcDbEntity
  8
0
  6
Continuous
 62
     7
370
     0
100
AcDbLine
 10
7.7670551369
 20
7.8257634385
 30
0.0
 11
7.7928943798
 21
7.840680116
 31
0.0
  0
SPLINE
  5
299
330
1F
100
AcDbEntity
  8
0
  6
Continuous
 62
     7
370
     0
100
AcDbSpline
210
0.0
220
0.0
230
1.0
 70
     8
 71
     3
 72
    13
 73
     9
 74
     0
 42
0.00000001
 43
0.00000001
 40
0.0
 40
0.0
 40
0.0
 40
0.0
 40
0.2493026324880735
 40
0.3767800005007551
 40
0.499426965058971
 40
0.618351580174062
 40
0.7497380290332415
 40
0.9999999999999999
 40
0.9999999999999999
 40
0.9999999999999999
 40
0.9999999999999999
 10
7.764325013611455
 20
7.81313576547595
 30
0.0
 10
7.762501695694837
 20
7.813737120365063
 30
0.0
 10
7.759746050001568
 20
7.814645969554339
 30
0.0
 10
7.758248998958633
 20
7.816627597278394
 30
0.0
 10
7.75822794709187
 20
7.818328815124739
 30
0.0
 10
7.759377263140711
 20
7.820195566770683
 30
0.0
 10
7.762096410364067
 20
7.822726774683021
 30
0.0
 10
7.765091281410416
 20
7.82456079730987
 30
0.0
 10
7.767055136864585
 20
7.825763438519814
 30
0.0
  0
ARC
  5
29A
330
1F
100
AcDbEntity
  8
0
  6
Continuous
 62
     7
370
     0
100
AcDbCircle
 10
7.7745900954
 20
7.8548551605
 30
0.0
 40
0.0429637035306625
100
AcDbArc
 50
256.1769273289
 51
284.2287913899
  0
SPLINE
  5
29B
330
1F
100
AcDbEntity
  8
0
  6
Continuous
 62
     7
370
     0
100
AcDbSpline
210
0.0
220
0.0
230
1.0
 70
     8
 71
     3
 72
    12
 73
     8
 74
     0
 42
0.00000001
 43
0.00000001
 40
0.0
 40
0.0
 40
0.0
 40
0.0
 40
0.2503253654036859
 40
0.4999978777421002
 40
0.7494826629082538
 40
0.8746982187918031
 40
1.0
 40
1.0
 40
1.0
 40
1.0
 10
7.790398697229359
 20
7.805292068641884
 30
0.0
 10
7.789208812663772
 20
7.805734646669548
 30
0.0
 10
7.786832146772994
 20
7.806618648473404
 30
0.0
 10
7.784362986087659
 20
7.808431725643552
 30
0.0
 10
7.783952041385319
 20
7.810364461982394
 30
0.0
 10
7.784415636004392
 20
7.811979691889388
 30
0.0
 10
7.784905380891625
 20
7.812799469357721
 30
0.0
 10
7.785150337617655
 20
7.813209499171102
 30
0.0
  0
ARC
  5
29C
330
1F
100
AcDbEntity
  8
0
  6
Continuous
 62
     7
370
     0
100
AcDbCircle
 10
7.8027169604
 20
7.8433339043
 30
0.0
 40
0.0399865085310724
100
AcDbArc
 50
252.0576149912
 51
282.3884248013
  0
LINE
  5
29D
330
1F
100
AcDbEntity
  8
0
  6
Continuous
 62
     7
370
     0
100
AcDbLine
 10
7.8052920661
 20
7.8008126975
 30
0.0
 11
7.8112955863
 21
7.804278456
 31
0.0
  0
ARC
  5
29E
330
1F
100
AcDbEntity
  8
0
  6
Continuous
 62
     7
370
     0
100
AcDbCircle
 10
7.6481122822
 20
7.3865239021
 30
0.0
 40
0.4431034760839815
100
AcDbArc
 50
67.1963358732
 51
69.2234221541
  0
LINE
  5
29F
330
1F
100
AcDbEntity
  8
0
  6
Continuous
 62
     7
370
     0
100
AcDbLine
 10
7.8609886662
 20
7.8187437413
 30
0.0
 11
7.819847908
 21
7.7949936872
 31
0.0
  0
ARC
  5
2A0
330
1F
100
AcDbEntity
  8
0
  6
Continuous
 62
     7
370
     0
100
AcDbCircle
 10
7.689610082
 20
7.4111531459
 30
0.0
 40
0.4421546252301163
100
AcDbArc
 50
67.1948305234
 51
69.3735469009
  0
LINE
  5
2A1
330
1F
100
AcDbEntity
  8
0
  6
Continuous
 62
     7
370
     0
100
AcDbLine
 10
7.9167391735
 20
7.7786544315
 30
0.0
 11
7.9273572542
 21
7.784784119
 31
0.0
  0
ARC
  5
2A2
330
1F
100
AcDbEntity
  8
0
  6
Continuous
 62
     7
370
     0
100
AcDbCircle
 10
7.6190719748
 20
7.2844832527
 30
0.0
 40
0.5768976643306906
100
AcDbArc
 50
58.9370710454
 51
59.7599541786
  0
LINE
  5
2A3
330
1F
100
AcDbEntity
  8
0
  6
Continuous
 62
     7
370
     0
100
AcDbLine
 10
7.8973748015
 20
7.7758143712
 30
0.0
 11
7.9096114221
 21
7.7828784219
 31
0.0
  0
ARC
  5
2A4
330
1F
100
AcDbEntity
  8
0
  6
Continuous
 62
     7
370
     0
100
AcDbCircle
 10
7.6068353542
 20
7.277419202
 30
0.0
 40
0.5768976643036364
100
AcDbArc
 50
58.9370710453
 51
59.7599541786
  0
LINE
  5
2A5
330
1F
100
AcDbEntity
  8
0
  6
Continuous
 62
     7
370
     0
100
AcDbLine
 10
7.8695948951
 20
7.7514386189
 30
0.0
 11
7.9045025529
 21
7.7715903808
 31
0.0
  0
ARC
  5
2A6
330
1F
100
AcDbEntity
  8
0
  6
Continuous
 62
     7
370
     0
100
AcDbCircle
 10
7.5610030605
 20
7.2392196585
 30
0.0
 40
0.5979943007853202
100
AcDbArc
 50
57.3827839723
 51
58.9326851736
  0
SPLINE
  5
2A7
330
1F
100
AcDbEntity
  8
0
  6
Continuous
 62
     7
370
     0
100
AcDbSpline
210
0.0
220
0.0
230
1.0
 70
    24
 71
     1
 72
     4
 73
     2
 74
     0
 42
0.00000001
 43
0.00000001
 40
0.0
 40
0.0
 40
1.0
 40
1.0
 10
7.946136118734276
 20
7.743191106628885
 30
0.0
 10
7.883336279299192
 20
7.74290455980714
 30
0.0
  0
LINE
  5
2A8
330
1F
100
AcDbEntity
  8
0
  6
Continuous
 62
     7
370
     0
100
AcDbLine
 10
7.9591073957
 20
7.7506792654
 30
0.0
 11
7.9461361187
 21
7.7431911066
 31
0.0
  0
ARC
  5
2A9
330
1F
100
AcDbEntity
  8
0
  6
Continuous
 62
     7
370
     0
100
AcDbCircle
 10
7.58461077
 20
7.2300336046
 30
0.0
 40
0.6413420513164618
100
AcDbArc
 50
54.2728109889
 51
57.3646349415
  0
LINE
  5
2AA
330
1F
100
AcDbEntity
  8
0
  6
Continuous
 62
     7
370
     0
100
AcDbLine
 10
7.9410986384
 20
7.77625006
 30
0.0
 11
7.9304805577
 21
7.7701203724
 31
0.0
  0
ARC
  5
2AB
330
1F
100
AcDbEntity
  8
0
  6
Continuous
 62
     7
370
     0
100
AcDbCircle
 10
7.6187654196
 20
7.2725651587
 30
0.0
 40
0.597994300772789
100
AcDbArc
 50
57.3827839723
 51
58.9326851736
  0
LINE
  5
2AC
330
1F
100
AcDbEntity
  8
0
  6
Continuous
 62
     7
370
     0
100
AcDbLine
 10
7.9511314521
 20
7.7375330385
 30
0.0
 11
7.9636780059
 21
7.7447760098
 31
0.0
  0
ARC
  5
2AD
330
1F
100
AcDbEntity
  8
0
  6
Continuous
 62
     7
370
     0
100
AcDbCircle
 10
7.5191757355
 20
7.1522939379
 30
0.0
 40
0.7273861051758261
100
AcDbArc
 50
49.3848172271
 51
53.5695523399
  0
LINE
  5
2AE
330
1F
100
AcDbEntity
  8
0
  6
Continuous
 62
     7
370
     0
100
AcDbLine
 10
8.0052327451
 20
7.7116948524
 30
0.0
 11
7.9926861913
 21
7.7044518811
 31
0.0
  0
ARC
  5
2AF
330
1F
100
AcDbEntity
  8
0
  6
Continuous
 62
     7
370
     0
100
AcDbCircle
 10
7.5317222892
 20
7.1595369092
 30
0.0
 40
0.7273861051760354
100
AcDbArc
 50
49.3848172271
 51
53.5695523399
  0
LINE
  5
2B0
330
1F
100
AcDbEntity
  8
0
  6
Continuous
 62
     7
370
     0
100
AcDbLine
 10
8.0766351255
 20
7.6247304611
 30
0.0
 11
8.099845676
 21
7.6381296267
 31
0.0
  0
ARC
  5
2B1
330
1F
100
AcDbEntity
  8
0
  6
Continuous
 62
     7
370
     0
100
AcDbCircle
 10
7.3988561604
 20
7.0221180854
 30
0.0
 40
0.9069321919547711
100
AcDbArc
 50
41.6402529877
 51
43.5190235641
  0
LINE
  5
2B2
330
1F
100
AcDbEntity
  8
0
  6
Continuous
 62
     7
370
     0
100
AcDbLine
 10
8.0450466858
 20
7.6400073396
 30
0.0
 11
8.056514213
 21
7.6466274022
 31
0.0
  0
ARC
  5
2B3
330
1F
100
AcDbEntity
  8
0
  6
Continuous
 62
     7
370
     0
100
AcDbCircle
 10
7.3873886332
 20
7.0154980229
 30
0.0
 40
0.906932191960661
100
AcDbArc
 50
41.6402529877
 51
43.5190235641
  0
LINE
  5
2B4
330
1F
100
AcDbEntity
  8
0
  6
Continuous
 62
     7
370
     0
100
AcDbLine
 10
8.0552497369
 20
7.6123849391
 30
0.0
 11
8.0651675983
 21
7.6181103986
 31
0.0
  0
ARC
  5
2B5
330
1F
100
AcDbEntity
  8
0
  6
Continuous
 62
     7
370
     0
100
AcDbCircle
 10
7.3796959994
 20
7.0117987993
 30
0.0
 40
0.903922874863007
100
AcDbArc
 50
41.6379892155
 51
43.8420969427
  0
LINE
  5
2B6
330
1F
100
AcDbEntity
  8
0
  6
Continuous
 62
     7
370
     0
100
AcDbLine
 10
8.0194495405
 20
7.6308778567
 30
0.0
 11
8.0316517241
 21
7.6379220273
 31
0.0
  0
ARC
  5
2B7
330
1F
100
AcDbEntity
  8
0
  6
Continuous
 62
     7
370
     0
100
AcDbCircle
 10
7.3576553667
 20
6.9956256662
 30
0.0
 40
0.9173422883762481
100
AcDbArc
 50
40.1514344524
 51
43.827696952
  0
LINE
  5
2B8
330
1F
100
AcDbEntity
  8
0
  6
Continuous
 62
     7
370
     0
100
AcDbLine
 10
8.11561752
 20
7.6199260426
 30
0.0
 11
8.0588193974
 21
7.5871371843
 31
0.0
  0
ARC
  5
2B9
330
1F
100
AcDbEntity
  8
0
  6
Continuous
 62
     7
370
     0
100
AcDbCircle
 10
7.3998590831
 20
7.0157170268
 30
0.0
 40
0.9366849389444616
100
AcDbArc
 50
40.1694560954
 51
41.6427878756
  0
LWPOLYLINE
  5
2BA
330
1F
100
AcDbEntity
  8
0
  6
Continuous
 62
     7
370
     0
100
AcDbPolyline
 90
       76
 70
   128
 43
0.0
 10
7.3370646809
 20
6.5434974616
 10
7.3357809546
 20
6.50898233
 10
7.3319469522
 20
6.476187134
 10
7.3255895665
 20
6.4453419083
 10
7.31675339
 20
6.41666301
 10
7.305500402
 20
6.3903516009
 10
7.2919095343
 20
6.3665922368
 10
7.2760761169
 20
6.3455515724
 10
7.25811121
 20
6.3273771928
 10
7.2381408245
 20
6.3121965785
 10
7.2163050381
 20
6.3001162103
 10
7.1927570134
 20
6.2912208234
 10
7.1676619228
 20
6.2855728127
 10
7.1411957903
 20
6.2832117947
 10
7.1135442568
 20
6.2841543304
 10
7.084901278
 20
6.2883938085
 10
7.0554677637
 20
6.2959004922
 10
7.025450169
 20
6.3066217274
 10
6.9950590456
 20
6.3204823124
 10
6.9645075656
 20
6.3373850252
 10
6.9340100254
 20
6.3572113053
 10
6.9037803436
 20
6.3798220857
 10
6.8740305596
 20
6.405058768
 10
6.8449693467
 20
6.4327443349
 10
6.8168005485
 20
6.4626845922
 10
6.7897217489
 20
6.4946695304
 10
6.7639228861
 20
6.5284747981
 10
6.7395849207
 20
6.5638632758
 10
6.716878566
 20
6.6005867386
 10
6.6959630908
 20
6.6383875979
 10
6.6769852021
 20
6.6770007077
 10
6.6600780162
 20
6.716155225
 10
6.6453601247
 20
6.7555765088
 10
6.6329347632
 20
6.7949880471
 10
6.6228890867
 20
6.8341133964
 10
6.6152935583
 20
6.8726781205
 10
6.6102014552
 20
6.9104117154
 10
6.6076484948
 20
6.9470495072
 10
6.6076525844
 20
6.9823345081
 10
6.6102136953
 20
7.0160192191
 10
6.6153138631
 20
7.0478673662
 10
6.6229173137
 20
7.0776555575
 10
6.6329707145
 20
7.1051748503
 10
6.645403548
 20
7.1302322165
 10
6.660128607
 20
7.1526518967
 10
6.6770426055
 20
7.1722766328
 10
6.6960269042
 20
7.1889687716
 10
6.7169483418
 20
7.2026112297
 10
6.7396601695
 20
7.2131083149
 10
6.76400308
 20
7.2203863978
 10
6.7898063254
 20
7.2243944279
 10
6.8168889144
 20
7.2251042917
 10
6.8450608822
 20
7.2225110101
 10
6.8741246226
 20
7.216632773
 10
6.9038762743
 20
7.207510812
 10
6.934107151
 20
7.1952091112
 10
6.9646052047
 20
7.1798139582
 10
6.9951565135
 20
7.1614333388
 10
7.0255467819
 20
7.1401961799
 10
7.055562844
 20
7.116251445
 10
7.0849941587
 20
7.0897670891
 10
7.1136342865
 20
7.060928881
 10
7.1412823374
 20
7.0299391
 10
7.1677443803
 20
6.9970151171
 10
7.192834803
 20
6.9623878704
 10
7.2163776141
 20
6.9263002452
 10
7.2382076777
 20
6.8890053702
 10
7.2581718716
 20
6.8507648422
 10
7.2761301614
 20
6.811846891
 10
7.2919565826
 20
6.772524498
 10
7.3055401241
 20
6.7330734817
 10
7.3167855073
 20
6.6937705626
 10
7.3256138537
 20
6.6548914223
 10
7.3319632389
 20
6.6167087701
 10
7.3357891266
 20
6.5794904299
 10
7.3370646809
 20
6.5434974616
  0
LWPOLYLINE
  5
2BB
330
1F
100
AcDbEntity
  8
0
  6
Continuous
 62
     7
370
     0
100
AcDbPolyline
 90
       49
 70
   128
 43
0.0
 10
6.849496907
 20
7.221816796
 10
6.8321462211
 20
7.223048292
 10
6.8055884884
 20
7.2223521852
 10
6.7802853059
 20
7.2184218301
 10
6.7564141572
 20
7.2112847953
 10
6.7341424813
 20
7.200991142
 10
6.7136264979
 20
7.1876130727
 10
6.695010112
 20
7.1712444249
 10
6.6784239041
 20
7.1520000131
 10
6.6639842145
 20
7.1300148229
 10
6.6517923274
 20
7.1054430646
 10
6.6419337599
 20
7.0784570914
 10
6.634477663
 20
7.0492461906
 10
6.6294763357
 20
7.0180152557
 10
6.6269648588
 20
6.9849833491
 10
6.6269608484
 20
6.9503821661
 10
6.6294643328
 20
6.914454409
 10
6.6344577517
 20
6.8774520853
 10
6.64190608
 20
6.8396347396
 10
6.6517570728
 20
6.8012676335
 10
6.6639416327
 20
6.7626198846
 10
6.6783742937
 20
6.7239625792
 10
6.694953821
 20
6.6855668705
 10
6.7135639212
 20
6.6477020767
 10
6.7340740578
 20
6.6106337922
 10
6.7563403668
 20
6.5746220244
 10
6.7802066662
 20
6.53991937
 10
6.805505551
 20
6.506769243
 10
6.8320595677
 20
6.475404168
 10
6.859682459
 20
6.4460441483
 10
6.88818047
 20
6.4188951233
 10
6.9173537079
 20
6.3941475241
 10
6.9469975431
 20
6.3719749371
 10
6.9769040457
 20
6.3525328872
 10
7.0068634428
 20
6.3359577464
 10
7.0366655909
 20
6.3223657773
 10
7.0661014493
 20
6.311852318
 10
7.0949645466
 20
6.3044911127
 10
7.123052429
 20
6.300333795
 10
7.15016808
 20
6.2994095255
 10
7.176121303
 20
6.3017247873
 10
7.2007300546
 20
6.3072633405
 10
7.2238217223
 20
6.3159863362
 10
7.2452343344
 20
6.3278325887
 10
7.264817697
 20
6.3427190051
 10
7.2824344468
 20
6.3605411679
 10
7.297961015
 20
6.3811740675
 10
7.3112884938
 20
6.4044729789
 10
7.315794494
 20
6.4140781637
  0
ARC
  5
2BC
330
1F
100
AcDbEntity
  8
0
  6
Continuous
 62
     7
370
     0
100
AcDbCircle
 10
7.393613495
 20
7.13521636
 30
0.0
 40
0.0072060138672036
100
AcDbArc
 50
303.0208232845
 51
47.3640739507
  0
ARC
  5
2BD
330
1F
100
AcDbEntity
  8
0
  6
Continuous
 62
     7
370
     0
100
AcDbCircle
 10
7.3910058349
 20
7.1359985367
 30
0.0
 40
0.0087464703713863
100
AcDbArc
 50
31.1095349345
 51
118.0225688601
  0
SPLINE
  5
2BE
330
1F
100
AcDbEntity
  8
0
  6
Continuous
 62
     7
370
     0
100
AcDbSpline
210
0.0
220
0.0
230
1.0
 70
     8
 71
     3
 72
    14
 73
    10
 74
     0
 42
0.00000001
 43
0.00000001
 40
0.0
 40
0.0
 40
0.0
 40
0.0
 40
0.2494473029919513
 40
0.3753895944843423
 40
0.4995604587977642
 40
0.6246288987845712
 40
0.7497015688038486
 40
0.874762898536592
 40
1.0
 40
1.0
 40
1.0
 40
1.0
 10
7.386896574144049
 20
7.14371959360594
 30
0.0
 10
7.386083986583464
 20
7.143142022336109
 30
0.0
 10
7.384861135459428
 20
7.142272843787506
 30
0.0
 10
7.383938623943193
 20
7.14051424446197
 30
0.0
 10
7.383585038683203
 20
7.139031193813977
 30
0.0
 10
7.383589922838953
 20
7.137436447568954
 30
0.0
 10
7.383961111301144
 20
7.135800220497972
 30
0.0
 10
7.384666986021137
 20
7.13419168633737
 30
0.0
 10
7.38535400804715
 20
7.133202830801872
 30
0.0
 10
7.385697760290295
 20
7.132708055822902
 30
0.0
  0
ARC
  5
2BF
330
1F
100
AcDbEntity
  8
0
  6
Continuous
 62
     7
370
     0
100
AcDbCircle
 10
7.3934617288
 20
7.1371164986
 30
0.0
 40
0.0089282458737457
100
AcDbArc
 50
209.5882533916
 51
297.1823684415
  0
ARC
  5
2C0
330
1F
100
AcDbEntity
  8
0
  6
Continuous
 62
     7
370
     0
100
AcDbCircle
 10
7.4181122335
 20
7.1499914088
 30
0.0
 40
0.0089249427529418
100
AcDbArc
 50
300.8765856605
 51
39.7247733121
  0
ARC
  5
2C1
330
1F
100
AcDbEntity
  8
0
  6
Continuous
 62
     7
370
     0
100
AcDbCircle
 10
7.415796464
 20
7.148843678
 30
0.0
 40
0.0114551512124944
100
AcDbArc
 50
36.736060147
 51
118.8455685421
  0
ARC
  5
2C2
330
1F
100
AcDbEntity
  8
0
  6
Continuous
 62
     7
370
     0
100
AcDbCircle
 10
7.4147596124
 20
7.1512796161
 30
0.0
 40
0.0088252672759926
100
AcDbArc
 50
120.5793725103
 51
220.140014895
  0
ARC
  5
2C3
330
1F
100
AcDbEntity
  8
0
  6
Continuous
 62
     7
370
     0
100
AcDbCircle
 10
7.4171473625
 20
7.1520446187
 30
0.0
 40
0.0111845983425227
100
AcDbArc
 50
215.2446176578
 51
299.7210039606
  0
SPLINE
  5
2C4
330
1F
100
AcDbEntity
  8
0
  6
Continuous
 62
     7
370
     0
100
AcDbSpline
210
0.0
220
0.0
230
1.0
 70
     8
 71
     3
 72
    13
 73
     9
 74
     0
 42
0.00000001
 43
0.00000001
 40
0.0
 40
0.0
 40
0.0
 40
0.0
 40
0.2495031635806636
 40
0.3742279390051023
 40
0.4998782996924757
 40
0.6247456795632252
 40
0.7502075291715415
 40
1.0
 40
1.0
 40
1.0
 40
1.0
 10
7.352071057784021
 20
7.186555313038347
 30
0.0
 10
7.352899605574311
 20
7.187138697326537
 30
0.0
 10
7.354142338241412
 20
7.188013711080605
 30
0.0
 10
7.354981682344625
 20
7.189788948843717
 30
0.0
 10
7.355243465657454
 20
7.191261485690209
 30
0.0
 10
7.355120383298206
 20
7.19282393718263
 30
0.0
 10
7.354442629976868
 20
7.194930759682038
 30
0.0
 10
7.353337984737149
 20
7.196355974969843
 30
0.0
 10
7.352602664585481
 20
7.197304686360532
 30
0.0
  0
ARC
  5
2C5
330
1F
100
AcDbEntity
  8
0
  6
Continuous
 62
     7
370
     0
100
AcDbCircle
 10
7.3450724432
 20
7.1916381797
 30
0.0
 40
0.009424093163064
100
AcDbArc
 50
36.9615342754
 51
118.1491038607
  0
SPLINE
  5
2C6
330
1F
100
AcDbEntity
  8
0
  6
Continuous
 62
     7
370
     0
100
AcDbSpline
210
0.0
220
0.0
230
1.0
 70
     8
 71
     3
 72
    14
 73
    10
 74
     0
 42
0.00000001
 43
0.00000001
 40
0.0
 40
0.0
 40
0.0
 40
0.0
 40
0.2494473029920428
 40
0.3753895944720269
 40
0.4995604587971695
 40
0.6246288987631139
 40
0.7497015688037562
 40
0.8747628985365464
 40
0.9999999999999999
 40
0.9999999999999999
 40
0.9999999999999999
 40
0.9999999999999999
 10
7.340626460339411
 20
7.199947618183681
 30
0.0
 10
7.339817967417313
 20
7.199376257694987
 30
0.0
 10
7.338601278254833
 20
7.198516425660023
 30
0.0
 10
7.337725195909444
 20
7.196827786412937
 30
0.0
 10
7.337420176605653
 20
7.195417499537697
 30
0.0
 10
7.337485928014133
 20
7.193913323954447
 30
0.0
 10
7.337927915556975
 20
7.192381537217488
 30
0.0
 10
7.338711243525154
 20
7.190886271528551
 30
0.0
 10
7.339451815505674
 20
7.189974742694373
 30
0.0
 10
7.339822361528764
 20
7.189518658217346
 30
0.0
  0
ARC
  5
2C7
330
1F
100
AcDbEntity
  8
0
  6
Continuous
 62
     7
370
     0
100
AcDbCircle
 10
7.3476556003
 20
7.1951005173
 30
0.0
 40
0.0096185643733612
100
AcDbArc
 50
215.4731538665
 51
297.3261948414
  0
ARC
  5
2C8
330
1F
100
AcDbEntity
  8
0
  6
Continuous
 62
     7
370
     0
100
AcDbCircle
 10
7.3733189723
 20
7.2068312388
 30
0.0
 40
0.0080808406567445
100
AcDbArc
 50
299.329233299
 51
44.4341507338
  0
ARC
  5
2C9
330
1F
100
AcDbEntity
  8
0
  6
Continuous
 62
     7
370
     0
100
AcDbCircle
 10
7.3699284473
 20
7.2042273933
 30
0.0
 40
0.012335516805226
100
AcDbArc
 50
42.0442788134
 51
119.0587352428
  0
ARC
  5
2CA
330
1F
100
AcDbEntity
  8
0
  6
Continuous
 62
     7
370
     0
100
AcDbCircle
 10
7.3677914933
 20
7.2080270673
 30
0.0
 40
0.0079762374707509
100
AcDbArc
 50
118.8975789648
 51
224.8586994013
  0
ARC
  5
2CB
330
1F
100
AcDbEntity
  8
0
  6
Continuous
 62
     7
370
     0
100
AcDbCircle
 10
7.3712948674
 20
7.2102853756
 30
0.0
 40
0.0120839050966068
100
AcDbArc
 50
220.7283895798
 51
299.6740533426
  0
ARC
  5
2CC
330
1F
100
AcDbEntity
  8
0
  6
Continuous
 62
     7
370
     0
100
AcDbCircle
 10
6.6858242033
 20
6.5888505882
 30
0.0
 40
1.038009299061893
100
AcDbArc
 50
28.5990656235
 51
29.194725473
  0
SPLINE
  5
2CD
330
1F
100
AcDbEntity
  8
0
  6
Continuous
 62
     7
370
     0
100
AcDbSpline
210
0.0
220
0.0
230
1.0
 70
     8
 71
     3
 72
    12
 73
     8
 74
     0
 42
0.00000001
 43
0.00000001
 40
0.0
 40
0.0
 40
0.0
 40
0.0
 40
0.2508758277597097
 40
0.5006089009246895
 40
0.6255741322426286
 40
0.750685252371727
 40
1.0
 40
1.0
 40
1.0
 40
1.0
 10
7.591972051411279
 20
7.095170035098826
 30
0.0
 10
7.591343168536235
 20
7.096234758872892
 30
0.0
 10
7.590088267385743
 20
7.098359356539726
 30
0.0
 10
7.587987557556068
 20
7.100713608353057
 30
0.0
 10
7.585901852087757
 20
7.101740826008389
 30
0.0
 10
7.583722997741932
 20
7.102067725121575
 30
0.0
 10
7.582314769709152
 20
7.101433477945046
 30
0.0
 10
7.581377088723865
 20
7.101011158900431
 30
0.0
  0
SPLINE
  5
2CE
330
1F
100
AcDbEntity
  8
0
  6
Continuous
 62
     7
370
     0
100
AcDbSpline
210
0.0
220
0.0
230
1.0
 70
     8
 71
     3
 72
    13
 73
     9
 74
     0
 42
0.00000001
 43
0.00000001
 40
0.0
 40
0.0
 40
0.0
 40
0.0
 40
0.1252642249997818
 40
0.2502628772389927
 40
0.3767307195313185
 40
0.5001238771626093
 40
0.7494666677391522
 40
1.0
 40
1.0
 40
1.0
 40
1.0
 10
7.581377088723865
 20
7.101011158900431
 30
0.0
 10
7.580965295746875
 20
7.100739246435825
 30
0.0
 10
7.580142582835438
 20
7.100195997988393
 30
0.0
 10
7.579204518137082
 20
7.098976936754971
 30
0.0
 10
7.578637230907526
 20
7.097473889057292
 30
0.0
 10
7.578528745422335
 20
7.095191053342063
 30
0.0
 10
7.579446904926487
 20
7.092279344148758
 30
0.0
 10
7.580565122620634
 20
7.090158719883553
 30
0.0
 10
7.581125563082396
 20
7.089095882433707
 30
0.0
  0
ARC
  5
2CF
330
1F
100
AcDbEntity
  8
0
  6
Continuous
 62
     7
370
     0
100
AcDbCircle
 10
6.6750491617
 20
6.5826305021
 30
0.0
 40
1.038018124431363
100
AcDbArc
 50
28.5990673277
 51
29.2036809725
  0
LINE
  5
2D0
330
1F
100
AcDbEntity
  8
0
  6
Continuous
 62
     7
370
     0
100
AcDbLine
 10
7.5864194915
 20
7.0795064912
 30
0.0
 11
7.5971867993
 21
7.0857223257
 31
0.0
  0
ARC
  5
2D1
330
1F
100
AcDbEntity
  8
0
  6
Continuous
 62
     7
370
     0
100
AcDbCircle
 10
6.7080528623
 20
6.6016852726
 30
0.0
 40
1.038108055581079
100
AcDbArc
 50
28.5990861741
 51
29.2977095763
  0
SPLINE
  5
2D2
330
1F
100
AcDbEntity
  8
0
  6
Continuous
 62
     7
370
     0
100
AcDbSpline
210
0.0
220
0.0
230
1.0
 70
     8
 71
     3
 72
    13
 73
     9
 74
     0
 42
0.00000001
 43
0.00000001
 40
0.0
 40
0.0
 40
0.0
 40
0.0
 40
0.2576868080713859
 40
0.4999433752795397
 40
0.6237499127132324
 40
0.7488287379029888
 40
0.8752064661217417
 40
1.0
 40
1.0
 40
1.0
 40
1.0
 10
7.613375307079992
 20
7.109680947732328
 30
0.0
 10
7.612652895510668
 20
7.110881336602104
 30
0.0
 10
7.611251330250065
 20
7.113210235266705
 30
0.0
 10
7.608947654110084
 20
7.115773674433044
 30
0.0
 10
7.606707288739165
 20
7.116969103925475
 30
0.0
 10
7.604918318328338
 20
7.11732067498718
 30
0.0
 10
7.603175942479022
 20
7.117151797542118
 30
0.0
 10
7.60217135287756
 20
7.116650345595811
 30
0.0
 10
7.601672226164508
 20
7.116401201008458
 30
0.0
  0
SPLINE
  5
2D3
330
1F
100
AcDbEntity
  8
0
  6
Continuous
 62
     7
370
     0
100
AcDbSpline
210
0.0
220
0.0
230
1.0
 70
     8
 71
     3
 72
    13
 73
     9
 74
     0
 42
0.00000001
 43
0.00000001
 40
0.0
 40
0.0
 40
0.0
 40
0.0
 40
0.1296897594726406
 40
0.2496082834028193
 40
0.3753937891474124
 40
0.4998958881045905
 40
0.749530961903658
 40
1.0
 40
1.0
 40
1.0
 40
1.0
 10
7.601672226164508
 20
7.116401201008458
 30
0.0
 10
7.601201141930069
 20
7.116080590761417
 30
0.0
 10
7.600294466433296
 20
7.115463526054607
 30
0.0
 10
7.599359695320058
 20
7.114009675863458
 30
0.0
 10
7.598866025742224
 20
7.112289571989113
 30
0.0
 10
7.598922323368059
 20
7.109719092681187
 30
0.0
 10
7.600015278019342
 20
7.106515740029463
 30
0.0
 10
7.601266819050221
 20
7.104158394865744
 30
0.0
 10
7.601893633088912
 20
7.102977756751451
 30
0.0
  0
ARC
  5
2D4
330
1F
100
AcDbEntity
  8
0
  6
Continuous
 62
     7
370
     0
100
AcDbCircle
 10
6.6965423402
 20
6.5950403113
 30
0.0
 40
1.038104721180166
100
AcDbArc
 50
28.5990854263
 51
29.2941276692
  0
LINE
  5
2D5
330
1F
100
AcDbEntity
  8
0
  6
Continuous
 62
     7
370
     0
100
AcDbLine
 10
7.6079885441
 20
7.0919580403
 30
0.0
 11
7.6195019873
 21
7.0986046095
 31
0.0
  0
ARC
  5
2D6
330
1F
100
AcDbEntity
  8
0
  6
Continuous
 62
     7
370
     0
100
AcDbCircle
 10
6.6957878603
 20
6.5952665511
 30
0.0
 40
1.026159089435045
100
AcDbArc
 50
33.4193147879
 51
34.0195517254
  0
SPLINE
  5
2D7
330
1F
100
AcDbEntity
  8
0
  6
Continuous
 62
     7
370
     0
100
AcDbSpline
210
0.0
220
0.0
230
1.0
 70
     8
 71
     3
 72
    12
 73
     8
 74
     0
 42
0.00000001
 43
0.00000001
 40
0.0
 40
0.0
 40
0.0
 40
0.0
 40
0.2508758277600596
 40
0.5006089009253973
 40
0.6255741322401778
 40
0.7506852523713888
 40
1.0
 40
1.0
 40
1.0
 40
1.0
 10
7.546316439520971
 20
7.169377701198149
 30
0.0
 10
7.545602299379481
 20
7.170382793314784
 30
0.0
 10
7.544177272048112
 20
7.172388399292567
 30
0.0
 10
7.541865525278238
 20
7.174590587955592
 30
0.0
 10
7.539648349535056
 20
7.175521831886571
 30
0.0
 10
7.537376364089951
 20
7.175780183324444
 30
0.0
 10
7.535957665692653
 20
7.17513815609358
 30
0.0
 10
7.535013012923334
 20
7.174710656631561
 30
0.0
  0
SPLINE
  5
2D8
330
1F
100
AcDbEntity
  8
0
  6
Continuous
 62
     7
370
     0
100
AcDbSpline
210
0.0
220
0.0
230
1.0
 70
     8
 71
     3
 72
    13
 73
     9
 74
     0
 42
0.00000001
 43
0.00000001
 40
0.0
 40
0.0
 40
0.0
 40
0.0
 40
0.1252642250000521
 40
0.2502628772395256
 40
0.3767307195451455
 40
0.5001238771615405
 40
0.7494666677386069
 40
1.0
 40
1.0
 40
1.0
 40
1.0
 10
7.535013012923334
 20
7.174710656631561
 30
0.0
 10
7.534603225323958
 20
7.174440229131678
 30
0.0
 10
7.533784518916148
 20
7.173899947465423
 30
0.0
 10
7.532886220989306
 20
7.172710271940078
 30
0.0
 10
7.532388035829071
 20
7.171258046929772
 30
0.0
 10
7.532410384557177
 20
7.169070684425848
 30
0.0
 10
7.533532185131633
 20
7.166305680920448
 30
0.0
 10
7.53481553703119
 20
7.164300654542879
 30
0.0
 10
7.535458741243533
 20
7.163295753695063
 30
0.0
  0
ARC
  5
2D9
330
1F
100
AcDbEntity
  8
0
  6
Continuous
 62
     7
370
     0
100
AcDbCircle
 10
6.6850469124
 20
6.5890682439
 30
0.0
 40
1.026127434418464
100
AcDbArc
 50
33.4193085719
 51
34.0285840909
  0
LINE
  5
2DA
330
1F
100
AcDbEntity
  8
0
  6
Continuous
 62
     7
370
     0
100
AcDbLine
 10
7.5415168019
 20
7.1542202943
 30
0.0
 11
7.5522841097
 21
7.1604361288
 31
0.0
  0
ARC
  5
2DB
330
1F
100
AcDbEntity
  8
0
  6
Continuous
 62
     7
370
     0
100
AcDbCircle
 10
6.7184083366
 20
6.6083519494
 30
0.0
 40
1.025792409044924
100
AcDbArc
 50
33.4192371064
 51
34.1234412106
  0
SPLINE
  5
2DC
330
1F
100
AcDbEntity
  8
0
  6
Continuous
 62
     7
370
     0
100
AcDbSpline
210
0.0
220
0.0
230
1.0
 70
     8
 71
     3
 72
    13
 73
     9
 74
     0
 42
0.00000001
 43
0.00000001
 40
0.0
 40
0.0
 40
0.0
 40
0.0
 40
0.2576868080761728
 40
0.499943375279527
 40
0.6237499127098942
 40
0.748828737905778
 40
0.8752064661295544
 40
1.0
 40
1.0
 40
1.0
 40
1.0
 10
7.567590982771892
 20
7.183798645362854
 30
0.0
 10
7.566772353949533
 20
7.18493090610549
 30
0.0
 10
7.565184115655122
 20
7.187127628016074
 30
0.0
 10
7.562651180629569
 20
7.189523379069333
 30
0.0
 10
7.56026492568618
 20
7.19061057330691
 30
0.0
 10
7.558395039187848
 20
7.190901575618937
 30
0.0
 10
7.55660383193324
 20
7.190695933919026
 30
0.0
 10
7.555594667245563
 20
7.190191028253258
 30
0.0
 10
7.555093267417483
 20
7.189940167697886
 30
0.0
  0
SPLINE
  5
2DD
330
1F
100
AcDbEntity
  8
0
  6
Continuous
 62
     7
370
     0
100
AcDbSpline
210
0.0
220
0.0
230
1.0
 70
     8
 71
     3
 72
    13
 73
     9
 74
     0
 42
0.00000001
 43
0.00000001
 40
0.0
 40
0.0
 40
0.0
 40
0.0
 40
0.1296897594730564
 40
0.2496082834026657
 40
0.3753937891416292
 40
0.4998958881044104
 40
0.749530961903565
 40
0.9999999999999999
 40
0.9999999999999999
 40
0.9999999999999999
 40
0.9999999999999999
 10
7.555093267417483
 20
7.189940167697886
 30
0.0
 10
7.554625019470347
 20
7.189621698935744
 30
0.0
 10
7.553723802853347
 20
7.189008755852504
 30
0.0
 10
7.55284237654936
 20
7.187595052140255
 30
0.0
 10
7.552432607817061
 20
7.185937714437123
 30
0.0
 10
7.552641541390242
 20
7.183480356832638
 30
0.0
 10
7.553960392591226
 20
7.180441971984692
 30
0.0
 10
7.555395185519838
 20
7.17821429278713
 30
0.0
 10
7.556113778301119
 20
7.17709859577019
 30
0.0
  0
ARC
  5
2DE
330
1F
100
AcDbEntity
  8
0
  6
Continuous
 62
     7
370
     0
100
AcDbCircle
 10
6.7068841957
 20
6.6016982583
 30
0.0
 40
1.025805260396611
100
AcDbArc
 50
33.4192400382
 51
34.1198270242
  0
LINE
  5
2DF
330
1F
100
AcDbEntity
  8
0
  6
Continuous
 62
     7
370
     0
100
AcDbLine
 10
7.5630858545
 20
7.1666718433
 30
0.0
 11
7.5745992977
 21
7.1733184126
 31
0.0
  0
SPLINE
  5
2E0
330
1F
100
AcDbEntity
  8
0
  6
Continuous
 62
     7
370
     0
100
AcDbSpline
210
0.0
220
0.0
230
1.0
 70
    24
 71
     1
 72
     4
 73
     2
 74
     0
 42
0.00000001
 43
0.00000001
 40
0.0
 40
0.0
 40
1.0
 40
1.0
 10
7.487922458870015
 20
7.233847827401876
 30
0.0
 10
7.513719176265598
 20
7.238899587734831
 30
0.0
  0
ARC
  5
2E1
330
1F
100
AcDbEntity
  8
0
  6
Continuous
 62
     7
370
     0
100
AcDbCircle
 10
6.7550845118
 20
6.6372143765
 30
0.0
 40
0.9682725068452558
100
AcDbArc
 50
38.4184931341
 51
39.4411657269
  0
SPLINE
  5
2E2
330
1F
100
AcDbEntity
  8
0
  6
Continuous
 62
     7
370
     0
100
AcDbSpline
210
0.0
220
0.0
230
1.0
 70
    24
 71
     1
 72
     4
 73
     2
 74
     0
 42
0.00000001
 43
0.00000001
 40
0.0
 40
0.0
 40
1.0
 40
1.0
 10
7.502859422469683
 20
7.252343899869946
 30
0.0
 10
7.487922458870015
 20
7.233847827401876
 30
0.0
  0
SPLINE
  5
2E3
330
1F
100
AcDbEntity
  8
0
  6
Continuous
 62
     7
370
     0
100
AcDbSpline
210
0.0
220
0.0
230
1.0
 70
     8
 71
     3
 72
     9
 73
     5
 74
     0
 42
0.00000001
 43
0.00000001
 40
0.0
 40
0.0
 40
0.0
 40
0.0
 40
0.4999994477952509
 40
1.0
 40
1.0
 40
1.0
 40
1.0
 10
7.214335205745926
 20
7.343907246379461
 30
0.0
 10
7.215830985374167
 20
7.343378627639199
 30
0.0
 10
7.218822547934558
 20
7.342321388991047
 30
0.0
 10
7.221706537761095
 20
7.341116499192529
 30
0.0
 10
7.223148534266917
 20
7.340514053627922
 30
0.0
  0
ARC
  5
2E4
330
1F
100
AcDbEntity
  8
0
  6
Continuous
 62
     7
370
     0
100
AcDbCircle
 10
7.2398263976
 20
7.3776538751
 30
0.0
 40
0.0407126204467041
100
AcDbArc
 50
245.8172448424
 51
258.5074163688
  0
ARC
  5
2E5
330
1F
100
AcDbEntity
  8
0
  6
Continuous
 62
     7
370
     0
100
AcDbCircle
 10
7.2326460696
 20
7.3447396867
 30
0.0
 40
0.0070440001474784
100
AcDbArc
 50
262.4025859383
 51
297.7971931172
  0
SPLINE
  5
2E6
330
1F
100
AcDbEntity
  8
0
  6
Continuous
 62
     7
370
     0
100
AcDbSpline
210
0.0
220
0.0
230
1.0
 70
     8
 71
     3
 72
    13
 73
     9
 74
     0
 42
0.00000001
 43
0.00000001
 40
0.0
 40
0.0
 40
0.0
 40
0.0
 40
0.2485845284617431
 40
0.3735388535799707
 40
0.4967972082304409
 40
0.6212572301516032
 40
0.7502093099325348
 40
1.0
 40
1.0
 40
1.0
 40
1.0
 10
7.235930991883689
 20
7.338508537221371
 30
0.0
 10
7.236497385929784
 20
7.33891628911925
 30
0.0
 10
7.237348485489207
 20
7.339529002941068
 30
0.0
 10
7.23770274090874
 20
7.340625504582857
 30
0.0
 10
7.237680154638638
 20
7.341470583761001
 30
0.0
 10
7.237343887580753
 20
7.342316135638689
 30
0.0
 10
7.23656382613129
 20
7.343384368833962
 30
0.0
 10
7.235660307121694
 20
7.344063693939321
 30
0.0
 10
7.235064412876673
 20
7.344511726483719
 30
0.0
  0
ARC
  5
2E7
330
1F
100
AcDbEntity
  8
0
  6
Continuous
 62
     7
370
     0
100
AcDbCircle
 10
7.2252989155
 20
7.330783781
 30
0.0
 40
0.0168470005345664
100
AcDbArc
 50
54.5735135042
 51
120.1033640395
  0
LINE
  5
2E8
330
1F
100
AcDbEntity
  8
0
  6
Continuous
 62
     7
370
     0
100
AcDbLine
 10
7.2168491081
 20
7.3453584913
 30
0.0
 11
7.2143352057
 21
7.3439072464
 31
0.0
  0
ARC
  5
2E9
330
1F
100
AcDbEntity
  8
0
  6
Continuous
 62
     7
370
     0
100
AcDbCircle
 10
6.8064951538
 20
6.6864052767
 30
0.0
 40
0.8834329546169675
100
AcDbArc
 50
43.5084797417
 51
44.151792167
  0
SPLINE
  5
2EA
330
1F
100
AcDbEntity
  8
0
  6
Continuous
 62
     7
370
     0
100
AcDbSpline
210
0.0
220
0.0
230
1.0
 70
    24
 71
     1
 72
     4
 73
     2
 74
     0
 42
0.00000001
 43
0.00000001
 40
0.0
 40
0.0
 40
1.0
 40
1.0
 10
7.440355594034673
 20
7.301770800362013
 30
0.0
 10
7.435237581276947
 20
7.305756277352874
 30
0.0
  0
ARC
  5
2EB
330
1F
100
AcDbEntity
  8
0
  6
Continuous
 62
     7
370
     0
100
AcDbCircle
 10
7.4302152021
 20
7.2992151329
 30
0.0
 40
0.0082468698903382
100
AcDbArc
 50
52.4824585421
 51
117.0444844175
  0
SPLINE
  5
2EC
330
1F
100
AcDbEntity
  8
0
  6
Continuous
 62
     7
370
     0
100
AcDbSpline
210
0.0
220
0.0
230
1.0
 70
     8
 71
     3
 72
    13
 73
     9
 74
     0
 42
0.00000001
 43
0.00000001
 40
0.0
 40
0.0
 40
0.0
 40
0.0
 40
0.1252323796025135
 40
0.2501692759916149
 40
0.376678442950902
 40
0.4998070571083681
 40
0.7494738685100505
 40
1.0
 40
1.0
 40
1.0
 40
1.0
 10
7.426465497681163
 20
7.306560238726004
 30
0.0
 10
7.42600627920318
 20
7.306259212493607
 30
0.0
 10
7.425088925763726
 20
7.305657870293996
 30
0.0
 10
7.424150243555224
 20
7.304407602197753
 30
0.0
 10
7.42374601207424
 20
7.302919931339449
 30
0.0
 10
7.424176985960808
 20
7.300759300228755
 30
0.0
 10
7.425917799524535
 20
7.29819755437571
 30
0.0
 10
7.427651023206984
 20
7.296334562517693
 30
0.0
 10
7.428519123867622
 20
7.295401466299886
 30
0.0
  0
ARC
  5
2ED
330
1F
100
AcDbEntity
  8
0
  6
Continuous
 62
     7
370
     0
100
AcDbCircle
 10
6.7951356096
 20
6.6799189779
 30
0.0
 40
0.8831723329255774
100
AcDbArc
 50
43.5084151217
 51
44.1787886009
  0
LINE
  5
2EE
330
1F
100
AcDbEntity
  8
0
  6
Continuous
 62
     7
370
     0
100
AcDbLine
 10
7.4356768897
 20
7.2879487783
 30
0.0
 11
7.4472247699
 21
7.2946152276
 31
0.0
  0
SPLINE
  5
2EF
330
1F
100
AcDbEntity
  8
0
  6
Continuous
 62
     7
370
     0
100
AcDbSpline
210
0.0
220
0.0
230
1.0
 70
    24
 71
     1
 72
     4
 73
     2
 74
     0
 42
0.00000001
 43
0.00000001
 40
0.0
 40
0.0
 40
1.0
 40
1.0
 10
7.349294835872186
 20
7.373280443209974
 30
0.0
 10
7.382081831996353
 20
7.37174253553539
 30
0.0
  0
ARC
  5
2F0
330
1F
100
AcDbEntity
  8
0
  6
Continuous
 62
     7
370
     0
100
AcDbCircle
 10
6.9232217829
 20
6.8090636272
 30
0.0
 40
0.7260579167766974
100
AcDbArc
 50
50.8030375299
 51
52.3069475103
  0
LINE
  5
2F1
330
1F
100
AcDbEntity
  8
0
  6
Continuous
 62
     7
370
     0
100
AcDbLine
 10
7.3671561695
 20
7.3835915716
 30
0.0
 11
7.3492948359
 21
7.3732804432
 31
0.0
  0
SPLINE
  5
2F2
330
1F
100
AcDbEntity
  8
0
  6
Continuous
 62
     7
370
     0
100
AcDbSpline
210
0.0
220
0.0
230
1.0
 70
     8
 71
     3
 72
    14
 73
    10
 74
     0
 42
0.00000001
 43
0.00000001
 40
0.0
 40
0.0
 40
0.0
 40
0.0
 40
0.5001598129721494
 40
0.6334839770288788
 40
0.7547008492883777
 40
0.8160823888836981
 40
0.8744466572108964
 40
0.9383930382627385
 40
1.0
 40
1.0
 40
1.0
 40
1.0
 10
7.320296689623937
 20
7.409678317125227
 30
0.0
 10
7.323983369436563
 20
7.411858713235301
 30
0.0
 10
7.328652782150585
 20
7.414620322551931
 30
0.0
 10
7.332789877975399
 20
7.41864495730402
 30
0.0
 10
7.333836550569213
 20
7.420566510387366
 30
0.0
 10
7.334030367512002
 20
7.422115666914372
 30
0.0
 10
7.333709559457491
 20
7.423297475477195
 30
0.0
 10
7.332938261101052
 20
7.42442290065766
 30
0.0
 10
7.332059970877228
 20
7.425050589552428
 30
0.0
 10
7.331629008299799
 20
7.425358586176523
 30
0.0
  0
SPLINE
  5
2F3
330
1F
100
AcDbEntity
  8
0
  6
Continuous
 62
     7
370
     0
100
AcDbSpline
210
0.0
220
0.0
230
1.0
 70
     8
 71
     3
 72
    14
 73
    10
 74
     0
 42
0.00000001
 43
0.00000001
 40
0.0
 40
0.0
 40
0.0
 40
0.0
 40
0.0625270621852678
 40
0.1249759676500129
 40
0.1874784178587265
 40
0.2499337956407473
 40
0.3634906992458645
 40
0.4998436771421619
 40
1.0
 40
1.0
 40
1.0
 40
1.0
 10
7.331629008299799
 20
7.425358586176523
 30
0.0
 10
7.331144917397594
 20
7.425636861631143
 30
0.0
 10
7.330177340690496
 20
7.426193064705443
 30
0.0
 10
7.328379566284362
 20
7.426728308837645
 30
0.0
 10
7.326469067492527
 20
7.427024757823994
 30
0.0
 10
7.323976665769355
 20
7.427054043417782
 30
0.0
 10
7.320834858757323
 20
7.426553004761627
 30
0.0
 10
7.314044660553567
 20
7.424380685569577
 30
0.0
 10
7.309355424721194
 20
7.421657863507691
 30
0.0
 10
7.305670716660913
 20
7.419518324197494
 30
0.0
  0
SPLINE
  5
2F4
330
1F
100
AcDbEntity
  8
0
  6
Continuous
 62
     7
370
     0
100
AcDbSpline
210
0.0
220
0.0
230
1.0
 70
     8
 71
     3
 72
    14
 73
    10
 74
     0
 42
0.00000001
 43
0.00000001
 40
0.0
 40
0.0
 40
0.0
 40
0.0
 40
0.5003034315361361
 40
0.6254176539425201
 40
0.750140173868759
 40
0.8143424488255552
 40
0.8750383566947445
 40
0.9374874297319935
 40
0.9999999999999999
 40
0.9999999999999999
 40
0.9999999999999999
 40
0.9999999999999999
 10
7.305670716660913
 20
7.419518324197494
 30
0.0
 10
7.301900893600987
 20
7.417291854004978
 30
0.0
 10
7.297188325696591
 20
7.414508595533013
 30
0.0
 10
7.292884555847523
 20
7.410512393748804
 30
0.0
 10
7.291782254037942
 20
7.408592498670308
 30
0.0
 10
7.291652670619064
 20
7.406974496010132
 30
0.0
 10
7.292034342697773
 20
7.405766283509873
 30
0.0
 10
7.292872722372892
 20
7.404631803532704
 30
0.0
 10
7.293777628768943
 20
7.404000846141723
 30
0.0
 10
7.294230311873718
 20
7.403685207140855
 30
0.0
  0
SPLINE
  5
2F5
330
1F
100
AcDbEntity
  8
0
  6
Continuous
 62
     7
370
     0
100
AcDbSpline
210
0.0
220
0.0
230
1.0
 70
     8
 71
     3
 72
    14
 73
    10
 74
     0
 42
0.00000001
 43
0.00000001
 40
0.0
 40
0.0
 40
0.0
 40
0.0
 40
0.0625005409549599
 40
0.1249727346346858
 40
0.1854844482478258
 40
0.2498740647270686
 40
0.3606505595080481
 40
0.4996888686475202
 40
0.9999999999999999
 40
0.9999999999999999
 40
0.9999999999999999
 40
0.9999999999999999
 10
7.294230311873718
 20
7.403685207140855
 30
0.0
 10
7.294716561021536
 20
7.403401874460892
 30
0.0
 10
7.295688838777668
 20
7.402835337607206
 30
0.0
 10
7.297469762987816
 20
7.402262341068552
 30
0.0
 10
7.299410478487089
 20
7.401959861088032
 30
0.0
 10
7.301897680669772
 20
7.401960651859761
 30
0.0
 10
7.305043434239581
 20
7.402521848502102
 30
0.0
 10
7.311742466023477
 20
7.404828573052539
 30
0.0
 10
7.316541384410155
 20
7.407549278880226
 30
0.0
 10
7.320296689623937
 20
7.409678317125227
 30
0.0
  0
SPLINE
  5
2F6
330
1F
100
AcDbEntity
  8
0
  6
Continuous
 62
     7
370
     0
100
AcDbSpline
210
0.0
220
0.0
230
1.0
 70
     8
 71
     3
 72
    14
 73
    10
 74
     0
 42
0.00000001
 43
0.00000001
 40
0.0
 40
0.0
 40
0.0
 40
0.0
 40
0.5001598129721301
 40
0.6334839770295959
 40
0.7547008492893111
 40
0.8160823888844827
 40
0.8744466572126915
 40
0.9383930382644154
 40
1.0
 40
1.0
 40
1.0
 40
1.0
 10
7.267437175536378
 20
7.440652507988649
 30
0.0
 10
7.271123775539523
 20
7.442826906202203
 30
0.0
 10
7.275793087169804
 20
7.445580918804262
 30
0.0
 10
7.279929282134574
 20
7.449414687963738
 30
0.0
 10
7.280975538918541
 20
7.451182092312761
 30
0.0
 10
7.28116934326559
 20
7.452562360161731
 30
0.0
 10
7.280848861920283
 20
7.453582995490457
 30
0.0
 10
7.280078358972263
 20
7.454522562630089
 30
0.0
 10
7.279201132668775
 20
7.455015200436974
 30
0.0
 10
7.278770692139573
 20
7.455256929711914
 30
0.0
  0
ARC
  5
2F7
330
1F
100
AcDbEntity
  8
0
  6
Continuous
 62
     7
370
     0
100
AcDbCircle
 10
7.272101695
 20
7.4282456115
 30
0.0
 40
0.0278224160493577
100
AcDbArc
 50
76.1312414979
 51
133.840428568
  0
SPLINE
  5
2F8
330
1F
100
AcDbEntity
  8
0
  6
Continuous
 62
     7
370
     0
100
AcDbSpline
210
0.0
220
0.0
230
1.0
 70
     8
 71
     3
 72
    14
 73
    10
 74
     0
 42
0.00000001
 43
0.00000001
 40
0.0
 40
0.0
 40
0.0
 40
0.0
 40
0.5003034315361826
 40
0.6254176539425772
 40
0.7501401738688297
 40
0.8143424488247898
 40
0.8750383566947312
 40
0.9374874297319877
 40
1.0
 40
1.0
 40
1.0
 40
1.0
 10
7.252830434962399
 20
7.448313131821912
 30
0.0
 10
7.249060426011471
 20
7.446092857674491
 30
0.0
 10
7.244347625729064
 20
7.44331734473402
 30
0.0
 10
7.240039764944309
 20
7.439505328922928
 30
0.0
 10
7.23893427357453
 20
7.43774136974288
 30
0.0
 10
7.238801394876409
 20
7.436309985539429
 30
0.0
 10
7.239180418328478
 20
7.435273885506684
 30
0.0
 10
7.240016261582903
 20
7.434333658289678
 30
0.0
 10
7.240919874006491
 20
7.433840309115456
 30
0.0
 10
7.241371909796278
 20
7.433593509184656
 30
0.0
  0
ARC
  5
2F9
330
1F
100
AcDbEntity
  8
0
  6
Continuous
 62
     7
370
     0
100
AcDbCircle
 10
7.2480573069
 20
7.4605600983
 30
0.0
 40
0.0277829346963962
100
AcDbArc
 50
256.0762958892
 51
314.2304312162
  0
ARC
  5
2FA
330
1F
100
AcDbEntity
  8
0
  6
Continuous
 62
     7
370
     0
100
AcDbCircle
 10
7.0187916732
 20
7.4340513395
 30
0.0
 40
0.022017730856825
100
AcDbArc
 50
264.6204499377
 51
287.2938712666
  0
ARC
  5
2FB
330
1F
100
AcDbEntity
  8
0
  6
Continuous
 62
     7
370
     0
100
AcDbCircle
 10
7.0141600025
 20
7.4511147172
 30
0.0
 40
0.0396919129151156
100
AcDbArc
 50
286.355268599
 51
297.660763685
  0
ARC
  5
2FC
330
1F
100
AcDbEntity
  8
0
  6
Continuous
 62
     7
370
     0
100
AcDbCircle
 10
6.9833595165
 20
7.1115340557
 30
0.0
 40
0.3083794875839763
100
AcDbArc
 50
80.8145287975
 51
83.5365824778
  0
SPLINE
  5
2FD
330
1F
100
AcDbEntity
  8
0
  6
Continuous
 62
     7
370
     0
100
AcDbSpline
210
0.0
220
0.0
230
1.0
 70
     8
 71
     3
 72
    13
 73
     9
 74
     0
 42
0.00000001
 43
0.00000001
 40
0.0
 40
0.0
 40
0.0
 40
0.0
 40
0.2503831206490963
 40
0.4995031561266668
 40
0.6232338939573291
 40
0.7495671229799021
 40
0.87468339593875
 40
1.0
 40
1.0
 40
1.0
 40
1.0
 10
7.018073428574024
 20
7.417953462214231
 30
0.0
 10
7.017145733194451
 20
7.417323935975493
 30
0.0
 10
7.015295022296612
 20
7.416068059212319
 30
0.0
 10
7.013820145350242
 20
7.414494823945521
 30
0.0
 10
7.013756555983009
 20
7.413449713483509
 30
0.0
 10
7.01428122212677
 20
7.412826412771547
 30
0.0
 10
7.015292915261743
 20
7.412376966141249
 30
0.0
 10
7.016249013797291
 20
7.412212756459844
 30
0.0
 10
7.016727445475464
 20
7.412130585940253
 30
0.0
  0
SPLINE
  5
2FE
330
1F
100
AcDbEntity
  8
0
  6
Continuous
 62
     7
370
     0
100
AcDbSpline
210
0.0
220
0.0
230
1.0
 70
     8
 71
     3
 72
    13
 73
     9
 74
     0
 42
0.00000001
 43
0.00000001
 40
0.0
 40
0.0
 40
0.0
 40
0.0
 40
0.2502837930808073
 40
0.499633529826589
 40
0.6262055894833399
 40
0.7498197801866106
 40
0.8748231480903415
 40
1.0
 40
1.0
 40
1.0
 40
1.0
 10
6.975744438533383
 20
7.421396421797937
 30
0.0
 10
6.974653629920637
 20
7.420745944815561
 30
0.0
 10
6.972476083580766
 20
7.41944741842368
 30
0.0
 10
6.970571573892088
 20
7.417908275696711
 30
0.0
 10
6.970096475029986
 20
7.416958710507794
 30
0.0
 10
6.970338598973311
 20
7.416444895585547
 30
0.0
 10
6.971110239135345
 20
7.416135737819276
 30
0.0
 10
6.972047133855868
 20
7.416130770273548
 30
0.0
 10
6.972515906054459
 20
7.416128284778345
 30
0.0
  0
ARC
  5
2FF
330
1F
100
AcDbEntity
  8
0
  6
Continuous
 62
     7
370
     0
100
AcDbCircle
 10
6.9676967584
 20
7.4529817012
 30
0.0
 40
0.0371671694948544
100
AcDbArc
 50
277.4500269726
 51
303.4965505101
  0
SPLINE
  5
300
330
1F
100
AcDbEntity
  8
0
  6
Continuous
 62
     7
370
     0
100
AcDbSpline
210
0.0
220
0.0
230
1.0
 70
     8
 71
     3
 72
    13
 73
     9
 74
     0
 42
0.00000001
 43
0.00000001
 40
0.0
 40
0.0
 40
0.0
 40
0.0
 40
0.2503895108604176
 40
0.4999174635823039
 40
0.626045846433962
 40
0.7500378636041753
 40
0.8749142295199034
 40
0.9999999999999999
 40
0.9999999999999999
 40
0.9999999999999999
 40
0.9999999999999999
 10
6.988208827935
 20
7.421987290561362
 30
0.0
 10
6.989282027992533
 20
7.422623923839858
 30
0.0
 10
6.991424735364078
 20
7.423894999823526
 30
0.0
 10
6.993409059210347
 20
7.425449383407155
 30
0.0
 10
6.994076740763469
 20
7.426480168548353
 30
0.0
 10
6.993999071896925
 20
7.427072664436326
 30
0.0
 10
6.993370428274081
 20
7.427457452183467
 30
0.0
 10
6.992469253912732
 20
7.427473160624919
 30
0.0
 10
6.992018289254838
 20
7.427481021425479
 30
0.0
  0
ARC
  5
301
330
1F
100
AcDbEntity
  8
0
  6
Continuous
 62
     7
370
     0
100
AcDbCircle
 10
6.9970763535
 20
7.3891474446
 30
0.0
 40
0.038665839276926
100
AcDbArc
 50
97.5166793272
 51
123.4836676612
  0
SPLINE
  5
302
330
1F
100
AcDbEntity
  8
0
  6
Continuous
 62
     7
370
     0
100
AcDbSpline
210
0.0
220
0.0
230
1.0
 70
     8
 71
     3
 72
    14
 73
    10
 74
     0
 42
0.00000001
 43
0.00000001
 40
0.0
 40
0.0
 40
0.0
 40
0.0
 40
0.5001598129722641
 40
0.6334839770379038
 40
0.7547008492924053
 40
0.8160823888871142
 40
0.8744466572139336
 40
0.9383930382650973
 40
0.9999999999999999
 40
0.9999999999999999
 40
0.9999999999999999
 40
0.9999999999999999
 10
7.138645260174887
 20
7.483200184940825
 30
0.0
 10
7.142334488707331
 20
7.485358314448374
 30
0.0
 10
7.147007129535962
 20
7.488091721707308
 30
0.0
 10
7.151230514339356
 20
7.491409062347989
 30
0.0
 10
7.152347862499002
 20
7.492759626320111
 30
0.0
 10
7.152620514170627
 20
7.493683539673932
 30
0.0
 10
7.152376010735268
 20
7.494268932094586
 30
0.0
 10
7.151694027739677
 20
7.494706921721205
 30
0.0
 10
7.150882174218799
 20
7.494835473663165
 30
0.0
 10
7.150483811039568
 20
7.49489855198823
 30
0.0
  0
ARC
  5
303
330
1F
100
AcDbEntity
  8
0
  6
Continuous
 62
     7
370
     0
100
AcDbCircle
 10
7.1537947987
 20
7.4489528968
 30
0.0
 40
0.0460648007561889
100
AcDbArc
 50
94.121788087
 51
128.5331481804
  0
SPLINE
  5
304
330
1F
100
AcDbEntity
  8
0
  6
Continuous
 62
     7
370
     0
100
AcDbSpline
210
0.0
220
0.0
230
1.0
 70
     8
 71
     3
 72
    14
 73
    10
 74
     0
 42
0.00000001
 43
0.00000001
 40
0.0
 40
0.0
 40
0.0
 40
0.0
 40
0.5003034315361752
 40
0.625417653942565
 40
0.7501401738688191
 40
0.8143424488221184
 40
0.8750383566947363
 40
0.9374874297319883
 40
1.0
 40
1.0
 40
1.0
 40
1.0
 10
7.125097933891757
 20
7.484986989238975
 30
0.0
 10
7.121324629206123
 20
7.482783312381956
 30
0.0
 10
7.11660770900261
 20
7.480028547327212
 30
0.0
 10
7.112204981480171
 20
7.476711025782606
 30
0.0
 10
7.111019766277091
 20
7.475365929548313
 30
0.0
 10
7.110792605692419
 20
7.474436231630492
 30
0.0
 10
7.111085520462106
 20
7.473863125413676
 30
0.0
 10
7.111825157734201
 20
7.473445803405571
 30
0.0
 10
7.112661705577763
 20
7.473323270498732
 30
0.0
 10
7.11308019203865
 20
7.47326197291376
 30
0.0
  0
ARC
  5
305
330
1F
100
AcDbEntity
  8
0
  6
Continuous
 62
     7
370
     0
100
AcDbCircle
 10
7.1100875189
 20
7.5188112403
 30
0.0
 40
0.0456474736916644
100
AcDbArc
 50
273.7590385615
 51
308.7273363347
  0
ARC
  5
306
330
1F
100
AcDbEntity
  8
0
  6
Continuous
 62
     7
370
     0
100
AcDbCircle
 10
6.9709016711
 20
7.2066008897
 30
0.0
 40
0.2076104378439679
100
AcDbArc
 50
108.451319933
 51
109.4334728038
  0
ARC
  5
307
330
1F
100
AcDbEntity
  8
0
  6
Continuous
 62
     7
370
     0
100
AcDbCircle
 10
6.9300790018
 20
7.3248011171
 30
0.0
 40
0.0825662334909825
100
AcDbArc
 50
110.0092486993
 51
120.2701187399
  0
SPLINE
  5
308
330
1F
100
AcDbEntity
  8
0
  6
Continuous
 62
     7
370
     0
100
AcDbSpline
210
0.0
220
0.0
230
1.0
 70
     8
 71
     3
 72
    13
 73
     9
 74
     0
 42
0.00000001
 43
0.00000001
 40
0.0
 40
0.0
 40
0.0
 40
0.0
 40
0.1297148784711165
 40
0.2501166036129779
 40
0.3795473458237572
 40
0.5003189319526706
 40
0.7495371040293675
 40
1.0
 40
1.0
 40
1.0
 40
1.0
 10
6.888459240081402
 20
7.396110151271174
 30
0.0
 10
6.887958351534601
 20
7.395816702551727
 30
0.0
 10
6.886992536790826
 20
7.395250873882667
 30
0.0
 10
6.885940142916153
 20
7.394569295880753
 30
0.0
 10
6.885280346161352
 20
7.394073271277643
 30
0.0
 10
6.885134569963136
 20
7.39376110654467
 30
0.0
 10
6.88636645035027
 20
7.394088949223975
 30
0.0
 10
6.88786049473184
 20
7.394612176047053
 30
0.0
 10
6.888609377782343
 20
7.394874441147208
 30
0.0
  0
ARC
  5
309
330
1F
100
AcDbEntity
  8
0
  6
Continuous
 62
     7
370
     0
100
AcDbCircle
 10
6.9581933046
 20
7.1993894011
 30
0.0
 40
0.2075001777167746
100
AcDbArc
 50
108.4511317531
 51
109.5934540142
  0
LINE
  5
30A
330
1F
100
AcDbEntity
  8
0
  6
Continuous
 62
     7
370
     0
100
AcDbLine
 10
6.8925203896
 20
7.3962228129
 30
0.0
 11
6.9051932125
 21
7.4035386778
 31
0.0
  0
SPLINE
  5
30B
330
1F
100
AcDbEntity
  8
0
  6
Continuous
 62
     7
370
     0
100
AcDbSpline
210
0.0
220
0.0
230
1.0
 70
     8
 71
     3
 72
    14
 73
    10
 74
     0
 42
0.00000001
 43
0.00000001
 40
0.0
 40
0.0
 40
0.0
 40
0.0
 40
0.500159812972105
 40
0.6334839770275775
 40
0.7547008492874437
 40
0.8160823888829011
 40
0.8744466572136923
 40
0.9383930382661567
 40
1.0
 40
1.0
 40
1.0
 40
1.0
 10
7.090570959665148
 20
7.485570473231881
 30
0.0
 10
7.094262327977161
 20
7.487721850902788
 30
0.0
 10
7.098937678971622
 20
7.490446706534341
 30
0.0
 10
7.103230295034234
 20
7.493550189379288
 30
0.0
 10
7.104403773089063
 20
7.49472822560766
 30
0.0
 10
7.104738229753988
 20
7.49546338407262
 30
0.0
 10
7.104552943255883
 20
7.495868851244128
 30
0.0
 10
7.103939537657137
 20
7.496099614209318
 30
0.0
 10
7.10317785265781
 20
7.496077884304357
 30
0.0
 10
7.102804106347554
 20
7.496067221797142
 30
0.0
  0
ARC
  5
30C
330
1F
100
AcDbEntity
  8
0
  6
Continuous
 62
     7
370
     0
100
AcDbCircle
 10
7.1164899925
 20
7.431808528
 30
0.0
 40
0.0656999483468415
100
AcDbArc
 50
102.0232697717
 51
126.0408339106
  0
SPLINE
  5
30D
330
1F
100
AcDbEntity
  8
0
  6
Continuous
 62
     7
370
     0
100
AcDbSpline
210
0.0
220
0.0
230
1.0
 70
     8
 71
     3
 72
    14
 73
    10
 74
     0
 42
0.00000001
 43
0.00000001
 40
0.0
 40
0.0
 40
0.0
 40
0.0
 40
0.5003034315360717
 40
0.6254176539424349
 40
0.7501401738686598
 40
0.8143424488219485
 40
0.8750383566947606
 40
0.9374874297319956
 40
1.0
 40
1.0
 40
1.0
 40
1.0
 10
7.077834660604488
 20
7.484933367074158
 30
0.0
 10
7.074058958953048
 20
7.482736501415765
 30
0.0
 10
7.069339042358473
 20
7.479990250881604
 30
0.0
 10
7.064866059011002
 20
7.476876076948363
 30
0.0
 10
7.063621554053443
 20
7.47570330637452
 30
0.0
 10
7.063323800333251
 20
7.474980159946972
 30
0.0
 10
7.063551880628993
 20
7.474597788044198
 30
0.0
 10
7.064218657999286
 20
7.474396012425655
 30
0.0
 10
7.065003941517167
 20
7.474426478831862
 30
0.0
 10
7.065396782790646
 20
7.474441719775472
 30
0.0
  0
ARC
  5
30E
330
1F
100
AcDbEntity
  8
0
  6
Continuous
 62
     7
370
     0
100
AcDbCircle
 10
7.0525123034
 20
7.5376249264
 30
0.0
 40
0.0644835437135144
100
AcDbArc
 50
281.5258689533
 51
306.1717180032
  0
ARC
  5
30F
330
1F
100
AcDbEntity
  8
0
  6
Continuous
 62
     7
370
     0
100
AcDbCircle
 10
7.4889113959
 20
7.0524796737
 30
0.0
 40
0.9038827225855819
100
AcDbArc
 50
2.512139103
 51
57.4824843643
  0
SPLINE
  5
310
330
1F
100
AcDbEntity
  8
0
  6
Continuous
 62
     7
370
     0
100
AcDbSpline
210
0.0
220
0.0
230
1.0
 70
    24
 71
     1
 72
     4
 73
     2
 74
     0
 42
0.00000001
 43
0.00000001
 40
0.0
 40
0.0
 40
1.0
 40
1.0
 10
7.90038260348851
 20
7.752745193297859
 30
0.0
 10
7.933390526546067
 20
7.753051189547739
 30
0.0
  0
ARC
  5
311
330
1F
100
AcDbEntity
  8
0
  6
Continuous
 62
     7
370
     0
100
AcDbCircle
 10
7.5799878689
 20
7.2345089107
 30
0.0
 40
0.6275185522459219
100
AcDbArc
 50
55.7243555863
 51
57.381854716
  0
LINE
  5
312
330
1F
100
AcDbEntity
  8
0
  6
Continuous
 62
     7
370
     0
100
AcDbLine
 10
7.9182439371
 20
7.7630563217
 30
0.0
 11
7.9003826035
 21
7.7527451933
 31
0.0
  0
SPLINE
  5
313
330
1F
100
AcDbEntity
  8
0
  6
Continuous
 62
     7
370
     0
100
AcDbSpline
210
0.0
220
0.0
230
1.0
 70
     8
 71
     3
 72
    14
 73
    10
 74
     0
 42
0.00000001
 43
0.00000001
 40
0.0
 40
0.0
 40
0.0
 40
0.0
 40
0.5001598129721863
 40
0.6334839770331876
 40
0.7547008492913478
 40
0.8160823888862071
 40
0.8744466572133658
 40
0.9383930382673257
 40
1.0
 40
1.0
 40
1.0
 40
1.0
 10
7.871093730301248
 20
7.783900448257079
 30
0.0
 10
7.874780310703605
 20
7.78607540336689
 30
0.0
 10
7.879449597508278
 20
7.788830121313229
 30
0.0
 10
7.883585025122567
 20
7.792681599962886
 30
0.0
 10
7.884630634852175
 20
7.79446330471946
 30
0.0
 10
7.884823691454399
 20
7.795859237129621
 30
0.0
 10
7.884502466840781
 20
7.796894818902606
 30
0.0
 10
7.883731070099999
 20
7.797851618544796
 30
0.0
 10
7.882853151750724
 20
7.798356774511979
 30
0.0
 10
7.882422371646048
 20
7.79860464624242
 30
0.0
  0
ARC
  5
314
330
1F
100
AcDbEntity
  8
0
  6
Continuous
 62
     7
370
     0
100
AcDbCircle
 10
7.8755605212
 20
7.7720058958
 30
0.0
 40
0.0274695925607503
100
AcDbArc
 50
75.5344382993
 51
134.0084028898
  0
SPLINE
  5
315
330
1F
100
AcDbEntity
  8
0
  6
Continuous
 62
     7
370
     0
100
AcDbSpline
210
0.0
220
0.0
230
1.0
 70
     8
 71
     3
 72
    14
 73
    10
 74
     0
 42
0.00000001
 43
0.00000001
 40
0.0
 40
0.0
 40
0.0
 40
0.0
 40
0.5003034315361636
 40
0.6254176539425536
 40
0.7501401738688057
 40
0.8143424488302505
 40
0.8750383566947325
 40
0.9374874297319901
 40
0.9999999999999999
 40
0.9999999999999999
 40
0.9999999999999999
 40
0.9999999999999999
 10
7.856475641039356
 20
7.791763068310897
 30
0.0
 10
7.852705675851348
 20
7.789542220852494
 30
0.0
 10
7.847992930275948
 20
7.786765991229335
 30
0.0
 10
7.843686244660022
 20
7.782936922355254
 30
0.0
 10
7.84258172421052
 20
7.781158523652428
 30
0.0
 10
7.842449961742739
 20
7.779709854892383
 30
0.0
 10
7.842829980439182
 20
7.77865781095832
 30
0.0
 10
7.843666907274782
 20
7.777699585492973
 30
0.0
 10
7.844571243242085
 20
7.777193482684241
 30
0.0
 10
7.845023640987559
 20
7.77694030269591
 30
0.0
  0
ARC
  5
316
330
1F
100
AcDbEntity
  8
0
  6
Continuous
 62
     7
370
     0
100
AcDbCircle
 10
7.8518972751
 20
7.8034987037
 30
0.0
 40
0.0274334742673159
100
AcDbArc
 50
255.489557185
 51
314.4066037856
  0
ARC
  5
317
330
1F
100
AcDbEntity
  8
0
  6
Continuous
 62
     7
370
     0
100
AcDbCircle
 10
7.2386387788
 20
6.6547281951
 30
0.0
 40
0.292381706732031
100
AcDbArc
 50
234.2616786835
 51
279.5810209488
  0
SPLINE
  5
318
330
1F
100
AcDbEntity
  8
0
  6
Continuous
 62
     7
370
     0
100
AcDbSpline
210
0.0
220
0.0
230
1.0
 70
    24
 71
     1
 72
     4
 73
     2
 74
     0
 42
0.00000001
 43
0.00000001
 40
0.0
 40
0.0
 40
1.0
 40
1.0
 10
7.070015609796445
 20
6.414158802734827
 30
0.0
 10
7.067863235003759
 20
6.417403994800607
 30
0.0
  0
LWPOLYLINE
  5
319
330
1F
100
AcDbEntity
  8
0
  6
Continuous
 62
     7
370
     0
100
AcDbPolyline
 90
       12
 70
   128
 43
0.0
 10
7.0697930398
 20
6.457208028
 10
7.098041458
 20
6.4411179216
 10
7.1261618613
 20
6.4279939705
 10
7.1539326169
 20
6.4179396119
 10
7.1811348477
 20
6.4110340899
 10
7.2075541575
 20
6.4073318309
 10
7.2329823208
 20
6.4068620145
 10
7.2572189239
 20
6.4096283434
 10
7.2800729443
 20
6.4156090148
 10
7.3013642566
 20
6.4247568916
 10
7.320925052
 20
6.4369998742
 10
7.3239903514
 20
6.4393227606
  0
LINE
  5
31A
330
1F
100
AcDbEntity
  8
0
  6
Continuous
 62
     7
370
     0
100
AcDbLine
 10
7.067863235
 20
6.4174039948
 30
0.0
 11
7.0697930398
 21
6.457208028
 31
0.0
  0
LINE
  5
31B
330
1F
100
AcDbEntity
  8
0
  6
Continuous
 62
     7
370
     0
100
AcDbLine
 10
7.0697930398
 20
6.457208028
 30
0.0
 11
7.0874707093
 21
6.4674131294
 31
0.0
  0
ARC
  5
31C
330
1F
100
AcDbEntity
  8
0
  6
Continuous
 62
     7
370
     0
100
AcDbCircle
 10
7.3297374914
 20
6.8575115783
 30
0.0
 40
0.4592058291288711
100
AcDbArc
 50
236.5889809338
 51
238.1580606382
  0
LINE
  5
31D
330
1F
100
AcDbEntity
  8
0
  6
Continuous
 62
     7
370
     0
100
AcDbLine
 10
7.0592021331
 20
6.4639880939
 30
0.0
 11
7.0768798027
 21
6.4741931953
 31
0.0
  0
LWPOLYLINE
  5
31E
330
1F
100
AcDbEntity
  8
0
  6
Continuous
 62
     7
370
     0
100
AcDbPolyline
 90
       28
 70
   128
 43
0.0
 10
6.8754567794
 20
7.2162898822
 10
6.8622340174
 20
7.2101606467
 10
6.8426732221
 20
7.1979176641
 10
6.8249971134
 20
7.1826760696
 10
6.8093450069
 20
7.1645559908
 10
6.7958402656
 20
7.1437002424
 10
6.784589328
 20
7.1202732002
 10
6.7756808692
 20
7.0944595061
 10
6.7691851017
 20
7.0664626124
 10
6.7651532224
 20
7.0365031785
 10
6.7636170087
 20
7.0048173315
 10
6.7645885686
 20
6.9716548057
 10
6.7680602445
 20
6.9372769737
 10
6.7740046741
 20
6.9019547865
 10
6.7823750062
 20
6.8659666384
 10
6.7931052694
 20
6.8295961724
 10
6.8061108923
 20
6.7931300446
 10
6.8212893703
 20
6.7568556652
 10
6.8385210733
 20
6.7210589332
 10
6.8576701884
 20
6.6860219829
 10
6.8785857906
 20
6.6520209603
 10
6.9011030322
 20
6.6193238467
 10
6.9250444421
 20
6.5881883466
 10
6.9502213245
 20
6.5588598564
 10
6.9764352461
 20
6.5315695307
 10
7.0034796002
 20
6.5065324599
 10
7.0311412348
 20
6.4839459753
 10
7.0592021331
 20
6.4639880939
  0
LWPOLYLINE
  5
31F
330
1F
100
AcDbEntity
  8
0
  6
Continuous
 62
     7
370
     0
100
AcDbPolyline
 90
       27
 70
   128
 43
0.0
 10
6.7939823113
 20
7.2209746594
 10
6.7901021805
 20
7.2168120992
 10
6.7743328573
 20
7.1968052494
 10
6.7607367667
 20
7.1741171032
 10
6.7494100088
 20
7.1489080251
 10
6.7404326433
 20
7.1213561979
 10
6.7338681239
 20
7.0916563632
 10
6.7297628501
 20
7.0600184455
 10
6.7281458386
 20
7.0266660678
 10
6.7290285189
 20
6.9918349714
 10
6.732404652
 20
6.9557713493
 10
6.7382503748
 20
6.9187301065
 10
6.7465243684
 20
6.8809730577
 10
6.7571681507
 20
6.8427670773
 10
6.7701064893
 20
6.8043822127
 10
6.7852479334
 20
6.7660897759
 10
6.8024854603
 20
6.7281604253
 10
6.8216972318
 20
6.6908622531
 10
6.8427474553
 20
6.6544588903
 10
6.8654873434
 20
6.619207643
 10
6.8897561664
 20
6.585357674
 10
6.9153823871
 20
6.5531482417
 10
6.9421848746
 20
6.5228070086
 10
6.9699741833
 20
6.4945484328
 10
6.9985538931
 20
6.4685722513
 10
7.0277219967
 20
6.4450620691
 10
7.0572723284
 20
6.4241840606
  0
SPLINE
  5
320
330
1F
100
AcDbEntity
  8
0
  6
Continuous
 62
     7
370
     0
100
AcDbSpline
210
0.0
220
0.0
230
1.0
 70
    24
 71
     1
 72
     4
 73
     2
 74
     0
 42
0.00000001
 43
0.00000001
 40
0.0
 40
0.0
 40
1.0
 40
1.0
 10
7.057272328360503
 20
6.424184060648226
 30
0.0
 10
7.059424698612803
 20
6.420938863190612
 30
0.0
  0
LINE
  5
321
330
1F
100
AcDbEntity
  8
0
  6
Continuous
 62
     7
370
     0
100
AcDbLine
 10
7.0572723284
 20
6.4241840606
 30
0.0
 11
7.0592021331
 21
6.4639880939
 31
0.0
  0
LINE
  5
322
330
1F
100
AcDbEntity
  8
0
  6
Continuous
 62
     7
370
     0
100
AcDbLine
 10
7.0762366638
 20
6.460927853
 30
0.0
 11
7.0768798027
 21
6.4741931953
 31
0.0
  0
SPLINE
  5
323
330
1F
100
AcDbEntity
  8
0
  6
Continuous
 62
     7
370
     0
100
AcDbSpline
210
0.0
220
0.0
230
1.0
 70
     8
 71
     3
 72
    14
 73
    10
 74
     0
 42
0.00000001
 43
0.00000001
 40
0.0
 40
0.0
 40
0.0
 40
0.0
 40
0.1741207559669977
 40
0.3172208515743913
 40
0.4495771815737288
 40
0.5869235391013665
 40
0.7256585999552305
 40
0.8615133113292078
 40
1.0
 40
1.0
 40
1.0
 40
1.0
 10
6.901296381478258
 20
7.406045581305384
 30
0.0
 10
6.90203482765181
 20
7.406473071918221
 30
0.0
 10
6.903380161369865
 20
7.407251893119005
 30
0.0
 10
6.904474988016542
 20
7.407827007135168
 30
0.0
 10
6.904875442259462
 20
7.407993134649804
 30
0.0
 10
6.904506796190074
 20
7.407707827914417
 30
0.0
 10
6.903453201456924
 20
7.407031519582068
 30
0.0
 10
6.901607519811923
 20
7.405919087925442
 30
0.0
 10
6.89990407600509
 20
7.404930038279282
 30
0.0
 10
6.899044182849678
 20
7.404430769082561
 30
0.0
  0
SPLINE
  5
324
330
1F
100
AcDbEntity
  8
0
  6
Continuous
 62
     7
370
     0
100
AcDbSpline
210
0.0
220
0.0
230
1.0
 70
    24
 71
     1
 72
     4
 73
     2
 74
     0
 42
0.00000001
 43
0.00000001
 40
0.0
 40
0.0
 40
1.0
 40
1.0
 10
6.864354407384244
 20
7.38468947511192
 30
0.0
 10
6.859646691229036
 20
7.381994243591656
 30
0.0
  0
SPLINE
  5
325
330
1F
100
AcDbEntity
  8
0
  6
Continuous
 62
     7
370
     0
100
AcDbSpline
210
0.0
220
0.0
230
1.0
 70
    24
 71
     1
 72
     4
 73
     2
 74
     0
 42
0.00000001
 43
0.00000001
 40
0.0
 40
0.0
 40
1.0
 40
1.0
 10
6.872434539097148
 20
7.38932247736575
 30
0.0
 10
6.87961508495355
 20
7.393273859983021
 30
0.0
  0
ARC
  5
326
330
1F
100
AcDbEntity
  8
0
  6
Continuous
 62
     7
370
     0
100
AcDbCircle
 10
7.1193195167
 20
7.3009251742
 30
0.0
 40
0.2000531351152812
100
AcDbArc
 50
118.5790777663
 51
119.9972726008
  0
SPLINE
  5
327
330
1F
100
AcDbEntity
  8
0
  6
Continuous
 62
     7
370
     0
100
AcDbSpline
210
0.0
220
0.0
230
1.0
 70
     8
 71
     3
 72
     9
 73
     5
 74
     0
 42
0.00000001
 43
0.00000001
 40
0.0
 40
0.0
 40
0.0
 40
0.0
 40
0.9193832473236901
 40
1.0
 40
1.0
 40
1.0
 40
1.0
 10
6.980136476690392
 20
7.451539536986977
 30
0.0
 10
6.979186697309189
 20
7.451009942302141
 30
0.0
 10
6.978153635869395
 20
7.450433909742946
 30
0.0
 10
6.977679798604338
 20
7.450152185711239
 30
0.0
 10
6.977641599382731
 20
7.450129474034653
 30
0.0
  0
LINE
  5
328
330
1F
100
AcDbEntity
  8
0
  6
Continuous
 62
     7
370
     0
100
AcDbLine
 10
6.975841779
 20
4.2621296455
 30
0.0
 11
4.1298535397
 21
4.2621296455
 31
0.0
  0
LINE
  5
329
330
1F
100
AcDbEntity
  8
0
  6
Continuous
 62
     7
370
     0
100
AcDbLine
 10
4.1298535397
 20
4.2621296455
 30
0.0
 11
6.9932780642
 21
4.6238840743
 31
0.0
  0
LINE
  5
32A
330
1F
100
AcDbEntity
  8
0
  6
Continuous
 62
     7
370
     0
100
AcDbLine
 10
4.1298535397
 20
4.2621296455
 30
0.0
 11
6.9947828102
 21
3.8851263527
 31
0.0
  0
LINE
  5
32B
330
1F
100
AcDbEntity
  8
0
  6
Continuous
 62
     7
370
     0
100
AcDbLine
 10
7.9989596502
 20
4.2621296455
 30
0.0
 11
9.296135916
 21
4.2621296455
 31
0.0
  0
LINE
  5
32C
330
1F
100
AcDbEntity
  8
0
  6
Continuous
 62
     7
370
     0
100
AcDbLine
 10
9.296135916
 20
4.2621296455
 30
0.0
 11
7.9699603124
 21
4.6238840743
 31
0.0
  0
LINE
  5
32D
330
1F
100
AcDbEntity
  8
0
  6
Continuous
 62
     7
370
     0
100
AcDbLine
 10
9.296135916
 20
4.2621296455
 30
0.0
 11
7.9674464397
 21
3.8851263527
 31
0.0
  0
LINE
  5
32E
330
1F
100
AcDbEntity
  8
0
  6
Continuous
 62
     7
370
     0
100
AcDbLine
 10
8.1871580026
 20
3.6721296455
 30
0.0
 11
8.1771580026
 21
3.6621296455
 31
0.0
  0
LINE
  5
32F
330
1F
100
AcDbEntity
  8
0
  6
Continuous
 62
     7
370
     0
100
AcDbLine
 10
8.1771580026
 20
4.8621296455
 30
0.0
 11
8.1871580026
 21
4.8521296455
 31
0.0
  0
LINE
  5
330
330
1F
100
AcDbEntity
  8
0
  6
Continuous
 62
     7
370
     0
100
AcDbLine
 10
6.9110966156
 20
3.6621296455
 30
0.0
 11
7.0170986012
 21
3.6621296455
 31
0.0
  0
LINE
  5
331
330
1F
100
AcDbEntity
  8
0
  6
Continuous
 62
     7
370
     0
100
AcDbLine
 10
7.0772654468
 20
3.6621296455
 30
0.0
 11
8.1771580026
 21
3.6621296455
 31
0.0
  0
LINE
  5
332
330
1F
100
AcDbEntity
  8
0
  6
Continuous
 62
     7
370
     0
100
AcDbLine
 10
8.1771580026
 20
4.8621296455
 30
0.0
 11
7.2372016596
 21
4.8621296455
 31
0.0
  0
LINE
  5
333
330
1F
100
AcDbEntity
  8
0
  6
Continuous
 62
     7
370
     0
100
AcDbLine
 10
7.2036591017
 20
4.8621296455
 30
0.0
 11
7.0913214293
 21
4.8621296455
 31
0.0
  0
LINE
  5
334
330
1F
100
AcDbEntity
  8
0
  6
Continuous
 62
     7
370
     0
100
AcDbLine
 10
7.0195731747
 20
4.8621296455
 30
0.0
 11
6.7793596026
 21
4.8621296455
 31
0.0
  0
LINE
  5
335
330
1F
100
AcDbEntity
  8
0
  6
Continuous
 62
     7
370
     0
100
AcDbLine
 10
6.7793596026
 20
3.6621296455
 30
0.0
 11
6.8440349273
 21
3.6621296455
 31
0.0
  0
LINE
  5
336
330
1F
100
AcDbEntity
  8
0
  6
Continuous
 62
     7
370
     0
100
AcDbLine
 10
6.7693596026
 20
4.8521296455
 30
0.0
 11
6.7793596026
 21
4.8621296455
 31
0.0
  0
LINE
  5
337
330
1F
100
AcDbEntity
  8
0
  6
Continuous
 62
     7
370
     0
100
AcDbLine
 10
6.7793596026
 20
3.6621296455
 30
0.0
 11
6.7693596026
 21
3.6721296455
 31
0.0
  0
LINE
  5
338
330
1F
100
AcDbEntity
  8
0
  6
Continuous
 62
     7
370
     0
100
AcDbLine
 10
7.6259710626
 20
3.7371296455
 30
0.0
 11
7.6459710626
 21
3.7371296455
 31
0.0
  0
LINE
  5
339
330
1F
100
AcDbEntity
  8
0
  6
Continuous
 62
     7
370
     0
100
AcDbLine
 10
7.6459710626
 20
4.7871296455
 30
0.0
 11
7.6259710626
 21
4.7871296455
 31
0.0
  0
LINE
  5
33A
330
1F
100
AcDbEntity
  8
0
  6
Continuous
 62
     7
370
     0
100
AcDbLine
 10
7.2750612926
 20
4.7871296455
 30
0.0
 11
7.2950612926
 21
4.7871296455
 31
0.0
  0
LINE
  5
33B
330
1F
100
AcDbEntity
  8
0
  6
Continuous
 62
     7
370
     0
100
AcDbLine
 10
7.2950612926
 20
3.7371296455
 30
0.0
 11
7.2750612926
 21
3.7371296455
 31
0.0
  0
LINE
  5
33C
330
1F
100
AcDbEntity
  8
0
  6
Continuous
 62
     7
370
     0
100
AcDbLine
 10
8.1871580026
 20
4.7781296455
 30
0.0
 11
8.1698374946
 21
4.7681296455
 31
0.0
  0
LINE
  5
33D
330
1F
100
AcDbEntity
  8
0
  6
Continuous
 62
     7
370
     0
100
AcDbLine
 10
8.1698374946
 20
3.7561296455
 30
0.0
 11
8.1871580026
 21
3.7461296455
 31
0.0
  0
LINE
  5
33E
330
1F
100
AcDbEntity
  8
0
  6
Continuous
 62
     7
370
     0
100
AcDbLine
 10
8.1698374946
 20
3.7561296455
 30
0.0
 11
8.1698374946
 21
4.7681296455
 31
0.0
  0
LINE
  5
33F
330
1F
100
AcDbEntity
  8
0
  6
Continuous
 62
     7
370
     0
100
AcDbLine
 10
8.1871580026
 20
4.7781296455
 30
0.0
 11
8.1871580026
 21
3.7461296455
 31
0.0
  0
LINE
  5
340
330
1F
100
AcDbEntity
  8
0
  6
Continuous
 62
     7
370
     0
100
AcDbLine
 10
6.7693596026
 20
3.7461296455
 30
0.0
 11
6.7866801107
 21
3.7561296455
 31
0.0
  0
LINE
  5
341
330
1F
100
AcDbEntity
  8
0
  6
Continuous
 62
     7
370
     0
100
AcDbLine
 10
6.7866801107
 20
4.7681296455
 30
0.0
 11
6.7693596026
 21
4.7781296455
 31
0.0
  0
LINE
  5
342
330
1F
100
AcDbEntity
  8
0
  6
Continuous
 62
     7
370
     0
100
AcDbLine
 10
6.7866801107
 20
4.7681296455
 30
0.0
 11
6.7866801107
 21
3.7561296455
 31
0.0
  0
LINE
  5
343
330
1F
100
AcDbEntity
  8
0
  6
Continuous
 62
     7
370
     0
100
AcDbLine
 10
6.7693596026
 20
3.7461296455
 30
0.0
 11
6.7693596026
 21
4.7781296455
 31
0.0
  0
LINE
  5
344
330
1F
100
AcDbEntity
  8
0
  6
Continuous
 62
     7
370
     0
100
AcDbLine
 10
7.8871580026
 20
3.7561296455
 30
0.0
 11
7.8871580026
 21
3.7621296455
 31
0.0
  0
LINE
  5
345
330
1F
100
AcDbEntity
  8
0
  6
Continuous
 62
     7
370
     0
100
AcDbLine
 10
7.8871580026
 20
4.7621296455
 30
0.0
 11
7.8871580026
 21
4.7681296455
 31
0.0
  0
LINE
  5
346
330
1F
100
AcDbEntity
  8
0
  6
Continuous
 62
     7
370
     0
100
AcDbLine
 10
7.8871580026
 20
4.7681296455
 30
0.0
 11
8.1698374946
 21
4.7681296455
 31
0.0
  0
LINE
  5
347
330
1F
100
AcDbEntity
  8
0
  6
Continuous
 62
     7
370
     0
100
AcDbLine
 10
8.1698374946
 20
3.7561296455
 30
0.0
 11
7.8871580026
 21
3.7561296455
 31
0.0
  0
LINE
  5
348
330
1F
100
AcDbEntity
  8
0
  6
Continuous
 62
     7
370
     0
100
AcDbLine
 10
7.8860033021
 20
4.7661296455
 30
0.0
 11
7.8860033021
 21
4.7621296455
 31
0.0
  0
LINE
  5
349
330
1F
100
AcDbEntity
  8
0
  6
Continuous
 62
     7
370
     0
100
AcDbLine
 10
7.8860033021
 20
3.7621296455
 30
0.0
 11
7.8860033021
 21
3.7581296455
 31
0.0
  0
LINE
  5
34A
330
1F
100
AcDbEntity
  8
0
  6
Continuous
 62
     7
370
     0
100
AcDbLine
 10
7.8860033021
 20
4.7661296455
 30
0.0
 11
7.8871580026
 21
4.7681296455
 31
0.0
  0
LINE
  5
34B
330
1F
100
AcDbEntity
  8
0
  6
Continuous
 62
     7
370
     0
100
AcDbLine
 10
7.8871580026
 20
3.7561296455
 30
0.0
 11
7.8860033021
 21
3.7581296455
 31
0.0
  0
LINE
  5
34C
330
1F
100
AcDbEntity
  8
0
  6
Continuous
 62
     7
370
     0
100
AcDbLine
 10
7.0705143032
 20
3.7581296455
 30
0.0
 11
7.0705143032
 21
3.7621296455
 31
0.0
  0
LINE
  5
34D
330
1F
100
AcDbEntity
  8
0
  6
Continuous
 62
     7
370
     0
100
AcDbLine
 10
7.0705143032
 20
4.7621296455
 30
0.0
 11
7.0705143032
 21
4.7661296455
 31
0.0
  0
LINE
  5
34E
330
1F
100
AcDbEntity
  8
0
  6
Continuous
 62
     7
370
     0
100
AcDbLine
 10
7.0705143032
 20
3.7581296455
 30
0.0
 11
7.0693596026
 21
3.7561296455
 31
0.0
  0
LINE
  5
34F
330
1F
100
AcDbEntity
  8
0
  6
Continuous
 62
     7
370
     0
100
AcDbLine
 10
7.0693596026
 20
4.7681296455
 30
0.0
 11
7.0693596026
 21
4.7621296455
 31
0.0
  0
LINE
  5
350
330
1F
100
AcDbEntity
  8
0
  6
Continuous
 62
     7
370
     0
100
AcDbLine
 10
7.0693596026
 20
3.7621296455
 30
0.0
 11
7.0693596026
 21
3.7561296455
 31
0.0
  0
LINE
  5
351
330
1F
100
AcDbEntity
  8
0
  6
Continuous
 62
     7
370
     0
100
AcDbLine
 10
7.0693596026
 20
4.7681296455
 30
0.0
 11
7.0705143032
 21
4.7661296455
 31
0.0
  0
LINE
  5
352
330
1F
100
AcDbEntity
  8
0
  6
Continuous
 62
     7
370
     0
100
AcDbLine
 10
7.0693596026
 20
3.7561296455
 30
0.0
 11
6.7866801107
 21
3.7561296455
 31
0.0
  0
LINE
  5
353
330
1F
100
AcDbEntity
  8
0
  6
Continuous
 62
     7
370
     0
100
AcDbLine
 10
6.7866801107
 20
4.7681296455
 30
0.0
 11
7.0693596026
 21
4.7681296455
 31
0.0
  0
LINE
  5
354
330
1F
100
AcDbEntity
  8
0
  6
Continuous
 62
     7
370
     0
100
AcDbLine
 10
7.6459710626
 20
3.7581296455
 30
0.0
 11
7.8860033021
 21
3.7581296455
 31
0.0
  0
LINE
  5
355
330
1F
100
AcDbEntity
  8
0
  6
Continuous
 62
     7
370
     0
100
AcDbLine
 10
7.8860033021
 20
4.7661296455
 30
0.0
 11
7.6459710626
 21
4.7661296455
 31
0.0
  0
LINE
  5
356
330
1F
100
AcDbEntity
  8
0
  6
Continuous
 62
     7
370
     0
100
AcDbLine
 10
7.6459710626
 20
3.7581296455
 30
0.0
 11
7.6459710626
 21
3.772382099
 31
0.0
  0
LINE
  5
357
330
1F
100
AcDbEntity
  8
0
  6
Continuous
 62
     7
370
     0
100
AcDbLine
 10
7.6459710626
 20
4.7518771921
 30
0.0
 11
7.6459710626
 21
4.7661296455
 31
0.0
  0
LINE
  5
358
330
1F
100
AcDbEntity
  8
0
  6
Continuous
 62
     7
370
     0
100
AcDbLine
 10
7.2750612926
 20
4.7661296455
 30
0.0
 11
7.0705143032
 21
4.7661296455
 31
0.0
  0
LINE
  5
359
330
1F
100
AcDbEntity
  8
0
  6
Continuous
 62
     7
370
     0
100
AcDbLine
 10
7.0705143032
 20
3.7581296455
 30
0.0
 11
7.2750612926
 21
3.7581296455
 31
0.0
  0
LINE
  5
35A
330
1F
100
AcDbEntity
  8
0
  6
Continuous
 62
     7
370
     0
100
AcDbLine
 10
7.2750612926
 20
4.7661296455
 30
0.0
 11
7.2750612926
 21
4.7621296455
 31
0.0
  0
LINE
  5
35B
330
1F
100
AcDbEntity
  8
0
  6
Continuous
 62
     7
370
     0
100
AcDbLine
 10
7.2750612926
 20
3.7621296455
 30
0.0
 11
7.2750612926
 21
3.7581296455
 31
0.0
  0
LINE
  5
35C
330
1F
100
AcDbEntity
  8
0
  6
Continuous
 62
     7
370
     0
100
AcDbLine
 10
7.6259710626
 20
4.7131296455
 30
0.0
 11
7.2950612926
 21
4.7131296455
 31
0.0
  0
LINE
  5
35D
330
1F
100
AcDbEntity
  8
0
  6
Continuous
 62
     7
370
     0
100
AcDbLine
 10
7.2950612926
 20
3.8111296455
 30
0.0
 11
7.6259710626
 21
3.8111296455
 31
0.0
  0
LINE
  5
35E
330
1F
100
AcDbEntity
  8
0
  6
Continuous
 62
     7
370
     0
100
AcDbLine
 10
7.2950612926
 20
4.7131296455
 30
0.0
 11
7.2950612926
 21
4.7068788344
 31
0.0
  0
LINE
  5
35F
330
1F
100
AcDbEntity
  8
0
  6
Continuous
 62
     7
370
     0
100
AcDbLine
 10
7.2950612926
 20
3.8173804567
 30
0.0
 11
7.2950612926
 21
3.8111296455
 31
0.0
  0
LINE
  5
360
330
1F
100
AcDbEntity
  8
0
  6
Continuous
 62
     7
370
     0
100
AcDbLine
 10
7.0913214293
 20
4.8621296455
 30
0.0
 11
7.0195731747
 21
4.8621296455
 31
0.0
  0
LINE
  5
361
330
1F
100
AcDbEntity
  8
0
  6
Continuous
 62
     7
370
     0
100
AcDbLine
 10
7.2372016596
 20
4.8621296455
 30
0.0
 11
7.2036591017
 21
4.8621296455
 31
0.0
  0
LINE
  5
362
330
1F
100
AcDbEntity
  8
0
  6
Continuous
 62
     7
370
     0
100
AcDbLine
 10
7.2750612926
 20
4.7661296455
 30
0.0
 11
7.2750612926
 21
4.7871296455
 31
0.0
  0
LINE
  5
363
330
1F
100
AcDbEntity
  8
0
  6
Continuous
 62
     7
370
     0
100
AcDbLine
 10
7.2950612926
 20
4.7131296455
 30
0.0
 11
7.2950612926
 21
4.7871296455
 31
0.0
  0
LINE
  5
364
330
1F
100
AcDbEntity
  8
0
  6
Continuous
 62
     7
370
     0
100
AcDbLine
 10
7.6259710626
 20
4.7131296455
 30
0.0
 11
7.6259710626
 21
4.7871296455
 31
0.0
  0
LINE
  5
365
330
1F
100
AcDbEntity
  8
0
  6
Continuous
 62
     7
370
     0
100
AcDbLine
 10
7.6459710626
 20
4.7871296455
 30
0.0
 11
7.6459710626
 21
4.7661296455
 31
0.0
  0
LINE
  5
366
330
1F
100
AcDbEntity
  8
0
  6
Continuous
 62
     7
370
     0
100
AcDbLine
 10
6.7693596026
 20
4.7781296455
 30
0.0
 11
6.7693596026
 21
4.8521296455
 31
0.0
  0
LINE
  5
367
330
1F
100
AcDbEntity
  8
0
  6
Continuous
 62
     7
370
     0
100
AcDbLine
 10
8.1871580026
 20
4.8521296455
 30
0.0
 11
8.1871580026
 21
4.7781296455
 31
0.0
  0
LINE
  5
368
330
1F
100
AcDbEntity
  8
0
  6
Continuous
 62
     7
370
     0
100
AcDbLine
 10
7.059960252
 20
3.6621296455
 30
0.0
 11
7.0772654468
 21
3.6621296455
 31
0.0
  0
LINE
  5
369
330
1F
100
AcDbEntity
  8
0
  6
Continuous
 62
     7
370
     0
100
AcDbLine
 10
7.0411358006
 20
3.6621296455
 30
0.0
 11
7.059960252
 21
3.6621296455
 31
0.0
  0
LINE
  5
36A
330
1F
100
AcDbEntity
  8
0
  6
Continuous
 62
     7
370
     0
100
AcDbLine
 10
7.0170986012
 20
3.6621296455
 30
0.0
 11
7.0411358006
 21
3.6621296455
 31
0.0
  0
LINE
  5
36B
330
1F
100
AcDbEntity
  8
0
  6
Continuous
 62
     7
370
     0
100
AcDbLine
 10
6.8937264858
 20
3.6621296455
 30
0.0
 11
6.9110966156
 21
3.6621296455
 31
0.0
  0
LINE
  5
36C
330
1F
100
AcDbEntity
  8
0
  6
Continuous
 62
     7
370
     0
100
AcDbLine
 10
6.865387691
 20
3.6621296455
 30
0.0
 11
6.8937264858
 21
3.6621296455
 31
0.0
  0
LINE
  5
36D
330
1F
100
AcDbEntity
  8
0
  6
Continuous
 62
     7
370
     0
100
AcDbLine
 10
6.8440349273
 20
3.6621296455
 30
0.0
 11
6.865387691
 21
3.6621296455
 31
0.0
  0
LINE
  5
36E
330
1F
100
AcDbEntity
  8
0
  6
Continuous
 62
     7
370
     0
100
AcDbLine
 10
7.2750612926
 20
3.7371296455
 30
0.0
 11
7.2750612926
 21
3.7581296455
 31
0.0
  0
LINE
  5
36F
330
1F
100
AcDbEntity
  8
0
  6
Continuous
 62
     7
370
     0
100
AcDbLine
 10
7.2950612926
 20
3.7371296455
 30
0.0
 11
7.2950612926
 21
3.8111296455
 31
0.0
  0
LINE
  5
370
330
1F
100
AcDbEntity
  8
0
  6
Continuous
 62
     7
370
     0
100
AcDbLine
 10
7.6259710626
 20
3.7371296455
 30
0.0
 11
7.6259710626
 21
3.8111296455
 31
0.0
  0
LINE
  5
371
330
1F
100
AcDbEntity
  8
0
  6
Continuous
 62
     7
370
     0
100
AcDbLine
 10
7.6459710626
 20
3.7581296455
 30
0.0
 11
7.6459710626
 21
3.7371296455
 31
0.0
  0
LINE
  5
372
330
1F
100
AcDbEntity
  8
0
  6
Continuous
 62
     7
370
     0
100
AcDbLine
 10
6.7693596026
 20
3.6721296455
 30
0.0
 11
6.7693596026
 21
3.7461296455
 31
0.0
  0
LINE
  5
373
330
1F
100
AcDbEntity
  8
0
  6
Continuous
 62
     7
370
     0
100
AcDbLine
 10
8.1871580026
 20
3.7461296455
 30
0.0
 11
8.1871580026
 21
3.6721296455
 31
0.0
  0
LINE
  5
374
330
1F
100
AcDbEntity
  8
0
  6
Continuous
 62
     7
370
     0
100
AcDbLine
 10
7.9694784901
 20
3.7446296455
 30
0.0
 11
8.022157982
 21
3.7446296455
 31
0.0
  0
LINE
  5
375
330
1F
100
AcDbEntity
  8
0
  6
Continuous
 62
     7
370
     0
100
AcDbLine
 10
8.022157982
 20
4.7796296455
 30
0.0
 11
7.9694784901
 21
4.7796296455
 31
0.0
  0
LINE
  5
376
330
1F
100
AcDbEntity
  8
0
  6
Continuous
 62
     7
370
     0
100
AcDbLine
 10
7.952157982
 20
4.7696296455
 30
0.0
 11
7.9694784901
 21
4.7796296455
 31
0.0
  0
LINE
  5
377
330
1F
100
AcDbEntity
  8
0
  6
Continuous
 62
     7
370
     0
100
AcDbLine
 10
7.9694784901
 20
3.7446296455
 30
0.0
 11
7.952157982
 21
3.7546296455
 31
0.0
  0
LINE
  5
378
330
1F
100
AcDbEntity
  8
0
  6
Continuous
 62
     7
370
     0
100
AcDbLine
 10
8.032157982
 20
4.7121288405
 30
0.0
 11
8.007157982
 21
4.7121288405
 31
0.0
  0
LINE
  5
379
330
1F
100
AcDbEntity
  8
0
  6
Continuous
 62
     7
370
     0
100
AcDbLine
 10
8.032157982
 20
3.8123520815
 30
0.0
 11
8.032157982
 21
4.7121288405
 31
0.0
  0
LINE
  5
37A
330
1F
100
AcDbEntity
  8
0
  6
Continuous
 62
     7
370
     0
100
AcDbLine
 10
8.032157982
 20
3.8123520815
 30
0.0
 11
8.007157982
 21
3.8123520815
 31
0.0
  0
LINE
  5
37B
330
1F
100
AcDbEntity
  8
0
  6
Continuous
 62
     7
370
     0
100
AcDbLine
 10
8.007157982
 20
3.8121296455
 30
0.0
 11
8.007157982
 21
3.8123520815
 31
0.0
  0
LINE
  5
37C
330
1F
100
AcDbEntity
  8
0
  6
Continuous
 62
     7
370
     0
100
AcDbLine
 10
7.952157982
 20
3.8121296455
 30
0.0
 11
8.007157982
 21
3.8121296455
 31
0.0
  0
LINE
  5
37D
330
1F
100
AcDbEntity
  8
0
  6
Continuous
 62
     7
370
     0
100
AcDbLine
 10
8.007157982
 20
4.7121296455
 30
0.0
 11
7.952157982
 21
4.7121296455
 31
0.0
  0
LINE
  5
37E
330
1F
100
AcDbEntity
  8
0
  6
Continuous
 62
     7
370
     0
100
AcDbLine
 10
8.007157982
 20
4.7121288405
 30
0.0
 11
8.007157982
 21
4.7121296455
 31
0.0
  0
LINE
  5
37F
330
1F
100
AcDbEntity
  8
0
  6
Continuous
 62
     7
370
     0
100
AcDbLine
 10
8.007157982
 20
3.8121296455
 30
0.0
 11
8.007157982
 21
3.7545291296
 31
0.0
  0
LINE
  5
380
330
1F
100
AcDbEntity
  8
0
  6
Continuous
 62
     7
370
     0
100
AcDbLine
 10
8.0278734518
 20
3.7545291296
 30
0.0
 11
8.007157982
 21
3.7545291296
 31
0.0
  0
LINE
  5
381
330
1F
100
AcDbEntity
  8
0
  6
Continuous
 62
     7
370
     0
100
AcDbLine
 10
8.0278734518
 20
3.7545291296
 30
0.0
 11
8.022157982
 21
3.7446296455
 31
0.0
  0
LINE
  5
382
330
1F
100
AcDbEntity
  8
0
  6
Continuous
 62
     7
370
     0
100
AcDbLine
 10
7.952157982
 20
3.8121296455
 30
0.0
 11
7.952157982
 21
3.7546296455
 31
0.0
  0
LINE
  5
383
330
1F
100
AcDbEntity
  8
0
  6
Continuous
 62
     7
370
     0
100
AcDbLine
 10
8.022157982
 20
4.7796296455
 30
0.0
 11
8.0278734518
 21
4.7697301615
 31
0.0
  0
LINE
  5
384
330
1F
100
AcDbEntity
  8
0
  6
Continuous
 62
     7
370
     0
100
AcDbLine
 10
8.007157982
 20
4.7697301615
 30
0.0
 11
8.0278734518
 21
4.7697301615
 31
0.0
  0
LINE
  5
385
330
1F
100
AcDbEntity
  8
0
  6
Continuous
 62
     7
370
     0
100
AcDbLine
 10
8.007157982
 20
4.7697301615
 30
0.0
 11
8.007157982
 21
4.7121296455
 31
0.0
  0
LINE
  5
386
330
1F
100
AcDbEntity
  8
0
  6
Continuous
 62
     7
370
     0
100
AcDbLine
 10
7.952157982
 20
4.7696296455
 30
0.0
 11
7.952157982
 21
4.7121296455
 31
0.0
  0
SPLINE
  5
387
330
1F
100
AcDbEntity
  8
0
  6
Continuous
 62
     7
370
     0
100
AcDbSpline
210
0.0
220
0.0
230
1.0
 70
    24
 71
     1
 72
     4
 73
     2
 74
     0
 42
0.00000001
 43
0.00000001
 40
0.0
 40
0.0
 40
1.0
 40
1.0
 10
8.028797503907745
 20
3.756351280674769
 30
0.0
 10
8.032157982037699
 20
3.762171796625299
 30
0.0
  0
SPLINE
  5
388
330
1F
100
AcDbEntity
  8
0
  6
Continuous
 62
     7
370
     0
100
AcDbSpline
210
0.0
220
0.0
230
1.0
 70
    24
 71
     1
 72
     4
 73
     2
 74
     0
 42
0.00000001
 43
0.00000001
 40
0.0
 40
0.0
 40
1.0
 40
1.0
 10
8.032157982037699
 20
4.762309125451214
 30
0.0
 10
8.02879751013338
 20
4.768129644995333
 30
0.0
  0
SPLINE
  5
389
330
1F
100
AcDbEntity
  8
0
  6
Continuous
 62
     7
370
     0
100
AcDbSpline
210
0.0
220
0.0
230
1.0
 70
    24
 71
     1
 72
     4
 73
     2
 74
     0
 42
0.00000001
 43
0.00000001
 40
0.0
 40
0.0
 40
1.0
 40
1.0
 10
8.027873451805066
 20
3.754529129574266
 30
0.0
 10
8.027842689818343
 20
3.754475848361599
 30
0.0
  0
LINE
  5
38A
330
1F
100
AcDbEntity
  8
0
  6
Continuous
 62
     7
370
     0
100
AcDbLine
 10
8.032157982
 20
4.7623091255
 30
0.0
 11
8.032157982
 21
4.7121288405
 31
0.0
  0
LINE
  5
38B
330
1F
100
AcDbEntity
  8
0
  6
Continuous
 62
     7
370
     0
100
AcDbLine
 10
8.032157982
 20
3.7621717966
 30
0.0
 11
8.032157982
 21
3.8123520815
 31
0.0
  0
LINE
  5
38C
330
1F
100
AcDbEntity
  8
0
  6
Continuous
 62
     7
370
     0
100
AcDbLine
 10
7.0043596039
 20
3.7546296455
 30
0.0
 11
6.9870390958
 21
3.7446296455
 31
0.0
  0
LINE
  5
38D
330
1F
100
AcDbEntity
  8
0
  6
Continuous
 62
     7
370
     0
100
AcDbLine
 10
6.9870390958
 20
4.7796296455
 30
0.0
 11
7.0043596039
 21
4.7696296455
 31
0.0
  0
LINE
  5
38E
330
1F
100
AcDbEntity
  8
0
  6
Continuous
 62
     7
370
     0
100
AcDbLine
 10
6.9870390958
 20
4.7796296455
 30
0.0
 11
6.9343596039
 21
4.7796296455
 31
0.0
  0
LINE
  5
38F
330
1F
100
AcDbEntity
  8
0
  6
Continuous
 62
     7
370
     0
100
AcDbLine
 10
6.9343596039
 20
3.7446296455
 30
0.0
 11
6.9870390958
 21
3.7446296455
 31
0.0
  0
LINE
  5
390
330
1F
100
AcDbEntity
  8
0
  6
Continuous
 62
     7
370
     0
100
AcDbLine
 10
6.9243596039
 20
3.8124500849
 30
0.0
 11
6.9493596039
 21
3.8124500849
 31
0.0
  0
LINE
  5
391
330
1F
100
AcDbEntity
  8
0
  6
Continuous
 62
     7
370
     0
100
AcDbLine
 10
6.9493596039
 20
3.8132658011
 30
0.0
 11
6.9493596039
 21
3.8124500849
 31
0.0
  0
LINE
  5
392
330
1F
100
AcDbEntity
  8
0
  6
Continuous
 62
     7
370
     0
100
AcDbLine
 10
6.9243596039
 20
3.8132658011
 30
0.0
 11
6.9493596039
 21
3.8132658011
 31
0.0
  0
LINE
  5
393
330
1F
100
AcDbEntity
  8
0
  6
Continuous
 62
     7
370
     0
100
AcDbLine
 10
6.9243596039
 20
4.7121296455
 30
0.0
 11
6.9243596039
 21
3.8132658011
 31
0.0
  0
LINE
  5
394
330
1F
100
AcDbEntity
  8
0
  6
Continuous
 62
     7
370
     0
100
AcDbLine
 10
7.0043596039
 20
4.7121296455
 30
0.0
 11
6.9243596039
 21
4.7121296455
 31
0.0
  0
LINE
  5
395
330
1F
100
AcDbEntity
  8
0
  6
Continuous
 62
     7
370
     0
100
AcDbLine
 10
6.9243596039
 20
3.8121296455
 30
0.0
 11
7.0043596039
 21
3.8121296455
 31
0.0
  0
LINE
  5
396
330
1F
100
AcDbEntity
  8
0
  6
Continuous
 62
     7
370
     0
100
AcDbLine
 10
6.9243596039
 20
3.8124500849
 30
0.0
 11
6.9243596039
 21
3.8121296455
 31
0.0
  0
LINE
  5
397
330
1F
100
AcDbEntity
  8
0
  6
Continuous
 62
     7
370
     0
100
AcDbLine
 10
6.9243596039
 20
4.7623091375
 30
0.0
 11
6.9343596039
 21
4.7796296455
 31
0.0
  0
LINE
  5
398
330
1F
100
AcDbEntity
  8
0
  6
Continuous
 62
     7
370
     0
100
AcDbLine
 10
6.9343596039
 20
3.7446296455
 30
0.0
 11
6.9243596039
 21
3.7619501536
 31
0.0
  0
LINE
  5
399
330
1F
100
AcDbEntity
  8
0
  6
Continuous
 62
     7
370
     0
100
AcDbLine
 10
6.9243596039
 20
3.7619501536
 30
0.0
 11
6.9243596039
 21
3.8121296455
 31
0.0
  0
LINE
  5
39A
330
1F
100
AcDbEntity
  8
0
  6
Continuous
 62
     7
370
     0
100
AcDbLine
 10
7.0043596039
 20
3.7546296455
 30
0.0
 11
7.0043596039
 21
3.8121296455
 31
0.0
  0
LINE
  5
39B
330
1F
100
AcDbEntity
  8
0
  6
Continuous
 62
     7
370
     0
100
AcDbLine
 10
6.9243596039
 20
4.7121296455
 30
0.0
 11
6.9243596039
 21
4.7623091375
 31
0.0
  0
LINE
  5
39C
330
1F
100
AcDbEntity
  8
0
  6
Continuous
 62
     7
370
     0
100
AcDbLine
 10
7.0043596039
 20
4.7121296455
 30
0.0
 11
7.0043596039
 21
4.7696296455
 31
0.0
  0
LINE
  5
39D
330
1F
100
AcDbEntity
  8
0
  6
Continuous
 62
     7
370
     0
100
AcDbLine
 10
6.9243596039
 20
3.8124500849
 30
0.0
 11
6.9243596039
 21
3.8132658011
 31
0.0
  0
ARC
  5
39E
330
1F
100
AcDbEntity
  8
0
  6
Continuous
 62
     7
370
     0
100
AcDbCircle
 10
7.1095895714
 20
4.2621296455
 30
0.0
 40
0.7909448818897638
100
AcDbArc
 50
320.7906836425
 51
39.2093163575
  0
LINE
  5
39F
330
1F
100
AcDbEntity
  8
0
  6
Continuous
 62
     7
370
     0
100
AcDbLine
 10
7.6524003966
 20
3.7621296455
 30
0.0
 11
7.7224466561
 21
3.7621296455
 31
0.0
  0
ARC
  5
3A0
330
1F
100
AcDbEntity
  8
0
  6
Continuous
 62
     7
370
     0
100
AcDbCircle
 10
8.4383297289
 20
4.2621296455
 30
0.0
 40
0.9314960629921263
100
AcDbArc
 50
147.5359091707
 51
212.4640908293
  0
LINE
  5
3A1
330
1F
100
AcDbEntity
  8
0
  6
Continuous
 62
     7
370
     0
100
AcDbLine
 10
7.7224466561
 20
4.7621296455
 30
0.0
 11
7.6524003966
 21
4.7621296455
 31
0.0
  0
ARC
  5
3A2
330
1F
100
AcDbEntity
  8
0
  6
Continuous
 62
     7
370
     0
100
AcDbCircle
 10
5.7280935084
 20
4.2621296455
 30
0.0
 40
2.270866141732285
100
AcDbArc
 50
347.2803766009
 51
12.7196233991
  0
LINE
  5
3A3
330
1F
100
AcDbEntity
  8
0
  6
Continuous
 62
     7
370
     0
100
AcDbLine
 10
7.7224466561
 20
3.7621296455
 30
0.0
 11
7.9432307578
 21
3.7621296455
 31
0.0
  0
ARC
  5
3A4
330
1F
100
AcDbEntity
  8
0
  6
Continuous
 62
     7
370
     0
100
AcDbCircle
 10
7.1095895714
 20
4.2621296455
 30
0.0
 40
0.7909448818897638
100
AcDbArc
 50
320.7906836425
 51
39.2093163575
  0
LINE
  5
3A5
330
1F
100
AcDbEntity
  8
0
  6
Continuous
 62
     7
370
     0
100
AcDbLine
 10
7.9432307578
 20
4.7621296455
 30
0.0
 11
7.7224466561
 21
4.7621296455
 31
0.0
  0
ARC
  5
3A6
330
1F
100
AcDbEntity
  8
0
  6
Continuous
 62
     7
370
     0
100
AcDbCircle
 10
8.4093063459
 20
4.2621296455
 30
0.0
 40
1.335039370078741
100
AcDbArc
 50
158.0053021447
 51
201.9946978553
  0
LINE
  5
3A7
330
1F
100
AcDbEntity
  8
0
  6
Continuous
 62
     7
370
     0
100
AcDbLine
 10
7.0092220477
 20
3.7621296455
 30
0.0
 11
7.1714331215
 21
3.7621296455
 31
0.0
  0
LINE
  5
3A8
330
1F
100
AcDbEntity
  8
0
  6
Continuous
 62
     7
370
     0
100
AcDbLine
 10
7.1714331215
 20
4.7621296455
 30
0.0
 11
7.0092220477
 21
4.7621296455
 31
0.0
  0
ARC
  5
3A9
330
1F
100
AcDbEntity
  8
0
  6
Continuous
 62
     7
370
     0
100
AcDbCircle
 10
10.7372591018
 20
4.2621296455
 30
0.0
 40
3.761417322834656
100
AcDbArc
 50
172.3611411862
 51
187.6388588138
  0
ARC
  5
3AA
330
1F
100
AcDbEntity
  8
0
  6
Continuous
 62
     7
370
     0
100
AcDbCircle
 10
5.5175740624
 20
4.2621296455
 30
0.0
 40
1.832283464566929
100
AcDbArc
 50
344.16407335
 51
15.83592665
  0
LINE
  5
3AB
330
1F
100
AcDbEntity
  8
0
  6
Continuous
 62
     7
370
     0
100
AcDbLine
 10
7.1714331215
 20
3.7621296455
 30
0.0
 11
7.2803170087
 21
3.7621296455
 31
0.0
  0
ARC
  5
3AC
330
1F
100
AcDbEntity
  8
0
  6
Continuous
 62
     7
370
     0
100
AcDbCircle
 10
8.4093063459
 20
4.2621296455
 30
0.0
 40
1.335039370078741
100
AcDbArc
 50
158.0053021447
 51
201.9946978553
  0
LINE
  5
3AD
330
1F
100
AcDbEntity
  8
0
  6
Continuous
 62
     7
370
     0
100
AcDbLine
 10
7.2803170087
 20
4.7621296455
 30
0.0
 11
7.1714331215
 21
4.7621296455
 31
0.0
  0
DIMENSION
  5
3AE
330
1F
100
AcDbEntity
  8
0
  6
Continuous
 62
     7
370
     0
100
AcDbDimension
  2
*D8
 10
6.975841779
 20
5.1514100773
 30
0.0
 11
5.5433480239
 21
5.1514100773
 31
0.0
 70
   160
 71
     1
 42
-1.0
  3
SLDDIMSTYLE1
100
AcDbAlignedDimension
 13
4.1298535397
 23
4.2621296455
 33
0.0
 14
6.975841779
 24
4.2621296455
 34
0.0
 50
0.0
100
AcDbRotatedDimension
  0
DIMENSION
  5
3C1
330
1F
100
AcDbEntity
  8
0
  6
Continuous
 62
     7
370
     0
100
AcDbDimension
  2
*D9
 10
6.7693596026
 20
3.0321280929
 30
0.0
 11
5.5393610856
 21
3.0321280929
 31
0.0
 70
   160
 71
     1
 42
-1.0
  3
SLDDIMSTYLE1
100
AcDbAlignedDimension
 13
4.1298535397
 23
4.2621296455
 33
0.0
 14
6.7693596026
 24
3.6721296455
 34
0.0
100
AcDbRotatedDimension
  0
DIMENSION
  5
3D3
330
1F
100
AcDbEntity
  8
0
  6
Continuous
 62
     7
370
     0
100
AcDbDimension
  2
*D10
 10
8.1871580026
 20
3.0321280929
 30
0.0
 11
8.6728504434
 21
3.0321280929
 31
0.0
 70
   160
 71
     1
 42
-1.0
  3
SLDDIMSTYLE1
100
AcDbAlignedDimension
 13
9.296135916
 23
4.2621296455
 33
0.0
 14
8.1871580026
 24
3.6721296455
 34
0.0
100
AcDbRotatedDimension
  0
DIMENSION
  5
3E5
330
1F
100
AcDbEntity
  8
0
  6
Continuous
 62
     7
370
     0
100
AcDbDimension
  2
*D11
 10
7.9989596502
 20
5.137857471
 30
0.0
 11
8.6728504434
 21
5.137857471
 31
0.0
 70
   160
 71
     1
 42
-1.0
  3
SLDDIMSTYLE2
100
AcDbAlignedDimension
 13
9.296135916
 23
4.2621296455
 33
0.0
 14
7.9989596502
 24
4.2621296455
 34
0.0
100
AcDbRotatedDimension
  0
DIMENSION
  5
3F8
330
1F
100
AcDbEntity
  8
0
  6
Continuous
 62
     7
370
     0
100
AcDbDimension
  2
*D12
 10
8.1871580026
 20
2.3234666756
 30
0.0
 11
7.4812776205
 21
2.3234666756
 31
0.0
 70
   160
 71
     1
 42
-1.0
  3
SLDDIMSTYLE3
100
AcDbAlignedDimension
 13
6.7693596026
 23
3.6721296455
 33
0.0
 14
8.1871580026
 24
3.6721296455
 34
0.0
100
AcDbRotatedDimension
  0
DIMENSION
  5
40B
330
1F
100
AcDbEntity
  8
0
  6
Continuous
 62
     7
370
     0
100
AcDbDimension
  2
*D13
 10
7.5068336659
 20
3.2683485653
 30
0.0
 11
7.9451670309
 21
3.2683485653
 31
0.0
 70
   160
 71
     1
 42
-1.0
  3
SLDDIMSTYLE4
100
AcDbAlignedDimension
 13
7.349857527
 23
4.2621296455
 33
0.0
 14
7.5068336659
 24
4.2621296455
 34
0.0
100
AcDbRotatedDimension
  0
DIMENSION
  5
41E
330
1F
100
AcDbEntity
  8
0
  6
Continuous
 62
     7
370
     0
100
AcDbDimension
  2
*D14
 10
6.975841779
 20
5.4921311982
 30
0.0
 11
7.4646614452
 21
5.4921311982
 31
0.0
 70
   160
 71
     1
 42
-1.0
  3
SLDDIMSTYLE1
100
AcDbAlignedDimension
 13
7.9989596502
 23
4.2621296455
 33
0.0
 14
6.975841779
 24
4.2621296455
 34
0.0
 50
0.0
100
AcDbRotatedDimension
  0
INSERT
  5
437
330
1F
100
AcDbEntity
  8
0
  6
Continuous
 62
     7
370
     0
100
AcDbBlockReference
  2
SW_NOTE_5
 10
6.9494800067
 20
2.8184586425
 30
0.0
  0
INSERT
  5
43E
102
{ACAD_REACTORS
330
440
330
441
102
}
330
1F
100
AcDbEntity
  8
0
  6
Continuous
 62
     7
370
     0
100
AcDbBlockReference
  2
SW_NOTE_6
 10
6.1700375686
 20
3.4780974708
 30
0.0
  0
LEADER
  5
440
330
1F
100
AcDbEntity
  8
0
  6
Continuous
 62
     7
370
     0
100
AcDbLeader
  3
SLDDIMSTYLE5
 73
     2
 76
     3
 10
6.8779451718
 20
3.7561296455
 30
0.0
 10
6.4200375686
 20
3.4780974708
 30
0.0
 10
6.1700375686
 20
3.4780974708
 30
0.0
340
43E
  0
LEADER
  5
441
330
1F
100
AcDbEntity
  8
0
  6
Continuous
 62
     7
370
     0
100
AcDbLeader
  3
SLDDIMSTYLE5
 73
     2
 76
     3
 10
8.094625
 20
3.7561296455
 30
0.0
 10
6.4200375686
 20
3.4780974708
 30
0.0
 10
6.1700375686
 20
3.4780974708
 30
0.0
340
43E
  0
INSERT
  5
447
330
1F
100
AcDbEntity
  8
0
  6
Continuous
 62
     7
370
     0
100
AcDbBlockReference
  2
SW_NOTE_7
 10
8.7328915564
 20
4.7241356298
 30
0.0
  0
LEADER
  5
448
330
1F
100
AcDbEntity
  8
0
  6
Continuous
 62
     7
370
     0
100
AcDbLeader
  3
SLDDIMSTYLE5
 76
     2
 10
7.8176685683
 20
4.6145753014
 30
0.0
 10
8.7328915564
 20
4.7241356298
 30
0.0
  0
INSERT
  5
44E
102
{ACAD_REACTORS
330
44F
102
}
330
1F
100
AcDbEntity
  8
0
  6
Continuous
 62
     7
370
     0
100
AcDbBlockReference
  2
SW_NOTE_8
 10
6.2927358301
 20
4.7326801753
 30
0.0
  0
LEADER
  5
44F
330
1F
100
AcDbEntity
  8
0
  6
Continuous
 62
     7
370
     0
100
AcDbLeader
  3
SLDDIMSTYLE5
 73
     2
 76
     2
 10
7.1376897413
 20
4.668726904
 30
0.0
 10
6.2927358301
 20
4.7326801753
 30
0.0
340
44E
  0
INSERT
  5
455
330
1F
100
AcDbEntity
  8
0
  6
Continuous
 62
     7
370
     0
100
AcDbBlockReference
  2
SW_NOTE_9
 10
8.8587417981
 20
3.4056669332
 30
0.0
  0
LEADER
  5
456
330
1F
100
AcDbEntity
  8
0
  6
Continuous
 62
     7
370
     0
100
AcDbLeader
  3
SLDDIMSTYLE5
 76
     2
 10
8.1871580026
 20
3.6721296455
 30
0.0
 10
8.8587417981
 20
3.4056669332
 30
0.0
  0
INSERT
  5
45C
330
1F
100
AcDbEntity
  8
0
  6
Continuous
 62
     7
370
     0
100
AcDbBlockReference
  2
SW_NOTE_10
 10
8.8388723189
 20
3.8662586994
 30
0.0
  0
LEADER
  5
45D
330
1F
100
AcDbEntity
  8
0
  6
Continuous
 62
     7
370
     0
100
AcDbLeader
  3
SLDDIMSTYLE5
 76
     2
 10
8.007157982
 20
3.8121296455
 30
0.0
 10
8.8388723189
 20
3.8662586994
 30
0.0
  0
INSERT
  5
463
102
{ACAD_REACTORS
330
464
102
}
330
1F
100
AcDbEntity
  8
0
  6
Continuous
 62
     7
370
     0
100
AcDbBlockReference
  2
SW_NOTE_11
 10
6.557169443
 20
3.7503406599
 30
0.0
  0
LEADER
  5
464
330
1F
100
AcDbEntity
  8
0
  6
Continuous
 62
     7
370
     0
100
AcDbLeader
  3
SLDDIMSTYLE5
 73
     2
 76
     2
 10
6.9243596039
 20
3.8121296455
 30
0.0
 10
6.557169443
 20
3.7503406599
 30
0.0
340
463
  0
HATCH
  5
465
330
1F
100
AcDbEntity
  8
0
  6
Continuous
 62
     7
370
     0
100
AcDbHatch
 10
0.0
 20
0.0
 30
0.0
210
0.0
220
0.0
230
1.0
  2
ANSI31
 70
     0
 71
     0
 91
        1
 92
        0
 93
       24
 72
     1
 10
7.645971062643666
 20
4.766129645548062
 11
7.886003302105286
 21
4.766129645548062
 72
     1
 10
7.886003302105286
 20
4.766129645548062
 11
7.887158002643666
 21
4.768129645548062
 72
     1
 10
7.887158002643666
 20
4.768129645548062
 11
8.169837494567977
 21
4.768129645548062
 72
     1
 10
8.169837494567977
 20
4.768129645548062
 11
8.187158002643667
 21
4.778129645548063
 72
     1
 10
8.187158002643667
 20
4.778129645548063
 11
8.187158002643667
 21
4.852129645548062
 72
     1
 10
8.187158002643667
 20
4.852129645548062
 11
8.177158002643665
 21
4.862129645548063
 72
     1
 10
8.177158002643665
 20
4.862129645548063
 11
7.237201659649636
 21
4.862129645548063
 72
     1
 10
7.237201659649636
 20
4.862129645548063
 11
7.203659101742123
 21
4.862129645548063
 72
     1
 10
7.203659101742123
 20
4.862129645548063
 11
7.091321429324124
 21
4.862129645548063
 72
     1
 10
7.091321429324124
 20
4.862129645548063
 11
7.019573174692035
 21
4.862129645548063
 72
     1
 10
7.019573174692035
 20
4.862129645548063
 11
6.779359602643667
 21
4.862129645548063
 72
     1
 10
6.779359602643667
 20
4.862129645548063
 11
6.769359602643666
 21
4.852129645548062
 72
     1
 10
6.769359602643666
 20
4.852129645548062
 11
6.769359602643666
 21
4.778129645548061
 72
     1
 10
6.769359602643666
 20
4.778129645548061
 11
6.786680110719353
 21
4.768129645548062
 72
     1
 10
6.786680110719353
 20
4.768129645548062
 11
7.069359602643666
 21
4.768129645548062
 72
     1
 10
7.069359602643666
 20
4.768129645548062
 11
7.070514303182045
 21
4.766129645548062
 72
     1
 10
7.070514303182045
 20
4.766129645548062
 11
7.275061292643666
 21
4.766129645548062
 72
     1
 10
7.275061292643666
 20
4.766129645548062
 11
7.275061292643666
 21
4.787129645548062
 72
     1
 10
7.275061292643666
 20
4.787129645548062
 11
7.295061292643665
 21
4.787129645548062
 72
     1
 10
7.295061292643665
 20
4.787129645548062
 11
7.295061292643665
 21
4.713129645548062
 72
     1
 10
7.295061292643665
 20
4.713129645548062
 11
7.625971062643665
 21
4.713129645548062
 72
     1
 10
7.625971062643665
 20
4.713129645548062
 11
7.625971062643665
 21
4.787129645548062
 72
     1
 10
7.625971062643665
 20
4.787129645548062
 11
7.645971062643666
 21
4.787129645548062
 72
     1
 10
7.645971062643666
 20
4.787129645548062
 11
7.645971062643666
 21
4.766129645548062
 97
        0
 75
     0
 76
     1
 52
0.0
 41
1.0
 77
     0
 78
     1
 53
45.0
 43
0.0
 44
0.0
 45
-0.0883883476483184
 46
0.0883883476483184
 79
     0
 98
        1
 10
0.0
 20
0.0
  0
HATCH
  5
466
330
1F
100
AcDbEntity
  8
0
  6
Continuous
 62
     7
370
     0
100
AcDbHatch
 10
0.0
 20
0.0
 30
0.0
210
0.0
220
0.0
230
1.0
  2
ANSI31
 70
     0
 71
     0
 91
        1
 92
        0
 93
       28
 72
     1
 10
8.187158002643667
 20
3.746129645548063
 11
8.169837494567977
 21
3.756129645548063
 72
     1
 10
8.169837494567977
 20
3.756129645548063
 11
7.887158002643666
 21
3.756129645548063
 72
     1
 10
7.887158002643666
 20
3.756129645548063
 11
7.886003302105286
 21
3.758129645548063
 72
     1
 10
7.886003302105286
 20
3.758129645548063
 11
7.645971062643666
 21
3.758129645548063
 72
     1
 10
7.645971062643666
 20
3.758129645548063
 11
7.645971062643666
 21
3.737129645548063
 72
     1
 10
7.645971062643666
 20
3.737129645548063
 11
7.625971062643665
 21
3.737129645548063
 72
     1
 10
7.625971062643665
 20
3.737129645548063
 11
7.625971062643665
 21
3.811129645548063
 72
     1
 10
7.625971062643665
 20
3.811129645548063
 11
7.295061292643665
 21
3.811129645548063
 72
     1
 10
7.295061292643665
 20
3.811129645548063
 11
7.295061292643665
 21
3.737129645548063
 72
     1
 10
7.295061292643665
 20
3.737129645548063
 11
7.275061292643666
 21
3.737129645548063
 72
     1
 10
7.275061292643666
 20
3.737129645548063
 11
7.275061292643666
 21
3.758129645548063
 72
     1
 10
7.275061292643666
 20
3.758129645548063
 11
7.070514303182045
 21
3.758129645548063
 72
     1
 10
7.070514303182045
 20
3.758129645548063
 11
7.069359602643666
 21
3.756129645548063
 72
     1
 10
7.069359602643666
 20
3.756129645548063
 11
6.786680110719353
 21
3.756129645548063
 72
     1
 10
6.786680110719353
 20
3.756129645548063
 11
6.769359602643666
 21
3.746129645548064
 72
     1
 10
6.769359602643666
 20
3.746129645548064
 11
6.769359602643666
 21
3.672129645548063
 72
     1
 10
6.769359602643666
 20
3.672129645548063
 11
6.779359602643667
 21
3.662129645548063
 72
     1
 10
6.779359602643667
 20
3.662129645548063
 11
6.84403492731899
 21
3.662129645548063
 72
     1
 10
6.84403492731899
 20
3.662129645548063
 11
6.865387690957278
 21
3.662129645548063
 72
     1
 10
6.865387690957278
 20
3.662129645548063
 11
6.893726485760548
 21
3.662129645548063
 72
     1
 10
6.893726485760548
 20
3.662129645548063
 11
6.911096615630679
 21
3.662129645548063
 72
     1
 10
6.911096615630679
 20
3.662129645548063
 11
7.017098601181525
 21
3.662129645548063
 72
     1
 10
7.017098601181525
 20
3.662129645548063
 11
7.041135800632193
 21
3.662129645548063
 72
     1
 10
7.041135800632193
 20
3.662129645548063
 11
7.059960251994315
 21
3.662129645548063
 72
     1
 10
7.059960251994315
 20
3.662129645548063
 11
7.077265446799511
 21
3.662129645548063
 72
     1
 10
7.077265446799511
 20
3.662129645548063
 11
8.177158002643665
 21
3.662129645548063
 72
     1
 10
8.177158002643665
 20
3.662129645548063
 11
8.187158002643667
 21
3.672129645548063
 72
     1
 10
8.187158002643667
 20
3.672129645548063
 11
8.187158002643667
 21
3.746129645548063
 97
        0
 75
     0
 76
     1
 52
0.0
 41
1.0
 77
     0
 78
     1
 53
45.0
 43
0.0
 44
0.0
 45
-0.0883883476483184
 46
0.0883883476483184
 79
     0
 98
        1
 10
0.0
 20
0.0
  0
HATCH
  5
467
330
1F
100
AcDbEntity
  8
0
  6
Continuous
 62
     7
370
     0
100
AcDbHatch
 10
0.0
 20
0.0
 30
0.0
210
0.0
220
0.0
230
1.0
  2
ANSI31
 70
     0
 71
     0
 91
        1
 92
        0
 93
        7
 72
     1
 10
8.007157982037699
 20
3.812129645548063
 11
7.952157982037699
 21
3.812129645548063
 72
     1
 10
7.952157982037699
 20
3.812129645548063
 11
7.952157982037699
 21
3.754629645548063
 72
     1
 10
7.952157982037699
 20
3.754629645548063
 11
7.969478490113387
 21
3.744629645548063
 72
     1
 10
7.969478490113387
 20
3.744629645548063
 11
8.0221579820377
 21
3.744629645548063
 72
     1
 10
8.0221579820377
 20
3.744629645548063
 11
8.027873451805066
 21
3.754529129574266
 72
     1
 10
8.027873451805066
 20
3.754529129574266
 11
8.007157982037699
 21
3.754529129574266
 72
     1
 10
8.007157982037699
 20
3.754529129574266
 11
8.007157982037699
 21
3.812129645548063
 97
        0
 75
     0
 76
     1
 52
0.0
 41
1.0
 77
     0
 78
     1
 53
45.0
 43
0.0
 44
0.0
 45
-0.0883883476483184
 46
0.0883883476483184
 79
     0
 98
        1
 10
0.0
 20
0.0
  0
HATCH
  5
468
330
1F
100
AcDbEntity
  8
0
  6
Continuous
 62
     7
370
     0
100
AcDbHatch
 10
0.0
 20
0.0
 30
0.0
210
0.0
220
0.0
230
1.0
  2
ANSI31
 70
     0
 71
     0
 91
        1
 92
        0
 93
        7
 72
     1
 10
8.007157982037699
 20
4.712129645548064
 11
8.007157982037699
 21
4.769730161521867
 72
     1
 10
8.007157982037699
 20
4.769730161521867
 11
8.027873451805064
 21
4.769730161521864
 72
     1
 10
8.027873451805064
 20
4.769730161521864
 11
8.0221579820377
 21
4.779629645548063
 72
     1
 10
8.0221579820377
 20
4.779629645548063
 11
7.969478490113387
 21
4.779629645548063
 72
     1
 10
7.969478490113387
 20
4.779629645548063
 11
7.952157982037699
 21
4.769629645548064
 72
     1
 10
7.952157982037699
 20
4.769629645548064
 11
7.952157982037699
 21
4.712129645548064
 72
     1
 10
7.952157982037699
 20
4.712129645548064
 11
8.007157982037699
 21
4.712129645548064
 97
        0
 75
     0
 76
     1
 52
0.0
 41
1.0
 77
     0
 78
     1
 53
45.0
 43
0.0
 44
0.0
 45
-0.0883883476483184
 46
0.0883883476483184
 79
     0
 98
        1
 10
0.0
 20
0.0
  0
HATCH
  5
469
330
1F
100
AcDbEntity
  8
0
  6
Continuous
 62
     7
370
     0
100
AcDbHatch
 10
0.0
 20
0.0
 30
0.0
210
0.0
220
0.0
230
1.0
  2
ANSI31
 70
     0
 71
     0
 91
        1
 92
        0
 93
        6
 72
     1
 10
6.92435960391793
 20
4.712129645548064
 11
7.004359603917929
 21
4.712129645548064
 72
     1
 10
7.004359603917929
 20
4.712129645548064
 11
7.004359603917929
 21
4.769629645548064
 72
     1
 10
7.004359603917929
 20
4.769629645548064
 11
6.987039095842241
 21
4.779629645548064
 72
     1
 10
6.987039095842241
 20
4.779629645548064
 11
6.93435960391793
 21
4.779629645548064
 72
     1
 10
6.93435960391793
 20
4.779629645548064
 11
6.92435960391793
 21
4.762309137472375
 72
     1
 10
6.92435960391793
 20
4.762309137472375
 11
6.92435960391793
 21
4.712129645548064
 97
        0
 75
     0
 76
     1
 52
0.0
 41
1.0
 77
     0
 78
     1
 53
45.0
 43
0.0
 44
0.0
 45
-0.0883883476483184
 46
0.0883883476483184
 79
     0
 98
        1
 10
0.0
 20
0.0
  0
HATCH
  5
46A
330
1F
100
AcDbEntity
  8
0
  6
Continuous
 62
     7
370
     0
100
AcDbHatch
 10
0.0
 20
0.0
 30
0.0
210
0.0
220
0.0
230
1.0
  2
ANSI31
 70
     0
 71
     0
 91
        1
 92
        0
 93
        6
 72
     1
 10
6.92435960391793
 20
3.812129645548063
 11
6.92435960391793
 21
3.761950153623751
 72
     1
 10
6.92435960391793
 20
3.761950153623751
 11
6.93435960391793
 21
3.744629645548062
 72
     1
 10
6.93435960391793
 20
3.744629645548062
 11
6.987039095842241
 21
3.744629645548062
 72
     1
 10
6.987039095842241
 20
3.744629645548062
 11
7.004359603917929
 21
3.754629645548062
 72
     1
 10
7.004359603917929
 20
3.754629645548062
 11
7.004359603917929
 21
3.812129645548063
 72
     1
 10
7.004359603917929
 20
3.812129645548063
 11
6.92435960391793
 21
3.812129645548063
 97
        0
 75
     0
 76
     1
 52
0.0
 41
1.0
 77
     0
 78
     1
 53
45.0
 43
0.0
 44
0.0
 45
-0.0883883476483184
 46
0.0883883476483184
 79
     0
 98
        1
 10
0.0
 20
0.0
  0
HATCH
  5
46B
330
1F
100
AcDbEntity
  8
0
  6
Continuous
 62
     7
370
     0
100
AcDbHatch
 10
0.0
 20
0.0
 30
0.0
210
0.0
220
0.0
230
1.0
  2
ANSI31
 70
     0
 71
     0
 91
        1
 92
        0
 93
        4
 72
     1
 10
7.280317008689514
 20
4.762129645548063
 11
7.171433121522821
 21
4.762129645548063
 72
     2
 10
8.409306345912233
 20
4.262129645548063
 40
1.33503937007874
 50
158.0053021446881
 51
201.9946978553127
 73
     1
 72
     1
 10
7.171433121522821
 20
3.762129645548063
 11
7.280317008689514
 21
3.762129645548063
 72
     2
 10
5.517574062447666
 20
4.262129645548063
 40
1.832283464566929
 50
344.1640733499594
 51
375.8359266500423
 73
     1
 97
        0
 75
     0
 76
     1
 52
0.0
 41
1.0
 77
     0
 78
     1
 53
45.0
 43
0.0
 44
0.0
 45
-0.0883883476483184
 46
0.0883883476483184
 79
     0
 98
        1
 10
0.0
 20
0.0
  0
HATCH
  5
46C
330
1F
100
AcDbEntity
  8
0
  6
Continuous
 62
     7
370
     0
100
AcDbHatch
 10
0.0
 20
0.0
 30
0.0
210
0.0
220
0.0
230
1.0
  2
ANSI31
 70
     0
 71
     0
 91
        1
 92
        0
 93
        4
 72
     1
 10
7.171433121522821
 20
4.762129645548063
 11
7.009222047747525
 21
4.762129645548063
 72
     2
 10
10.73725910181775
 20
4.262129645548059
 40
3.761417322834654
 50
172.3611411862246
 51
187.6388588137761
 73
     1
 72
     1
 10
7.009222047747525
 20
3.762129645548063
 11
7.171433121522821
 21
3.762129645548064
 72
     2
 10
8.409306345912233
 20
4.262129645548063
 40
1.33503937007874
 50
158.0053021446881
 51
201.9946978553127
 73
     0
 97
        0
 75
     0
 76
     1
 52
0.0
 41
1.0
 77
     0
 78
     1
 53
45.0
 43
0.0
 44
0.0
 45
-0.0883883476483184
 46
0.0883883476483184
 79
     0
 98
        1
 10
0.0
 20
0.0
  0
HATCH
  5
46D
330
1F
100
AcDbEntity
  8
0
  6
Continuous
 62
     7
370
     0
100
AcDbHatch
 10
0.0
 20
0.0
 30
0.0
210
0.0
220
0.0
230
1.0
  2
ANSI31
 70
     0
 71
     0
 91
        1
 92
        0
 93
        4
 72
     1
 10
7.943230757829548
 20
4.762129645548063
 11
7.722446656059928
 21
4.762129645548063
 72
     2
 10
7.109589571424682
 20
4.262129645548063
 40
0.7909448818897639
 50
320.7906836425316
 51
399.20931635747
 73
     0
 72
     1
 10
7.722446656059928
 20
3.762129645548063
 11
7.943230757829548
 21
3.762129645548063
 72
     2
 10
5.728093508432556
 20
4.262129645548063
 40
2.270866141732284
 50
347.2803766008738
 51
372.7196233991279
 73
     1
 97
        0
 75
     0
 76
     1
 52
0.0
 41
1.0
 77
     0
 78
     1
 53
45.0
 43
0.0
 44
0.0
 45
-0.0883883476483184
 46
0.0883883476483184
 79
     0
 98
        1
 10
0.0
 20
0.0
  0
HATCH
  5
46E
330
1F
100
AcDbEntity
  8
0
  6
Continuous
 62
     7
370
     0
100
AcDbHatch
 10
0.0
 20
0.0
 30
0.0
210
0.0
220
0.0
230
1.0
  2
ANSI31
 70
     0
 71
     0
 91
        1
 92
        0
 93
        4
 72
     1
 10
7.722446656059928
 20
4.762129645548063
 11
7.652400396604802
 21
4.762129645548063
 72
     2
 10
8.438329728904998
 20
4.262129645548063
 40
0.9314960629921262
 50
147.5359091707225
 51
212.4640908292783
 73
     1
 72
     1
 10
7.652400396604802
 20
3.762129645548063
 11
7.722446656059928
 21
3.762129645548063
 72
     2
 10
7.109589571424682
 20
4.262129645548063
 40
0.7909448818897639
 50
320.7906836425316
 51
399.20931635747
 73
     1
 97
        0
 75
     0
 76
     1
 52
0.0
 41
1.0
 77
     0
 78
     1
 53
45.0
 43
0.0
 44
0.0
 45
-0.0883883476483184
 46
0.0883883476483184
 79
     0
 98
        1
 10
0.0
 20
0.0
  0
ENDSEC
  0
SECTION
  2
OBJECTS
  0
DICTIONARY
  5
C
330
0
100
AcDbDictionary
281
     1
  3
ACAD_GROUP
350
D
  3
ACAD_LAYOUT
350
1A
  3
ACAD_MLINESTYLE
350
17
  3
ACAD_PLOTSETTINGS
350
19
  3
ACAD_PLOTSTYLENAME
350
E
  0
DICTIONARY
  5
D
102
{ACAD_REACTORS
330
C
102
}
330
C
100
AcDbDictionary
281
     1
  0
DICTIONARY
  5
1A
102
{ACAD_REACTORS
330
C
102
}
330
C
100
AcDbDictionary
281
     1
  3
Layout1
350
1E
  3
Layout2
350
26
  3
Model
350
22
  0
DICTIONARY
  5
17
102
{ACAD_REACTORS
330
C
102
}
330
C
100
AcDbDictionary
281
     1
  3
Standard
350
18
  0
DICTIONARY
  5
19
102
{ACAD_REACTORS
330
C
102
}
330
C
100
AcDbDictionary
281
     1
  0
ACDBDICTIONARYWDFLT
  5
E
102
{ACAD_REACTORS
330
C
102
}
330
C
100
AcDbDictionary
281
     1
  3
Normal
350
F
100
AcDbDictionaryWithDefault
340
F
  0
LAYOUT
  5
1E
102
{ACAD_REACTORS
330
1A
102
}
330
1A
100
AcDbPlotSettings
  1

  2
none_device
  4

  6

 40
0.0
 41
0.0
 42
0.0
 43
0.0
 44
0.0
 45
0.0
 46
0.0
 47
0.0
 48
0.0
 49
0.0
140
0.0
141
0.0
142
1.0
143
1.0
 70
   688
 72
     0
 73
     0
 74
     5
  7

 75
    16
147
1.0
148
0.0
149
0.0
100
AcDbLayout
  1
Layout1
 70
     1
 71
     1
 10
0.0
 20
0.0
 11
12.0
 21
9.0
 12
0.0
 22
0.0
 32
0.0
 14
1.0000000000E+20
 24
1.0000000000E+20
 34
1.0000000000E+20
 15
-1.0000000000E+20
 25
-1.0000000000E+20
 35
-1.0000000000E+20
146
0.0
 13
0.0
 23
0.0
 33
0.0
 16
1.0
 26
0.0
 36
0.0
 17
0.0
 27
1.0
 37
0.0
 76
     0
330
1B
  0
LAYOUT
  5
26
102
{ACAD_REACTORS
330
1A
102
}
330
1A
100
AcDbPlotSettings
  1

  2
none_device
  4

  6

 40
0.0
 41
0.0
 42
0.0
 43
0.0
 44
0.0
 45
0.0
 46
0.0
 47
0.0
 48
0.0
 49
0.0
140
0.0
141
0.0
142
1.0
143
1.0
 70
   688
 72
     0
 73
     0
 74
     5
  7

 75
    16
147
1.0
148
0.0
149
0.0
100
AcDbLayout
  1
Layout2
 70
     1
 71
     2
 10
0.0
 20
0.0
 11
0.0
 21
0.0
 12
0.0
 22
0.0
 32
0.0
 14
0.0
 24
0.0
 34
0.0
 15
0.0
 25
0.0
 35
0.0
146
0.0
 13
0.0
 23
0.0
 33
0.0
 16
1.0
 26
0.0
 36
0.0
 17
0.0
 27
1.0
 37
0.0
 76
     0
330
23
  0
LAYOUT
  5
22
102
{ACAD_REACTORS
330
1A
102
}
330
1A
100
AcDbPlotSettings
  1

  2
none_device
  4

  6

 40
0.0
 41
0.0
 42
0.0
 43
0.0
 44
0.0
 45
0.0
 46
0.0
 47
0.0
 48
0.0
 49
0.0
140
0.0
141
0.0
142
1.0
143
1.0
 70
  1712
 72
     0
 73
     0
 74
     0
  7

 75
     0
147
1.0
148
0.0
149
0.0
100
AcDbLayout
  1
Model
 70
     1
 71
     0
 10
0.0
 20
0.0
 11
0.0
 21
0.0
 12
0.0
 22
0.0
 32
0.0
 14
0.0
 24
0.0
 34
0.0
 15
11.0
 25
8.5
 35
0.0
146
0.0
 13
0.0
 23
0.0
 33
0.0
 16
1.0
 26
0.0
 36
0.0
 17
0.0
 27
1.0
 37
0.0
 76
     0
330
1F
  0
MLINESTYLE
  5
18
102
{ACAD_REACTORS
330
17
102
}
330
17
100
AcDbMlineStyle
  2
Standard
 70
     0
  3

 62
   256
 51
90.0
 52
90.0
 71
     2
 49
0.5
 62
   256
  6
BYLAYER
 49
-0.5
 62
   256
  6
BYLAYER
  0
ACDBPLACEHOLDER
  5
F
102
{ACAD_REACTORS
330
E
102
}
330
E
  0
ENDSEC
  0
EOF
