  0
SECTION
  2
HEADER
  9
$ACADVER
  1
AC1015
  9
$ACADMAINTVER
 70
     6
  9
$DWGCODEPAGE
  3
ANSI_1252
  9
$INSBASE
 10
0.0
 20
0.0
 30
0.0
  9
$EXTMIN
 10
0.0
 20
0.0
 30
0.0
  9
$EXTMAX
 10
297.0
 20
210.0
 30
0.0
  9
$LIMMIN
 10
0.0
 20
0.0
  9
$LIMMAX
 10
297.0
 20
210.0
  9
$ORTHOMODE
 70
     0
  9
$REGENMODE
 70
     1
  9
$FILLMODE
 70
     1
  9
$QTEXTMODE
 70
     0
  9
$MIRRTEXT
 70
     1
  9
$LTSCALE
 40
1.0
  9
$ATTMODE
 70
     1
  9
$TEXTSIZE
 40
3.5
  9
$TRACEWID
 40
1.0
  9
$TEXTSTYLE
  7
Standard
  9
$CLAYER
  8
0
  9
$CELTYPE
  6
ByLayer
  9
$CECOLOR
 62
   256
  9
$CELTSCALE
 40
1.0
  9
$DISPSILH
 70
     0
  9
$DIMSCALE
 40
1.0
  9
$DIMASZ
 40
5.0
  9
$DIMEXO
 40
1.0
  9
$DIMDLI
 40
3.75
  9
$DIMRND
 40
0.0
  9
$DIMDLE
 40
0.0
  9
$DIMEXE
 40
1.0
  9
$DIMTP
 40
0.0
  9
$DIMTM
 40
0.0
  9
$DIMTXT
 40
3.5
  9
$DIMCEN
 40
2.5
  9
$DIMTSZ
 40
0.0
  9
$DIMTOL
 70
     0
  9
$DIMLIM
 70
     0
  9
$DIMTIH
 70
     1
  9
$DIMTOH
 70
     1
  9
$DIMSE1
 70
     0
  9
$DIMSE2
 70
     0
  9
$DIMTAD
 70
     1
  9
$DIMZIN
 70
     0
  9
$DIMBLK
  1

  9
$DIMASO
 70
     1
  9
$DIMSHO
 70
     1
  9
$DIMPOST
  1

  9
$DIMAPOST
  1

  9
$DIMALT
 70
     0
  9
$DIMALTD
 70
     3
  9
$DIMALTF
 40
0.0393700787
  9
$DIMLFAC
 40
1.0
  9
$DIMTOFL
 70
     1
  9
$DIMTVP
 40
0.0
  9
$DIMTIX
 70
     0
  9
$DIMSOXD
 70
     0
  9
$DIMSAH
 70
     0
  9
$DIMBLK1
  1

  9
$DIMBLK2
  1

  9
$DIMSTYLE
  2
ISO-25
  9
$DIMCLRD
 70
     0
  9
$DIMCLRE
 70
     0
  9
$DIMCLRT
 70
     0
  9
$DIMTFAC
 40
1.0
  9
$DIMGAP
 40
3.0
  9
$DIMJUST
 70
     0
  9
$DIMSD1
 70
     0
  9
$DIMSD2
 70
     0
  9
$DIMTOLJ
 70
     0
  9
$DIMTZIN
 70
     0
  9
$DIMALTZ
 70
     0
  9
$DIMALTTZ
 70
     0
  9
$DIMUPT
 70
     0
  9
$DIMDEC
 70
     2
  9
$DIMTDEC
 70
     2
  9
$DIMALTU
 70
     2
  9
$DIMALTTD
 70
     3
  9
$DIMTXSTY
  7
Standard
  9
$DIMAUNIT
 70
     0
  9
$DIMADEC
 70
     2
  9
$DIMALTRND
 40
0.0
  9
$DIMAZIN
 70
     0
  9
$DIMDSEP
 70
    44
  9
$DIMATFIT
 70
     3
  9
$DIMFRAC
 70
     0
  9
$DIMLDRBLK
  1

  9
$DIMLUNIT
 70
     2
  9
$DIMLWD
 70
    -2
  9
$DIMLWE
 70
    -2
  9
$DIMTMOVE
 70
     0
  9
$LUNITS
 70
     2
  9
$LUPREC
 70
     2
  9
$SKETCHINC
 40
1.0
  9
$FILLETRAD
 40
10.0
  9
$AUNITS
 70
     0
  9
$AUPREC
 70
     2
  9
$MENU
  1
.
  9
$ELEVATION
 40
0.0
  9
$PELEVATION
 40
0.0
  9
$THICKNESS
 40
0.0
  9
$LIMCHECK
 70
     0
  9
$CHAMFERA
 40
10.0
  9
$CHAMFERB
 40
10.0
  9
$CHAMFERC
 40
20.0
  9
$CHAMFERD
 40
0.0
  9
$SKPOLY
 70
     0
  9
$TDCREATE
 40
2455125.686103843
  9
$TDUCREATE
 40
2455125.602770509
  9
$TDUPDATE
 40
2455125.686103854
  9
$TDUUPDATE
 40
2455125.602770521
  9
$TDINDWG
 40
0.0000000116
  9
$TDUSRTIMER
 40
0.0000000116
  9
$USRTIMER
 70
     1
  9
$ANGBASE
 50
0.0
  9
$ANGDIR
 70
     0
  9
$PDMODE
 70
     0
  9
$PDSIZE
 40
-1.0
  9
$PLINEWID
 40
0.0
  9
$SPLFRAME
 70
     0
  9
$SPLINETYPE
 70
     6
  9
$SPLINESEGS
 70
     8
  9
$HANDSEED
  5
31D
  9
$SURFTAB1
 70
     6
  9
$SURFTAB2
 70
     6
  9
$SURFTYPE
 70
     6
  9
$SURFU
 70
     6
  9
$SURFV
 70
     6
  9
$UCSBASE
  2

  9
$UCSNAME
  2

  9
$UCSORG
 10
0.0
 20
0.0
 30
0.0
  9
$UCSXDIR
 10
1.0
 20
0.0
 30
0.0
  9
$UCSYDIR
 10
0.0
 20
1.0
 30
0.0
  9
$UCSORTHOREF
  2

  9
$UCSORTHOVIEW
 70
     0
  9
$UCSORGTOP
 10
0.0
 20
0.0
 30
0.0
  9
$UCSORGBOTTOM
 10
0.0
 20
0.0
 30
0.0
  9
$UCSORGLEFT
 10
0.0
 20
0.0
 30
0.0
  9
$UCSORGRIGHT
 10
0.0
 20
0.0
 30
0.0
  9
$UCSORGFRONT
 10
0.0
 20
0.0
 30
0.0
  9
$UCSORGBACK
 10
0.0
 20
0.0
 30
0.0
  9
$PUCSBASE
  2

  9
$PUCSNAME
  2

  9
$PUCSORG
 10
0.0
 20
0.0
 30
0.0
  9
$PUCSXDIR
 10
1.0
 20
0.0
 30
0.0
  9
$PUCSYDIR
 10
0.0
 20
1.0
 30
0.0
  9
$PUCSORTHOREF
  2

  9
$PUCSORTHOVIEW
 70
     0
  9
$PUCSORGTOP
 10
0.0
 20
0.0
 30
0.0
  9
$PUCSORGBOTTOM
 10
0.0
 20
0.0
 30
0.0
  9
$PUCSORGLEFT
 10
0.0
 20
0.0
 30
0.0
  9
$PUCSORGRIGHT
 10
0.0
 20
0.0
 30
0.0
  9
$PUCSORGFRONT
 10
0.0
 20
0.0
 30
0.0
  9
$PUCSORGBACK
 10
0.0
 20
0.0
 30
0.0
  9
$USERI1
 70
     0
  9
$USERI2
 70
     0
  9
$USERI3
 70
     0
  9
$USERI4
 70
     0
  9
$USERI5
 70
     0
  9
$USERR1
 40
0.0
  9
$USERR2
 40
0.0
  9
$USERR3
 40
0.0
  9
$USERR4
 40
0.0
  9
$USERR5
 40
0.0
  9
$WORLDVIEW
 70
     1
  9
$SHADEDGE
 70
     3
  9
$SHADEDIF
 70
    70
  9
$TILEMODE
 70
     1
  9
$MAXACTVP
 70
    64
  9
$PINSBASE
 10
0.0
 20
0.0
 30
0.0
  9
$PLIMCHECK
 70
     0
  9
$PEXTMIN
 10
1.0000000000E+20
 20
1.0000000000E+20
 30
1.0000000000E+20
  9
$PEXTMAX
 10
-1.0000000000E+20
 20
-1.0000000000E+20
 30
-1.0000000000E+20
  9
$PLIMMIN
 10
0.0
 20
0.0
  9
$PLIMMAX
 10
420.0
 20
297.0
  9
$UNITMODE
 70
     0
  9
$VISRETAIN
 70
     1
  9
$PLINEGEN
 70
     0
  9
$PSLTSCALE
 70
     1
  9
$TREEDEPTH
 70
  3020
  9
$CMLSTYLE
  2
Standard
  9
$CMLJUST
 70
     0
  9
$CMLSCALE
 40
20.0
  9
$PROXYGRAPHICS
 70
     1
  9
$MEASUREMENT
 70
     1
  9
$CELWEIGHT
370
    -1
  9
$ENDCAPS
280
     0
  9
$JOINSTYLE
280
     0
  9
$LWDISPLAY
290
     1
  9
$INSUNITS
 70
     4
  9
$HYPERLINKBASE
  1

  9
$STYLESHEET
  1

  9
$XEDIT
290
     1
  9
$CEPSNTYPE
380
     0
  9
$PSTYLEMODE
290
     1
  9
$FINGERPRINTGUID
  2
{E738020B-506C-471B-B94D-50EE73BEE9A5}
  9
$VERSIONGUID
  2
{FAEB1C32-E019-11D5-929B-00C0DF256EC4}
  9
$EXTNAMES
290
     1
  9
$PSVPSCALE
 40
0.0
  9
$OLESTARTUP
290
     0
  0
ENDSEC
  0
SECTION
  2
CLASSES
  0
CLASS
  1
ACDBDICTIONARYWDFLT
  2
AcDbDictionaryWithDefault
  3
ObjectDBX Classes
 90
        0
280
     0
281
     0
  0
CLASS
  1
VISUALSTYLE
  2
AcDbVisualStyle
  3
ObjectDBX Classes
 90
     4095
280
     0
281
     0
  0
CLASS
  1
DICTIONARYVAR
  2
AcDbDictionaryVar
  3
ObjectDBX Classes
 90
        0
280
     0
281
     0
  0
CLASS
  1
ACDBPLACEHOLDER
  2
AcDbPlaceHolder
  3
ObjectDBX Classes
 90
        0
280
     0
281
     0
  0
CLASS
  1
LAYOUT
  2
AcDbLayout
  3
ObjectDBX Classes
 90
        0
280
     0
281
     0
  0
ENDSEC
  0
SECTION
  2
TABLES
  0
TABLE
  2
VPORT
  5
8
330
0
100
AcDbSymbolTable
 70
     1
  0
VPORT
  5
29
330
8
100
AcDbSymbolTableRecord
100
AcDbViewportTableRecord
  2
*Active
 70
     0
 10
0.0
 20
0.0
 11
1.0
 21
1.0
 12
148.5
 22
105.0
 13
0.0
 23
0.0
 14
10.0
 24
10.0
 15
10.0
 25
10.0
 16
0.0
 26
0.0
 36
1.0
 17
0.0
 27
0.0
 37
0.0
 40
210.0
 41
1.4142857143
 42
50.0
 43
0.0
 44
0.0
 50
0.0
 51
0.0
 71
     0
 72
  2000
 73
     1
 74
     3
 75
     0
 76
     0
 77
     0
 78
     0
281
     0
 65
     1
110
0.0
120
0.0
130
0.0
111
1.0
121
0.0
131
0.0
112
0.0
122
1.0
132
0.0
 79
     0
146
0.0
  0
ENDTAB
  0
TABLE
  2
LTYPE
  5
5
330
0
100
AcDbSymbolTable
 70
     6
  0
LTYPE
  5
14
330
5
100
AcDbSymbolTableRecord
100
AcDbLinetypeTableRecord
  2
ByBlock
 70
     0
  3

 72
    65
 73
     0
 40
0.0
  0
LTYPE
  5
15
330
5
100
AcDbSymbolTableRecord
100
AcDbLinetypeTableRecord
  2
ByLayer
 70
     0
  3

 72
    65
 73
     0
 40
0.0
  0
LTYPE
  5
16
330
5
100
AcDbSymbolTableRecord
100
AcDbLinetypeTableRecord
  2
Continuous
 70
     0
  3
Solid line
 72
    65
 73
     0
 40
0.0
  0
LTYPE
  5
3B
330
5
100
AcDbSymbolTableRecord
100
AcDbLinetypeTableRecord
  2
HIDDEN
 70
     0
  3
Hidden __ __ __ __ __ __ __ __ __ __ __ __ __ __
 72
    65
 73
     2
 40
1.905
 49
1.27
 74
     0
 49
-0.635
 74
     0
  0
LTYPE
  5
3C
330
5
100
AcDbSymbolTableRecord
100
AcDbLinetypeTableRecord
  2
PHANTOM
 70
     0
  3
Phantom ______  __  __  ______  __  __  ______
 72
    65
 73
     6
 40
12.7
 49
6.35
 74
     0
 49
-1.27
 74
     0
 49
1.27
 74
     0
 49
-1.27
 74
     0
 49
1.27
 74
     0
 49
-1.27
 74
     0
  0
LTYPE
  5
3D
330
5
100
AcDbSymbolTableRecord
100
AcDbLinetypeTableRecord
  2
CENTER
 70
     0
  3
Center ____ _ ____ _ ____ _ ____ _ ____ _ ____
 72
    65
 73
     4
 40
10.16
 49
6.35
 74
     0
 49
-1.27
 74
     0
 49
1.27
 74
     0
 49
-1.27
 74
     0
  0
LTYPE
  5
3E
330
5
100
AcDbSymbolTableRecord
100
AcDbLinetypeTableRecord
  2
CENTERX2
 70
     0
  3
Center (2x) ________  __  ________  __  _____
 72
    65
 73
     4
 40
20.32
 49
12.7
 74
     0
 49
-2.54
 74
     0
 49
2.54
 74
     0
 49
-2.54
 74
     0
  0
LTYPE
  5
3F
330
5
100
AcDbSymbolTableRecord
100
AcDbLinetypeTableRecord
  2
DOT2
 70
     0
  3
Dot (.5x) ........................................
 72
    65
 73
     2
 40
0.635
 49
0.0
 74
     0
 49
-0.635
 74
     0
  0
ENDTAB
  0
TABLE
  2
LAYER
  5
2
330
0
100
AcDbSymbolTable
 70
     5
  0
LAYER
  5
10
330
2
100
AcDbSymbolTableRecord
100
AcDbLayerTableRecord
  2
0
 70
     0
 62
     7
  6
Continuous
370
    -3
390
F
  0
LAYER
  5
40
330
2
100
AcDbSymbolTableRecord
100
AcDbLayerTableRecord
  2
BALLON
 70
     0
 62
    -7
  6
Continuous
370
    -3
390
F
  0
LAYER
  5
41
330
2
100
AcDbSymbolTableRecord
100
AcDbLayerTableRecord
  2
SVENSKA_NOTE
 70
     0
 62
    -7
  6
Continuous
370
    -3
390
F
  0
LAYER
  5
42
330
2
100
AcDbSymbolTableRecord
100
AcDbLayerTableRecord
  2
ENGLISH_NOTE
 70
     0
 62
     7
  6
Continuous
370
    -3
390
F
  0
LAYER
  5
43
330
2
100
AcDbSymbolTableRecord
100
AcDbLayerTableRecord
  2
FORMAT
 70
     0
 62
     7
  6
Continuous
370
    -3
390
F
  0
ENDTAB
  0
TABLE
  2
STYLE
  5
3
330
0
100
AcDbSymbolTable
 70
     5
  0
STYLE
  5
11
330
3
100
AcDbSymbolTableRecord
100
AcDbTextStyleTableRecord
  2
Standard
 70
     0
 40
0.0
 41
1.0
 50
0.0
 71
     0
 42
2.5
  3
txt
  4

  0
STYLE
  5
79
330
3
100
AcDbSymbolTableRecord
100
AcDbTextStyleTableRecord
  2
SLDTEXTSTYLE0
 70
     0
 40
0.0
 41
0.75
 50
0.0
 71
     0
 42
0.2
  3
TXT
  4

  0
STYLE
  5
AE
330
3
100
AcDbSymbolTableRecord
100
AcDbTextStyleTableRecord
  2
SLDTEXTSTYLE1
 70
     0
 40
0.0
 41
0.6911764706
 50
0.0
 71
     0
 42
0.2
  3
TXT
  4

  0
STYLE
  5
B0
330
3
100
AcDbSymbolTableRecord
100
AcDbTextStyleTableRecord
  2
SLDTEXTSTYLE2
 70
     0
 40
0.0
 41
0.7
 50
0.0
 71
     0
 42
0.2
  3
TXT
  4

  0
STYLE
  5
BB
330
3
100
AcDbSymbolTableRecord
100
AcDbTextStyleTableRecord
  2
SLDTEXTSTYLE3
 70
     0
 40
0.0
 41
0.6875
 50
0.0
 71
     0
 42
0.2
  3
TXT
  4

  0
ENDTAB
  0
TABLE
  2
VIEW
  5
6
330
0
100
AcDbSymbolTable
 70
     0
  0
ENDTAB
  0
TABLE
  2
UCS
  5
7
330
0
100
AcDbSymbolTable
 70
     0
  0
ENDTAB
  0
TABLE
  2
APPID
  5
9
330
0
100
AcDbSymbolTable
 70
     1
  0
APPID
  5
12
330
9
100
AcDbSymbolTableRecord
100
AcDbRegAppTableRecord
  2
ACAD
 70
     0
  0
ENDTAB
  0
TABLE
  2
DIMSTYLE
  5
A
330
0
100
AcDbSymbolTable
 70
     4
100
AcDbDimStyleTable
  0
DIMSTYLE
105
27
330
A
100
AcDbSymbolTableRecord
100
AcDbDimStyleTableRecord
  2
ISO-25
 70
     0
 41
2.5
 42
0.625
 43
3.75
 44
1.25
 73
     0
 74
     0
 77
     1
 78
     8
140
2.5
141
2.5
143
0.0393700787
147
0.625
171
     3
172
     1
271
     2
272
     2
274
     3
278
    44
283
     0
284
     8
340
11
  0
DIMSTYLE
105
284
102
{ACAD_REACTORS
330
283
330
291
330
2B3
330
2BF
330
2CB
102
}
330
A
100
AcDbSymbolTableRecord
100
AcDbDimStyleTableRecord
  2
SLDDIMSTYLE0
 70
     0
 41
5.0
 44
0.0
 45
0.000000001
 73
     0
 77
     1
 78
    12
140
3.5
147
0.875
173
     1
271
     2
272
     2
284
    12
340
79
  0
DIMSTYLE
105
29F
102
{ACAD_REACTORS
330
29E
330
2A9
102
}
330
A
100
AcDbSymbolTableRecord
100
AcDbDimStyleTableRecord
  2
SLDDIMSTYLE1
 70
     0
 41
5.0
 44
0.0
 45
0.000000001
 73
     0
 77
     1
 78
    12
140
3.5
147
0.875
173
     1
271
     2
272
     2
284
    12
340
79
  0
DIMSTYLE
105
310
330
A
100
AcDbSymbolTableRecord
100
AcDbDimStyleTableRecord
  2
SLDDIMSTYLE2
 70
     0
 41
5.0
 44
0.0
 45
0.000000001
140
0.0
146
5.0
147
0.0
173
     1
271
     0
272
     0
340
11
  0
ENDTAB
  0
TABLE
  2
BLOCK_RECORD
  5
1
330
0
100
AcDbSymbolTable
 70
    15
  0
BLOCK_RECORD
  5
1F
330
1
100
AcDbSymbolTableRecord
100
AcDbBlockTableRecord
  2
*Model_Space
340
22
  0
BLOCK_RECORD
  5
1B
330
1
100
AcDbSymbolTableRecord
100
AcDbBlockTableRecord
  2
*Paper_Space
340
1E
  0
BLOCK_RECORD
  5
23
330
1
100
AcDbSymbolTableRecord
100
AcDbBlockTableRecord
  2
*Paper_Space0
340
26
  0
BLOCK_RECORD
  5
AA
330
1
100
AcDbSymbolTableRecord
100
AcDbBlockTableRecord
  2
SW_NOTE_0
340
0
102
{BLKREFS
331
B2
102
}
  0
BLOCK_RECORD
  5
B3
330
1
100
AcDbSymbolTableRecord
100
AcDbBlockTableRecord
  2
SW_NOTE_1
340
0
102
{BLKREFS
331
B9
102
}
  0
BLOCK_RECORD
  5
C2
330
1
100
AcDbSymbolTableRecord
100
AcDbBlockTableRecord
  2
SW_TABLEANNOTATION_0
340
0
102
{BLKREFS
331
D2
102
}
  0
BLOCK_RECORD
  5
285
330
1
100
AcDbSymbolTableRecord
100
AcDbBlockTableRecord
  2
*D4
340
0
  0
BLOCK_RECORD
  5
292
330
1
100
AcDbSymbolTableRecord
100
AcDbBlockTableRecord
  2
*D5
340
0
  0
BLOCK_RECORD
  5
2A0
330
1
100
AcDbSymbolTableRecord
100
AcDbBlockTableRecord
  2
*D6
340
0
  0
BLOCK_RECORD
  5
2AA
330
1
100
AcDbSymbolTableRecord
100
AcDbBlockTableRecord
  2
*D7
340
0
  0
BLOCK_RECORD
  5
2B4
330
1
100
AcDbSymbolTableRecord
100
AcDbBlockTableRecord
  2
*D8
340
0
  0
BLOCK_RECORD
  5
2C0
330
1
100
AcDbSymbolTableRecord
100
AcDbBlockTableRecord
  2
*D9
340
0
  0
BLOCK_RECORD
  5
2CC
330
1
100
AcDbSymbolTableRecord
100
AcDbBlockTableRecord
  2
*D10
340
0
  0
BLOCK_RECORD
  5
2D7
330
1
100
AcDbSymbolTableRecord
100
AcDbBlockTableRecord
  2
SW_NOTE_2
340
0
102
{BLKREFS
331
2DC
102
}
  0
BLOCK_RECORD
  5
2DD
330
1
100
AcDbSymbolTableRecord
100
AcDbBlockTableRecord
  2
SW_NOTE_3
340
0
102
{BLKREFS
331
2E4
102
}
  0
BLOCK_RECORD
  5
30B
330
1
100
AcDbSymbolTableRecord
100
AcDbBlockTableRecord
  2
SW_NOTE_4
340
0
102
{BLKREFS
331
30F
102
}
  0
BLOCK_RECORD
  5
312
330
1
100
AcDbSymbolTableRecord
100
AcDbBlockTableRecord
  2
SW_NOTE_5
340
0
102
{BLKREFS
331
316
102
}
  0
ENDTAB
  0
ENDSEC
  0
SECTION
  2
BLOCKS
  0
BLOCK
  5
20
330
1F
100
AcDbEntity
  8
0
100
AcDbBlockBegin
  2
*Model_Space
 70
     0
 10
0.0
 20
0.0
 30
0.0
  3
*Model_Space
  1

  0
ENDBLK
  5
21
330
1F
100
AcDbEntity
  8
0
100
AcDbBlockEnd
  0
BLOCK
  5
1C
330
1B
100
AcDbEntity
 67
     1
  8
0
100
AcDbBlockBegin
  2
*Paper_Space
 70
     0
 10
0.0
 20
0.0
 30
0.0
  3
*Paper_Space
  1

  0
ENDBLK
  5
1D
330
1B
100
AcDbEntity
 67
     1
  8
0
100
AcDbBlockEnd
  0
BLOCK
  5
24
330
23
100
AcDbEntity
  8
0
100
AcDbBlockBegin
  2
*Paper_Space0
 70
     0
 10
0.0
 20
0.0
 30
0.0
  3
*Paper_Space0
  1

  0
ENDBLK
  5
25
330
23
100
AcDbEntity
  8
0
100
AcDbBlockEnd
  0
BLOCK
  5
AB
330
AA
100
AcDbEntity
  8
0
100
AcDbBlockBegin
  2
SW_NOTE_0
 70
     0
 10
0.0
 20
0.0
 30
0.0
  3
SW_NOTE_0
  1

  0
MTEXT
  5
AD
330
AA
100
AcDbEntity
  8
0
  6
Continuous
 62
     0
370
     0
100
AcDbMText
 10
0.0
 20
1.9819416499
 30
0.0
 40
1.5375
 41
0.0
 71
     1
 72
     1
  1
Tel 
  7
SLDTEXTSTYLE0
 73
     1
 44
1.0
  0
MTEXT
  5
AF
330
AA
100
AcDbEntity
  8
0
  6
Continuous
 62
     0
370
     0
100
AcDbMText
 10
3.1855078414
 20
1.9819416499
 30
0.0
 40
1.5375
 41
0.0
 71
     1
 72
     1
  1
: +46 31 733 3000
  7
SLDTEXTSTYLE1
 73
     1
 44
1.0
  0
MTEXT
  5
B1
330
AA
100
AcDbEntity
  8
0
  6
Continuous
 62
     0
370
     0
100
AcDbMText
 10
0.0
 20
-0.5555584633
 30
0.0
 40
1.5375
 41
0.0
 71
     1
 72
     1
  1
Fax: +46 31 703 4045
  7
SLDTEXTSTYLE2
 73
     1
 44
1.0
  0
ENDBLK
  5
AC
330
AA
100
AcDbEntity
  8
0
100
AcDbBlockEnd
  0
BLOCK
  5
B4
330
B3
100
AcDbEntity
  8
0
100
AcDbBlockBegin
  2
SW_NOTE_1
 70
     0
 10
0.0
 20
0.0
 30
0.0
  3
SW_NOTE_1
  1

  0
MTEXT
  5
B6
330
B3
100
AcDbEntity
  8
0
  6
Continuous
 62
     0
370
     0
100
AcDbMText
 10
0.0
 20
1.9819416499
 30
0.0
 40
1.5375
 41
0.0
 71
     1
 72
     1
  1
Sweden AB
  7
SLDTEXTSTYLE0
 73
     1
 44
1.0
  0
MTEXT
  5
B7
330
B3
100
AcDbEntity
  8
0
  6
Continuous
 62
     0
370
     0
100
AcDbMText
 10
0.0
 20
-0.5555584633
 30
0.0
 40
1.5375
 41
0.0
 71
     1
 72
     1
  1
Box 14194
  7
SLDTEXTSTYLE0
 73
     1
 44
1.0
  0
MTEXT
  5
B8
330
B3
100
AcDbEntity
  8
0
  6
Continuous
 62
     0
370
     0
100
AcDbMText
 10
0.0
 20
-3.0930585766
 30
0.0
 40
1.5375
 41
0.0
 71
     1
 72
     1
  1
SE-400 20 Göteborg
  7
SLDTEXTSTYLE0
 73
     1
 44
1.0
  0
ENDBLK
  5
B5
330
B3
100
AcDbEntity
  8
0
100
AcDbBlockEnd
  0
BLOCK
  5
C3
330
C2
100
AcDbEntity
  8
0
100
AcDbBlockBegin
  2
SW_TABLEANNOTATION_0
 70
     0
 10
0.0
 20
0.0
 30
0.0
  3
SW_TABLEANNOTATION_0
  1

  0
LINE
  5
C5
330
C2
100
AcDbEntity
  8
0
  6
Continuous
 62
     0
370
     0
100
AcDbLine
 10
0.0
 20
0.0
 30
0.0
 11
0.0
 21
-5.0
 31
0.0
  0
LINE
  5
C6
330
C2
100
AcDbEntity
  8
0
  6
Continuous
 62
     0
370
     0
100
AcDbLine
 10
0.0
 20
-5.0
 30
0.0
 11
160.2820702528
 21
-5.0
 31
0.0
  0
LINE
  5
C7
330
C2
100
AcDbEntity
  8
0
  6
Continuous
 62
     0
370
     0
100
AcDbLine
 10
160.2820702528
 20
-5.0
 30
0.0
 11
160.2820702528
 21
0.0
 31
0.0
  0
LINE
  5
C8
330
C2
100
AcDbEntity
  8
0
  6
Continuous
 62
     0
370
     0
100
AcDbLine
 10
160.2820702528
 20
0.0
 30
0.0
 11
0.0
 21
0.0
 31
0.0
  0
LINE
  5
C9
330
C2
100
AcDbEntity
  8
0
  6
Continuous
 62
     0
370
     0
100
AcDbLine
 10
7.8820702528
 20
0.0
 30
0.0
 11
7.8820702528
 21
-5.0
 31
0.0
  0
LINE
  5
CA
330
C2
100
AcDbEntity
  8
0
  6
Continuous
 62
     0
370
     0
100
AcDbLine
 10
113.3799122782
 20
0.0
 30
0.0
 11
113.3799122782
 21
-5.0
 31
0.0
  0
LINE
  5
CB
330
C2
100
AcDbEntity
  8
0
  6
Continuous
 62
     0
370
     0
100
AcDbLine
 10
128.6199122782
 20
0.0
 30
0.0
 11
128.6199122782
 21
-5.0
 31
0.0
  0
LINE
  5
CC
330
C2
100
AcDbEntity
  8
0
  6
Continuous
 62
     0
370
     0
100
AcDbLine
 10
145.5956353769
 20
0.0
 30
0.0
 11
145.5956353769
 21
-5.0
 31
0.0
  0
MTEXT
  5
CD
330
C2
100
AcDbEntity
  8
0
  6
Continuous
 62
     0
370
     0
100
AcDbMText
 10
0.9953405196
 20
-1.1825844946
 30
0.0
 40
2.1166666667
 41
0.0
 71
     1
 72
     1
  1
Rev.
  7
SLDTEXTSTYLE0
 73
     1
 44
1.0
  0
MTEXT
  5
CE
330
C2
100
AcDbEntity
  8
0
  6
Continuous
 62
     0
370
     0
100
AcDbMText
 10
52.9894327301
 20
-1.1825844946
 30
0.0
 40
2.1166666667
 41
0.0
 71
     1
 72
     1
  1
Description
  7
SLDTEXTSTYLE0
 73
     1
 44
1.0
  0
MTEXT
  5
CF
330
C2
100
AcDbEntity
  8
0
  6
Continuous
 62
     0
370
     0
100
AcDbMText
 10
116.5274740322
 20
-1.1825844946
 30
0.0
 40
2.1166666667
 41
0.0
 71
     1
 72
     1
  1
Drawn
  7
SLDTEXTSTYLE0
 73
     1
 44
1.0
  0
MTEXT
  5
D0
330
C2
100
AcDbEntity
  8
0
  6
Continuous
 62
     0
370
     0
100
AcDbMText
 10
133.697588606
 20
-1.1825844946
 30
0.0
 40
2.1166666667
 41
0.0
 71
     1
 72
     1
  1
Date
  7
SLDTEXTSTYLE0
 73
     1
 44
1.0
  0
MTEXT
  5
D1
330
C2
100
AcDbEntity
  8
0
  6
Continuous
 62
     0
370
     0
100
AcDbMText
 10
149.154331332
 20
-1.1825844946
 30
0.0
 40
2.1166666667
 41
0.0
 71
     1
 72
     1
  1
Appr.
  7
SLDTEXTSTYLE0
 73
     1
 44
1.0
  0
ENDBLK
  5
C4
330
C2
100
AcDbEntity
  8
0
100
AcDbBlockEnd
  0
BLOCK
  5
286
330
285
100
AcDbEntity
  8
0
100
AcDbBlockBegin
  2
*D4
 70
     1
 10
0.0
 20
0.0
 30
0.0
  3
*D4
  1

  0
SOLID
  5
288
330
285
100
AcDbEntity
  8
0
  6
Continuous
 62
     7
370
     0
100
AcDbTrace
 10
54.5022048197
 20
126.7641083542
 30
0.0
 11
55.4022048197
 21
131.7641083542
 31
0.0
 12
53.6022048197
 22
131.7641083542
 32
0.0
 13
53.6022048197
 23
131.7641083542
 33
0.0
  0
SOLID
  5
289
330
285
100
AcDbEntity
  8
0
  6
Continuous
 62
     7
370
     0
100
AcDbTrace
 10
54.5022048197
 20
101.3641083542
 30
0.0
 11
53.6022048197
 21
96.3641083542
 31
0.0
 12
55.4022048197
 22
96.3641083542
 32
0.0
 13
55.4022048197
 23
96.3641083542
 33
0.0
  0
LINE
  5
28A
330
285
100
AcDbEntity
  8
0
  6
Continuous
 62
     7
370
     0
100
AcDbLine
 10
83.7701194053
 20
126.7641083542
 30
0.0
 11
53.5022048197
 21
126.7641083542
 31
0.0
  0
LINE
  5
28B
330
285
100
AcDbEntity
  8
0
  6
Continuous
 62
     7
370
     0
100
AcDbLine
 10
83.7701194053
 20
101.3641083542
 30
0.0
 11
53.5022048197
 21
101.3641083542
 31
0.0
  0
LINE
  5
28C
330
285
100
AcDbEntity
  8
0
  6
Continuous
 62
     7
370
     0
100
AcDbLine
 10
54.5022048197
 20
126.7641083542
 30
0.0
 11
54.5022048197
 21
136.7641083542
 31
0.0
  0
LINE
  5
28D
330
285
100
AcDbEntity
  8
0
  6
Continuous
 62
     7
370
     0
100
AcDbLine
 10
54.5022048197
 20
126.7641083542
 30
0.0
 11
54.5022048197
 21
101.3641083542
 31
0.0
  0
LINE
  5
28E
330
285
100
AcDbEntity
  8
0
  6
Continuous
 62
     7
370
     0
100
AcDbLine
 10
54.5022048197
 20
101.3641083542
 30
0.0
 11
54.5022048197
 21
91.3641083542
 31
0.0
  0
MTEXT
  5
28F
330
285
100
AcDbEntity
  8
0
  6
Continuous
 62
     7
370
     0
100
AcDbMText
 10
49.9904677305
 20
106.900558128
 30
0.0
 40
3.5
 41
0.0
 71
     1
 72
     1
  1
%%c
  7
SLDTEXTSTYLE0
 11
-7.044195017643634E-15
 21
1.0
 31
0.0
 73
     1
 44
1.0
  0
MTEXT
  5
290
330
285
100
AcDbEntity
  8
0
  6
Continuous
 62
     7
370
     0
100
AcDbMText
 10
49.9904679051
 20
112.1774475588
 30
0.0
 40
3.5
 41
0.0
 71
     1
 72
     1
  1
25,4
  7
SLDTEXTSTYLE0
 11
-7.044195017643634E-15
 21
1.0
 31
0.0
 73
     1
 44
1.0
  0
ENDBLK
  5
287
330
285
100
AcDbEntity
  8
0
100
AcDbBlockEnd
  0
BLOCK
  5
293
330
292
100
AcDbEntity
  8
0
100
AcDbBlockBegin
  2
*D5
 70
     1
 10
0.0
 20
0.0
 30
0.0
  3
*D5
  1

  0
SOLID
  5
295
330
292
100
AcDbEntity
  8
0
  6
Continuous
 62
     7
370
     0
100
AcDbTrace
 10
60.1971194053
 20
125.8751083542
 30
0.0
 11
61.0971194053
 21
130.8751083542
 31
0.0
 12
59.2971194053
 22
130.8751083542
 32
0.0
 13
59.2971194053
 23
130.8751083542
 33
0.0
  0
SOLID
  5
296
330
292
100
AcDbEntity
  8
0
  6
Continuous
 62
     7
370
     0
100
AcDbTrace
 10
60.1971194053
 20
102.2531083542
 30
0.0
 11
59.2971194053
 21
97.2531083542
 31
0.0
 12
61.0971194053
 22
97.2531083542
 32
0.0
 13
61.0971194053
 23
97.2531083542
 33
0.0
  0
LINE
  5
297
330
292
100
AcDbEntity
  8
0
  6
Continuous
 62
     7
370
     0
100
AcDbLine
 10
89.3581194053
 20
125.8751083542
 30
0.0
 11
59.1971194053
 21
125.8751083542
 31
0.0
  0
LINE
  5
298
330
292
100
AcDbEntity
  8
0
  6
Continuous
 62
     7
370
     0
100
AcDbLine
 10
89.3581194053
 20
102.2531083542
 30
0.0
 11
59.1971194053
 21
102.2531083542
 31
0.0
  0
LINE
  5
299
330
292
100
AcDbEntity
  8
0
  6
Continuous
 62
     7
370
     0
100
AcDbLine
 10
60.1971194053
 20
125.8751083542
 30
0.0
 11
60.1971194053
 21
135.8751083542
 31
0.0
  0
LINE
  5
29A
330
292
100
AcDbEntity
  8
0
  6
Continuous
 62
     7
370
     0
100
AcDbLine
 10
60.1971194053
 20
125.8751083542
 30
0.0
 11
60.1971194053
 21
102.2531083542
 31
0.0
  0
LINE
  5
29B
330
292
100
AcDbEntity
  8
0
  6
Continuous
 62
     7
370
     0
100
AcDbLine
 10
60.1971194053
 20
102.2531083542
 30
0.0
 11
60.1971194053
 21
92.2531083542
 31
0.0
  0
MTEXT
  5
29C
330
292
100
AcDbEntity
  8
0
  6
Continuous
 62
     7
370
     0
100
AcDbMText
 10
55.6853823161
 20
105.6072593538
 30
0.0
 40
3.5
 41
0.0
 71
     1
 72
     1
  1
%%c
  7
SLDTEXTSTYLE0
 11
-7.044195017643634E-15
 21
1.0
 31
0.0
 73
     1
 44
1.0
  0
MTEXT
  5
29D
330
292
100
AcDbEntity
  8
0
  6
Continuous
 62
     7
370
     0
100
AcDbMText
 10
55.6853824907
 20
110.8841487845
 30
0.0
 40
3.5
 41
0.0
 71
     1
 72
     1
  1
23,62
  7
SLDTEXTSTYLE0
 11
-7.044195017643634E-15
 21
1.0
 31
0.0
 73
     1
 44
1.0
  0
ENDBLK
  5
294
330
292
100
AcDbEntity
  8
0
100
AcDbBlockEnd
  0
BLOCK
  5
2A1
330
2A0
100
AcDbEntity
  8
0
100
AcDbBlockBegin
  2
*D6
 70
     1
 10
0.0
 20
0.0
 30
0.0
  3
*D6
  1

  0
SOLID
  5
2A3
330
2A0
100
AcDbEntity
  8
0
  6
Continuous
 62
     7
370
     0
100
AcDbTrace
 10
72.1971194053
 20
159.1862462064
 30
0.0
 11
77.1971194053
 21
158.2862462064
 31
0.0
 12
77.1971194053
 22
160.0862462064
 32
0.0
 13
77.1971194053
 23
160.0862462064
 33
0.0
  0
SOLID
  5
2A4
330
2A0
100
AcDbEntity
  8
0
  6
Continuous
 62
     7
370
     0
100
AcDbTrace
 10
137.2211194053
 20
159.1862462064
 30
0.0
 11
132.2211194053
 21
160.0862462064
 31
0.0
 12
132.2211194053
 22
158.2862462064
 32
0.0
 13
132.2211194053
 23
158.2862462064
 33
0.0
  0
LINE
  5
2A5
330
2A0
100
AcDbEntity
  8
0
  6
Continuous
 62
     7
370
     0
100
AcDbLine
 10
72.1971194053
 20
123.9541083542
 30
0.0
 11
72.1971194053
 21
160.1862462064
 31
0.0
  0
LINE
  5
2A6
330
2A0
100
AcDbEntity
  8
0
  6
Continuous
 62
     7
370
     0
100
AcDbLine
 10
137.2211194053
 20
123.1286083542
 30
0.0
 11
137.2211194053
 21
160.1862462064
 31
0.0
  0
LINE
  5
2A7
330
2A0
100
AcDbEntity
  8
0
  6
Continuous
 62
     7
370
     0
100
AcDbLine
 10
72.1971194053
 20
159.1862462064
 30
0.0
 11
137.2211194053
 21
159.1862462064
 31
0.0
  0
MTEXT
  5
2A8
330
2A0
100
AcDbEntity
  8
0
  6
Continuous
 62
     7
370
     0
100
AcDbMText
 10
98.8907151202
 20
163.697983121
 30
0.0
 40
3.5
 41
0.0
 71
     1
 72
     1
  1
65,02
  7
SLDTEXTSTYLE0
 73
     1
 44
1.0
  0
ENDBLK
  5
2A2
330
2A0
100
AcDbEntity
  8
0
100
AcDbBlockEnd
  0
BLOCK
  5
2AB
330
2AA
100
AcDbEntity
  8
0
100
AcDbBlockBegin
  2
*D7
 70
     1
 10
0.0
 20
0.0
 30
0.0
  3
*D7
  1

  0
SOLID
  5
2AD
330
2AA
100
AcDbEntity
  8
0
  6
Continuous
 62
     7
370
     0
100
AcDbTrace
 10
72.1971194053
 20
173.3208691674
 30
0.0
 11
77.1971194053
 21
172.4208691674
 31
0.0
 12
77.1971194053
 22
174.2208691674
 32
0.0
 13
77.1971194053
 23
174.2208691674
 33
0.0
  0
SOLID
  5
2AE
330
2AA
100
AcDbEntity
  8
0
  6
Continuous
 62
     7
370
     0
100
AcDbTrace
 10
146.7161194053
 20
173.3208691674
 30
0.0
 11
141.7161194053
 21
174.2208691674
 31
0.0
 12
141.7161194053
 22
172.4208691674
 32
0.0
 13
141.7161194053
 23
172.4208691674
 33
0.0
  0
LINE
  5
2AF
330
2AA
100
AcDbEntity
  8
0
  6
Continuous
 62
     7
370
     0
100
AcDbLine
 10
72.1971194053
 20
123.9541083542
 30
0.0
 11
72.1971194053
 21
174.3208691674
 31
0.0
  0
LINE
  5
2B0
330
2AA
100
AcDbEntity
  8
0
  6
Continuous
 62
     7
370
     0
100
AcDbLine
 10
146.7161194053
 20
117.6041083542
 30
0.0
 11
146.7161194053
 21
174.3208691674
 31
0.0
  0
LINE
  5
2B1
330
2AA
100
AcDbEntity
  8
0
  6
Continuous
 62
     7
370
     0
100
AcDbLine
 10
72.1971194053
 20
173.3208691674
 30
0.0
 11
146.7161194053
 21
173.3208691674
 31
0.0
  0
MTEXT
  5
2B2
330
2AA
100
AcDbEntity
  8
0
  6
Continuous
 62
     7
370
     0
100
AcDbMText
 10
103.6382151202
 20
177.832606082
 30
0.0
 40
3.5
 41
0.0
 71
     1
 72
     1
  1
74,52
  7
SLDTEXTSTYLE0
 73
     1
 44
1.0
  0
ENDBLK
  5
2AC
330
2AA
100
AcDbEntity
  8
0
100
AcDbBlockEnd
  0
BLOCK
  5
2B5
330
2B4
100
AcDbEntity
  8
0
100
AcDbBlockBegin
  2
*D8
 70
     1
 10
0.0
 20
0.0
 30
0.0
  3
*D8
  1

  0
SOLID
  5
2B7
330
2B4
100
AcDbEntity
  8
0
  6
Continuous
 62
     7
370
     0
100
AcDbTrace
 10
84.7701194053
 20
88.6527895892
 30
0.0
 11
79.7701194053
 21
89.5527895892
 31
0.0
 12
79.7701194053
 22
87.7527895892
 32
0.0
 13
79.7701194053
 23
87.7527895892
 33
0.0
  0
SOLID
  5
2B8
330
2B4
100
AcDbEntity
  8
0
  6
Continuous
 62
     7
370
     0
100
AcDbTrace
 10
90.3581194053
 20
88.6527895892
 30
0.0
 11
95.3581194053
 21
87.7527895892
 31
0.0
 12
95.3581194053
 22
89.5527895892
 32
0.0
 13
95.3581194053
 23
89.5527895892
 33
0.0
  0
LINE
  5
2B9
330
2B4
100
AcDbEntity
  8
0
  6
Continuous
 62
     7
370
     0
100
AcDbLine
 10
84.7701194053
 20
100.3641083542
 30
0.0
 11
84.7701194053
 21
87.6527895892
 31
0.0
  0
LINE
  5
2BA
330
2B4
100
AcDbEntity
  8
0
  6
Continuous
 62
     7
370
     0
100
AcDbLine
 10
90.3581194053
 20
100.3641083542
 30
0.0
 11
90.3581194053
 21
87.6527895892
 31
0.0
  0
LINE
  5
2BB
330
2B4
100
AcDbEntity
  8
0
  6
Continuous
 62
     7
370
     0
100
AcDbLine
 10
84.7701194053
 20
88.6527895892
 30
0.0
 11
74.7701194053
 21
88.6527895892
 31
0.0
  0
LINE
  5
2BC
330
2B4
100
AcDbEntity
  8
0
  6
Continuous
 62
     7
370
     0
100
AcDbLine
 10
84.7701194053
 20
88.6527895892
 30
0.0
 11
90.3581194053
 21
88.6527895892
 31
0.0
  0
LINE
  5
2BD
330
2B4
100
AcDbEntity
  8
0
  6
Continuous
 62
     7
370
     0
100
AcDbLine
 10
90.3581194053
 20
88.6527895892
 30
0.0
 11
107.3985308077
 21
88.6527895892
 31
0.0
  0
MTEXT
  5
2BE
330
2B4
100
AcDbEntity
  8
0
  6
Continuous
 62
     7
370
     0
100
AcDbMText
 10
96.7608197861
 20
93.1645265038
 30
0.0
 40
3.5
 41
0.0
 71
     1
 72
     1
  1
5,59
  7
SLDTEXTSTYLE0
 73
     1
 44
1.0
  0
ENDBLK
  5
2B6
330
2B4
100
AcDbEntity
  8
0
100
AcDbBlockEnd
  0
BLOCK
  5
2C1
330
2C0
100
AcDbEntity
  8
0
100
AcDbBlockBegin
  2
*D9
 70
     1
 10
0.0
 20
0.0
 30
0.0
  3
*D9
  1

  0
SOLID
  5
2C3
330
2C0
100
AcDbEntity
  8
0
  6
Continuous
 62
     7
370
     0
100
AcDbTrace
 10
84.7701194053
 20
81.3430706341
 30
0.0
 11
79.7701194053
 21
82.2430706341
 31
0.0
 12
79.7701194053
 22
80.4430706341
 32
0.0
 13
79.7701194053
 23
80.4430706341
 33
0.0
  0
SOLID
  5
2C4
330
2C0
100
AcDbEntity
  8
0
  6
Continuous
 62
     7
370
     0
100
AcDbTrace
 10
112.2021194053
 20
81.3430706341
 30
0.0
 11
117.2021194053
 21
80.4430706341
 31
0.0
 12
117.2021194053
 22
82.2430706341
 32
0.0
 13
117.2021194053
 23
82.2430706341
 33
0.0
  0
LINE
  5
2C5
330
2C0
100
AcDbEntity
  8
0
  6
Continuous
 62
     7
370
     0
100
AcDbLine
 10
84.7701194053
 20
100.3641083542
 30
0.0
 11
84.7701194053
 21
80.3430706341
 31
0.0
  0
LINE
  5
2C6
330
2C0
100
AcDbEntity
  8
0
  6
Continuous
 62
     7
370
     0
100
AcDbLine
 10
112.2021194053
 20
101.3801083542
 30
0.0
 11
112.2021194053
 21
80.3430706341
 31
0.0
  0
LINE
  5
2C7
330
2C0
100
AcDbEntity
  8
0
  6
Continuous
 62
     7
370
     0
100
AcDbLine
 10
84.7701194053
 20
81.3430706341
 30
0.0
 11
74.7701194053
 21
81.3430706341
 31
0.0
  0
LINE
  5
2C8
330
2C0
100
AcDbEntity
  8
0
  6
Continuous
 62
     7
370
     0
100
AcDbLine
 10
84.7701194053
 20
81.3430706341
 30
0.0
 11
112.2021194053
 21
81.3430706341
 31
0.0
  0
LINE
  5
2C9
330
2C0
100
AcDbEntity
  8
0
  6
Continuous
 62
     7
370
     0
100
AcDbLine
 10
112.2021194053
 20
81.3430706341
 30
0.0
 11
122.2021194053
 21
81.3430706341
 31
0.0
  0
MTEXT
  5
2CA
330
2C0
100
AcDbEntity
  8
0
  6
Continuous
 62
     7
370
     0
100
AcDbMText
 10
92.6677151202
 20
85.8548075487
 30
0.0
 40
3.5
 41
0.0
 71
     1
 72
     1
  1
27,43
  7
SLDTEXTSTYLE0
 73
     1
 44
1.0
  0
ENDBLK
  5
2C2
330
2C0
100
AcDbEntity
  8
0
100
AcDbBlockEnd
  0
BLOCK
  5
2CD
330
2CC
100
AcDbEntity
  8
0
100
AcDbBlockBegin
  2
*D10
 70
     1
 10
0.0
 20
0.0
 30
0.0
  3
*D10
  1

  0
SOLID
  5
2CF
330
2CC
100
AcDbEntity
  8
0
  6
Continuous
 62
     7
370
     0
100
AcDbTrace
 10
98.1051194053
 20
149.1862462064
 30
0.0
 11
103.1051194053
 21
148.2862462064
 31
0.0
 12
103.1051194053
 22
150.0862462064
 32
0.0
 13
103.1051194053
 23
150.0862462064
 33
0.0
  0
SOLID
  5
2D0
330
2CC
100
AcDbEntity
  8
0
  6
Continuous
 62
     7
370
     0
100
AcDbTrace
 10
72.1971194053
 20
149.1862462064
 30
0.0
 11
67.1971194053
 21
150.0862462064
 31
0.0
 12
67.1971194053
 22
148.2862462064
 32
0.0
 13
67.1971194053
 23
148.2862462064
 33
0.0
  0
LINE
  5
2D1
330
2CC
100
AcDbEntity
  8
0
  6
Continuous
 62
     7
370
     0
100
AcDbLine
 10
98.1051194053
 20
126.6211083542
 30
0.0
 11
98.1051194053
 21
150.1862462064
 31
0.0
  0
LINE
  5
2D2
330
2CC
100
AcDbEntity
  8
0
  6
Continuous
 62
     7
370
     0
100
AcDbLine
 10
72.1971194053
 20
123.9541083542
 30
0.0
 11
72.1971194053
 21
150.1862462064
 31
0.0
  0
LINE
  5
2D3
330
2CC
100
AcDbEntity
  8
0
  6
Continuous
 62
     7
370
     0
100
AcDbLine
 10
98.1051194053
 20
149.1862462064
 30
0.0
 11
108.1051194053
 21
149.1862462064
 31
0.0
  0
LINE
  5
2D4
330
2CC
100
AcDbEntity
  8
0
  6
Continuous
 62
     7
370
     0
100
AcDbLine
 10
98.1051194053
 20
149.1862462064
 30
0.0
 11
72.1971194053
 21
149.1862462064
 31
0.0
  0
LINE
  5
2D5
330
2CC
100
AcDbEntity
  8
0
  6
Continuous
 62
     7
370
     0
100
AcDbLine
 10
72.1971194053
 20
149.1862462064
 30
0.0
 11
62.1971194053
 21
149.1862462064
 31
0.0
  0
MTEXT
  5
2D6
330
2CC
100
AcDbEntity
  8
0
  6
Continuous
 62
     7
370
     0
100
AcDbMText
 10
79.3327151202
 20
153.697983121
 30
0.0
 40
3.5
 41
0.0
 71
     1
 72
     1
  1
25,91
  7
SLDTEXTSTYLE0
 73
     1
 44
1.0
  0
ENDBLK
  5
2CE
330
2CC
100
AcDbEntity
  8
0
100
AcDbBlockEnd
  0
BLOCK
  5
2D8
330
2D7
100
AcDbEntity
  8
0
100
AcDbBlockBegin
  2
SW_NOTE_2
 70
     0
 10
0.0
 20
0.0
 30
0.0
  3
SW_NOTE_2
  1

  0
MTEXT
  5
2DA
330
2D7
100
AcDbEntity
  8
0
  6
Continuous
 62
     0
370
     0
100
AcDbMText
 10
0.0
 20
4.5117370892
 30
0.0
 40
3.5
 41
0.0
 71
     1
 72
     1
  1
RAMP IN
  7
SLDTEXTSTYLE0
 73
     1
 44
1.0
  0
MTEXT
  5
2DB
330
2D7
100
AcDbEntity
  8
0
  6
Continuous
 62
     0
370
     0
100
AcDbMText
 10
0.0
 20
-0.0139574413
 30
0.0
 40
3.5
 41
0.0
 71
     1
 72
     1
  1
150V MAX
  7
SLDTEXTSTYLE0
 73
     1
 44
1.0
  0
ENDBLK
  5
2D9
330
2D7
100
AcDbEntity
  8
0
100
AcDbBlockEnd
  0
BLOCK
  5
2DE
330
2DD
100
AcDbEntity
  8
0
100
AcDbBlockBegin
  2
SW_NOTE_3
 70
     0
 10
0.0
 20
0.0
 30
0.0
  3
SW_NOTE_3
  1

  0
MTEXT
  5
2E0
330
2DD
100
AcDbEntity
  8
0
  6
Continuous
 62
     0
370
     0
100
AcDbMText
 10
0.0
 20
4.5117370892
 30
0.0
 40
3.5
 41
0.0
 71
     1
 72
     1
  1
SMA OUTPUT
  7
SLDTEXTSTYLE0
 73
     1
 44
1.0
  0
MTEXT
  5
2E1
330
2DD
100
AcDbEntity
  8
0
  6
Continuous
 62
     0
370
     0
100
AcDbMText
 10
0.0
 20
-0.0139574413
 30
0.0
 40
3.5
 41
0.0
 71
     1
 72
     1
  1
PHOTODIODE 
  7
SLDTEXTSTYLE0
 73
     1
 44
1.0
  0
MTEXT
  5
2E2
330
2DD
100
AcDbEntity
  8
0
  6
Continuous
 62
     0
370
     0
100
AcDbMText
 10
0.0
 20
-4.5396519717
 30
0.0
 40
3.5
 41
0.0
 71
     1
 72
     1
  1
CURRENT TO
  7
SLDTEXTSTYLE0
 73
     1
 44
1.0
  0
MTEXT
  5
2E3
330
2DD
100
AcDbEntity
  8
0
  6
Continuous
 62
     0
370
     0
100
AcDbMText
 10
0.0
 20
-9.0653465022
 30
0.0
 40
3.5
 41
0.0
 71
     1
 72
     1
  1
SA201 OR SCOPE
  7
SLDTEXTSTYLE0
 73
     1
 44
1.0
  0
ENDBLK
  5
2DF
330
2DD
100
AcDbEntity
  8
0
100
AcDbBlockEnd
  0
BLOCK
  5
30C
330
30B
100
AcDbEntity
  8
0
100
AcDbBlockBegin
  2
SW_NOTE_4
 70
     0
 10
0.0
 20
0.0
 30
0.0
  3
SW_NOTE_4
  1

  0
MTEXT
  5
30E
330
30B
100
AcDbEntity
  8
0
  6
Continuous
 62
     0
370
     0
100
AcDbMText
 10
0.501899048
 20
1.7362931703
 30
0.0
 40
3.5
 41
0.0
 71
     1
 72
     1
  1
IRIS DIAPHRAGM
  7
SLDTEXTSTYLE0
 73
     1
 44
1.0
  0
ENDBLK
  5
30D
330
30B
100
AcDbEntity
  8
0
100
AcDbBlockEnd
  0
BLOCK
  5
313
330
312
100
AcDbEntity
  8
0
100
AcDbBlockBegin
  2
SW_NOTE_5
 70
     0
 10
0.0
 20
0.0
 30
0.0
  3
SW_NOTE_5
  1

  0
MTEXT
  5
315
330
312
100
AcDbEntity
  8
0
  6
Continuous
 62
     0
370
     0
100
AcDbMText
 10
-27.3714053524
 20
1.7391735685
 30
0.0
 40
3.5
 41
0.0
 71
     1
 72
     1
  1
LASER INPUT
  7
SLDTEXTSTYLE0
 73
     1
 44
1.0
  0
ENDBLK
  5
314
330
312
100
AcDbEntity
  8
0
100
AcDbBlockEnd
  0
ENDSEC
  0
SECTION
  2
ENTITIES
  0
LINE
  5
44
330
1F
100
AcDbEntity
  8
0
  6
Continuous
 62
     7
370
     0
100
AcDbLine
 10
107.0182530683
 20
45.1153862005
 30
0.0
 11
107.0182530683
 21
10.0
 31
0.0
  0
LINE
  5
45
330
1F
100
AcDbEntity
  8
0
  6
Continuous
 62
     7
370
     0
100
AcDbLine
 10
292.0
 20
55.0
 30
0.0
 11
287.0
 21
55.0
 31
0.0
  0
LINE
  5
46
330
1F
100
AcDbEntity
  8
0
  6
Continuous
 62
     7
370
     0
100
AcDbLine
 10
170.0046670861
 20
33.1057998361
 30
0.0
 11
170.0046670861
 21
45.102956869
 31
0.0
  0
LINE
  5
47
330
1F
100
AcDbEntity
  8
0
  6
Continuous
 62
     7
370
     0
100
AcDbLine
 10
214.0046761283
 20
33.0561566085
 30
0.0
 11
214.0046761283
 21
45.102956869
 31
0.0
  0
LINE
  5
48
330
1F
100
AcDbEntity
  8
0
  6
Continuous
 62
     7
370
     0
100
AcDbLine
 10
148.7917334314
 20
5.1057998361
 30
0.0
 11
148.7917334314
 21
10.1057998361
 31
0.0
  0
LINE
  5
49
330
1F
100
AcDbEntity
  8
0
  6
Continuous
 62
     7
370
     0
100
AcDbLine
 10
196.0
 20
5.0
 30
0.0
 11
196.0
 21
10.0
 31
0.0
  0
LINE
  5
4A
330
1F
100
AcDbEntity
  8
0
  6
Continuous
 62
     7
370
     0
100
AcDbLine
 10
242.0
 20
5.0
 30
0.0
 11
242.0
 21
10.0
 31
0.0
  0
LINE
  5
4B
330
1F
100
AcDbEntity
  8
0
  6
Continuous
 62
     7
370
     0
100
AcDbLine
 10
233.0046810329
 20
10.0
 30
0.0
 11
233.0046810329
 21
33.1057998361
 31
0.0
  0
LINE
  5
4C
330
1F
100
AcDbEntity
  8
0
  6
Continuous
 62
     7
370
     0
100
AcDbLine
 10
287.0046911301
 20
45.102956869
 30
0.0
 11
107.0229072113
 21
45.102956869
 31
0.0
  0
LINE
  5
4D
330
1F
100
AcDbEntity
  8
0
  6
Continuous
 62
     7
370
     0
100
AcDbLine
 10
191.0
 20
26.1057982865
 30
0.0
 11
191.0
 21
33.0
 31
0.0
  0
LINE
  5
4E
330
1F
100
AcDbEntity
  8
0
  6
Continuous
 62
     7
370
     0
100
AcDbLine
 10
170.0046670861
 20
26.1057982865
 30
0.0
 11
170.0046670861
 21
33.1057998361
 31
0.0
  0
LINE
  5
4F
330
1F
100
AcDbEntity
  8
0
  6
Continuous
 62
     7
370
     0
100
AcDbLine
 10
148.7917334314
 20
26.1057998361
 30
0.0
 11
148.7917334314
 21
33.1057998361
 31
0.0
  0
LINE
  5
50
330
1F
100
AcDbEntity
  8
0
  6
Continuous
 62
     7
370
     0
100
AcDbLine
 10
128.000070398
 20
26.1057982865
 30
0.0
 11
128.000070398
 21
33.1057998361
 31
0.0
  0
LINE
  5
51
330
1F
100
AcDbEntity
  8
0
  6
Continuous
 62
     7
370
     0
100
AcDbLine
 10
243.7383383426
 20
22.6770346626
 30
0.0
 11
235.2383383426
 21
25.1770346626
 31
0.0
  0
LINE
  5
52
330
1F
100
AcDbEntity
  8
0
  6
Continuous
 62
     7
370
     0
100
AcDbLine
 10
235.2383383426
 20
28.1770346626
 30
0.0
 11
243.7383383426
 21
30.6770346626
 31
0.0
  0
LINE
  5
53
330
1F
100
AcDbEntity
  8
0
  6
Continuous
 62
     7
370
     0
100
AcDbLine
 10
243.7383383426
 20
22.6770346626
 30
0.0
 11
243.7383383426
 21
30.6770346626
 31
0.0
  0
LINE
  5
54
330
1F
100
AcDbEntity
  8
0
  6
Continuous
 62
     7
370
     0
100
AcDbLine
 10
235.2383383426
 20
25.1770346626
 30
0.0
 11
235.2383383426
 21
28.1770346626
 31
0.0
  0
LINE
  5
55
330
1F
100
AcDbEntity
  8
0
  6
CENTERX2
 62
     7
370
     0
100
AcDbLine
 10
251.8621475508
 20
21.3501143053
 30
0.0
 11
251.8621475508
 21
31.9705574001
 31
0.0
  0
LINE
  5
56
330
1F
100
AcDbEntity
  8
0
  6
CENTERX2
 62
     7
370
     0
100
AcDbLine
 10
257.0543003255
 20
26.6770346626
 30
0.0
 11
233.8866927497
 21
26.6770346626
 31
0.0
  0
LINE
  5
57
330
1F
100
AcDbEntity
  8
0
  6
Continuous
 62
     7
370
     0
100
AcDbLine
 10
287.0046929873
 20
33.1057998361
 30
0.0
 11
107.0229062116
 21
33.1057998361
 31
0.0
  0
LINE
  5
58
330
1F
100
AcDbEntity
  8
0
  6
Continuous
 62
     7
370
     0
100
AcDbLine
 10
287.0046851705
 20
26.0843649847
 30
0.0
 11
258.0046851705
 21
26.0843649847
 31
0.0
  0
LINE
  5
59
330
1F
100
AcDbEntity
  8
0
  6
Continuous
 62
     7
370
     0
100
AcDbLine
 10
287.0046810329
 20
20.0698683267
 30
0.0
 11
233.0046810329
 21
20.0698683267
 31
0.0
  0
LINE
  5
5A
330
1F
100
AcDbEntity
  8
0
  6
Continuous
 62
     7
370
     0
100
AcDbLine
 10
258.0046851705
 20
20.0843649847
 30
0.0
 11
258.0046851705
 21
45.102956869
 31
0.0
  0
LINE
  5
5B
330
1F
100
AcDbEntity
  8
0
  6
Continuous
 62
     7
370
     0
100
AcDbLine
 10
214.0046761283
 20
26.1057982865
 30
0.0
 11
214.0046761283
 21
33.0561566085
 31
0.0
  0
LINE
  5
5C
330
1F
100
AcDbEntity
  8
0
  6
Continuous
 62
     7
370
     0
100
AcDbLine
 10
148.7917334314
 20
10.1057998361
 30
0.0
 11
148.7917334314
 21
26.1057998361
 31
0.0
  0
LINE
  5
5D
330
1F
100
AcDbEntity
  8
0
  6
Continuous
 62
     7
370
     0
100
AcDbLine
 10
233.0046810329
 20
26.1057982865
 30
0.0
 11
107.0
 21
26.1057982865
 31
0.0
  0
LINE
  5
5E
330
1F
100
AcDbEntity
  8
0
  6
Continuous
 62
     7
370
     0
100
AcDbLine
 10
287.0
 20
10.0
 30
0.0
 11
107.0182530683
 21
10.0
 31
0.0
  0
LINE
  5
5F
330
1F
100
AcDbEntity
  8
0
  6
Continuous
 62
     7
370
     0
100
AcDbLine
 10
15.0
 20
55.0
 30
0.0
 11
10.0
 21
55.0
 31
0.0
  0
LINE
  5
60
330
1F
100
AcDbEntity
  8
0
  6
Continuous
 62
     7
370
     0
100
AcDbLine
 10
296.9973499678
 20
-0.0161328448
 30
0.0
 11
296.9973499678
 21
210.0062962739
 31
0.0
  0
LINE
  5
61
330
1F
100
AcDbEntity
  8
0
  6
Continuous
 62
     7
370
     0
100
AcDbLine
 10
10.0
 20
155.0
 30
0.0
 11
15.0
 21
155.0
 31
0.0
  0
LINE
  5
62
330
1F
100
AcDbEntity
  8
0
  6
Continuous
 62
     7
370
     0
100
AcDbLine
 10
15.0
 20
105.0
 30
0.0
 11
10.0
 21
105.0
 31
0.0
  0
LINE
  5
63
330
1F
100
AcDbEntity
  8
0
  6
Continuous
 62
     7
370
     0
100
AcDbLine
 10
15.0
 20
5.0
 30
0.0
 11
15.0
 21
10.0
 31
0.0
  0
LINE
  5
64
330
1F
100
AcDbEntity
  8
0
  6
Continuous
 62
     7
370
     0
100
AcDbLine
 10
15.0
 20
200.0
 30
0.0
 11
15.0
 21
205.0
 31
0.0
  0
LINE
  5
65
330
1F
100
AcDbEntity
  8
0
  6
Continuous
 62
     7
370
     0
100
AcDbLine
 10
287.0
 20
5.0
 30
0.0
 11
287.0
 21
10.0
 31
0.0
  0
LINE
  5
66
330
1F
100
AcDbEntity
  8
0
  6
Continuous
 62
     7
370
     0
100
AcDbLine
 10
287.0
 20
200.0
 30
0.0
 11
287.0
 21
205.0
 31
0.0
  0
LINE
  5
67
330
1F
100
AcDbEntity
  8
0
  6
Continuous
 62
     7
370
     0
100
AcDbLine
 10
287.0
 20
200.0
 30
0.0
 11
15.0
 21
200.0
 31
0.0
  0
LINE
  5
68
330
1F
100
AcDbEntity
  8
0
  6
Continuous
 62
     7
370
     0
100
AcDbLine
 10
296.9973499678
 20
210.0062962739
 30
0.0
 11
-0.0152375622
 21
210.0062962739
 31
0.0
  0
LINE
  5
69
330
1F
100
AcDbEntity
  8
0
  6
Continuous
 62
     7
370
     0
100
AcDbLine
 10
15.0
 20
200.0
 30
0.0
 11
15.0
 21
10.0
 31
0.0
  0
LINE
  5
6A
330
1F
100
AcDbEntity
  8
0
  6
Continuous
 62
     7
370
     0
100
AcDbLine
 10
-0.0152375622
 20
210.0062962739
 30
0.0
 11
-0.0152375622
 21
-0.0161328448
 31
0.0
  0
LINE
  5
6B
330
1F
100
AcDbEntity
  8
0
  6
Continuous
 62
     7
370
     0
100
AcDbLine
 10
-0.0152375622
 20
-0.0161328448
 30
0.0
 11
296.9973499678
 21
-0.0161328448
 31
0.0
  0
LINE
  5
6C
330
1F
100
AcDbEntity
  8
0
  6
Continuous
 62
     7
370
     0
100
AcDbLine
 10
15.0
 20
10.0
 30
0.0
 11
287.0
 21
10.0
 31
0.0
  0
LINE
  5
6D
330
1F
100
AcDbEntity
  8
0
  6
Continuous
 62
     7
370
     0
100
AcDbLine
 10
48.5
 20
5.0
 30
0.0
 11
48.5
 21
10.0
 31
0.0
  0
LINE
  5
6E
330
1F
100
AcDbEntity
  8
0
  6
Continuous
 62
     7
370
     0
100
AcDbLine
 10
98.5
 20
10.0
 30
0.0
 11
98.5
 21
5.0
 31
0.0
  0
LINE
  5
6F
330
1F
100
AcDbEntity
  8
0
  6
Continuous
 62
     7
370
     0
100
AcDbLine
 10
48.5
 20
200.0
 30
0.0
 11
48.5
 21
205.0
 31
0.0
  0
LINE
  5
70
330
1F
100
AcDbEntity
  8
0
  6
Continuous
 62
     7
370
     0
100
AcDbLine
 10
98.5
 20
205.0
 30
0.0
 11
98.5
 21
200.0
 31
0.0
  0
LINE
  5
71
330
1F
100
AcDbEntity
  8
0
  6
Continuous
 62
     7
370
     0
100
AcDbLine
 10
148.5
 20
205.0
 30
0.0
 11
148.5
 21
200.0
 31
0.0
  0
LINE
  5
72
330
1F
100
AcDbEntity
  8
0
  6
Continuous
 62
     7
370
     0
100
AcDbLine
 10
287.0
 20
10.0
 30
0.0
 11
287.0
 21
200.0
 31
0.0
  0
LINE
  5
73
330
1F
100
AcDbEntity
  8
0
  6
Continuous
 62
     7
370
     0
100
AcDbLine
 10
292.0
 20
105.0
 30
0.0
 11
287.0
 21
105.0
 31
0.0
  0
LINE
  5
74
330
1F
100
AcDbEntity
  8
0
  6
Continuous
 62
     7
370
     0
100
AcDbLine
 10
198.5
 20
205.0
 30
0.0
 11
198.5
 21
200.0
 31
0.0
  0
LINE
  5
75
330
1F
100
AcDbEntity
  8
0
  6
Continuous
 62
     7
370
     0
100
AcDbLine
 10
248.5
 20
200.0
 30
0.0
 11
248.5
 21
205.0
 31
0.0
  0
LINE
  5
76
330
1F
100
AcDbEntity
  8
0
  6
Continuous
 62
     7
370
     0
100
AcDbLine
 10
287.0
 20
155.0
 30
0.0
 11
292.0
 21
155.0
 31
0.0
  0
CIRCLE
  5
77
330
1F
100
AcDbEntity
  8
0
  6
Continuous
 62
     7
370
     0
100
AcDbCircle
 10
251.8621475508
 20
26.6770346626
 30
0.0
 40
3.99999999999999
  0
CIRCLE
  5
78
330
1F
100
AcDbEntity
  8
0
  6
Continuous
 62
     7
370
     0
100
AcDbCircle
 10
251.8621475508
 20
26.6770346626
 30
0.0
 40
1.500000000000011
  0
MTEXT
  5
7A
330
1F
100
AcDbEntity
  8
0
  6
Continuous
 62
     7
370
     0
100
AcDbMText
 10
221.1108865292
 20
38.9866255947
 30
0.0
 40
3.0
 41
0.0
 71
     1
 72
     1
  1
SS ISO-2768 fH
  7
SLDTEXTSTYLE0
 73
     1
 44
1.0
  0
MTEXT
  5
7B
330
1F
100
AcDbEntity
  8
0
  6
Continuous
 62
     7
370
     0
100
AcDbMText
 10
137.2748673376
 20
53.8493270967
 30
0.0
 40
3.5
 41
0.0
 71
     1
 72
     1
  1
INFORMATION ONLY, NOT FOR MANUFACTURING
  7
SLDTEXTSTYLE0
 73
     1
 44
1.0
  0
MTEXT
  5
7C
330
1F
100
AcDbEntity
  8
0
  6
Continuous
 62
     7
370
     0
100
AcDbMText
 10
11.6666666667
 20
131.1680164036
 30
0.0
 40
1.8520833333
 41
0.0
 71
     1
 72
     1
  1
C
  7
SLDTEXTSTYLE0
 73
     1
 44
1.0
  0
MTEXT
  5
7D
330
1F
100
AcDbEntity
  8
0
  6
Continuous
 62
     7
370
     0
100
AcDbMText
 10
11.6666666667
 20
81.1680164036
 30
0.0
 40
1.8520833333
 41
0.0
 71
     1
 72
     1
  1
B
  7
SLDTEXTSTYLE0
 73
     1
 44
1.0
  0
MTEXT
  5
7E
330
1F
100
AcDbEntity
  8
0
  6
Continuous
 62
     7
370
     0
100
AcDbMText
 10
11.6666666667
 20
31.1680164036
 30
0.0
 40
1.8520833333
 41
0.0
 71
     1
 72
     1
  1
A
  7
SLDTEXTSTYLE0
 73
     1
 44
1.0
  0
MTEXT
  5
7F
330
1F
100
AcDbEntity
  8
0
  6
Continuous
 62
     7
370
     0
100
AcDbMText
 10
23.0833373333
 20
8.6680164036
 30
0.0
 40
1.8520833333
 41
0.0
 71
     1
 72
     1
  1
1
  7
SLDTEXTSTYLE0
 73
     1
 44
1.0
  0
MTEXT
  5
80
330
1F
100
AcDbEntity
  8
0
  6
Continuous
 62
     7
370
     0
100
AcDbMText
 10
72.6666706667
 20
8.6680164036
 30
0.0
 40
1.8520833333
 41
0.0
 71
     1
 72
     1
  1
2
  7
SLDTEXTSTYLE0
 73
     1
 44
1.0
  0
MTEXT
  5
81
330
1F
100
AcDbEntity
  8
0
  6
Continuous
 62
     7
370
     0
100
AcDbMText
 10
11.6666666667
 20
181.1680164036
 30
0.0
 40
1.8520833333
 41
0.0
 71
     1
 72
     1
  1
D
  7
SLDTEXTSTYLE0
 73
     1
 44
1.0
  0
MTEXT
  5
82
330
1F
100
AcDbEntity
  8
0
  6
Continuous
 62
     7
370
     0
100
AcDbMText
 10
122.6666706667
 20
203.6680164036
 30
0.0
 40
1.8520833333
 41
0.0
 71
     1
 72
     1
  1
3
  7
SLDTEXTSTYLE0
 73
     1
 44
1.0
  0
MTEXT
  5
83
330
1F
100
AcDbEntity
  8
0
  6
Continuous
 62
     7
370
     0
100
AcDbMText
 10
72.6666706667
 20
203.6680164036
 30
0.0
 40
1.8520833333
 41
0.0
 71
     1
 72
     1
  1
2
  7
SLDTEXTSTYLE0
 73
     1
 44
1.0
  0
MTEXT
  5
84
330
1F
100
AcDbEntity
  8
0
  6
Continuous
 62
     7
370
     0
100
AcDbMText
 10
23.0833373333
 20
203.6680164036
 30
0.0
 40
1.8520833333
 41
0.0
 71
     1
 72
     1
  1
1
  7
SLDTEXTSTYLE0
 73
     1
 44
1.0
  0
MTEXT
  5
85
330
1F
100
AcDbEntity
  8
0
  6
Continuous
 62
     7
370
     0
100
AcDbMText
 10
172.6666706667
 20
203.6680164036
 30
0.0
 40
1.8520833333
 41
0.0
 71
     1
 72
     1
  1
4
  7
SLDTEXTSTYLE0
 73
     1
 44
1.0
  0
MTEXT
  5
86
330
1F
100
AcDbEntity
  8
0
  6
Continuous
 62
     7
370
     0
100
AcDbMText
 10
288.6666746667
 20
131.1680164036
 30
0.0
 40
1.8520833333
 41
0.0
 71
     1
 72
     1
  1
C
  7
SLDTEXTSTYLE0
 73
     1
 44
1.0
  0
MTEXT
  5
87
330
1F
100
AcDbEntity
  8
0
  6
Continuous
 62
     7
370
     0
100
AcDbMText
 10
288.6666746667
 20
181.1680164036
 30
0.0
 40
1.8520833333
 41
0.0
 71
     1
 72
     1
  1
D
  7
SLDTEXTSTYLE0
 73
     1
 44
1.0
  0
MTEXT
  5
88
330
1F
100
AcDbEntity
  8
0
  6
Continuous
 62
     7
370
     0
100
AcDbMText
 10
222.6666706667
 20
203.6680164036
 30
0.0
 40
1.8520833333
 41
0.0
 71
     1
 72
     1
  1
5
  7
SLDTEXTSTYLE0
 73
     1
 44
1.0
  0
MTEXT
  5
89
330
1F
100
AcDbEntity
  8
0
  6
Continuous
 62
     7
370
     0
100
AcDbMText
 10
272.6666706667
 20
203.6680164036
 30
0.0
 40
1.8520833333
 41
0.0
 71
     1
 72
     1
  1
6
  7
SLDTEXTSTYLE0
 73
     1
 44
1.0
  0
MTEXT
  5
8A
330
1F
100
AcDbEntity
  8
0
  6
Continuous
 62
     7
370
     0
100
AcDbMText
 10
288.6926520658
 20
82.1496220514
 30
0.0
 40
1.8520833333
 41
0.0
 71
     1
 72
     1
  1
B
  7
SLDTEXTSTYLE0
 73
     1
 44
1.0
  0
MTEXT
  5
8B
330
1F
100
AcDbEntity
  8
0
  6
Continuous
 62
     7
370
     0
100
AcDbMText
 10
7.6407214283
 20
51.9710446741
 30
0.0
 40
1.5375
 41
0.0
 71
     1
 72
     1
  1
annan eller obehörigen användas.
  7
SLDTEXTSTYLE0
 11
4.896366815541822E-12
 21
1.0
 31
0.0
 73
     1
 44
1.0
  0
MTEXT
  5
8C
330
1F
100
AcDbEntity
  8
0
  6
Continuous
 62
     7
370
     0
100
AcDbMText
 10
4.9440763146
 20
52.0442294974
 30
0.0
 40
1.5375
 41
0.0
 71
     1
 72
     1
  1
och får ej utan vårt medgivande kopieras, delges
  7
SLDTEXTSTYLE0
 11
4.896366815541822E-12
 21
1.0
 31
0.0
 73
     1
 44
1.0
  0
MTEXT
  5
8D
330
1F
100
AcDbEntity
  8
0
  6
Continuous
 62
     7
370
     0
100
AcDbMText
 10
2.611463737
 20
51.976842075
 30
0.0
 40
1.5375
 41
0.0
 71
     1
 72
     1
  1
Denna handling är Thorlabs Sweden AB's egendom
  7
SLDTEXTSTYLE0
 11
4.896366815541822E-12
 21
1.0
 31
0.0
 73
     1
 44
1.0
  0
MTEXT
  5
8E
330
1F
100
AcDbEntity
  8
0
  6
Continuous
 62
     7
370
     0
100
AcDbMText
 10
7.5079041492
 20
107.1255642067
 30
0.0
 40
1.5375
 41
0.0
 71
     1
 72
     1
  1
Contravention will be prosecuted.
  7
SLDTEXTSTYLE0
 11
4.896366815541822E-12
 21
1.0
 31
0.0
 73
     1
 44
1.0
  0
MTEXT
  5
8F
330
1F
100
AcDbEntity
  8
0
  6
Continuous
 62
     7
370
     0
100
AcDbMText
 10
4.7910654185
 20
136.9487964878
 30
0.0
 40
1.5375
 41
0.0
 71
     1
 72
     1
  1
wise used without authorisation.
  7
SLDTEXTSTYLE0
 11
4.896366815541822E-12
 21
1.0
 31
0.0
 73
     1
 44
1.0
  0
MTEXT
  5
90
330
1F
100
AcDbEntity
  8
0
  6
Continuous
 62
     7
370
     0
100
AcDbMText
 10
4.7770476668
 20
106.9530804253
 30
0.0
 40
1.5375
 41
0.0
 71
     1
 72
     1
  1
parted to a third party or other
  7
SLDTEXTSTYLE0
 11
4.896366815541822E-12
 21
1.0
 31
0.0
 73
     1
 44
1.0
  0
MTEXT
  5
91
330
1F
100
AcDbEntity
  8
0
  6
Continuous
 62
     7
370
     0
100
AcDbMText
 10
2.6454775431
 20
136.0018015638
 30
0.0
 40
1.5375
 41
0.0
 71
     1
 72
     1
  1
our permission be copied, im-
  7
SLDTEXTSTYLE0
 11
4.896366815541822E-12
 21
1.0
 31
0.0
 73
     1
 44
1.0
  0
MTEXT
  5
92
330
1F
100
AcDbEntity
  8
0
  6
Continuous
 62
     7
370
     0
100
AcDbMText
 10
2.5788530247
 20
106.9041714137
 30
0.0
 40
1.5375
 41
0.0
 71
     1
 72
     1
  1
This drawing must not without
  7
SLDTEXTSTYLE0
 11
4.896366815541822E-12
 21
1.0
 31
0.0
 73
     1
 44
1.0
  0
MTEXT
  5
93
330
1F
100
AcDbEntity
  8
0
  6
Continuous
 62
     7
370
     0
100
AcDbMText
 10
288.6666666667
 20
31.1680164036
 30
0.0
 40
1.8520833333
 41
0.0
 71
     1
 72
     1
  1
A
  7
SLDTEXTSTYLE0
 73
     1
 44
1.0
  0
MTEXT
  5
94
330
1F
100
AcDbEntity
  8
0
  6
Continuous
 62
     7
370
     0
100
AcDbMText
 10
234.8617470673
 20
18.3126930186
 30
0.0
 40
1.5375
 41
0.0
 71
     1
 72
     1
  1
Drawing no.
  7
SLDTEXTSTYLE0
 73
     1
 44
1.0
  0
MTEXT
  5
95
330
1F
100
AcDbEntity
  8
0
  6
Continuous
 62
     7
370
     0
100
AcDbMText
 10
259.1781521104
 20
24.9653288232
 30
0.0
 40
1.5375
 41
0.0
 71
     1
 72
     1
  1
Date
  7
SLDTEXTSTYLE0
 73
     1
 44
1.0
  0
MTEXT
  5
96
330
1F
100
AcDbEntity
  8
0
  6
Continuous
 62
     7
370
     0
100
AcDbMText
 10
259.320151224
 20
31.5609512682
 30
0.0
 40
1.5375
 41
0.0
 71
     1
 72
     1
  1
Rev.
  7
SLDTEXTSTYLE0
 73
     1
 44
1.0
  0
MTEXT
  5
97
330
1F
100
AcDbEntity
  8
0
  6
Continuous
 62
     7
370
     0
100
AcDbMText
 10
215.4435584524
 20
31.3126930186
 30
0.0
 40
1.5375
 41
0.0
 71
     1
 72
     1
  1
Scale
  7
SLDTEXTSTYLE0
 73
     1
 44
1.0
  0
MTEXT
  5
98
330
1F
100
AcDbEntity
  8
0
  6
Continuous
 62
     7
370
     0
100
AcDbMText
 10
192.2887790767
 20
31.5817829626
 30
0.0
 40
1.5375
 41
0.0
 71
     1
 72
     1
  1
Sheet Format
  7
SLDTEXTSTYLE0
 73
     1
 44
1.0
  0
MTEXT
  5
99
330
1F
100
AcDbEntity
  8
0
  6
Continuous
 62
     7
370
     0
100
AcDbMText
 10
171.5329326814
 20
31.3126930186
 30
0.0
 40
1.5375
 41
0.0
 71
     1
 72
     1
  1
Sheet
  7
SLDTEXTSTYLE0
 73
     1
 44
1.0
  0
MTEXT
  5
9A
330
1F
100
AcDbEntity
  8
0
  6
Continuous
 62
     7
370
     0
100
AcDbMText
 10
150.5329326814
 20
31.3126930186
 30
0.0
 40
1.5375
 41
0.0
 71
     1
 72
     1
  1
Check
  7
SLDTEXTSTYLE0
 73
     1
 44
1.0
  0
MTEXT
  5
9B
330
1F
100
AcDbEntity
  8
0
  6
Continuous
 62
     7
370
     0
100
AcDbMText
 10
108.5329326814
 20
31.4736002196
 30
0.0
 40
1.5375
 41
0.0
 71
     1
 72
     1
  1
Design
  7
SLDTEXTSTYLE0
 73
     1
 44
1.0
  0
MTEXT
  5
9C
330
1F
100
AcDbEntity
  8
0
  6
Continuous
 62
     7
370
     0
100
AcDbMText
 10
129.5329326814
 20
31.3126930186
 30
0.0
 40
1.5375
 41
0.0
 71
     1
 72
     1
  1
Drawn
  7
SLDTEXTSTYLE0
 73
     1
 44
1.0
  0
MTEXT
  5
9D
330
1F
100
AcDbEntity
  8
0
  6
Continuous
 62
     7
370
     0
100
AcDbMText
 10
127.0
 20
8.3472752705
 30
0.0
 40
1.85
 41
0.0
 71
     1
 72
     1
  1
3
  7
SLDTEXTSTYLE0
 73
     1
 44
1.0
  0
MTEXT
  5
9E
330
1F
100
AcDbEntity
  8
0
  6
Continuous
 62
     7
370
     0
100
AcDbMText
 10
172.0
 20
8.3472752705
 30
0.0
 40
1.85
 41
0.0
 71
     1
 72
     1
  1
4
  7
SLDTEXTSTYLE0
 73
     1
 44
1.0
  0
MTEXT
  5
9F
330
1F
100
AcDbEntity
  8
0
  6
Continuous
 62
     7
370
     0
100
AcDbMText
 10
217.0
 20
8.5532361977
 30
0.0
 40
2.5625
 41
0.0
 71
     1
 72
     1
  1
5
  7
SLDTEXTSTYLE0
 73
     1
 44
1.0
  0
MTEXT
  5
A0
330
1F
100
AcDbEntity
  8
0
  6
Continuous
 62
     7
370
     0
100
AcDbMText
 10
264.9508425452
 20
8.6220566344
 30
0.0
 40
2.5625
 41
0.0
 71
     1
 72
     1
  1
6
  7
SLDTEXTSTYLE0
 73
     1
 44
1.0
  0
MTEXT
  5
A1
330
1F
100
AcDbEntity
  8
0
  6
Continuous
 62
     7
370
     0
100
AcDbMText
 10
241.7083816705
 20
29.3756615253
 30
0.0
 40
2.05
 41
0.0
 71
     1
 72
     1
  1
E
  7
SLDTEXTSTYLE0
 73
     1
 44
1.0
  0
MTEXT
  5
A2
330
1F
100
AcDbEntity
  8
0
  6
Continuous
 62
     7
370
     0
100
AcDbMText
 10
115.4847548778
 20
30.4593770872
 30
0.0
 40
3.0
 41
0.0
 71
     1
 72
     1
  1
-
  7
SLDTEXTSTYLE0
 73
     1
 44
1.0
  0
MTEXT
  5
A3
330
1F
100
AcDbEntity
  8
0
  6
Continuous
 62
     7
370
     0
100
AcDbMText
 10
179.447603506
 20
30.5099839653
 30
0.0
 40
3.0
 41
0.0
 71
     1
 72
     1
  1
1/1
  7
SLDTEXTSTYLE0
 73
     1
 44
1.0
  0
MTEXT
  5
A4
330
1F
100
AcDbEntity
  8
0
  6
Continuous
 62
     7
370
     0
100
AcDbMText
 10
206.4247083886
 20
30.4840781102
 30
0.0
 40
3.0
 41
0.0
 71
     1
 72
     1
  1
A4
  7
SLDTEXTSTYLE0
 73
     1
 44
1.0
  0
MTEXT
  5
A5
330
1F
100
AcDbEntity
  8
0
  6
Continuous
 62
     7
370
     0
100
AcDbMText
 10
223.4556352085
 20
30.4321784304
 30
0.0
 40
3.0
 41
0.0
 71
     1
 72
     1
  1
1:1
  7
SLDTEXTSTYLE0
 73
     1
 44
1.0
  0
MTEXT
  5
A6
330
1F
100
AcDbEntity
  8
0
  6
Continuous
 62
     7
370
     0
100
AcDbMText
 10
236.8034143108
 20
15.5367057142
 30
0.0
 40
4.0
 41
0.0
 71
     1
 72
     1
  1
19504-E01
  7
SLDTEXTSTYLE0
 73
     1
 44
1.0
  0
MTEXT
  5
A7
330
1F
100
AcDbEntity
  8
0
  6
Continuous
 62
     7
370
     0
100
AcDbMText
 10
146.289574173
 20
22.2382303833
 30
0.0
 40
4.0
 41
0.0
 71
     1
 72
     1
  1
 Scanning Fabry Perot 820-1275nm
  7
SLDTEXTSTYLE0
 73
     1
 44
1.0
  0
MTEXT
  5
A8
330
1F
100
AcDbEntity
  8
0
  6
Continuous
 62
     7
370
     0
100
AcDbMText
 10
259.3550528893
 20
42.8123020131
 30
0.0
 40
1.5375
 41
0.0
 71
     1
 72
     1
  1
Weight
  7
SLDTEXTSTYLE0
 73
     1
 44
1.0
  0
MTEXT
  5
A9
330
1F
100
AcDbEntity
  8
0
  6
Continuous
 62
     7
370
     0
100
AcDbMText
 10
215.0533984466
 20
42.810162821
 30
0.0
 40
1.5375
 41
0.0
 71
     1
 72
     1
  1
General Tolerance
  7
SLDTEXTSTYLE0
 73
     1
 44
1.0
  0
INSERT
  5
B2
330
1F
100
AcDbEntity
  8
0
  6
Continuous
 62
     7
370
     0
100
AcDbBlockReference
  2
SW_NOTE_0
 10
128.2925159607
 20
16.5727068054
 30
0.0
  0
INSERT
  5
B9
330
1F
100
AcDbEntity
  8
0
  6
Continuous
 62
     7
370
     0
100
AcDbBlockReference
  2
SW_NOTE_1
 10
108.1623788481
 20
16.7346536787
 30
0.0
  0
MTEXT
  5
BA
330
1F
100
AcDbEntity
  8
0
  6
Continuous
 62
     7
370
     0
100
AcDbMText
 10
265.0012410271
 20
23.8107695378
 30
0.0
 40
3.0
 41
0.0
 71
     1
 72
     1
  1
2009-10-20
  7
SLDTEXTSTYLE0
 73
     1
 44
1.0
  0
MTEXT
  5
BC
330
1F
100
AcDbEntity
  8
0
  6
Continuous
 62
     7
370
     0
100
AcDbMText
 10
263.4506913547
 20
38.9894668433
 30
0.0
 40
3.0
 41
0.0
 71
     1
 72
     1
  1
90 g
  7
SLDTEXTSTYLE3
 73
     1
 44
1.0
  0
MTEXT
  5
BD
330
1F
100
AcDbEntity
  8
0
  6
Continuous
 62
     7
370
     0
100
AcDbMText
 10
265.4323026139
 20
30.4511459644
 30
0.0
 40
3.0
 41
0.0
 71
     1
 72
     1
  1
A
  7
SLDTEXTSTYLE0
 73
     1
 44
1.0
  0
MTEXT
  5
BE
330
1F
100
AcDbEntity
  8
0
  6
Continuous
 62
     7
370
     0
100
AcDbMText
 10
164.4109975409
 20
16.2109983005
 30
0.0
 40
4.0
 41
0.0
 71
     1
 72
     1
  1
SA210-8B, 10GHz FSR
  7
SLDTEXTSTYLE0
 73
     1
 44
1.0
  0
MTEXT
  5
BF
330
1F
100
AcDbEntity
  8
0
  6
Continuous
 62
     7
370
     0
100
AcDbMText
 10
174.0283457372
 20
42.6776423697
 30
0.0
 40
1.5375
 41
0.0
 71
     1
 72
     1
  1
Material
  7
SLDTEXTSTYLE0
 73
     1
 44
1.0
  0
MTEXT
  5
C0
330
1F
100
AcDbEntity
  8
0
  6
Continuous
 62
     7
370
     0
100
AcDbMText
 10
108.9556549025
 20
42.5025107869
 30
0.0
 40
1.5375
 41
0.0
 71
     1
 72
     1
  1
Surface Treatment
  7
SLDTEXTSTYLE0
 73
     1
 44
1.0
  0
MTEXT
  5
C1
330
1F
100
AcDbEntity
  8
0
  6
Continuous
 62
     7
370
     0
100
AcDbMText
 10
107.9611477963
 20
25.0373552496
 30
0.0
 40
4.7625
 41
0.0
 71
     1
 72
     1
  1
THORLABS
  7
SLDTEXTSTYLE0
 73
     1
 44
1.0
  0
INSERT
  5
D2
330
1F
100
AcDbEntity
  8
0
  6
Continuous
 62
     7
370
     0
100
AcDbBlockReference
  2
SW_TABLEANNOTATION_0
 10
126.7179297472
 20
200.0
 30
0.0
  0
LINE
  5
D3
330
1F
100
AcDbEntity
  8
0
  6
Continuous
 62
     7
100
AcDbLine
 10
145.7285933275
 20
115.9675091474
 30
0.0
 11
146.443645483
 21
115.9675091474
 31
0.0
  0
LINE
  5
D4
330
1F
100
AcDbEntity
  8
0
  6
Continuous
 62
     7
100
AcDbLine
 10
145.7285933275
 20
115.9675091474
 30
0.0
 11
146.0861194053
 21
115.7802893973
 31
0.0
  0
LINE
  5
D5
330
1F
100
AcDbEntity
  8
0
  6
Continuous
 62
     7
100
AcDbLine
 10
146.443645483
 20
115.9675091474
 30
0.0
 11
146.0861194053
 21
115.7802893973
 31
0.0
  0
LINE
  5
D6
330
1F
100
AcDbEntity
  8
0
  6
CENTERX2
 62
     7
100
AcDbLine
 10
146.0861194053
 20
115.7802893973
 30
0.0
 11
146.0861194053
 21
115.9675091474
 31
0.0
  0
LINE
  5
D7
330
1F
100
AcDbEntity
  8
0
  6
Continuous
 62
     7
370
    15
100
AcDbLine
 10
84.7701194053
 20
101.3641083542
 30
0.0
 11
90.3581194053
 21
101.3641083542
 31
0.0
  0
LINE
  5
D8
330
1F
100
AcDbEntity
  8
0
  6
Continuous
 62
     7
370
    15
100
AcDbLine
 10
90.3581194053
 20
126.7641083542
 30
0.0
 11
84.7701194053
 21
126.7641083542
 31
0.0
  0
LINE
  5
D9
330
1F
100
AcDbEntity
  8
0
  6
Continuous
 62
     7
370
    15
100
AcDbLine
 10
84.2621194053
 20
126.2561083542
 30
0.0
 11
79.5631194053
 21
123.7161083542
 31
0.0
  0
LINE
  5
DA
330
1F
100
AcDbEntity
  8
0
  6
Continuous
 62
     7
370
    15
100
AcDbLine
 10
79.5631194053
 20
104.4121083542
 30
0.0
 11
84.2621194053
 21
101.8721083542
 31
0.0
  0
LINE
  5
DB
330
1F
100
AcDbEntity
  8
0
  6
Continuous
 62
     7
370
    15
100
AcDbLine
 10
84.2621194053
 20
101.8721083542
 30
0.0
 11
84.7701194053
 21
101.8721083542
 31
0.0
  0
LINE
  5
DC
330
1F
100
AcDbEntity
  8
0
  6
Continuous
 62
     7
370
    15
100
AcDbLine
 10
84.7701194053
 20
126.2561083542
 30
0.0
 11
84.2621194053
 21
126.2561083542
 31
0.0
  0
LINE
  5
DD
330
1F
100
AcDbEntity
  8
0
  6
Continuous
 62
     7
370
    15
100
AcDbLine
 10
98.3591194053
 20
125.8751083542
 30
0.0
 11
98.1051194053
 21
125.6211083542
 31
0.0
  0
LINE
  5
DE
330
1F
100
AcDbEntity
  8
0
  6
Continuous
 62
     7
370
    15
100
AcDbLine
 10
98.1051194053
 20
102.5071083542
 30
0.0
 11
98.3591194053
 21
102.2531083542
 31
0.0
  0
LINE
  5
DF
330
1F
100
AcDbEntity
  8
0
  6
Continuous
 62
     7
370
    15
100
AcDbLine
 10
90.3581194053
 20
102.2531083542
 30
0.0
 11
97.8511194053
 21
102.2531083542
 31
0.0
  0
LINE
  5
E0
330
1F
100
AcDbEntity
  8
0
  6
Continuous
 62
     7
370
    15
100
AcDbLine
 10
97.8511194053
 20
125.8751083542
 30
0.0
 11
90.3581194053
 21
125.8751083542
 31
0.0
  0
LINE
  5
E1
330
1F
100
AcDbEntity
  8
0
  6
Continuous
 62
     7
370
    15
100
AcDbLine
 10
98.3591194053
 20
102.2531083542
 30
0.0
 11
111.8211194053
 21
102.2531083542
 31
0.0
  0
LINE
  5
E2
330
1F
100
AcDbEntity
  8
0
  6
Continuous
 62
     7
370
    15
100
AcDbLine
 10
111.8211194053
 20
125.8751083542
 30
0.0
 11
98.3591194053
 21
125.8751083542
 31
0.0
  0
LINE
  5
E3
330
1F
100
AcDbEntity
  8
0
  6
Continuous
 62
     7
370
    15
100
AcDbLine
 10
97.8511194053
 20
102.2531083542
 30
0.0
 11
98.1051194053
 21
102.5071083542
 31
0.0
  0
LINE
  5
E4
330
1F
100
AcDbEntity
  8
0
  6
Continuous
 62
     7
370
    15
100
AcDbLine
 10
98.1051194053
 20
125.6211083542
 30
0.0
 11
97.8511194053
 21
125.8751083542
 31
0.0
  0
SPLINE
  5
E5
330
1F
100
AcDbEntity
  8
0
  6
Continuous
 62
     7
370
    15
100
AcDbSpline
210
0.0
220
0.0
230
1.0
 70
     8
 71
     3
 72
    59
 73
    55
 74
     0
 42
0.00000001
 43
0.00000001
 40
0.0
 40
0.0
 40
0.0
 40
0.0
 40
0.0044461743858651
 40
0.0072342620728531
 40
0.0106569621448773
 40
0.015606778024642
 40
0.0248778342332283
 40
0.0340919907487411
 40
0.0517922620527553
 40
0.064833946103117
 40
0.0776727392069568
 40
0.0907527649419501
 40
0.1038706377000683
 40
0.1171055459551163
 40
0.143930324393639
 40
0.1716881981457649
 40
0.1851992104087435
 40
0.1973385462063703
 40
0.2071704873165337
 40
0.2151613457503799
 40
0.2264895552186664
 40
0.2421542845010838
 40
0.2702990275465558
 40
0.2860294976917119
 40
0.3003886163501842
 40
0.3128811141362483
 40
0.324105275721501
 40
0.3362057095827946
 40
0.3533193116452843
 40
0.3740219753308238
 40
0.3941343406957981
 40
0.4130966433941587
 40
0.4359204237981092
 40
0.4557693789608622
 40
0.4766960638726894
 40
0.4993421942926741
 40
0.5238599848345378
 40
0.5445349092429353
 40
0.5643235922238862
 40
0.5803012566696847
 40
0.5919466767716469
 40
0.5991928416873148
 40
0.6138435563809064
 40
0.6336295386135644
 40
0.6591290862910164
 40
0.6824218758769904
 40
0.7078376664512128
 40
0.7343620124024431
 40
0.7620405914398056
 40
0.8088325893351864
 40
0.8588498706747855
 40
0.9122433148788338
 40
0.9691598974119262
 40
0.9999999999999999
 40
0.9999999999999999
 40
0.9999999999999999
 40
0.9999999999999999
 10
105.6680229844984
 20
134.6862462063715
 30
0.0
 10
105.7026302025507
 20
134.6865096975786
 30
0.0
 10
105.7589387643108
 20
134.6869384177053
 30
0.0
 10
105.8369459860781
 20
134.671839939447
 30
0.0
 10
105.9178990684021
 20
134.6476041415002
 30
0.0
 10
106.0494246536408
 20
134.6140322588631
 30
0.0
 10
106.2232160987195
 20
134.5647003727605
 30
0.0
 10
106.4872991866256
 20
134.4759958234192
 30
0.0
 10
106.7706231998897
 20
134.3570340290239
 30
0.0
 10
107.0724021004921
 20
134.2169894852532
 30
0.0
 10
107.3389105657109
 20
134.0844592513128
 30
0.0
 10
107.602736446505
 20
133.9454785381161
 30
0.0
 10
107.8660046200466
 20
133.7993647838146
 30
0.0
 10
108.2162843681138
 20
133.5950195537358
 30
0.0
 10
108.6515954860094
 20
133.3224045110153
 30
0.0
 10
109.0734990360664
 20
133.0188480112297
 30
0.0
 10
109.3931863375483
 20
132.7657635582133
 30
0.0
 10
109.5983403873946
 20
132.5911012250891
 30
0.0
 10
109.7628040615689
 20
132.4441169824023
 30
0.0
 10
109.8943293438183
 20
132.2664799453806
 30
0.0
 10
110.0246354734439
 20
132.017930014895
 30
0.0
 10
110.2640602301582
 20
131.6563921965877
 30
0.0
 10
110.5182513476599
 20
131.2599243083054
 30
0.0
 10
110.7677158372422
 20
130.8730612449187
 30
0.0
 10
110.9408737484319
 20
130.5880303324822
 30
0.0
 10
111.0833136647483
 20
130.326611492981
 30
0.0
 10
111.2030248182558
 20
130.0691245635843
 30
0.0
 10
111.3188679901996
 20
129.7716026566216
 30
0.0
 10
111.4531552630067
 20
129.4004320682758
 30
0.0
 10
111.6033276278611
 20
128.9695802983032
 30
0.0
 10
111.7457972535722
 20
128.524668390819
 30
0.0
 10
111.8786146904107
 20
128.0603188306233
 30
0.0
 10
111.9907546684887
 20
127.5915520732893
 30
0.0
 10
112.0872602503871
 20
127.1019973845468
 30
0.0
 10
112.1683056002865
 20
126.6112223089295
 30
0.0
 10
112.2409958680538
 20
126.0821772662086
 30
0.0
 10
112.3009941330616
 20
125.5536904546711
 30
0.0
 10
112.3494614609048
 20
125.0467066870304
 30
0.0
 10
112.3855649298844
 20
124.6059133630404
 30
0.0
 10
112.4118974971336
 20
124.2353185661259
 30
0.0
 10
112.4291756466594
 20
123.9625913328188
 30
0.0
 10
112.44450049583
 20
123.6999930446372
 30
0.0
 10
112.4617258445845
 20
123.3734618568147
 30
0.0
 10
112.4826200675239
 20
122.9037019530168
 30
0.0
 10
112.5011327650384
 20
122.3658109968397
 30
0.0
 10
112.5154023619461
 20
121.7834037946231
 30
0.0
 10
112.5244438513428
 20
121.1924749110616
 30
0.0
 10
112.5283007550918
 20
120.5666843987343
 30
0.0
 10
112.5262146330525
 20
119.7726276700758
 30
0.0
 10
112.5129784550075
 20
118.7937961722481
 30
0.0
 10
112.4827823024717
 20
117.6131331632353
 30
0.0
 10
112.4381909893419
 20
116.3544790157613
 30
0.0
 10
112.3863316903368
 20
115.2457809456726
 30
0.0
 10
112.3546833023824
 20
114.559960001293
 30
0.0
 10
112.3435611920849
 20
114.3189437385147
 30
0.0
  0
SPLINE
  5
E6
330
1F
100
AcDbEntity
  8
0
  6
Continuous
 62
     7
370
    15
100
AcDbSpline
210
0.0
220
0.0
230
1.0
 70
     8
 71
     3
 72
    55
 73
    51
 74
     0
 42
0.00000001
 43
0.00000001
 40
0.0
 40
0.0
 40
0.0
 40
0.0
 40
0.0240205758137966
 40
0.0606218629171624
 40
0.0979433482895461
 40
0.1395098753529561
 40
0.1807398495842323
 40
0.2181008040585118
 40
0.2513660358691186
 40
0.2809245441679651
 40
0.3086278300799694
 40
0.3329717089601044
 40
0.3545648688286364
 40
0.3639364245800122
 40
0.373053549631529
 40
0.3848753319210864
 40
0.4000552005755881
 40
0.4182251426831796
 40
0.4450087600737796
 40
0.4740646892268827
 40
0.4999313250886109
 40
0.5223555918441027
 40
0.5418122913767094
 40
0.5584267177419446
 40
0.5747406579436999
 40
0.593103934062647
 40
0.6130278406363526
 40
0.6259050023035075
 40
0.6362354873133345
 40
0.649888055920868
 40
0.665986891488637
 40
0.6794370933731388
 40
0.6943766689743492
 40
0.7148834707013338
 40
0.7324784850884374
 40
0.7491305416430396
 40
0.7638592145483968
 40
0.7801760746942557
 40
0.8107145451443779
 40
0.8435662706888496
 40
0.8753568242213267
 40
0.8867575205063251
 40
0.8978352536194022
 40
0.9085587703827953
 40
0.9206043530146499
 40
0.9359190217081906
 40
0.9540968973607548
 40
0.9678304339085183
 40
0.9832558566698636
 40
1.0
 40
1.0
 40
1.0
 40
1.0
 10
114.840251744124
 20
114.2089759774445
 30
0.0
 10
114.8505359246484
 20
114.4288339758129
 30
0.0
 10
114.8764905972923
 20
114.9837000015756
 30
0.0
 10
114.9188898149658
 20
115.8839697754834
 30
0.0
 10
114.959269866007
 20
116.9439197205256
 30
0.0
 10
114.992625055187
 20
118.0460848936525
 30
0.0
 10
115.0151197051942
 20
119.1479691679337
 30
0.0
 10
115.0254826120272
 20
120.1731310629204
 30
0.0
 10
115.0248606398132
 20
121.0910906811078
 30
0.0
 10
115.014917074272
 20
121.9207052756947
 30
0.0
 10
114.9967746962916
 20
122.6687594075685
 30
0.0
 10
114.971548337181
 20
123.3438886855058
 30
0.0
 10
114.9458168524905
 20
123.8507365388054
 30
0.0
 10
114.9234137966316
 20
124.2177669055966
 30
0.0
 10
114.9046845978692
 20
124.4951598127955
 30
0.0
 10
114.8798067471071
 20
124.8256795626855
 30
0.0
 10
114.8442966691248
 20
125.2387252715295
 30
0.0
 10
114.7891612054583
 20
125.787795783199
 30
0.0
 10
114.7071609871673
 20
126.4618094135364
 30
0.0
 10
114.5959404592936
 20
127.2029223518787
 30
0.0
 10
114.4697886486166
 20
127.901400396022
 30
0.0
 10
114.3420861676863
 20
128.5105049492166
 30
0.0
 10
114.217868958242
 20
129.0342422150926
 30
0.0
 10
114.0903394211215
 20
129.499156244171
 30
0.0
 10
113.9458513406242
 20
129.9492041887303
 30
0.0
 10
113.7655188706523
 20
130.4198282854219
 30
0.0
 10
113.5676129015878
 20
130.8471666024199
 30
0.0
 10
113.389524930591
 20
131.2000350137438
 30
0.0
 10
113.2354989646851
 20
131.5030420352059
 30
0.0
 10
113.0696732097967
 20
131.83166148293
 30
0.0
 10
112.8891709121288
 20
132.1876245954501
 30
0.0
 10
112.6892997463045
 20
132.5464418444924
 30
0.0
 10
112.4526772664703
 20
132.9312557259524
 30
0.0
 10
112.1852169896037
 20
133.337003742652
 30
0.0
 10
111.9129181425184
 20
133.7608747657663
 30
0.0
 10
111.6209324368411
 20
134.1039487853717
 30
0.0
 10
111.3133332253898
 20
134.4122585133888
 30
0.0
 10
110.8941613653057
 20
134.7822775780888
 30
0.0
 10
110.3201761725296
 20
135.2070218149804
 30
0.0
 10
109.6090455730952
 20
135.6789704688667
 30
0.0
 10
109.0230111224664
 20
136.0236639079652
 30
0.0
 10
108.5940369639194
 20
136.2529802105222
 30
0.0
 10
108.3281517930929
 20
136.3877963373053
 30
0.0
 10
108.0533658212271
 20
136.5194721569961
 30
0.0
 10
107.7403160944723
 20
136.6599866272648
 30
0.0
 10
107.3589903380249
 20
136.8157923118615
 30
0.0
 10
106.9533254699985
 20
136.9607657475315
 30
0.0
 10
106.5350825680964
 20
137.077546752246
 30
0.0
 10
106.1197073537882
 20
137.1634423980795
 30
0.0
 10
105.8226435992259
 20
137.1784400056349
 30
0.0
 10
105.6680229844984
 20
137.1862462063715
 30
0.0
  0
LINE
  5
E7
330
1F
100
AcDbEntity
  8
0
  6
Continuous
 62
     7
370
    15
100
AcDbLine
 10
103.5021194053
 20
134.6862462064
 30
0.0
 11
105.6680229845
 21
134.6862462064
 31
0.0
  0
LINE
  5
E8
330
1F
100
AcDbEntity
  8
0
  6
Continuous
 62
     7
370
    15
100
AcDbLine
 10
105.6680229845
 20
137.1862462064
 30
0.0
 11
103.5021194053
 21
137.1862462064
 31
0.0
  0
LINE
  5
E9
330
1F
100
AcDbEntity
  8
0
  6
Continuous
 62
     7
370
    15
100
AcDbLine
 10
138.1611194053
 20
119.6391083542
 30
0.0
 11
137.2211194053
 21
119.6391083542
 31
0.0
  0
LINE
  5
EA
330
1F
100
AcDbEntity
  8
0
  6
Continuous
 62
     7
370
    15
100
AcDbLine
 10
137.2211194053
 20
108.4891083542
 30
0.0
 11
138.1611194053
 21
108.4891083542
 31
0.0
  0
SPLINE
  5
EB
330
1F
100
AcDbEntity
  8
0
  6
Continuous
 62
     7
370
    15
100
AcDbSpline
210
0.0
220
0.0
230
1.0
 70
     8
 71
     3
 72
     9
 73
     5
 74
     0
 42
0.00000001
 43
0.00000001
 40
0.0
 40
0.0
 40
0.0
 40
0.0
 40
0.4999947520197997
 40
0.9999999999999999
 40
0.9999999999999999
 40
0.9999999999999999
 40
0.9999999999999999
 10
140.3880272182527
 20
116.8132139666692
 30
0.0
 10
140.329633949492
 20
116.8621843560281
 30
0.0
 10
140.2128461861709
 20
116.9601261627391
 30
0.0
 10
140.0960622578654
 20
117.0580685841067
 30
0.0
 10
140.037669680833
 20
117.1070403087903
 30
0.0
  0
SPLINE
  5
EC
330
1F
100
AcDbEntity
  8
0
  6
Continuous
 62
     7
370
    15
100
AcDbSpline
210
0.0
220
0.0
230
1.0
 70
     8
 71
     3
 72
     9
 73
     5
 74
     0
 42
0.00000001
 43
0.00000001
 40
0.0
 40
0.0
 40
0.0
 40
0.0
 40
0.499994181765173
 40
1.0
 40
1.0
 40
1.0
 40
1.0
 10
141.0885204160969
 20
116.8128711272579
 30
0.0
 10
141.0301238546094
 20
116.8618447131764
 30
0.0
 10
140.9133293725589
 20
116.9597930247859
 30
0.0
 10
140.7965391404089
 20
117.057743596693
 30
0.0
 10
140.7381433448209
 20
117.106719452546
 30
0.0
  0
SPLINE
  5
ED
330
1F
100
AcDbEntity
  8
0
  6
Continuous
 62
     7
370
    15
100
AcDbSpline
210
0.0
220
0.0
230
1.0
 70
     8
 71
     3
 72
     9
 73
     5
 74
     0
 42
0.00000001
 43
0.00000001
 40
0.0
 40
0.0
 40
0.0
 40
0.0
 40
0.4999944016559747
 40
1.0
 40
1.0
 40
1.0
 40
1.0
 10
141.7888263127621
 20
116.8126309337587
 30
0.0
 10
141.7304309152731
 20
116.8616037332189
 30
0.0
 10
141.6136388126105
 20
116.9595504288179
 30
0.0
 10
141.4968507978118
 20
117.0575009559539
 30
0.0
 10
141.438456136593
 20
117.1064767678827
 30
0.0
  0
SPLINE
  5
EE
330
1F
100
AcDbEntity
  8
0
  6
Continuous
 62
     7
370
    15
100
AcDbSpline
210
0.0
220
0.0
230
1.0
 70
     8
 71
     3
 72
     9
 73
     5
 74
     0
 42
0.00000001
 43
0.00000001
 40
0.0
 40
0.0
 40
0.0
 40
0.0
 40
0.4999948017744427
 40
1.0
 40
1.0
 40
1.0
 40
1.0
 10
142.488904414467
 20
116.8125662364057
 30
0.0
 10
142.4305112833853
 20
116.8615370922904
 30
0.0
 10
142.3137238070466
 20
116.9594798223168
 30
0.0
 10
142.1969401258895
 20
117.0574270163976
 30
0.0
 10
142.1385476782431
 20
117.1064011225896
 30
0.0
  0
SPLINE
  5
EF
330
1F
100
AcDbEntity
  8
0
  6
Continuous
 62
     7
370
    15
100
AcDbSpline
210
0.0
220
0.0
230
1.0
 70
     8
 71
     3
 72
     9
 73
     5
 74
     0
 42
0.00000001
 43
0.00000001
 40
0.0
 40
0.0
 40
0.0
 40
0.0
 40
0.4999950932166343
 40
1.0
 40
1.0
 40
1.0
 40
1.0
 10
143.1887082843402
 20
116.8127261049426
 30
0.0
 10
143.1303169009173
 20
116.861695722468
 30
0.0
 10
143.0135329880047
 20
116.9596359186614
 30
0.0
 10
142.8967526580713
 20
117.0575799458286
 30
0.0
 10
142.8383619200889
 20
117.1065524400022
 30
0.0
  0
SPLINE
  5
F0
330
1F
100
AcDbEntity
  8
0
  6
Continuous
 62
     7
370
    15
100
AcDbSpline
210
0.0
220
0.0
230
1.0
 70
     8
 71
     3
 72
     9
 73
     5
 74
     0
 42
0.00000001
 43
0.00000001
 40
0.0
 40
0.0
 40
0.0
 40
0.0
 40
0.4999954306008405
 40
1.0
 40
1.0
 40
1.0
 40
1.0
 10
143.8884965710406
 20
116.8128889657188
 30
0.0
 10
143.8301072699589
 20
116.8618570965808
 30
0.0
 10
143.7133276005695
 20
116.9597942533327
 30
0.0
 10
143.5965512683617
 20
117.0577346146947
 30
0.0
 10
143.5381625686601
 20
117.1067052429043
 30
0.0
  0
SPLINE
  5
F1
330
1F
100
AcDbEntity
  8
0
  6
Continuous
 62
     7
370
    15
100
AcDbSpline
210
0.0
220
0.0
230
1.0
 70
     8
 71
     3
 72
     9
 73
     5
 74
     0
 42
0.00000001
 43
0.00000001
 40
0.0
 40
0.0
 40
0.0
 40
0.0
 40
0.4999950867684086
 40
0.9999999999999999
 40
0.9999999999999999
 40
0.9999999999999999
 40
0.9999999999999999
 10
144.5883374946127
 20
116.8130046903896
 30
0.0
 10
144.5299461341755
 20
116.8619742938425
 30
0.0
 10
144.4131622657287
 20
116.9599144631536
 30
0.0
 10
144.2963819863502
 20
117.0578568987894
 30
0.0
 10
144.2379912728925
 20
117.1068285978211
 30
0.0
  0
SPLINE
  5
F2
330
1F
100
AcDbEntity
  8
0
  6
Continuous
 62
     7
370
    15
100
AcDbSpline
210
0.0
220
0.0
230
1.0
 70
     8
 71
     3
 72
     9
 73
     5
 74
     0
 42
0.00000001
 43
0.00000001
 40
0.0
 40
0.0
 40
0.0
 40
0.0
 40
0.4999947520197947
 40
1.0
 40
1.0
 40
1.0
 40
1.0
 10
145.2880272182527
 20
116.8132139666692
 30
0.0
 10
145.229633949492
 20
116.8621843560281
 30
0.0
 10
145.1128461861709
 20
116.9601261627391
 30
0.0
 10
144.9960622578654
 20
117.0580685841067
 30
0.0
 10
144.937669680833
 20
117.1070403087903
 30
0.0
  0
SPLINE
  5
F3
330
1F
100
AcDbEntity
  8
0
  6
Continuous
 62
     7
370
    15
100
AcDbSpline
210
0.0
220
0.0
230
1.0
 70
     8
 71
     3
 72
     9
 73
     5
 74
     0
 42
0.00000001
 43
0.00000001
 40
0.0
 40
0.0
 40
0.0
 40
0.0
 40
0.499994181765166
 40
1.0
 40
1.0
 40
1.0
 40
1.0
 10
145.9885204160969
 20
116.8128711272579
 30
0.0
 10
145.9301238546094
 20
116.8618447131764
 30
0.0
 10
145.8133293725589
 20
116.9597930247859
 30
0.0
 10
145.6965391404089
 20
117.057743596693
 30
0.0
 10
145.6381433448209
 20
117.106719452546
 30
0.0
  0
SPLINE
  5
F4
330
1F
100
AcDbEntity
  8
0
  6
Continuous
 62
     7
370
    15
100
AcDbSpline
210
0.0
220
0.0
230
1.0
 70
     8
 71
     3
 72
     9
 73
     5
 74
     0
 42
0.00000001
 43
0.00000001
 40
0.0
 40
0.0
 40
0.0
 40
0.0
 40
0.5049699141963178
 40
0.9999999999999999
 40
0.9999999999999999
 40
0.9999999999999999
 40
0.9999999999999999
 10
145.2883619200889
 20
111.0216642683684
 30
0.0
 10
145.3467526551064
 20
111.0706367657122
 30
0.0
 10
145.4623847618438
 20
111.1676177857039
 30
0.0
 10
145.5780204163315
 20
111.2645950123891
 30
0.0
 10
145.6352635442945
 20
111.312601657236
 30
0.0
  0
SPLINE
  5
F5
330
1F
100
AcDbEntity
  8
0
  6
Continuous
 62
     7
370
    15
100
AcDbSpline
210
0.0
220
0.0
230
1.0
 70
     8
 71
     3
 72
     9
 73
     5
 74
     0
 42
0.00000001
 43
0.00000001
 40
0.0
 40
0.0
 40
0.0
 40
0.0
 40
0.5052509282242528
 40
1.0
 40
1.0
 40
1.0
 40
1.0
 10
144.5885476782431
 20
111.021815585781
 30
0.0
 10
144.6469401225714
 20
111.0707896958759
 30
0.0
 10
144.7625112993203
 20
111.1677199682597
 30
0.0
 10
144.8780862318476
 20
111.2646458229367
 30
0.0
 10
144.935266822436
 20
111.3125997995692
 30
0.0
  0
SPLINE
  5
F6
330
1F
100
AcDbEntity
  8
0
  6
Continuous
 62
     7
370
    15
100
AcDbSpline
210
0.0
220
0.0
230
1.0
 70
     8
 71
     3
 72
     9
 73
     5
 74
     0
 42
0.00000001
 43
0.00000001
 40
0.0
 40
0.0
 40
0.0
 40
0.0
 40
0.5051192574206218
 40
1.0
 40
1.0
 40
1.0
 40
1.0
 10
143.888456136593
 20
111.021739940488
 30
0.0
 10
143.9468507943278
 20
111.0707157556823
 30
0.0
 10
144.0624564792762
 20
111.1676746707796
 30
0.0
 10
144.1780662107046
 20
111.2646297931293
 30
0.0
 10
144.2352792404432
 20
111.3126110160745
 30
0.0
  0
SPLINE
  5
F7
330
1F
100
AcDbEntity
  8
0
  6
Continuous
 62
     7
370
    15
100
AcDbSpline
210
0.0
220
0.0
230
1.0
 70
     8
 71
     3
 72
     9
 73
     5
 74
     0
 42
0.00000001
 43
0.00000001
 40
0.0
 40
0.0
 40
0.0
 40
0.0
 40
0.5045871842123176
 40
1.0
 40
1.0
 40
1.0
 40
1.0
 10
143.1881433448209
 20
111.0214972558246
 30
0.0
 10
143.2465391371638
 20
111.0704731134035
 30
0.0
 10
143.3622689736916
 20
111.1675343529896
 30
0.0
 10
143.4780030215332
 20
111.2645933528002
 30
0.0
 10
143.5353391520568
 20
111.3126776251939
 30
0.0
  0
SPLINE
  5
F8
330
1F
100
AcDbEntity
  8
0
  6
Continuous
 62
     7
370
    15
100
AcDbSpline
210
0.0
220
0.0
230
1.0
 70
     8
 71
     3
 72
     9
 73
     5
 74
     0
 42
0.00000001
 43
0.00000001
 40
0.0
 40
0.0
 40
0.0
 40
0.0
 40
0.5039892177481115
 40
0.9999999999999999
 40
0.9999999999999999
 40
0.9999999999999999
 40
0.9999999999999999
 10
142.487669680833
 20
111.0211763995803
 30
0.0
 10
142.546062255319
 20
111.0701481246721
 30
0.0
 10
142.6619230166799
 20
111.16731632464
 30
0.0
 10
142.7777875827413
 20
111.2644839148101
 30
0.0
 10
142.8352576567887
 20
111.3126800872199
 30
0.0
  0
SPLINE
  5
F9
330
1F
100
AcDbEntity
  8
0
  6
Continuous
 62
     7
370
    15
100
AcDbSpline
210
0.0
220
0.0
230
1.0
 70
     8
 71
     3
 72
     9
 73
     5
 74
     0
 42
0.00000001
 43
0.00000001
 40
0.0
 40
0.0
 40
0.0
 40
0.0
 40
0.5044405253336735
 40
1.0
 40
1.0
 40
1.0
 40
1.0
 10
141.7879912728926
 20
111.0213881105495
 30
0.0
 10
141.846381983697
 20
111.0703598112567
 30
0.0
 10
141.9621353934093
 20
111.1674410294534
 30
0.0
 10
142.0778923606309
 20
111.2645200012536
 30
0.0
 10
142.1352568224962
 20
111.3126284055201
 30
0.0
  0
SPLINE
  5
FA
330
1F
100
AcDbEntity
  8
0
  6
Continuous
 62
     7
370
    15
100
AcDbSpline
210
0.0
220
0.0
230
1.0
 70
     8
 71
     3
 72
     9
 73
     5
 74
     0
 42
0.00000001
 43
0.00000001
 40
0.0
 40
0.0
 40
0.0
 40
0.0
 40
0.5046676336502903
 40
0.9999999999999999
 40
0.9999999999999999
 40
0.9999999999999999
 40
0.9999999999999999
 10
141.0881625686601
 20
111.0215114654663
 30
0.0
 10
141.1465512657681
 20
111.0704820961665
 30
0.0
 10
141.2622485944943
 20
111.1675175060776
 30
0.0
 10
141.3779492295672
 20
111.264549740989
 30
0.0
 10
141.4352594989259
 20
111.3126129475198
 30
0.0
  0
SPLINE
  5
FB
330
1F
100
AcDbEntity
  8
0
  6
Continuous
 62
     7
370
    15
100
AcDbSpline
210
0.0
220
0.0
230
1.0
 70
     8
 71
     3
 72
     9
 73
     5
 74
     0
 42
0.00000001
 43
0.00000001
 40
0.0
 40
0.0
 40
0.0
 40
0.0
 40
0.5049699141963048
 40
1.0
 40
1.0
 40
1.0
 40
1.0
 10
140.3883619200889
 20
111.0216642683684
 30
0.0
 10
140.4467526551064
 20
111.0706367657122
 30
0.0
 10
140.5623847618438
 20
111.1676177857039
 30
0.0
 10
140.6780204163315
 20
111.2645950123891
 30
0.0
 10
140.7352635442945
 20
111.312601657236
 30
0.0
  0
SPLINE
  5
FC
330
1F
100
AcDbEntity
  8
0
  6
Continuous
 62
     7
370
    15
100
AcDbSpline
210
0.0
220
0.0
230
1.0
 70
     8
 71
     3
 72
     9
 73
     5
 74
     0
 42
0.00000001
 43
0.00000001
 40
0.0
 40
0.0
 40
0.0
 40
0.0
 40
0.4866366306584377
 40
1.0
 40
1.0
 40
1.0
 40
1.0
 10
139.7011194052697
 20
111.0323594336188
 30
0.0
 10
139.7553213077872
 20
111.0778188879346
 30
0.0
 10
139.8667019542548
 20
111.1712344909779
 30
0.0
 10
139.9780862203181
 20
111.2646458364982
 30
0.0
 10
140.035266822436
 20
111.3125997995692
 30
0.0
  0
LINE
  5
FD
330
1F
100
AcDbEntity
  8
0
  6
Continuous
 62
     7
370
    15
100
AcDbLine
 10
137.2211194053
 20
111.3007720294
 30
0.0
 11
137.2352568225
 21
111.3126284055
 31
0.0
  0
SPLINE
  5
FE
330
1F
100
AcDbEntity
  8
0
  6
Continuous
 62
     7
370
    15
100
AcDbSpline
210
0.0
220
0.0
230
1.0
 70
     8
 71
     3
 72
     9
 73
     5
 74
     0
 42
0.00000001
 43
0.00000001
 40
0.0
 40
0.0
 40
0.0
 40
0.0
 40
0.5299907035804151
 40
1.0
 40
1.0
 40
1.0
 40
1.0
 10
140.0316308724439
 20
117.1060879089763
 30
0.0
 10
139.9732423688476
 20
117.0571159439997
 30
0.0
 10
139.8630734485215
 20
116.96471438932
 30
0.0
 10
139.7529013267218
 20
116.8723185495493
 30
0.0
 10
139.7011194052697
 20
116.8288916459066
 30
0.0
  0
SPLINE
  5
FF
330
1F
100
AcDbEntity
  8
0
  6
Continuous
 62
     7
370
    15
100
AcDbSpline
210
0.0
220
0.0
230
1.0
 70
     8
 71
     3
 72
     9
 73
     5
 74
     0
 42
0.00000001
 43
0.00000001
 40
0.0
 40
0.0
 40
0.0
 40
0.0
 40
0.5062466604758159
 40
1.0
 40
1.0
 40
1.0
 40
1.0
 10
140.7312655425605
 20
117.105722605268
 30
0.0
 10
140.6728779169285
 20
117.0567521413228
 30
0.0
 10
140.5575435746198
 20
116.960019722586
 30
0.0
 10
140.4422059795346
 20
116.8632948500034
 30
0.0
 10
140.3852576567886
 20
116.8155366211507
 30
0.0
  0
SPLINE
  5
100
330
1F
100
AcDbEntity
  8
0
  6
Continuous
 62
     7
370
    15
100
AcDbSpline
210
0.0
220
0.0
230
1.0
 70
     8
 71
     3
 72
     9
 73
     5
 74
     0
 42
0.00000001
 43
0.00000001
 40
0.0
 40
0.0
 40
0.0
 40
0.0
 40
0.5067947430948005
 40
1.0
 40
1.0
 40
1.0
 40
1.0
 10
141.4309968497461
 20
117.105430944285
 30
0.0
 10
141.3726052941077
 20
117.0564568859131
 30
0.0
 10
141.2573879276412
 20
116.9598219877829
 30
0.0
 10
141.1421668119984
 20
116.8631956841056
 30
0.0
 10
141.0853391520569
 20
116.8155390831767
 30
0.0
  0
SPLINE
  5
101
330
1F
100
AcDbEntity
  8
0
  6
Continuous
 62
     7
370
    15
100
AcDbSpline
210
0.0
220
0.0
230
1.0
 70
     8
 71
     3
 72
     9
 73
     5
 74
     0
 42
0.00000001
 43
0.00000001
 40
0.0
 40
0.0
 40
0.0
 40
0.0
 40
0.5057729284361554
 40
1.0
 40
1.0
 40
1.0
 40
1.0
 10
142.131640785426
 20
117.1060973206223
 30
0.0
 10
142.0732483256885
 20
117.0571216246499
 30
0.0
 10
141.9577963976501
 20
116.9602882569096
 30
0.0
 10
141.8423406141952
 20
116.8634605609276
 30
0.0
 10
141.7852792404432
 20
116.8156056922961
 30
0.0
  0
SPLINE
  5
102
330
1F
100
AcDbEntity
  8
0
  6
Continuous
 62
     7
370
    15
100
AcDbSpline
210
0.0
220
0.0
230
1.0
 70
     8
 71
     3
 72
     9
 73
     5
 74
     0
 42
0.00000001
 43
0.00000001
 40
0.0
 40
0.0
 40
0.0
 40
0.0
 40
0.5052523677181608
 40
1.0
 40
1.0
 40
1.0
 40
1.0
 10
142.8319735139646
 20
117.1063979218912
 30
0.0
 10
142.7735829620188
 20
117.0574242226129
 30
0.0
 10
142.6580158599596
 20
116.9604950394811
 30
0.0
 10
142.5424451550508
 20
116.8635702291982
 30
0.0
 10
142.485266822436
 20
116.8156169088014
 30
0.0
  0
SPLINE
  5
103
330
1F
100
AcDbEntity
  8
0
  6
Continuous
 62
     7
370
    15
100
AcDbSpline
210
0.0
220
0.0
230
1.0
 70
     8
 71
     3
 72
     9
 73
     5
 74
     0
 42
0.00000001
 43
0.00000001
 40
0.0
 40
0.0
 40
0.0
 40
0.0
 40
0.5051074911062368
 40
1.0
 40
1.0
 40
1.0
 40
1.0
 10
143.5320534195452
 20
117.1064656946051
 30
0.0
 10
143.4736655219794
 20
117.0574943391746
 30
0.0
 10
143.3580705276587
 20
116.9605419947869
 30
0.0
 10
143.2424722606688
 20
116.8635939247483
 30
0.0
 10
143.1852635442945
 20
116.8156150511346
 30
0.0
  0
SPLINE
  5
104
330
1F
100
AcDbEntity
  8
0
  6
Continuous
 62
     7
370
    15
100
AcDbSpline
210
0.0
220
0.0
230
1.0
 70
     8
 71
     3
 72
     9
 73
     5
 74
     0
 42
0.00000001
 43
0.00000001
 40
0.0
 40
0.0
 40
0.0
 40
0.0
 40
0.5054873203693794
 40
1.0
 40
1.0
 40
1.0
 40
1.0
 10
144.231787817596
 20
117.1062338176775
 30
0.0
 10
144.1734000808395
 20
117.0572625257578
 30
0.0
 10
144.0578922641174
 20
116.9603831581727
 30
0.0
 10
143.9423811898091
 20
116.8635091742346
 30
0.0
 10
143.8852594989259
 20
116.8156037608508
 30
0.0
  0
SPLINE
  5
105
330
1F
100
AcDbEntity
  8
0
  6
Continuous
 62
     7
370
    15
100
AcDbSpline
210
0.0
220
0.0
230
1.0
 70
     8
 71
     3
 72
     9
 73
     5
 74
     0
 42
0.00000001
 43
0.00000001
 40
0.0
 40
0.0
 40
0.0
 40
0.0
 40
0.5057194308295816
 40
0.9999999999999999
 40
0.9999999999999999
 40
0.9999999999999999
 40
0.9999999999999999
 10
144.9316308724439
 20
117.1060879089763
 30
0.0
 10
144.8732423551201
 20
117.0571159685043
 30
0.0
 10
144.7577860096363
 20
116.9602797832868
 30
0.0
 10
144.6423263090287
 20
116.863449587257
 30
0.0
 10
144.5852568224962
 20
116.8155883028505
 30
0.0
  0
SPLINE
  5
106
330
1F
100
AcDbEntity
  8
0
  6
Continuous
 62
     7
370
    15
100
AcDbSpline
210
0.0
220
0.0
230
1.0
 70
     8
 71
     3
 72
     9
 73
     5
 74
     0
 42
0.00000001
 43
0.00000001
 40
0.0
 40
0.0
 40
0.0
 40
0.0
 40
0.5062466604758175
 40
1.0
 40
1.0
 40
1.0
 40
1.0
 10
145.6312655425605
 20
117.105722605268
 30
0.0
 10
145.5728779169285
 20
117.0567521413228
 30
0.0
 10
145.4575435746197
 20
116.960019722586
 30
0.0
 10
145.3422059795346
 20
116.8632948500034
 30
0.0
 10
145.2852576567886
 20
116.8155366211507
 30
0.0
  0
LINE
  5
107
330
1F
100
AcDbEntity
  8
0
  6
Continuous
 62
     7
370
    15
100
AcDbLine
 10
146.0319950036
 20
116.8542328483
 30
0.0
 11
145.9838763173
 21
116.8138896392
 31
0.0
  0
SPLINE
  5
108
330
1F
100
AcDbEntity
  8
0
  6
Continuous
 62
     7
370
    15
100
AcDbSpline
210
0.0
220
0.0
230
1.0
 70
     8
 71
     3
 72
     9
 73
     5
 74
     0
 42
0.00000001
 43
0.00000001
 40
0.0
 40
0.0
 40
0.0
 40
0.0
 40
0.7825372808693635
 40
0.9999999999999999
 40
0.9999999999999999
 40
0.9999999999999999
 40
0.9999999999999999
 10
145.631724523778
 20
111.3155697407172
 30
0.0
 10
145.6901130776612
 20
111.2666017201435
 30
0.0
 10
145.76472748302
 20
111.2040257614374
 30
0.0
 10
145.8393397759976
 20
111.1414470438045
 30
0.0
 10
145.8555651681092
 20
111.1278385057084
 30
0.0
  0
SPLINE
  5
109
330
1F
100
AcDbEntity
  8
0
  6
Continuous
 62
     7
370
    15
100
AcDbSpline
210
0.0
220
0.0
230
1.0
 70
     8
 71
     3
 72
     9
 73
     5
 74
     0
 42
0.00000001
 43
0.00000001
 40
0.0
 40
0.0
 40
0.0
 40
0.0
 40
0.4999945530075144
 40
1.0
 40
1.0
 40
1.0
 40
1.0
 10
144.9316285388155
 20
111.3156511298065
 30
0.0
 10
144.9900196420558
 20
111.2666807107622
 30
0.0
 10
145.1068031207739
 20
111.1687388056961
 30
0.0
 10
145.2235829588352
 20
111.0707924818936
 30
0.0
 10
145.2819735139647
 20
111.0218187864794
 30
0.0
  0
SPLINE
  5
10A
330
1F
100
AcDbEntity
  8
0
  6
Continuous
 62
     7
370
    15
100
AcDbSpline
210
0.0
220
0.0
230
1.0
 70
     8
 71
     3
 72
     9
 73
     5
 74
     0
 42
0.00000001
 43
0.00000001
 40
0.0
 40
0.0
 40
0.0
 40
0.0
 40
0.4999941634645
 40
1.0
 40
1.0
 40
1.0
 40
1.0
 10
144.231284244373
 20
111.3159614946236
 30
0.0
 10
144.2896772945561
 20
111.2669898161007
 30
0.0
 10
144.4064647581905
 20
111.1690453157417
 30
0.0
 10
144.5232483219399
 20
111.0710950782061
 30
0.0
 10
144.581640785426
 20
111.0221193877483
 30
0.0
  0
SPLINE
  5
10B
330
1F
100
AcDbEntity
  8
0
  6
Continuous
 62
     7
370
    15
100
AcDbSpline
210
0.0
220
0.0
230
1.0
 70
     8
 71
     3
 72
     9
 73
     5
 74
     0
 42
0.00000001
 43
0.00000001
 40
0.0
 40
0.0
 40
0.0
 40
0.0
 40
0.4999943091390296
 40
1.0
 40
1.0
 40
1.0
 40
1.0
 10
143.5306457775478
 20
111.3166136440875
 30
0.0
 10
143.5890379083278
 20
111.2676450659022
 30
0.0
 10
143.705823499109
 20
111.1697067948254
 30
0.0
 10
143.8226052898078
 20
111.0717598126006
 30
0.0
 10
143.8809968497461
 20
111.0227857640856
 30
0.0
  0
SPLINE
  5
10C
330
1F
100
AcDbEntity
  8
0
  6
Continuous
 62
     7
370
    15
100
AcDbSpline
210
0.0
220
0.0
230
1.0
 70
     8
 71
     3
 72
     9
 73
     5
 74
     0
 42
0.00000001
 43
0.00000001
 40
0.0
 40
0.0
 40
0.0
 40
0.0
 40
0.4999950688852473
 40
1.0
 40
1.0
 40
1.0
 40
1.0
 10
142.8309382831145
 20
111.3163024808705
 30
0.0
 10
142.8893264071943
 20
111.2673368109197
 30
0.0
 10
143.0061038070393
 20
111.1694045051873
 30
0.0
 10
143.1228779135024
 20
111.0714645590996
 30
0.0
 10
143.1812655425605
 20
111.0224941031026
 30
0.0
  0
SPLINE
  5
10D
330
1F
100
AcDbEntity
  8
0
  6
Continuous
 62
     7
370
    15
100
AcDbSpline
210
0.0
220
0.0
230
1.0
 70
     8
 71
     3
 72
     9
 73
     5
 74
     0
 42
0.00000001
 43
0.00000001
 40
0.0
 40
0.0
 40
0.0
 40
0.0
 40
0.4999949209363035
 40
0.9999999999999999
 40
0.9999999999999999
 40
0.9999999999999999
 40
0.9999999999999999
 10
142.1312982175969
 20
111.3159483364387
 30
0.0
 10
142.1896872486454
 20
111.2669804254394
 30
0.0
 10
142.3064664970008
 20
111.169043608586
 30
0.0
 10
142.4232423518882
 20
111.071100734097
 30
0.0
 10
142.4816308724439
 20
111.0221287993943
 30
0.0
  0
SPLINE
  5
10E
330
1F
100
AcDbEntity
  8
0
  6
Continuous
 62
     7
370
    15
100
AcDbSpline
210
0.0
220
0.0
230
1.0
 70
     8
 71
     3
 72
     9
 73
     5
 74
     0
 42
0.00000001
 43
0.00000001
 40
0.0
 40
0.0
 40
0.0
 40
0.0
 40
0.4999950715399042
 40
1.0
 40
1.0
 40
1.0
 40
1.0
 10
141.4314598921664
 20
111.3157995521756
 30
0.0
 10
141.489848127533
 20
111.2668319519434
 30
0.0
 10
141.606625749334
 20
111.1688957861299
 30
0.0
 10
141.7234000778302
 20
111.0709541776396
 30
0.0
 10
141.781787817596
 20
111.0219828906931
 30
0.0
  0
SPLINE
  5
10F
330
1F
100
AcDbEntity
  8
0
  6
Continuous
 62
     7
370
    15
100
AcDbSpline
210
0.0
220
0.0
230
1.0
 70
     8
 71
     3
 72
     9
 73
     5
 74
     0
 42
0.00000001
 43
0.00000001
 40
0.0
 40
0.0
 40
0.0
 40
0.0
 40
0.499995053748393
 40
1.0
 40
1.0
 40
1.0
 40
1.0
 10
140.731724523778
 20
111.3155697407172
 30
0.0
 10
140.7901129219788
 20
111.2666015168108
 30
0.0
 10
140.9068908736067
 20
111.1686641001517
 30
0.0
 10
141.0236655191678
 20
111.0707223655239
 30
0.0
 10
141.0820534195452
 20
111.0217510137655
 30
0.0
  0
SPLINE
  5
110
330
1F
100
AcDbEntity
  8
0
  6
Continuous
 62
     7
370
    15
100
AcDbSpline
210
0.0
220
0.0
230
1.0
 70
     8
 71
     3
 72
     9
 73
     5
 74
     0
 42
0.00000001
 43
0.00000001
 40
0.0
 40
0.0
 40
0.0
 40
0.0
 40
0.4999945530075078
 40
1.0
 40
1.0
 40
1.0
 40
1.0
 10
140.0316285388155
 20
111.3156511298065
 30
0.0
 10
140.0900196420558
 20
111.2666807107622
 30
0.0
 10
140.2068031207739
 20
111.1687388056961
 30
0.0
 10
140.3235829588351
 20
111.0707924818935
 30
0.0
 10
140.3819735139647
 20
111.0218187864794
 30
0.0
  0
LINE
  5
111
330
1F
100
AcDbEntity
  8
0
  6
Continuous
 62
     7
370
    15
100
AcDbLine
 10
145.8658499998
 20
111.1292803773
 30
0.0
 11
146.0861194053
 21
111.3141083542
 31
0.0
  0
LINE
  5
112
330
1F
100
AcDbEntity
  8
0
  6
Continuous
 62
     7
370
    15
100
AcDbLine
 10
146.0861194053
 20
116.8141083542
 30
0.0
 11
146.0377448815
 21
116.8546993993
 31
0.0
  0
ARC
  5
113
330
1F
100
AcDbEntity
  8
0
  6
Continuous
 62
     7
370
    15
100
AcDbCircle
 10
146.6161194053
 20
116.6041083542
 30
0.0
 40
0.1000000000000227
100
AcDbArc
 50
360.0
 51
90.0
  0
ARC
  5
114
330
1F
100
AcDbEntity
  8
0
  6
Continuous
 62
     7
370
    15
100
AcDbCircle
 10
146.6161194053
 20
111.5241083542
 30
0.0
 40
0.1000000000000227
100
AcDbArc
 50
270.0
 51
0.0
  0
LINE
  5
115
330
1F
100
AcDbEntity
  8
0
  6
Continuous
 62
     7
370
    15
100
AcDbLine
 10
146.6161194053
 20
116.7041083542
 30
0.0
 11
146.0861194053
 21
116.7041083542
 31
0.0
  0
LINE
  5
116
330
1F
100
AcDbEntity
  8
0
  6
Continuous
 62
     7
370
    15
100
AcDbLine
 10
146.0861194053
 20
111.4241083542
 30
0.0
 11
146.6161194053
 21
111.4241083542
 31
0.0
  0
LINE
  5
117
330
1F
100
AcDbEntity
  8
0
  6
Continuous
 62
     7
370
    15
100
AcDbLine
 10
125.9181194053
 20
105.1741083542
 30
0.0
 11
129.7281194053
 21
105.1741083542
 31
0.0
  0
LINE
  5
118
330
1F
100
AcDbEntity
  8
0
  6
Continuous
 62
     7
370
    15
100
AcDbLine
 10
129.7281194053
 20
122.9541083542
 30
0.0
 11
125.9181194053
 21
122.9541083542
 31
0.0
  0
LINE
  5
119
330
1F
100
AcDbEntity
  8
0
  6
Continuous
 62
     7
370
    15
100
AcDbLine
 10
129.7281194053
 20
105.1741083542
 30
0.0
 11
137.2211194053
 21
105.9996083542
 31
0.0
  0
LINE
  5
11A
330
1F
100
AcDbEntity
  8
0
  6
Continuous
 62
     7
370
    15
100
AcDbLine
 10
137.2211194053
 20
122.1286083542
 30
0.0
 11
129.7281194053
 21
122.9541083542
 31
0.0
  0
LINE
  5
11B
330
1F
100
AcDbEntity
  8
0
  6
Continuous
 62
     7
370
    15
100
AcDbLine
 10
77.4643055195
 20
105.1741083542
 30
0.0
 11
79.3091194053
 21
105.1741083542
 31
0.0
  0
LINE
  5
11C
330
1F
100
AcDbEntity
  8
0
  6
Continuous
 62
     7
370
    15
100
AcDbLine
 10
72.1971194053
 20
105.1741083542
 30
0.0
 11
75.9491707312
 21
105.1741083542
 31
0.0
  0
LINE
  5
11D
330
1F
100
AcDbEntity
  8
0
  6
Continuous
 62
     7
370
    15
100
AcDbLine
 10
79.3091194053
 20
122.9541083542
 30
0.0
 11
72.1971194053
 21
122.9541083542
 31
0.0
  0
LINE
  5
11E
330
1F
100
AcDbEntity
  8
0
  6
Continuous
 62
     7
370
    15
100
AcDbLine
 10
79.3091194053
 20
105.1741083542
 30
0.0
 11
79.5631194053
 21
105.4281083542
 31
0.0
  0
LINE
  5
11F
330
1F
100
AcDbEntity
  8
0
  6
Continuous
 62
     7
370
    15
100
AcDbLine
 10
79.5631194053
 20
122.7001083542
 30
0.0
 11
79.3091194053
 21
122.9541083542
 31
0.0
  0
LINE
  5
120
330
1F
100
AcDbEntity
  8
0
  6
Continuous
 62
     7
370
    15
100
AcDbLine
 10
125.9181194053
 20
122.9541083542
 30
0.0
 11
118.8061194053
 21
122.9541083542
 31
0.0
  0
LINE
  5
121
330
1F
100
AcDbEntity
  8
0
  6
Continuous
 62
     7
370
    15
100
AcDbLine
 10
118.8061194053
 20
105.1741083542
 30
0.0
 11
119.8920361765
 21
105.1741083542
 31
0.0
  0
LINE
  5
122
330
1F
100
AcDbEntity
  8
0
  6
Continuous
 62
     7
370
    15
100
AcDbLine
 10
122.8130361765
 20
105.1741083542
 30
0.0
 11
125.9181194053
 21
105.1741083542
 31
0.0
  0
LINE
  5
123
330
1F
100
AcDbEntity
  8
0
  6
Continuous
 62
     7
370
    15
100
AcDbLine
 10
118.8061194053
 20
122.9541083542
 30
0.0
 11
118.5521194053
 21
122.7001083542
 31
0.0
  0
LINE
  5
124
330
1F
100
AcDbEntity
  8
0
  6
Continuous
 62
     7
370
    15
100
AcDbLine
 10
118.5521194053
 20
105.4281083542
 30
0.0
 11
118.8061194053
 21
105.1741083542
 31
0.0
  0
LINE
  5
125
330
1F
100
AcDbEntity
  8
0
  6
Continuous
 62
     7
370
    15
100
AcDbLine
 10
75.302202634
 20
120.4915232936
 30
0.0
 11
75.302202634
 21
118.7135385248
 31
0.0
  0
LINE
  5
126
330
1F
100
AcDbEntity
  8
0
  6
Continuous
 62
     7
370
    15
100
AcDbLine
 10
78.223202634
 20
118.7135385248
 30
0.0
 11
78.223202634
 21
120.4915232936
 31
0.0
  0
LINE
  5
127
330
1F
100
AcDbEntity
  8
0
  6
Continuous
 62
     7
370
    15
100
AcDbLine
 10
75.772102634
 20
117.7082115875
 30
0.0
 11
75.772102634
 21
115.8862286617
 31
0.0
  0
LINE
  5
128
330
1F
100
AcDbEntity
  8
0
  6
Continuous
 62
     7
370
    15
100
AcDbLine
 10
77.753302634
 20
115.8862286617
 30
0.0
 11
77.753302634
 21
117.7082115875
 31
0.0
  0
LINE
  5
129
330
1F
100
AcDbEntity
  8
0
  6
Continuous
 62
     7
370
    15
100
AcDbLine
 10
122.8130361765
 20
103.6699549516
 30
0.0
 11
122.8130361765
 21
106.5452394337
 31
0.0
  0
LINE
  5
12A
330
1F
100
AcDbEntity
  8
0
  6
Continuous
 62
     7
370
    15
100
AcDbLine
 10
119.8920361765
 20
106.5452394337
 30
0.0
 11
119.8920361765
 21
103.6699549516
 31
0.0
  0
LINE
  5
12B
330
1F
100
AcDbEntity
  8
0
  6
Continuous
 62
     7
370
    15
100
AcDbLine
 10
122.3431361765
 20
107.4299957301
 30
0.0
 11
122.3431361765
 21
111.1174496783
 31
0.0
  0
LINE
  5
12C
330
1F
100
AcDbEntity
  8
0
  6
Continuous
 62
     7
370
    15
100
AcDbLine
 10
122.3431361765
 20
111.5017921442
 30
0.0
 11
122.3431361765
 21
111.5482344324
 31
0.0
  0
LINE
  5
12D
330
1F
100
AcDbEntity
  8
0
  6
Continuous
 62
     7
370
    15
100
AcDbLine
 10
120.3619361765
 20
111.5482344324
 30
0.0
 11
120.3619361765
 21
111.5017921442
 31
0.0
  0
LINE
  5
12E
330
1F
100
AcDbEntity
  8
0
  6
Continuous
 62
     7
370
    15
100
AcDbLine
 10
120.3619361765
 20
111.1174496783
 30
0.0
 11
120.3619361765
 21
107.4299957301
 31
0.0
  0
LINE
  5
12F
330
1F
100
AcDbEntity
  8
0
  6
Continuous
 62
     7
370
    15
100
AcDbLine
 10
115.2501194053
 20
103.6501083542
 30
0.0
 11
116.0121194053
 21
103.6501083542
 31
0.0
  0
LINE
  5
130
330
1F
100
AcDbEntity
  8
0
  6
Continuous
 62
     7
370
    15
100
AcDbLine
 10
116.0121194053
 20
124.4781083542
 30
0.0
 11
115.2501194053
 21
124.4781083542
 31
0.0
  0
LINE
  5
131
330
1F
100
AcDbEntity
  8
0
  6
Continuous
 62
     7
370
    15
100
AcDbLine
 10
116.0121194053
 20
103.6501083542
 30
0.0
 11
118.5521194053
 21
105.1741083542
 31
0.0
  0
LINE
  5
132
330
1F
100
AcDbEntity
  8
0
  6
Continuous
 62
     7
370
    15
100
AcDbLine
 10
118.5521194053
 20
122.9541083542
 30
0.0
 11
116.0121194053
 21
124.4781083542
 31
0.0
  0
LINE
  5
133
330
1F
100
AcDbEntity
  8
0
  6
Continuous
 62
     7
370
    15
100
AcDbLine
 10
112.2021194053
 20
125.7481083542
 30
0.0
 11
111.8211194053
 21
125.7481083542
 31
0.0
  0
LINE
  5
134
330
1F
100
AcDbEntity
  8
0
  6
Continuous
 62
     7
370
    15
100
AcDbLine
 10
111.8211194053
 20
102.3801083542
 30
0.0
 11
112.2021194053
 21
102.3801083542
 31
0.0
  0
LINE
  5
135
330
1F
100
AcDbEntity
  8
0
  6
Continuous
 62
     7
370
    15
100
AcDbLine
 10
115.2501194053
 20
124.4781083542
 30
0.0
 11
114.9054938558
 21
124.4781083542
 31
0.0
  0
LINE
  5
136
330
1F
100
AcDbEntity
  8
0
  6
Continuous
 62
     7
370
    15
100
AcDbLine
 10
112.3940538344
 20
124.4781083542
 30
0.0
 11
112.2021194053
 21
124.4781083542
 31
0.0
  0
LINE
  5
137
330
1F
100
AcDbEntity
  8
0
  6
Continuous
 62
     7
370
    15
100
AcDbLine
 10
112.2021194053
 20
103.6501083542
 30
0.0
 11
115.2501194053
 21
103.6501083542
 31
0.0
  0
SPLINE
  5
138
330
1F
100
AcDbEntity
  8
0
  6
Continuous
 62
     7
370
    15
100
AcDbSpline
210
0.0
220
0.0
230
1.0
 70
     8
 71
     3
 72
    13
 73
     9
 74
     0
 42
0.00000001
 43
0.00000001
 40
0.0
 40
0.0
 40
0.0
 40
0.0
 40
0.1253759941265833
 40
0.2506795482752768
 40
0.4999882556308473
 40
0.7491829700690699
 40
0.8745467264318264
 40
1.0
 40
1.0
 40
1.0
 40
1.0
 10
89.34273398860297
 20
116.857740483521
 30
0.0
 10
89.36956265732356
 20
116.8564135938318
 30
0.0
 10
89.42320449364601
 20
116.8537605811062
 30
0.0
 10
89.52654221399827
 20
116.8237517591782
 30
0.0
 10
89.6388969263289
 20
116.7464499787159
 30
0.0
 10
89.70975287730225
 20
116.6314188736641
 30
0.0
 10
89.73479086873438
 20
116.528871210458
 30
0.0
 10
89.73678743334276
 20
116.4761960107741
 30
0.0
 10
89.7377860719363
 20
116.449849010979
 30
0.0
  0
SPLINE
  5
139
330
1F
100
AcDbEntity
  8
0
  6
Continuous
 62
     7
370
    15
100
AcDbSpline
210
0.0
220
0.0
230
1.0
 70
     8
 71
     3
 72
    14
 73
    10
 74
     0
 42
0.00000001
 43
0.00000001
 40
0.0
 40
0.0
 40
0.0
 40
0.0
 40
0.1538979797772985
 40
0.2962374629164424
 40
0.4313302026764334
 40
0.5641953613877743
 40
0.7000991389004303
 40
0.8439744632396436
 40
1.0
 40
1.0
 40
1.0
 40
1.0
 10
89.00809857193632
 20
116.6204812235153
 30
0.0
 10
89.0162418055655
 20
116.6413826821021
 30
0.0
 10
89.03191667585122
 20
116.6816157967406
 30
0.0
 10
89.06616667201884
 20
116.7348851324496
 30
0.0
 10
89.10738646915115
 20
116.7789952479689
 30
0.0
 10
89.15619592541898
 20
116.8135408146914
 30
0.0
 10
89.21219602200331
 20
116.8382783185179
 30
0.0
 10
89.27517404258558
 20
116.8539295513789
 30
0.0
 10
89.31961386024379
 20
116.8564363196564
 30
0.0
 10
89.34273398860297
 20
116.857740483521
 30
0.0
  0
SPLINE
  5
13A
330
1F
100
AcDbEntity
  8
0
  6
Continuous
 62
     7
370
    15
100
AcDbSpline
210
0.0
220
0.0
230
1.0
 70
     8
 71
     3
 72
    12
 73
     8
 74
     0
 42
0.00000001
 43
0.00000001
 40
0.0
 40
0.0
 40
0.0
 40
0.0
 40
0.1253459297737049
 40
0.2505912690736407
 40
0.5000175732298507
 40
0.7496803128822375
 40
1.0
 40
1.0
 40
1.0
 40
1.0
 10
88.75315065526965
 20
116.8089436386587
 30
0.0
 10
88.76746545203545
 20
116.8084651748555
 30
0.0
 10
88.79608355790099
 20
116.8075086312177
 30
0.0
 10
88.85189614232986
 20
116.7946595558065
 30
0.0
 10
88.91625383329674
 20
116.7616805503027
 30
0.0
 10
88.97446717902451
 20
116.6979082209064
 30
0.0
 10
88.99687829200481
 20
116.6463128204183
 30
0.0
 10
89.00809857193632
 20
116.6204812235153
 30
0.0
  0
SPLINE
  5
13B
330
1F
100
AcDbEntity
  8
0
  6
Continuous
 62
     7
370
    15
100
AcDbSpline
210
0.0
220
0.0
230
1.0
 70
     8
 71
     3
 72
    13
 73
     9
 74
     0
 42
0.00000001
 43
0.00000001
 40
0.0
 40
0.0
 40
0.0
 40
0.0
 40
0.125447522112847
 40
0.2508203329984565
 40
0.5000958868324941
 40
0.7493919306318879
 40
0.8746788371340696
 40
1.0
 40
1.0
 40
1.0
 40
1.0
 10
88.42111940526965
 20
116.4478027350534
 30
0.0
 10
88.4219251228786
 20
116.4705443626762
 30
0.0
 10
88.42353607824528
 20
116.5160140739721
 30
0.0
 10
88.44372232668499
 20
116.6047910949407
 30
0.0
 10
88.50096525248472
 20
116.7060693729237
 30
0.0
 10
88.59519726707853
 20
116.776636052133
 30
0.0
 10
88.68365401484
 20
116.8053784271828
 30
0.0
 10
88.72998299751086
 20
116.8077551265407
 30
0.0
 10
88.75315065526965
 20
116.8089436386587
 30
0.0
  0
SPLINE
  5
13C
330
1F
100
AcDbEntity
  8
0
  6
Continuous
 62
     7
370
    15
100
AcDbSpline
210
0.0
220
0.0
230
1.0
 70
     8
 71
     3
 72
    13
 73
     9
 74
     0
 42
0.00000001
 43
0.00000001
 40
0.0
 40
0.0
 40
0.0
 40
0.0
 40
0.1253635536148436
 40
0.2506672486256938
 40
0.4998072237810433
 40
0.7491124244855265
 40
0.8745187856892709
 40
1.0
 40
1.0
 40
1.0
 40
1.0
 10
88.74898398860299
 20
116.0887658700774
 30
0.0
 10
88.72605697234044
 20
116.0899450074646
 30
0.0
 10
88.68021388700973
 20
116.0923027192243
 30
0.0
 10
88.59258946175207
 20
116.1205711449804
 30
0.0
 10
88.49896867572211
 20
116.1907497340686
 30
0.0
 10
88.44292883564337
 20
116.2920337838692
 30
0.0
 10
88.42361494791244
 20
116.3802707601012
 30
0.0
 10
88.42195141825702
 20
116.4252875997635
 30
0.0
 10
88.42111940526965
 20
116.4478027350534
 30
0.0
  0
SPLINE
  5
13D
330
1F
100
AcDbEntity
  8
0
  6
Continuous
 62
     7
370
    15
100
AcDbSpline
210
0.0
220
0.0
230
1.0
 70
     8
 71
     3
 72
    12
 73
     8
 74
     0
 42
0.00000001
 43
0.00000001
 40
0.0
 40
0.0
 40
0.0
 40
0.0
 40
0.2503336938832017
 40
0.4999412209455842
 40
0.7493923898621354
 40
0.8746376430548911
 40
1.0
 40
1.0
 40
1.0
 40
1.0
 10
89.00809857193632
 20
116.2828718942696
 30
0.0
 10
88.99693346962198
 20
116.2562326201204
 30
0.0
 10
88.97463565267047
 20
116.2030313469053
 30
0.0
 10
88.91604032647219
 20
116.1365246142421
 30
0.0
 10
88.84994419103364
 20
116.1027766366116
 30
0.0
 10
88.79278032444456
 20
116.0905338982758
 30
0.0
 10
88.76358731431343
 20
116.0893553963734
 30
0.0
 10
88.74898398860299
 20
116.0887658700774
 30
0.0
  0
SPLINE
  5
13E
330
1F
100
AcDbEntity
  8
0
  6
Continuous
 62
     7
370
    15
100
AcDbSpline
210
0.0
220
0.0
230
1.0
 70
     8
 71
     3
 72
    13
 73
     9
 74
     0
 42
0.00000001
 43
0.00000001
 40
0.0
 40
0.0
 40
0.0
 40
0.0
 40
0.1432536792181965
 40
0.2864626595473631
 40
0.5709620798459317
 40
0.7850795835911375
 40
0.89253509806582
 40
1.0
 40
1.0
 40
1.0
 40
1.0
 10
89.33830690526965
 20
116.0393897789047
 30
0.0
 10
89.31696059962927
 20
116.0401054414801
 30
0.0
 10
89.27427464895334
 20
116.0415365433254
 30
0.0
 10
89.19119600285383
 20
116.0609810398327
 30
0.0
 10
89.10532074886939
 20
116.108903607948
 30
0.0
 10
89.04930573839084
 20
116.1805598781057
 30
0.0
 10
89.0217157595123
 20
116.2375165890148
 30
0.0
 10
89.0126377666335
 20
116.2677530189546
 30
0.0
 10
89.00809857193632
 20
116.2828718942696
 30
0.0
  0
SPLINE
  5
13F
330
1F
100
AcDbEntity
  8
0
  6
Continuous
 62
     7
370
    15
100
AcDbSpline
210
0.0
220
0.0
230
1.0
 70
     8
 71
     3
 72
    13
 73
     9
 74
     0
 42
0.00000001
 43
0.00000001
 40
0.0
 40
0.0
 40
0.0
 40
0.0
 40
0.1254639835961772
 40
0.2508465926737853
 40
0.4999836356513047
 40
0.7492708281829639
 40
0.8746047906680661
 40
1.0
 40
1.0
 40
1.0
 40
1.0
 10
89.7377860719363
 20
116.449849010979
 30
0.0
 10
89.73681680583782
 20
116.4233101749363
 30
0.0
 10
89.73487890229588
 20
116.3702497156394
 30
0.0
 10
89.7088439893054
 20
116.2669001068736
 30
0.0
 10
89.63757534006905
 20
116.1503022495399
 30
0.0
 10
89.52346778262854
 20
116.0728850865257
 30
0.0
 10
89.4192757608863
 20
116.043315681878
 30
0.0
 10
89.3653009187085
 20
116.0406986263228
 30
0.0
 10
89.33830690526965
 20
116.0393897789047
 30
0.0
  0
LINE
  5
140
330
1F
100
AcDbEntity
  8
0
  6
Continuous
 62
     7
370
    15
100
AcDbLine
 10
89.1877860719
 20
115.8910808678
 30
0.0
 11
89.3377860719
 21
115.8910808678
 31
0.0
  0
LINE
  5
141
330
1F
100
AcDbEntity
  8
0
  6
Continuous
 62
     7
370
    15
100
AcDbLine
 10
89.1877860719
 20
115.4115673976
 30
0.0
 11
89.1877860719
 21
115.8910808678
 31
0.0
  0
LINE
  5
142
330
1F
100
AcDbEntity
  8
0
  6
Continuous
 62
     7
370
    15
100
AcDbLine
 10
89.3377860719
 20
115.4115673976
 30
0.0
 11
89.1877860719
 21
115.4115673976
 31
0.0
  0
LINE
  5
143
330
1F
100
AcDbEntity
  8
0
  6
Continuous
 62
     7
370
    15
100
AcDbLine
 10
89.3377860719
 20
115.4115673976
 30
0.0
 11
89.3377860719
 21
115.8910808678
 31
0.0
  0
SPLINE
  5
144
330
1F
100
AcDbEntity
  8
0
  6
Continuous
 62
     7
370
    15
100
AcDbSpline
210
0.0
220
0.0
230
1.0
 70
     8
 71
     3
 72
    13
 73
     9
 74
     0
 42
0.00000001
 43
0.00000001
 40
0.0
 40
0.0
 40
0.0
 40
0.0
 40
0.1429345655180459
 40
0.2858438394086357
 40
0.5714318180243303
 40
0.7856607241192687
 40
0.8928227031175929
 40
1.0
 40
1.0
 40
1.0
 40
1.0
 10
88.74611940526964
 20
113.5642375111002
 30
0.0
 10
88.73537302859809
 20
113.5850805888827
 30
0.0
 10
88.71388217677791
 20
113.6267630563589
 30
0.0
 10
88.66381722903795
 20
113.7061168657666
 30
0.0
 10
88.59757790894227
 20
113.7887956145646
 30
0.0
 10
88.52441474993152
 20
113.856725337419
 30
0.0
 10
88.46782985292472
 20
113.8988056021007
 30
0.0
 10
88.43669029629032
 20
113.9152589606071
 30
0.0
 10
88.42111940526965
 20
113.9234862277849
 30
0.0
  0
LINE
  5
145
330
1F
100
AcDbEntity
  8
0
  6
Continuous
 62
     7
370
    15
100
AcDbLine
 10
88.8997652386
 20
113.5642375111
 30
0.0
 11
88.7461194053
 21
113.5642375111
 31
0.0
  0
SPLINE
  5
146
330
1F
100
AcDbEntity
  8
0
  6
Continuous
 62
     7
370
    15
100
AcDbSpline
210
0.0
220
0.0
230
1.0
 70
     8
 71
     3
 72
    13
 73
     9
 74
     0
 42
0.00000001
 43
0.00000001
 40
0.0
 40
0.0
 40
0.0
 40
0.0
 40
0.1466724693305791
 40
0.285679415605133
 40
0.4999687919243334
 40
0.7000082070206737
 40
0.8456774467496363
 40
0.9999999999999999
 40
0.9999999999999999
 40
0.9999999999999999
 40
0.9999999999999999
 10
88.7080985719363
 20
113.864116620766
 30
0.0
 10
88.72004502190026
 20
113.8513222727277
 30
0.0
 10
88.7433135661597
 20
113.8264022458998
 30
0.0
 10
88.7803803541182
 20
113.7795841383599
 30
0.0
 10
88.81688614214102
 20
113.7245102566504
 30
0.0
 10
88.85091199689188
 20
113.6670105004394
 30
0.0
 10
88.87845475723022
 20
113.614061686189
 30
0.0
 10
88.8925264447508
 20
113.5811619027183
 30
0.0
 10
88.89976523860298
 20
113.5642375111002
 30
0.0
  0
LINE
  5
147
330
1F
100
AcDbEntity
  8
0
  6
Continuous
 62
     7
370
    15
100
AcDbLine
 10
89.7211194053
 20
113.8641166208
 30
0.0
 11
88.7080985719
 21
113.8641166208
 31
0.0
  0
LINE
  5
148
330
1F
100
AcDbEntity
  8
0
  6
Continuous
 62
     7
370
    15
100
AcDbLine
 10
89.7211194053
 20
113.8641166208
 30
0.0
 11
89.7211194053
 21
114.0307750591
 31
0.0
  0
LINE
  5
149
330
1F
100
AcDbEntity
  8
0
  6
Continuous
 62
     7
370
    15
100
AcDbLine
 10
88.4211194053
 20
114.0307750591
 30
0.0
 11
89.7211194053
 21
114.0307750591
 31
0.0
  0
LINE
  5
14A
330
1F
100
AcDbEntity
  8
0
  6
Continuous
 62
     7
370
    15
100
AcDbLine
 10
88.4211194053
 20
113.9234862278
 30
0.0
 11
88.4211194053
 21
114.0307750591
 31
0.0
  0
SPLINE
  5
14B
330
1F
100
AcDbEntity
  8
0
  6
Continuous
 62
     7
370
    15
100
AcDbSpline
210
0.0
220
0.0
230
1.0
 70
     8
 71
     3
 72
    14
 73
    10
 74
     0
 42
0.00000001
 43
0.00000001
 40
0.0
 40
0.0
 40
0.0
 40
0.0
 40
0.1866167136771211
 40
0.3517513593577027
 40
0.4999573663130302
 40
0.6259378597623182
 40
0.7499745370334423
 40
0.8681444332492096
 40
1.0
 40
1.0
 40
1.0
 40
1.0
 10
89.03778607193631
 20
110.873152798485
 30
0.0
 10
89.04922295721607
 20
110.8953627619541
 30
0.0
 10
89.07078019003143
 20
110.9372260264368
 30
0.0
 10
89.11164667639216
 20
110.9911201406073
 30
0.0
 10
89.15595508420142
 20
111.0313257921155
 30
0.0
 10
89.2026111499775
 20
111.0594125177479
 30
0.0
 10
89.24939089607992
 20
111.0784402838464
 30
0.0
 10
89.29970799039849
 20
111.0895756357974
 30
0.0
 10
89.33401601519272
 20
111.0911175270515
 30
0.0
 10
89.35210898860298
 20
111.0919306720119
 30
0.0
  0
SPLINE
  5
14C
330
1F
100
AcDbEntity
  8
0
  6
Continuous
 62
     7
370
    15
100
AcDbSpline
210
0.0
220
0.0
230
1.0
 70
     8
 71
     3
 72
    14
 73
    10
 74
     0
 42
0.00000001
 43
0.00000001
 40
0.0
 40
0.0
 40
0.0
 40
0.0
 40
0.0713011744330697
 40
0.1248754264786222
 40
0.2498697344860517
 40
0.4998871847287849
 40
0.7499622477128414
 40
0.8811931487980853
 40
1.0
 40
1.0
 40
1.0
 40
1.0
 10
88.86330690526964
 20
110.3810720727589
 30
0.0
 10
88.87123625096743
 20
110.390867231767
 30
0.0
 10
88.88512354572215
 20
110.4080222739984
 30
0.0
 10
88.90434297809207
 20
110.4474053898135
 30
0.0
 10
88.93103836115657
 20
110.5172451917892
 30
0.0
 10
88.95883123254136
 20
110.6227486996184
 30
0.0
 10
88.98679876199354
 20
110.7294451074646
 30
0.0
 10
89.01334451414073
 20
110.8130638607701
 30
0.0
 10
89.02991331334721
 20
110.8537978251048
 30
0.0
 10
89.03778607193631
 20
110.873152798485
 30
0.0
  0
SPLINE
  5
14D
330
1F
100
AcDbEntity
  8
0
  6
Continuous
 62
     7
370
    15
100
AcDbSpline
210
0.0
220
0.0
230
1.0
 70
     8
 71
     3
 72
    11
 73
     7
 74
     0
 42
0.00000001
 43
0.00000001
 40
0.0
 40
0.0
 40
0.0
 40
0.0
 40
0.2501873538144441
 40
0.5000533373535112
 40
0.7498770688379671
 40
0.9999999999999999
 40
0.9999999999999999
 40
0.9999999999999999
 40
0.9999999999999999
 10
88.74846315526965
 20
110.336485624105
 30
0.0
 10
88.75910882303859
 20
110.3369033884339
 30
0.0
 10
88.78038648401966
 20
110.3377383804659
 30
0.0
 10
88.81117759059417
 20
110.3463607296266
 30
0.0
 10
88.83987767865156
 20
110.3602484172784
 30
0.0
 10
88.85549404778956
 20
110.3741280854419
 30
0.0
 10
88.86330690526964
 20
110.3810720727589
 30
0.0
  0
SPLINE
  5
14E
330
1F
100
AcDbEntity
  8
0
  6
Continuous
 62
     7
370
    15
100
AcDbSpline
210
0.0
220
0.0
230
1.0
 70
     8
 71
     3
 72
    13
 73
     9
 74
     0
 42
0.00000001
 43
0.00000001
 40
0.0
 40
0.0
 40
0.0
 40
0.0
 40
0.2822917440402447
 40
0.4999384749470096
 40
0.6258122990415057
 40
0.7502554418985266
 40
0.8697214335289705
 40
1.0
 40
1.0
 40
1.0
 40
1.0
 10
88.55445273860298
 20
110.6004770838908
 30
0.0
 10
88.5559084860155
 20
110.5662632232919
 30
0.0
 10
88.55848661363235
 20
110.5056705008657
 30
0.0
 10
88.5839453144792
 20
110.4324072669252
 30
0.0
 10
88.6202028630258
 20
110.3872156921217
 30
0.0
 10
88.6566994076974
 20
110.3589580600836
 30
0.0
 10
88.70050478721721
 20
110.3403314983758
 30
0.0
 10
88.73202218882268
 20
110.3378040569961
 30
0.0
 10
88.74846315526965
 20
110.336485624105
 30
0.0
  0
SPLINE
  5
14F
330
1F
100
AcDbEntity
  8
0
  6
Continuous
 62
     7
370
    15
100
AcDbSpline
210
0.0
220
0.0
230
1.0
 70
     8
 71
     3
 72
    13
 73
     9
 74
     0
 42
0.00000001
 43
0.00000001
 40
0.0
 40
0.0
 40
0.0
 40
0.0
 40
0.125487289382987
 40
0.2509127659364198
 40
0.4995294388593065
 40
0.7489512884513595
 40
0.8744400244845827
 40
0.9999999999999999
 40
0.9999999999999999
 40
0.9999999999999999
 40
0.9999999999999999
 10
88.78778607193631
 20
110.8817237034249
 30
0.0
 10
88.77046214768218
 20
110.879391319164
 30
0.0
 10
88.73582283263403
 20
110.8747276995336
 30
0.0
 10
88.67000354843083
 20
110.8521643628043
 30
0.0
 10
88.59850173132008
 20
110.7980370630756
 30
0.0
 10
88.56628545353985
 20
110.7172189405281
 30
0.0
 10
88.5556626688602
 20
110.6509360587694
 30
0.0
 10
88.55485612497904
 20
110.6172999237984
 30
0.0
 10
88.55445273860298
 20
110.6004770838908
 30
0.0
  0
LINE
  5
150
330
1F
100
AcDbEntity
  8
0
  6
Continuous
 62
     7
370
    15
100
AcDbLine
 10
88.7877860719
 20
110.8817237034
 30
0.0
 11
88.7877860719
 21
111.0595332988
 31
0.0
  0
SPLINE
  5
151
330
1F
100
AcDbEntity
  8
0
  6
Continuous
 62
     7
370
    15
100
AcDbSpline
210
0.0
220
0.0
230
1.0
 70
     8
 71
     3
 72
    14
 73
    10
 74
     0
 42
0.00000001
 43
0.00000001
 40
0.0
 40
0.0
 40
0.0
 40
0.0
 40
0.1253902327911827
 40
0.2507157573304951
 40
0.5001831080638524
 40
0.6995390850256356
 40
0.8495686871310705
 40
0.9247617720890894
 40
1.0
 40
1.0
 40
1.0
 40
1.0
 10
88.40445273860298
 20
110.5934624046428
 30
0.0
 10
88.40519286997622
 20
110.6211761627002
 30
0.0
 10
88.40667275077425
 20
110.6765893769928
 30
0.0
 10
88.42714930381995
 20
110.785609403433
 30
0.0
 10
88.4764735562497
 20
110.9073046199102
 30
0.0
 10
88.57871284743193
 20
111.0019388031737
 30
0.0
 10
88.66874407591493
 20
111.0408208589654
 30
0.0
 10
88.73608546459008
 20
111.0560629799043
 30
0.0
 10
88.77054908875637
 20
111.0583762944213
 30
0.0
 10
88.78778607193631
 20
111.0595332987812
 30
0.0
  0
SPLINE
  5
152
330
1F
100
AcDbEntity
  8
0
  6
Continuous
 62
     7
370
    15
100
AcDbSpline
210
0.0
220
0.0
230
1.0
 70
     8
 71
     3
 72
    14
 73
    10
 74
     0
 42
0.00000001
 43
0.00000001
 40
0.0
 40
0.0
 40
0.0
 40
0.0
 40
0.1250485999696697
 40
0.2501063812407831
 40
0.3745169102080523
 40
0.5000713637633004
 40
0.7494703062247129
 40
0.8747070021140873
 40
1.0
 40
1.0
 40
1.0
 40
1.0
 10
88.76044232193631
 20
110.1616217047649
 30
0.0
 10
88.7335697692823
 20
110.1633270195126
 30
0.0
 10
88.67982269094135
 20
110.1667377742154
 30
0.0
 10
88.6043788966096
 20
110.1958389391725
 30
0.0
 10
88.53743069902617
 20
110.2391584005375
 30
0.0
 10
88.46652132534089
 20
110.317113930022
 30
0.0
 10
88.42647891288021
 20
110.4148511467816
 30
0.0
 10
88.40693030739628
 20
110.5159799726684
 30
0.0
 10
88.40527871858893
 20
110.5676310581037
 30
0.0
 10
88.40445273860298
 20
110.5934624046428
 30
0.0
  0
SPLINE
  5
153
330
1F
100
AcDbEntity
  8
0
  6
Continuous
 62
     7
370
    15
100
AcDbSpline
210
0.0
220
0.0
230
1.0
 70
     8
 71
     3
 72
    12
 73
     8
 74
     0
 42
0.00000001
 43
0.00000001
 40
0.0
 40
0.0
 40
0.0
 40
0.0
 40
0.2502991132230119
 40
0.5000708066538213
 40
0.7495559503184305
 40
0.8747446730907116
 40
1.0
 40
1.0
 40
1.0
 40
1.0
 10
89.04143190526965
 20
110.3447017142931
 30
0.0
 10
89.02677459408314
 20
110.3196046305611
 30
0.0
 10
88.99749085698141
 20
110.269463346619
 30
0.0
 10
88.93234089468437
 20
110.208298431926
 30
0.0
 10
88.8640482177181
 20
110.1765526760925
 30
0.0
 10
88.80552692984892
 20
110.1630924157659
 30
0.0
 10
88.77547318877969
 20
110.1621120286746
 30
0.0
 10
88.76044232193631
 20
110.1616217047649
 30
0.0
  0
SPLINE
  5
154
330
1F
100
AcDbEntity
  8
0
  6
Continuous
 62
     7
370
    15
100
AcDbSpline
210
0.0
220
0.0
230
1.0
 70
     8
 71
     3
 72
    12
 73
     8
 74
     0
 42
0.00000001
 43
0.00000001
 40
0.0
 40
0.0
 40
0.0
 40
0.0
 40
0.1023777004585894
 40
0.2500282650218363
 40
0.5001086790329846
 40
0.787321604931851
 40
0.9999999999999999
 40
0.9999999999999999
 40
0.9999999999999999
 40
0.9999999999999999
 10
89.18544232193632
 20
110.779982350243
 30
0.0
 10
89.1798634971658
 20
110.7652561151021
 30
0.0
 10
89.16623881257156
 20
110.7292914957943
 30
0.0
 10
89.14476132970043
 20
110.6556168753846
 30
0.0
 10
89.11714671862698
 20
110.5546129587137
 30
0.0
 10
89.0857695502375
 20
110.4442429670244
 30
0.0
 10
89.05466521979405
 20
110.3744114723667
 30
0.0
 10
89.04143190526965
 20
110.3447017142931
 30
0.0
  0
SPLINE
  5
155
330
1F
100
AcDbEntity
  8
0
  6
Continuous
 62
     7
370
    15
100
AcDbSpline
210
0.0
220
0.0
230
1.0
 70
     8
 71
     3
 72
    11
 73
     7
 74
     0
 42
0.00000001
 43
0.00000001
 40
0.0
 40
0.0
 40
0.0
 40
0.0
 40
0.2498314367133257
 40
0.4993908787071954
 40
0.7493679892730575
 40
0.9999999999999999
 40
0.9999999999999999
 40
0.9999999999999999
 40
0.9999999999999999
 10
89.36096315526964
 20
110.914004478462
 30
0.0
 10
89.340921789083
 20
110.9124395596326
 30
0.0
 10
89.30086087600453
 20
110.9093114257213
 30
0.0
 10
89.24791399805453
 20
110.8785330498348
 30
0.0
 10
89.20987657324022
 20
110.8329020990577
 30
0.0
 10
89.19359417261897
 20
110.7976376442455
 30
0.0
 10
89.18544232193632
 20
110.779982350243
 30
0.0
  0
SPLINE
  5
156
330
1F
100
AcDbEntity
  8
0
  6
Continuous
 62
     7
370
    15
100
AcDbSpline
210
0.0
220
0.0
230
1.0
 70
     8
 71
     3
 72
    13
 73
     9
 74
     0
 42
0.00000001
 43
0.00000001
 40
0.0
 40
0.0
 40
0.0
 40
0.0
 40
0.125518332925125
 40
0.2510180723640186
 40
0.5009458692464365
 40
0.749483051325011
 40
0.8747632726798968
 40
0.9999999999999999
 40
0.9999999999999999
 40
0.9999999999999999
 40
0.9999999999999999
 10
89.5877860719363
 20
110.6272936779404
 30
0.0
 10
89.58735340622565
 20
110.644060452393
 30
0.0
 10
89.58648813889666
 20
110.6775915175751
 30
0.0
 10
89.5741236509016
 20
110.7435430722355
 30
0.0
 10
89.5427334888015
 20
110.8233635361399
 30
0.0
 10
89.47748988967473
 20
110.8829168633782
 30
0.0
 10
89.4131898051238
 20
110.9100812033929
 30
0.0
 10
89.3783700234508
 20
110.9126968714805
 30
0.0
 10
89.36096315526964
 20
110.914004478462
 30
0.0
  0
SPLINE
  5
157
330
1F
100
AcDbEntity
  8
0
  6
Continuous
 62
     7
370
    15
100
AcDbSpline
210
0.0
220
0.0
230
1.0
 70
     8
 71
     3
 72
    14
 73
    10
 74
     0
 42
0.00000001
 43
0.00000001
 40
0.0
 40
0.0
 40
0.0
 40
0.0
 40
0.1252698477738061
 40
0.2504771218349118
 40
0.3773803357894588
 40
0.5003786877757823
 40
0.7495615112129552
 40
0.8747424081572769
 40
1.0
 40
1.0
 40
1.0
 40
1.0
 10
89.27111940526963
 20
110.2887168918017
 30
0.0
 10
89.29305058714667
 20
110.2914461255118
 30
0.0
 10
89.33690199602611
 20
110.2969032296485
 30
0.0
 10
89.40091699713386
 20
110.3153420641557
 30
0.0
 10
89.46019926618447
 20
110.3448099427829
 30
0.0
 10
89.5246281938472
 20
110.4035587290227
 30
0.0
 10
89.56517257055702
 20
110.4807432946513
 30
0.0
 10
89.58536990848457
 20
110.56343763172
 30
0.0
 10
89.58698051970656
 20
110.6060039839922
 30
0.0
 10
89.5877860719363
 20
110.6272936779404
 30
0.0
  0
LINE
  5
158
330
1F
100
AcDbEntity
  8
0
  6
Continuous
 62
     7
370
    15
100
AcDbLine
 10
89.2711194053
 20
110.1140711536
 30
0.0
 11
89.2711194053
 21
110.2887168918
 31
0.0
  0
SPLINE
  5
159
330
1F
100
AcDbEntity
  8
0
  6
Continuous
 62
     7
370
    15
100
AcDbSpline
210
0.0
220
0.0
230
1.0
 70
     8
 71
     3
 72
    14
 73
    10
 74
     0
 42
0.00000001
 43
0.00000001
 40
0.0
 40
0.0
 40
0.0
 40
0.0
 40
0.1345125208379608
 40
0.2506091454986532
 40
0.4994167495728271
 40
0.6228309771556565
 40
0.7496421576939705
 40
0.8687716328911795
 40
0.9999999999999999
 40
0.9999999999999999
 40
0.9999999999999999
 40
0.9999999999999999
 10
89.7377860719363
 20
110.6350660682404
 30
0.0
 10
89.73663237622459
 20
110.6002468435478
 30
0.0
 10
89.73448293545374
 20
110.535375439066
 30
0.0
 10
89.71142368829894
 20
110.4083977147049
 30
0.0
 10
89.65521046875067
 20
110.2897295304842
 30
0.0
 10
89.55690761922793
 20
110.2009114554717
 30
0.0
 10
89.47079168870695
 20
110.1525188113022
 30
0.0
 10
89.37364181319278
 20
110.1219336041079
 30
0.0
 10
89.30637709501804
 20
110.1167750682308
 30
0.0
 10
89.27111940526963
 20
110.1140711535717
 30
0.0
  0
SPLINE
  5
15A
330
1F
100
AcDbEntity
  8
0
  6
Continuous
 62
     7
370
    15
100
AcDbSpline
210
0.0
220
0.0
230
1.0
 70
     8
 71
     3
 72
    14
 73
    10
 74
     0
 42
0.00000001
 43
0.00000001
 40
0.0
 40
0.0
 40
0.0
 40
0.0
 40
0.0627422792362496
 40
0.1254426041577965
 40
0.2506693586167494
 40
0.4994444178293923
 40
0.7491469847764749
 40
0.8745550503302303
 40
1.0
 40
1.0
 40
1.0
 40
1.0
 10
89.35210898860298
 20
111.0919306720119
 30
0.0
 10
89.36629505704951
 20
111.0914116788525
 30
0.0
 10
89.39465770804591
 20
111.0903740395724
 30
0.0
 10
89.45055258161193
 20
111.0802499809912
 30
0.0
 10
89.54341611752506
 20
111.0454930335006
 30
0.0
 10
89.65408966220672
 20
110.9522569771021
 30
0.0
 10
89.71203875046949
 20
110.8243929985566
 30
0.0
 10
89.73508466982513
 20
110.7171174219308
 30
0.0
 10
89.73688551630357
 20
110.6624192003174
 30
0.0
 10
89.7377860719363
 20
110.6350660682404
 30
0.0
  0
SPLINE
  5
15B
330
1F
100
AcDbEntity
  8
0
  6
Continuous
 62
     7
370
    15
100
AcDbSpline
210
0.0
220
0.0
230
1.0
 70
     8
 71
     3
 72
    10
 73
     6
 74
     0
 42
0.00000001
 43
0.00000001
 40
0.0
 40
0.0
 40
0.0
 40
0.0
 40
0.2321912897319964
 40
0.5654743303980154
 40
1.0
 40
1.0
 40
1.0
 40
1.0
 10
87.70613543091068
 20
119.5675841802175
 30
0.0
 10
87.70873601763948
 20
119.5303852273367
 30
0.0
 10
87.71506943798794
 20
119.4397915922521
 30
0.0
 10
87.71890771613836
 20
119.2782573083737
 30
0.0
 10
87.72032009709314
 20
119.1531140683265
 30
0.0
 10
87.72111940526963
 20
119.0822918056321
 30
0.0
  0
SPLINE
  5
15C
330
1F
100
AcDbEntity
  8
0
  6
Continuous
 62
     7
370
    15
100
AcDbSpline
210
0.0
220
0.0
230
1.0
 70
     8
 71
     3
 72
    14
 73
    10
 74
     0
 42
0.00000001
 43
0.00000001
 40
0.0
 40
0.0
 40
0.0
 40
0.0
 40
0.0716436916533251
 40
0.1432559352740257
 40
0.2863418368390412
 40
0.5004935785225215
 40
0.7494792052122788
 40
0.8747006673519734
 40
0.9999999999999999
 40
0.9999999999999999
 40
0.9999999999999999
 40
0.9999999999999999
 10
87.08341908475683
 20
120.06260665224
 30
0.0
 10
87.10529093759983
 20
120.0619430997425
 30
0.0
 10
87.14902504262562
 20
120.0606162860144
 30
0.0
 10
87.2356883642347
 20
120.0490341974007
 30
0.0
 10
87.36080506443261
 20
120.0129767015882
 30
0.0
 10
87.52310781565164
 20
119.9293840580259
 30
0.0
 10
87.63716785148505
 20
119.7992034977601
 30
0.0
 10
87.68948203863913
 20
119.6699730510215
 30
0.0
 10
87.70058314995066
 20
119.6017208755293
 30
0.0
 10
87.70613543091068
 20
119.5675841802175
 30
0.0
  0
SPLINE
  5
15D
330
1F
100
AcDbEntity
  8
0
  6
Continuous
 62
     7
370
    15
100
AcDbSpline
210
0.0
220
0.0
230
1.0
 70
     8
 71
     3
 72
    13
 73
     9
 74
     0
 42
0.00000001
 43
0.00000001
 40
0.0
 40
0.0
 40
0.0
 40
0.0
 40
0.1252671326901673
 40
0.2504963459163713
 40
0.4998739960635745
 40
0.7494562813174518
 40
0.8747110270281363
 40
1.0
 40
1.0
 40
1.0
 40
1.0
 10
86.55192870014145
 20
119.7227631812143
 30
0.0
 10
86.56179422608932
 20
119.7475418960728
 30
0.0
 10
86.58152229160353
 20
119.7970918250547
 30
0.0
 10
86.64055992079575
 20
119.8878248949821
 30
0.0
 10
86.74510684722739
 20
119.9824530946429
 30
0.0
 10
86.88003295071367
 20
120.0386901542569
 30
0.0
 10
86.99525894675011
 20
120.059864173421
 30
0.0
 10
87.05402969582609
 20
120.0616924093807
 30
0.0
 10
87.08341908475683
 20
120.06260665224
 30
0.0
  0
SPLINE
  5
15E
330
1F
100
AcDbEntity
  8
0
  6
Continuous
 62
     7
370
    15
100
AcDbSpline
210
0.0
220
0.0
230
1.0
 70
     8
 71
     3
 72
    13
 73
     9
 74
     0
 42
0.00000001
 43
0.00000001
 40
0.0
 40
0.0
 40
0.0
 40
0.0
 40
0.1430822408629194
 40
0.2860787158207744
 40
0.5711905163813211
 40
0.7853762017265298
 40
0.8926504142749722
 40
1.0
 40
1.0
 40
1.0
 40
1.0
 10
86.07464504629527
 20
119.9878918912856
 30
0.0
 10
86.10297874643373
 20
119.9869523070196
 30
0.0
 10
86.15962916301356
 20
119.9850737016903
 30
0.0
 10
86.26994569167579
 20
119.9611263960723
 30
0.0
 10
86.38484228094862
 20
119.9088376883374
 30
0.0
 10
86.47346130426459
 20
119.8353091733148
 30
0.0
 10
86.52289787240338
 20
119.7735152579782
 30
0.0
 10
86.54224949221364
 20
119.7396845004477
 30
0.0
 10
86.55192870014145
 20
119.7227631812143
 30
0.0
  0
SPLINE
  5
15F
330
1F
100
AcDbEntity
  8
0
  6
Continuous
 62
     7
370
    15
100
AcDbSpline
210
0.0
220
0.0
230
1.0
 70
     8
 71
     3
 72
    17
 73
    13
 74
     0
 42
0.00000001
 43
0.00000001
 40
0.0
 40
0.0
 40
0.0
 40
0.0
 40
0.1252083340299296
 40
0.1878141287896516
 40
0.2504179467777979
 40
0.3755072472275273
 40
0.5003985852996538
 40
0.6234888671874842
 40
0.7501321255031699
 40
0.8748673277808021
 40
0.9374160714635696
 40
1.0
 40
1.0
 40
1.0
 40
1.0
 10
85.52111940526964
 20
119.2119321924165
 30
0.0
 10
85.52150675941051
 20
119.2562753717107
 30
0.0
 10
85.52208779565757
 20
119.3227907171262
 30
0.0
 10
85.52523874182813
 20
119.4110019663909
 30
0.0
 10
85.53265504111346
 20
119.4986793820441
 30
0.0
 10
85.5459027902612
 20
119.6078861980145
 30
0.0
 10
85.59617610387436
 20
119.7313545053457
 30
0.0
 10
85.68127623862699
 20
119.8384322411059
 30
0.0
 10
85.79472502525454
 20
119.9212258014482
 30
0.0
 10
85.90639587657152
 20
119.9678002138344
 30
0.0
 10
86.00176843844483
 20
119.9854714353014
 30
0.0
 10
86.05034829044455
 20
119.9870849213973
 30
0.0
 10
86.07464504629527
 20
119.9878918912856
 30
0.0
  0
LINE
  5
160
330
1F
100
AcDbEntity
  8
0
  6
Continuous
 62
     7
370
    15
100
AcDbLine
 10
85.5211194053
 20
118.3898734416
 30
0.0
 11
85.5211194053
 21
119.2119321924
 31
0.0
  0
LINE
  5
161
330
1F
100
AcDbEntity
  8
0
  6
Continuous
 62
     7
370
    15
100
AcDbLine
 10
87.7211194053
 20
118.3898734416
 30
0.0
 11
85.5211194053
 21
118.3898734416
 31
0.0
  0
LINE
  5
162
330
1F
100
AcDbEntity
  8
0
  6
Continuous
 62
     7
370
    15
100
AcDbLine
 10
87.7211194053
 20
118.3898734416
 30
0.0
 11
87.7211194053
 21
119.0822918056
 31
0.0
  0
SPLINE
  5
163
330
1F
100
AcDbEntity
  8
0
  6
Continuous
 62
     7
370
    15
100
AcDbSpline
210
0.0
220
0.0
230
1.0
 70
     8
 71
     3
 72
    17
 73
    13
 74
     0
 42
0.00000001
 43
0.00000001
 40
0.0
 40
0.0
 40
0.0
 40
0.0
 40
0.0625881285934212
 40
0.1251586120237812
 40
0.2501028301891422
 40
0.3749428334924734
 40
0.4999079917394285
 40
0.6223557709499621
 40
0.7497794586707295
 40
0.8748305566857297
 40
0.9374091556886591
 40
1.0
 40
1.0
 40
1.0
 40
1.0
 10
85.49291427706451
 20
110.9209523452105
 30
0.0
 10
85.49381689660824
 20
110.9561799512306
 30
0.0
 10
85.49562188122462
 20
111.0266252317251
 30
0.0
 10
85.51227805682946
 20
111.1670165957675
 30
0.0
 10
85.5598165070128
 20
111.3390491566481
 30
0.0
 10
85.66259307723858
 20
111.5288869977077
 30
0.0
 10
85.80769811548744
 20
111.6886970547756
 30
0.0
 10
85.98700455213111
 20
111.8131952200597
 30
0.0
 10
86.19035554183573
 20
111.8941246581699
 30
0.0
 10
86.37039434545719
 20
111.9301138950566
 30
0.0
 10
86.51520160180159
 20
111.9426644158337
 30
0.0
 10
86.58786772507317
 20
111.9439452186516
 30
0.0
 10
86.62420434116707
 20
111.944585682711
 30
0.0
  0
SPLINE
  5
164
330
1F
100
AcDbEntity
  8
0
  6
Continuous
 62
     7
370
    15
100
AcDbSpline
210
0.0
220
0.0
230
1.0
 70
     8
 71
     3
 72
    11
 73
     7
 74
     0
 42
0.00000001
 43
0.00000001
 40
0.0
 40
0.0
 40
0.0
 40
0.0
 40
0.2499356838248954
 40
0.4999334376532631
 40
0.7499636020153894
 40
1.0
 40
1.0
 40
1.0
 40
1.0
 10
85.57929248219271
 20
110.4739478403975
 30
0.0
 10
85.56499263286345
 20
110.5093952323232
 30
0.0
 10
85.53638938292451
 20
110.5802988193182
 30
0.0
 10
85.51092015196072
 20
110.6922613620337
 30
0.0
 10
85.49519601641349
 20
110.8059714711283
 30
0.0
 10
85.4936748631682
 20
110.8826250686725
 30
0.0
 10
85.49291427706451
 20
110.9209523452105
 30
0.0
  0
SPLINE
  5
165
330
1F
100
AcDbEntity
  8
0
  6
Continuous
 62
     7
370
    15
100
AcDbSpline
210
0.0
220
0.0
230
1.0
 70
     8
 71
     3
 72
    13
 73
     9
 74
     0
 42
0.00000001
 43
0.00000001
 40
0.0
 40
0.0
 40
0.0
 40
0.0
 40
0.1250915895742502
 40
0.2501492781716045
 40
0.5000887273771345
 40
0.7498897267418414
 40
0.8749299811088226
 40
1.0
 40
1.0
 40
1.0
 40
1.0
 10
86.07508575142349
 20
110.0175214613435
 30
0.0
 10
86.04846442896883
 20
110.0293313738755
 30
0.0
 10
85.99522899868391
 20
110.052947998344
 30
0.0
 10
85.89482389148603
 20
110.1111063719896
 30
0.0
 10
85.77938571915074
 20
110.198251079273
 30
0.0
 10
85.6811394820495
 20
110.3032026404983
 30
0.0
 10
85.61624685072998
 20
110.3971651599393
 30
0.0
 10
85.59161158228348
 20
110.4483515830877
 30
0.0
 10
85.57929248219271
 20
110.4739478403975
 30
0.0
  0
SPLINE
  5
166
330
1F
100
AcDbEntity
  8
0
  6
Continuous
 62
     7
370
    15
100
AcDbSpline
210
0.0
220
0.0
230
1.0
 70
     8
 71
     3
 72
    12
 73
     8
 74
     0
 42
0.00000001
 43
0.00000001
 40
0.0
 40
0.0
 40
0.0
 40
0.0
 40
0.2857216906151985
 40
0.500014875420462
 40
0.7499865848686241
 40
0.8640794813418087
 40
1.0
 40
1.0
 40
1.0
 40
1.0
 10
86.6343405591158
 20
109.9244885610363
 30
0.0
 10
86.57987523836567
 20
109.9255216335325
 30
0.0
 10
86.48456056165712
 20
109.9273295173316
 30
0.0
 10
86.34257877871899
 20
109.9437304024282
 30
0.0
 10
86.23432648508503
 20
109.9645012297628
 30
0.0
 10
86.14346336080928
 20
109.9918560892225
 30
0.0
 10
86.09916738643564
 20
110.0084824772459
 30
0.0
 10
86.07508575142349
 20
110.0175214613435
 30
0.0
  0
SPLINE
  5
167
330
1F
100
AcDbEntity
  8
0
  6
Continuous
 62
     7
370
    15
100
AcDbSpline
210
0.0
220
0.0
230
1.0
 70
     8
 71
     3
 72
    17
 73
    13
 74
     0
 42
0.00000001
 43
0.00000001
 40
0.0
 40
0.0
 40
0.0
 40
0.0
 40
0.062591649086455
 40
0.1251658232884662
 40
0.2501395423444177
 40
0.3746114631499732
 40
0.4999078358946082
 40
0.621657913850561
 40
0.7497877270664639
 40
0.8748256470144301
 40
0.9374066112419214
 40
1.0
 40
1.0
 40
1.0
 40
1.0
 10
87.74932453347476
 20
110.9269306416459
 30
0.0
 10
87.74843748624956
 20
110.8920090320681
 30
0.0
 10
87.74666363945272
 20
110.8221755626332
 30
0.0
 10
87.73057466358478
 20
110.6837179931647
 30
0.0
 10
87.68483796125047
 20
110.5150730546719
 30
0.0
 10
87.5850479878703
 20
110.3295948343198
 30
0.0
 10
87.4430446330027
 20
110.1742567300632
 30
0.0
 10
87.26607245793119
 20
110.0533492008203
 30
0.0
 10
87.0651213924751
 20
109.9739826775273
 30
0.0
 10
86.88616591120054
 20
109.9389518412792
 30
0.0
 10
86.74252651292336
 20
109.9263062469204
 30
0.0
 10
86.67040492992814
 20
109.9250944964229
 30
0.0
 10
86.6343405591158
 20
109.9244885610363
 30
0.0
  0
SPLINE
  5
168
330
1F
100
AcDbEntity
  8
0
  6
Continuous
 62
     7
370
    15
100
AcDbSpline
210
0.0
220
0.0
230
1.0
 70
     8
 71
     3
 72
    17
 73
    13
 74
     0
 42
0.00000001
 43
0.00000001
 40
0.0
 40
0.0
 40
0.0
 40
0.0
 40
0.0625934539964154
 40
0.1251749991422326
 40
0.2502164723795581
 40
0.3786758173197585
 40
0.5000760303589196
 40
0.6257419589732497
 40
0.7498720014268228
 40
0.8748360772302526
 40
0.9374089716014339
 40
1.0
 40
1.0
 40
1.0
 40
1.0
 10
86.62420434116707
 20
111.944585682711
 30
0.0
 10
86.66033570535146
 20
111.9439601943831
 30
0.0
 10
86.73259155947075
 20
111.942709336731
 30
0.0
 10
86.87653550180369
 20
111.9299206724844
 30
0.0
 10
87.05616307865874
 20
111.8941679596833
 30
0.0
 10
87.2581135333555
 20
111.8131293768154
 30
0.0
 10
87.43690228031522
 20
111.6894986999186
 30
0.0
 10
87.58086652136436
 20
111.5310835940558
 30
0.0
 10
87.68331714556568
 20
111.3424417076638
 30
0.0
 10
87.729980982283
 20
111.1716105572116
 30
0.0
 10
87.74663167218421
 20
111.0320179507894
 30
0.0
 10
87.74842682634927
 20
110.9619631279266
 30
0.0
 10
87.74932453347476
 20
110.9269306416459
 30
0.0
  0
LINE
  5
169
330
1F
100
AcDbEntity
  8
0
  6
Continuous
 62
     7
370
    15
100
AcDbLine
 10
86.7621450463
 20
108.366033532
 30
0.0
 11
87.7211194053
 21
108.366033532
 31
0.0
  0
LINE
  5
16A
330
1F
100
AcDbEntity
  8
0
  6
Continuous
 62
     7
370
    15
100
AcDbLine
 10
86.7621450463
 20
108.366033532
 30
0.0
 11
86.7621450463
 21
109.1863586963
 31
0.0
  0
LINE
  5
16B
330
1F
100
AcDbEntity
  8
0
  6
Continuous
 62
     7
370
    15
100
AcDbLine
 10
87.7211194053
 20
109.1863586963
 30
0.0
 11
86.7621450463
 21
109.1863586963
 31
0.0
  0
LINE
  5
16C
330
1F
100
AcDbEntity
  8
0
  6
Continuous
 62
     7
370
    15
100
AcDbLine
 10
87.7211194053
 20
109.1863586963
 30
0.0
 11
87.7211194053
 21
109.5796205437
 31
0.0
  0
LINE
  5
16D
330
1F
100
AcDbEntity
  8
0
  6
Continuous
 62
     7
370
    15
100
AcDbLine
 10
85.5211194053
 20
109.5796205437
 30
0.0
 11
87.7211194053
 21
109.5796205437
 31
0.0
  0
LINE
  5
16E
330
1F
100
AcDbEntity
  8
0
  6
Continuous
 62
     7
370
    15
100
AcDbLine
 10
85.5211194053
 20
109.1863586963
 30
0.0
 11
85.5211194053
 21
109.5796205437
 31
0.0
  0
LINE
  5
16F
330
1F
100
AcDbEntity
  8
0
  6
Continuous
 62
     7
370
    15
100
AcDbLine
 10
86.3954783796
 20
109.1863586963
 30
0.0
 11
85.5211194053
 21
109.1863586963
 31
0.0
  0
LINE
  5
170
330
1F
100
AcDbEntity
  8
0
  6
Continuous
 62
     7
370
    15
100
AcDbLine
 10
86.3954783796
 20
108.366033532
 30
0.0
 11
86.3954783796
 21
109.1863586963
 31
0.0
  0
LINE
  5
171
330
1F
100
AcDbEntity
  8
0
  6
Continuous
 62
     7
370
    15
100
AcDbLine
 10
85.5211194053
 20
108.366033532
 30
0.0
 11
86.3954783796
 21
108.366033532
 31
0.0
  0
LINE
  5
172
330
1F
100
AcDbEntity
  8
0
  6
Continuous
 62
     7
370
    15
100
AcDbLine
 10
85.5211194053
 20
107.9911615713
 30
0.0
 11
85.5211194053
 21
108.366033532
 31
0.0
  0
LINE
  5
173
330
1F
100
AcDbEntity
  8
0
  6
Continuous
 62
     7
370
    15
100
AcDbLine
 10
87.7211194053
 20
107.9911615713
 30
0.0
 11
85.5211194053
 21
107.9911615713
 31
0.0
  0
LINE
  5
174
330
1F
100
AcDbEntity
  8
0
  6
Continuous
 62
     7
370
    15
100
AcDbLine
 10
87.7211194053
 20
107.9911615713
 30
0.0
 11
87.7211194053
 21
108.366033532
 31
0.0
  0
LINE
  5
175
330
1F
100
AcDbEntity
  8
0
  6
Continuous
 62
     7
370
    15
100
AcDbLine
 10
85.8877860719
 20
107.190738889
 30
0.0
 11
87.7211194053
 21
107.190738889
 31
0.0
  0
LINE
  5
176
330
1F
100
AcDbEntity
  8
0
  6
Continuous
 62
     7
370
    15
100
AcDbLine
 10
85.8877860719
 20
107.190738889
 30
0.0
 11
85.8877860719
 21
107.7449654022
 31
0.0
  0
LINE
  5
177
330
1F
100
AcDbEntity
  8
0
  6
Continuous
 62
     7
370
    15
100
AcDbLine
 10
85.5211194053
 20
107.7449654022
 30
0.0
 11
85.8877860719
 21
107.7449654022
 31
0.0
  0
LINE
  5
178
330
1F
100
AcDbEntity
  8
0
  6
Continuous
 62
     7
370
    15
100
AcDbLine
 10
85.5211194053
 20
106.3150119234
 30
0.0
 11
85.5211194053
 21
107.7449654022
 31
0.0
  0
LINE
  5
179
330
1F
100
AcDbEntity
  8
0
  6
Continuous
 62
     7
370
    15
100
AcDbLine
 10
85.8877860719
 20
106.3150119234
 30
0.0
 11
85.5211194053
 21
106.3150119234
 31
0.0
  0
LINE
  5
17A
330
1F
100
AcDbEntity
  8
0
  6
Continuous
 62
     7
370
    15
100
AcDbLine
 10
85.8877860719
 20
106.3150119234
 30
0.0
 11
85.8877860719
 21
106.8388582184
 31
0.0
  0
LINE
  5
17B
330
1F
100
AcDbEntity
  8
0
  6
Continuous
 62
     7
370
    15
100
AcDbLine
 10
87.7211194053
 20
106.8388582184
 30
0.0
 11
85.8877860719
 21
106.8388582184
 31
0.0
  0
LINE
  5
17C
330
1F
100
AcDbEntity
  8
0
  6
Continuous
 62
     7
370
    15
100
AcDbLine
 10
87.7211194053
 20
106.8388582184
 30
0.0
 11
87.7211194053
 21
107.190738889
 31
0.0
  0
LINE
  5
17D
330
1F
100
AcDbEntity
  8
0
  6
Continuous
 62
     7
370
    15
100
AcDbLine
 10
84.7701194053
 20
101.3641083542
 30
0.0
 11
84.7701194053
 21
126.7641083542
 31
0.0
  0
LINE
  5
17E
330
1F
100
AcDbEntity
  8
0
  6
Continuous
 62
     7
370
    15
100
AcDbLine
 10
86.7903501745
 20
112.7268482676
 30
0.0
 11
87.7211194053
 21
112.7268482676
 31
0.0
  0
LINE
  5
17F
330
1F
100
AcDbEntity
  8
0
  6
Continuous
 62
     7
370
    15
100
AcDbLine
 10
86.7903501745
 20
112.7268482676
 30
0.0
 11
86.7903501745
 21
112.8211094817
 31
0.0
  0
SPLINE
  5
180
330
1F
100
AcDbEntity
  8
0
  6
Continuous
 62
     7
370
    15
100
AcDbSpline
210
0.0
220
0.0
230
1.0
 70
     8
 71
     3
 72
    15
 73
    11
 74
     0
 42
0.00000001
 43
0.00000001
 40
0.0
 40
0.0
 40
0.0
 40
0.0
 40
0.2002344733615549
 40
0.3504045063778806
 40
0.4388412571953133
 40
0.500555649195947
 40
0.6294727491428419
 40
0.7498357722725745
 40
0.8565698388423282
 40
0.9999999999999999
 40
0.9999999999999999
 40
0.9999999999999999
 40
0.9999999999999999
 10
87.22180049501324
 20
113.4403209789089
 30
0.0
 10
87.17823801254801
 20
113.40882412415
 30
0.0
 10
87.10200493485382
 20
113.3537055441225
 30
0.0
 10
87.00748590951692
 20
113.2833635695979
 30
0.0
 10
86.94515138694167
 20
113.2322178678383
 30
0.0
 10
86.88926729569401
 20
113.1823772327426
 30
0.0
 10
86.83668311037168
 20
113.1160508701205
 30
0.0
 10
86.8027203725876
 20
113.025324412025
 30
0.0
 10
86.79244378221074
 20
112.9262978133579
 30
0.0
 10
86.79111310837287
 20
112.8594412765422
 30
0.0
 10
86.79035017450042
 20
112.8211094817167
 30
0.0
  0
SPLINE
  5
181
330
1F
100
AcDbEntity
  8
0
  6
Continuous
 62
     7
370
    15
100
AcDbSpline
210
0.0
220
0.0
230
1.0
 70
     8
 71
     3
 72
     8
 73
     4
 74
     0
 42
0.00000001
 43
0.00000001
 40
0.0
 40
0.0
 40
0.0
 40
0.0
 40
1.0
 40
1.0
 40
1.0
 40
1.0
 10
87.72111940526963
 20
113.7530016570478
 30
0.0
 10
87.55467976851752
 20
113.6487327424581
 30
0.0
 10
87.38824013176537
 20
113.5444953049439
 30
0.0
 10
87.22180049501323
 20
113.4403209789089
 30
0.0
  0
LINE
  5
182
330
1F
100
AcDbEntity
  8
0
  6
Continuous
 62
     7
370
    15
100
AcDbLine
 10
87.7211194053
 20
113.753001657
 30
0.0
 11
87.7211194053
 21
114.2474353201
 31
0.0
  0
SPLINE
  5
183
330
1F
100
AcDbEntity
  8
0
  6
Continuous
 62
     7
370
    15
100
AcDbSpline
210
0.0
220
0.0
230
1.0
 70
     8
 71
     3
 72
     8
 73
     4
 74
     0
 42
0.00000001
 43
0.00000001
 40
0.0
 40
0.0
 40
0.0
 40
0.0
 40
1.0
 40
1.0
 40
1.0
 40
1.0
 10
87.28570273860298
 20
113.9808156820862
 30
0.0
 10
87.43084162749186
 20
114.0696893048238
 30
0.0
 10
87.57598051638075
 20
114.1585690461406
 30
0.0
 10
87.72111940526963
 20
114.247435320134
 30
0.0
  0
SPLINE
  5
184
330
1F
100
AcDbEntity
  8
0
  6
Continuous
 62
     7
370
    15
100
AcDbSpline
210
0.0
220
0.0
230
1.0
 70
     8
 71
     3
 72
    13
 73
     9
 74
     0
 42
0.00000001
 43
0.00000001
 40
0.0
 40
0.0
 40
0.0
 40
0.0
 40
0.1250180037919789
 40
0.2500054537724464
 40
0.3727988116843552
 40
0.4999358767823949
 40
0.7143045023856764
 40
1.0
 40
1.0
 40
1.0
 40
1.0
 10
86.73570273860298
 20
113.5266086906204
 30
0.0
 10
86.75237616633629
 20
113.5516605615917
 30
0.0
 10
86.78571894689566
 20
113.601758180975
 30
0.0
 10
86.84297947574524
 20
113.6710601861331
 30
0.0
 10
86.907236992989
 20
113.7346450864307
 30
0.0
 10
86.99493181581992
 20
113.8042149925492
 30
0.0
 10
87.12192119668086
 20
113.886198640132
 30
0.0
 10
87.22615316659783
 20
113.946413732473
 30
0.0
 10
87.28570273860298
 20
113.9808156820862
 30
0.0
  0
SPLINE
  5
185
330
1F
100
AcDbEntity
  8
0
  6
Continuous
 62
     7
370
    15
100
AcDbSpline
210
0.0
220
0.0
230
1.0
 70
     8
 71
     3
 72
    14
 73
    10
 74
     0
 42
0.00000001
 43
0.00000001
 40
0.0
 40
0.0
 40
0.0
 40
0.0
 40
0.0716931483172213
 40
0.1433744577711652
 40
0.2508124812913234
 40
0.5000195068341128
 40
0.7492028771393748
 40
0.8745721564858805
 40
1.0
 40
1.0
 40
1.0
 40
1.0
 10
86.13061459757735
 20
114.0782109153896
 30
0.0
 10
86.15220025471172
 20
114.0777568617091
 30
0.0
 10
86.19536800448859
 20
114.0768488293271
 30
0.0
 10
86.27032952868312
 20
114.0668611776839
 30
0.0
 10
86.3959958101624
 20
114.0369325772721
 30
0.0
 10
86.55896288400304
 20
113.9412474381162
 30
0.0
 10
86.66649397081028
 20
113.7808034854488
 30
0.0
 10
86.71540643908929
 20
113.6380558441928
 30
0.0
 10
86.72893625230662
 20
113.5637635245302
 30
0.0
 10
86.73570273860298
 20
113.5266086906204
 30
0.0
  0
SPLINE
  5
186
330
1F
100
AcDbEntity
  8
0
  6
Continuous
 62
     7
370
    15
100
AcDbSpline
210
0.0
220
0.0
230
1.0
 70
     8
 71
     3
 72
    16
 73
    12
 74
     0
 42
0.00000001
 43
0.00000001
 40
0.0
 40
0.0
 40
0.0
 40
0.0
 40
0.1252351593882219
 40
0.2504602880508479
 40
0.3506148253166308
 40
0.5002210996727453
 40
0.6250064101095569
 40
0.7499024694027632
 40
0.8748156116251725
 40
0.9374037008091612
 40
0.9999999999999999
 40
0.9999999999999999
 40
0.9999999999999999
 40
0.9999999999999999
 10
85.52111940526964
 20
113.2251764148959
 30
0.0
 10
85.52156002434641
 20
113.2753157831895
 30
0.0
 10
85.5224412272085
 20
113.3755905038578
 30
0.0
 10
85.53288535183681
 20
113.5158957849625
 30
0.0
 10
85.55522481524476
 20
113.664477717853
 30
0.0
 10
85.6047224263854
 20
113.8094002800706
 30
0.0
 10
85.7099487091337
 20
113.9340503339439
 30
0.0
 10
85.83667705747541
 20
114.0177419361899
 30
0.0
 10
85.95597408992111
 20
114.0599311983103
 30
0.0
 10
86.05523129723436
 20
114.0763957079606
 30
0.0
 10
86.1054857321789
 20
114.0776058197922
 30
0.0
 10
86.13061459757735
 20
114.0782109153896
 30
0.0
  0
LINE
  5
187
330
1F
100
AcDbEntity
  8
0
  6
Continuous
 62
     7
370
    15
100
AcDbLine
 10
85.5211194053
 20
112.3069430315
 30
0.0
 11
85.5211194053
 21
113.2251764149
 31
0.0
  0
LINE
  5
188
330
1F
100
AcDbEntity
  8
0
  6
Continuous
 62
     7
370
    15
100
AcDbLine
 10
87.7211194053
 20
112.3069430315
 30
0.0
 11
85.5211194053
 21
112.3069430315
 31
0.0
  0
LINE
  5
189
330
1F
100
AcDbEntity
  8
0
  6
Continuous
 62
     7
370
    15
100
AcDbLine
 10
87.7211194053
 20
112.3069430315
 30
0.0
 11
87.7211194053
 21
112.7268482676
 31
0.0
  0
LINE
  5
18A
330
1F
100
AcDbEntity
  8
0
  6
Continuous
 62
     7
370
    15
100
AcDbLine
 10
87.3544527386
 20
116.0444554154
 30
0.0
 11
87.7211194053
 21
116.0444554154
 31
0.0
  0
LINE
  5
18B
330
1F
100
AcDbEntity
  8
0
  6
Continuous
 62
     7
370
    15
100
AcDbLine
 10
87.3544527386
 20
114.9237070681
 30
0.0
 11
87.3544527386
 21
116.0444554154
 31
0.0
  0
LINE
  5
18C
330
1F
100
AcDbEntity
  8
0
  6
Continuous
 62
     7
370
    15
100
AcDbLine
 10
85.5211194053
 20
114.9237070681
 30
0.0
 11
87.3544527386
 21
114.9237070681
 31
0.0
  0
LINE
  5
18D
330
1F
100
AcDbEntity
  8
0
  6
Continuous
 62
     7
370
    15
100
AcDbLine
 10
85.5211194053
 20
114.5012015048
 30
0.0
 11
85.5211194053
 21
114.9237070681
 31
0.0
  0
LINE
  5
18E
330
1F
100
AcDbEntity
  8
0
  6
Continuous
 62
     7
370
    15
100
AcDbLine
 10
87.7211194053
 20
114.5012015048
 30
0.0
 11
85.5211194053
 21
114.5012015048
 31
0.0
  0
LINE
  5
18F
330
1F
100
AcDbEntity
  8
0
  6
Continuous
 62
     7
370
    15
100
AcDbLine
 10
87.7211194053
 20
114.5012015048
 30
0.0
 11
87.7211194053
 21
116.0444554154
 31
0.0
  0
SPLINE
  5
190
330
1F
100
AcDbEntity
  8
0
  6
Continuous
 62
     7
370
    15
100
AcDbSpline
210
0.0
220
0.0
230
1.0
 70
     8
 71
     3
 72
     8
 73
     4
 74
     0
 42
0.00000001
 43
0.00000001
 40
0.0
 40
0.0
 40
0.0
 40
0.0
 40
1.0
 40
1.0
 40
1.0
 40
1.0
 10
87.72111940526963
 20
116.127991183213
 30
0.0
 10
86.9877860719363
 20
116.4015097927843
 30
0.0
 10
86.25445273860298
 20
116.6735528789469
 30
0.0
 10
85.52111940526964
 20
116.9435375860236
 30
0.0
  0
LINE
  5
191
330
1F
100
AcDbEntity
  8
0
  6
Continuous
 62
     7
370
    15
100
AcDbLine
 10
87.7211194053
 20
116.1279911832
 30
0.0
 11
87.7211194053
 21
116.5718776992
 31
0.0
  0
SPLINE
  5
192
330
1F
100
AcDbEntity
  8
0
  6
Continuous
 62
     7
370
    15
100
AcDbSpline
210
0.0
220
0.0
230
1.0
 70
     8
 71
     3
 72
     8
 73
     4
 74
     0
 42
0.00000001
 43
0.00000001
 40
0.0
 40
0.0
 40
0.0
 40
0.0
 40
1.0
 40
1.0
 40
1.0
 40
1.0
 10
87.21342709757734
 20
116.753487352125
 30
0.0
 10
87.3826578668081
 20
116.6930443145615
 30
0.0
 10
87.55188863603887
 20
116.6325056102012
 30
0.0
 10
87.72111940526963
 20
116.571877699188
 30
0.0
  0
LINE
  5
193
330
1F
100
AcDbEntity
  8
0
  6
Continuous
 62
     7
370
    15
100
AcDbLine
 10
87.2134270976
 20
116.7534873521
 30
0.0
 11
87.2134270976
 21
117.5721786355
 31
0.0
  0
SPLINE
  5
194
330
1F
100
AcDbEntity
  8
0
  6
Continuous
 62
     7
370
    15
100
AcDbSpline
210
0.0
220
0.0
230
1.0
 70
     8
 71
     3
 72
     8
 73
     4
 74
     0
 42
0.00000001
 43
0.00000001
 40
0.0
 40
0.0
 40
0.0
 40
0.0
 40
1.0
 40
1.0
 40
1.0
 40
1.0
 10
87.72111940526963
 20
117.7501160598807
 30
0.0
 10
87.55188863603887
 20
117.6909325942239
 30
0.0
 10
87.3826578668081
 20
117.6316180095993
 30
0.0
 10
87.21342709757734
 20
117.5721786355236
 30
0.0
  0
LINE
  5
195
330
1F
100
AcDbEntity
  8
0
  6
Continuous
 62
     7
370
    15
100
AcDbLine
 10
87.7211194053
 20
117.7501160599
 30
0.0
 11
87.7211194053
 21
118.1770532405
 31
0.0
  0
SPLINE
  5
196
330
1F
100
AcDbEntity
  8
0
  6
Continuous
 62
     7
370
    15
100
AcDbSpline
210
0.0
220
0.0
230
1.0
 70
     8
 71
     3
 72
     8
 73
     4
 74
     0
 42
0.00000001
 43
0.00000001
 40
0.0
 40
0.0
 40
0.0
 40
0.0
 40
1.0
 40
1.0
 40
1.0
 40
1.0
 10
85.52111940526964
 20
117.3781794075625
 30
0.0
 10
86.25445273860298
 20
117.6470547448094
 30
0.0
 10
86.9877860719363
 20
117.913538155676
 30
0.0
 10
87.72111940526963
 20
118.1770532405061
 30
0.0
  0
LINE
  5
197
330
1F
100
AcDbEntity
  8
0
  6
Continuous
 62
     7
370
    15
100
AcDbLine
 10
85.5211194053
 20
116.943537586
 30
0.0
 11
85.5211194053
 21
117.3781794076
 31
0.0
  0
SPLINE
  5
198
330
1F
100
AcDbEntity
  8
0
  6
Continuous
 62
     7
370
    15
100
AcDbSpline
210
0.0
220
0.0
230
1.0
 70
     8
 71
     3
 72
    19
 73
    15
 74
     0
 42
0.00000001
 43
0.00000001
 40
0.0
 40
0.0
 40
0.0
 40
0.0
 40
0.0312660599584389
 40
0.0625662612152154
 40
0.1251512125298993
 40
0.2503450684925074
 40
0.3129565414686746
 40
0.3755663807115711
 40
0.5007445611762704
 40
0.6256595277565266
 40
0.7503151230596673
 40
0.8748522594986169
 40
0.9374212085833115
 40
1.0
 40
1.0
 40
1.0
 40
1.0
 10
86.20200882834656
 20
120.7781159025396
 30
0.0
 10
86.2116978880838
 20
120.7899130458218
 30
0.0
 10
86.2310865876275
 20
120.8135202143991
 30
0.0
 10
86.25917426228958
 20
120.8658604749406
 30
0.0
 10
86.29922646140253
 20
120.9599333121991
 30
0.0
 10
86.33427809955911
 20
121.0696171278387
 30
0.0
 10
86.3650640600724
 20
121.179159697586
 30
0.0
 10
86.40066500657065
 20
121.2871770519838
 30
0.0
 10
86.4520805595294
 20
121.4192030305319
 30
0.0
 10
86.53875766182232
 20
121.5695995958125
 30
0.0
 10
86.68359894124636
 20
121.6881875605205
 30
0.0
 10
86.83962344484503
 20
121.7464129316892
 30
0.0
 10
86.97297508293498
 20
121.7661509163349
 30
0.0
 10
87.04072657298563
 20
121.767674327816
 30
0.0
 10
87.07460498219271
 20
121.7684360934614
 30
0.0
  0
SPLINE
  5
199
330
1F
100
AcDbEntity
  8
0
  6
Continuous
 62
     7
370
    15
100
AcDbSpline
210
0.0
220
0.0
230
1.0
 70
     8
 71
     3
 72
    11
 73
     7
 74
     0
 42
0.00000001
 43
0.00000001
 40
0.0
 40
0.0
 40
0.0
 40
0.0
 40
0.2501307726842051
 40
0.49987509047049
 40
0.7497382441712518
 40
1.0
 40
1.0
 40
1.0
 40
1.0
 10
86.07111940526964
 20
120.7226630506441
 30
0.0
 10
86.08377355740508
 20
120.723256068742
 30
0.0
 10
86.10906231086653
 20
120.724441188718
 30
0.0
 10
86.14469491747161
 20
120.7364219142296
 30
0.0
 10
86.17648814729037
 20
120.7542853147583
 30
0.0
 10
86.19349741583629
 20
120.7701681537111
 30
0.0
 10
86.20200882834656
 20
120.7781159025396
 30
0.0
  0
SPLINE
  5
19A
330
1F
100
AcDbEntity
  8
0
  6
Continuous
 62
     7
370
    15
100
AcDbSpline
210
0.0
220
0.0
230
1.0
 70
     8
 71
     3
 72
    11
 73
     7
 74
     0
 42
0.00000001
 43
0.00000001
 40
0.0
 40
0.0
 40
0.0
 40
0.0
 40
0.250265646774563
 40
0.4999795963950959
 40
0.7497273987887252
 40
0.9999999999999999
 40
0.9999999999999999
 40
0.9999999999999999
 40
0.9999999999999999
 10
85.93758575142348
 20
120.7814823382542
 30
0.0
 10
85.9457365895608
 20
120.7727689554485
 30
0.0
 10
85.96202029775125
 20
120.7553613980207
 30
0.0
 10
85.99462871466511
 20
120.7361520957224
 30
0.0
 10
86.03191534878333
 20
120.7247114952401
 30
0.0
 10
86.05804224590405
 20
120.7233463431101
 30
0.0
 10
86.07111940526964
 20
120.7226630506441
 30
0.0
  0
SPLINE
  5
19B
330
1F
100
AcDbEntity
  8
0
  6
Continuous
 62
     7
370
    15
100
AcDbSpline
210
0.0
220
0.0
230
1.0
 70
     8
 71
     3
 72
    11
 73
     7
 74
     0
 42
0.00000001
 43
0.00000001
 40
0.0
 40
0.0
 40
0.0
 40
0.0
 40
0.2501828367353882
 40
0.5002760837709012
 40
0.7501777809375479
 40
1.0
 40
1.0
 40
1.0
 40
1.0
 10
85.85958094373117
 20
121.0317062489469
 30
0.0
 10
85.86018736789323
 20
121.0099197118488
 30
0.0
 10
85.8613999990587
 20
120.9663544393439
 30
0.0
 10
85.87378795412141
 20
120.9014537044299
 30
0.0
 10
85.8963791254066
 20
120.8378623905256
 30
0.0
 10
85.92385166586568
 20
120.8002736962589
 30
0.0
 10
85.93758575142348
 20
120.7814823382542
 30
0.0
  0
SPLINE
  5
19C
330
1F
100
AcDbEntity
  8
0
  6
Continuous
 62
     7
370
    15
100
AcDbSpline
210
0.0
220
0.0
230
1.0
 70
     8
 71
     3
 72
    13
 73
     9
 74
     0
 42
0.00000001
 43
0.00000001
 40
0.0
 40
0.0
 40
0.0
 40
0.0
 40
0.1366319874437925
 40
0.2509739250140083
 40
0.4996384763310421
 40
0.7489129776644327
 40
0.8744225145354013
 40
1.0
 40
1.0
 40
1.0
 40
1.0
 10
86.16983735398759
 20
121.3587848542321
 30
0.0
 10
86.14484107795022
 20
121.3545238740429
 30
0.0
 10
86.0989264014151
 20
121.3466970470863
 30
0.0
 10
86.01114341811176
 20
121.3207049490595
 30
0.0
 10
85.91557281306297
 20
121.2609909743613
 30
0.0
 10
85.87427749870078
 20
121.1672252415292
 30
0.0
 10
85.86109584258394
 20
121.0904701302378
 30
0.0
 10
85.86008600110908
 20
121.0512977429577
 30
0.0
 10
85.85958094373117
 20
121.0317062489469
 30
0.0
  0
SPLINE
  5
19D
330
1F
100
AcDbEntity
  8
0
  6
Continuous
 62
     7
370
    15
100
AcDbSpline
210
0.0
220
0.0
230
1.0
 70
     8
 71
     3
 72
     8
 73
     4
 74
     0
 42
0.00000001
 43
0.00000001
 40
0.0
 40
0.0
 40
0.0
 40
0.0
 40
1.0
 40
1.0
 40
1.0
 40
1.0
 10
86.14163222578246
 20
121.7009983335574
 30
0.0
 10
86.15103393518417
 20
121.5883187292022
 30
0.0
 10
86.16043564458587
 20
121.4742264703299
 30
0.0
 10
86.16983735398759
 20
121.3587848542321
 30
0.0
  0
SPLINE
  5
19E
330
1F
100
AcDbEntity
  8
0
  6
Continuous
 62
     7
370
    15
100
AcDbSpline
210
0.0
220
0.0
230
1.0
 70
     8
 71
     3
 72
    15
 73
    11
 74
     0
 42
0.00000001
 43
0.00000001
 40
0.0
 40
0.0
 40
0.0
 40
0.0
 40
0.1253799882968911
 40
0.2507264910323367
 40
0.3759880443928595
 40
0.5011390514650577
 40
0.7495063948846414
 40
0.8746169763986932
 40
0.9372982004902047
 40
1.0
 40
1.0
 40
1.0
 40
1.0
 10
85.49291427706451
 20
121.0272841451483
 30
0.0
 10
85.49401400197536
 20
121.068389521855
 30
0.0
 10
85.49621315809065
 20
121.1505892971481
 30
0.0
 10
85.51785672875276
 20
121.2716786893962
 30
0.0
 10
85.56061027358832
 20
121.3881197410498
 30
0.0
 10
85.65201476017612
 20
121.5302729770545
 30
0.0
 10
85.80771695299119
 20
121.638467920595
 30
0.0
 10
85.97073677700618
 20
121.6838158970548
 30
0.0
 10
86.06786420059623
 20
121.6973319455526
 30
0.0
 10
86.11704019411849
 20
121.6997760705284
 30
0.0
 10
86.14163222578246
 20
121.7009983335574
 30
0.0
  0
SPLINE
  5
19F
330
1F
100
AcDbEntity
  8
0
  6
Continuous
 62
     7
370
    15
100
AcDbSpline
210
0.0
220
0.0
230
1.0
 70
     8
 71
     3
 72
    15
 73
    11
 74
     0
 42
0.00000001
 43
0.00000001
 40
0.0
 40
0.0
 40
0.0
 40
0.0
 40
0.0626422972308066
 40
0.1252407363532334
 40
0.2502677968499326
 40
0.3761206652284383
 40
0.5002785281456839
 40
0.7494964058656195
 40
0.8747190185335254
 40
1.0
 40
1.0
 40
1.0
 40
1.0
 10
86.10064664885938
 20
120.3587699472005
 30
0.0
 10
86.0774179105896
 20
120.3594814731851
 30
0.0
 10
86.03097669731889
 20
120.3609040269897
 30
0.0
 10
85.93952207910182
 20
120.3759784542489
 30
0.0
 10
85.83039582736113
 20
120.4132044395563
 30
0.0
 10
85.71470317146812
 20
120.4819872993453
 30
0.0
 10
85.59308461017805
 20
120.6042773510724
 30
0.0
 10
85.52542012348417
 20
120.7556593770807
 30
0.0
 10
85.49639222418963
 20
120.9104607215428
 30
0.0
 10
85.49407377284378
 20
120.9883369554075
 30
0.0
 10
85.49291427706451
 20
121.0272841451483
 30
0.0
  0
SPLINE
  5
1A0
330
1F
100
AcDbEntity
  8
0
  6
Continuous
 62
     7
370
    15
100
AcDbSpline
210
0.0
220
0.0
230
1.0
 70
     8
 71
     3
 72
    13
 73
     9
 74
     0
 42
0.00000001
 43
0.00000001
 40
0.0
 40
0.0
 40
0.0
 40
0.0
 40
0.1251384431068303
 40
0.2502313421151424
 40
0.500032348623896
 40
0.7497949013814884
 40
0.8748736196460238
 40
1.0
 40
1.0
 40
1.0
 40
1.0
 10
86.53914825142348
 20
120.5344112509298
 30
0.0
 10
86.52493598544369
 20
120.5213268082987
 30
0.0
 10
86.496516626034
 20
120.4951626851154
 30
0.0
 10
86.43372323429345
 20
120.448009257257
 30
0.0
 10
86.34475783489977
 20
120.4000786951967
 30
0.0
 10
86.24525467633951
 20
120.3717911344714
 30
0.0
 10
86.16306575283289
 20
120.3601174734741
 30
0.0
 10
86.12145565898165
 20
120.3592191796643
 30
0.0
 10
86.10064664885938
 20
120.3587699472005
 30
0.0
  0
SPLINE
  5
1A1
330
1F
100
AcDbEntity
  8
0
  6
Continuous
 62
     7
370
    15
100
AcDbSpline
210
0.0
220
0.0
230
1.0
 70
     8
 71
     3
 72
    12
 73
     8
 74
     0
 42
0.00000001
 43
0.00000001
 40
0.0
 40
0.0
 40
0.0
 40
0.0
 40
0.2704245287350575
 40
0.5000724173931361
 40
0.7500034165327087
 40
0.8750087940868688
 40
1.0
 40
1.0
 40
1.0
 40
1.0
 10
86.75509376424401
 20
120.9619182733544
 30
0.0
 10
86.74248223884237
 20
120.9214261078833
 30
0.0
 10
86.71916084849325
 20
120.8465474895592
 30
0.0
 10
86.67426120477793
 20
120.7357512415824
 30
0.0
 10
86.62906602553416
 20
120.6488423474495
 30
0.0
 10
86.58240078991062
 20
120.5806930398503
 30
0.0
 10
86.55356521938195
 20
120.549837930872
 30
0.0
 10
86.53914825142348
 20
120.5344112509298
 30
0.0
  0
SPLINE
  5
1A2
330
1F
100
AcDbEntity
  8
0
  6
Continuous
 62
     7
370
    15
100
AcDbSpline
210
0.0
220
0.0
230
1.0
 70
     8
 71
     3
 72
    10
 73
     6
 74
     0
 42
0.00000001
 43
0.00000001
 40
0.0
 40
0.0
 40
0.0
 40
0.0
 40
0.2016674735225612
 40
0.4999819326509579
 40
1.0
 40
1.0
 40
1.0
 40
1.0
 10
86.85072677706451
 20
121.2588834182178
 30
0.0
 10
86.84339610869773
 20
121.2392946966421
 30
0.0
 10
86.82522162734176
 20
121.1907295676182
 30
0.0
 10
86.79414802013136
 20
121.0918202868574
 30
0.0
 10
86.77013425765418
 20
121.0119458653202
 30
0.0
 10
86.75509376424401
 20
120.9619182733544
 30
0.0
  0
SPLINE
  5
1A3
330
1F
100
AcDbEntity
  8
0
  6
Continuous
 62
     7
370
    15
100
AcDbSpline
210
0.0
220
0.0
230
1.0
 70
     8
 71
     3
 72
    12
 73
     8
 74
     0
 42
0.00000001
 43
0.00000001
 40
0.0
 40
0.0
 40
0.0
 40
0.0
 40
0.1253183352014579
 40
0.2505422813727828
 40
0.499222547888429
 40
0.749295667475838
 40
1.0
 40
1.0
 40
1.0
 40
1.0
 10
87.07901203347478
 20
121.4278874044272
 30
0.0
 10
87.06514621719101
 20
121.4274578616539
 30
0.0
 10
87.03742502827446
 20
121.4265990996362
 30
0.0
 10
86.98401223933186
 20
121.4138754420834
 30
0.0
 10
86.92588628208799
 20
121.3804864074661
 30
0.0
 10
86.88046167434078
 20
121.3226497415518
 30
0.0
 10
86.86064673484225
 20
121.2801567130013
 30
0.0
 10
86.85072677706451
 20
121.2588834182178
 30
0.0
  0
SPLINE
  5
1A4
330
1F
100
AcDbEntity
  8
0
  6
Continuous
 62
     7
370
    15
100
AcDbSpline
210
0.0
220
0.0
230
1.0
 70
     8
 71
     3
 72
    15
 73
    11
 74
     0
 42
0.00000001
 43
0.00000001
 40
0.0
 40
0.0
 40
0.0
 40
0.0
 40
0.1364861442161225
 40
0.250474833121527
 40
0.4998334306570751
 40
0.6248636377603292
 40
0.7499425615317552
 40
0.8747871911670472
 40
0.9373887632489869
 40
1.0
 40
1.0
 40
1.0
 40
1.0
 10
87.3826578668081
 20
121.064465757917
 30
0.0
 10
87.3819500202058
 20
121.0870708988811
 30
0.0
 10
87.38065100366018
 20
121.1285551018616
 30
0.0
 10
87.36775949496264
 20
121.2101332380334
 30
0.0
 10
87.33751004909321
 20
121.2882629843347
 30
0.0
 10
87.27743953367347
 20
121.3537371941627
 30
0.0
 10
87.2215505866069
 20
121.3947429633279
 30
0.0
 10
87.16496825846573
 20
121.4173870134671
 30
0.0
 10
87.11635148079918
 20
121.4266220728705
 30
0.0
 10
87.09145915636212
 20
121.4274656055387
 30
0.0
 10
87.07901203347478
 20
121.4278874044272
 30
0.0
  0
SPLINE
  5
1A5
330
1F
100
AcDbEntity
  8
0
  6
Continuous
 62
     7
370
    15
100
AcDbSpline
210
0.0
220
0.0
230
1.0
 70
     8
 71
     3
 72
    14
 73
    10
 74
     0
 42
0.00000001
 43
0.00000001
 40
0.0
 40
0.0
 40
0.0
 40
0.0
 40
0.1450611730866556
 40
0.2747504950843411
 40
0.3919861349604966
 40
0.5006938543768911
 40
0.7494919849279487
 40
0.8747177034603266
 40
1.0
 40
1.0
 40
1.0
 40
1.0
 10
86.95958094373118
 20
120.6504627237428
 30
0.0
 10
86.99342325056742
 20
120.6568290959652
 30
0.0
 10
87.05752166063955
 20
120.6688872082965
 30
0.0
 10
87.14491218333559
 20
120.6983271565313
 30
0.0
 10
87.2183010578616
 20
120.7353653547035
 30
0.0
 10
87.30263532873158
 20
120.8006845197012
 30
0.0
 10
87.3566942302504
 20
120.8909704645702
 30
0.0
 10
87.37947954186153
 20
120.9894897611864
 30
0.0
 10
87.38159826565247
 20
121.0394699962767
 30
0.0
 10
87.3826578668081
 20
121.064465757917
 30
0.0
  0
SPLINE
  5
1A6
330
1F
100
AcDbEntity
  8
0
  6
Continuous
 62
     7
370
    15
100
AcDbSpline
210
0.0
220
0.0
230
1.0
 70
     8
 71
     3
 72
     8
 73
     4
 74
     0
 42
0.00000001
 43
0.00000001
 40
0.0
 40
0.0
 40
0.0
 40
0.0
 40
1.0
 40
1.0
 40
1.0
 40
1.0
 10
86.9877860719363
 20
120.2851400713721
 30
0.0
 10
86.97838436253461
 20
120.4080875694047
 30
0.0
 10
86.9689826531329
 20
120.5298843107498
 30
0.0
 10
86.95958094373118
 20
120.6504627237428
 30
0.0
  0
SPLINE
  5
1A7
330
1F
100
AcDbEntity
  8
0
  6
Continuous
 62
     7
370
    15
100
AcDbSpline
210
0.0
220
0.0
230
1.0
 70
     8
 71
     3
 72
    15
 73
    11
 74
     0
 42
0.00000001
 43
0.00000001
 40
0.0
 40
0.0
 40
0.0
 40
0.0
 40
0.1251267396809196
 40
0.2502046931271323
 40
0.3789751622840071
 40
0.5000549195145002
 40
0.6221112966079693
 40
0.7498655896187624
 40
0.874895952125182
 40
1.0
 40
1.0
 40
1.0
 40
1.0
 10
87.74932453347476
 20
121.0549024542509
 30
0.0
 10
87.74777127280082
 20
121.0088323813058
 30
0.0
 10
87.7446653570608
 20
120.9167101978862
 30
0.0
 10
87.71597554842906
 20
120.77725741928
 30
0.0
 10
87.66056554352362
 20
120.6439520108019
 30
0.0
 10
87.57240664936656
 20
120.5241797080324
 30
0.0
 10
87.45326666730055
 20
120.4258281611273
 30
0.0
 10
87.30906659630557
 20
120.3543989858673
 30
0.0
 10
87.15129768716601
 20
120.3062070094781
 30
0.0
 10
87.04230064657467
 20
120.2921637630418
 30
0.0
 10
86.9877860719363
 20
120.2851400713721
 30
0.0
  0
SPLINE
  5
1A8
330
1F
100
AcDbEntity
  8
0
  6
Continuous
 62
     7
370
    15
100
AcDbSpline
210
0.0
220
0.0
230
1.0
 70
     8
 71
     3
 72
    15
 73
    11
 74
     0
 42
0.00000001
 43
0.00000001
 40
0.0
 40
0.0
 40
0.0
 40
0.0
 40
0.0716980767019382
 40
0.1254799945658818
 40
0.1882189601852319
 40
0.2509499235477839
 40
0.4994538850979694
 40
0.7490102825522275
 40
0.8744810521652475
 40
1.0
 40
1.0
 40
1.0
 40
1.0
 10
87.07460498219271
 20
121.7684360934614
 30
0.0
 10
87.10426761028393
 20
121.7674821210149
 30
0.0
 10
87.15618066824732
 20
121.7658125579958
 30
0.0
 10
87.23289288619263
 20
121.7542369700344
 30
0.0
 10
87.30350262973761
 20
121.7357937302645
 30
0.0
 10
87.44505629704042
 20
121.6860604194528
 30
0.0
 10
87.62808458027274
 20
121.5569182811534
 30
0.0
 10
87.7161624292753
 20
121.3535750948653
 30
0.0
 10
87.74619451803642
 20
121.1847133011599
 30
0.0
 10
87.74828106148925
 20
121.0981782734391
 30
0.0
 10
87.74932453347476
 20
121.0549024542509
 30
0.0
  0
SPLINE
  5
1A9
330
1F
100
AcDbEntity
  8
0
  6
Continuous
 62
     7
370
    15
100
AcDbSpline
210
0.0
220
0.0
230
1.0
 70
     8
 71
     3
 72
     8
 73
     4
 74
     0
 42
0.00000001
 43
0.00000001
 40
0.0
 40
0.0
 40
0.0
 40
0.0
 40
1.0
 40
1.0
 40
1.0
 40
1.0
 10
89.32111940526964
 20
111.4965127243308
 30
0.0
 10
89.45445273860298
 20
111.4482253359894
 30
0.0
 10
89.5877860719363
 20
111.3999959983102
 30
0.0
 10
89.72111940526963
 20
111.3518279824341
 30
0.0
  0
LINE
  5
1AA
330
1F
100
AcDbEntity
  8
0
  6
Continuous
 62
     7
370
    15
100
AcDbLine
 10
89.3211194053
 20
111.4965127243
 30
0.0
 11
89.3211194053
 21
112.0415075542
 31
0.0
  0
SPLINE
  5
1AB
330
1F
100
AcDbEntity
  8
0
  6
Continuous
 62
     7
370
    15
100
AcDbSpline
210
0.0
220
0.0
230
1.0
 70
     8
 71
     3
 72
     8
 73
     4
 74
     0
 42
0.00000001
 43
0.00000001
 40
0.0
 40
0.0
 40
0.0
 40
0.0
 40
1.0
 40
1.0
 40
1.0
 40
1.0
 10
89.72111940526963
 20
112.1876701966581
 30
0.0
 10
89.5877860719363
 20
112.1389057899962
 30
0.0
 10
89.45445273860298
 20
112.0901838076503
 30
0.0
 10
89.32111940526964
 20
112.0415075541747
 30
0.0
  0
LINE
  5
1AC
330
1F
100
AcDbEntity
  8
0
  6
Continuous
 62
     7
370
    15
100
AcDbLine
 10
89.7211194053
 20
112.1876701967
 30
0.0
 11
89.7211194053
 21
112.3802789861
 31
0.0
  0
SPLINE
  5
1AD
330
1F
100
AcDbEntity
  8
0
  6
Continuous
 62
     7
370
    15
100
AcDbSpline
210
0.0
220
0.0
230
1.0
 70
     8
 71
     3
 72
     8
 73
     4
 74
     0
 42
0.00000001
 43
0.00000001
 40
0.0
 40
0.0
 40
0.0
 40
0.0
 40
1.0
 40
1.0
 40
1.0
 40
1.0
 10
88.42111940526965
 20
111.8702211152664
 30
0.0
 10
88.85445273860297
 20
112.0396831863022
 30
0.0
 10
89.28778607193631
 20
112.2097492820201
 30
0.0
 10
89.72111940526963
 20
112.3802789861059
 30
0.0
  0
LINE
  5
1AE
330
1F
100
AcDbEntity
  8
0
  6
Continuous
 62
     7
370
    15
100
AcDbLine
 10
88.4211194053
 20
111.6668585931
 30
0.0
 11
88.4211194053
 21
111.8702211153
 31
0.0
  0
SPLINE
  5
1AF
330
1F
100
AcDbEntity
  8
0
  6
Continuous
 62
     7
370
    15
100
AcDbSpline
210
0.0
220
0.0
230
1.0
 70
     8
 71
     3
 72
     8
 73
     4
 74
     0
 42
0.00000001
 43
0.00000001
 40
0.0
 40
0.0
 40
0.0
 40
0.0
 40
1.0
 40
1.0
 40
1.0
 40
1.0
 10
89.72111940526963
 20
111.1621104144542
 30
0.0
 10
89.28778607193631
 20
111.3296071400614
 30
0.0
 10
88.85445273860297
 20
111.4979028511423
 30
0.0
 10
88.42111940526965
 20
111.6668585931138
 30
0.0
  0
LINE
  5
1B0
330
1F
100
AcDbEntity
  8
0
  6
Continuous
 62
     7
370
    15
100
AcDbLine
 10
89.7211194053
 20
111.1621104145
 30
0.0
 11
89.7211194053
 21
111.3518279824
 31
0.0
  0
SPLINE
  5
1B1
330
1F
100
AcDbEntity
  8
0
  6
Continuous
 62
     7
370
    15
100
AcDbSpline
210
0.0
220
0.0
230
1.0
 70
     8
 71
     3
 72
    13
 73
     9
 74
     0
 42
0.00000001
 43
0.00000001
 40
0.0
 40
0.0
 40
0.0
 40
0.0
 40
0.0682815900731929
 40
0.1250724756847061
 40
0.2500661314920887
 40
0.4995800738720754
 40
0.7496971951095874
 40
0.9999999999999999
 40
0.9999999999999999
 40
0.9999999999999999
 40
0.9999999999999999
 10
88.7799735719363
 20
113.2480043992954
 30
0.0
 10
88.79510915737177
 20
113.2473687152344
 30
0.0
 10
88.82283325019561
 20
113.2462043226189
 30
0.0
 10
88.87773676242008
 20
113.2378541198429
 30
0.0
 10
88.96955793820891
 20
113.208779584208
 30
0.0
 10
89.08696407104011
 20
113.1315167124548
 30
0.0
 10
89.20471310318246
 20
113.0141087098454
 30
0.0
 10
89.27710001804876
 20
112.9303467587638
 30
0.0
 10
89.31330690526964
 20
112.8884502430495
 30
0.0
  0
SPLINE
  5
1B2
330
1F
100
AcDbEntity
  8
0
  6
Continuous
 62
     7
370
    15
100
AcDbSpline
210
0.0
220
0.0
230
1.0
 70
     8
 71
     3
 72
    14
 73
    10
 74
     0
 42
0.00000001
 43
0.00000001
 40
0.0
 40
0.0
 40
0.0
 40
0.0
 40
0.1254352825006445
 40
0.2508315572704748
 40
0.499996683128377
 40
0.7491820681550997
 40
0.8494441069362527
 40
0.9247170555048236
 40
1.0
 40
1.0
 40
1.0
 40
1.0
 10
88.42111940526965
 20
112.8493018755366
 30
0.0
 10
88.42195993381861
 20
112.8743459618519
 30
0.0
 10
88.42364072952988
 20
112.9244263462991
 30
0.0
 10
88.44432499455229
 20
113.022610342272
 30
0.0
 10
88.50489347485146
 20
113.1355394691022
 30
0.0
 10
88.60400016324093
 20
113.210821431189
 30
0.0
 10
88.68509765147797
 20
113.2375774783002
 30
0.0
 10
88.73467586710338
 20
113.2468708886204
 30
0.0
 10
88.76487366867981
 20
113.2476265456802
 30
0.0
 10
88.7799735719363
 20
113.2480043992954
 30
0.0
  0
SPLINE
  5
1B3
330
1F
100
AcDbEntity
  8
0
  6
Continuous
 62
     7
370
    15
100
AcDbSpline
210
0.0
220
0.0
230
1.0
 70
     8
 71
     3
 72
    13
 73
     9
 74
     0
 42
0.00000001
 43
0.00000001
 40
0.0
 40
0.0
 40
0.0
 40
0.0
 40
0.1254872115634955
 40
0.2509044570061677
 40
0.499828006766103
 40
0.7490665719058827
 40
0.874504763153428
 40
1.0
 40
1.0
 40
1.0
 40
1.0
 10
88.78778607193631
 20
112.4352739236443
 30
0.0
 10
88.7620944659769
 20
112.438540134697
 30
0.0
 10
88.71072557856161
 20
112.4450707357075
 30
0.0
 10
88.61224952922349
 20
112.4766130463644
 30
0.0
 10
88.50340345124503
 20
112.553190335689
 30
0.0
 10
88.44390447139251
 20
112.6712198303112
 30
0.0
 10
88.42371722722757
 20
112.7720369369286
 30
0.0
 10
88.4219854771506
 20
112.8235429929816
 30
0.0
 10
88.42111940526965
 20
112.8493018755366
 30
0.0
  0
SPLINE
  5
1B4
330
1F
100
AcDbEntity
  8
0
  6
Continuous
 62
     7
370
    15
100
AcDbSpline
210
0.0
220
0.0
230
1.0
 70
     8
 71
     3
 72
     8
 73
     4
 74
     0
 42
0.00000001
 43
0.00000001
 40
0.0
 40
0.0
 40
0.0
 40
0.0
 40
1.0
 40
1.0
 40
1.0
 40
1.0
 10
88.80445273860298
 20
112.600699649117
 30
0.0
 10
88.79889718304743
 20
112.5455141518774
 30
0.0
 10
88.79334162749186
 20
112.4903706606018
 30
0.0
 10
88.78778607193631
 20
112.4352739236443
 30
0.0
  0
SPLINE
  5
1B5
330
1F
100
AcDbEntity
  8
0
  6
Continuous
 62
     7
370
    15
100
AcDbSpline
210
0.0
220
0.0
230
1.0
 70
     8
 71
     3
 72
    13
 73
     9
 74
     0
 42
0.00000001
 43
0.00000001
 40
0.0
 40
0.0
 40
0.0
 40
0.0
 40
0.1368555176062347
 40
0.2509146361485991
 40
0.5002614238841767
 40
0.7490560027892215
 40
0.8744630557812153
 40
1.0
 40
1.0
 40
1.0
 40
1.0
 10
88.57111940526964
 20
112.8456728097746
 30
0.0
 10
88.57193794268792
 20
112.8283361839795
 30
0.0
 10
88.57343867150088
 20
112.7965507417151
 30
0.0
 10
88.58688892521045
 20
112.7344503317678
 30
0.0
 10
88.62594483985889
 20
112.6642344367579
 30
0.0
 10
88.69456992622801
 20
112.6189456513476
 30
0.0
 10
88.75649133998061
 20
112.6027233107725
 30
0.0
 10
88.78846008994286
 20
112.6013744357328
 30
0.0
 10
88.80445273860298
 20
112.600699649117
 30
0.0
  0
SPLINE
  5
1B6
330
1F
100
AcDbEntity
  8
0
  6
Continuous
 62
     7
370
    15
100
AcDbSpline
210
0.0
220
0.0
230
1.0
 70
     8
 71
     3
 72
    13
 73
     9
 74
     0
 42
0.00000001
 43
0.00000001
 40
0.0
 40
0.0
 40
0.0
 40
0.0
 40
0.1315098603369068
 40
0.2504055170158245
 40
0.4996868999492427
 40
0.7491621626586459
 40
0.8652104418883083
 40
1.0
 40
1.0
 40
1.0
 40
1.0
 10
88.78153607193632
 20
113.0817572513377
 30
0.0
 10
88.76604437822408
 20
113.0806949386355
 30
0.0
 10
88.73654692789205
 20
113.0786722084711
 30
0.0
 10
88.68009007278685
 20
113.0601254164786
 30
0.0
 10
88.6214751058659
 20
113.0133293302184
 30
0.0
 10
88.58540264195344
 20
112.9485576588915
 30
0.0
 10
88.5734144668216
 20
112.8908451766168
 30
0.0
 10
88.57192160536246
 20
112.8614620494327
 30
0.0
 10
88.57111940526964
 20
112.8456728097746
 30
0.0
  0
SPLINE
  5
1B7
330
1F
100
AcDbEntity
  8
0
  6
Continuous
 62
     7
370
    15
100
AcDbSpline
210
0.0
220
0.0
230
1.0
 70
     8
 71
     3
 72
    12
 73
     8
 74
     0
 42
0.00000001
 43
0.00000001
 40
0.0
 40
0.0
 40
0.0
 40
0.0
 40
0.5003877946289088
 40
0.7500807576159894
 40
0.8750079620765736
 40
0.9358066478871375
 40
1.0
 40
1.0
 40
1.0
 40
1.0
 10
89.23492148860298
 20
112.7337410256454
 30
0.0
 10
89.17116936028914
 20
112.8078462431027
 30
0.0
 10
89.07560498957794
 20
112.9189298831321
 30
0.0
 10
88.94467614683512
 20
113.032029214466
 30
0.0
 10
88.866461576717
 20
113.068108459716
 30
0.0
 10
88.8186193336757
 20
113.0795868716284
 30
0.0
 10
88.79411896154461
 20
113.081020809962
 30
0.0
 10
88.78153607193632
 20
113.0817572513377
 30
0.0
  0
SPLINE
  5
1B8
330
1F
100
AcDbEntity
  8
0
  6
Continuous
 62
     7
370
    15
100
AcDbSpline
210
0.0
220
0.0
230
1.0
 70
     8
 71
     3
 72
    11
 73
     7
 74
     0
 42
0.00000001
 43
0.00000001
 40
0.0
 40
0.0
 40
0.0
 40
0.0
 40
0.1250980976057732
 40
0.2501917403137757
 40
0.5001225502597305
 40
0.9999999999999999
 40
0.9999999999999999
 40
0.9999999999999999
 40
0.9999999999999999
 10
89.60549440526964
 20
112.4360487245892
 30
0.0
 10
89.58656922138692
 20
112.442982147805
 30
0.0
 10
89.54871952757067
 20
112.4568487473288
 30
0.0
 10
89.47788739299436
 20
112.4953122205375
 30
0.0
 10
89.36339137732651
 20
112.5783640046999
 30
0.0
 10
89.28630976955964
 20
112.671589823633
 30
0.0
 10
89.23492148860298
 20
112.7337410256454
 30
0.0
  0
SPLINE
  5
1B9
330
1F
100
AcDbEntity
  8
0
  6
Continuous
 62
     7
370
    15
100
AcDbSpline
210
0.0
220
0.0
230
1.0
 70
     8
 71
     3
 72
     9
 73
     5
 74
     0
 42
0.00000001
 43
0.00000001
 40
0.0
 40
0.0
 40
0.0
 40
0.0
 40
0.5000768477714711
 40
0.9999999999999999
 40
0.9999999999999999
 40
0.9999999999999999
 40
0.9999999999999999
 10
89.72111940526963
 20
112.4187463099116
 30
0.0
 10
89.70145654598394
 20
112.4190738255073
 30
0.0
 10
89.66213687067143
 20
112.419728756039
 30
0.0
 10
89.62437329237235
 20
112.4306092925025
 30
0.0
 10
89.60549440526964
 20
112.4360487245892
 30
0.0
  0
LINE
  5
1BA
330
1F
100
AcDbEntity
  8
0
  6
Continuous
 62
     7
370
    15
100
AcDbLine
 10
89.7211194053
 20
112.4187463099
 30
0.0
 11
89.7211194053
 21
113.264637317
 31
0.0
  0
LINE
  5
1BB
330
1F
100
AcDbEntity
  8
0
  6
Continuous
 62
     7
370
    15
100
AcDbLine
 10
89.5544527386
 20
113.264637317
 30
0.0
 11
89.7211194053
 21
113.264637317
 31
0.0
  0
LINE
  5
1BC
330
1F
100
AcDbEntity
  8
0
  6
Continuous
 62
     7
370
    15
100
AcDbLine
 10
89.5544527386
 20
112.6312283813
 30
0.0
 11
89.5544527386
 21
113.264637317
 31
0.0
  0
SPLINE
  5
1BD
330
1F
100
AcDbEntity
  8
0
  6
Continuous
 62
     7
370
    15
100
AcDbSpline
210
0.0
220
0.0
230
1.0
 70
     8
 71
     3
 72
    10
 73
     6
 74
     0
 42
0.00000001
 43
0.00000001
 40
0.0
 40
0.0
 40
0.0
 40
0.0
 40
0.500158374118333
 40
0.750178543285347
 40
1.0
 40
1.0
 40
1.0
 40
1.0
 10
89.31330690526964
 20
112.8884502430495
 30
0.0
 10
89.35099709756916
 20
112.8431978032942
 30
0.0
 10
89.40752793863574
 20
112.775324483377
 30
0.0
 10
89.48421999177606
 20
112.6853239386724
 30
0.0
 10
89.53104802850225
 20
112.64925545407
 30
0.0
 10
89.55445273860298
 20
112.6312283812967
 30
0.0
  0
SPLINE
  5
1BE
330
1F
100
AcDbEntity
  8
0
  6
Continuous
 62
     7
370
    15
100
AcDbSpline
210
0.0
220
0.0
230
1.0
 70
     8
 71
     3
 72
    16
 73
    12
 74
     0
 42
0.00000001
 43
0.00000001
 40
0.0
 40
0.0
 40
0.0
 40
0.0
 40
0.1395761036423691
 40
0.2503684099789864
 40
0.3755254163111614
 40
0.5006072722823357
 40
0.6305448463473827
 40
0.7502107759307357
 40
0.8748549896201052
 40
0.9374218915628164
 40
1.0
 40
1.0
 40
1.0
 40
1.0
 10
89.0799735719363
 20
115.2789148328339
 30
0.0
 10
89.12096545013374
 20
115.2781652163948
 30
0.0
 10
89.19449574005095
 20
115.2768205716379
 30
0.0
 10
89.30438398799798
 20
115.2665476811516
 30
0.0
 10
89.4088788437275
 20
115.2474288207098
 30
0.0
 10
89.51526974670537
 20
115.2123004273407
 30
0.0
 10
89.61176566454438
 20
115.15720072535
 30
0.0
 10
89.68808335219373
 20
115.0755379221665
 30
0.0
 10
89.72307263568726
 20
114.9908244463205
 30
0.0
 10
89.73636167783472
 20
114.9186512836324
 30
0.0
 10
89.73731124555846
 20
114.881937784697
 30
0.0
 10
89.7377860719363
 20
114.8635793914178
 30
0.0
  0
SPLINE
  5
1BF
330
1F
100
AcDbEntity
  8
0
  6
Continuous
 62
     7
370
    15
100
AcDbSpline
210
0.0
220
0.0
230
1.0
 70
     8
 71
     3
 72
    14
 73
    10
 74
     0
 42
0.00000001
 43
0.00000001
 40
0.0
 40
0.0
 40
0.0
 40
0.0
 40
0.0626332481965594
 40
0.1252290690440787
 40
0.2500742507395728
 40
0.3746820472685421
 40
0.4996978245654199
 40
0.749566937953611
 40
0.9999999999999999
 40
0.9999999999999999
 40
0.9999999999999999
 40
0.9999999999999999
 10
88.42111940526965
 20
114.8635793914178
 30
0.0
 10
88.42167943753408
 20
114.881949076237
 30
0.0
 10
88.42279916740806
 20
114.9186774688204
 30
0.0
 10
88.43665588321333
 20
114.9908468758544
 30
0.0
 10
88.47201217432257
 20
115.076705236937
 30
0.0
 10
88.54782056939759
 20
115.1597757425135
 30
0.0
 10
88.67965243475126
 20
115.2270288164939
 30
0.0
 10
88.8589587956704
 20
115.2754698035275
 30
0.0
 10
89.00624663810609
 20
115.2777656271021
 30
0.0
 10
89.0799735719363
 20
115.2789148328339
 30
0.0
  0
SPLINE
  5
1C0
330
1F
100
AcDbEntity
  8
0
  6
Continuous
 62
     7
370
    15
100
AcDbSpline
210
0.0
220
0.0
230
1.0
 70
     8
 71
     3
 72
    15
 73
    11
 74
     0
 42
0.00000001
 43
0.00000001
 40
0.0
 40
0.0
 40
0.0
 40
0.0
 40
0.1252877986051598
 40
0.250555325943797
 40
0.500330155409275
 40
0.6316827770503812
 40
0.7500805771389302
 40
0.8747754163959384
 40
0.9373795386658016
 40
0.9999999999999999
 40
0.9999999999999999
 40
0.9999999999999999
 40
0.9999999999999999
 10
89.0799735719363
 20
114.4473834837265
 30
0.0
 10
89.04315525420714
 20
114.4478636578038
 30
0.0
 10
88.96952457586465
 20
114.4488239282675
 30
0.0
 10
88.82331907552485
 20
114.4626486311184
 30
0.0
 10
88.67587815541103
 20
114.4955932541342
 30
0.0
 10
88.54746849556734
 20
114.5698630141045
 30
0.0
 10
88.4711802438701
 20
114.6517584068381
 30
0.0
 10
88.43612807970916
 20
114.7362095149718
 30
0.0
 10
88.42254052748423
 20
114.8084477616601
 30
0.0
 10
88.42159315387833
 20
114.8452005830193
 30
0.0
 10
88.42111940526965
 20
114.8635793914178
 30
0.0
  0
SPLINE
  5
1C1
330
1F
100
AcDbEntity
  8
0
  6
Continuous
 62
     7
370
    15
100
AcDbSpline
210
0.0
220
0.0
230
1.0
 70
     8
 71
     3
 72
    12
 73
     8
 74
     0
 42
0.00000001
 43
0.00000001
 40
0.0
 40
0.0
 40
0.0
 40
0.0
 40
0.1249986213906615
 40
0.250018814763635
 40
0.4998436812577718
 40
0.7498770257996191
 40
0.9999999999999999
 40
0.9999999999999999
 40
0.9999999999999999
 40
0.9999999999999999
 10
89.61252565526964
 20
114.573607002648
 30
0.0
 10
89.59330967392042
 20
114.560604551911
 30
0.0
 10
89.55487439497091
 20
114.5345974065033
 30
0.0
 10
89.4694204777831
 20
114.4978776197426
 30
0.0
 10
89.35722497759673
 20
114.4675932213708
 30
0.0
 10
89.21901372319051
 20
114.4499892068418
 30
0.0
 10
89.12632582567981
 20
114.4482521618596
 30
0.0
 10
89.0799735719363
 20
114.4473834837265
 30
0.0
  0
SPLINE
  5
1C2
330
1F
100
AcDbEntity
  8
0
  6
Continuous
 62
     7
370
    15
100
AcDbSpline
210
0.0
220
0.0
230
1.0
 70
     8
 71
     3
 72
    12
 73
     8
 74
     0
 42
0.00000001
 43
0.00000001
 40
0.0
 40
0.0
 40
0.0
 40
0.0
 40
0.2500599394416979
 40
0.4999172692970033
 40
0.6998284602432382
 40
0.8498994850737847
 40
0.9999999999999999
 40
0.9999999999999999
 40
0.9999999999999999
 40
0.9999999999999999
 10
89.7377860719363
 20
114.8635793914178
 30
0.0
 10
89.73660303230155
 20
114.8363605942356
 30
0.0
 10
89.73423791158288
 20
114.7819450537405
 30
0.0
 10
89.71327149908961
 20
114.7078041682359
 30
0.0
 10
89.68199489502524
 20
114.6501648641263
 30
0.0
 10
89.6490091111503
 20
114.60650415865
 30
0.0
 10
89.62468760371175
 20
114.5845734395035
 30
0.0
 10
89.61252565526964
 20
114.573607002648
 30
0.0
  0
SPLINE
  5
1C3
330
1F
100
AcDbEntity
  8
0
  6
Continuous
 62
     7
370
    15
100
AcDbSpline
210
0.0
220
0.0
230
1.0
 70
     8
 71
     3
 72
    15
 73
    11
 74
     0
 42
0.00000001
 43
0.00000001
 40
0.0
 40
0.0
 40
0.0
 40
0.0
 40
0.124991793361423
 40
0.2499343067844779
 40
0.3799070525692732
 40
0.4995921898235925
 40
0.6170825023889422
 40
0.7496700701160447
 40
0.8621516831897742
 40
1.0
 40
1.0
 40
1.0
 40
1.0
 10
89.3487235719363
 20
118.0141455547988
 30
0.0
 10
89.37753311407944
 20
118.0126389727365
 30
0.0
 10
89.43514083976027
 20
118.0096264026049
 30
0.0
 10
89.51795463150769
 20
117.9804352088455
 30
0.0
 10
89.59196751533433
 20
117.9373970782405
 30
0.0
 10
89.64959078677187
 20
117.8770224728447
 30
0.0
 10
89.68705393159817
 20
117.803429673544
 30
0.0
 10
89.70847403344422
 20
117.7260625229089
 30
0.0
 10
89.71899134233084
 20
117.6422157549758
 30
0.0
 10
89.7203636960132
 20
117.586966512889
 30
0.0
 10
89.72111940526963
 20
117.5565426038093
 30
0.0
  0
SPLINE
  5
1C4
330
1F
100
AcDbEntity
  8
0
  6
Continuous
 62
     7
370
    15
100
AcDbSpline
210
0.0
220
0.0
230
1.0
 70
     8
 71
     3
 72
    13
 73
     9
 74
     0
 42
0.00000001
 43
0.00000001
 40
0.0
 40
0.0
 40
0.0
 40
0.0
 40
0.1349452425907762
 40
0.2505226506542482
 40
0.5000251617345983
 40
0.749464601362116
 40
0.8747046083631186
 40
1.0
 40
1.0
 40
1.0
 40
1.0
 10
89.03778607193631
 20
117.7805269024723
 30
0.0
 10
89.04393532691856
 20
117.7979179450137
 30
0.0
 10
89.05535127332853
 20
117.8302040040956
 30
0.0
 10
89.08726772374574
 20
117.891071412205
 30
0.0
 10
89.1460277710374
 20
117.955184211644
 30
0.0
 10
89.22568031587552
 20
117.9963421239679
 30
0.0
 10
89.29521785431326
 20
118.0122257705703
 30
0.0
 10
89.33088570442287
 20
118.0135055324191
 30
0.0
 10
89.3487235719363
 20
118.0141455547988
 30
0.0
  0
SPLINE
  5
1C5
330
1F
100
AcDbEntity
  8
0
  6
Continuous
 62
     7
370
    15
100
AcDbSpline
210
0.0
220
0.0
230
1.0
 70
     8
 71
     3
 72
    12
 73
     8
 74
     0
 42
0.00000001
 43
0.00000001
 40
0.0
 40
0.0
 40
0.0
 40
0.0
 40
0.1252479802552297
 40
0.2504204377631566
 40
0.5000972897538835
 40
0.7498231990046454
 40
1.0
 40
1.0
 40
1.0
 40
1.0
 10
88.75809857193632
 20
117.9665950036057
 30
0.0
 10
88.77314982459887
 20
117.9659363729671
 30
0.0
 10
88.80324325423312
 20
117.9646195088348
 30
0.0
 10
88.86172898374436
 20
117.9503714756209
 30
0.0
 10
88.92949115623648
 20
117.9176125449996
 30
0.0
 10
88.99536805099498
 20
117.8568493167663
 30
0.0
 10
89.02363823210784
 20
117.8059830003475
 30
0.0
 10
89.03778607193631
 20
117.7805269024723
 30
0.0
  0
SPLINE
  5
1C6
330
1F
100
AcDbEntity
  8
0
  6
Continuous
 62
     7
370
    15
100
AcDbSpline
210
0.0
220
0.0
230
1.0
 70
     8
 71
     3
 72
    13
 73
     9
 74
     0
 42
0.00000001
 43
0.00000001
 40
0.0
 40
0.0
 40
0.0
 40
0.0
 40
0.1361756895484221
 40
0.2511332131902009
 40
0.5005388590499361
 40
0.7493248538846221
 40
0.8746750947207613
 40
1.0
 40
1.0
 40
1.0
 40
1.0
 10
88.42111940526965
 20
117.555290703025
 30
0.0
 10
88.42173575117171
 20
117.5820884258792
 30
0.0
 10
88.42287240726162
 20
117.6315083940753
 30
0.0
 10
88.43674371149373
 20
117.7287047192072
 30
0.0
 10
88.48168288050695
 20
117.8453844671176
 30
0.0
 10
88.58503847511075
 20
117.9250569752409
 30
0.0
 10
88.68091557904113
 20
117.9614267527058
 30
0.0
 10
88.73237264121401
 20
117.9648723693877
 30
0.0
 10
88.75809857193632
 20
117.9665950036057
 30
0.0
  0
LINE
  5
1C7
330
1F
100
AcDbEntity
  8
0
  6
Continuous
 62
     7
370
    15
100
AcDbLine
 10
88.4211194053
 20
117.0848743483
 30
0.0
 11
88.4211194053
 21
117.555290703
 31
0.0
  0
LINE
  5
1C8
330
1F
100
AcDbEntity
  8
0
  6
Continuous
 62
     7
370
    15
100
AcDbLine
 10
89.7211194053
 20
117.0848743483
 30
0.0
 11
88.4211194053
 21
117.0848743483
 31
0.0
  0
LINE
  5
1C9
330
1F
100
AcDbEntity
  8
0
  6
Continuous
 62
     7
370
    15
100
AcDbLine
 10
89.7211194053
 20
117.0848743483
 30
0.0
 11
89.7211194053
 21
117.5565426038
 31
0.0
  0
LINE
  5
1CA
330
1F
100
AcDbEntity
  8
0
  6
Continuous
 62
     7
370
    15
100
AcDbLine
 10
90.3581194053
 20
101.3641083542
 30
0.0
 11
90.3581194053
 21
126.7641083542
 31
0.0
  0
LINE
  5
1CB
330
1F
100
AcDbEntity
  8
0
  6
Continuous
 62
     7
370
    15
100
AcDbLine
 10
86.4236835078
 20
112.7268482676
 30
0.0
 11
86.4236835078
 21
113.0660599912
 31
0.0
  0
SPLINE
  5
1CC
330
1F
100
AcDbEntity
  8
0
  6
Continuous
 62
     7
370
    15
100
AcDbSpline
210
0.0
220
0.0
230
1.0
 70
     8
 71
     3
 72
    15
 73
    11
 74
     0
 42
0.00000001
 43
0.00000001
 40
0.0
 40
0.0
 40
0.0
 40
0.0
 40
0.2171088211365625
 40
0.3840213461710668
 40
0.501045361059604
 40
0.6297428455843525
 40
0.7503447963581514
 40
0.8748336661416349
 40
0.9373765209562052
 40
1.0
 40
1.0
 40
1.0
 40
1.0
 10
86.42368350783374
 20
113.0660599911851
 30
0.0
 10
86.42337383850729
 20
113.1196154858859
 30
0.0
 10
86.42282609645338
 20
113.2143442631976
 30
0.0
 10
86.41735345790848
 20
113.337962529916
 30
0.0
 10
86.40976433950496
 20
113.4396228626653
 30
0.0
 10
86.38439075844276
 20
113.5282098251055
 30
0.0
 10
86.32579262376144
 20
113.6027420215446
 30
0.0
 10
86.25729106155089
 20
113.6408180643653
 30
0.0
 10
86.19646258538056
 20
113.6532377998941
 30
0.0
 10
86.16549792576365
 20
113.6545487697622
 30
0.0
 10
86.15000562321836
 20
113.6552046769181
 30
0.0
  0
SPLINE
  5
1CD
330
1F
100
AcDbEntity
  8
0
  6
Continuous
 62
     7
370
    15
100
AcDbSpline
210
0.0
220
0.0
230
1.0
 70
     8
 71
     3
 72
    13
 73
     9
 74
     0
 42
0.00000001
 43
0.00000001
 40
0.0
 40
0.0
 40
0.0
 40
0.0
 40
0.1254399255482902
 40
0.2507139272240476
 40
0.4997479140554384
 40
0.7491884405658581
 40
0.8745420072140587
 40
1.0
 40
1.0
 40
1.0
 40
1.0
 10
86.15000562321836
 20
113.6552046769181
 30
0.0
 10
86.13404310086368
 20
113.6545062620663
 30
0.0
 10
86.10213917035307
 20
113.6531103561809
 30
0.0
 10
86.03978570998045
 20
113.6387581072968
 30
0.0
 10
85.97004802438842
 20
113.5953973557222
 30
0.0
 10
85.92491296677163
 20
113.5277133788584
 30
0.0
 10
85.90391659697615
 20
113.4674983568022
 30
0.0
 10
85.89786460823827
 20
113.4361797675359
 30
0.0
 10
85.8948373539876
 20
113.4205139531089
 30
0.0
  0
SPLINE
  5
1CE
330
1F
100
AcDbEntity
  8
0
  6
Continuous
 62
     7
370
    15
100
AcDbSpline
210
0.0
220
0.0
230
1.0
 70
     8
 71
     3
 72
    10
 73
     6
 74
     0
 42
0.00000001
 43
0.00000001
 40
0.0
 40
0.0
 40
0.0
 40
0.0
 40
0.2035765328858644
 40
0.5368312401054819
 40
1.0
 40
1.0
 40
1.0
 40
1.0
 10
85.8948373539876
 20
113.4205139531089
 30
0.0
 10
85.8932727775885
 20
113.3977669443147
 30
0.0
 10
85.88914699021674
 20
113.3377830907411
 30
0.0
 10
85.88802339256696
 20
113.225804311764
 30
0.0
 10
85.88787333787829
 20
113.1367457732293
 30
0.0
 10
85.88778607193632
 20
113.0849528081115
 30
0.0
  0
LINE
  5
1CF
330
1F
100
AcDbEntity
  8
0
  6
Continuous
 62
     7
370
    15
100
AcDbLine
 10
85.8877860719
 20
112.7268482676
 30
0.0
 11
85.8877860719
 21
113.0849528081
 31
0.0
  0
LINE
  5
1D0
330
1F
100
AcDbEntity
  8
0
  6
Continuous
 62
     7
370
    15
100
AcDbLine
 10
85.8877860719
 20
112.7268482676
 30
0.0
 11
86.4236835078
 21
112.7268482676
 31
0.0
  0
SPLINE
  5
1D1
330
1F
100
AcDbEntity
  8
0
  6
Continuous
 62
     7
370
    15
100
AcDbSpline
210
0.0
220
0.0
230
1.0
 70
     8
 71
     3
 72
    14
 73
    10
 74
     0
 42
0.00000001
 43
0.00000001
 40
0.0
 40
0.0
 40
0.0
 40
0.0
 40
0.2504429080674745
 40
0.500620340154028
 40
0.6256108326090866
 40
0.7503565666677284
 40
0.8749116616834036
 40
0.937432878739352
 40
1.0
 40
1.0
 40
1.0
 40
1.0
 10
89.07945273860297
 20
114.6139364491293
 30
0.0
 10
89.13225871680667
 20
114.6147762463828
 30
0.0
 10
89.23781469750698
 20
114.6164549506827
 30
0.0
 10
89.36903698109232
 20
114.6337062589987
 30
0.0
 10
89.47018261363598
 20
114.6674668657449
 30
0.0
 10
89.53258862769023
 20
114.7180327407907
 30
0.0
 10
89.57058366017996
 20
114.7731741756167
 30
0.0
 10
89.58583389854478
 20
114.8240367381946
 30
0.0
 10
89.5871351882925
 20
114.8503952827073
 30
0.0
 10
89.5877860719363
 20
114.8635793914178
 30
0.0
  0
SPLINE
  5
1D2
330
1F
100
AcDbEntity
  8
0
  6
Continuous
 62
     7
370
    15
100
AcDbSpline
210
0.0
220
0.0
230
1.0
 70
     8
 71
     3
 72
    14
 73
    10
 74
     0
 42
0.00000001
 43
0.00000001
 40
0.0
 40
0.0
 40
0.0
 40
0.0
 40
0.0625729101401011
 40
0.1250870561972593
 40
0.2496344929178848
 40
0.3743737119331912
 40
0.4993559792349011
 40
0.7495464100689729
 40
1.0
 40
1.0
 40
1.0
 40
1.0
 10
89.5877860719363
 20
114.8635793914178
 30
0.0
 10
89.58717688329608
 20
114.8767709379604
 30
0.0
 10
89.58595907812284
 20
114.9031416424716
 30
0.0
 10
89.57009090769411
 20
114.9537502270161
 30
0.0
 10
89.53278631609722
 20
115.0091977411873
 30
0.0
 10
89.46992424393889
 20
115.0591863908667
 30
0.0
 10
89.36903790510627
 20
115.0932084329552
 30
0.0
 10
89.23775598000418
 20
115.1103677136126
 30
0.0
 10
89.13223897376342
 20
115.1120639727053
 30
0.0
 10
89.07945273860297
 20
115.1129125480635
 30
0.0
  0
SPLINE
  5
1D3
330
1F
100
AcDbEntity
  8
0
  6
Continuous
 62
     7
370
    15
100
AcDbSpline
210
0.0
220
0.0
230
1.0
 70
     8
 71
     3
 72
    14
 73
    10
 74
     0
 42
0.00000001
 43
0.00000001
 40
0.0
 40
0.0
 40
0.0
 40
0.0
 40
0.2861814599581113
 40
0.5006553135008481
 40
0.6256165618760133
 40
0.750389710442144
 40
0.8749056450046561
 40
0.9374328456059117
 40
1.0
 40
1.0
 40
1.0
 40
1.0
 10
89.07945273860297
 20
115.1129125480635
 30
0.0
 10
89.01893773650168
 20
115.1117652726831
 30
0.0
 10
88.91307078986945
 20
115.1097581911786
 30
0.0
 10
88.78172965763905
 20
115.0905962630456
 30
0.0
 10
88.68813555026702
 20
115.0580671389464
 30
0.0
 10
88.62468872686236
 20
115.0085763749879
 30
0.0
 10
88.58746925916266
 20
114.9525178495051
 30
0.0
 10
88.5728872028371
 20
114.9014097938955
 30
0.0
 10
88.57170879658223
 20
114.8749794664859
 30
0.0
 10
88.57111940526964
 20
114.8617600819999
 30
0.0
  0
SPLINE
  5
1D4
330
1F
100
AcDbEntity
  8
0
  6
Continuous
 62
     7
370
    15
100
AcDbSpline
210
0.0
220
0.0
230
1.0
 70
     8
 71
     3
 72
    11
 73
     7
 74
     0
 42
0.00000001
 43
0.00000001
 40
0.0
 40
0.0
 40
0.0
 40
0.0
 40
0.2499734323472244
 40
0.4998292534119547
 40
0.7498147520290211
 40
1.0
 40
1.0
 40
1.0
 40
1.0
 10
88.57111940526964
 20
114.8617600819999
 30
0.0
 10
88.57205395266806
 20
114.8449085681399
 30
0.0
 10
88.5739226077649
 20
114.8112134689752
 30
0.0
 10
88.592228572896
 20
114.7634733931671
 30
0.0
 10
88.62114988984574
 20
114.7214356333708
 30
0.0
 10
88.64716776994128
 20
114.6998922168884
 30
0.0
 10
88.66018190526964
 20
114.6891162068327
 30
0.0
  0
SPLINE
  5
1D5
330
1F
100
AcDbEntity
  8
0
  6
Continuous
 62
     7
370
    15
100
AcDbSpline
210
0.0
220
0.0
230
1.0
 70
     8
 71
     3
 72
    12
 73
     8
 74
     0
 42
0.00000001
 43
0.00000001
 40
0.0
 40
0.0
 40
0.0
 40
0.0
 40
0.1249215247379201
 40
0.2499271219097642
 40
0.4998228509733539
 40
0.7498865787125113
 40
1.0
 40
1.0
 40
1.0
 40
1.0
 10
88.66018190526964
 20
114.6891162068327
 30
0.0
 10
88.67580931963363
 20
114.6802211633337
 30
0.0
 10
88.70707466564248
 20
114.6624250899538
 30
0.0
 10
88.7759252438323
 20
114.6409383532997
 30
0.0
 10
88.86425192723497
 20
114.6243660073697
 30
0.0
 10
88.97172274816867
 20
114.6153000948042
 30
0.0
 10
89.04354036338611
 20
114.6143910277935
 30
0.0
 10
89.07945273860297
 20
114.6139364491293
 30
0.0
  0
LINE
  5
1D6
330
1F
100
AcDbEntity
  8
0
  6
Continuous
 62
     7
370
    15
100
AcDbLine
 10
89.1711194053
 20
111.5506050873
 30
0.0
 11
89.1711194053
 21
111.9870231445
 31
0.0
  0
SPLINE
  5
1D7
330
1F
100
AcDbEntity
  8
0
  6
Continuous
 62
     7
370
    15
100
AcDbSpline
210
0.0
220
0.0
230
1.0
 70
     8
 71
     3
 72
     8
 73
     4
 74
     0
 42
0.00000001
 43
0.00000001
 40
0.0
 40
0.0
 40
0.0
 40
0.0
 40
1.0
 40
1.0
 40
1.0
 40
1.0
 10
89.17111940526965
 20
111.9870231444737
 30
0.0
 10
89.05723051638076
 20
111.9454893340476
 30
0.0
 10
88.94334162749186
 20
111.9039897625618
 30
0.0
 10
88.82945273860297
 20
111.8625264822214
 30
0.0
  0
SPLINE
  5
1D8
330
1F
100
AcDbEntity
  8
0
  6
Continuous
 62
     7
370
    15
100
AcDbSpline
210
0.0
220
0.0
230
1.0
 70
     8
 71
     3
 72
     8
 73
     4
 74
     0
 42
0.00000001
 43
0.00000001
 40
0.0
 40
0.0
 40
0.0
 40
0.0
 40
1.0
 40
1.0
 40
1.0
 40
1.0
 10
88.82945273860297
 20
111.8625264822214
 30
0.0
 10
88.74334162749187
 20
111.8311511752421
 30
0.0
 10
88.65723051638075
 20
111.7997966483763
 30
0.0
 10
88.57111940526964
 20
111.7684637894517
 30
0.0
  0
SPLINE
  5
1D9
330
1F
100
AcDbEntity
  8
0
  6
Continuous
 62
     7
370
    15
100
AcDbSpline
210
0.0
220
0.0
230
1.0
 70
     8
 71
     3
 72
    10
 73
     6
 74
     0
 42
0.00000001
 43
0.00000001
 40
0.0
 40
0.0
 40
0.0
 40
0.0
 40
0.2500754537520229
 40
0.5001247147060728
 40
1.0
 40
1.0
 40
1.0
 40
1.0
 10
88.57111940526964
 20
111.7684637894517
 30
0.0
 10
88.59191150783931
 20
111.7634906824186
 30
0.0
 10
88.63349353522256
 20
111.7535449892336
 30
0.0
 10
88.7146480444421
 20
111.7264955576467
 30
0.0
 10
88.7725968109621
 20
111.6993054102705
 30
0.0
 10
88.81122357193631
 20
111.6811813433295
 30
0.0
  0
SPLINE
  5
1DA
330
1F
100
AcDbEntity
  8
0
  6
Continuous
 62
     7
370
    15
100
AcDbSpline
210
0.0
220
0.0
230
1.0
 70
     8
 71
     3
 72
     8
 73
     4
 74
     0
 42
0.00000001
 43
0.00000001
 40
0.0
 40
0.0
 40
0.0
 40
0.0
 40
1.0
 40
1.0
 40
1.0
 40
1.0
 10
88.81122357193631
 20
111.6811813433295
 30
0.0
 10
88.93118884971409
 20
111.6376115232725
 30
0.0
 10
89.05115412749186
 20
111.5940853081321
 30
0.0
 10
89.17111940526965
 20
111.5506050872907
 30
0.0
  0
SPLINE
  5
1DB
330
1F
100
AcDbEntity
  8
0
  6
Continuous
 62
     7
370
    15
100
AcDbSpline
210
0.0
220
0.0
230
1.0
 70
     8
 71
     3
 72
    13
 73
     9
 74
     0
 42
0.00000001
 43
0.00000001
 40
0.0
 40
0.0
 40
0.0
 40
0.0
 40
0.1255312133447931
 40
0.2508978125889677
 40
0.4999246823670636
 40
0.7490355568333783
 40
0.8619657129898153
 40
1.0
 40
1.0
 40
1.0
 40
1.0
 10
88.74976523860298
 20
116.2531218959229
 30
0.0
 10
88.76278933329316
 20
116.2536032877219
 30
0.0
 10
88.78882044365723
 20
116.2545654400514
 30
0.0
 10
88.83895391006067
 20
116.2685666330825
 30
0.0
 10
88.89494087275821
 20
116.3047924269941
 30
0.0
 10
88.92576979223135
 20
116.3618364934315
 30
0.0
 10
88.93634556677428
 20
116.4117862119665
 30
0.0
 10
88.93727491576136
 20
116.4373327104243
 30
0.0
 10
88.93778607193632
 20
116.4513836757951
 30
0.0
  0
SPLINE
  5
1DC
330
1F
100
AcDbEntity
  8
0
  6
Continuous
 62
     7
370
    15
100
AcDbSpline
210
0.0
220
0.0
230
1.0
 70
     8
 71
     3
 72
    12
 73
     8
 74
     0
 42
0.00000001
 43
0.00000001
 40
0.0
 40
0.0
 40
0.0
 40
0.0
 40
0.250470329042642
 40
0.4997020248690991
 40
0.7490847796347483
 40
0.8744586110418993
 40
1.0
 40
1.0
 40
1.0
 40
1.0
 10
88.93778607193632
 20
116.4513836757951
 30
0.0
 10
88.93637617985253
 20
116.4761906333008
 30
0.0
 10
88.93356336792465
 20
116.5256818722184
 30
0.0
 10
88.89631381666726
 20
116.592944874364
 30
0.0
 10
88.84364847359964
 20
116.6294460785207
 30
0.0
 10
88.79539083589297
 20
116.6443232702164
 30
0.0
 10
88.7701877144595
 20
116.6454304925408
 30
0.0
 10
88.75757773860298
 20
116.6459844733965
 30
0.0
  0
SPLINE
  5
1DD
330
1F
100
AcDbEntity
  8
0
  6
Continuous
 62
     7
370
    15
100
AcDbSpline
210
0.0
220
0.0
230
1.0
 70
     8
 71
     3
 72
    13
 73
     9
 74
     0
 42
0.00000001
 43
0.00000001
 40
0.0
 40
0.0
 40
0.0
 40
0.0
 40
0.1254130430777888
 40
0.2506401382507343
 40
0.3731482939976122
 40
0.5012063874262693
 40
0.7307351713268084
 40
1.0
 40
1.0
 40
1.0
 40
1.0
 10
88.75757773860298
 20
116.6459844733965
 30
0.0
 10
88.74475782825564
 20
116.6453421547442
 30
0.0
 10
88.71913701543615
 20
116.6440584697954
 30
0.0
 10
88.68218540033516
 20
116.6333998084466
 30
0.0
 10
88.64851014496968
 20
116.6148531094624
 30
0.0
 10
88.6110409960746
 20
116.5834826923834
 30
0.0
 10
88.57688474931825
 20
116.5275203860319
 30
0.0
 10
88.57314061133172
 20
116.4770789304399
 30
0.0
 10
88.57111940526964
 20
116.449849010979
 30
0.0
  0
SPLINE
  5
1DE
330
1F
100
AcDbEntity
  8
0
  6
Continuous
 62
     7
370
    15
100
AcDbSpline
210
0.0
220
0.0
230
1.0
 70
     8
 71
     3
 72
    12
 73
     8
 74
     0
 42
0.00000001
 43
0.00000001
 40
0.0
 40
0.0
 40
0.0
 40
0.0
 40
0.2503910199754645
 40
0.4997816232728969
 40
0.7491881028304543
 40
0.8745078303921737
 40
0.9999999999999999
 40
0.9999999999999999
 40
0.9999999999999999
 40
0.9999999999999999
 10
88.57111940526964
 20
116.449849010979
 30
0.0
 10
88.57253998567931
 20
116.4250966038323
 30
0.0
 10
88.57537547068672
 20
116.3756906857411
 30
0.0
 10
88.61264451701058
 20
116.3085982316438
 30
0.0
 10
88.66426328076382
 20
116.2710650072584
 30
0.0
 10
88.71209221976498
 20
116.255174727145
 30
0.0
 10
88.73720181107973
 20
116.2538064865682
 30
0.0
 10
88.74976523860298
 20
116.2531218959229
 30
0.0
  0
SPLINE
  5
1DF
330
1F
100
AcDbEntity
  8
0
  6
Continuous
 62
     7
370
    15
100
AcDbSpline
210
0.0
220
0.0
230
1.0
 70
     8
 71
     3
 72
    14
 73
    10
 74
     0
 42
0.00000001
 43
0.00000001
 40
0.0
 40
0.0
 40
0.0
 40
0.0
 40
0.1253372944847092
 40
0.2506673876853259
 40
0.38267118240927
 40
0.5008053835127795
 40
0.7850932417204022
 40
0.892538846165239
 40
0.9999999999999999
 40
0.9999999999999999
 40
0.9999999999999999
 40
0.9999999999999999
 10
89.33518190526964
 20
116.2038533856579
 30
0.0
 10
89.35195240684604
 20
116.204531648673
 30
0.0
 10
89.3854924464457
 20
116.2058881357335
 30
0.0
 10
89.43514042679163
 20
116.2189389332275
 30
0.0
 10
89.48174390444345
 20
116.2380638654404
 30
0.0
 10
89.53850087164541
 20
116.2822194028667
 30
0.0
 10
89.57024776246907
 20
116.344997305625
 30
0.0
 10
89.58594374225399
 20
116.4087556957482
 30
0.0
 10
89.58717193242066
 20
116.4370031511991
 30
0.0
 10
89.5877860719363
 20
116.4511279008345
 30
0.0
  0
SPLINE
  5
1E0
330
1F
100
AcDbEntity
  8
0
  6
Continuous
 62
     7
370
    15
100
AcDbSpline
210
0.0
220
0.0
230
1.0
 70
     8
 71
     3
 72
    13
 73
     9
 74
     0
 42
0.00000001
 43
0.00000001
 40
0.0
 40
0.0
 40
0.0
 40
0.0
 40
0.1338196778045169
 40
0.250808847168724
 40
0.4997860759501683
 40
0.7491443933066945
 40
0.8495363257277921
 40
1.0
 40
1.0
 40
1.0
 40
1.0
 10
89.5877860719363
 20
116.4511279008345
 30
0.0
 10
89.58693285832804
 20
116.4683795559539
 30
0.0
 10
89.58533373983524
 20
116.5007131245534
 30
0.0
 10
89.57040821439679
 20
116.5637533281959
 30
0.0
 10
89.52568633122509
 20
116.6332015109648
 30
0.0
 10
89.45678286017437
 20
116.6752321937233
 30
0.0
 10
89.39316550100058
 20
116.6922294623655
 30
0.0
 10
89.36017687798875
 20
116.6939113752335
 30
0.0
 10
89.34039023860298
 20
116.6949201897992
 30
0.0
  0
SPLINE
  5
1E1
330
1F
100
AcDbEntity
  8
0
  6
Continuous
 62
     7
370
    15
100
AcDbSpline
210
0.0
220
0.0
230
1.0
 70
     8
 71
     3
 72
    13
 73
     9
 74
     0
 42
0.00000001
 43
0.00000001
 40
0.0
 40
0.0
 40
0.0
 40
0.0
 40
0.1254583066890275
 40
0.2508800445075813
 40
0.5001928709114591
 40
0.7491319322514393
 40
0.8745400951402491
 40
0.9999999999999999
 40
0.9999999999999999
 40
0.9999999999999999
 40
0.9999999999999999
 10
89.34039023860298
 20
116.6949201897992
 30
0.0
 10
89.32358098644964
 20
116.6942741175083
 30
0.0
 10
89.28996738174176
 20
116.6929821612452
 30
0.0
 10
89.22481150547827
 20
116.6762115613157
 30
0.0
 10
89.15182736058026
 20
116.6314506537938
 30
0.0
 10
89.10589280069057
 20
116.5598563926133
 30
0.0
 10
89.08959118326038
 20
116.4957736902954
 30
0.0
 10
89.08838785844027
 20
116.4627721563137
 30
0.0
 10
89.0877860719363
 20
116.4462679860113
 30
0.0
  0
SPLINE
  5
1E2
330
1F
100
AcDbEntity
  8
0
  6
Continuous
 62
     7
370
    15
100
AcDbSpline
210
0.0
220
0.0
230
1.0
 70
     8
 71
     3
 72
    13
 73
     9
 74
     0
 42
0.00000001
 43
0.00000001
 40
0.0
 40
0.0
 40
0.0
 40
0.0
 40
0.134595718715016
 40
0.2508140940682239
 40
0.499757285637406
 40
0.7492133260310684
 40
0.8666666109212523
 40
1.0
 40
1.0
 40
1.0
 40
1.0
 10
89.0877860719363
 20
116.4462679860113
 30
0.0
 10
89.08865145206907
 20
116.4290146429384
 30
0.0
 10
89.09026405562064
 20
116.3968636826122
 30
0.0
 10
89.10575825284035
 20
116.3341948624645
 30
0.0
 10
89.15107696161036
 20
116.26560984875
 30
0.0
 10
89.2215044597089
 20
116.2225894911424
 30
0.0
 10
89.28505767477297
 20
116.2065168476099
 30
0.0
 10
89.31778309127888
 20
116.2047779101567
 30
0.0
 10
89.33518190526964
 20
116.2038533856579
 30
0.0
  0
SPLINE
  5
1E3
330
1F
100
AcDbEntity
  8
0
  6
Continuous
 62
     7
370
    15
100
AcDbSpline
210
0.0
220
0.0
230
1.0
 70
     8
 71
     3
 72
     8
 73
     4
 74
     0
 42
0.00000001
 43
0.00000001
 40
0.0
 40
0.0
 40
0.0
 40
0.0
 40
1.0
 40
1.0
 40
1.0
 40
1.0
 10
86.84676043091066
 20
117.4427992274459
 30
0.0
 10
86.58351256766281
 20
117.3499045638989
 30
0.0
 10
86.32026470441494
 20
117.2567180825463
 30
0.0
 10
86.05701684116708
 20
117.163263926075
 30
0.0
  0
SPLINE
  5
1E4
330
1F
100
AcDbEntity
  8
0
  6
Continuous
 62
     7
370
    15
100
AcDbSpline
210
0.0
220
0.0
230
1.0
 70
     8
 71
     3
 72
     8
 73
     4
 74
     0
 42
0.00000001
 43
0.00000001
 40
0.0
 40
0.0
 40
0.0
 40
0.0
 40
1.0
 40
1.0
 40
1.0
 40
1.0
 10
86.05701684116708
 20
117.163263926075
 30
0.0
 10
86.32026470441495
 20
117.0700946908124
 30
0.0
 10
86.58351256766281
 20
116.9766594110062
 30
0.0
 10
86.84676043091066
 20
116.8829821464336
 30
0.0
  0
LINE
  5
1E5
330
1F
100
AcDbEntity
  8
0
  6
Continuous
 62
     7
370
    15
100
AcDbLine
 10
86.8467604309
 20
116.8829821464
 30
0.0
 11
86.8467604309
 21
117.4427992274
 31
0.0
  0
SPLINE
  5
1E6
330
1F
100
AcDbEntity
  8
0
  6
Continuous
 62
     7
370
    15
100
AcDbSpline
210
0.0
220
0.0
230
1.0
 70
     8
 71
     3
 72
    15
 73
    11
 74
     0
 42
0.00000001
 43
0.00000001
 40
0.0
 40
0.0
 40
0.0
 40
0.0
 40
0.1252939629232337
 40
0.2505502653013096
 40
0.4995396696992569
 40
0.6246225560403436
 40
0.7496337341413112
 40
0.8747057615244854
 40
0.9373377895301459
 40
1.0
 40
1.0
 40
1.0
 40
1.0
 10
86.61979728988503
 20
110.3266821751396
 30
0.0
 10
86.66616722324645
 20
110.3277674688253
 30
0.0
 10
86.75889315221102
 20
110.3299377299818
 30
0.0
 10
86.94130676051299
 20
110.3581739243261
 30
0.0
 10
87.1180695892776
 20
110.4268503206073
 30
0.0
 10
87.25240172995078
 20
110.5507561406492
 30
0.0
 10
87.32933645390547
 20
110.6632365655982
 30
0.0
 10
87.36691965009665
 20
110.7700561423001
 30
0.0
 10
87.38068333394098
 20
110.8587503213667
 30
0.0
 10
87.3819995834941
 20
110.903630872612
 30
0.0
 10
87.3826578668081
 20
110.9260765539327
 30
0.0
  0
SPLINE
  5
1E7
330
1F
100
AcDbEntity
  8
0
  6
Continuous
 62
     7
370
    15
100
AcDbSpline
210
0.0
220
0.0
230
1.0
 70
     8
 71
     3
 72
    15
 73
    11
 74
     0
 42
0.00000001
 43
0.00000001
 40
0.0
 40
0.0
 40
0.0
 40
0.0
 40
0.0626641331933108
 40
0.125303293684883
 40
0.2503298039519965
 40
0.3753419120569506
 40
0.5003870109229441
 40
0.7494203230832702
 40
0.8746965509323908
 40
1.0
 40
1.0
 40
1.0
 40
1.0
 10
87.3826578668081
 20
110.9260765539327
 30
0.0
 10
87.38199200737618
 20
110.9486192908376
 30
0.0
 10
87.38066055386845
 20
110.993695780991
 30
0.0
 10
87.36684307385542
 20
111.0830603267522
 30
0.0
 10
87.32931167145694
 20
111.1912304215533
 30
0.0
 10
87.25129154859931
 20
111.3051997708786
 30
0.0
 10
87.11485297699848
 20
111.4301394505361
 30
0.0
 10
86.93654746343896
 20
111.4984900748245
 30
0.0
 10
86.75319037846366
 20
111.5252951519211
 30
0.0
 10
86.66015177390179
 20
111.5275619237509
 30
0.0
 10
86.61362741809016
 20
111.5286954327889
 30
0.0
  0
SPLINE
  5
1E8
330
1F
100
AcDbEntity
  8
0
  6
Continuous
 62
     7
370
    15
100
AcDbSpline
210
0.0
220
0.0
230
1.0
 70
     8
 71
     3
 72
    15
 73
    11
 74
     0
 42
0.00000001
 43
0.00000001
 40
0.0
 40
0.0
 40
0.0
 40
0.0
 40
0.1430353090161973
 40
0.2859960376607301
 40
0.4338763757356724
 40
0.5713445373176093
 40
0.6795447677732024
 40
0.7856044939506879
 40
0.8927753915605214
 40
1.0
 40
1.0
 40
1.0
 40
1.0
 10
86.61362741809016
 20
111.5286954327889
 30
0.0
 10
86.56090155028105
 20
111.5273413774371
 30
0.0
 10
86.45547730657961
 20
111.5246339727546
 30
0.0
 10
86.2974739834419
 20
111.4967593727462
 30
0.0
 10
86.14861040035608
 20
111.4412776089836
 30
0.0
 10
86.0305993278036
 20
111.3557699936551
 30
0.0
 10
85.94762419895935
 20
111.2572857892715
 30
0.0
 10
85.8946079933259
 20
111.1531478626997
 30
0.0
 10
85.86469257878306
 20
111.041082978938
 30
0.0
 10
85.86128510663093
 20
110.964418430991
 30
0.0
 10
85.85958094373117
 20
110.9260765539327
 30
0.0
  0
SPLINE
  5
1E9
330
1F
100
AcDbEntity
  8
0
  6
Continuous
 62
     7
370
    15
100
AcDbSpline
210
0.0
220
0.0
230
1.0
 70
     8
 71
     3
 72
    16
 73
    12
 74
     0
 42
0.00000001
 43
0.00000001
 40
0.0
 40
0.0
 40
0.0
 40
0.0
 40
0.0625877118754819
 40
0.1251574805008952
 40
0.2500250596120949
 40
0.3748915553932085
 40
0.4997713019041148
 40
0.6191490026963644
 40
0.749729204542914
 40
0.8748410937709277
 40
1.0
 40
1.0
 40
1.0
 40
1.0
 10
85.85958094373117
 20
110.9260765539327
 30
0.0
 10
85.86020224227924
 20
110.9035805090587
 30
0.0
 10
85.86144466125552
 20
110.8585948686942
 30
0.0
 10
85.87454077202152
 20
110.7696714511136
 30
0.0
 10
85.90922488038419
 20
110.6617863649914
 30
0.0
 10
85.98458194852911
 20
110.5477338281785
 30
0.0
 10
86.08448994119527
 20
110.4559291511716
 30
0.0
 10
86.20671167365435
 20
110.3898557373709
 30
0.0
 10
86.3404993564983
 20
110.3508391761851
 30
0.0
 10
86.48043326930956
 20
110.3294407103936
 30
0.0
 10
86.57333679860112
 20
110.3276018020462
 30
0.0
 10
86.61979728988503
 20
110.3266821751396
 30
0.0
  0
LINE
  5
1EA
330
1F
100
AcDbEntity
  8
0
  6
Continuous
 62
     7
370
    15
100
AcDbLine
 10
88.9711194053
 20
117.2626251852
 30
0.0
 11
88.9711194053
 21
117.5212249714
 31
0.0
  0
SPLINE
  5
1EB
330
1F
100
AcDbEntity
  8
0
  6
Continuous
 62
     7
370
    15
100
AcDbSpline
210
0.0
220
0.0
230
1.0
 70
     8
 71
     3
 72
     9
 73
     5
 74
     0
 42
0.00000001
 43
0.00000001
 40
0.0
 40
0.0
 40
0.0
 40
0.0
 40
0.5883409909695729
 40
1.0
 40
1.0
 40
1.0
 40
1.0
 10
88.97111940526963
 20
117.5212249713519
 30
0.0
 10
88.9709566910048
 20
117.5509969881001
 30
0.0
 10
88.97068012644897
 20
117.6016003239293
 30
0.0
 10
88.96010724417556
 20
117.650981020015
 30
0.0
 10
88.95575482193631
 20
117.6713090284309
 30
0.0
  0
SPLINE
  5
1EC
330
1F
100
AcDbEntity
  8
0
  6
Continuous
 62
     7
370
    15
100
AcDbSpline
210
0.0
220
0.0
230
1.0
 70
     8
 71
     3
 72
    11
 73
     7
 74
     0
 42
0.00000001
 43
0.00000001
 40
0.0
 40
0.0
 40
0.0
 40
0.0
 40
0.2500636976278159
 40
0.4996140210218185
 40
0.7494841086163002
 40
1.0
 40
1.0
 40
1.0
 40
1.0
 10
88.95575482193631
 20
117.6713090284309
 30
0.0
 10
88.94846052000251
 20
117.6891677329623
 30
0.0
 10
88.93388689114609
 20
117.7248484785716
 30
0.0
 10
88.88982361518372
 20
117.7655527705607
 30
0.0
 10
88.83405472300124
 20
117.78873001615
 30
0.0
 10
88.79419832421947
 20
117.7907298678834
 30
0.0
 10
88.77424440526964
 20
117.7917310842656
 30
0.0
  0
SPLINE
  5
1ED
330
1F
100
AcDbEntity
  8
0
  6
Continuous
 62
     7
370
    15
100
AcDbSpline
210
0.0
220
0.0
230
1.0
 70
     8
 71
     3
 72
    14
 73
    10
 74
     0
 42
0.00000001
 43
0.00000001
 40
0.0
 40
0.0
 40
0.0
 40
0.0
 40
0.1251164597299254
 40
0.2501003708653258
 40
0.3784570012824718
 40
0.4994471528334772
 40
0.6421063031882542
 40
0.7494840607856386
 40
1.0
 40
1.0
 40
1.0
 40
1.0
 10
88.77424440526964
 20
117.7917310842656
 30
0.0
 10
88.75661266589915
 20
117.7909364954485
 30
0.0
 10
88.72136786625344
 20
117.7893481596029
 30
0.0
 10
88.67062365350309
 20
117.7721073617297
 30
0.0
 10
88.62614074565552
 20
117.7439506374488
 30
0.0
 10
88.5931331567442
 20
117.7001479539793
 30
0.0
 10
88.5802757123204
 20
117.6509595197042
 30
0.0
 10
88.57228394285258
 20
117.5839809122683
 30
0.0
 10
88.57159890988143
 20
117.5355649746558
 30
0.0
 10
88.57111940526964
 20
117.5016751235855
 30
0.0
  0
LINE
  5
1EE
330
1F
100
AcDbEntity
  8
0
  6
Continuous
 62
     7
370
    15
100
AcDbLine
 10
88.5711194053
 20
117.2626251852
 30
0.0
 11
88.5711194053
 21
117.5016751236
 31
0.0
  0
LINE
  5
1EF
330
1F
100
AcDbEntity
  8
0
  6
Continuous
 62
     7
370
    15
100
AcDbLine
 10
88.5711194053
 20
117.2626251852
 30
0.0
 11
88.9711194053
 21
117.2626251852
 31
0.0
  0
LINE
  5
1F0
330
1F
100
AcDbEntity
  8
0
  6
Continuous
 62
     7
370
    15
100
AcDbLine
 10
89.5711194053
 20
117.2626251852
 30
0.0
 11
89.5711194053
 21
117.5592966563
 31
0.0
  0
SPLINE
  5
1F1
330
1F
100
AcDbEntity
  8
0
  6
Continuous
 62
     7
370
    15
100
AcDbSpline
210
0.0
220
0.0
230
1.0
 70
     8
 71
     3
 72
     9
 73
     5
 74
     0
 42
0.00000001
 43
0.00000001
 40
0.0
 40
0.0
 40
0.0
 40
0.0
 40
0.5001562036897798
 40
1.0
 40
1.0
 40
1.0
 40
1.0
 10
89.57111940526964
 20
117.559296656293
 30
0.0
 10
89.57112677681535
 20
117.5771706185057
 30
0.0
 10
89.57114151530236
 20
117.6129073785036
 30
0.0
 10
89.56695967313443
 20
117.6483496002955
 30
0.0
 10
89.56486940526965
 20
117.6660651749857
 30
0.0
  0
SPLINE
  5
1F2
330
1F
100
AcDbEntity
  8
0
  6
Continuous
 62
     7
370
    15
100
AcDbSpline
210
0.0
220
0.0
230
1.0
 70
     8
 71
     3
 72
    12
 73
     8
 74
     0
 42
0.00000001
 43
0.00000001
 40
0.0
 40
0.0
 40
0.0
 40
0.0
 40
0.2503779277853453
 40
0.4993499231895097
 40
0.749103420308924
 40
0.8744892903658213
 40
1.0
 40
1.0
 40
1.0
 40
1.0
 10
89.56486940526965
 20
117.6660651749857
 30
0.0
 10
89.5587349861447
 20
117.6904985096734
 30
0.0
 10
89.54650059413599
 20
117.7392279799885
 30
0.0
 10
89.49521831932218
 20
117.7988366168346
 30
0.0
 10
89.43612334138281
 20
117.8273103044861
 30
0.0
 10
89.38521675125621
 20
117.8382591223636
 30
0.0
 10
89.35915617628537
 20
117.8390861146705
 30
0.0
 10
89.34611940526963
 20
117.8394998165689
 30
0.0
  0
SPLINE
  5
1F3
330
1F
100
AcDbEntity
  8
0
  6
Continuous
 62
     7
370
    15
100
AcDbSpline
210
0.0
220
0.0
230
1.0
 70
     8
 71
     3
 72
    12
 73
     8
 74
     0
 42
0.00000001
 43
0.00000001
 40
0.0
 40
0.0
 40
0.0
 40
0.0
 40
0.1432608800466557
 40
0.286313392207744
 40
0.4992657840883632
 40
0.7489004475802642
 40
1.0
 40
1.0
 40
1.0
 40
1.0
 10
89.34611940526963
 20
117.8394998165689
 30
0.0
 10
89.3249777144411
 20
117.8383665516356
 30
0.0
 10
89.28272508262596
 20
117.8361016700628
 30
0.0
 10
89.21381315784897
 20
117.8087389169583
 30
0.0
 10
89.14740100270573
 20
117.7461640916847
 30
0.0
 10
89.12354889703592
 20
117.6447720200651
 30
0.0
 10
89.12193081374957
 20
117.5743344666857
 30
0.0
 10
89.12111940526965
 20
117.5390126580993
 30
0.0
  0
LINE
  5
1F4
330
1F
100
AcDbEntity
  8
0
  6
Continuous
 62
     7
370
    15
100
AcDbLine
 10
89.1211194053
 20
117.2626251852
 30
0.0
 11
89.1211194053
 21
117.5390126581
 31
0.0
  0
LINE
  5
1F5
330
1F
100
AcDbEntity
  8
0
  6
Continuous
 62
     7
370
    15
100
AcDbLine
 10
89.1211194053
 20
117.2626251852
 30
0.0
 11
89.5711194053
 21
117.2626251852
 31
0.0
  0
LINE
  5
1F6
330
1F
100
AcDbEntity
  8
0
  6
Continuous
 62
     7
370
    15
100
AcDbLine
 10
84.2621194053
 20
101.8721083542
 30
0.0
 11
84.2621194053
 21
126.2561083542
 31
0.0
  0
LINE
  5
1F7
330
1F
100
AcDbEntity
  8
0
  6
Continuous
 62
     7
370
    15
100
AcDbLine
 10
79.5631194053
 20
104.4121083542
 30
0.0
 11
79.5631194053
 21
123.7161083542
 31
0.0
  0
LINE
  5
1F8
330
1F
100
AcDbEntity
  8
0
  6
Continuous
 62
     7
370
    15
100
AcDbLine
 10
87.3544527386
 20
118.7851784837
 30
0.0
 11
87.3544527386
 21
119.1833122906
 31
0.0
  0
SPLINE
  5
1F9
330
1F
100
AcDbEntity
  8
0
  6
Continuous
 62
     7
370
    15
100
AcDbSpline
210
0.0
220
0.0
230
1.0
 70
     8
 71
     3
 72
     9
 73
     5
 74
     0
 42
0.00000001
 43
0.00000001
 40
0.0
 40
0.0
 40
0.0
 40
0.0
 40
0.6059255711822946
 40
1.0
 40
1.0
 40
1.0
 40
1.0
 10
87.35445273860299
 20
119.183312290601
 30
0.0
 10
87.35489468798544
 20
119.2425809446285
 30
0.0
 10
87.35562406697767
 20
119.3403960177108
 30
0.0
 10
87.34498389810115
 20
119.4368523355424
 30
0.0
 10
87.34079087962863
 20
119.4748633038977
 30
0.0
  0
SPLINE
  5
1FA
330
1F
100
AcDbEntity
  8
0
  6
Continuous
 62
     7
370
    15
100
AcDbSpline
210
0.0
220
0.0
230
1.0
 70
     8
 71
     3
 72
    13
 73
     9
 74
     0
 42
0.00000001
 43
0.00000001
 40
0.0
 40
0.0
 40
0.0
 40
0.0
 40
0.1254079306940553
 40
0.2507127258727518
 40
0.5001568788900315
 40
0.7493064724005288
 40
0.8745791473424347
 40
1.0
 40
1.0
 40
1.0
 40
1.0
 10
87.34079087962863
 20
119.4748633038977
 30
0.0
 10
87.33735634630052
 20
119.4895839793009
 30
0.0
 10
87.33049010420544
 20
119.5190132238199
 30
0.0
 10
87.30423183673541
 20
119.5741334290069
 30
0.0
 10
87.25376582587336
 20
119.635188139424
 30
0.0
 10
87.1793339408145
 20
119.6724320348544
 30
0.0
 10
87.11430303260528
 20
119.6849484121941
 30
0.0
 10
87.08108673143039
 20
119.6859403375037
 30
0.0
 10
87.06446876424401
 20
119.6864365933077
 30
0.0
  0
SPLINE
  5
1FB
330
1F
100
AcDbEntity
  8
0
  6
Continuous
 62
     7
370
    15
100
AcDbSpline
210
0.0
220
0.0
230
1.0
 70
     8
 71
     3
 72
    16
 73
    12
 74
     0
 42
0.00000001
 43
0.00000001
 40
0.0
 40
0.0
 40
0.0
 40
0.0
 40
0.0626059446054476
 40
0.125155312858505
 40
0.2497071453476894
 40
0.374223580923576
 40
0.4990394270065715
 40
0.5829574434816412
 40
0.6993949800653257
 40
0.8297233634802114
 40
1.0
 40
1.0
 40
1.0
 40
1.0
 10
87.06446876424401
 20
119.6864365933077
 30
0.0
 10
87.04827127859802
 20
119.6859586345362
 30
0.0
 10
87.01589094480832
 20
119.6850031489197
 30
0.0
 10
86.9526754717303
 20
119.6721172045474
 30
0.0
 10
86.87951159358288
 20
119.6376823483562
 30
0.0
 10
86.81695994827649
 20
119.5688334932995
 30
0.0
 10
86.78612711060707
 20
119.4950598137527
 30
0.0
 10
86.77408895330598
 20
119.4196588489423
 30
0.0
 10
86.76709123209349
 20
119.3423356608531
 30
0.0
 10
86.76304582013744
 20
119.2442425464657
 30
0.0
 10
86.76247077726825
 20
119.1731307532259
 30
0.0
 10
86.76214504629529
 20
119.132849732728
 30
0.0
  0
LINE
  5
1FC
330
1F
100
AcDbEntity
  8
0
  6
Continuous
 62
     7
370
    15
100
AcDbLine
 10
86.7621450463
 20
118.7851784837
 30
0.0
 11
86.7621450463
 21
119.1328497327
 31
0.0
  0
LINE
  5
1FD
330
1F
100
AcDbEntity
  8
0
  6
Continuous
 62
     7
370
    15
100
AcDbLine
 10
86.7621450463
 20
118.7851784837
 30
0.0
 11
87.3544527386
 21
118.7851784837
 31
0.0
  0
LINE
  5
1FE
330
1F
100
AcDbEntity
  8
0
  6
Continuous
 62
     7
370
    15
100
AcDbLine
 10
86.3954783796
 20
118.7851784837
 30
0.0
 11
86.3954783796
 21
119.0681186254
 31
0.0
  0
SPLINE
  5
1FF
330
1F
100
AcDbEntity
  8
0
  6
Continuous
 62
     7
370
    15
100
AcDbSpline
210
0.0
220
0.0
230
1.0
 70
     8
 71
     3
 72
     9
 73
     5
 74
     0
 42
0.00000001
 43
0.00000001
 40
0.0
 40
0.0
 40
0.0
 40
0.0
 40
0.6274908100795854
 40
1.0
 40
1.0
 40
1.0
 40
1.0
 10
86.39547837962861
 20
119.0681186253902
 30
0.0
 10
86.39582124456723
 20
119.133201760144
 30
0.0
 10
86.39636765087803
 20
119.2369214221827
 30
0.0
 10
86.39026112824746
 20
119.3395545031998
 30
0.0
 10
86.38798639244912
 20
119.3777862690685
 30
0.0
  0
SPLINE
  5
200
330
1F
100
AcDbEntity
  8
0
  6
Continuous
 62
     7
370
    15
100
AcDbSpline
210
0.0
220
0.0
230
1.0
 70
     8
 71
     3
 72
    13
 73
     9
 74
     0
 42
0.00000001
 43
0.00000001
 40
0.0
 40
0.0
 40
0.0
 40
0.0
 40
0.1254736440094509
 40
0.2508527555183648
 40
0.5005248069551843
 40
0.7493584073820678
 40
0.8745744732971329
 40
0.9999999999999999
 40
0.9999999999999999
 40
0.9999999999999999
 40
0.9999999999999999
 10
86.38798639244912
 20
119.3777862690685
 30
0.0
 10
86.38553420300578
 20
119.3926872249923
 30
0.0
 10
86.38063167161145
 20
119.4224779103817
 30
0.0
 10
86.36261445151477
 20
119.4802789526744
 30
0.0
 10
86.3211050587624
 20
119.5466821302861
 30
0.0
 10
86.25207988915825
 20
119.5922528210578
 30
0.0
 10
86.18786243269003
 20
119.6083034458919
 30
0.0
 10
86.15470110502449
 20
119.6097277068934
 30
0.0
 10
86.13810658475681
 20
119.6104404325205
 30
0.0
  0
SPLINE
  5
201
330
1F
100
AcDbEntity
  8
0
  6
Continuous
 62
     7
370
    15
100
AcDbSpline
210
0.0
220
0.0
230
1.0
 70
     8
 71
     3
 72
    12
 73
     8
 74
     0
 42
0.00000001
 43
0.00000001
 40
0.0
 40
0.0
 40
0.0
 40
0.0
 40
0.1255301228073041
 40
0.2509151700980466
 40
0.4999346242724385
 40
0.7493320843796423
 40
1.0
 40
1.0
 40
1.0
 40
1.0
 10
86.13810658475681
 20
119.6104404325205
 30
0.0
 10
86.12240380706281
 20
119.6099972707916
 30
0.0
 10
86.09101639941919
 20
119.609111459497
 30
0.0
 10
86.03021870121025
 20
119.5948577168951
 30
0.0
 10
85.96172879479631
 20
119.5568272565059
 30
0.0
 10
85.91083811158447
 20
119.4824388050482
 30
0.0
 10
85.90047352062552
 20
119.426321804953
 30
0.0
 10
85.8952780591158
 20
119.3981920200739
 30
0.0
  0
SPLINE
  5
202
330
1F
100
AcDbEntity
  8
0
  6
Continuous
 62
     7
370
    15
100
AcDbSpline
210
0.0
220
0.0
230
1.0
 70
     8
 71
     3
 72
    10
 73
     6
 74
     0
 42
0.00000001
 43
0.00000001
 40
0.0
 40
0.0
 40
0.0
 40
0.0
 40
0.2115948014104284
 40
0.5448704765048851
 40
1.0
 40
1.0
 40
1.0
 40
1.0
 10
85.8952780591158
 20
119.3981920200739
 30
0.0
 10
85.89362895312813
 20
119.3726422702546
 30
0.0
 10
85.88938239716686
 20
119.3068499905494
 30
0.0
 10
85.88803924489731
 20
119.1853481173698
 30
0.0
 10
85.88787873238805
 20
119.0889248729193
 30
0.0
 10
85.88778607193632
 20
119.0332617882782
 30
0.0
  0
LINE
  5
203
330
1F
100
AcDbEntity
  8
0
  6
Continuous
 62
     7
370
    15
100
AcDbLine
 10
85.8877860719
 20
118.7851784837
 30
0.0
 11
85.8877860719
 21
119.0332617883
 31
0.0
  0
LINE
  5
204
330
1F
100
AcDbEntity
  8
0
  6
Continuous
 62
     7
370
    15
100
AcDbLine
 10
85.8877860719
 20
118.7851784837
 30
0.0
 11
86.3954783796
 21
118.7851784837
 31
0.0
  0
LINE
  5
205
330
1F
100
AcDbEntity
  8
0
  6
Continuous
 62
     7
370
    15
100
AcDbLine
 10
98.3591194053
 20
102.2531083542
 30
0.0
 11
98.3591194053
 21
125.8751083542
 31
0.0
  0
LINE
  5
206
330
1F
100
AcDbEntity
  8
0
  6
Continuous
 62
     7
370
    15
100
AcDbLine
 10
98.1051194053
 20
102.5071083542
 30
0.0
 11
98.1051194053
 21
125.6211083542
 31
0.0
  0
LINE
  5
207
330
1F
100
AcDbEntity
  8
0
  6
Continuous
 62
     7
370
    15
100
AcDbLine
 10
97.8511194053
 20
102.2531083542
 30
0.0
 11
97.8511194053
 21
125.8751083542
 31
0.0
  0
LINE
  5
208
330
1F
100
AcDbEntity
  8
0
  6
Continuous
 62
     7
370
    15
100
AcDbLine
 10
111.8211194053
 20
102.2531083542
 30
0.0
 11
111.8211194053
 21
125.8751083542
 31
0.0
  0
LINE
  5
209
330
1F
100
AcDbEntity
  8
0
  6
Continuous
 62
     7
370
    15
100
AcDbLine
 10
103.5021194053
 20
135.9362462064
 30
0.0
 11
103.5021194053
 21
137.1862462064
 31
0.0
  0
LINE
  5
20A
330
1F
100
AcDbEntity
  8
0
  6
Continuous
 62
     7
370
    15
100
AcDbLine
 10
103.5021194053
 20
134.6862462064
 30
0.0
 11
103.5021194053
 21
135.9362462064
 31
0.0
  0
LINE
  5
20B
330
1F
100
AcDbEntity
  8
0
  6
Continuous
 62
     7
370
    15
100
AcDbLine
 10
138.1611194053
 20
114.0641083542
 30
0.0
 11
139.7011194053
 21
114.0641083542
 31
0.0
  0
LINE
  5
20C
330
1F
100
AcDbEntity
  8
0
  6
Continuous
 62
     7
370
    15
100
AcDbLine
 10
138.1611194053
 20
117.8832803849
 30
0.0
 11
139.7011194053
 21
117.8832803849
 31
0.0
  0
LINE
  5
20D
330
1F
100
AcDbEntity
  8
0
  6
Continuous
 62
     7
370
    15
100
AcDbLine
 10
139.7011194053
 20
114.0641083542
 30
0.0
 11
139.7011194053
 21
117.8832803849
 31
0.0
  0
LINE
  5
20E
330
1F
100
AcDbEntity
  8
0
  6
Continuous
 62
     7
370
    15
100
AcDbLine
 10
138.1611194053
 20
110.2449363235
 30
0.0
 11
139.7011194053
 21
110.2449363235
 31
0.0
  0
LINE
  5
20F
330
1F
100
AcDbEntity
  8
0
  6
Continuous
 62
     7
370
    15
100
AcDbLine
 10
139.7011194053
 20
110.2449363235
 30
0.0
 11
139.7011194053
 21
114.0641083542
 31
0.0
  0
LINE
  5
210
330
1F
100
AcDbEntity
  8
0
  6
Continuous
 62
     7
370
    15
100
AcDbLine
 10
138.1611194053
 20
108.4891083542
 30
0.0
 11
138.1611194053
 21
119.6391083542
 31
0.0
  0
SPLINE
  5
211
330
1F
100
AcDbEntity
  8
0
  6
Continuous
 62
     7
370
    15
100
AcDbSpline
210
0.0
220
0.0
230
1.0
 70
     8
 71
     3
 72
    10
 73
     6
 74
     0
 42
0.00000001
 43
0.00000001
 40
0.0
 40
0.0
 40
0.0
 40
0.0
 40
0.4156632727061723
 40
0.8283888034933905
 40
1.0
 40
1.0
 40
1.0
 40
1.0
 10
145.6918363073051
 20
116.7439208709622
 30
0.0
 10
145.6843048954249
 20
116.8262893905259
 30
0.0
 10
145.6692953006741
 20
116.9904442818702
 30
0.0
 10
145.6510611661688
 20
117.0977228416676
 30
0.0
 10
145.641231918854
 20
117.0939203909553
 30
0.0
 10
145.6383452119028
 20
117.0928036664951
 30
0.0
  0
SPLINE
  5
212
330
1F
100
AcDbEntity
  8
0
  6
Continuous
 62
     7
370
    15
100
AcDbSpline
210
0.0
220
0.0
230
1.0
 70
     8
 71
     3
 72
    17
 73
    13
 74
     0
 42
0.00000001
 43
0.00000001
 40
0.0
 40
0.0
 40
0.0
 40
0.0
 40
0.0314326124415993
 40
0.136300003232543
 40
0.2446908207359077
 40
0.3552548963074882
 40
0.4658189718790671
 40
0.5742097893824311
 40
0.6790771801733738
 40
0.7862970770988905
 40
0.892769607767086
 40
1.0
 40
1.0
 40
1.0
 40
1.0
 10
145.2821295110141
 20
111.0337154812422
 30
0.0
 10
145.2800469983028
 20
111.0320249958492
 30
0.0
 10
145.2710166801958
 20
111.0246946104111
 30
0.0
 10
145.2564351505091
 20
111.1255761362484
 30
0.0
 10
145.234281948596
 20
111.3380182003737
 30
0.0
 10
145.2111248187946
 20
111.6703054853579
 30
0.0
 10
145.1879354206614
 20
112.0953020263466
 30
0.0
 10
145.1658761035814
 20
112.589518591514
 30
0.0
 10
145.1464438336796
 20
113.1333342903915
 30
0.0
 10
145.1254203861076
 20
113.7078314245758
 30
0.0
 10
145.1029954359277
 20
114.3019390369694
 30
0.0
 10
145.0879512646752
 20
114.6862350698253
 30
0.0
 10
145.0804025032343
 20
114.8790645069582
 30
0.0
  0
SPLINE
  5
213
330
1F
100
AcDbEntity
  8
0
  6
Continuous
 62
     7
370
    15
100
AcDbSpline
210
0.0
220
0.0
230
1.0
 70
     8
 71
     3
 72
    14
 73
    10
 74
     0
 42
0.00000001
 43
0.00000001
 40
0.0
 40
0.0
 40
0.0
 40
0.0
 40
0.0984794925600643
 40
0.290062080172006
 40
0.4564015861512177
 40
0.6226976827540943
 40
0.7850661391833057
 40
0.8922181553436704
 40
1.0
 40
1.0
 40
1.0
 40
1.0
 10
145.0804025032342
 20
114.8790645069582
 30
0.0
 10
145.1112032361998
 20
114.9378395917503
 30
0.0
 10
145.2019238973502
 20
115.1109560743185
 30
0.0
 10
145.2999703276726
 20
115.396928471726
 30
0.0
 10
145.3392437492754
 20
115.7350087012624
 30
0.0
 10
145.3062720859913
 20
116.0548844672182
 30
0.0
 10
145.2161813343145
 20
116.3280438366861
 30
0.0
 10
145.1071736978484
 20
116.556250877813
 30
0.0
 10
145.0303571369397
 20
116.6812421177895
 30
0.0
 10
144.9918363073066
 20
116.743920870962
 30
0.0
  0
SPLINE
  5
214
330
1F
100
AcDbEntity
  8
0
  6
Continuous
 62
     7
370
    15
100
AcDbSpline
210
0.0
220
0.0
230
1.0
 70
     8
 71
     3
 72
    10
 73
     6
 74
     0
 42
0.00000001
 43
0.00000001
 40
0.0
 40
0.0
 40
0.0
 40
0.0
 40
0.4118560980231687
 40
0.8208013617167553
 40
1.0
 40
1.0
 40
1.0
 40
1.0
 10
144.9918363073051
 20
116.7439208709622
 30
0.0
 10
144.9843043039501
 20
116.8263370230641
 30
0.0
 10
144.96929353043
 20
116.990586842837
 30
0.0
 10
144.950897990758
 20
117.0982812650438
 30
0.0
 10
144.9409161964799
 20
117.0941813095417
 30
0.0
 10
144.937874893261
 20
117.0929321145053
 30
0.0
  0
SPLINE
  5
215
330
1F
100
AcDbEntity
  8
0
  6
Continuous
 62
     7
370
    15
100
AcDbSpline
210
0.0
220
0.0
230
1.0
 70
     8
 71
     3
 72
    17
 73
    13
 74
     0
 42
0.00000001
 43
0.00000001
 40
0.0
 40
0.0
 40
0.0
 40
0.0
 40
0.0297720773987426
 40
0.1348192553469841
 40
0.2433959006544845
 40
0.3541495299156967
 40
0.464903159176906
 40
0.5734798044844064
 40
0.6785269824326476
 40
0.7859306997081179
 40
0.8925857694237251
 40
0.9999999999999999
 40
0.9999999999999999
 40
0.9999999999999999
 40
0.9999999999999999
 10
144.5817919650468
 20
111.0336232945754
 30
0.0
 10
144.5798234688401
 20
111.0320685646883
 30
0.0
 10
144.5709093716079
 20
111.0250281582414
 30
0.0
 10
144.5564372666771
 20
111.1257241888782
 30
0.0
 10
144.5342813608102
 20
111.337977077343
 30
0.0
 10
144.5111249777279
 20
111.6703166047477
 30
0.0
 10
144.487935378962
 20
112.0952991089458
 30
0.0
 10
144.4658761142522
 20
112.5895193380682
 30
0.0
 10
144.4464438307901
 20
113.1333340882412
 30
0.0
 10
144.4254203868791
 20
113.7078314785507
 30
0.0
 10
144.4029954357338
 20
114.3019390234032
 30
0.0
 10
144.3879512646104
 20
114.6862350652925
 30
0.0
 10
144.3804025032343
 20
114.8790645069582
 30
0.0
  0
SPLINE
  5
216
330
1F
100
AcDbEntity
  8
0
  6
Continuous
 62
     7
370
    15
100
AcDbSpline
210
0.0
220
0.0
230
1.0
 70
     8
 71
     3
 72
    14
 73
    10
 74
     0
 42
0.00000001
 43
0.00000001
 40
0.0
 40
0.0
 40
0.0
 40
0.0
 40
0.0984794925600637
 40
0.2900620801720026
 40
0.4564015861512167
 40
0.6226976827540962
 40
0.7850661391833061
 40
0.8922181553436679
 40
1.0
 40
1.0
 40
1.0
 40
1.0
 10
144.3804025032343
 20
114.8790645069582
 30
0.0
 10
144.4112032361998
 20
114.9378395917503
 30
0.0
 10
144.5019238973502
 20
115.1109560743185
 30
0.0
 10
144.5999703276726
 20
115.396928471726
 30
0.0
 10
144.6392437492754
 20
115.7350087012624
 30
0.0
 10
144.6062720859912
 20
116.0548844672182
 30
0.0
 10
144.5161813343145
 20
116.3280438366862
 30
0.0
 10
144.4071736978484
 20
116.556250877813
 30
0.0
 10
144.3303571369397
 20
116.6812421177895
 30
0.0
 10
144.2918363073066
 20
116.743920870962
 30
0.0
  0
SPLINE
  5
217
330
1F
100
AcDbEntity
  8
0
  6
Continuous
 62
     7
370
    15
100
AcDbSpline
210
0.0
220
0.0
230
1.0
 70
     8
 71
     3
 72
    10
 73
     6
 74
     0
 42
0.00000001
 43
0.00000001
 40
0.0
 40
0.0
 40
0.0
 40
0.0
 40
0.414430255003015
 40
0.8259314825635067
 40
1.0
 40
1.0
 40
1.0
 40
1.0
 10
144.2918363073051
 20
116.7439208709622
 30
0.0
 10
144.2843047028288
 20
116.8263049006385
 30
0.0
 10
144.269294724247
 20
116.9904907025888
 30
0.0
 10
144.2510086531046
 20
117.0979021065921
 30
0.0
 10
144.2411303087146
 20
117.0940038250189
 30
0.0
 10
144.2381938373934
 20
117.0928450081576
 30
0.0
  0
SPLINE
  5
218
330
1F
100
AcDbEntity
  8
0
  6
Continuous
 62
     7
370
    15
100
AcDbSpline
210
0.0
220
0.0
230
1.0
 70
     8
 71
     3
 72
    17
 73
    13
 74
     0
 42
0.00000001
 43
0.00000001
 40
0.0
 40
0.0
 40
0.0
 40
0.0
 40
0.0265382860536481
 40
0.1319355885931973
 40
0.2408741222855776
 40
0.3519968958678274
 40
0.463119669450077
 40
0.5720582031424571
 40
0.6774555056820063
 40
0.78521720194702
 40
0.8922277553931196
 40
1.0
 40
1.0
 40
1.0
 40
1.0
 10
143.8811379197311
 20
111.0334446692522
 30
0.0
 10
143.8793901886496
 20
111.0321418797019
 30
0.0
 10
143.8707013106841
 20
111.0256650369327
 30
0.0
 10
143.8564415425976
 20
111.1260233434134
 30
0.0
 10
143.8342801731325
 20
111.3378939843162
 30
0.0
 10
143.8111252988679
 20
111.6703390725409
 30
0.0
 10
143.7879352947043
 20
112.0952932140579
 30
0.0
 10
143.7658761358135
 20
112.5895208465526
 30
0.0
 10
143.7464438249518
 20
113.133333679777
 30
0.0
 10
143.7254203884379
 20
113.7078315876123
 30
0.0
 10
143.702995435342
 20
114.3019389959913
 30
0.0
 10
143.6879512644796
 20
114.6862350561337
 30
0.0
 10
143.6804025032342
 20
114.8790645069582
 30
0.0
  0
SPLINE
  5
219
330
1F
100
AcDbEntity
  8
0
  6
Continuous
 62
     7
370
    15
100
AcDbSpline
210
0.0
220
0.0
230
1.0
 70
     8
 71
     3
 72
    14
 73
    10
 74
     0
 42
0.00000001
 43
0.00000001
 40
0.0
 40
0.0
 40
0.0
 40
0.0
 40
0.0984794925600635
 40
0.290062080172006
 40
0.4564015861512205
 40
0.6226976827541002
 40
0.7850661391833104
 40
0.892218155343668
 40
1.0
 40
1.0
 40
1.0
 40
1.0
 10
143.6804025032342
 20
114.8790645069582
 30
0.0
 10
143.7112032361998
 20
114.9378395917503
 30
0.0
 10
143.8019238973502
 20
115.1109560743185
 30
0.0
 10
143.8999703276727
 20
115.396928471726
 30
0.0
 10
143.9392437492754
 20
115.7350087012624
 30
0.0
 10
143.9062720859912
 20
116.0548844672182
 30
0.0
 10
143.8161813343145
 20
116.3280438366862
 30
0.0
 10
143.7071736978484
 20
116.556250877813
 30
0.0
 10
143.6303571369397
 20
116.6812421177895
 30
0.0
 10
143.5918363073066
 20
116.743920870962
 30
0.0
  0
SPLINE
  5
21A
330
1F
100
AcDbEntity
  8
0
  6
Continuous
 62
     7
370
    15
100
AcDbSpline
210
0.0
220
0.0
230
1.0
 70
     8
 71
     3
 72
    10
 73
     6
 74
     0
 42
0.00000001
 43
0.00000001
 40
0.0
 40
0.0
 40
0.0
 40
0.0
 40
0.4158124034684702
 40
0.8286860110213375
 40
1.0
 40
1.0
 40
1.0
 40
1.0
 10
143.5918363073051
 20
116.7439208709622
 30
0.0
 10
143.5843049187868
 20
116.8262875091435
 30
0.0
 10
143.5692953705949
 20
116.9904386510199
 30
0.0
 10
143.551067496018
 20
117.0977012624906
 30
0.0
 10
143.5412441670846
 20
117.0939103688333
 30
0.0
 10
143.5383634594581
 20
117.092798682933
 30
0.0
  0
SPLINE
  5
21B
330
1F
100
AcDbEntity
  8
0
  6
Continuous
 62
     7
370
    15
100
AcDbSpline
210
0.0
220
0.0
230
1.0
 70
     8
 71
     3
 72
    17
 73
    13
 74
     0
 42
0.00000001
 43
0.00000001
 40
0.0
 40
0.0
 40
0.0
 40
0.0
 40
0.0278931524655407
 40
0.1331437627797362
 40
0.2419306755525192
 40
0.3528987881847114
 40
0.4638669008169038
 40
0.5726538135896868
 40
0.6779044239038824
 40
0.7855161371745305
 40
0.8923777530686907
 40
0.9999999999999999
 40
0.9999999999999999
 40
0.9999999999999999
 40
0.9999999999999999
 10
143.1814114164298
 20
111.0335193635204
 30
0.0
 10
143.1795713960847
 20
111.032113059085
 30
0.0
 10
143.1707883360617
 20
111.0254002766422
 30
0.0
 10
143.156439725539
 20
111.1258962172618
 30
0.0
 10
143.1342806778379
 20
111.3379292948179
 30
0.0
 10
143.111125162399
 20
111.6703295248197
 30
0.0
 10
143.0879353305097
 20
112.095295719099
 30
0.0
 10
143.0658761266509
 20
112.58952020552
 30
0.0
 10
143.0464438274329
 20
113.1333338533544
 30
0.0
 10
143.0254203877755
 20
113.7078315412664
 30
0.0
 10
143.0029954355085
 20
114.30193900764
 30
0.0
 10
142.9879512645352
 20
114.6862350600257
 30
0.0
 10
142.9804025032342
 20
114.8790645069582
 30
0.0
  0
SPLINE
  5
21C
330
1F
100
AcDbEntity
  8
0
  6
Continuous
 62
     7
370
    15
100
AcDbSpline
210
0.0
220
0.0
230
1.0
 70
     8
 71
     3
 72
    14
 73
    10
 74
     0
 42
0.00000001
 43
0.00000001
 40
0.0
 40
0.0
 40
0.0
 40
0.0
 40
0.0984794925600669
 40
0.2900620801720104
 40
0.4564015861512242
 40
0.6226976827541035
 40
0.7850661391833159
 40
0.8922181553436763
 40
1.0
 40
1.0
 40
1.0
 40
1.0
 10
142.9804025032342
 20
114.8790645069582
 30
0.0
 10
143.0112032361998
 20
114.9378395917503
 30
0.0
 10
143.1019238973502
 20
115.1109560743185
 30
0.0
 10
143.1999703276726
 20
115.396928471726
 30
0.0
 10
143.2392437492754
 20
115.7350087012624
 30
0.0
 10
143.2062720859913
 20
116.0548844672182
 30
0.0
 10
143.1161813343145
 20
116.3280438366862
 30
0.0
 10
143.0071736978484
 20
116.556250877813
 30
0.0
 10
142.9303571369396
 20
116.6812421177895
 30
0.0
 10
142.8918363073066
 20
116.743920870962
 30
0.0
  0
SPLINE
  5
21D
330
1F
100
AcDbEntity
  8
0
  6
Continuous
 62
     7
370
    15
100
AcDbSpline
210
0.0
220
0.0
230
1.0
 70
     8
 71
     3
 72
    10
 73
     6
 74
     0
 42
0.00000001
 43
0.00000001
 40
0.0
 40
0.0
 40
0.0
 40
0.0
 40
0.417435628867578
 40
0.8319209895110584
 40
1.0
 40
1.0
 40
1.0
 40
1.0
 10
142.8918363073051
 20
116.7439208709622
 30
0.0
 10
142.8843051740259
 20
116.8262669542768
 30
0.0
 10
142.8692961345082
 20
116.9903771316934
 30
0.0
 10
142.8511360959361
 20
117.0974678055585
 30
0.0
 10
142.8413769116981
 20
117.0938022421401
 30
0.0
 10
142.8385612331033
 20
117.092744669273
 30
0.0
  0
SPLINE
  5
21E
330
1F
100
AcDbEntity
  8
0
  6
Continuous
 62
     7
370
    15
100
AcDbSpline
210
0.0
220
0.0
230
1.0
 70
     8
 71
     3
 72
    17
 73
    13
 74
     0
 42
0.00000001
 43
0.00000001
 40
0.0
 40
0.0
 40
0.0
 40
0.0
 40
0.0297243268796761
 40
0.134776674806184
 40
0.2433586637974224
 40
0.3541177438843215
 40
0.4648768239712203
 40
0.5734588129624574
 40
0.6785111608889646
 40
0.785920164121614
 40
0.8925804829491273
 40
0.9999999999999999
 40
0.9999999999999999
 40
0.9999999999999999
 40
0.9999999999999999
 10
142.4817822756291
 20
111.0336206483133
 30
0.0
 10
142.4798170515193
 20
111.0320697592961
 30
0.0
 10
142.4709062905843
 20
111.0250376853462
 30
0.0
 10
142.4564373283087
 20
111.1257285007843
 30
0.0
 10
142.4342813436915
 20
111.33797587967
 30
0.0
 10
142.4111249823567
 20
111.6703169285904
 30
0.0
 10
142.3879353777475
 20
112.095299023979
 30
0.0
 10
142.3658761145629
 20
112.589519359811
 30
0.0
 10
142.346443830706
 20
113.1333340823537
 30
0.0
 10
142.3254203869015
 20
113.7078314801227
 30
0.0
 10
142.3029954357281
 20
114.3019390230081
 30
0.0
 10
142.2879512646086
 20
114.6862350651605
 30
0.0
 10
142.2804025032342
 20
114.8790645069582
 30
0.0
  0
SPLINE
  5
21F
330
1F
100
AcDbEntity
  8
0
  6
Continuous
 62
     7
370
    15
100
AcDbSpline
210
0.0
220
0.0
230
1.0
 70
     8
 71
     3
 72
    14
 73
    10
 74
     0
 42
0.00000001
 43
0.00000001
 40
0.0
 40
0.0
 40
0.0
 40
0.0
 40
0.0984794925600665
 40
0.2900620801720048
 40
0.4564015861512203
 40
0.6226976827541016
 40
0.7850661391833151
 40
0.892218155343665
 40
1.0
 40
1.0
 40
1.0
 40
1.0
 10
142.2804025032342
 20
114.8790645069582
 30
0.0
 10
142.3112032361998
 20
114.9378395917503
 30
0.0
 10
142.4019238973501
 20
115.1109560743185
 30
0.0
 10
142.4999703276727
 20
115.396928471726
 30
0.0
 10
142.5392437492754
 20
115.7350087012624
 30
0.0
 10
142.5062720859913
 20
116.0548844672183
 30
0.0
 10
142.4161813343145
 20
116.3280438366862
 30
0.0
 10
142.3071736978484
 20
116.556250877813
 30
0.0
 10
142.2303571369397
 20
116.6812421177895
 30
0.0
 10
142.1918363073066
 20
116.743920870962
 30
0.0
  0
SPLINE
  5
220
330
1F
100
AcDbEntity
  8
0
  6
Continuous
 62
     7
370
    15
100
AcDbSpline
210
0.0
220
0.0
230
1.0
 70
     8
 71
     3
 72
    10
 73
     6
 74
     0
 42
0.00000001
 43
0.00000001
 40
0.0
 40
0.0
 40
0.0
 40
0.0
 40
0.4189583849310435
 40
0.8349557394066153
 40
1.0
 40
1.0
 40
1.0
 40
1.0
 10
142.1918363073051
 20
116.7439208709622
 30
0.0
 10
142.1843054150664
 20
116.8262475428492
 30
0.0
 10
142.1692968559261
 20
116.9903190346027
 30
0.0
 10
142.1511999577949
 20
117.0972511547454
 30
0.0
 10
142.1415004947048
 20
117.0937023994767
 30
0.0
 10
142.1387453723997
 20
117.0926943792693
 30
0.0
  0
SPLINE
  5
221
330
1F
100
AcDbEntity
  8
0
  6
Continuous
 62
     7
370
    15
100
AcDbSpline
210
0.0
220
0.0
230
1.0
 70
     8
 71
     3
 72
    17
 73
    13
 74
     0
 42
0.00000001
 43
0.00000001
 40
0.0
 40
0.0
 40
0.0
 40
0.0
 40
0.0305086286183184
 40
0.1354760597099423
 40
0.2439702787558858
 40
0.3546398290921285
 40
0.4653093794283708
 40
0.5738035984743132
 40
0.6787710295659357
 40
0.7860932110114226
 40
0.8926673132349151
 40
1.0
 40
1.0
 40
1.0
 40
1.0
 10
141.7819415451145
 20
111.0336641461607
 30
0.0
 10
141.7799225303027
 20
111.0320497229293
 30
0.0
 10
141.7709569299601
 20
111.0248807445782
 30
0.0
 10
141.7564363215642
 20
111.1256580663164
 30
0.0
 10
141.7342816233243
 20
111.3379954435156
 30
0.0
 10
141.7111249067458
 20
111.6703116386587
 30
0.0
 10
141.6879353975856
 20
112.0953004119015
 30
0.0
 10
141.6658761094864
 20
112.5895190046457
 30
0.0
 10
141.6464438320806
 20
113.1333341785246
 30
0.0
 10
141.6254203865345
 20
113.7078314544447
 30
0.0
 10
141.6029954358204
 20
114.301939029462
 30
0.0
 10
141.5879512646393
 20
114.6862350673169
 30
0.0
 10
141.5804025032342
 20
114.8790645069582
 30
0.0
  0
SPLINE
  5
222
330
1F
100
AcDbEntity
  8
0
  6
Continuous
 62
     7
370
    15
100
AcDbSpline
210
0.0
220
0.0
230
1.0
 70
     8
 71
     3
 72
    14
 73
    10
 74
     0
 42
0.00000001
 43
0.00000001
 40
0.0
 40
0.0
 40
0.0
 40
0.0
 40
0.0984794925600664
 40
0.2900620801720097
 40
0.4564015861512256
 40
0.6226976827541064
 40
0.7850661391833131
 40
0.8922181553436697
 40
1.0
 40
1.0
 40
1.0
 40
1.0
 10
141.5804025032343
 20
114.8790645069582
 30
0.0
 10
141.6112032361998
 20
114.9378395917503
 30
0.0
 10
141.7019238973502
 20
115.1109560743185
 30
0.0
 10
141.7999703276726
 20
115.396928471726
 30
0.0
 10
141.8392437492755
 20
115.7350087012624
 30
0.0
 10
141.8062720859913
 20
116.0548844672182
 30
0.0
 10
141.7161813343145
 20
116.3280438366862
 30
0.0
 10
141.6071736978485
 20
116.556250877813
 30
0.0
 10
141.5303571369397
 20
116.6812421177895
 30
0.0
 10
141.4918363073066
 20
116.743920870962
 30
0.0
  0
SPLINE
  5
223
330
1F
100
AcDbEntity
  8
0
  6
Continuous
 62
     7
370
    15
100
AcDbSpline
210
0.0
220
0.0
230
1.0
 70
     8
 71
     3
 72
    10
 73
     6
 74
     0
 42
0.00000001
 43
0.00000001
 40
0.0
 40
0.0
 40
0.0
 40
0.0
 40
0.4182095576847661
 40
0.8334633773258182
 40
1.0
 40
1.0
 40
1.0
 40
1.0
 10
141.4918363073051
 20
116.7439208709622
 30
0.0
 10
141.4843052963384
 20
116.8262571042321
 30
0.0
 10
141.4692965005812
 20
116.9903476511754
 30
0.0
 10
141.4511686124178
 20
117.0973574106213
 30
0.0
 10
141.4414398355114
 20
117.0937513059457
 30
0.0
 10
141.4386549880287
 20
117.0927190640077
 30
0.0
  0
SPLINE
  5
224
330
1F
100
AcDbEntity
  8
0
  6
Continuous
 62
     7
370
    15
100
AcDbSpline
210
0.0
220
0.0
230
1.0
 70
     8
 71
     3
 72
    17
 73
    13
 74
     0
 42
0.00000001
 43
0.00000001
 40
0.0
 40
0.0
 40
0.0
 40
0.0
 40
0.0318312940406916
 40
0.1366555193280357
 40
0.2450017210152932
 40
0.3555202862145294
 40
0.4660388514137591
 40
0.5743850531010154
 40
0.6792092783883588
 40
0.7863850414719661
 40
0.8928137459290705
 40
1.0
 40
1.0
 40
1.0
 40
1.0
 10
141.082210725556
 20
111.0337376616224
 30
0.0
 10
141.080100772186
 20
111.0320139564421
 30
0.0
 10
141.0710424922064
 20
111.0246138857358
 30
0.0
 10
141.0564346501503
 20
111.1255411298398
 30
0.0
 10
141.0342820875755
 20
111.3380279237378
 30
0.0
 10
141.0111247812154
 20
111.670302856226
 30
0.0
 10
140.9879354305211
 20
112.0953027161534
 30
0.0
 10
140.9658761010583
 20
112.5895184149944
 30
0.0
 10
140.9464438343627
 20
113.1333343381891
 30
0.0
 10
140.9254203859252
 20
113.7078314118136
 30
0.0
 10
140.9029954359735
 20
114.301939040177
 30
0.0
 10
140.8879512646905
 20
114.686235070897
 30
0.0
 10
140.8804025032343
 20
114.8790645069582
 30
0.0
  0
SPLINE
  5
225
330
1F
100
AcDbEntity
  8
0
  6
Continuous
 62
     7
370
    15
100
AcDbSpline
210
0.0
220
0.0
230
1.0
 70
     8
 71
     3
 72
    14
 73
    10
 74
     0
 42
0.00000001
 43
0.00000001
 40
0.0
 40
0.0
 40
0.0
 40
0.0
 40
0.0984794925600667
 40
0.290062080172008
 40
0.4564015861512195
 40
0.622697682754096
 40
0.785066139183312
 40
0.892218155343669
 40
1.0
 40
1.0
 40
1.0
 40
1.0
 10
140.8804025032343
 20
114.8790645069582
 30
0.0
 10
140.9112032361998
 20
114.9378395917503
 30
0.0
 10
141.0019238973502
 20
115.1109560743185
 30
0.0
 10
141.0999703276726
 20
115.396928471726
 30
0.0
 10
141.1392437492754
 20
115.7350087012624
 30
0.0
 10
141.1062720859912
 20
116.0548844672182
 30
0.0
 10
141.0161813343145
 20
116.3280438366862
 30
0.0
 10
140.9071736978484
 20
116.556250877813
 30
0.0
 10
140.8303571369397
 20
116.6812421177895
 30
0.0
 10
140.7918363073066
 20
116.743920870962
 30
0.0
  0
SPLINE
  5
226
330
1F
100
AcDbEntity
  8
0
  6
Continuous
 62
     7
370
    15
100
AcDbSpline
210
0.0
220
0.0
230
1.0
 70
     8
 71
     3
 72
    10
 73
     6
 74
     0
 42
0.00000001
 43
0.00000001
 40
0.0
 40
0.0
 40
0.0
 40
0.0
 40
0.4156632727061774
 40
0.8283888034934016
 40
1.0
 40
1.0
 40
1.0
 40
1.0
 10
140.7918363073051
 20
116.7439208709622
 30
0.0
 10
140.7843048954248
 20
116.8262893905259
 30
0.0
 10
140.7692953006741
 20
116.9904442818702
 30
0.0
 10
140.7510611661689
 20
117.0977228416676
 30
0.0
 10
140.741231918854
 20
117.0939203909553
 30
0.0
 10
140.7383452119029
 20
117.0928036664951
 30
0.0
  0
SPLINE
  5
227
330
1F
100
AcDbEntity
  8
0
  6
Continuous
 62
     7
370
    15
100
AcDbSpline
210
0.0
220
0.0
230
1.0
 70
     8
 71
     3
 72
    17
 73
    13
 74
     0
 42
0.00000001
 43
0.00000001
 40
0.0
 40
0.0
 40
0.0
 40
0.0
 40
0.0314326124416292
 40
0.1363000032325682
 40
0.2446908207359282
 40
0.3552548963075084
 40
0.4658189718790823
 40
0.5742097893824409
 40
0.6790771801733791
 40
0.7862970770988922
 40
0.8927696077670878
 40
0.9999999999999999
 40
0.9999999999999999
 40
0.9999999999999999
 40
0.9999999999999999
 10
140.3821295110141
 20
111.0337154812422
 30
0.0
 10
140.3800469983028
 20
111.0320249958492
 30
0.0
 10
140.3710166801957
 20
111.0246946104111
 30
0.0
 10
140.3564351505091
 20
111.1255761362484
 30
0.0
 10
140.3342819485961
 20
111.3380182003737
 30
0.0
 10
140.3111248187946
 20
111.6703054853579
 30
0.0
 10
140.2879354206614
 20
112.0953020263466
 30
0.0
 10
140.2658761035814
 20
112.589518591514
 30
0.0
 10
140.2464438336796
 20
113.1333342903915
 30
0.0
 10
140.2254203861076
 20
113.7078314245758
 30
0.0
 10
140.2029954359277
 20
114.3019390369694
 30
0.0
 10
140.1879512646752
 20
114.6862350698253
 30
0.0
 10
140.1804025032342
 20
114.8790645069582
 30
0.0
  0
SPLINE
  5
228
330
1F
100
AcDbEntity
  8
0
  6
Continuous
 62
     7
370
    15
100
AcDbSpline
210
0.0
220
0.0
230
1.0
 70
     8
 71
     3
 72
    14
 73
    10
 74
     0
 42
0.00000001
 43
0.00000001
 40
0.0
 40
0.0
 40
0.0
 40
0.0
 40
0.0984794925600635
 40
0.290062080172003
 40
0.4564015861512162
 40
0.6226976827540944
 40
0.7850661391833231
 40
0.8922181553436789
 40
1.0
 40
1.0
 40
1.0
 40
1.0
 10
140.1804025032342
 20
114.8790645069582
 30
0.0
 10
140.2112032361998
 20
114.9378395917503
 30
0.0
 10
140.3019238973502
 20
115.1109560743185
 30
0.0
 10
140.3999703276726
 20
115.396928471726
 30
0.0
 10
140.4392437492755
 20
115.7350087012624
 30
0.0
 10
140.4062720859912
 20
116.0548844672182
 30
0.0
 10
140.3161813343145
 20
116.3280438366861
 30
0.0
 10
140.2071736978484
 20
116.556250877813
 30
0.0
 10
140.1303571369397
 20
116.6812421177895
 30
0.0
 10
140.0918363073066
 20
116.743920870962
 30
0.0
  0
SPLINE
  5
229
330
1F
100
AcDbEntity
  8
0
  6
Continuous
 62
     7
370
    15
100
AcDbSpline
210
0.0
220
0.0
230
1.0
 70
     8
 71
     3
 72
    10
 73
     6
 74
     0
 42
0.00000001
 43
0.00000001
 40
0.0
 40
0.0
 40
0.0
 40
0.0
 40
0.4118560980231673
 40
0.8208013617167532
 40
1.0
 40
1.0
 40
1.0
 40
1.0
 10
140.0918363073051
 20
116.7439208709622
 30
0.0
 10
140.0843043039501
 20
116.8263370230641
 30
0.0
 10
140.06929353043
 20
116.990586842837
 30
0.0
 10
140.050897990758
 20
117.0982812650438
 30
0.0
 10
140.0409161964799
 20
117.0941813095417
 30
0.0
 10
140.037874893261
 20
117.0929321145054
 30
0.0
  0
SPLINE
  5
22A
330
1F
100
AcDbEntity
  8
0
  6
Continuous
 62
     7
370
    15
100
AcDbSpline
210
0.0
220
0.0
230
1.0
 70
     8
 71
     3
 72
    12
 73
     8
 74
     0
 42
0.00000001
 43
0.00000001
 40
0.0
 40
0.0
 40
0.0
 40
0.0
 40
0.2211778521099437
 40
0.4496703796859479
 40
0.6812258587863367
 40
0.9112396805931076
 40
1.0
 40
1.0
 40
1.0
 40
1.0
 10
146.0861194052697
 20
115.7802893972678
 30
0.0
 10
146.0794556261212
 20
115.9114330575854
 30
0.0
 10
146.0659076868891
 20
116.1780574911165
 30
0.0
 10
146.0433038518592
 20
116.4855931102775
 30
0.0
 10
146.0200488802603
 20
116.6992977337557
 30
0.0
 10
146.0014209875429
 20
116.8049986203009
 30
0.0
 10
145.9914698684579
 20
116.8014624460896
 30
0.0
 10
145.9886990524027
 20
116.8004778243406
 30
0.0
  0
SPLINE
  5
22B
330
1F
100
AcDbEntity
  8
0
  6
Continuous
 62
     7
370
    15
100
AcDbSpline
210
0.0
220
0.0
230
1.0
 70
     8
 71
     3
 72
    24
 73
    20
 74
     0
 42
0.00000001
 43
0.00000001
 40
0.0
 40
0.0
 40
0.0
 40
0.0
 40
0.0177464779459657
 40
0.0793525422792588
 40
0.1430297378213681
 40
0.2079844926191506
 40
0.2729392474169332
 40
0.3366164429590423
 40
0.3982225072923355
 40
0.4612113985014432
 40
0.5258778471596042
 40
0.5909777197809123
 40
0.655216469379533
 40
0.7173987595803598
 40
0.7795810497811867
 40
0.8438197993798074
 40
0.9089196720011153
 40
0.9735861206592764
 40
1.0
 40
1.0
 40
1.0
 40
1.0
 10
145.6318880109335
 20
111.3260582168439
 30
0.0
 10
145.6298870817431
 20
111.3246189188317
 30
0.0
 10
145.6209400208864
 20
111.3181831653985
 30
0.0
 10
145.6064363944742
 20
111.4092118581617
 30
0.0
 10
145.584281399978
 20
111.6010331558849
 30
0.0
 10
145.5611249096774
 20
111.90129225497
 30
0.0
 10
145.5379356094568
 20
112.2852613906906
 30
0.0
 10
145.5158760737537
 20
112.7318192676498
 30
0.0
 10
145.4964446845877
 20
113.2230655404786
 30
0.0
 10
145.4751786085464
 20
113.7484019122974
 30
0.0
 10
145.4522495914343
 20
114.2958742385533
 30
0.0
 10
145.4289191487227
 20
114.8377404325268
 30
0.0
 10
145.4063351761021
 20
115.3422761004513
 30
0.0
 10
145.3861183703626
 20
115.7909100003809
 30
0.0
 10
145.3659078425172
 20
116.1751178038361
 30
0.0
 10
145.3433043232066
 20
116.4863653686618
 30
0.0
 10
145.3200468139742
 20
116.6992357662401
 30
0.0
 10
145.3012510477833
 20
116.8055675307694
 30
0.0
 10
145.291141000822
 20
116.8017157759357
 30
0.0
 10
145.2882090223538
 20
116.8005987423275
 30
0.0
  0
SPLINE
  5
22C
330
1F
100
AcDbEntity
  8
0
  6
Continuous
 62
     7
370
    15
100
AcDbSpline
210
0.0
220
0.0
230
1.0
 70
     8
 71
     3
 72
    24
 73
    20
 74
     0
 42
0.00000001
 43
0.00000001
 40
0.0
 40
0.0
 40
0.0
 40
0.0
 40
0.0174774001759891
 40
0.0791580768469664
 40
0.1429123931152246
 40
0.2079458159167445
 40
0.2729792387182634
 40
0.3367335549865215
 40
0.3984142316574987
 40
0.4614794099736002
 40
0.5262241774621605
 40
0.591402893842306
 40
0.6557194442764347
 40
0.717977044693629
 40
0.7802346451108222
 40
0.8445511955449503
 40
0.9097299119250951
 40
0.9744746794136557
 40
1.0
 40
1.0
 40
1.0
 40
1.0
 10
144.9317905800813
 20
111.3260341751702
 30
0.0
 10
144.9298225554256
 20
111.3246299274503
 30
0.0
 10
144.9209090416667
 20
111.318269853995
 30
0.0
 10
144.9064370113391
 20
111.4092508629293
 30
0.0
 10
144.8842812286343
 20
111.6010223216869
 30
0.0
 10
144.8611249560072
 20
111.9012951845279
 30
0.0
 10
144.8379355973037
 20
112.2852606218967
 30
0.0
 10
144.8158760768551
 20
112.7318194650043
 30
0.0
 10
144.7964446837784
 20
113.2230654847663
 30
0.0
 10
144.7751786086556
 20
113.7484019367915
 30
0.0
 10
144.752249591852
 20
114.2958741972359
 30
0.0
 10
144.7289191469404
 20
114.8377405728225
 30
0.0
 10
144.7063351826227
 20
115.3422755952952
 30
0.0
 10
144.6861183468692
 20
115.7909118184217
 30
0.0
 10
144.6659079315244
 20
116.1751109165782
 30
0.0
 10
144.643303976787
 20
116.4863921739931
 30
0.0
 10
144.6200481210179
 20
116.6991346295596
 30
0.0
 10
144.6013580977788
 20
116.8052201934758
 30
0.0
 10
144.5913481609661
 20
116.8015580941429
 30
0.0
 10
144.5885176901907
 20
116.8005225766035
 30
0.0
  0
SPLINE
  5
22D
330
1F
100
AcDbEntity
  8
0
  6
Continuous
 62
     7
370
    15
100
AcDbSpline
210
0.0
220
0.0
230
1.0
 70
     8
 71
     3
 72
    24
 73
    20
 74
     0
 42
0.00000001
 43
0.00000001
 40
0.0
 40
0.0
 40
0.0
 40
0.0
 40
0.0164572285924381
 40
0.0782316134479063
 40
0.1420827882714433
 40
0.2072150129070371
 40
0.2723472375426294
 40
0.3361984123661661
 40
0.3979727972216344
 40
0.4611337871222306
 40
0.525976917906139
 40
0.5912546568571948
 40
0.6556689200191858
 40
0.7180211051105567
 40
0.7803732902019257
 40
0.8447875533639161
 40
0.9100652923149711
 40
0.9749084230988798
 40
1.0
 40
1.0
 40
1.0
 40
1.0
 10
144.2314401371396
 20
111.3259477011772
 30
0.0
 10
144.22959042645
 20
111.324667102094
 30
0.0
 10
144.2207975819657
 20
111.3185796049253
 30
0.0
 10
144.2064392724505
 20
111.4093938344492
 30
0.0
 10
144.1842806005752
 20
111.6009826091005
 30
0.0
 10
144.1611251258307
 20
111.9013059226265
 30
0.0
 10
144.137935552749
 20
112.285257804492
 30
0.0
 10
144.1158760882513
 20
112.7318201862427
 30
0.0
 10
144.0964446807105
 20
113.2230652884102
 30
0.0
 10
144.0751786094493
 20
113.7484019961458
 30
0.0
 10
144.0522495918686
 20
114.2958741629748
 30
0.0
 10
144.0289191460646
 20
114.8377406493332
 30
0.0
 10
144.0063351860082
 20
115.3422753310804
 30
0.0
 10
143.9861183346252
 20
115.7909127664334
 30
0.0
 10
143.9659079779246
 20
116.175107326042
 30
0.0
 10
143.9433037961915
 20
116.4864061481949
 30
0.0
 10
143.9200488024072
 20
116.6990819048715
 30
0.0
 10
143.9014129547719
 20
116.8050428706198
 30
0.0
 10
143.8914543254577
 20
116.8014781019075
 30
0.0
 10
143.8886758907499
 20
116.8004835396236
 30
0.0
  0
SPLINE
  5
22E
330
1F
100
AcDbEntity
  8
0
  6
Continuous
 62
     7
370
    15
100
AcDbSpline
210
0.0
220
0.0
230
1.0
 70
     8
 71
     3
 72
    24
 73
    20
 74
     0
 42
0.00000001
 43
0.00000001
 40
0.0
 40
0.0
 40
0.0
 40
0.0
 40
0.0145487419630133
 40
0.0764825048031608
 40
0.1404984157319068
 40
0.2057986815827111
 40
0.2710989474335154
 40
0.3351148583622613
 40
0.3970486212024087
 40
0.4603725665303129
 40
0.5253829926669601
 40
0.5908291482603308
 40
0.6554096002960981
 40
0.7179226540974263
 40
0.7804357078987542
 40
0.8450161599345211
 40
0.9104623155278917
 40
0.9754727416645407
 40
1.0
 40
1.0
 40
1.0
 40
1.0
 10
143.5307886416951
 20
111.3257869405915
 30
0.0
 10
143.5291587171509
 20
111.3247256556974
 30
0.0
 10
143.5205902297793
 20
111.3191464979106
 30
0.0
 10
143.5064436606091
 20
111.4096713005271
 30
0.0
 10
143.4842793816956
 20
111.6009055385409
 30
0.0
 10
143.4611254554089
 20
111.9013267621325
 30
0.0
 10
143.4379354662804
 20
112.2852523367891
 30
0.0
 10
143.4158761103707
 20
112.7318215857432
 30
0.0
 10
143.3964446747464
 20
113.2230649081148
 30
0.0
 10
143.3751786110284
 20
113.7484021083345
 30
0.0
 10
143.3522495917514
 20
114.2958741080403
 30
0.0
 10
143.3289191449227
 20
114.8377407546511
 30
0.0
 10
143.3063351905555
 20
115.3422749748587
 30
0.0
 10
143.2861183181478
 20
115.7909140425723
 30
0.0
 10
143.2659080403766
 20
116.1751024933004
 30
0.0
 10
143.2433035531184
 20
116.4864249568435
 30
0.0
 10
143.2200497195261
 20
116.6990109398491
 30
0.0
 10
143.201485786552
 20
116.8048081619588
 30
0.0
 10
143.1915952837535
 20
116.8013727694273
 30
0.0
 10
143.1888859561823
 20
116.8004317046611
 30
0.0
  0
SPLINE
  5
22F
330
1F
100
AcDbEntity
  8
0
  6
Continuous
 62
     7
370
    15
100
AcDbSpline
210
0.0
220
0.0
230
1.0
 70
     8
 71
     3
 72
    24
 73
    20
 74
     0
 42
0.00000001
 43
0.00000001
 40
0.0
 40
0.0
 40
0.0
 40
0.0
 40
0.0154371044030826
 40
0.0773516250752014
 40
0.1413476469344299
 40
0.2066276246801649
 40
0.2719076024259001
 40
0.3359036242851284
 40
0.3978181449572472
 40
0.4611224162020608
 40
0.5261126442837869
 40
0.5915384664456818
 40
0.6560988540149535
 40
0.7185924856686506
 40
0.7810861173223476
 40
0.8456465048916191
 40
0.9110723270535138
 40
0.9760625551352412
 40
1.0
 40
1.0
 40
1.0
 40
1.0
 10
142.8310869019401
 20
111.325860538177
 30
0.0
 10
142.8293563851655
 20
111.3247006050418
 30
0.0
 10
142.8206851809525
 20
111.3188884584989
 30
0.0
 10
142.8064416209685
 20
111.4095423327566
 30
0.0
 10
142.7842799482378
 20
111.6009413613516
 30
0.0
 10
142.7611253022185
 20
111.9013170758653
 30
0.0
 10
142.737935506474
 20
112.2852548780195
 30
0.0
 10
142.7158761000807
 20
112.7318209359254
 30
0.0
 10
142.6964446775504
 20
113.2230650824156
 30
0.0
 10
142.6751786101711
 20
113.7484020657265
 30
0.0
 10
142.6522495922806
 20
114.2958740968414
 30
0.0
 10
142.6289191436802
 20
114.8377408429104
 30
0.0
 10
142.6063351948725
 20
115.3422746428472
 30
0.0
 10
142.5861183026515
 20
115.7909152411156
 30
0.0
 10
142.56590809907
 20
116.1750979518635
 30
0.0
 10
142.5433033246859
 20
116.4864426324875
 30
0.0
 10
142.520050581402
 20
116.698944249458
 30
0.0
 10
142.5015532036018
 20
116.8045916473786
 30
0.0
 10
142.4917257699651
 20
116.8012761719728
 30
0.0
 10
142.4890804331083
 20
116.8003837162603
 30
0.0
  0
SPLINE
  5
230
330
1F
100
AcDbEntity
  8
0
  6
Continuous
 62
     7
370
    15
100
AcDbSpline
210
0.0
220
0.0
230
1.0
 70
     8
 71
     3
 72
    24
 73
    20
 74
     0
 42
0.00000001
 43
0.00000001
 40
0.0
 40
0.0
 40
0.0
 40
0.0
 40
0.0165141107158246
 40
0.0783463061408754
 40
0.1422572350646547
 40
0.2074504126504568
 40
0.2726435902362588
 40
0.3365545191600375
 40
0.3983867145850878
 40
0.4616068126874122
 40
0.5265106258776756
 40
0.5918494539561853
 40
0.6563239981756297
 40
0.7187345345616883
 40
0.7811450709477444
 40
0.8456196151671882
 40
0.9109584432456972
 40
0.975862256435962
 40
1.0
 40
1.0
 40
1.0
 40
1.0
 10
142.1314540119458
 20
111.3259511248726
 30
0.0
 10
142.1295996181068
 20
111.3246657036482
 30
0.0
 10
142.1208019958845
 20
111.3185674034427
 30
0.0
 10
142.1064391816448
 20
111.4093880927544
 30
0.0
 10
142.0842806257981
 20
111.6009842039324
 30
0.0
 10
142.0611251190099
 20
111.901305491445
 30
0.0
 10
142.0379355545411
 20
112.2852579174247
 30
0.0
 10
142.0158760877837
 20
112.7318201580465
 30
0.0
 10
141.9964446808698
 20
113.2230652935032
 30
0.0
 10
141.9751786092776
 20
113.7484020045781
 30
0.0
 10
141.9522495924062
 20
114.295874122696
 30
0.0
 10
141.9289191440889
 20
114.837740801858
 30
0.0
 10
141.9063351931645
 20
115.3422747774314
 30
0.0
 10
141.8861183088591
 20
115.7909147601421
 30
0.0
 10
141.865908075537
 20
116.1750997729863
 30
0.0
 10
141.8433034162818
 20
116.4864355449141
 30
0.0
 10
141.8200502358088
 20
116.6989709908442
 30
0.0
 10
141.8015262890005
 20
116.8046779986063
 30
0.0
 10
141.7916736756677
 20
116.8013146306158
 30
0.0
 10
141.7890027895922
 20
116.8004028752846
 30
0.0
  0
SPLINE
  5
231
330
1F
100
AcDbEntity
  8
0
  6
Continuous
 62
     7
370
    15
100
AcDbSpline
210
0.0
220
0.0
230
1.0
 70
     8
 71
     3
 72
    24
 73
    20
 74
     0
 42
0.00000001
 43
0.00000001
 40
0.0
 40
0.0
 40
0.0
 40
0.0
 40
0.0169825017348493
 40
0.0787282383018799
 40
0.142549801711597
 40
0.2076518208378618
 40
0.2727538399641264
 40
0.3365754033738428
 40
0.3983211399408729
 40
0.4614528385055734
 40
0.5262658978493822
 40
0.5915133638078637
 40
0.6558977544200125
 40
0.7182210232641802
 40
0.7805442921083471
 40
0.844928682720495
 40
0.9101761486789754
 40
0.9749892080227848
 40
1.0
 40
1.0
 40
1.0
 40
1.0
 10
141.4316186364708
 20
111.3259917470063
 30
0.0
 10
141.4297086697253
 20
111.3246486459837
 30
0.0
 10
141.4208543607762
 20
111.318422238413
 30
0.0
 10
141.4064381123701
 20
111.4093204818256
 30
0.0
 10
141.3842809228057
 20
111.6010029839401
 30
0.0
 10
141.3611250387013
 20
111.9013004133812
 30
0.0
 10
141.337935575609
 20
112.2852592499171
 30
0.0
 10
141.3158760824014
 20
112.7318198164426
 30
0.0
 10
141.2964446822956
 20
113.2230653882919
 30
0.0
 10
141.275178608999
 20
113.7484019690257
 30
0.0
 10
141.2522495920259
 20
114.2958741677202
 30
0.0
 10
141.2289191458945
 20
114.8377406580136
 30
0.0
 10
141.2063351865177
 20
115.3422752928065
 30
0.0
 10
141.1861183328179
 20
115.7909129059787
 30
0.0
 10
141.1659079847641
 20
116.1751067969048
 30
0.0
 10
141.1433037695744
 20
116.4864082077495
 30
0.0
 10
141.1200489028328
 20
116.6990741341208
 30
0.0
 10
141.1014209856926
 20
116.805016949677
 30
0.0
 10
141.0914698680548
 20
116.8014664381968
 30
0.0
 10
141.0886990524027
 20
116.8004778243405
 30
0.0
  0
SPLINE
  5
232
330
1F
100
AcDbEntity
  8
0
  6
Continuous
 62
     7
370
    15
100
AcDbSpline
210
0.0
220
0.0
230
1.0
 70
     8
 71
     3
 72
    24
 73
    20
 74
     0
 42
0.00000001
 43
0.00000001
 40
0.0
 40
0.0
 40
0.0
 40
0.0
 40
0.017746477945949
 40
0.0793525422792432
 40
0.1430297378213534
 40
0.2079844926191401
 40
0.2729392474169232
 40
0.3366164429590328
 40
0.3982225072923267
 40
0.4612113985014356
 40
0.5258778471595981
 40
0.5909777197809081
 40
0.6552164693795308
 40
0.7173987595803593
 40
0.7795810497811868
 40
0.843819799379809
 40
0.9089196720011183
 40
0.9735861206592805
 40
1.0
 40
1.0
 40
1.0
 40
1.0
 10
140.7318880109335
 20
111.3260582168439
 30
0.0
 10
140.7298870817431
 20
111.3246189188317
 30
0.0
 10
140.7209400208864
 20
111.3181831653985
 30
0.0
 10
140.7064363944742
 20
111.4092118581616
 30
0.0
 10
140.684281399978
 20
111.6010331558849
 30
0.0
 10
140.6611249096774
 20
111.9012922549699
 30
0.0
 10
140.6379356094568
 20
112.2852613906906
 30
0.0
 10
140.6158760737538
 20
112.7318192676498
 30
0.0
 10
140.5964446845877
 20
113.2230655404785
 30
0.0
 10
140.5751786085463
 20
113.7484019122974
 30
0.0
 10
140.5522495914343
 20
114.2958742385532
 30
0.0
 10
140.5289191487227
 20
114.8377404325268
 30
0.0
 10
140.5063351761022
 20
115.3422761004513
 30
0.0
 10
140.4861183703626
 20
115.7909100003809
 30
0.0
 10
140.4659078425172
 20
116.1751178038361
 30
0.0
 10
140.4433043232066
 20
116.4863653686618
 30
0.0
 10
140.4200468139742
 20
116.6992357662401
 30
0.0
 10
140.4012510477833
 20
116.8055675307693
 30
0.0
 10
140.391141000822
 20
116.8017157759357
 30
0.0
 10
140.3882090223539
 20
116.8005987423275
 30
0.0
  0
SPLINE
  5
233
330
1F
100
AcDbEntity
  8
0
  6
Continuous
 62
     7
370
    15
100
AcDbSpline
210
0.0
220
0.0
230
1.0
 70
     8
 71
     3
 72
    23
 73
    19
 74
     0
 42
0.00000001
 43
0.00000001
 40
0.0
 40
0.0
 40
0.0
 40
0.0
 40
0.0181480445319768
 40
0.0821955376210598
 40
0.1483962401907156
 40
0.215925131283439
 40
0.2834540223761585
 40
0.3496547249458137
 40
0.4137022180348963
 40
0.4791873389895249
 40
0.5464164984619123
 40
0.6140962583513973
 40
0.6808807691864053
 40
0.7455273237910713
 40
0.8101738783957374
 40
0.8769583892307452
 40
0.9446381491202297
 40
1.0
 40
1.0
 40
1.0
 40
1.0
 10
140.0317905800813
 20
111.3260341751702
 30
0.0
 10
140.0298225554255
 20
111.3246299274545
 30
0.0
 10
140.0209090416665
 20
111.3182698540181
 30
0.0
 10
140.0064370113436
 20
111.409250862523
 30
0.0
 10
139.9842812286171
 20
111.6010223232205
 30
0.0
 10
139.9611249560725
 20
111.9012951786971
 30
0.0
 10
139.9379355970626
 20
112.2852606434568
 30
0.0
 10
139.9158760777234
 20
112.7318193873854
 30
0.0
 10
139.8964446806237
 20
113.2230657667961
 30
0.0
 10
139.875178620874
 20
113.7484008444636
 30
0.0
 10
139.8522495447967
 20
114.2958784040201
 30
0.0
 10
139.8289193227113
 20
114.8377248587737
 30
0.0
 10
139.8063345452056
 20
115.3423325808558
 30
0.0
 10
139.7861206420734
 20
115.7907066254409
 30
0.0
 10
139.7658992363129
 20
116.1758882750055
 30
0.0
 10
139.7433378187983
 20
116.4833666727813
 30
0.0
 10
139.7212982751016
 20
116.6971827822889
 30
0.0
 10
139.7073812769409
 20
116.7533262066075
 30
0.0
 10
139.7011194052697
 20
116.7785876109858
 30
0.0
  0
LINE
  5
234
330
1F
100
AcDbEntity
  8
0
  6
Continuous
 62
     7
370
    15
100
AcDbLine
 10
146.0861194053
 20
115.7802893973
 30
0.0
 11
146.0265317256
 21
115.811492689
 31
0.0
  0
SPLINE
  5
235
330
1F
100
AcDbEntity
  8
0
  6
Continuous
 62
     7
370
    15
100
AcDbSpline
210
0.0
220
0.0
230
1.0
 70
     8
 71
     3
 72
    10
 73
     6
 74
     0
 42
0.00000001
 43
0.00000001
 40
0.0
 40
0.0
 40
0.0
 40
0.0
 40
0.3251256518847327
 40
0.6589804174379008
 40
1.0
 40
1.0
 40
1.0
 40
1.0
 10
146.02653172564
 20
115.8114926889602
 30
0.0
 10
146.0145382108204
 20
115.9169725397571
 30
0.0
 10
145.9902291741248
 20
116.1307642098591
 30
0.0
 10
145.8701487684997
 20
116.4443999681307
 30
0.0
 10
145.7516929904154
 20
116.6433764241772
 30
0.0
 10
145.6918363073051
 20
116.7439208709622
 30
0.0
  0
SPLINE
  5
236
330
1F
100
AcDbEntity
  8
0
  6
Continuous
 62
     7
370
    15
100
AcDbSpline
210
0.0
220
0.0
230
1.0
 70
     8
 71
     3
 72
    14
 73
    10
 74
     0
 42
0.00000001
 43
0.00000001
 40
0.0
 40
0.0
 40
0.0
 40
0.0
 40
0.0984794925600758
 40
0.2900620801720306
 40
0.4564015861512378
 40
0.6226976827541101
 40
0.7850661391833194
 40
0.8922181553436813
 40
0.9999999999999999
 40
0.9999999999999999
 40
0.9999999999999999
 40
0.9999999999999999
 10
140.0918363073051
 20
116.7439208709622
 30
0.0
 10
140.0610355743396
 20
116.6851457861692
 30
0.0
 10
139.9703149131892
 20
116.5120293035985
 30
0.0
 10
139.8722684828668
 20
116.2260569061953
 30
0.0
 10
139.8329950612639
 20
115.8879766766579
 30
0.0
 10
139.8659667245481
 20
115.5681009107013
 30
0.0
 10
139.9560574762249
 20
115.2949415412369
 30
0.0
 10
140.0650651126909
 20
115.066734500101
 30
0.0
 10
140.1418816735997
 20
114.9417432601271
 30
0.0
 10
140.1804025032328
 20
114.8790645069559
 30
0.0
  0
SPLINE
  5
237
330
1F
100
AcDbEntity
  8
0
  6
Continuous
 62
     7
370
    15
100
AcDbSpline
210
0.0
220
0.0
230
1.0
 70
     8
 71
     3
 72
    14
 73
    10
 74
     0
 42
0.00000001
 43
0.00000001
 40
0.0
 40
0.0
 40
0.0
 40
0.0
 40
0.0984794925600721
 40
0.2900620801720091
 40
0.4564015861512213
 40
0.6226976827540988
 40
0.7850661391833218
 40
0.8922181553436833
 40
1.0
 40
1.0
 40
1.0
 40
1.0
 10
140.7918363073051
 20
116.7439208709622
 30
0.0
 10
140.7610355743396
 20
116.6851457861692
 30
0.0
 10
140.6703149131892
 20
116.5120293035985
 30
0.0
 10
140.5722684828667
 20
116.2260569061953
 30
0.0
 10
140.5329950612639
 20
115.8879766766579
 30
0.0
 10
140.5659667245481
 20
115.5681009107013
 30
0.0
 10
140.6560574762249
 20
115.2949415412369
 30
0.0
 10
140.7650651126909
 20
115.066734500101
 30
0.0
 10
140.8418816735997
 20
114.9417432601271
 30
0.0
 10
140.8804025032327
 20
114.8790645069559
 30
0.0
  0
SPLINE
  5
238
330
1F
100
AcDbEntity
  8
0
  6
Continuous
 62
     7
370
    15
100
AcDbSpline
210
0.0
220
0.0
230
1.0
 70
     8
 71
     3
 72
    14
 73
    10
 74
     0
 42
0.00000001
 43
0.00000001
 40
0.0
 40
0.0
 40
0.0
 40
0.0
 40
0.0984794925600738
 40
0.2900620801720138
 40
0.4564015861512245
 40
0.6226976827541003
 40
0.7850661391833152
 40
0.8922181553436753
 40
1.0
 40
1.0
 40
1.0
 40
1.0
 10
141.4918363073051
 20
116.7439208709622
 30
0.0
 10
141.4610355743396
 20
116.6851457861692
 30
0.0
 10
141.3703149131892
 20
116.5120293035985
 30
0.0
 10
141.2722684828667
 20
116.2260569061953
 30
0.0
 10
141.2329950612639
 20
115.8879766766579
 30
0.0
 10
141.2659667245481
 20
115.5681009107013
 30
0.0
 10
141.3560574762249
 20
115.2949415412369
 30
0.0
 10
141.465065112691
 20
115.066734500101
 30
0.0
 10
141.5418816735996
 20
114.9417432601271
 30
0.0
 10
141.5804025032328
 20
114.8790645069559
 30
0.0
  0
SPLINE
  5
239
330
1F
100
AcDbEntity
  8
0
  6
Continuous
 62
     7
370
    15
100
AcDbSpline
210
0.0
220
0.0
230
1.0
 70
     8
 71
     3
 72
    14
 73
    10
 74
     0
 42
0.00000001
 43
0.00000001
 40
0.0
 40
0.0
 40
0.0
 40
0.0
 40
0.0984794925600703
 40
0.2900620801720211
 40
0.4564015861512278
 40
0.6226976827540993
 40
0.7850661391833136
 40
0.892218155343674
 40
1.0
 40
1.0
 40
1.0
 40
1.0
 10
142.1918363073051
 20
116.7439208709622
 30
0.0
 10
142.1610355743396
 20
116.6851457861692
 30
0.0
 10
142.0703149131892
 20
116.5120293035985
 30
0.0
 10
141.9722684828668
 20
116.2260569061953
 30
0.0
 10
141.9329950612639
 20
115.8879766766579
 30
0.0
 10
141.9659667245481
 20
115.5681009107013
 30
0.0
 10
142.0560574762249
 20
115.2949415412369
 30
0.0
 10
142.1650651126909
 20
115.066734500101
 30
0.0
 10
142.2418816735997
 20
114.9417432601271
 30
0.0
 10
142.2804025032328
 20
114.8790645069559
 30
0.0
  0
SPLINE
  5
23A
330
1F
100
AcDbEntity
  8
0
  6
Continuous
 62
     7
370
    15
100
AcDbSpline
210
0.0
220
0.0
230
1.0
 70
     8
 71
     3
 72
    14
 73
    10
 74
     0
 42
0.00000001
 43
0.00000001
 40
0.0
 40
0.0
 40
0.0
 40
0.0
 40
0.0984794925600673
 40
0.2900620801720106
 40
0.4564015861512232
 40
0.6226976827541011
 40
0.7850661391833182
 40
0.892218155343681
 40
1.0
 40
1.0
 40
1.0
 40
1.0
 10
142.8918363073051
 20
116.7439208709622
 30
0.0
 10
142.8610355743396
 20
116.6851457861692
 30
0.0
 10
142.7703149131892
 20
116.5120293035985
 30
0.0
 10
142.6722684828667
 20
116.2260569061953
 30
0.0
 10
142.6329950612639
 20
115.8879766766579
 30
0.0
 10
142.6659667245481
 20
115.5681009107013
 30
0.0
 10
142.7560574762249
 20
115.2949415412369
 30
0.0
 10
142.8650651126909
 20
115.066734500101
 30
0.0
 10
142.9418816735997
 20
114.9417432601271
 30
0.0
 10
142.9804025032327
 20
114.8790645069559
 30
0.0
  0
SPLINE
  5
23B
330
1F
100
AcDbEntity
  8
0
  6
Continuous
 62
     7
370
    15
100
AcDbSpline
210
0.0
220
0.0
230
1.0
 70
     8
 71
     3
 72
    14
 73
    10
 74
     0
 42
0.00000001
 43
0.00000001
 40
0.0
 40
0.0
 40
0.0
 40
0.0
 40
0.0984794925600669
 40
0.2900620801720196
 40
0.4564015861512287
 40
0.6226976827541028
 40
0.7850661391833171
 40
0.8922181553436769
 40
1.0
 40
1.0
 40
1.0
 40
1.0
 10
143.5918363073051
 20
116.7439208709622
 30
0.0
 10
143.5610355743396
 20
116.6851457861692
 30
0.0
 10
143.4703149131892
 20
116.5120293035985
 30
0.0
 10
143.3722684828667
 20
116.2260569061953
 30
0.0
 10
143.3329950612639
 20
115.8879766766579
 30
0.0
 10
143.3659667245481
 20
115.5681009107013
 30
0.0
 10
143.4560574762249
 20
115.2949415412369
 30
0.0
 10
143.5650651126909
 20
115.066734500101
 30
0.0
 10
143.6418816735996
 20
114.9417432601271
 30
0.0
 10
143.6804025032328
 20
114.8790645069559
 30
0.0
  0
SPLINE
  5
23C
330
1F
100
AcDbEntity
  8
0
  6
Continuous
 62
     7
370
    15
100
AcDbSpline
210
0.0
220
0.0
230
1.0
 70
     8
 71
     3
 72
    14
 73
    10
 74
     0
 42
0.00000001
 43
0.00000001
 40
0.0
 40
0.0
 40
0.0
 40
0.0
 40
0.0984794925600636
 40
0.2900620801720156
 40
0.4564015861512264
 40
0.6226976827541026
 40
0.7850661391833206
 40
0.8922181553436771
 40
0.9999999999999999
 40
0.9999999999999999
 40
0.9999999999999999
 40
0.9999999999999999
 10
144.2918363073051
 20
116.7439208709622
 30
0.0
 10
144.2610355743396
 20
116.6851457861692
 30
0.0
 10
144.1703149131891
 20
116.5120293035985
 30
0.0
 10
144.0722684828667
 20
116.2260569061953
 30
0.0
 10
144.0329950612639
 20
115.8879766766579
 30
0.0
 10
144.0659667245481
 20
115.5681009107013
 30
0.0
 10
144.1560574762249
 20
115.2949415412369
 30
0.0
 10
144.2650651126909
 20
115.066734500101
 30
0.0
 10
144.3418816735997
 20
114.9417432601271
 30
0.0
 10
144.3804025032327
 20
114.8790645069559
 30
0.0
  0
SPLINE
  5
23D
330
1F
100
AcDbEntity
  8
0
  6
Continuous
 62
     7
370
    15
100
AcDbSpline
210
0.0
220
0.0
230
1.0
 70
     8
 71
     3
 72
    14
 73
    10
 74
     0
 42
0.00000001
 43
0.00000001
 40
0.0
 40
0.0
 40
0.0
 40
0.0
 40
0.0984794925600718
 40
0.290062080172017
 40
0.4564015861512271
 40
0.6226976827541024
 40
0.7850661391833175
 40
0.8922181553436791
 40
0.9999999999999999
 40
0.9999999999999999
 40
0.9999999999999999
 40
0.9999999999999999
 10
144.9918363073051
 20
116.7439208709622
 30
0.0
 10
144.9610355743396
 20
116.6851457861692
 30
0.0
 10
144.8703149131892
 20
116.5120293035985
 30
0.0
 10
144.7722684828667
 20
116.2260569061953
 30
0.0
 10
144.7329950612639
 20
115.8879766766579
 30
0.0
 10
144.7659667245481
 20
115.5681009107013
 30
0.0
 10
144.8560574762249
 20
115.2949415412369
 30
0.0
 10
144.965065112691
 20
115.066734500101
 30
0.0
 10
145.0418816735996
 20
114.9417432601271
 30
0.0
 10
145.0804025032327
 20
114.8790645069559
 30
0.0
  0
SPLINE
  5
23E
330
1F
100
AcDbEntity
  8
0
  6
Continuous
 62
     7
370
    15
100
AcDbSpline
210
0.0
220
0.0
230
1.0
 70
     8
 71
     3
 72
    14
 73
    10
 74
     0
 42
0.00000001
 43
0.00000001
 40
0.0
 40
0.0
 40
0.0
 40
0.0
 40
0.1005820895723138
 40
0.2962550818547074
 40
0.4661460373712576
 40
0.6359926566949079
 40
0.8018277783403631
 40
0.9112675551621363
 40
1.0
 40
1.0
 40
1.0
 40
1.0
 10
145.6918363073051
 20
116.7439208709622
 30
0.0
 10
145.661035560549
 20
116.6851457785908
 30
0.0
 10
145.5703148587797
 20
116.5120292736987
 30
0.0
 10
145.4722689292874
 20
116.2260571515179
 30
0.0
 10
145.432993659239
 20
115.8879759062
 30
0.0
 10
145.4659719213877
 20
115.5681037665323
 30
0.0
 10
145.5560412943885
 20
115.294932648796
 30
0.0
 10
145.6590607503154
 20
115.0793975460669
 30
0.0
 10
145.7270169192702
 20
114.9660697916163
 30
0.0
 10
145.757444579427
 20
114.9153268134321
 30
0.0
  0
SPLINE
  5
23F
330
1F
100
AcDbEntity
  8
0
  6
Continuous
 62
     7
370
    15
100
AcDbSpline
210
0.0
220
0.0
230
1.0
 70
     8
 71
     3
 72
    19
 73
    15
 74
     0
 42
0.00000001
 43
0.00000001
 40
0.0
 40
0.0
 40
0.0
 40
0.0
 40
0.0720532855852185
 40
0.145400773479707
 40
0.2360915050802811
 40
0.3294123280734799
 40
0.4201068114372331
 40
0.5135079498440912
 40
0.6029607030182829
 40
0.6950217909043558
 40
0.784242876251614
 40
0.8760514163965725
 40
0.9652743403965378
 40
1.0
 40
1.0
 40
1.0
 40
1.0
 10
145.757444579427
 20
114.9153268134321
 30
0.0
 10
145.7599978735369
 20
114.7858611172561
 30
0.0
 10
145.7651503233589
 20
114.5246042958609
 30
0.0
 10
145.7735802218715
 20
114.0884229878615
 30
0.0
 10
145.7826095068972
 20
113.6136646229354
 30
0.0
 10
145.7917567804751
 20
113.1205128715493
 30
0.0
 10
145.8003497222789
 20
112.6510669534816
 30
0.0
 10
145.8097991950762
 20
112.2300143807774
 30
0.0
 10
145.8196355214326
 20
111.8611407276243
 30
0.0
 10
145.829493009538
 20
111.5615125737245
 30
0.0
 10
145.8392626866104
 20
111.330329396723
 30
0.0
 10
145.8486013300141
 20
111.1852121382399
 30
0.0
 10
145.85525261464
 20
111.1184121298245
 30
0.0
 10
145.859554451433
 20
111.1316406731975
 30
0.0
 10
145.8607596618178
 20
111.1353468058605
 30
0.0
  0
SPLINE
  5
240
330
1F
100
AcDbEntity
  8
0
  6
Continuous
 62
     7
370
    15
100
AcDbSpline
210
0.0
220
0.0
230
1.0
 70
     8
 71
     3
 72
    13
 73
     9
 74
     0
 42
0.00000001
 43
0.00000001
 40
0.0
 40
0.0
 40
0.0
 40
0.0
 40
0.0215645573077833
 40
0.2088767511744717
 40
0.4017243772034113
 40
0.5873672674826103
 40
0.778393743955542
 40
1.0
 40
1.0
 40
1.0
 40
1.0
 10
146.0357181476041
 20
116.8522840318928
 30
0.0
 10
146.0360537740254
 20
116.8533437429811
 30
0.0
 10
146.03930468966
 20
116.8636082249343
 30
0.0
 10
146.0461851775389
 20
116.8064837179739
 30
0.0
 10
146.0559538989438
 20
116.6788924053558
 30
0.0
 10
146.0658956107073
 20
116.4664593058833
 30
0.0
 10
146.0761508689788
 20
116.1778592234932
 30
0.0
 10
146.082636349126
 20
115.9192022712711
 30
0.0
 10
146.0861194052697
 20
115.7802893972678
 30
0.0
  0
LINE
  5
241
330
1F
100
AcDbEntity
  8
0
  6
Continuous
 62
     7
370
    15
100
AcDbLine
 10
146.0861194053
 20
115.7802893973
 30
0.0
 11
146.0861194053
 21
111.3141083542
 31
0.0
  0
LINE
  5
242
330
1F
100
AcDbEntity
  8
0
  6
Continuous
 62
     7
370
    15
100
AcDbLine
 10
146.0861194053
 20
116.8141083542
 30
0.0
 11
146.0861194053
 21
115.7802893973
 31
0.0
  0
SPLINE
  5
243
330
1F
100
AcDbEntity
  8
0
  6
Continuous
 62
     7
370
    15
100
AcDbSpline
210
0.0
220
0.0
230
1.0
 70
     8
 71
     3
 72
    10
 73
     6
 74
     0
 42
0.00000001
 43
0.00000001
 40
0.0
 40
0.0
 40
0.0
 40
0.0
 40
0.3899316779151088
 40
0.6927364003897307
 40
1.0
 40
1.0
 40
1.0
 40
1.0
 10
146.02653172564
 20
115.8114926889602
 30
0.0
 10
146.0175522055412
 20
115.6909193130926
 30
0.0
 10
146.0015995636228
 20
115.476713668586
 30
0.0
 10
145.8972445488647
 20
115.1768718376153
 30
0.0
 10
145.8042710779047
 20
115.0029322523033
 30
0.0
 10
145.757444579427
 20
114.9153268134321
 30
0.0
  0
LINE
  5
244
330
1F
100
AcDbEntity
  8
0
  6
Continuous
 62
     7
370
    15
100
AcDbLine
 10
146.7161194053
 20
116.6041083542
 30
0.0
 11
146.7161194053
 21
111.5241083542
 31
0.0
  0
LINE
  5
245
330
1F
100
AcDbEntity
  8
0
  6
Continuous
 62
     7
370
    15
100
AcDbLine
 10
129.7281194053
 20
110.1209165269
 30
0.0
 11
129.7281194053
 21
122.9541083542
 31
0.0
  0
LINE
  5
246
330
1F
100
AcDbEntity
  8
0
  6
Continuous
 62
     7
370
    15
100
AcDbLine
 10
129.7281194053
 20
105.1741083542
 30
0.0
 11
129.7281194053
 21
110.1209165269
 31
0.0
  0
LINE
  5
247
330
1F
100
AcDbEntity
  8
0
  6
Continuous
 62
     7
370
    15
100
AcDbLine
 10
125.9181194053
 20
110.1209165269
 30
0.0
 11
125.9181194053
 21
122.9541083542
 31
0.0
  0
LINE
  5
248
330
1F
100
AcDbEntity
  8
0
  6
Continuous
 62
     7
370
    15
100
AcDbLine
 10
125.9181194053
 20
105.1741083542
 30
0.0
 11
125.9181194053
 21
110.1209165269
 31
0.0
  0
LINE
  5
249
330
1F
100
AcDbEntity
  8
0
  6
Continuous
 62
     7
370
    15
100
AcDbLine
 10
137.2211194053
 20
110.4870700537
 30
0.0
 11
137.2211194053
 21
122.1286083542
 31
0.0
  0
LINE
  5
24A
330
1F
100
AcDbEntity
  8
0
  6
Continuous
 62
     7
370
    15
100
AcDbLine
 10
137.2211194053
 20
105.9996083542
 30
0.0
 11
137.2211194053
 21
110.4870700537
 31
0.0
  0
LINE
  5
24B
330
1F
100
AcDbEntity
  8
0
  6
Continuous
 62
     7
370
    15
100
AcDbLine
 10
77.7851194053
 20
105.6642831622
 30
0.0
 11
77.7851194053
 21
117.7365634663
 31
0.0
  0
LINE
  5
24C
330
1F
100
AcDbEntity
  8
0
  6
Continuous
 62
     7
370
    15
100
AcDbLine
 10
75.6261194053
 20
105.6642831622
 30
0.0
 11
75.6261194053
 21
117.8543593671
 31
0.0
  0
LINE
  5
24D
330
1F
100
AcDbEntity
  8
0
  6
Continuous
 62
     7
370
    15
100
AcDbLine
 10
77.7851194053
 20
105.6642831622
 30
0.0
 11
75.6261194053
 21
105.6642831622
 31
0.0
  0
LINE
  5
24E
330
1F
100
AcDbEntity
  8
0
  6
Continuous
 62
     7
370
    15
100
AcDbLine
 10
79.3091194053
 20
105.1741083542
 30
0.0
 11
79.3091194053
 21
122.9541083542
 31
0.0
  0
LINE
  5
24F
330
1F
100
AcDbEntity
  8
0
  6
Continuous
 62
     7
370
    15
100
AcDbLine
 10
72.1971194053
 20
105.1741083542
 30
0.0
 11
72.1971194053
 21
122.9541083542
 31
0.0
  0
SPLINE
  5
250
330
1F
100
AcDbEntity
  8
0
  6
Continuous
 62
     7
370
    15
100
AcDbSpline
210
0.0
220
0.0
230
1.0
 70
     8
 71
     3
 72
    23
 73
    19
 74
     0
 42
0.00000001
 43
0.00000001
 40
0.0
 40
0.0
 40
0.0
 40
0.0
 40
0.0147972561668342
 40
0.0818728747092261
 40
0.1491089516207062
 40
0.2160830023370541
 40
0.2827836790659072
 40
0.3496209303308596
 40
0.4167934254509864
 40
0.4839802174556503
 40
0.5508331017354076
 40
0.6175267703843569
 40
0.6844828656782233
 40
0.7517142163615688
 40
0.8188049593553555
 40
0.8855606088416071
 40
0.9523070368456854
 40
1.0
 40
1.0
 40
1.0
 40
1.0
 10
76.17359576051068
 20
121.7373878421737
 30
0.0
 10
76.15263111401917
 20
121.7429545883068
 30
0.0
 10
76.03663421187932
 20
121.7737552653752
 30
0.0
 10
75.88577816573763
 20
121.8709240215778
 30
0.0
 10
75.7571221951909
 20
122.0084675298348
 30
0.0
 10
75.7401166067265
 20
122.1501311210629
 30
0.0
 10
75.83006415381189
 20
122.274597357809
 30
0.0
 10
76.0181531487655
 20
122.3724054061058
 30
0.0
 10
76.28385707831583
 20
122.4373907233124
 30
0.0
 10
76.59751758635164
 20
122.4670983813243
 30
0.0
 10
76.92267705594364
 20
122.461019207088
 30
0.0
 10
77.2228314873685
 20
122.4195215936204
 30
0.0
 10
77.46552449901247
 20
122.3433362321535
 30
0.0
 10
77.62317960649175
 20
122.2354417394054
 30
0.0
 10
77.67797161042097
 20
122.1031400885005
 30
0.0
 10
77.62108600052984
 20
121.9617158695104
 30
0.0
 10
77.48544811249272
 20
121.8357957927443
 30
0.0
 10
77.34174922816372
 20
121.778409738071
 30
0.0
 10
77.28186228253908
 20
121.7544939258371
 30
0.0
  0
SPLINE
  5
251
330
1F
100
AcDbEntity
  8
0
  6
Continuous
 62
     7
370
    15
100
AcDbSpline
210
0.0
220
0.0
230
1.0
 70
    11
 71
     3
 72
    45
 73
    41
 74
     0
 42
0.00000001
 43
0.00000001
 40
0.0
 40
0.0
 40
0.0
 40
0.0
 40
0.0263574326286482
 40
0.0534819536593044
 40
0.0798386129566306
 40
0.1069543982923337
 40
0.1334063537719204
 40
0.1606215063907184
 40
0.1871332562966934
 40
0.2144195054381457
 40
0.2408276043363961
 40
0.2680079119662158
 40
0.2943114937466056
 40
0.3213751505123669
 40
0.347734381445006
 40
0.3748505088363284
 40
0.401339506167085
 40
0.428595992045758
 40
0.4550876448291632
 40
0.4823549862320835
 40
0.508716185644873
 40
0.5358457609347274
 40
0.5621476396431815
 40
0.5892066557516318
 40
0.6156123486173969
 40
0.6427774563070432
 40
0.6692883856999989
 40
0.6965709501654962
 40
0.7230246310424936
 40
0.7502530975958299
 40
0.7765771604246833
 40
0.8036651807405797
 40
0.8299884715032109
 40
0.857067900920177
 40
0.88351993758669
 40
0.9107351751164138
 40
0.9372470253470314
 40
0.9645334013118828
 40
0.9821552392638735
 40
1.0
 40
1.0
 40
1.0
 40
1.0
 10
76.70561940526913
 20
105.1822295058048
 30
0.0
 10
76.65293364698404
 20
105.1821188467502
 30
0.0
 10
76.54602880071896
 20
105.1818943080966
 30
0.0
 10
76.39090420586126
 20
105.1802075700359
 30
0.0
 10
76.24335958791768
 20
105.1779515276274
 30
0.0
 10
76.11000838710439
 20
105.1756600396172
 30
0.0
 10
75.9922003886224
 20
105.1740741972676
 30
0.0
 10
75.89533357418318
 20
105.1739847590091
 30
0.0
 10
75.82059020669321
 20
105.1761221283659
 30
0.0
 10
75.77159937543254
 20
105.1809823147754
 30
0.0
 10
75.7488562250579
 20
105.1889367704088
 30
0.0
 10
75.75331473483146
 20
105.1997870611097
 30
0.0
 10
75.78476609146794
 20
105.2133742637312
 30
0.0
 10
75.84163454029532
 20
105.2287960957861
 30
0.0
 10
75.92341275307471
 20
105.2454313294893
 30
0.0
 10
76.0265493074626
 20
105.261924876523
 30
0.0
 10
76.1500900471412
 20
105.2773707316026
 30
0.0
 10
76.28848503067732
 20
105.290332452415
 30
0.0
 10
76.44014761201201
 20
105.2999835448257
 30
0.0
 10
76.59779120016655
 20
105.3053673566066
 30
0.0
 10
76.75970961693658
 20
105.3061540101442
 30
0.0
 10
76.91823178341183
 20
105.3022956076282
 30
0.0
 10
77.07199053170237
 20
105.2940585256544
 30
0.0
 10
77.21412102514168
 20
105.2822426697975
 30
0.0
 10
77.3433037757347
 20
105.2675551515221
 30
0.0
 10
77.45371721614208
 20
105.2513301145909
 30
0.0
 10
77.54401099542011
 20
105.2344861091254
 30
0.0
 10
77.6098414215045
 20
105.2184804199609
 30
0.0
 10
77.65042640025787
 20
105.2040586352726
 30
0.0
 10
77.66388135029851
 20
105.1922575144195
 30
0.0
 10
77.65023432751038
 20
105.1833015155924
 30
0.0
 10
77.61029555988539
 20
105.1774682805171
 30
0.0
 10
77.54448915615258
 20
105.1744444512632
 30
0.0
 10
77.4557361712068
 20
105.1738358745771
 30
0.0
 10
77.34480062340255
 20
105.1749787376866
 30
0.0
 10
77.21654632132733
 20
105.177108874301
 30
0.0
 10
77.07239267860913
 20
105.1794874438612
 30
0.0
 10
76.9358761011778
 20
105.1811703155462
 30
0.0
 10
76.81212371161757
 20
105.1820795871766
 30
0.0
 10
76.74126929085975
 20
105.1821793239659
 30
0.0
 10
76.70561940526913
 20
105.1822295058048
 30
0.0
  0
LINE
  5
252
330
1F
100
AcDbEntity
  8
0
  6
Continuous
 62
     7
370
    15
100
AcDbLine
 10
75.6261194053
 20
115.5082479337
 30
0.0
 11
75.8282040341
 21
115.5082479337
 31
0.0
  0
LINE
  5
253
330
1F
100
AcDbEntity
  8
0
  6
Continuous
 62
     7
370
    15
100
AcDbLine
 10
77.697201234
 20
115.5082479337
 30
0.0
 11
77.7851194053
 21
115.5082479337
 31
0.0
  0
LINE
  5
254
330
1F
100
AcDbEntity
  8
0
  6
Continuous
 62
     7
370
    15
100
AcDbLine
 10
120.3301194053
 20
121.5114392344
 30
0.0
 11
120.3301194053
 21
107.4050441423
 31
0.0
  0
LINE
  5
255
330
1F
100
AcDbEntity
  8
0
  6
Continuous
 62
     7
370
    15
100
AcDbLine
 10
122.4891194053
 20
121.5114392344
 30
0.0
 11
122.4891194053
 21
107.3013757126
 31
0.0
  0
LINE
  5
256
330
1F
100
AcDbEntity
  8
0
  6
Continuous
 62
     7
370
    15
100
AcDbLine
 10
120.3301194053
 20
121.5114392344
 30
0.0
 11
122.4891194053
 21
121.5114392344
 31
0.0
  0
LINE
  5
257
330
1F
100
AcDbEntity
  8
0
  6
Continuous
 62
     7
370
    15
100
AcDbLine
 10
118.8061194053
 20
122.9541083542
 30
0.0
 11
118.8061194053
 21
105.1741083542
 31
0.0
  0
LINE
  5
258
330
1F
100
AcDbEntity
  8
0
  6
Continuous
 62
     7
370
    15
100
AcDbLine
 10
125.9181194053
 20
122.9541083542
 30
0.0
 11
125.9181194053
 21
105.1741083542
 31
0.0
  0
SPLINE
  5
259
330
1F
100
AcDbEntity
  8
0
  6
Continuous
 62
     7
370
    15
100
AcDbSpline
210
0.0
220
0.0
230
1.0
 70
    11
 71
     3
 72
    45
 73
    41
 74
     0
 42
0.00000001
 43
0.00000001
 40
0.0
 40
0.0
 40
0.0
 40
0.0
 40
0.0263574326286482
 40
0.0534819536593044
 40
0.0798386129566305
 40
0.1069543982923336
 40
0.1334063537719203
 40
0.1606215063907185
 40
0.1871332562966931
 40
0.2144195054381451
 40
0.2408276043363958
 40
0.2680079119662156
 40
0.2943114937466055
 40
0.3213751505123668
 40
0.3477343814450055
 40
0.3748505088363281
 40
0.4013395061670845
 40
0.4285959920457576
 40
0.4550876448291629
 40
0.4823549862320832
 40
0.5087161856448726
 40
0.535845760934727
 40
0.5621476396431812
 40
0.5892066557516313
 40
0.6156123486173963
 40
0.6427774563070427
 40
0.6692883856999986
 40
0.6965709501654953
 40
0.7230246310424929
 40
0.7502530975958295
 40
0.7765771604246827
 40
0.8036651807405792
 40
0.8299884715032108
 40
0.8570679009201767
 40
0.8835199375866897
 40
0.9107351751164134
 40
0.9372470253470313
 40
0.9645334013118827
 40
0.9821552392638734
 40
1.0
 40
1.0
 40
1.0
 40
1.0
 10
121.4096194052701
 20
122.7745401815521
 30
0.0
 10
121.4623051635552
 20
122.7740328847041
 30
0.0
 10
121.5692100098203
 20
122.7730035269933
 30
0.0
 10
121.724334604678
 20
122.7646104961285
 30
0.0
 10
121.8718792226216
 20
122.750946227734
 30
0.0
 10
122.0052304234349
 20
122.731625288402
 30
0.0
 10
122.1230384219169
 20
122.7062923227359
 30
0.0
 10
122.2199052363561
 20
122.6753365185092
 30
0.0
 10
122.2946486038461
 20
122.6383987530398
 30
0.0
 10
122.3436394351067
 20
122.5966521572315
 30
0.0
 10
122.3663825854813
 20
122.5501662865368
 30
0.0
 10
122.3619240757078
 20
122.5009994404915
 30
0.0
 10
122.3304727190713
 20
122.4496610757088
 30
0.0
 10
122.273604270244
 20
122.3987559727802
 30
0.0
 10
122.1918260574646
 20
122.3491901391842
 30
0.0
 10
122.0886895030767
 20
122.3037541661431
 30
0.0
 10
121.9651487633981
 20
122.263647949938
 30
0.0
 10
121.8267537798619
 20
122.231438118971
 30
0.0
 10
121.6750911985273
 20
122.2081657768641
 30
0.0
 10
121.5174476103727
 20
122.1954216921966
 30
0.0
 10
121.3555291936027
 20
122.1935724255183
 30
0.0
 10
121.1970070271274
 20
122.2026731356213
 30
0.0
 10
121.0432482788369
 20
122.222388127825
 30
0.0
 10
120.9011177853976
 20
122.2514034062035
 30
0.0
 10
120.7719350348046
 20
122.28889598996
 30
0.0
 10
120.6615215943972
 20
122.332576196606
 30
0.0
 10
120.5712278151192
 20
122.3812816613171
 30
0.0
 10
120.5053973890348
 20
122.4321148324837
 30
0.0
 10
120.4648124102814
 20
122.4839495730193
 30
0.0
 10
120.4513574602407
 20
122.5339571056019
 30
0.0
 10
120.4650044830289
 20
122.5815356791426
 30
0.0
 10
120.5049432506539
 20
122.6246091945777
 30
0.0
 10
120.5707496543867
 20
122.6631610905091
 30
0.0
 10
120.6595026393325
 20
122.6959868098684
 30
0.0
 10
120.7704381871367
 20
122.723391988446
 30
0.0
 10
120.8986924892119
 20
122.744785390306
 30
0.0
 10
121.0428461319302
 20
122.7606073345673
 30
0.0
 10
121.1793627093614
 20
122.7694675555711
 30
0.0
 10
121.3031150989217
 20
122.773845959209
 30
0.0
 10
121.3739695196795
 20
122.7743078064683
 30
0.0
 10
121.4096194052701
 20
122.7745401815521
 30
0.0
  0
LINE
  5
25A
330
1F
100
AcDbEntity
  8
0
  6
Continuous
 62
     7
370
    15
100
AcDbLine
 10
122.4891194053
 20
111.5017921442
 30
0.0
 11
122.2870347764
 21
111.5017921442
 31
0.0
  0
LINE
  5
25B
330
1F
100
AcDbEntity
  8
0
  6
Continuous
 62
     7
370
    15
100
AcDbLine
 10
120.4180375766
 20
111.5017921442
 30
0.0
 11
120.3301194053
 21
111.5017921442
 31
0.0
  0
LINE
  5
25C
330
1F
100
AcDbEntity
  8
0
  6
Continuous
 62
     7
370
    15
100
AcDbLine
 10
122.4891194053
 20
113.5757293739
 30
0.0
 11
120.3301194053
 21
113.5757293739
 31
0.0
  0
LINE
  5
25D
330
1F
100
AcDbEntity
  8
0
  6
Continuous
 62
     7
370
    15
100
AcDbLine
 10
121.9134463083
 20
112.3325565764
 30
0.0
 11
121.8975164735
 21
112.3325565764
 31
0.0
  0
LINE
  5
25E
330
1F
100
AcDbEntity
  8
0
  6
Continuous
 62
     7
370
    15
100
AcDbLine
 10
121.9134463083
 20
112.3325565764
 30
0.0
 11
121.9134463083
 21
112.3841342437
 31
0.0
  0
LINE
  5
25F
330
1F
100
AcDbEntity
  8
0
  6
Continuous
 62
     7
370
    15
100
AcDbLine
 10
121.9134463083
 20
112.5646925911
 30
0.0
 11
121.9134463083
 21
112.6518443299
 31
0.0
  0
LINE
  5
260
330
1F
100
AcDbEntity
  8
0
  6
Continuous
 62
     7
370
    15
100
AcDbLine
 10
121.8819615931
 20
112.6518443299
 30
0.0
 11
121.9134463083
 21
112.6518443299
 31
0.0
  0
LINE
  5
261
330
1F
100
AcDbEntity
  8
0
  6
Continuous
 62
     7
370
    15
100
AcDbLine
 10
121.4054463083
 20
112.4368422835
 30
0.0
 11
121.4054463083
 21
112.6394894888
 31
0.0
  0
LINE
  5
262
330
1F
100
AcDbEntity
  8
0
  6
Continuous
 62
     7
370
    15
100
AcDbLine
 10
121.4054463083
 20
112.3637239282
 30
0.0
 11
121.4054463083
 21
112.4368422835
 31
0.0
  0
LINE
  5
263
330
1F
100
AcDbEntity
  8
0
  6
Continuous
 62
     7
370
    15
100
AcDbLine
 10
121.9134463083
 20
112.3325565764
 30
0.0
 11
121.9134463083
 21
112.2213587638
 31
0.0
  0
LINE
  5
264
330
1F
100
AcDbEntity
  8
0
  6
Continuous
 62
     7
370
    15
100
AcDbLine
 10
75.6261194053
 20
113.3160521203
 30
0.0
 11
77.7851194053
 21
113.3160521203
 31
0.0
  0
LWPOLYLINE
  5
265
330
1F
100
AcDbEntity
  8
0
  6
Continuous
 62
     7
370
    15
100
AcDbPolyline
 90
       38
 70
   128
 43
0.0
 10
76.0597841391
 20
119.2922752109
 10
76.286253383
 20
119.1982451111
 10
76.5264292043
 20
119.14142027
 10
76.7734021821
 20
119.1234354348
 10
77.0200673533
 20
119.1448079964
 10
77.2593286101
 20
119.2049231051
 10
77.4843028418
 20
119.3020513588
 10
77.6885179494
 20
119.4333985543
 10
77.8660990359
 20
119.5951860721
 10
78.0119374169
 20
119.7827595798
 10
78.1218375877
 20
119.9907229291
 10
78.1926379205
 20
120.213093393
 10
78.2223016185
 20
120.4434737783
 10
78.2099753112
 20
120.6752364607
 10
78.1560136041
 20
120.9017140497
 10
78.0619688771
 20
121.1163911975
 10
77.9305466259
 20
121.3130920334
 10
77.7655276293
 20
121.4861578325
 10
77.5716591835
 20
121.6306098068
 10
77.3545185306
 20
121.7422923361
 10
77.1203524119
 20
121.8179925172
 10
76.8758973602
 20
121.855532594
 10
76.6281859023
 20
121.8538326066
 10
76.3843442459
 20
121.8129414606
 10
76.1513872715
 20
121.7340355198
 10
75.936016727
 20
121.6193847646
 10
75.7444284309
 20
121.4722874883
 10
75.5821340297
 20
121.2969754118
 10
75.4538024378
 20
121.0984919443
 10
75.3631255214
 20
120.8825470939
 10
75.3127118903
 20
120.6553532007
 10
75.304011853
 20
120.4234462193
 10
75.3372756936
 20
120.1934976914
 10
75.4115464719
 20
119.9721228175
 10
75.5246875531
 20
119.7656901496
 10
75.673444074
 20
119.5801383798
 10
75.8535365805
 20
119.4208054945
 10
76.0597841391
 20
119.2922752109
  0
ARC
  5
266
330
1F
100
AcDbEntity
  8
0
  6
Continuous
 62
     7
370
    15
100
AcDbCircle
 10
76.7700992687
 20
118.7839017155
 30
0.0
 40
1.454805955786993
100
AcDbArc
 50
240.7740998244
 51
357.2277489629
  0
ARC
  5
267
330
1F
100
AcDbEntity
  8
0
  6
Continuous
 62
     7
370
    15
100
AcDbCircle
 10
76.6624349077
 20
118.7339045884
 30
0.0
 40
1.360384730453156
100
AcDbArc
 50
180.8577963692
 51
243.7045341784
  0
ARC
  5
268
330
1F
100
AcDbEntity
  8
0
  6
Continuous
 62
     7
370
    15
100
AcDbCircle
 10
76.7655504212
 20
115.6784842176
 30
0.0
 40
0.9952302839341756
100
AcDbArc
 50
241.1898788869
 51
350.1510008569
  0
ARC
  5
269
330
1F
100
AcDbEntity
  8
0
  6
Continuous
 62
     7
370
    15
100
AcDbCircle
 10
76.699297983
 20
115.6386361743
 30
0.0
 40
0.9291994223113067
100
AcDbArc
 50
188.0665491264
 51
243.586044662
  0
ARC
  5
26A
330
1F
100
AcDbEntity
  8
0
  6
Continuous
 62
     7
370
    15
100
AcDbCircle
 10
121.3331924681
 20
106.3361487172
 30
0.0
 40
1.456245303714559
100
AcDbArc
 50
60.2658939528
 51
171.7448213298
  0
ARC
  5
26B
330
1F
100
AcDbEntity
  8
0
  6
Continuous
 62
     7
370
    15
100
AcDbCircle
 10
121.6147567334
 20
106.4847197957
 30
0.0
 40
1.199806755392794
100
AcDbArc
 50
2.8912922126
 51
68.4503448315
  0
LWPOLYLINE
  5
26C
330
1F
100
AcDbEntity
  8
0
  6
Continuous
 62
     7
370
    15
100
AcDbPolyline
 90
       38
 70
   128
 43
0.0
 10
122.0554546714
 20
104.725375087
 10
121.8289854276
 20
104.8081279903
 10
121.5888096062
 20
104.8581377275
 10
121.3418366285
 20
104.8739656096
 10
121.0951714572
 20
104.8551562971
 10
120.8559102004
 20
104.8022508999
 10
120.6309359687
 20
104.7167714098
 10
120.4267208612
 20
104.6011769162
 10
120.2491397746
 20
104.458792862
 10
120.1033013936
 20
104.2937153775
 10
119.9934012228
 20
104.1106934411
 10
119.9226008901
 20
103.9149922609
 10
119.892937192
 20
103.7122418034
 10
119.9052634993
 20
103.5082748302
 10
119.9592252065
 20
103.3089590997
 10
120.0532699334
 20
103.1200285626
 10
120.1846921846
 20
102.9469184065
 10
120.3497111812
 20
102.7946086953
 10
120.543579627
 20
102.6674811022
 10
120.76072028
 20
102.5691928566
 10
120.9948863987
 20
102.5025715323
 10
121.2393414504
 20
102.4695337034
 10
121.4870529082
 20
102.4710298083
 10
121.7308945646
 20
102.5070168067
 10
121.963851539
 20
102.5764594182
 10
122.1792220835
 20
102.6773599053
 10
122.3708103796
 20
102.8068155446
 10
122.5331047808
 20
102.9611021331
 10
122.6614363727
 20
103.1357811266
 10
122.7521132891
 20
103.3258273285
 10
122.8025269202
 20
103.5257734556
 10
122.8112269576
 20
103.7298674218
 10
122.777963117
 20
103.9322378153
 10
122.7036923386
 20
104.1270628084
 10
122.5905512575
 20
104.3087376406
 10
122.4417947365
 20
104.472035858
 10
122.26170223
 20
104.612259668
 10
122.0554546714
 20
104.725375087
  0
ARC
  5
26D
330
1F
100
AcDbEntity
  8
0
  6
Continuous
 62
     7
370
    15
100
AcDbCircle
 10
121.3446573073
 20
111.3956728556
 30
0.0
 40
0.994492762958716
100
AcDbArc
 50
60.8351009421
 51
171.1756143405
  0
ARC
  5
26E
330
1F
100
AcDbEntity
  8
0
  6
Continuous
 62
     7
370
    15
100
AcDbCircle
 10
121.5423022347
 20
111.515736857
 30
0.0
 40
0.801493040975635
100
AcDbArc
 50
2.3237687435
 51
69.0178683006
  0
LWPOLYLINE
  5
26F
330
1F
100
AcDbEntity
  8
0
  6
Continuous
 62
     7
370
    15
100
AcDbPolyline
 90
       11
 70
   128
 43
0.0
 10
121.6275912397
 20
112.8874039052
 10
121.4822351276
 20
112.9332673147
 10
121.3272598375
 20
112.9450996297
 10
121.1741591779
 20
112.9220233017
 10
121.0342879243
 20
112.8657497962
 10
120.9180196876
 20
112.7804526617
 10
120.8339775512
 20
112.6724579965
 10
120.7883945357
 20
112.5497752709
 10
120.784651325
 20
112.4215033014
 10
120.8230255357
 20
112.2971554331
 10
120.8490296011
 20
112.2515291355
  0
ARC
  5
270
330
1F
100
AcDbEntity
  8
0
  6
Continuous
 62
     7
370
    15
100
AcDbCircle
 10
121.4807156048
 20
112.4732834296
 30
0.0
 40
0.4393952895115636
100
AcDbArc
 50
339.6865684726
 51
70.4719891558
  0
ARC
  5
271
330
1F
100
AcDbEntity
  8
0
  6
Continuous
 62
     7
370
    15
100
AcDbCircle
 10
76.7641301757
 20
115.0904138963
 30
0.0
 40
0.5823744103911941
100
AcDbArc
 50
241.6568866729
 51
333.6525943593
  0
ARC
  5
272
330
1F
100
AcDbEntity
  8
0
  6
Continuous
 62
     7
370
    15
100
AcDbCircle
 10
76.7339066207
 20
115.0667655727
 30
0.0
 40
0.5474282933353555
100
AcDbArc
 50
205.400655019
 51
243.2661232213
  0
LINE
  5
273
330
1F
100
AcDbEntity
  8
0
  6
Continuous
 62
     7
370
    15
100
AcDbLine
 10
116.0121194053
 20
103.6501083542
 30
0.0
 11
116.0121194053
 21
124.4781083542
 31
0.0
  0
LINE
  5
274
330
1F
100
AcDbEntity
  8
0
  6
Continuous
 62
     7
370
    15
100
AcDbLine
 10
115.2501194053
 20
103.6501083542
 30
0.0
 11
115.2501194053
 21
124.4781083542
 31
0.0
  0
LINE
  5
275
330
1F
100
AcDbEntity
  8
0
  6
Continuous
 62
     7
370
    15
100
AcDbLine
 10
118.5521194053
 20
105.1741083542
 30
0.0
 11
118.5521194053
 21
122.9541083542
 31
0.0
  0
LINE
  5
276
330
1F
100
AcDbEntity
  8
0
  6
Continuous
 62
     7
370
    15
100
AcDbLine
 10
112.2021194053
 20
125.7481083542
 30
0.0
 11
112.2021194053
 21
102.3801083542
 31
0.0
  0
LINE
  5
277
330
1F
100
AcDbEntity
  8
0
  6
Continuous
 62
     7
370
    15
100
AcDbLine
 10
115.2501194053
 20
114.0641083542
 30
0.0
 11
115.2501194053
 21
103.6501083542
 31
0.0
  0
LINE
  5
278
330
1F
100
AcDbEntity
  8
0
  6
Continuous
 62
     7
370
    15
100
AcDbLine
 10
115.2501194053
 20
124.4781083542
 30
0.0
 11
115.2501194053
 21
124.4780226585
 31
0.0
  0
LINE
  5
279
330
1F
100
AcDbEntity
  8
0
  6
Continuous
 62
     7
370
    15
100
AcDbLine
 10
112.2021194053
 20
124.4780226585
 30
0.0
 11
112.3940599345
 21
124.4780226585
 31
0.0
  0
LINE
  5
27A
330
1F
100
AcDbEntity
  8
0
  6
Continuous
 62
     7
370
    15
100
AcDbLine
 10
114.9055003148
 20
124.4780226585
 30
0.0
 11
115.2501194053
 21
124.4780226585
 31
0.0
  0
LINE
  5
27B
330
1F
100
AcDbEntity
  8
0
  6
Continuous
 62
     7
370
    15
100
AcDbLine
 10
112.2021194053
 20
114.0641083542
 30
0.0
 11
115.2501194053
 21
114.0641083542
 31
0.0
  0
SPLINE
  5
27C
330
1F
100
AcDbEntity
  8
0
  6
Continuous
 62
     7
370
    15
100
AcDbSpline
210
0.0
220
0.0
230
1.0
 70
     8
 71
     3
 72
    21
 73
    17
 74
     0
 42
0.00000001
 43
0.00000001
 40
0.0
 40
0.0
 40
0.0
 40
0.0
 40
0.0461928881503876
 40
0.0923551215806749
 40
0.1387292164289068
 40
0.1850933939893245
 40
0.2712231842615154
 40
0.3571521270788582
 40
0.4452656588654981
 40
0.5343024797560914
 40
0.6232109258488521
 40
0.710651858121049
 40
0.7960005055537364
 40
0.8836347371501652
 40
0.9443628620758558
 40
1.0
 40
1.0
 40
1.0
 40
1.0
 10
112.2999194052696
 20
114.4759030507083
 30
0.0
 10
112.3029772366073
 20
114.4388893751125
 30
0.0
 10
112.3090908700317
 20
114.3648865870932
 30
0.0
 10
112.3604716251266
 20
114.2748398493952
 30
0.0
 10
112.4473099318113
 20
114.2032122424927
 30
0.0
 10
112.6053826227527
 20
114.1348507211601
 30
0.0
 10
112.8766826080884
 20
114.089824731496
 30
0.0
 10
113.2825353753835
 20
114.0725287001262
 30
0.0
 10
113.7333938790688
 20
114.0700125466874
 30
0.0
 10
114.180235369837
 20
114.0762885004701
 30
0.0
 10
114.5664720728364
 20
114.1051666164917
 30
0.0
 10
114.8442273740681
 20
114.1819797630404
 30
0.0
 10
114.992127986499
 20
114.3248880334327
 30
0.0
 10
115.0098251483647
 20
114.5121078513653
 30
0.0
 10
114.9603227701831
 20
114.706339144456
 30
0.0
 10
114.9006117198109
 20
114.8298888846251
 30
0.0
 10
114.872062375584
 20
114.8889611005592
 30
0.0
  0
SPLINE
  5
27D
330
1F
100
AcDbEntity
  8
0
  6
Continuous
 62
     7
370
    15
100
AcDbSpline
210
0.0
220
0.0
230
1.0
 70
     8
 71
     3
 72
     9
 73
     5
 74
     0
 42
0.00000001
 43
0.00000001
 40
0.0
 40
0.0
 40
0.0
 40
0.0
 40
0.2549388896515729
 40
0.9999999999999999
 40
0.9999999999999999
 40
0.9999999999999999
 40
0.9999999999999999
 10
112.3629654016083
 20
114.7387606850653
 30
0.0
 10
112.3520570443393
 20
114.7139778943497
 30
0.0
 10
112.3092689185893
 20
114.6167671833849
 30
0.0
 10
112.3039112189281
 20
114.5360455789429
 30
0.0
 10
112.2999194052696
 20
114.4759030507083
 30
0.0
  0
LINE
  5
27E
330
1F
100
AcDbEntity
  8
0
  6
Continuous
 62
     7
370
    15
100
AcDbLine
 10
112.2021194053
 20
116.5641169266
 30
0.0
 11
112.4433389239
 21
116.5641169266
 31
0.0
  0
LINE
  5
27F
330
1F
100
AcDbEntity
  8
0
  6
Continuous
 62
     7
370
    15
100
AcDbLine
 10
114.9434357448
 20
116.5641169266
 30
0.0
 11
115.2501194053
 21
116.5641169266
 31
0.0
  0
LINE
  5
280
330
1F
100
AcDbEntity
  8
0
  6
Continuous
 62
     7
370
    15
100
AcDbLine
 10
105.6680229845
 20
135.9362462064
 30
0.0
 11
105.6680229845
 21
137.1862461561
 31
0.0
  0
LINE
  5
281
330
1F
100
AcDbEntity
  8
0
  6
Continuous
 62
     7
370
    15
100
AcDbLine
 10
105.6680229845
 20
134.6862462181
 30
0.0
 11
105.6680229845
 21
135.9362462064
 31
0.0
  0
LINE
  5
282
330
1F
100
AcDbEntity
  8
0
  6
Continuous
 62
     7
370
    15
100
AcDbLine
 10
146.6161194053
 20
111.4241083542
 30
0.0
 11
146.6161194053
 21
116.7041083542
 31
0.0
  0
DIMENSION
  5
283
330
1F
100
AcDbEntity
  8
0
  6
Continuous
 62
     7
370
     0
100
AcDbDimension
  2
*D4
 10
54.5022048197
 20
101.3641083542
 30
0.0
 11
54.5022048197
 21
114.0641083542
 31
0.0
 70
   160
  1
%%c<>
 71
     2
 42
-1.0
  3
SLDDIMSTYLE0
100
AcDbAlignedDimension
 13
84.7701194053
 23
126.7641083542
 33
0.0
 14
84.7701194053
 24
101.3641083542
 34
0.0
 50
90.0
100
AcDbRotatedDimension
  0
DIMENSION
  5
291
330
1F
100
AcDbEntity
  8
0
  6
Continuous
 62
     7
370
     0
100
AcDbDimension
  2
*D5
 10
60.1971194053
 20
102.2531083542
 30
0.0
 11
60.1971194053
 21
114.0641083542
 31
0.0
 70
   160
  1
%%c<>
 71
     2
 42
-1.0
  3
SLDDIMSTYLE0
100
AcDbAlignedDimension
 13
90.3581194053
 23
125.8751083542
 33
0.0
 14
90.3581194053
 24
102.2531083542
 34
0.0
 50
90.0
100
AcDbRotatedDimension
  0
DIMENSION
  5
29E
330
1F
100
AcDbEntity
  8
0
  6
Continuous
 62
     7
370
     0
100
AcDbDimension
  2
*D6
 10
137.2211194053
 20
159.1862462064
 30
0.0
 11
104.7091194053
 21
159.1862462064
 31
0.0
 70
   160
 71
     2
 42
-1.0
  3
SLDDIMSTYLE1
100
AcDbAlignedDimension
 13
72.1971194053
 23
122.9541083542
 33
0.0
 14
137.2211194053
 24
122.1286083542
 34
0.0
 50
0.0
100
AcDbRotatedDimension
  0
DIMENSION
  5
2A9
330
1F
100
AcDbEntity
  8
0
  6
Continuous
 62
     7
370
     0
100
AcDbDimension
  2
*D7
 10
146.7161194053
 20
173.3208691674
 30
0.0
 11
109.4566194053
 21
173.3208691674
 31
0.0
 70
   160
 71
     2
 42
-1.0
  3
SLDDIMSTYLE1
100
AcDbAlignedDimension
 13
72.1971194053
 23
122.9541083542
 33
0.0
 14
146.7161194053
 24
116.6041083542
 34
0.0
 50
0.0
100
AcDbRotatedDimension
  0
DIMENSION
  5
2B3
330
1F
100
AcDbEntity
  8
0
  6
Continuous
 62
     7
370
     0
100
AcDbDimension
  2
*D8
 10
90.3581194053
 20
88.6527895892
 30
0.0
 11
101.2859252969
 21
88.6527895892
 31
0.0
 70
   160
 71
     2
 42
-1.0
  3
SLDDIMSTYLE0
100
AcDbAlignedDimension
 13
84.7701194053
 23
101.3641083542
 33
0.0
 14
90.3581194053
 24
101.3641083542
 34
0.0
100
AcDbRotatedDimension
  0
DIMENSION
  5
2BF
330
1F
100
AcDbEntity
  8
0
  6
Continuous
 62
     7
370
     0
100
AcDbDimension
  2
*D9
 10
112.2021194053
 20
81.3430706341
 30
0.0
 11
98.4861194053
 21
81.3430706341
 31
0.0
 70
   160
 71
     2
 42
-1.0
  3
SLDDIMSTYLE0
100
AcDbAlignedDimension
 13
84.7701194053
 23
101.3641083542
 33
0.0
 14
112.2021194053
 24
102.3801083542
 34
0.0
100
AcDbRotatedDimension
  0
DIMENSION
  5
2CB
330
1F
100
AcDbEntity
  8
0
  6
Continuous
 62
     7
370
     0
100
AcDbDimension
  2
*D10
 10
72.1971194053
 20
149.1862462064
 30
0.0
 11
85.1511194053
 21
149.1862462064
 31
0.0
 70
   160
 71
     2
 42
-1.0
  3
SLDDIMSTYLE0
100
AcDbAlignedDimension
 13
98.1051194053
 23
125.6211083542
 33
0.0
 14
72.1971194053
 24
122.9541083542
 34
0.0
100
AcDbRotatedDimension
  0
INSERT
  5
2DC
330
1F
100
AcDbEntity
  8
0
  6
Continuous
 62
     7
370
     0
100
AcDbBlockReference
  2
SW_NOTE_2
 10
113.9496986716
 20
134.5894824558
 30
0.0
  0
INSERT
  5
2E4
330
1F
100
AcDbEntity
  8
0
  6
Continuous
 62
     7
370
     0
100
AcDbBlockReference
  2
SW_NOTE_3
 10
151.6873833486
 20
118.9056961374
 30
0.0
  0
SPLINE
  5
2E5
330
1F
100
AcDbEntity
  8
0
  6
Continuous
 62
     7
370
    15
100
AcDbSpline
210
0.0
220
0.0
230
1.0
 70
     8
 71
     3
 72
    41
 73
    37
 74
     0
 42
0.00000001
 43
0.00000001
 40
0.0
 40
0.0
 40
0.0
 40
0.0
 40
0.0680149421369331
 40
0.1423247877361453
 40
0.2108485799592666
 40
0.2747182462332253
 40
0.2976595575962803
 40
0.3204320912977088
 40
0.3456625259989386
 40
0.3734422889705721
 40
0.4014977812979166
 40
0.4258246065898882
 40
0.4484158537883469
 40
0.4750919895358697
 40
0.4992638656245178
 40
0.5251735793233142
 40
0.5519725926045831
 40
0.5777123898484557
 40
0.6015904687439958
 40
0.6206488888556367
 40
0.6389883974202114
 40
0.6573939441982818
 40
0.6779634401763639
 40
0.6985513708861127
 40
0.7176287176257626
 40
0.7538479584981794
 40
0.7878373234837105
 40
0.8258437966647552
 40
0.8473516564402231
 40
0.8704503574570988
 40
0.8984037471229611
 40
0.9225783882667876
 40
0.9487016656608523
 40
0.9747265597222027
 40
0.9867074998252648
 40
1.0
 40
1.0
 40
1.0
 40
1.0
 10
227.4748324729041
 20
121.5549932424805
 30
0.0
 10
227.5244041808452
 20
121.9805447253971
 30
0.0
 10
227.628135546171
 20
122.8710332353332
 30
0.0
 10
227.7852133418681
 20
124.1888702965143
 30
0.0
 10
227.9384216201515
 20
125.4784871395439
 30
0.0
 10
228.0519049218921
 20
126.4430866374576
 30
0.0
 10
228.1329389494568
 20
127.1193131076563
 30
0.0
 10
228.1859918176395
 20
127.5554427940305
 30
0.0
 10
228.2434776435457
 20
128.0191429028235
 30
0.0
 10
228.3066691806405
 20
128.5124475412391
 30
0.0
 10
228.3661575933717
 20
128.9961709594352
 30
0.0
 10
228.4130479062336
 20
129.4457592791168
 30
0.0
 10
228.4470244494061
 20
129.8830992718134
 30
0.0
 10
228.463049599689
 20
130.3147180248724
 30
0.0
 10
228.4740684022877
 20
130.7393487091592
 30
0.0
 10
228.4917563737829
 20
131.1318695025597
 30
0.0
 10
228.5109935775075
 20
131.5445172571152
 30
0.0
 10
228.5157762752135
 20
131.9912356423001
 30
0.0
 10
228.4953577910237
 20
132.4012749579118
 30
0.0
 10
228.4612612884096
 20
132.7616058142051
 30
0.0
 10
228.4231842232686
 20
133.0771663667666
 30
0.0
 10
228.3778953648265
 20
133.3884529491734
 30
0.0
 10
228.3042821302143
 20
133.6695894201417
 30
0.0
 10
228.2177645146566
 20
133.9408072740995
 30
0.0
 10
228.093657476292
 20
134.2761439614357
 30
0.0
 10
227.9330441191228
 20
134.648304203233
 30
0.0
 10
227.7436888342123
 20
135.0439314268968
 30
0.0
 10
227.5805450123827
 20
135.3657149300425
 30
0.0
 10
227.4370517705294
 20
135.633396590927
 30
0.0
 10
227.3168479566315
 20
135.8519026721224
 30
0.0
 10
227.1887024811582
 20
136.0777597600971
 30
0.0
 10
227.0620757346682
 20
136.2939377819319
 30
0.0
 10
226.9530174396798
 20
136.4749783099677
 30
0.0
 10
226.8791332342971
 20
136.5948591025268
 30
0.0
 10
226.8272961098652
 20
136.6752448812425
 30
0.0
 10
226.8224952473772
 20
136.6824543860641
 30
0.0
 10
226.8199702462393
 20
136.6862462063721
 30
0.0
  0
SPLINE
  5
2E6
330
1F
100
AcDbEntity
  8
0
  6
Continuous
 62
     7
370
    15
100
AcDbSpline
210
0.0
220
0.0
230
1.0
 70
     8
 71
     3
 72
    40
 73
    36
 74
     0
 42
0.00000001
 43
0.00000001
 40
0.0
 40
0.0
 40
0.0
 40
0.0
 40
0.0222330471817533
 40
0.0451836775564881
 40
0.07235150459628
 40
0.1001404754774137
 40
0.1282056596552221
 40
0.1742471120511483
 40
0.2170033048400328
 40
0.2546765922254184
 40
0.286501156945603
 40
0.3123740685456035
 40
0.334606160771936
 40
0.3572141844291929
 40
0.3771414511538339
 40
0.3953925143512595
 40
0.4236740437926855
 40
0.4537148186485108
 40
0.4809190745987271
 40
0.5045421980758613
 40
0.5257386393026314
 40
0.5518329223709253
 40
0.5813973508973229
 40
0.6183492793490986
 40
0.6580709110648608
 40
0.6895028200777982
 40
0.7111813553384114
 40
0.7319445980389938
 40
0.7569156201244658
 40
0.7866568033491971
 40
0.8218395284942279
 40
0.860428536048616
 40
0.9148265747797125
 40
0.9637413810541199
 40
1.0
 40
1.0
 40
1.0
 40
1.0
 10
224.8199702462397
 20
135.1862462063715
 30
0.0
 10
224.8280660953468
 20
135.1745102163245
 30
0.0
 10
224.8445190913131
 20
135.1506594510312
 30
0.0
 10
224.9057587727775
 20
135.0498579606092
 30
0.0
 10
224.9746091961393
 20
134.9344425120766
 30
0.0
 10
225.0574197017964
 20
134.7887272702102
 30
0.0
 10
225.1588962328392
 20
134.602858423033
 30
0.0
 10
225.274843232865
 20
134.3814244128583
 30
0.0
 10
225.402974533496
 20
134.1309564175026
 30
0.0
 10
225.5212268981711
 20
133.9007193747515
 30
0.0
 10
225.6256248045934
 20
133.6871754097048
 30
0.0
 10
225.7187398620212
 20
133.4823048502106
 30
0.0
 10
225.8026439558437
 20
133.277696341376
 30
0.0
 10
225.8743777152771
 20
133.0800145706337
 30
0.0
 10
225.9362222938834
 20
132.8637232764108
 30
0.0
 10
225.954345368745
 20
132.5958798315019
 30
0.0
 10
225.9783281772185
 20
132.3173713126746
 30
0.0
 10
225.9975651189867
 20
131.988968100316
 30
0.0
 10
226.0164477986636
 20
131.651181176476
 30
0.0
 10
226.0280388398882
 20
131.3161356480088
 30
0.0
 10
226.0254309511365
 20
130.9760130379964
 30
0.0
 10
225.9998678908273
 20
130.61871960419
 30
0.0
 10
225.9478289131266
 20
130.1804652386572
 30
0.0
 10
225.8931292513763
 20
129.6671814661397
 30
0.0
 10
225.8433456848891
 20
129.1387906205618
 30
0.0
 10
225.8002648312559
 20
128.6816960138908
 30
0.0
 10
225.7629610198544
 20
128.3133998054451
 30
0.0
 10
225.7260472830659
 20
127.9752807476845
 30
0.0
 10
225.6822351503492
 20
127.5951459724456
 30
0.0
 10
225.6274848810424
 20
127.1406039657151
 30
0.0
 10
225.5623376015007
 20
126.6154658041006
 30
0.0
 10
225.480397137635
 20
125.9634208841591
 30
0.0
 10
225.390103453466
 20
125.239508055971
 30
0.0
 10
225.3030113685262
 20
124.5259145659662
 30
0.0
 10
225.251085795573
 20
124.0895571558553
 30
0.0
 10
225.2289809012543
 20
123.9037983112802
 30
0.0
  0
LINE
  5
2E7
330
1F
100
AcDbEntity
  8
0
  6
Continuous
 62
     7
370
    15
100
AcDbLine
 10
220.1444887308
 20
122.4642335825
 30
0.0
 11
220.1439474575
 21
122.4630877248
 31
0.0
  0
LINE
  5
2E8
330
1F
100
AcDbEntity
  8
0
  6
Continuous
 62
     7
370
    15
100
AcDbLine
 10
208.3690432416
 20
114.7820551635
 30
0.0
 11
208.3693494721
 21
114.781996831
 31
0.0
  0
LINE
  5
2E9
330
1F
100
AcDbEntity
  8
0
  6
Continuous
 62
     7
370
    15
100
AcDbLine
 10
218.7539235873
 20
105.3053280624
 30
0.0
 11
218.7539033878
 21
105.3056391441
 31
0.0
  0
LINE
  5
2EA
330
1F
100
AcDbEntity
  8
0
  6
Continuous
 62
     7
370
    15
100
AcDbLine
 10
233.1964923458
 20
104.8739979202
 30
0.0
 11
229.008516803
 21
107.7492824022
 31
0.0
  0
LINE
  5
2EB
330
1F
100
AcDbEntity
  8
0
  6
Continuous
 62
     7
370
    15
100
AcDbLine
 10
227.3552282258
 20
105.3411964651
 30
0.0
 11
231.5432037686
 21
102.4659119831
 31
0.0
  0
LINE
  5
2EC
330
1F
100
AcDbEntity
  8
0
  6
Continuous
 62
     7
370
    15
100
AcDbLine
 10
228.7425529884
 20
107.3618946645
 30
0.0
 11
228.2290376558
 21
107.714452279
 31
0.0
  0
LINE
  5
2ED
330
1F
100
AcDbEntity
  8
0
  6
Continuous
 62
     7
370
    15
100
AcDbLine
 10
227.1076767079
 20
106.0811418173
 30
0.0
 11
227.6211920404
 21
105.7285842028
 31
0.0
  0
LINE
  5
2EE
330
1F
100
AcDbEntity
  8
0
  6
Continuous
 62
     7
370
    15
100
AcDbLine
 10
233.9218252574
 20
121.8596478662
 30
0.0
 11
229.1631310919
 21
120.0816630974
 31
0.0
  0
LINE
  5
2EF
330
1F
100
AcDbEntity
  8
0
  6
Continuous
 62
     7
370
    15
100
AcDbLine
 10
230.1854723339
 20
117.3454139522
 30
0.0
 11
234.9441664995
 21
119.123398721
 31
0.0
  0
LINE
  5
2F0
330
1F
100
AcDbEntity
  8
0
  6
Continuous
 62
     7
370
    15
100
AcDbLine
 10
229.327594683
 20
119.6414838871
 30
0.0
 11
225.1594629322
 21
118.0841501922
 31
0.0
  0
LINE
  5
2F1
330
1F
100
AcDbEntity
  8
0
  6
Continuous
 62
     7
370
    15
100
AcDbLine
 10
225.852876992
 20
116.2282594676
 30
0.0
 11
230.0210087428
 21
117.7855931625
 31
0.0
  0
ARC
  5
2F2
330
1F
100
AcDbEntity
  8
0
  6
Continuous
 62
     7
370
    15
100
AcDbCircle
 10
217.2303164699
 20
114.0641083542
 30
0.0
 40
12.19199999999999
100
AcDbArc
 50
180.0
 51
15.8267123441
  0
ARC
  5
2F3
330
1F
100
AcDbEntity
  8
0
  6
Continuous
 62
     7
370
    15
100
AcDbCircle
 10
217.2303164699
 20
114.0641083542
 30
0.0
 40
12.19199999999999
100
AcDbArc
 50
25.1475511123
 51
180.0
  0
ARC
  5
2F4
330
1F
100
AcDbEntity
  8
0
  6
Continuous
 62
     7
370
    15
100
AcDbCircle
 10
217.2303164699
 20
114.0641083542
 30
0.0
 40
9.65199999999999
100
AcDbArc
 50
180.0
 51
14.5964029675
  0
ARC
  5
2F5
330
1F
100
AcDbEntity
  8
0
  6
Continuous
 62
     7
370
    15
100
AcDbCircle
 10
217.2303164699
 20
114.0641083542
 30
0.0
 40
9.651999999999996
100
AcDbArc
 50
26.3778604889
 51
180.0
  0
ARC
  5
2F6
330
1F
100
AcDbEntity
  8
0
  6
Continuous
 62
     7
370
    15
100
AcDbCircle
 10
217.2303164699
 20
114.0641083542
 30
0.0
 40
12.70000000000001
100
AcDbArc
 50
180.0
 51
16.0135168366
  0
ARC
  5
2F7
330
1F
100
AcDbEntity
  8
0
  6
Continuous
 62
     7
370
    15
100
AcDbCircle
 10
217.2303164699
 20
114.0641083542
 30
0.0
 40
12.7
100
AcDbArc
 50
24.9607466199
 51
180.0
  0
CIRCLE
  5
2F8
330
1F
100
AcDbEntity
  8
0
  6
Continuous
 62
     7
370
    15
100
AcDbCircle
 10
225.8199702462
 20
135.9362462064
 30
0.0
 40
1.25
  0
LINE
  5
2F9
330
1F
100
AcDbEntity
  8
0
  6
Continuous
 62
     7
370
    15
100
AcDbLine
 10
218.3082660541
 20
112.4934238875
 30
0.0
 11
218.5238170542
 21
112.6655801141
 31
0.0
  0
LINE
  5
2FA
330
1F
100
AcDbEntity
  8
0
  6
Continuous
 62
     7
370
    15
100
AcDbLine
 10
216.4090386125
 20
112.3452343969
 30
0.0
 11
216.6659057782
 21
112.2446398683
 31
0.0
  0
LINE
  5
2FB
330
1F
100
AcDbEntity
  8
0
  6
Continuous
 62
     7
370
    15
100
AcDbLine
 10
218.0515943272
 20
115.7829823115
 30
0.0
 11
217.7947271615
 21
115.8835768401
 31
0.0
  0
LINE
  5
2FC
330
1F
100
AcDbEntity
  8
0
  6
Continuous
 62
     7
370
    15
100
AcDbLine
 10
219.1295439114
 20
114.2122978448
 30
0.0
 11
219.0882277458
 21
114.4850486
 31
0.0
  0
LINE
  5
2FD
330
1F
100
AcDbEntity
  8
0
  6
Continuous
 62
     7
370
    15
100
AcDbLine
 10
215.3310890283
 20
113.9159188635
 30
0.0
 11
215.3724051939
 21
113.6431681083
 31
0.0
  0
LINE
  5
2FE
330
1F
100
AcDbEntity
  8
0
  6
Continuous
 62
     7
370
    15
100
AcDbLine
 10
216.1523668856
 20
115.6347928208
 30
0.0
 11
215.9368158855
 21
115.4626365942
 31
0.0
  0
CIRCLE
  5
2FF
330
1F
100
AcDbEntity
  8
0
  6
Continuous
 62
     7
370
    15
100
AcDbCircle
 10
217.2303164699
 20
114.0641083542
 30
0.0
 40
8.889999999999946
  0
CIRCLE
  5
300
330
1F
100
AcDbEntity
  8
0
  6
Continuous
 62
     7
370
    15
100
AcDbCircle
 10
217.2303164699
 20
114.0641083542
 30
0.0
 40
6.451599999999796
  0
CIRCLE
  5
301
330
1F
100
AcDbEntity
  8
0
  6
Continuous
 62
     7
370
    15
100
AcDbCircle
 10
217.2303164699
 20
114.0641083542
 30
0.0
 40
2.794000000000055
  0
CIRCLE
  5
302
330
1F
100
AcDbEntity
  8
0
  6
Continuous
 62
     7
370
    15
100
AcDbCircle
 10
217.2303164699
 20
114.0641083542
 30
0.0
 40
5.0800000000001
  0
LINE
  5
303
330
1F
100
AcDbEntity
  8
0
  6
Continuous
 62
     7
370
    15
100
AcDbLine
 10
229.008516803
 20
107.7492824022
 30
0.0
 11
227.3552282258
 21
105.3411964651
 31
0.0
  0
LINE
  5
304
330
1F
100
AcDbEntity
  8
0
  6
Continuous
 62
     7
370
    15
100
AcDbLine
 10
233.1964923458
 20
104.8739979202
 30
0.0
 11
231.5432037686
 21
102.4659119831
 31
0.0
  0
LINE
  5
305
330
1F
100
AcDbEntity
  8
0
  6
Continuous
 62
     7
370
    15
100
AcDbLine
 10
230.1223752287
 20
117.514290442
 30
0.0
 11
230.1854723339
 21
117.3454139522
 31
0.0
  0
LINE
  5
306
330
1F
100
AcDbEntity
  8
0
  6
Continuous
 62
     7
370
    15
100
AcDbLine
 10
229.1631310919
 20
120.0816630974
 30
0.0
 11
230.1223752287
 21
117.514290442
 31
0.0
  0
LINE
  5
307
330
1F
100
AcDbEntity
  8
0
  6
Continuous
 62
     7
370
    15
100
AcDbLine
 10
234.8810693943
 20
119.2922752109
 30
0.0
 11
234.9441664995
 21
119.123398721
 31
0.0
  0
LINE
  5
308
330
1F
100
AcDbEntity
  8
0
  6
Continuous
 62
     7
370
    15
100
AcDbLine
 10
233.9218252574
 20
121.8596478662
 30
0.0
 11
234.8810693943
 21
119.2922752109
 31
0.0
  0
CIRCLE
  5
309
330
1F
100
AcDbEntity
  8
0
  6
Continuous
 62
     7
370
    15
100
AcDbCircle
 10
217.2303164699
 20
114.0641083542
 30
0.0
 40
2.667000000000002
  0
CIRCLE
  5
30A
330
1F
100
AcDbEntity
  8
0
  6
Continuous
 62
     7
370
    15
100
AcDbCircle
 10
217.2303164699
 20
114.0641083542
 30
0.0
 40
1.905000000000001
  0
INSERT
  5
30F
330
1F
100
AcDbEntity
  8
0
  6
Continuous
 62
     7
370
     0
100
AcDbBlockReference
  2
SW_NOTE_4
 10
246.5298209886
 20
164.6415243198
 30
0.0
  0
LEADER
  5
311
330
1F
100
AcDbEntity
  8
0
  6
Continuous
 62
     7
370
     0
100
AcDbLeader
  3
SLDDIMSTYLE2
 76
     2
 10
234.0153735594
 20
121.6092701541
 30
0.0
 10
246.5298209886
 20
164.6415243198
 30
0.0
  0
INSERT
  5
316
330
1F
100
AcDbEntity
  8
0
  6
Continuous
 62
     7
370
     0
100
AcDbBlockReference
  2
SW_NOTE_5
 10
201.7862177952
 20
164.6386439216
 30
0.0
  0
LEADER
  5
317
330
1F
100
AcDbEntity
  8
0
  6
Continuous
 62
     7
370
     0
100
AcDbLeader
  3
SLDDIMSTYLE2
 76
     2
 10
217.6594322827
 20
116.8249588788
 30
0.0
 10
201.7862177952
 20
164.6386439216
 30
0.0
  0
ENDSEC
  0
SECTION
  2
OBJECTS
  0
DICTIONARY
  5
C
330
0
100
AcDbDictionary
281
     1
  3
ACAD_GROUP
350
D
  3
ACAD_LAYOUT
350
1A
  3
ACAD_MLEADERSTYLE
350
319
  3
ACAD_MLINESTYLE
350
17
  3
ACAD_PLOTSETTINGS
350
19
  3
ACAD_PLOTSTYLENAME
350
E
  3
ACAD_TABLESTYLE
350
318
  3
ACAD_VISUALSTYLE
350
2A
  3
AcDbVariableDictionary
350
31A
  0
DICTIONARY
  5
D
102
{ACAD_REACTORS
330
C
102
}
330
C
100
AcDbDictionary
281
     1
  0
DICTIONARY
  5
1A
102
{ACAD_REACTORS
330
C
102
}
330
C
100
AcDbDictionary
281
     1
  3
Layout1
350
1E
  3
Layout2
350
26
  3
Model
350
22
  0
DICTIONARY
  5
319
102
{ACAD_REACTORS
330
C
102
}
330
C
100
AcDbDictionary
281
     1
  0
DICTIONARY
  5
17
102
{ACAD_REACTORS
330
C
102
}
330
C
100
AcDbDictionary
281
     1
  3
Standard
350
18
  0
DICTIONARY
  5
19
102
{ACAD_REACTORS
330
C
102
}
330
C
100
AcDbDictionary
281
     1
  0
ACDBDICTIONARYWDFLT
  5
E
102
{ACAD_REACTORS
330
C
102
}
330
C
100
AcDbDictionary
281
     1
  3
Normal
350
F
100
AcDbDictionaryWithDefault
340
F
  0
DICTIONARY
  5
318
102
{ACAD_REACTORS
330
C
102
}
330
C
100
AcDbDictionary
281
     1
  0
DICTIONARY
  5
2A
102
{ACAD_REACTORS
330
C
102
}
330
C
100
AcDbDictionary
281
     1
  3
2dWireframe
350
2F
  3
3D Hidden
350
31
  3
3dWireframe
350
30
  3
Basic
350
32
  3
Brighten
350
36
  3
ColorChange
350
3A
  3
Conceptual
350
34
  3
Dim
350
35
  3
Facepattern
350
39
  3
Flat
350
2B
  3
FlatWithEdges
350
2C
  3
Gouraud
350
2D
  3
GouraudWithEdges
350
2E
  3
Linepattern
350
38
  3
Realistic
350
33
  3
Thicken
350
37
  0
DICTIONARY
  5
31A
102
{ACAD_REACTORS
330
C
102
}
330
C
100
AcDbDictionary
281
     1
  3
PSOLHEIGHT
350
31C
  3
PSOLWIDTH
350
31B
  0
LAYOUT
  5
1E
102
{ACAD_REACTORS
330
1A
102
}
330
1A
100
AcDbPlotSettings
  1

  2
none_device
  4

  6

 40
0.0
 41
0.0
 42
0.0
 43
0.0
 44
0.0
 45
0.0
 46
0.0
 47
0.0
 48
0.0
 49
0.0
140
0.0
141
0.0
142
1.0
143
1.0
 70
   688
 72
     0
 73
     0
 74
     5
  7

 75
    16
147
1.0
148
0.0
149
0.0
100
AcDbLayout
  1
Layout1
 70
     1
 71
     1
 10
0.0
 20
0.0
 11
420.0
 21
297.0
 12
0.0
 22
0.0
 32
0.0
 14
1.0000000000E+20
 24
1.0000000000E+20
 34
1.0000000000E+20
 15
-1.0000000000E+20
 25
-1.0000000000E+20
 35
-1.0000000000E+20
146
0.0
 13
0.0
 23
0.0
 33
0.0
 16
1.0
 26
0.0
 36
0.0
 17
0.0
 27
1.0
 37
0.0
 76
     0
330
1B
  0
LAYOUT
  5
26
102
{ACAD_REACTORS
330
1A
102
}
330
1A
100
AcDbPlotSettings
  1

  2
none_device
  4

  6

 40
0.0
 41
0.0
 42
0.0
 43
0.0
 44
0.0
 45
0.0
 46
0.0
 47
0.0
 48
0.0
 49
0.0
140
0.0
141
0.0
142
1.0
143
1.0
 70
   688
 72
     0
 73
     0
 74
     5
  7

 75
    16
147
1.0
148
0.0
149
0.0
100
AcDbLayout
  1
Layout2
 70
     1
 71
     2
 10
0.0
 20
0.0
 11
0.0
 21
0.0
 12
0.0
 22
0.0
 32
0.0
 14
0.0
 24
0.0
 34
0.0
 15
0.0
 25
0.0
 35
0.0
146
0.0
 13
0.0
 23
0.0
 33
0.0
 16
1.0
 26
0.0
 36
0.0
 17
0.0
 27
1.0
 37
0.0
 76
     0
330
23
  0
LAYOUT
  5
22
102
{ACAD_REACTORS
330
1A
102
}
330
1A
100
AcDbPlotSettings
  1

  2
none_device
  4

  6

 40
0.0
 41
0.0
 42
0.0
 43
0.0
 44
0.0
 45
0.0
 46
0.0
 47
0.0
 48
0.0
 49
0.0
140
0.0
141
0.0
142
1.0
143
1.0
 70
  1712
 72
     0
 73
     0
 74
     0
  7

 75
     0
147
1.0
148
0.0
149
0.0
100
AcDbLayout
  1
Model
 70
     1
 71
     0
 10
0.0
 20
0.0
 11
297.0
 21
210.0
 12
0.0
 22
0.0
 32
0.0
 14
0.0
 24
0.0
 34
0.0
 15
297.0
 25
210.0
 35
0.0
146
0.0
 13
0.0
 23
0.0
 33
0.0
 16
1.0
 26
0.0
 36
0.0
 17
0.0
 27
1.0
 37
0.0
 76
     0
330
1F
331
29
  0
MLINESTYLE
  5
18
102
{ACAD_REACTORS
330
17
102
}
330
17
100
AcDbMlineStyle
  2
Standard
 70
     0
  3

 62
   256
 51
90.0
 52
90.0
 71
     2
 49
0.5
 62
   256
  6
BYLAYER
 49
-0.5
 62
   256
  6
BYLAYER
  0
ACDBPLACEHOLDER
  5
F
102
{ACAD_REACTORS
330
E
102
}
330
E
  0
VISUALSTYLE
  5
2F
102
{ACAD_REACTORS
330
2A
102
}
330
2A
100
AcDbVisualStyle
  2
2dWireframe
 70
     4
 71
     0
 72
     2
 73
     0
 90
        0
 40
-0.6
 41
-30.0
 62
     5
 63
     7
 74
     1
 91
        4
 64
     7
 65
   257
 75
     1
175
     1
 42
1.0
 92
        0
 66
   257
 43
1.0
 76
     1
 77
     6
 78
     2
 67
     7
 79
     5
170
     0
171
     0
290
     0
174
     0
 93
        1
 44
0.0
173
     0
291
     0
 45
0.0
1001
ACAD
1000
AcDbSavedByObjectVersion
1070
     0
  0
VISUALSTYLE
  5
31
102
{ACAD_REACTORS
330
2A
102
}
330
2A
100
AcDbVisualStyle
  2
3D Hidden
 70
     6
 71
     1
 72
     2
 73
     2
 90
        0
 40
-0.6
 41
-30.0
 62
     5
 63
     7
 74
     2
 91
        2
 64
     7
 65
   257
 75
     2
175
     1
 42
40.0
 92
        0
 66
   257
 43
1.0
 76
     1
 77
     6
 78
     2
 67
     7
 79
     3
170
     0
171
     0
290
     0
174
     0
 93
        1
 44
0.0
173
     0
291
     0
 45
0.0
1001
ACAD
1000
AcDbSavedByObjectVersion
1070
     0
  0
VISUALSTYLE
  5
30
102
{ACAD_REACTORS
330
2A
102
}
330
2A
100
AcDbVisualStyle
  2
3dWireframe
 70
     5
 71
     0
 72
     2
 73
     0
 90
        0
 40
-0.6
 41
-30.0
 62
     5
 63
     7
 74
     1
 91
        4
 64
     7
 65
   257
 75
     1
175
     1
 42
1.0
 92
        0
 66
   257
 43
1.0
 76
     1
 77
     6
 78
     2
 67
     7
 79
     5
170
     0
171
     0
290
     0
174
     0
 93
        1
 44
0.0
173
     0
291
     0
 45
0.0
1001
ACAD
1000
AcDbSavedByObjectVersion
1070
     0
  0
VISUALSTYLE
  5
32
102
{ACAD_REACTORS
330
2A
102
}
330
2A
100
AcDbVisualStyle
  2
Basic
 70
     7
 71
     1
 72
     0
 73
     1
 90
        0
 40
-0.6
 41
-30.0
 62
     5
 63
     7
 74
     0
 91
        4
 64
     7
 65
   257
 75
     1
175
     1
 42
1.0
 92
        8
 66
     7
 43
1.0
 76
     1
 77
     6
 78
     2
 67
     7
 79
     5
170
     0
171
     0
290
     0
174
     0
 93
        1
 44
0.0
173
     0
291
     1
 45
0.0
1001
ACAD
1000
AcDbSavedByObjectVersion
1070
     0
  0
VISUALSTYLE
  5
36
102
{ACAD_REACTORS
330
2A
102
}
330
2A
100
AcDbVisualStyle
  2
Brighten
 70
    12
 71
     2
 72
     2
 73
     0
 90
        0
 40
-0.6
 41
-30.0
 62
     5
 63
     7
 74
     1
 91
        4
 64
     7
 65
   257
 75
     1
175
     1
 42
1.0
 92
        8
 66
     7
 43
1.0
 76
     1
 77
     6
 78
     2
 67
     7
 79
     5
170
     0
171
     0
290
     0
174
     0
 93
        1
 44
50.0
173
     0
291
     1
 45
0.0
1001
ACAD
1000
AcDbSavedByObjectVersion
1070
     0
  0
VISUALSTYLE
  5
3A
102
{ACAD_REACTORS
330
2A
102
}
330
2A
100
AcDbVisualStyle
  2
ColorChange
 70
    16
 71
     2
 72
     2
 73
     3
 90
        0
 40
-0.6
 41
-30.0
 62
     5
 63
     8
 74
     1
 91
        4
 64
     7
 65
   257
 75
     1
175
     1
 42
1.0
 92
        8
 66
     8
 43
1.0
 76
     1
 77
     6
 78
     2
 67
     7
 79
     5
170
     0
171
     0
290
     0
174
     0
 93
        1
 44
0.0
173
     0
291
     1
 45
0.0
1001
ACAD
1000
AcDbSavedByObjectVersion
1070
     0
  0
VISUALSTYLE
  5
34
102
{ACAD_REACTORS
330
2A
102
}
330
2A
100
AcDbVisualStyle
  2
Conceptual
 70
     9
 71
     3
 72
     2
 73
     0
 90
        0
 40
-0.6
 41
-30.0
 62
     5
 63
     7
 74
     2
 91
        2
 64
     7
 65
   257
 75
     1
175
     1
 42
40.0
 92
        8
 66
     7
 43
1.0
 76
     1
 77
     6
 78
     2
 67
     7
 79
     3
170
     0
171
     0
290
     0
174
     0
 93
        1
 44
0.0
173
     0
291
     0
 45
0.0
1001
ACAD
1000
AcDbSavedByObjectVersion
1070
     0
  0
VISUALSTYLE
  5
35
102
{ACAD_REACTORS
330
2A
102
}
330
2A
100
AcDbVisualStyle
  2
Dim
 70
    11
 71
     2
 72
     2
 73
     0
 90
        0
 40
-0.6
 41
-30.0
 62
     5
 63
     7
 74
     1
 91
        4
 64
     7
 65
   257
 75
     1
175
     1
 42
1.0
 92
        8
 66
     7
 43
1.0
 76
     1
 77
     6
 78
     2
 67
     7
 79
     5
170
     0
171
     0
290
     0
174
     0
 93
        1
 44
-50.0
173
     0
291
     1
 45
0.0
1001
ACAD
1000
AcDbSavedByObjectVersion
1070
     0
  0
VISUALSTYLE
  5
39
102
{ACAD_REACTORS
330
2A
102
}
330
2A
100
AcDbVisualStyle
  2
Facepattern
 70
    15
 71
     2
 72
     2
 73
     0
 90
        0
 40
-0.6
 41
-30.0
 62
     5
 63
     7
 74
     1
 91
        4
 64
     7
 65
   257
 75
     1
175
     1
 42
1.0
 92
        8
 66
     7
 43
1.0
 76
     1
 77
     6
 78
     2
 67
     7
 79
     5
170
     0
171
     0
290
     0
174
     0
 93
        1
 44
0.0
173
     0
291
     1
 45
0.0
1001
ACAD
1000
AcDbSavedByObjectVersion
1070
     0
  0
VISUALSTYLE
  5
2B
102
{ACAD_REACTORS
330
2A
102
}
330
2A
100
AcDbVisualStyle
  2
Flat
 70
     0
 71
     2
 72
     1
 73
     1
 90
        2
 40
-0.6
 41
30.0
 62
     5
 63
     7
 74
     0
 91
        4
 64
     7
 65
   257
 75
     1
175
     1
 42
1.0
 92
        8
 66
     7
 43
1.0
 76
     1
 77
     6
 78
     2
 67
     7
 79
     5
170
     0
171
     0
290
     0
174
     0
 93
       13
 44
0.0
173
     0
291
     1
 45
0.0
1001
ACAD
1000
AcDbSavedByObjectVersion
1070
     0
  0
VISUALSTYLE
  5
2C
102
{ACAD_REACTORS
330
2A
102
}
330
2A
100
AcDbVisualStyle
  2
FlatWithEdges
 70
     1
 71
     2
 72
     1
 73
     1
 90
        2
 40
-0.6
 41
30.0
 62
     5
 63
     7
 74
     1
 91
        4
 64
     7
 65
   257
 75
     1
175
     1
 42
1.0
 92
        0
 66
   257
 43
1.0
 76
     1
 77
     6
 78
     2
 67
     7
 79
     5
170
     0
171
     0
290
     0
174
     0
 93
       13
 44
0.0
173
     0
291
     1
 45
0.0
1001
ACAD
1000
AcDbSavedByObjectVersion
1070
     0
  0
VISUALSTYLE
  5
2D
102
{ACAD_REACTORS
330
2A
102
}
330
2A
100
AcDbVisualStyle
  2
Gouraud
 70
     2
 71
     2
 72
     2
 73
     1
 90
        2
 40
-0.6
 41
30.0
 62
     5
 63
     7
 74
     0
 91
        4
 64
     7
 65
   257
 75
     1
175
     1
 42
1.0
 92
        0
 66
     7
 43
1.0
 76
     1
 77
     6
 78
     2
 67
     7
 79
     5
170
     0
171
     0
290
     0
174
     0
 93
       13
 44
0.0
173
     0
291
     1
 45
0.0
1001
ACAD
1000
AcDbSavedByObjectVersion
1070
     0
  0
VISUALSTYLE
  5
2E
102
{ACAD_REACTORS
330
2A
102
}
330
2A
100
AcDbVisualStyle
  2
GouraudWithEdges
 70
     3
 71
     2
 72
     2
 73
     1
 90
        2
 40
-0.6
 41
30.0
 62
     5
 63
     7
 74
     1
 91
        4
 64
     7
 65
   257
 75
     1
175
     1
 42
1.0
 92
        0
 66
   257
 43
1.0
 76
     1
 77
     6
 78
     2
 67
     7
 79
     5
170
     0
171
     0
290
     0
174
     0
 93
       13
 44
0.0
173
     0
291
     1
 45
0.0
1001
ACAD
1000
AcDbSavedByObjectVersion
1070
     0
  0
VISUALSTYLE
  5
38
102
{ACAD_REACTORS
330
2A
102
}
330
2A
100
AcDbVisualStyle
  2
Linepattern
 70
    14
 71
     2
 72
     2
 73
     0
 90
        0
 40
-0.6
 41
-30.0
 62
     5
 63
     7
 74
     1
 91
        4
 64
     7
 65
   257
 75
     7
175
     7
 42
1.0
 92
        8
 66
     7
 43
1.0
 76
     1
 77
     6
 78
     2
 67
     7
 79
     5
170
     0
171
     0
290
     0
174
     0
 93
        1
 44
0.0
173
     0
291
     1
 45
0.0
1001
ACAD
1000
AcDbSavedByObjectVersion
1070
     0
  0
VISUALSTYLE
  5
33
102
{ACAD_REACTORS
330
2A
102
}
330
2A
100
AcDbVisualStyle
  2
Realistic
 70
     8
 71
     2
 72
     2
 73
     0
 90
        0
 40
-0.6
 41
-30.0
 62
     5
 63
     7
 74
     1
 91
        0
 64
     7
 65
   257
 75
     1
175
     1
 42
1.0
 92
        8
 66
     8
 43
1.0
 76
     1
 77
     6
 78
     2
 67
     7
 79
     5
170
     0
171
     0
290
     0
174
     0
 93
       13
 44
0.0
173
     0
291
     0
 45
0.0
1001
ACAD
1000
AcDbSavedByObjectVersion
1070
     0
  0
VISUALSTYLE
  5
37
102
{ACAD_REACTORS
330
2A
102
}
330
2A
100
AcDbVisualStyle
  2
Thicken
 70
    13
 71
     2
 72
     2
 73
     0
 90
        0
 40
-0.6
 41
-30.0
 62
     5
 63
     7
 74
     1
 91
        4
 64
     7
 65
   257
 75
     1
175
     1
 42
1.0
 92
       12
 66
     7
 43
1.0
 76
     1
 77
     6
 78
     2
 67
     7
 79
     5
170
     0
171
     0
290
     0
174
     0
 93
        1
 44
0.0
173
     0
291
     1
 45
0.0
1001
ACAD
1000
AcDbSavedByObjectVersion
1070
     0
  0
DICTIONARYVAR
  5
31C
102
{ACAD_REACTORS
330
31A
102
}
330
31A
100
DictionaryVariables
280
     0
  1
80.000000
  0
DICTIONARYVAR
  5
31B
102
{ACAD_REACTORS
330
31A
102
}
330
31A
100
DictionaryVariables
280
     0
  1
5.000000
  0
ENDSEC
  0
EOF
