  0
SECTION
  2
HEADER
  9
$ACADVER
  1
AC1015
  9
$ACADMAINTVER
 70
     6
  9
$DWGCODEPAGE
  3
ANSI_1252
  9
$INSBASE
 10
0.0
 20
0.0
 30
0.0
  9
$EXTMIN
 10
0.0
 20
0.0
 30
0.0
  9
$EXTMAX
 10
11.0
 20
8.5
 30
0.0
  9
$LIMMIN
 10
0.0
 20
0.0
  9
$LIMMAX
 10
0.0
 20
0.0
  9
$ORTHOMODE
 70
     0
  9
$REGENMODE
 70
     1
  9
$FILLMODE
 70
     1
  9
$QTEXTMODE
 70
     0
  9
$MIRRTEXT
 70
     1
  9
$LTSCALE
 40
1.0
  9
$ATTMODE
 70
     1
  9
$TEXTSIZE
 40
0.1388888889
  9
$TRACEWID
 40
0.05
  9
$TEXTSTYLE
  7
Standard
  9
$CLAYER
  8
0
  9
$CELTYPE
  6
ByLayer
  9
$CECOLOR
 62
   256
  9
$CELTSCALE
 40
1.0
  9
$DISPSILH
 70
     0
  9
$DIMSCALE
 40
1.0
  9
$DIMASZ
 40
0.156
  9
$DIMEXO
 40
0.05
  9
$DIMDLI
 40
0.38
  9
$DIMRND
 40
0.0
  9
$DIMDLE
 40
0.0
  9
$DIMEXE
 40
0.125
  9
$DIMTP
 40
0.0
  9
$DIMTM
 40
0.0
  9
$DIMTXT
 40
0.1388888889
  9
$DIMCEN
 40
0.09
  9
$DIMTSZ
 40
0.0
  9
$DIMTOL
 70
     0
  9
$DIMLIM
 70
     0
  9
$DIMTIH
 70
     1
  9
$DIMTOH
 70
     1
  9
$DIMSE1
 70
     0
  9
$DIMSE2
 70
     0
  9
$DIMTAD
 70
     0
  9
$DIMZIN
 70
     0
  9
$DIMBLK
  1

  9
$DIMASO
 70
     1
  9
$DIMSHO
 70
     1
  9
$DIMPOST
  1

  9
$DIMAPOST
  1

  9
$DIMALT
 70
     0
  9
$DIMALTD
 70
     2
  9
$DIMALTF
 40
25.4
  9
$DIMLFAC
 40
0.5
  9
$DIMTOFL
 70
     0
  9
$DIMTVP
 40
0.0
  9
$DIMTIX
 70
     0
  9
$DIMSOXD
 70
     0
  9
$DIMSAH
 70
     0
  9
$DIMBLK1
  1

  9
$DIMBLK2
  1

  9
$DIMSTYLE
  2
Standard
  9
$DIMCLRD
 70
     0
  9
$DIMCLRE
 70
     0
  9
$DIMCLRT
 70
     0
  9
$DIMTFAC
 40
1.0
  9
$DIMGAP
 40
0.06
  9
$DIMJUST
 70
     0
  9
$DIMSD1
 70
     0
  9
$DIMSD2
 70
     0
  9
$DIMTOLJ
 70
     1
  9
$DIMTZIN
 70
     0
  9
$DIMALTZ
 70
     0
  9
$DIMALTTZ
 70
     0
  9
$DIMUPT
 70
     0
  9
$DIMDEC
 70
     4
  9
$DIMTDEC
 70
     4
  9
$DIMALTU
 70
     2
  9
$DIMALTTD
 70
     2
  9
$DIMTXSTY
  7
Standard
  9
$DIMAUNIT
 70
     0
  9
$DIMADEC
 70
     0
  9
$DIMALTRND
 40
0.0
  9
$DIMAZIN
 70
     0
  9
$DIMDSEP
 70
    46
  9
$DIMATFIT
 70
     3
  9
$DIMFRAC
 70
     0
  9
$DIMLDRBLK
  1

  9
$DIMLUNIT
 70
     2
  9
$DIMLWD
 70
    -2
  9
$DIMLWE
 70
    -2
  9
$DIMTMOVE
 70
     0
  9
$LUNITS
 70
     2
  9
$LUPREC
 70
     2
  9
$SKETCHINC
 40
0.1
  9
$FILLETRAD
 40
0.5
  9
$AUNITS
 70
     0
  9
$AUPREC
 70
     0
  9
$MENU
  1
.
  9
$ELEVATION
 40
0.0
  9
$PELEVATION
 40
0.0
  9
$THICKNESS
 40
0.0
  9
$LIMCHECK
 70
     0
  9
$CHAMFERA
 40
0.5
  9
$CHAMFERB
 40
0.5
  9
$CHAMFERC
 40
1.0
  9
$CHAMFERD
 40
0.0
  9
$SKPOLY
 70
     0
  9
$TDCREATE
 40
2454805.321680556
  9
$TDUCREATE
 40
2454805.530013889
  9
$TDUPDATE
 40
2454805.321680567
  9
$TDUUPDATE
 40
2454805.5300139
  9
$TDINDWG
 40
0.0000000116
  9
$TDUSRTIMER
 40
0.0000000116
  9
$USRTIMER
 70
     1
  9
$ANGBASE
 50
0.0
  9
$ANGDIR
 70
     0
  9
$PDMODE
 70
     0
  9
$PDSIZE
 40
-1.0
  9
$PLINEWID
 40
0.0
  9
$SPLFRAME
 70
     0
  9
$SPLINETYPE
 70
     6
  9
$SPLINESEGS
 70
     8
  9
$HANDSEED
  5
481
  9
$SURFTAB1
 70
     6
  9
$SURFTAB2
 70
     6
  9
$SURFTYPE
 70
     6
  9
$SURFU
 70
     6
  9
$SURFV
 70
     6
  9
$UCSBASE
  2

  9
$UCSNAME
  2

  9
$UCSORG
 10
0.0
 20
0.0
 30
0.0
  9
$UCSXDIR
 10
1.0
 20
0.0
 30
0.0
  9
$UCSYDIR
 10
0.0
 20
1.0
 30
0.0
  9
$UCSORTHOREF
  2

  9
$UCSORTHOVIEW
 70
     0
  9
$UCSORGTOP
 10
0.0
 20
0.0
 30
0.0
  9
$UCSORGBOTTOM
 10
0.0
 20
0.0
 30
0.0
  9
$UCSORGLEFT
 10
0.0
 20
0.0
 30
0.0
  9
$UCSORGRIGHT
 10
0.0
 20
0.0
 30
0.0
  9
$UCSORGFRONT
 10
0.0
 20
0.0
 30
0.0
  9
$UCSORGBACK
 10
0.0
 20
0.0
 30
0.0
  9
$PUCSBASE
  2

  9
$PUCSNAME
  2

  9
$PUCSORG
 10
0.0
 20
0.0
 30
0.0
  9
$PUCSXDIR
 10
1.0
 20
0.0
 30
0.0
  9
$PUCSYDIR
 10
0.0
 20
1.0
 30
0.0
  9
$PUCSORTHOREF
  2

  9
$PUCSORTHOVIEW
 70
     0
  9
$PUCSORGTOP
 10
0.0
 20
0.0
 30
0.0
  9
$PUCSORGBOTTOM
 10
0.0
 20
0.0
 30
0.0
  9
$PUCSORGLEFT
 10
0.0
 20
0.0
 30
0.0
  9
$PUCSORGRIGHT
 10
0.0
 20
0.0
 30
0.0
  9
$PUCSORGFRONT
 10
0.0
 20
0.0
 30
0.0
  9
$PUCSORGBACK
 10
0.0
 20
0.0
 30
0.0
  9
$USERI1
 70
     0
  9
$USERI2
 70
     0
  9
$USERI3
 70
     0
  9
$USERI4
 70
     0
  9
$USERI5
 70
     0
  9
$USERR1
 40
0.0
  9
$USERR2
 40
0.0
  9
$USERR3
 40
0.0
  9
$USERR4
 40
0.0
  9
$USERR5
 40
0.0
  9
$WORLDVIEW
 70
     1
  9
$SHADEDGE
 70
     3
  9
$SHADEDIF
 70
    70
  9
$TILEMODE
 70
     1
  9
$MAXACTVP
 70
    64
  9
$PINSBASE
 10
0.0
 20
0.0
 30
0.0
  9
$PLIMCHECK
 70
     0
  9
$PEXTMIN
 10
1.0000000000E+20
 20
1.0000000000E+20
 30
1.0000000000E+20
  9
$PEXTMAX
 10
-1.0000000000E+20
 20
-1.0000000000E+20
 30
-1.0000000000E+20
  9
$PLIMMIN
 10
0.0
 20
0.0
  9
$PLIMMAX
 10
12.0
 20
9.0
  9
$UNITMODE
 70
     0
  9
$VISRETAIN
 70
     1
  9
$PLINEGEN
 70
     0
  9
$PSLTSCALE
 70
     1
  9
$TREEDEPTH
 70
  3020
  9
$CMLSTYLE
  2
Standard
  9
$CMLJUST
 70
     0
  9
$CMLSCALE
 40
1.0
  9
$PROXYGRAPHICS
 70
     1
  9
$MEASUREMENT
 70
     0
  9
$CELWEIGHT
370
    -1
  9
$ENDCAPS
280
     0
  9
$JOINSTYLE
280
     0
  9
$LWDISPLAY
290
     1
  9
$INSUNITS
 70
     1
  9
$HYPERLINKBASE
  1

  9
$STYLESHEET
  1

  9
$XEDIT
290
     1
  9
$CEPSNTYPE
380
     0
  9
$PSTYLEMODE
290
     1
  9
$FINGERPRINTGUID
  2
{CE5D020E-8AD0-40B7-8A8A-448C7C05A2D3}
  9
$VERSIONGUID
  2
{FAEB1C32-E019-11D5-929B-00C0DF256EC4}
  9
$EXTNAMES
290
     1
  9
$PSVPSCALE
 40
0.0
  9
$OLESTARTUP
290
     0
  0
ENDSEC
  0
SECTION
  2
CLASSES
  0
CLASS
  1
ACDBDICTIONARYWDFLT
  2
AcDbDictionaryWithDefault
  3
ObjectDBX Classes
 90
        0
280
     0
281
     0
  0
CLASS
  1
ACDBPLACEHOLDER
  2
AcDbPlaceHolder
  3
ObjectDBX Classes
 90
        0
280
     0
281
     0
  0
CLASS
  1
LAYOUT
  2
AcDbLayout
  3
ObjectDBX Classes
 90
        0
280
     0
281
     0
  0
ENDSEC
  0
SECTION
  2
TABLES
  0
TABLE
  2
VPORT
  5
8
330
0
100
AcDbSymbolTable
 70
     1
  0
VPORT
  5
29
330
8
100
AcDbSymbolTableRecord
100
AcDbViewportTableRecord
  2
*Active
 70
     0
 10
0.0
 20
0.0
 11
1.0
 21
1.0
 12
5.5
 22
4.25
 13
0.0
 23
0.0
 14
0.5
 24
0.5
 15
0.5
 25
0.5
 16
0.0
 26
0.0
 36
1.0
 17
0.0
 27
0.0
 37
0.0
 40
8.5
 41
1.2941176471
 42
50.0
 43
0.0
 44
0.0
 50
0.0
 51
0.0
 71
     0
 72
  2000
 73
     1
 74
     3
 75
     0
 76
     0
 77
     0
 78
     0
281
     0
 65
     1
110
0.0
120
0.0
130
0.0
111
1.0
121
0.0
131
0.0
112
0.0
122
1.0
132
0.0
 79
     0
146
0.0
  0
ENDTAB
  0
TABLE
  2
LTYPE
  5
5
330
0
100
AcDbSymbolTable
 70
     6
  0
LTYPE
  5
14
330
5
100
AcDbSymbolTableRecord
100
AcDbLinetypeTableRecord
  2
ByBlock
 70
     0
  3

 72
    65
 73
     0
 40
0.0
  0
LTYPE
  5
15
330
5
100
AcDbSymbolTableRecord
100
AcDbLinetypeTableRecord
  2
ByLayer
 70
     0
  3

 72
    65
 73
     0
 40
0.0
  0
LTYPE
  5
16
330
5
100
AcDbSymbolTableRecord
100
AcDbLinetypeTableRecord
  2
Continuous
 70
     0
  3
Solid line
 72
    65
 73
     0
 40
0.0
  0
LTYPE
  5
2A
330
5
100
AcDbSymbolTableRecord
100
AcDbLinetypeTableRecord
  2
HIDDEN
 70
     0
  3
Hidden __ __ __ __ __ __ __ __ __ __ __ __ __ __
 72
    65
 73
     2
 40
0.075
 49
0.05
 74
     0
 49
-0.025
 74
     0
  0
LTYPE
  5
2B
330
5
100
AcDbSymbolTableRecord
100
AcDbLinetypeTableRecord
  2
PHANTOM
 70
     0
  3
Phantom ______  __  __  ______  __  __  ______
 72
    65
 73
     6
 40
0.5
 49
0.25
 74
     0
 49
-0.05
 74
     0
 49
0.05
 74
     0
 49
-0.05
 74
     0
 49
0.05
 74
     0
 49
-0.05
 74
     0
  0
LTYPE
  5
2C
330
5
100
AcDbSymbolTableRecord
100
AcDbLinetypeTableRecord
  2
CENTER
 70
     0
  3
Center ____ _ ____ _ ____ _ ____ _ ____ _ ____
 72
    65
 73
     4
 40
0.4
 49
0.25
 74
     0
 49
-0.05
 74
     0
 49
0.05
 74
     0
 49
-0.05
 74
     0
  0
LTYPE
  5
2D
330
5
100
AcDbSymbolTableRecord
100
AcDbLinetypeTableRecord
  2
CENTERX2
 70
     0
  3
Center (2x) ________  __  ________  __  _____
 72
    65
 73
     4
 40
0.8
 49
0.5
 74
     0
 49
-0.1
 74
     0
 49
0.1
 74
     0
 49
-0.1
 74
     0
  0
LTYPE
  5
2E
330
5
100
AcDbSymbolTableRecord
100
AcDbLinetypeTableRecord
  2
DOT2
 70
     0
  3
Dot (.5x) ........................................
 72
    65
 73
     2
 40
0.025
 49
0.0
 74
     0
 49
-0.025
 74
     0
  0
ENDTAB
  0
TABLE
  2
LAYER
  5
2
330
0
100
AcDbSymbolTable
 70
     2
  0
LAYER
  5
10
330
2
100
AcDbSymbolTableRecord
100
AcDbLayerTableRecord
  2
0
 70
     0
 62
     7
  6
Continuous
370
    -3
390
F
  0
LAYER
  5
2F
330
2
100
AcDbSymbolTableRecord
100
AcDbLayerTableRecord
  2
FORMAT
 70
     0
 62
     7
  6
Continuous
370
    -3
390
F
  0
ENDTAB
  0
TABLE
  2
STYLE
  5
3
330
0
100
AcDbSymbolTable
 70
    21
  0
STYLE
  5
11
330
3
100
AcDbSymbolTableRecord
100
AcDbTextStyleTableRecord
  2
Standard
 70
     0
 40
0.0
 41
1.0
 50
0.0
 71
     0
 42
0.2
  3
txt
  4

  0
STYLE
  5
4D
330
3
100
AcDbSymbolTableRecord
100
AcDbTextStyleTableRecord
  2
SLDTEXTSTYLE0
 70
     0
 40
0.0
 41
0.75
 50
0.0
 71
     0
 42
0.2
  3
TXT
  4

  0
STYLE
  5
56
330
3
100
AcDbSymbolTableRecord
100
AcDbTextStyleTableRecord
  2
SLDTEXTSTYLE1
 70
     0
 40
0.0
 41
0.6428571429
 50
0.0
 71
     0
 42
0.2
  3
TXT
  4

  0
STYLE
  5
58
330
3
100
AcDbSymbolTableRecord
100
AcDbTextStyleTableRecord
  2
SLDTEXTSTYLE2
 70
     0
 40
0.0
 41
0.7211538462
 50
0.0
 71
     0
 42
0.2
  3
TXT
  4

  0
STYLE
  5
63
330
3
100
AcDbSymbolTableRecord
100
AcDbTextStyleTableRecord
  2
SLDTEXTSTYLE3
 70
     0
 40
0.0
 41
0.6375
 50
0.0
 71
     0
 42
0.2
  3
TXT
  4

  0
STYLE
  5
69
330
3
100
AcDbSymbolTableRecord
100
AcDbTextStyleTableRecord
  2
SLDTEXTSTYLE4
 70
     0
 40
0.0
 41
0.7016129032
 50
0.0
 71
     0
 42
0.2
  3
TXT
  4

  0
STYLE
  5
6B
330
3
100
AcDbSymbolTableRecord
100
AcDbTextStyleTableRecord
  2
SLDTEXTSTYLE5
 70
     0
 40
0.0
 41
0.6853448276
 50
0.0
 71
     0
 42
0.2
  3
TXT
  4

  0
STYLE
  5
6D
330
3
100
AcDbSymbolTableRecord
100
AcDbTextStyleTableRecord
  2
SLDTEXTSTYLE6
 70
     0
 40
0.0
 41
0.689516129
 50
0.0
 71
     0
 42
0.2
  3
TXT
  4

  0
STYLE
  5
6F
330
3
100
AcDbSymbolTableRecord
100
AcDbTextStyleTableRecord
  2
SLDTEXTSTYLE7
 70
     0
 40
0.0
 41
0.6666666667
 50
0.0
 71
     0
 42
0.2
  3
TXT
  4

  0
STYLE
  5
71
330
3
100
AcDbSymbolTableRecord
100
AcDbTextStyleTableRecord
  2
SLDTEXTSTYLE8
 70
     0
 40
0.0
 41
0.7010869565
 50
0.0
 71
     0
 42
0.2
  3
TXT
  4

  0
STYLE
  5
73
330
3
100
AcDbSymbolTableRecord
100
AcDbTextStyleTableRecord
  2
SLDTEXTSTYLE9
 70
     0
 40
0.0
 41
0.7083333333
 50
0.0
 71
     0
 42
0.2
  3
TXT
  4

  0
STYLE
  5
82
330
3
100
AcDbSymbolTableRecord
100
AcDbTextStyleTableRecord
  2
SLDTEXTSTYLE10
 70
     0
 40
0.0
 41
0.65625
 50
0.0
 71
     0
 42
0.2
  3
TXT
  4

  0
STYLE
  5
89
330
3
100
AcDbSymbolTableRecord
100
AcDbTextStyleTableRecord
  2
SLDTEXTSTYLE11
 70
     0
 40
0.0
 41
0.7125
 50
0.0
 71
     0
 42
0.2
  3
TXT
  4

  0
STYLE
  5
92
330
3
100
AcDbSymbolTableRecord
100
AcDbTextStyleTableRecord
  2
SLDTEXTSTYLE12
 70
     0
 40
0.0
 41
0.69375
 50
0.0
 71
     0
 42
0.2
  3
TXT
  4

  0
STYLE
  5
94
330
3
100
AcDbSymbolTableRecord
100
AcDbTextStyleTableRecord
  2
SLDTEXTSTYLE13
 70
     0
 40
0.0
 41
0.6988636364
 50
0.0
 71
     0
 42
0.2
  3
TXT
  4

  0
STYLE
  5
96
330
3
100
AcDbSymbolTableRecord
100
AcDbTextStyleTableRecord
  2
SLDTEXTSTYLE14
 70
     0
 40
0.0
 41
0.7115384615
 50
0.0
 71
     0
 42
0.2
  3
TXT
  4

  0
STYLE
  5
99
330
3
100
AcDbSymbolTableRecord
100
AcDbTextStyleTableRecord
  2
SLDTEXTSTYLE15
 70
     0
 40
0.0
 41
0.6796875
 50
0.0
 71
     0
 42
0.2
  3
TXT
  4

  0
STYLE
  5
A3
330
3
100
AcDbSymbolTableRecord
100
AcDbTextStyleTableRecord
  2
SLDTEXTSTYLE16
 70
     0
 40
0.0
 41
0.6995192308
 50
0.0
 71
     0
 42
0.2
  3
TXT
  4

  0
STYLE
  5
449
330
3
100
AcDbSymbolTableRecord
100
AcDbTextStyleTableRecord
  2
SLDTEXTSTYLE17
 70
     0
 40
0.0
 41
0.675
 50
0.0
 71
     0
 42
0.2
  3
TXT
  4

  0
STYLE
  5
44B
330
3
100
AcDbSymbolTableRecord
100
AcDbTextStyleTableRecord
  2
SLDTEXTSTYLE18
 70
     0
 40
0.0
 41
0.625
 50
0.0
 71
     0
 42
0.2
  3
TXT
  4

  0
STYLE
  5
451
330
3
100
AcDbSymbolTableRecord
100
AcDbTextStyleTableRecord
  2
SLDTEXTSTYLE19
 70
     0
 40
0.0
 41
0.6875
 50
0.0
 71
     0
 42
0.2
  3
TXT
  4

  0
ENDTAB
  0
TABLE
  2
VIEW
  5
6
330
0
100
AcDbSymbolTable
 70
     0
  0
ENDTAB
  0
TABLE
  2
UCS
  5
7
330
0
100
AcDbSymbolTable
 70
     0
  0
ENDTAB
  0
TABLE
  2
APPID
  5
9
330
0
100
AcDbSymbolTable
 70
     1
  0
APPID
  5
12
330
9
100
AcDbSymbolTableRecord
100
AcDbRegAppTableRecord
  2
ACAD
 70
     0
  0
ENDTAB
  0
TABLE
  2
DIMSTYLE
  5
A
330
0
100
AcDbSymbolTable
 70
     6
100
AcDbDimStyleTable
  0
DIMSTYLE
105
27
330
A
100
AcDbSymbolTableRecord
100
AcDbDimStyleTableRecord
  2
Standard
 70
     0
340
11
  0
DIMSTYLE
105
D6
102
{ACAD_REACTORS
330
D5
102
}
330
A
100
AcDbSymbolTableRecord
100
AcDbDimStyleTableRecord
  2
SLDDIMSTYLE0
 70
     0
 41
0.156
 44
0.0
 78
     4
140
0.1041666667
147
0.0260416667
170
     1
172
     1
173
     1
271
     2
272
     2
284
    12
340
4D
  0
DIMSTYLE
105
3C6
102
{ACAD_REACTORS
330
3C5
330
3FD
330
434
102
}
330
A
100
AcDbSymbolTableRecord
100
AcDbDimStyleTableRecord
  2
SLDDIMSTYLE1
 70
     0
 41
0.156
 44
0.0
 78
    12
140
0.1041666667
147
0.0260416667
170
     1
173
     1
271
     2
272
     2
284
    12
340
4D
  0
DIMSTYLE
105
3D9
102
{ACAD_REACTORS
330
3D8
330
3EB
330
422
102
}
330
A
100
AcDbSymbolTableRecord
100
AcDbDimStyleTableRecord
  2
SLDDIMSTYLE2
 70
     0
 41
0.156
 44
0.0
 78
     8
140
0.1041666667
147
0.0260416667
170
     1
173
     1
271
     2
272
     2
284
    12
340
4D
  0
DIMSTYLE
105
410
102
{ACAD_REACTORS
330
40F
102
}
330
A
100
AcDbSymbolTableRecord
100
AcDbDimStyleTableRecord
  2
SLDDIMSTYLE3
 70
     0
 41
0.156
 44
0.0
 78
    12
140
0.1041666667
147
0.0260416667
170
     1
173
     1
271
     3
272
     3
284
    12
340
4D
  0
DIMSTYLE
105
455
330
A
100
AcDbSymbolTableRecord
100
AcDbDimStyleTableRecord
  2
SLDDIMSTYLE4
 70
     0
 41
0.156
 44
0.0
140
0.156
147
0.039
173
     1
271
     0
272
     0
340
11
  0
ENDTAB
  0
TABLE
  2
BLOCK_RECORD
  5
1
330
0
100
AcDbSymbolTable
 70
    22
  0
BLOCK_RECORD
  5
1F
330
1
100
AcDbSymbolTableRecord
100
AcDbBlockTableRecord
  2
*Model_Space
340
22
  0
BLOCK_RECORD
  5
1B
330
1
100
AcDbSymbolTableRecord
100
AcDbBlockTableRecord
  2
*Paper_Space
340
1E
  0
BLOCK_RECORD
  5
23
330
1
100
AcDbSymbolTableRecord
100
AcDbBlockTableRecord
  2
*Paper_Space0
340
26
  0
BLOCK_RECORD
  5
66
330
1
100
AcDbSymbolTableRecord
100
AcDbBlockTableRecord
  2
SW_NOTE_0
340
0
102
{BLKREFS
331
75
102
}
1001
ACAD
1000
DesignCenter Data
1002
{
1070
     1
1070
     0
1002
}
  0
BLOCK_RECORD
  5
7F
330
1
100
AcDbSymbolTableRecord
100
AcDbBlockTableRecord
  2
SW_NOTE_1
340
0
102
{BLKREFS
331
85
102
}
1001
ACAD
1000
DesignCenter Data
1002
{
1070
     1
1070
     0
1002
}
  0
BLOCK_RECORD
  5
86
330
1
100
AcDbSymbolTableRecord
100
AcDbBlockTableRecord
  2
SW_NOTE_2
340
0
102
{BLKREFS
331
8C
102
}
1001
ACAD
1000
DesignCenter Data
1002
{
1070
     1
1070
     0
1002
}
  0
BLOCK_RECORD
  5
8E
330
1
100
AcDbSymbolTableRecord
100
AcDbBlockTableRecord
  2
SW_NOTE_3
340
0
102
{BLKREFS
331
9D
102
}
1001
ACAD
1000
DesignCenter Data
1002
{
1070
     1
1070
     0
1002
}
  0
BLOCK_RECORD
  5
9F
330
1
100
AcDbSymbolTableRecord
100
AcDbBlockTableRecord
  2
SW_NOTE_4
340
0
102
{BLKREFS
331
A5
102
}
1001
ACAD
1000
DesignCenter Data
1002
{
1070
     1
1070
     0
1002
}
  0
BLOCK_RECORD
  5
A6
330
1
100
AcDbSymbolTableRecord
100
AcDbBlockTableRecord
  2
SW_TABLEANNOTATION_0
340
0
102
{BLKREFS
331
C2
102
}
1001
ACAD
1000
DesignCenter Data
1002
{
1070
     1
1070
     0
1002
}
  0
BLOCK_RECORD
  5
D7
330
1
100
AcDbSymbolTableRecord
100
AcDbBlockTableRecord
  2
*D7
340
0
  0
BLOCK_RECORD
  5
3C7
330
1
100
AcDbSymbolTableRecord
100
AcDbBlockTableRecord
  2
*D8
340
0
  0
BLOCK_RECORD
  5
3DA
330
1
100
AcDbSymbolTableRecord
100
AcDbBlockTableRecord
  2
*D9
340
0
  0
BLOCK_RECORD
  5
3EC
330
1
100
AcDbSymbolTableRecord
100
AcDbBlockTableRecord
  2
*D10
340
0
  0
BLOCK_RECORD
  5
3FE
330
1
100
AcDbSymbolTableRecord
100
AcDbBlockTableRecord
  2
*D11
340
0
  0
BLOCK_RECORD
  5
411
330
1
100
AcDbSymbolTableRecord
100
AcDbBlockTableRecord
  2
*D12
340
0
  0
BLOCK_RECORD
  5
423
330
1
100
AcDbSymbolTableRecord
100
AcDbBlockTableRecord
  2
*D13
340
0
  0
BLOCK_RECORD
  5
435
330
1
100
AcDbSymbolTableRecord
100
AcDbBlockTableRecord
  2
*D14
340
0
  0
BLOCK_RECORD
  5
446
330
1
100
AcDbSymbolTableRecord
100
AcDbBlockTableRecord
  2
SW_NOTE_5
340
0
102
{BLKREFS
331
44D
102
}
1001
ACAD
1000
DesignCenter Data
1002
{
1070
     1
1070
     0
1002
}
  0
BLOCK_RECORD
  5
44E
330
1
100
AcDbSymbolTableRecord
100
AcDbBlockTableRecord
  2
SW_NOTE_6
340
0
102
{BLKREFS
331
454
102
}
1001
ACAD
1000
DesignCenter Data
1002
{
1070
     1
1070
     0
1002
}
  0
BLOCK_RECORD
  5
458
330
1
100
AcDbSymbolTableRecord
100
AcDbBlockTableRecord
  2
SW_NOTE_7
340
0
102
{BLKREFS
331
45D
102
}
1001
ACAD
1000
DesignCenter Data
1002
{
1070
     1
1070
     0
1002
}
  0
BLOCK_RECORD
  5
45F
330
1
100
AcDbSymbolTableRecord
100
AcDbBlockTableRecord
  2
SW_NOTE_8
340
0
102
{BLKREFS
331
464
102
}
1001
ACAD
1000
DesignCenter Data
1002
{
1070
     1
1070
     0
1002
}
  0
BLOCK_RECORD
  5
466
330
1
100
AcDbSymbolTableRecord
100
AcDbBlockTableRecord
  2
SW_NOTE_9
340
0
102
{BLKREFS
331
46B
102
}
1001
ACAD
1000
DesignCenter Data
1002
{
1070
     1
1070
     0
1002
}
  0
BLOCK_RECORD
  5
46D
330
1
100
AcDbSymbolTableRecord
100
AcDbBlockTableRecord
  2
SW_NOTE_10
340
0
102
{BLKREFS
331
472
102
}
1001
ACAD
1000
DesignCenter Data
1002
{
1070
     1
1070
     0
1002
}
  0
BLOCK_RECORD
  5
474
330
1
100
AcDbSymbolTableRecord
100
AcDbBlockTableRecord
  2
SW_NOTE_11
340
0
102
{BLKREFS
331
479
102
}
1001
ACAD
1000
DesignCenter Data
1002
{
1070
     1
1070
     0
1002
}
  0
ENDTAB
  0
ENDSEC
  0
SECTION
  2
BLOCKS
  0
BLOCK
  5
20
330
1F
100
AcDbEntity
  8
0
100
AcDbBlockBegin
  2
*Model_Space
 70
     0
 71
     0
 10
0.0
 20
0.0
 30
0.0
  3
*Model_Space
  1

  0
ENDBLK
  5
21
330
1F
100
AcDbEntity
  8
0
100
AcDbBlockEnd
  0
BLOCK
  5
1C
330
1B
100
AcDbEntity
 67
     1
  8
0
100
AcDbBlockBegin
  2
*Paper_Space
 70
     0
 71
     0
 10
0.0
 20
0.0
 30
0.0
  3
*Paper_Space
  1

  0
ENDBLK
  5
1D
330
1B
100
AcDbEntity
 67
     1
  8
0
100
AcDbBlockEnd
  0
BLOCK
  5
24
330
23
100
AcDbEntity
  8
0
100
AcDbBlockBegin
  2
*Paper_Space0
 70
     0
 71
     0
 10
0.0
 20
0.0
 30
0.0
  3
*Paper_Space0
  1

  0
ENDBLK
  5
25
330
23
100
AcDbEntity
  8
0
100
AcDbBlockEnd
  0
BLOCK
  5
67
330
66
100
AcDbEntity
  8
0
100
AcDbBlockBegin
  2
SW_NOTE_0
 70
     0
 71
     0
 10
0.0
 20
0.0
 30
0.0
  3
SW_NOTE_0
  1

  0
MTEXT
  5
6A
330
66
100
AcDbEntity
  8
0
  6
Continuous
 62
     0
370
     0
100
AcDbMText
 10
0.0
 20
0.076640625
 30
0.0
 40
0.06
 41
0.0
 71
     1
 72
     1
  1
THE INFORMATION CONTAINED IN THIS
  7
SLDTEXTSTYLE4
 73
     1
 44
1.0
  0
MTEXT
  5
6C
330
66
100
AcDbEntity
  8
0
  6
Continuous
 62
     0
370
     0
100
AcDbMText
 10
0.0
 20
-0.0227294496
 30
0.0
 40
0.06
 41
0.0
 71
     1
 72
     1
  1
DRAWING IS THE SOLE PROPERTY OF
  7
SLDTEXTSTYLE5
 73
     1
 44
1.0
  0
MTEXT
  5
6E
330
66
100
AcDbEntity
  8
0
  6
Continuous
 62
     0
370
     0
100
AcDbMText
 10
0.0
 20
-0.1220995241
 30
0.0
 40
0.06
 41
0.0
 71
     1
 72
     1
  1
THORLABS, INC.  ANY REPRODUCTION 
  7
SLDTEXTSTYLE6
 73
     1
 44
1.0
  0
MTEXT
  5
70
330
66
100
AcDbEntity
  8
0
  6
Continuous
 62
     0
370
     0
100
AcDbMText
 10
0.0
 20
-0.2214695987
 30
0.0
 40
0.06
 41
0.0
 71
     1
 72
     1
  1
IN PART OR AS A WHOLE WITHOUT
  7
SLDTEXTSTYLE7
 73
     1
 44
1.0
  0
MTEXT
  5
72
330
66
100
AcDbEntity
  8
0
  6
Continuous
 62
     0
370
     0
100
AcDbMText
 10
0.0
 20
-0.3208396733
 30
0.0
 40
0.06
 41
0.0
 71
     1
 72
     1
  1
THE WRITTEN PERMISSION OF
  7
SLDTEXTSTYLE8
 73
     1
 44
1.0
  0
MTEXT
  5
74
330
66
100
AcDbEntity
  8
0
  6
Continuous
 62
     0
370
     0
100
AcDbMText
 10
0.0
 20
-0.4202097478
 30
0.0
 40
0.06
 41
0.0
 71
     1
 72
     1
  1
THORLABS, INC. IS PROHIBITED.
  7
SLDTEXTSTYLE9
 73
     1
 44
1.0
  0
ENDBLK
  5
68
330
66
100
AcDbEntity
  8
0
100
AcDbBlockEnd
  0
BLOCK
  5
80
330
7F
100
AcDbEntity
  8
0
100
AcDbBlockBegin
  2
SW_NOTE_1
 70
     0
 71
     0
 10
0.0
 20
0.0
 30
0.0
  3
SW_NOTE_1
  1

  0
MTEXT
  5
83
330
7F
100
AcDbEntity
  8
0
  6
Continuous
 62
     0
370
     0
100
AcDbMText
 10
0.0
 20
0.1330566406
 30
0.0
 40
0.1041666667
 41
0.0
 71
     1
 72
     1
  1
PO BOX 366
  7
SLDTEXTSTYLE10
 73
     1
 44
1.0
  0
MTEXT
  5
84
330
7F
100
AcDbEntity
  8
0
  6
Continuous
 62
     0
370
     0
100
AcDbMText
 10
0.0
 20
-0.0058322466
 30
0.0
 40
0.1041666667
 41
0.0
 71
     1
 72
     1
  1
NEWTON NJ
  7
SLDTEXTSTYLE0
 73
     1
 44
1.0
  0
ENDBLK
  5
81
330
7F
100
AcDbEntity
  8
0
100
AcDbBlockEnd
  0
BLOCK
  5
87
330
86
100
AcDbEntity
  8
0
100
AcDbBlockBegin
  2
SW_NOTE_2
 70
     0
 71
     0
 10
0.0
 20
0.0
 30
0.0
  3
SW_NOTE_2
  1

  0
MTEXT
  5
8A
330
86
100
AcDbEntity
  8
0
  6
Continuous
 62
     0
370
     0
100
AcDbMText
 10
0.0
 20
0.1330566406
 30
0.0
 40
0.1041666667
 41
0.0
 71
     1
 72
     1
  1
MATCHED ACHROMAT PAIRS
  7
SLDTEXTSTYLE11
 73
     1
 44
1.0
  0
MTEXT
  5
8B
330
86
100
AcDbEntity
  8
0
  6
Continuous
 62
     0
370
     0
100
AcDbMText
 10
0.0
 20
-0.0058322466
 30
0.0
 40
0.1041666667
 41
0.0
 71
     1
 72
     1
  1
F1=30mm, F1=50mm
  7
SLDTEXTSTYLE0
 73
     1
 44
1.0
  0
ENDBLK
  5
88
330
86
100
AcDbEntity
  8
0
100
AcDbBlockEnd
  0
BLOCK
  5
8F
330
8E
100
AcDbEntity
  8
0
100
AcDbBlockBegin
  2
SW_NOTE_3
 70
     0
 71
     0
 10
0.0
 20
0.0
 30
0.0
  3
SW_NOTE_3
  1

  0
LINE
  5
91
330
8E
100
AcDbEntity
  8
0
  6
Continuous
 62
     0
370
     0
100
AcDbLine
 10
1.0817708433
 20
-0.6526041506
 30
0.0
 11
1.4039930543
 21
-0.6526041506
 31
0.0
  0
MTEXT
  5
93
330
8E
100
AcDbEntity
  8
0
  6
Continuous
 62
     0
370
     0
100
AcDbMText
 10
0.0
 20
0.1197509766
 30
0.0
 40
0.09375
 41
0.0
 71
     1
 72
     1
  1
DESIGN WAVELENGTH:  486.1, 587.6 & 656.3nm
  7
SLDTEXTSTYLE12
 73
     1
 44
1.0
  0
MTEXT
  5
95
330
8E
100
AcDbEntity
  8
0
  6
Continuous
 62
     0
370
     0
100
AcDbMText
 10
0.0
 20
-0.0052490219
 30
0.0
 40
0.09375
 41
0.0
 71
     1
 72
     1
  1
COATING:  BBAR 400-700nm
  7
SLDTEXTSTYLE13
 73
     1
 44
1.0
  0
MTEXT
  5
97
330
8E
100
AcDbEntity
  8
0
  6
Continuous
 62
     0
370
     0
100
AcDbMText
 10
0.0
 20
-0.1302490204
 30
0.0
 40
0.09375
 41
0.0
 71
     1
 72
     1
  1
COATING RANGE: R(AVG)<0.5% FROM 400-700nm
  7
SLDTEXTSTYLE14
 73
     1
 44
1.0
  0
MTEXT
  5
98
330
8E
100
AcDbEntity
  8
0
  6
Continuous
 62
     0
370
     0
100
AcDbMText
 10
0.0
 20
-0.2552490189
 30
0.0
 40
0.09375
 41
0.0
 71
     1
 72
     1
  1
MAGNIFICATION: 1:1.67
  7
SLDTEXTSTYLE0
 73
     1
 44
1.0
  0
MTEXT
  5
9A
330
8E
100
AcDbEntity
  8
0
  6
Continuous
 62
     0
370
     0
100
AcDbMText
 10
0.0
 20
-0.6091552547
 30
0.0
 40
0.09375
 41
0.0
 71
     1
 72
     1
  1
Dimensions are in 
  7
SLDTEXTSTYLE15
 73
     1
 44
1.0
  0
MTEXT
  5
9B
330
8E
100
AcDbEntity
  8
0
  6
Continuous
 62
     0
370
     0
100
AcDbMText
 10
1.0817708433
 20
-0.5052490159
 30
0.0
 40
0.09375
 41
0.0
 71
     1
 72
     1
  1
[mm]
  7
SLDTEXTSTYLE0
 73
     1
 44
1.0
  0
MTEXT
  5
9C
330
8E
100
AcDbEntity
  8
0
  6
Continuous
 62
     0
370
     0
100
AcDbMText
 10
1.1922743109
 20
-0.6854573399
 30
0.0
 40
0.09375
 41
0.0
 71
     1
 72
     1
  1
in
  7
SLDTEXTSTYLE0
 73
     1
 44
1.0
  0
ENDBLK
  5
90
330
8E
100
AcDbEntity
  8
0
100
AcDbBlockEnd
  0
BLOCK
  5
A0
330
9F
100
AcDbEntity
  8
0
100
AcDbBlockBegin
  2
SW_NOTE_4
 70
     0
 71
     0
 10
0.0
 20
0.0
 30
0.0
  3
SW_NOTE_4
  1

  0
MTEXT
  5
A2
330
9F
100
AcDbEntity
  8
0
  6
Continuous
 62
     0
370
     0
100
AcDbMText
 10
0.0
 20
0.1149609375
 30
0.0
 40
0.09
 41
0.0
 71
     1
 72
     1
  1
NOTE:
  7
SLDTEXTSTYLE0
 73
     1
 44
1.0
  0
MTEXT
  5
A4
330
9F
100
AcDbEntity
  8
0
  6
Continuous
 62
     0
370
     0
100
AcDbMText
 10
0.0
 20
-0.0144091455
 30
0.0
 40
0.09
 41
0.0
 71
     1
 72
     1
  1
FOR INFORMATION ONLY.  NOT INTENDED FOR MANUFACTURING.
  7
SLDTEXTSTYLE16
 73
     1
 44
1.0
  0
ENDBLK
  5
A1
330
9F
100
AcDbEntity
  8
0
100
AcDbBlockEnd
  0
BLOCK
  5
A7
330
A6
100
AcDbEntity
  8
0
100
AcDbBlockBegin
  2
SW_TABLEANNOTATION_0
 70
     0
 71
     0
 10
0.0
 20
0.0
 30
0.0
  3
SW_TABLEANNOTATION_0
  1

  0
LINE
  5
A9
330
A6
100
AcDbEntity
  8
0
  6
Continuous
 62
     0
370
     0
100
AcDbLine
 10
0.0
 20
0.0
 30
0.0
 11
0.0
 21
-1.0877351438
 31
0.0
  0
LINE
  5
AA
330
A6
100
AcDbEntity
  8
0
  6
Continuous
 62
     0
370
     0
100
AcDbLine
 10
0.0
 20
-1.0877351438
 30
0.0
 11
5.3007222216
 21
-1.0877351438
 31
0.0
  0
LINE
  5
AB
330
A6
100
AcDbEntity
  8
0
  6
Continuous
 62
     0
370
     0
100
AcDbLine
 10
5.3007222216
 20
-1.0877351438
 30
0.0
 11
5.3007222216
 21
0.0
 31
0.0
  0
LINE
  5
AC
330
A6
100
AcDbEntity
  8
0
  6
Continuous
 62
     0
370
     0
100
AcDbLine
 10
5.3007222216
 20
0.0
 30
0.0
 11
0.0
 21
0.0
 31
0.0
  0
LINE
  5
AD
330
A6
100
AcDbEntity
  8
0
  6
Continuous
 62
     0
370
     0
100
AcDbLine
 10
1.7669074072
 20
0.0
 30
0.0
 11
1.7669074072
 21
-1.0877351438
 31
0.0
  0
LINE
  5
AE
330
A6
100
AcDbEntity
  8
0
  6
Continuous
 62
     0
370
     0
100
AcDbLine
 10
3.5338148144
 20
0.0
 30
0.0
 11
3.5338148144
 21
-1.0877351438
 31
0.0
  0
LINE
  5
AF
330
A6
100
AcDbEntity
  8
0
  6
Continuous
 62
     0
370
     0
100
AcDbLine
 10
0.0
 20
-0.2175470288
 30
0.0
 11
5.3007222216
 21
-0.2175470288
 31
0.0
  0
LINE
  5
B0
330
A6
100
AcDbEntity
  8
0
  6
Continuous
 62
     0
370
     0
100
AcDbLine
 10
0.0
 20
-0.4350940575
 30
0.0
 11
5.3007222216
 21
-0.4350940575
 31
0.0
  0
LINE
  5
B1
330
A6
100
AcDbEntity
  8
0
  6
Continuous
 62
     0
370
     0
100
AcDbLine
 10
0.0
 20
-0.6526410863
 30
0.0
 11
5.3007222216
 21
-0.6526410863
 31
0.0
  0
LINE
  5
B2
330
A6
100
AcDbEntity
  8
0
  6
Continuous
 62
     0
370
     0
100
AcDbLine
 10
0.0
 20
-0.870188115
 30
0.0
 11
5.3007222216
 21
-0.870188115
 31
0.0
  0
MTEXT
  5
B3
330
A6
100
AcDbEntity
  8
0
  6
Continuous
 62
     0
370
     0
100
AcDbMText
 10
0.6662347763
 20
-0.0391846857
 30
0.0
 40
0.1377952756
 41
0.0
 71
     1
 72
     1
  1
PART
  7
SLDTEXTSTYLE0
 73
     1
 44
1.0
  0
MTEXT
  5
B4
330
A6
100
AcDbEntity
  8
0
  6
Continuous
 62
     0
370
     0
100
AcDbMText
 10
2.2344873384
 20
-0.0391846857
 30
0.0
 40
0.1377952756
 41
0.0
 71
     1
 72
     1
  1
PART NO.
  7
SLDTEXTSTYLE0
 73
     1
 44
1.0
  0
MTEXT
  5
B5
330
A6
100
AcDbEntity
  8
0
  6
Continuous
 62
     0
370
     0
100
AcDbMText
 10
3.9896246982
 20
-0.0391846857
 30
0.0
 40
0.1377952756
 41
0.0
 71
     1
 72
     1
  1
MATERIAL
  7
SLDTEXTSTYLE0
 73
     1
 44
1.0
  0
MTEXT
  5
B6
330
A6
100
AcDbEntity
  8
0
  6
Continuous
 62
     0
370
     0
100
AcDbMText
 10
0.8155129793
 20
-0.2567317144
 30
0.0
 40
0.1377952756
 41
0.0
 71
     1
 72
     1
  1
A
  7
SLDTEXTSTYLE0
 73
     1
 44
1.0
  0
MTEXT
  5
B7
330
A6
100
AcDbEntity
  8
0
  6
Continuous
 62
     0
370
     0
100
AcDbMText
 10
2.0224357113
 20
-0.2567317144
 30
0.0
 40
0.1377952756
 41
0.0
 71
     1
 72
     1
  1
AC254-030-A1
  7
SLDTEXTSTYLE0
 73
     1
 44
1.0
  0
MTEXT
  5
B8
330
A6
100
AcDbEntity
  8
0
  6
Continuous
 62
     0
370
     0
100
AcDbMText
 10
3.936229005
 20
-0.2567317144
 30
0.0
 40
0.1377952756
 41
0.0
 71
     1
 72
     1
  1
BAF10-SFL6
  7
SLDTEXTSTYLE0
 73
     1
 44
1.0
  0
MTEXT
  5
B9
330
A6
100
AcDbEntity
  8
0
  6
Continuous
 62
     0
370
     0
100
AcDbMText
 10
0.8307278706
 20
-0.4742787432
 30
0.0
 40
0.1377952756
 41
0.0
 71
     1
 72
     1
  1
B
  7
SLDTEXTSTYLE0
 73
     1
 44
1.0
  0
MTEXT
  5
BA
330
A6
100
AcDbEntity
  8
0
  6
Continuous
 62
     0
370
     0
100
AcDbMText
 10
2.0224357113
 20
-0.4742787432
 30
0.0
 40
0.1377952756
 41
0.0
 71
     1
 72
     1
  1
AC254-050-A1
  7
SLDTEXTSTYLE0
 73
     1
 44
1.0
  0
MTEXT
  5
BB
330
A6
100
AcDbEntity
  8
0
  6
Continuous
 62
     0
370
     0
100
AcDbMText
 10
3.9277125001
 20
-0.4742787432
 30
0.0
 40
0.1377952756
 41
0.0
 71
     1
 72
     1
  1
BAF10-SF10
  7
SLDTEXTSTYLE0
 73
     1
 44
1.0
  0
MTEXT
  5
BC
330
A6
100
AcDbEntity
  8
0
  6
Continuous
 62
     0
370
     0
100
AcDbMText
 10
0.8088145975
 20
-0.691825772
 30
0.0
 40
0.1377952756
 41
0.0
 71
     1
 72
     1
  1
C
  7
SLDTEXTSTYLE0
 73
     1
 44
1.0
  0
MTEXT
  5
BD
330
A6
100
AcDbEntity
  8
0
  6
Continuous
 62
     0
370
     0
100
AcDbMText
 10
2.088079873
 20
-0.691825772
 30
0.0
 40
0.1377952756
 41
0.0
 71
     1
 72
     1
  1
LENS MOUNT
  7
SLDTEXTSTYLE0
 73
     1
 44
1.0
  0
MTEXT
  5
BE
330
A6
100
AcDbEntity
  8
0
  6
Continuous
 62
     0
370
     0
100
AcDbMText
 10
3.5937345782
 20
-0.6960533749
 30
0.0
 40
0.1354166667
 41
0.0
 71
     1
 72
     1
  1
6061-T6 ALUMINUM
  7
SLDTEXTSTYLE0
 73
     1
 44
1.0
  0
MTEXT
  5
BF
330
A6
100
AcDbEntity
  8
0
  6
Continuous
 62
     0
370
     0
100
AcDbMText
 10
0.8151302112
 20
-0.9093728007
 30
0.0
 40
0.1377952756
 41
0.0
 71
     1
 72
     1
  1
D
  7
SLDTEXTSTYLE0
 73
     1
 44
1.0
  0
MTEXT
  5
C0
330
A6
100
AcDbEntity
  8
0
  6
Continuous
 62
     0
370
     0
100
AcDbMText
 10
2.3577375412
 20
-0.9093728007
 30
0.0
 40
0.1377952756
 41
0.0
 71
     1
 72
     1
  1
SM1RR
  7
SLDTEXTSTYLE0
 73
     1
 44
1.0
  0
MTEXT
  5
C1
330
A6
100
AcDbEntity
  8
0
  6
Continuous
 62
     0
370
     0
100
AcDbMText
 10
3.5937345782
 20
-0.9136004036
 30
0.0
 40
0.1354166667
 41
0.0
 71
     1
 72
     1
  1
6061-T6 ALUMINUM
  7
SLDTEXTSTYLE0
 73
     1
 44
1.0
  0
ENDBLK
  5
A8
330
A6
100
AcDbEntity
  8
0
100
AcDbBlockEnd
  0
BLOCK
  5
D8
330
D7
100
AcDbEntity
  8
0
100
AcDbBlockBegin
  2
*D7
 70
     1
 71
     0
 10
0.0
 20
0.0
 30
0.0
  3
*D7
  1

  0
SOLID
  5
DA
330
D7
100
AcDbEntity
  8
0
  6
Continuous
 62
     7
370
     0
100
AcDbTrace
 10
2.815848367
 20
4.885326468
 30
0.0
 11
2.8973282142
 21
5.020873635
 31
0.0
 12
2.8489626547
 22
5.0399726575
 32
0.0
 13
2.8489626547
 23
5.0399726575
 33
0.0
  0
LINE
  5
DB
330
D7
100
AcDbEntity
  8
0
  6
Continuous
 62
     7
370
     0
100
AcDbLine
 10
3.3510599557
 20
5.4744873208
 30
0.0
 11
3.3510599557
 21
5.3338444025
 31
0.0
  0
LINE
  5
DC
330
D7
100
AcDbEntity
  8
0
  6
Continuous
 62
     7
370
     0
100
AcDbLine
 10
3.3510599557
 20
5.3338444025
 30
0.0
 11
3.372161123
 21
5.3338444025
 31
0.0
  0
LINE
  5
DD
330
D7
100
AcDbEntity
  8
0
  6
Continuous
 62
     7
370
     0
100
AcDbLine
 10
3.3510599557
 20
5.4744873208
 30
0.0
 11
3.372161123
 21
5.4744873208
 31
0.0
  0
LINE
  5
DE
330
D7
100
AcDbEntity
  8
0
  6
Continuous
 62
     7
370
     0
100
AcDbLine
 10
3.7816692942
 20
5.4744873208
 30
0.0
 11
3.7816692942
 21
5.3338444025
 31
0.0
  0
LINE
  5
DF
330
D7
100
AcDbEntity
  8
0
  6
Continuous
 62
     7
370
     0
100
AcDbLine
 10
3.7816692942
 20
5.3338444025
 30
0.0
 11
3.7605681269
 21
5.3338444025
 31
0.0
  0
LINE
  5
E0
330
D7
100
AcDbEntity
  8
0
  6
Continuous
 62
     7
370
     0
100
AcDbLine
 10
3.7816692942
 20
5.4744873208
 30
0.0
 11
3.7605681269
 21
5.4744873208
 31
0.0
  0
LINE
  5
E1
330
D7
100
AcDbEntity
  8
0
  6
Continuous
 62
     7
370
     0
100
AcDbLine
 10
2.815848367
 20
4.885326468
 30
0.0
 11
2.9880626794
 21
5.3214347332
 31
0.0
  0
LINE
  5
E2
330
D7
100
AcDbEntity
  8
0
  6
Continuous
 62
     7
370
     0
100
AcDbLine
 10
2.9880626794
 20
5.3214347332
 30
0.0
 11
3.2380626794
 21
5.3214347332
 31
0.0
  0
MTEXT
  5
E3
330
D7
100
AcDbEntity
  8
0
  6
Continuous
 62
     7
370
     0
100
AcDbMText
 10
3.3572957144
 20
5.2890291148
 30
0.0
 40
0.1041666667
 41
0.0
 71
     1
 72
     1
  1
%%c
  7
SLDTEXTSTYLE0
 73
     1
 44
1.0
  0
MTEXT
  5
E4
330
D7
100
AcDbEntity
  8
0
  6
Continuous
 62
     7
370
     0
100
AcDbMText
 10
3.5062117456
 20
5.2890291148
 30
0.0
 40
0.1041666667
 41
0.0
 71
     1
 72
     1
  1
1.20
  7
SLDTEXTSTYLE0
 73
     1
 44
1.0
  0
MTEXT
  5
E5
330
D7
100
AcDbEntity
  8
0
  6
Continuous
 62
     7
370
     0
100
AcDbMText
 10
3.3932622903
 20
5.4544913716
 30
0.0
 40
0.1041666667
 41
0.0
 71
     1
 72
     1
  1
30.48
  7
SLDTEXTSTYLE0
 73
     1
 44
1.0
  0
ENDBLK
  5
D9
330
D7
100
AcDbEntity
  8
0
100
AcDbBlockEnd
  0
BLOCK
  5
3C8
330
3C7
100
AcDbEntity
  8
0
100
AcDbBlockBegin
  2
*D8
 70
     1
 71
     0
 10
0.0
 20
0.0
 30
0.0
  3
*D8
  1

  0
SOLID
  5
3CA
330
3C7
100
AcDbEntity
  8
0
  6
Continuous
 62
     7
370
     0
100
AcDbTrace
 10
9.4791951344
 20
2.8535215058
 30
0.0
 11
9.3231951344
 21
2.8795215058
 31
0.0
 12
9.3231951344
 22
2.8275215058
 32
0.0
 13
9.3231951344
 23
2.8275215058
 33
0.0
  0
SOLID
  5
3CB
330
3C7
100
AcDbEntity
  8
0
  6
Continuous
 62
     7
370
     0
100
AcDbTrace
 10
7.9296534415
 20
2.8535215058
 30
0.0
 11
8.0856534415
 21
2.8275215058
 31
0.0
 12
8.0856534415
 22
2.8795215058
 32
0.0
 13
8.0856534415
 23
2.8795215058
 33
0.0
  0
LINE
  5
3CC
330
3C7
100
AcDbEntity
  8
0
  6
Continuous
 62
     7
370
     0
100
AcDbLine
 10
8.5404437329
 20
3.0065740934
 30
0.0
 11
8.5404437329
 21
2.8659311751
 31
0.0
  0
LINE
  5
3CD
330
3C7
100
AcDbEntity
  8
0
  6
Continuous
 62
     7
370
     0
100
AcDbLine
 10
8.5404437329
 20
2.8659311751
 30
0.0
 11
8.5615449003
 21
2.8659311751
 31
0.0
  0
LINE
  5
3CE
330
3C7
100
AcDbEntity
  8
0
  6
Continuous
 62
     7
370
     0
100
AcDbLine
 10
8.5404437329
 20
3.0065740934
 30
0.0
 11
8.5615449003
 21
3.0065740934
 31
0.0
  0
LINE
  5
3CF
330
3C7
100
AcDbEntity
  8
0
  6
Continuous
 62
     7
370
     0
100
AcDbLine
 10
8.9710530715
 20
3.0065740934
 30
0.0
 11
8.9710530715
 21
2.8659311751
 31
0.0
  0
LINE
  5
3D0
330
3C7
100
AcDbEntity
  8
0
  6
Continuous
 62
     7
370
     0
100
AcDbLine
 10
8.9710530715
 20
2.8659311751
 30
0.0
 11
8.9499519042
 21
2.8659311751
 31
0.0
  0
LINE
  5
3D1
330
3C7
100
AcDbEntity
  8
0
  6
Continuous
 62
     7
370
     0
100
AcDbLine
 10
8.9710530715
 20
3.0065740934
 30
0.0
 11
8.9499519042
 21
3.0065740934
 31
0.0
  0
LINE
  5
3D2
330
3C7
100
AcDbEntity
  8
0
  6
Continuous
 62
     7
370
     0
100
AcDbLine
 10
9.4791951344
 20
4.2772623205
 30
0.0
 11
9.4791951344
 21
2.7285215058
 31
0.0
  0
LINE
  5
3D3
330
3C7
100
AcDbEntity
  8
0
  6
Continuous
 62
     7
370
     0
100
AcDbLine
 10
7.9296534415
 20
3.6872623205
 30
0.0
 11
7.9296534415
 21
2.7285215058
 31
0.0
  0
LINE
  5
3D4
330
3C7
100
AcDbEntity
  8
0
  6
Continuous
 62
     7
370
     0
100
AcDbLine
 10
9.4791951344
 20
2.8535215058
 30
0.0
 11
9.0968929547
 21
2.8535215058
 31
0.0
  0
LINE
  5
3D5
330
3C7
100
AcDbEntity
  8
0
  6
Continuous
 62
     7
370
     0
100
AcDbLine
 10
7.9296534415
 20
2.8535215058
 30
0.0
 11
8.4146038497
 21
2.8535215058
 31
0.0
  0
MTEXT
  5
3D6
330
3C7
100
AcDbEntity
  8
0
  6
Continuous
 62
     7
370
     0
100
AcDbMText
 10
8.6211375073
 20
2.8211158873
 30
0.0
 40
0.1041666667
 41
0.0
 71
     1
 72
     1
  1
1.55
  7
SLDTEXTSTYLE0
 73
     1
 44
1.0
  0
MTEXT
  5
3D7
330
3C7
100
AcDbEntity
  8
0
  6
Continuous
 62
     7
370
     0
100
AcDbMText
 10
8.5826460676
 20
2.9865781441
 30
0.0
 40
0.1041666667
 41
0.0
 71
     1
 72
     1
  1
39.36
  7
SLDTEXTSTYLE0
 73
     1
 44
1.0
  0
ENDBLK
  5
3C9
330
3C7
100
AcDbEntity
  8
0
100
AcDbBlockEnd
  0
BLOCK
  5
3DB
330
3DA
100
AcDbEntity
  8
0
100
AcDbBlockBegin
  2
*D9
 70
     1
 71
     0
 10
0.0
 20
0.0
 30
0.0
  3
*D9
  1

  0
SOLID
  5
3DD
330
3DA
100
AcDbEntity
  8
0
  6
Continuous
 62
     7
370
     0
100
AcDbTrace
 10
5.6290919848
 20
2.8535215058
 30
0.0
 11
5.7850919848
 21
2.8275215058
 31
0.0
 12
5.7850919848
 22
2.8795215058
 32
0.0
 13
5.7850919848
 23
2.8795215058
 33
0.0
  0
SOLID
  5
3DE
330
3DA
100
AcDbEntity
  8
0
  6
Continuous
 62
     7
370
     0
100
AcDbTrace
 10
6.2846534415
 20
2.8535215058
 30
0.0
 11
6.1286534415
 21
2.8795215058
 31
0.0
 12
6.1286534415
 22
2.8275215058
 32
0.0
 13
6.1286534415
 23
2.8275215058
 33
0.0
  0
LINE
  5
3DF
330
3DA
100
AcDbEntity
  8
0
  6
Continuous
 62
     7
370
     0
100
AcDbLine
 10
4.8378032563
 20
3.0065740934
 30
0.0
 11
4.8378032563
 21
2.8659311751
 31
0.0
  0
LINE
  5
3E0
330
3DA
100
AcDbEntity
  8
0
  6
Continuous
 62
     7
370
     0
100
AcDbLine
 10
4.8378032563
 20
2.8659311751
 30
0.0
 11
4.8589044236
 21
2.8659311751
 31
0.0
  0
LINE
  5
3E1
330
3DA
100
AcDbEntity
  8
0
  6
Continuous
 62
     7
370
     0
100
AcDbLine
 10
4.8378032563
 20
3.0065740934
 30
0.0
 11
4.8589044236
 21
3.0065740934
 31
0.0
  0
LINE
  5
3E2
330
3DA
100
AcDbEntity
  8
0
  6
Continuous
 62
     7
370
     0
100
AcDbLine
 10
5.2684125948
 20
3.0065740934
 30
0.0
 11
5.2684125948
 21
2.8659311751
 31
0.0
  0
LINE
  5
3E3
330
3DA
100
AcDbEntity
  8
0
  6
Continuous
 62
     7
370
     0
100
AcDbLine
 10
5.2684125948
 20
2.8659311751
 30
0.0
 11
5.2473114275
 21
2.8659311751
 31
0.0
  0
LINE
  5
3E4
330
3DA
100
AcDbEntity
  8
0
  6
Continuous
 62
     7
370
     0
100
AcDbLine
 10
5.2684125948
 20
3.0065740934
 30
0.0
 11
5.2473114275
 21
3.0065740934
 31
0.0
  0
LINE
  5
3E5
330
3DA
100
AcDbEntity
  8
0
  6
Continuous
 62
     7
370
     0
100
AcDbLine
 10
5.6290919848
 20
4.2772623205
 30
0.0
 11
5.6290919848
 21
2.7285215058
 31
0.0
  0
LINE
  5
3E6
330
3DA
100
AcDbEntity
  8
0
  6
Continuous
 62
     7
370
     0
100
AcDbLine
 10
6.2846534415
 20
3.6872623205
 30
0.0
 11
6.2846534415
 21
2.7285215058
 31
0.0
  0
LINE
  5
3E7
330
3DA
100
AcDbEntity
  8
0
  6
Continuous
 62
     7
370
     0
100
AcDbLine
 10
5.6290919848
 20
2.8535215058
 30
0.0
 11
5.3942524781
 21
2.8535215058
 31
0.0
  0
LINE
  5
3E8
330
3DA
100
AcDbEntity
  8
0
  6
Continuous
 62
     7
370
     0
100
AcDbLine
 10
6.2846534415
 20
2.8535215058
 30
0.0
 11
5.6290919848
 21
2.8535215058
 31
0.0
  0
MTEXT
  5
3E9
330
3DA
100
AcDbEntity
  8
0
  6
Continuous
 62
     7
370
     0
100
AcDbMText
 10
4.9184970306
 20
2.8211158873
 30
0.0
 40
0.1041666667
 41
0.0
 71
     1
 72
     1
  1
0.66
  7
SLDTEXTSTYLE0
 73
     1
 44
1.0
  0
MTEXT
  5
3EA
330
3DA
100
AcDbEntity
  8
0
  6
Continuous
 62
     7
370
     0
100
AcDbMText
 10
4.8800055909
 20
2.9865781441
 30
0.0
 40
0.1041666667
 41
0.0
 71
     1
 72
     1
  1
16.65
  7
SLDTEXTSTYLE0
 73
     1
 44
1.0
  0
ENDBLK
  5
3DC
330
3DA
100
AcDbEntity
  8
0
100
AcDbBlockEnd
  0
BLOCK
  5
3ED
330
3EC
100
AcDbEntity
  8
0
100
AcDbBlockBegin
  2
*D10
 70
     1
 71
     0
 10
0.0
 20
0.0
 30
0.0
  3
*D10
  1

  0
SOLID
  5
3EF
330
3EC
100
AcDbEntity
  8
0
  6
Continuous
 62
     7
370
     0
100
AcDbTrace
 10
5.6290919848
 20
5.2589852908
 30
0.0
 11
5.7850919848
 21
5.2329852908
 31
0.0
 12
5.7850919848
 22
5.2849852908
 32
0.0
 13
5.7850919848
 23
5.2849852908
 33
0.0
  0
SOLID
  5
3F0
330
3EC
100
AcDbEntity
  8
0
  6
Continuous
 62
     7
370
     0
100
AcDbTrace
 10
6.509988478
 20
5.2589852908
 30
0.0
 11
6.353988478
 21
5.2849852908
 31
0.0
 12
6.353988478
 22
5.2329852908
 32
0.0
 13
6.353988478
 23
5.2329852908
 33
0.0
  0
LINE
  5
3F1
330
3EC
100
AcDbEntity
  8
0
  6
Continuous
 62
     7
370
     0
100
AcDbLine
 10
4.8378032563
 20
5.4120378784
 30
0.0
 11
4.8378032563
 21
5.2713949601
 31
0.0
  0
LINE
  5
3F2
330
3EC
100
AcDbEntity
  8
0
  6
Continuous
 62
     7
370
     0
100
AcDbLine
 10
4.8378032563
 20
5.2713949601
 30
0.0
 11
4.8589044236
 21
5.2713949601
 31
0.0
  0
LINE
  5
3F3
330
3EC
100
AcDbEntity
  8
0
  6
Continuous
 62
     7
370
     0
100
AcDbLine
 10
4.8378032563
 20
5.4120378784
 30
0.0
 11
4.8589044236
 21
5.4120378784
 31
0.0
  0
LINE
  5
3F4
330
3EC
100
AcDbEntity
  8
0
  6
Continuous
 62
     7
370
     0
100
AcDbLine
 10
5.2684125948
 20
5.4120378784
 30
0.0
 11
5.2684125948
 21
5.2713949601
 31
0.0
  0
LINE
  5
3F5
330
3EC
100
AcDbEntity
  8
0
  6
Continuous
 62
     7
370
     0
100
AcDbLine
 10
5.2684125948
 20
5.2713949601
 30
0.0
 11
5.2473114275
 21
5.2713949601
 31
0.0
  0
LINE
  5
3F6
330
3EC
100
AcDbEntity
  8
0
  6
Continuous
 62
     7
370
     0
100
AcDbLine
 10
5.2684125948
 20
5.4120378784
 30
0.0
 11
5.2473114275
 21
5.4120378784
 31
0.0
  0
LINE
  5
3F7
330
3EC
100
AcDbEntity
  8
0
  6
Continuous
 62
     7
370
     0
100
AcDbLine
 10
5.6290919848
 20
4.3772623205
 30
0.0
 11
5.6290919848
 21
5.3839852908
 31
0.0
  0
LINE
  5
3F8
330
3EC
100
AcDbEntity
  8
0
  6
Continuous
 62
     7
370
     0
100
AcDbLine
 10
6.509988478
 20
4.3772623205
 30
0.0
 11
6.509988478
 21
5.3839852908
 31
0.0
  0
LINE
  5
3F9
330
3EC
100
AcDbEntity
  8
0
  6
Continuous
 62
     7
370
     0
100
AcDbLine
 10
5.6290919848
 20
5.2589852908
 30
0.0
 11
5.3942524781
 21
5.2589852908
 31
0.0
  0
LINE
  5
3FA
330
3EC
100
AcDbEntity
  8
0
  6
Continuous
 62
     7
370
     0
100
AcDbLine
 10
6.509988478
 20
5.2589852908
 30
0.0
 11
5.6290919848
 21
5.2589852908
 31
0.0
  0
MTEXT
  5
3FB
330
3EC
100
AcDbEntity
  8
0
  6
Continuous
 62
     7
370
     0
100
AcDbMText
 10
4.9184970306
 20
5.2265796724
 30
0.0
 40
0.1041666667
 41
0.0
 71
     1
 72
     1
  1
0.88
  7
SLDTEXTSTYLE0
 73
     1
 44
1.0
  0
MTEXT
  5
3FC
330
3EC
100
AcDbEntity
  8
0
  6
Continuous
 62
     7
370
     0
100
AcDbMText
 10
4.8800055909
 20
5.3920419292
 30
0.0
 40
0.1041666667
 41
0.0
 71
     1
 72
     1
  1
22.37
  7
SLDTEXTSTYLE0
 73
     1
 44
1.0
  0
ENDBLK
  5
3EE
330
3EC
100
AcDbEntity
  8
0
100
AcDbBlockEnd
  0
BLOCK
  5
3FF
330
3FE
100
AcDbEntity
  8
0
100
AcDbBlockBegin
  2
*D11
 70
     1
 71
     0
 10
0.0
 20
0.0
 30
0.0
  3
*D11
  1

  0
SOLID
  5
401
330
3FE
100
AcDbEntity
  8
0
  6
Continuous
 62
     7
370
     0
100
AcDbTrace
 10
9.4791951344
 20
5.2589852908
 30
0.0
 11
9.3231951344
 21
5.2849852908
 31
0.0
 12
9.3231951344
 22
5.2329852908
 32
0.0
 13
9.3231951344
 23
5.2329852908
 33
0.0
  0
SOLID
  5
402
330
3FE
100
AcDbEntity
  8
0
  6
Continuous
 62
     7
370
     0
100
AcDbTrace
 10
7.7296482534
 20
5.2589852908
 30
0.0
 11
7.8856482534
 21
5.2329852908
 31
0.0
 12
7.8856482534
 22
5.2849852908
 32
0.0
 13
7.8856482534
 23
5.2849852908
 33
0.0
  0
LINE
  5
403
330
3FE
100
AcDbEntity
  8
0
  6
Continuous
 62
     7
370
     0
100
AcDbLine
 10
8.5404437329
 20
5.4120378784
 30
0.0
 11
8.5404437329
 21
5.2713949601
 31
0.0
  0
LINE
  5
404
330
3FE
100
AcDbEntity
  8
0
  6
Continuous
 62
     7
370
     0
100
AcDbLine
 10
8.5404437329
 20
5.2713949601
 30
0.0
 11
8.5615449003
 21
5.2713949601
 31
0.0
  0
LINE
  5
405
330
3FE
100
AcDbEntity
  8
0
  6
Continuous
 62
     7
370
     0
100
AcDbLine
 10
8.5404437329
 20
5.4120378784
 30
0.0
 11
8.5615449003
 21
5.4120378784
 31
0.0
  0
LINE
  5
406
330
3FE
100
AcDbEntity
  8
0
  6
Continuous
 62
     7
370
     0
100
AcDbLine
 10
8.9710530715
 20
5.4120378784
 30
0.0
 11
8.9710530715
 21
5.2713949601
 31
0.0
  0
LINE
  5
407
330
3FE
100
AcDbEntity
  8
0
  6
Continuous
 62
     7
370
     0
100
AcDbLine
 10
8.9710530715
 20
5.2713949601
 30
0.0
 11
8.9499519042
 21
5.2713949601
 31
0.0
  0
LINE
  5
408
330
3FE
100
AcDbEntity
  8
0
  6
Continuous
 62
     7
370
     0
100
AcDbLine
 10
8.9710530715
 20
5.4120378784
 30
0.0
 11
8.9499519042
 21
5.4120378784
 31
0.0
  0
LINE
  5
409
330
3FE
100
AcDbEntity
  8
0
  6
Continuous
 62
     7
370
     0
100
AcDbLine
 10
9.4791951344
 20
4.3772623205
 30
0.0
 11
9.4791951344
 21
5.3839852908
 31
0.0
  0
LINE
  5
40A
330
3FE
100
AcDbEntity
  8
0
  6
Continuous
 62
     7
370
     0
100
AcDbLine
 10
7.7296482534
 20
4.3772623205
 30
0.0
 11
7.7296482534
 21
5.3839852908
 31
0.0
  0
LINE
  5
40B
330
3FE
100
AcDbEntity
  8
0
  6
Continuous
 62
     7
370
     0
100
AcDbLine
 10
9.4791951344
 20
5.2589852908
 30
0.0
 11
9.0968929547
 21
5.2589852908
 31
0.0
  0
LINE
  5
40C
330
3FE
100
AcDbEntity
  8
0
  6
Continuous
 62
     7
370
     0
100
AcDbLine
 10
7.7296482534
 20
5.2589852908
 30
0.0
 11
8.4146038497
 21
5.2589852908
 31
0.0
  0
MTEXT
  5
40D
330
3FE
100
AcDbEntity
  8
0
  6
Continuous
 62
     7
370
     0
100
AcDbMText
 10
8.6211375073
 20
5.2265796724
 30
0.0
 40
0.1041666667
 41
0.0
 71
     1
 72
     1
  1
1.75
  7
SLDTEXTSTYLE0
 73
     1
 44
1.0
  0
MTEXT
  5
40E
330
3FE
100
AcDbEntity
  8
0
  6
Continuous
 62
     7
370
     0
100
AcDbMText
 10
8.5826460676
 20
5.3920419292
 30
0.0
 40
0.1041666667
 41
0.0
 71
     1
 72
     1
  1
44.44
  7
SLDTEXTSTYLE0
 73
     1
 44
1.0
  0
ENDBLK
  5
400
330
3FE
100
AcDbEntity
  8
0
100
AcDbBlockEnd
  0
BLOCK
  5
412
330
411
100
AcDbEntity
  8
0
100
AcDbBlockBegin
  2
*D12
 70
     1
 71
     0
 10
0.0
 20
0.0
 30
0.0
  3
*D12
  1

  0
SOLID
  5
414
330
411
100
AcDbEntity
  8
0
  6
Continuous
 62
     7
370
     0
100
AcDbTrace
 10
6.2846534415
 20
2.5115049873
 30
0.0
 11
6.4406534415
 21
2.4855049873
 31
0.0
 12
6.4406534415
 22
2.5375049873
 32
0.0
 13
6.4406534415
 23
2.5375049873
 33
0.0
  0
SOLID
  5
415
330
411
100
AcDbEntity
  8
0
  6
Continuous
 62
     7
370
     0
100
AcDbTrace
 10
7.9296534415
 20
2.5115049873
 30
0.0
 11
7.7736534415
 21
2.5375049873
 31
0.0
 12
7.7736534415
 22
2.4855049873
 32
0.0
 13
7.7736534415
 23
2.4855049873
 33
0.0
  0
LINE
  5
416
330
411
100
AcDbEntity
  8
0
  6
Continuous
 62
     7
370
     0
100
AcDbLine
 10
6.8918487722
 20
2.6645575748
 30
0.0
 11
6.8918487722
 21
2.5239146566
 31
0.0
  0
LINE
  5
417
330
411
100
AcDbEntity
  8
0
  6
Continuous
 62
     7
370
     0
100
AcDbLine
 10
6.8918487722
 20
2.5239146566
 30
0.0
 11
6.9129499395
 21
2.5239146566
 31
0.0
  0
LINE
  5
418
330
411
100
AcDbEntity
  8
0
  6
Continuous
 62
     7
370
     0
100
AcDbLine
 10
6.8918487722
 20
2.6645575748
 30
0.0
 11
6.9129499395
 21
2.6645575748
 31
0.0
  0
LINE
  5
419
330
411
100
AcDbEntity
  8
0
  6
Continuous
 62
     7
370
     0
100
AcDbLine
 10
7.3224581107
 20
2.6645575748
 30
0.0
 11
7.3224581107
 21
2.5239146566
 31
0.0
  0
LINE
  5
41A
330
411
100
AcDbEntity
  8
0
  6
Continuous
 62
     7
370
     0
100
AcDbLine
 10
7.3224581107
 20
2.5239146566
 30
0.0
 11
7.3013569434
 21
2.5239146566
 31
0.0
  0
LINE
  5
41B
330
411
100
AcDbEntity
  8
0
  6
Continuous
 62
     7
370
     0
100
AcDbLine
 10
7.3224581107
 20
2.6645575748
 30
0.0
 11
7.3013569434
 21
2.6645575748
 31
0.0
  0
LINE
  5
41C
330
411
100
AcDbEntity
  8
0
  6
Continuous
 62
     7
370
     0
100
AcDbLine
 10
6.2846534415
 20
3.6872623205
 30
0.0
 11
6.2846534415
 21
2.3865049873
 31
0.0
  0
LINE
  5
41D
330
411
100
AcDbEntity
  8
0
  6
Continuous
 62
     7
370
     0
100
AcDbLine
 10
7.9296534415
 20
3.6872623205
 30
0.0
 11
7.9296534415
 21
2.3865049873
 31
0.0
  0
LINE
  5
41E
330
411
100
AcDbEntity
  8
0
  6
Continuous
 62
     7
370
     0
100
AcDbLine
 10
6.2846534415
 20
2.5115049873
 30
0.0
 11
6.7660088889
 21
2.5115049873
 31
0.0
  0
LINE
  5
41F
330
411
100
AcDbEntity
  8
0
  6
Continuous
 62
     7
370
     0
100
AcDbLine
 10
7.9296534415
 20
2.5115049873
 30
0.0
 11
7.448297994
 21
2.5115049873
 31
0.0
  0
MTEXT
  5
420
330
411
100
AcDbEntity
  8
0
  6
Continuous
 62
     7
370
     0
100
AcDbMText
 10
6.9340511068
 20
2.4790993688
 30
0.0
 40
0.1041666667
 41
0.0
 71
     1
 72
     1
  1
1.645
  7
SLDTEXTSTYLE0
 73
     1
 44
1.0
  0
MTEXT
  5
421
330
411
100
AcDbEntity
  8
0
  6
Continuous
 62
     7
370
     0
100
AcDbMText
 10
6.9340511068
 20
2.6445616256
 30
0.0
 40
0.1041666667
 41
0.0
 71
     1
 72
     1
  1
41.78
  7
SLDTEXTSTYLE0
 73
     1
 44
1.0
  0
ENDBLK
  5
413
330
411
100
AcDbEntity
  8
0
100
AcDbBlockEnd
  0
BLOCK
  5
424
330
423
100
AcDbEntity
  8
0
100
AcDbBlockBegin
  2
*D13
 70
     1
 71
     0
 10
0.0
 20
0.0
 30
0.0
  3
*D13
  1

  0
SOLID
  5
426
330
423
100
AcDbEntity
  8
0
  6
Continuous
 62
     7
370
     0
100
AcDbTrace
 10
7.1784671511
 20
3.3779309446
 30
0.0
 11
7.3344671511
 21
3.3519309446
 31
0.0
 12
7.3344671511
 22
3.4039309446
 32
0.0
 13
7.3344671511
 23
3.4039309446
 33
0.0
  0
SOLID
  5
427
330
423
100
AcDbEntity
  8
0
  6
Continuous
 62
     7
370
     0
100
AcDbTrace
 10
6.9627443835
 20
3.3779309446
 30
0.0
 11
6.8067443835
 21
3.4039309446
 31
0.0
 12
6.8067443835
 22
3.3519309446
 32
0.0
 13
6.8067443835
 23
3.3519309446
 33
0.0
  0
LINE
  5
428
330
423
100
AcDbEntity
  8
0
  6
Continuous
 62
     7
370
     0
100
AcDbLine
 10
6.3067336591
 20
3.5309835321
 30
0.0
 11
6.3067336591
 21
3.3903406138
 31
0.0
  0
LINE
  5
429
330
423
100
AcDbEntity
  8
0
  6
Continuous
 62
     7
370
     0
100
AcDbLine
 10
6.3067336591
 20
3.3903406138
 30
0.0
 11
6.3278348264
 21
3.3903406138
 31
0.0
  0
LINE
  5
42A
330
423
100
AcDbEntity
  8
0
  6
Continuous
 62
     7
370
     0
100
AcDbLine
 10
6.3067336591
 20
3.5309835321
 30
0.0
 11
6.3278348264
 21
3.5309835321
 31
0.0
  0
LINE
  5
42B
330
423
100
AcDbEntity
  8
0
  6
Continuous
 62
     7
370
     0
100
AcDbLine
 10
6.6603601182
 20
3.5309835321
 30
0.0
 11
6.6603601182
 21
3.3903406138
 31
0.0
  0
LINE
  5
42C
330
423
100
AcDbEntity
  8
0
  6
Continuous
 62
     7
370
     0
100
AcDbLine
 10
6.6603601182
 20
3.3903406138
 30
0.0
 11
6.6392589509
 21
3.3903406138
 31
0.0
  0
LINE
  5
42D
330
423
100
AcDbEntity
  8
0
  6
Continuous
 62
     7
370
     0
100
AcDbLine
 10
6.6603601182
 20
3.5309835321
 30
0.0
 11
6.6392589509
 21
3.5309835321
 31
0.0
  0
LINE
  5
42E
330
423
100
AcDbEntity
  8
0
  6
Continuous
 62
     7
370
     0
100
AcDbLine
 10
7.1784671511
 20
4.2772623205
 30
0.0
 11
7.1784671511
 21
3.2529309446
 31
0.0
  0
LINE
  5
42F
330
423
100
AcDbEntity
  8
0
  6
Continuous
 62
     7
370
     0
100
AcDbLine
 10
6.9627443835
 20
4.2772623205
 30
0.0
 11
6.9627443835
 21
3.2529309446
 31
0.0
  0
LINE
  5
430
330
423
100
AcDbEntity
  8
0
  6
Continuous
 62
     7
370
     0
100
AcDbLine
 10
7.1784671511
 20
3.3779309446
 30
0.0
 11
7.6784671511
 21
3.3779309446
 31
0.0
  0
LINE
  5
431
330
423
100
AcDbEntity
  8
0
  6
Continuous
 62
     7
370
     0
100
AcDbLine
 10
6.9627443835
 20
3.3779309446
 30
0.0
 11
6.7862000015
 21
3.3779309446
 31
0.0
  0
MTEXT
  5
432
330
423
100
AcDbEntity
  8
0
  6
Continuous
 62
     7
370
     0
100
AcDbMText
 10
6.3489359937
 20
3.3455253261
 30
0.0
 40
0.1041666667
 41
0.0
 71
     1
 72
     1
  1
0.22
  7
SLDTEXTSTYLE0
 73
     1
 44
1.0
  0
MTEXT
  5
433
330
423
100
AcDbEntity
  8
0
  6
Continuous
 62
     7
370
     0
100
AcDbMText
 10
6.3489359937
 20
3.5109875829
 30
0.0
 40
0.1041666667
 41
0.0
 71
     1
 72
     1
  1
5.48
  7
SLDTEXTSTYLE0
 73
     1
 44
1.0
  0
ENDBLK
  5
425
330
423
100
AcDbEntity
  8
0
100
AcDbBlockEnd
  0
BLOCK
  5
436
330
435
100
AcDbEntity
  8
0
100
AcDbBlockBegin
  2
*D14
 70
     1
 71
     0
 10
0.0
 20
0.0
 30
0.0
  3
*D14
  1

  0
SOLID
  5
438
330
435
100
AcDbEntity
  8
0
  6
Continuous
 62
     7
370
     0
100
AcDbTrace
 10
6.509988478
 20
5.6705787089
 30
0.0
 11
6.665988478
 21
5.6445787089
 31
0.0
 12
6.665988478
 22
5.6965787089
 32
0.0
 13
6.665988478
 23
5.6965787089
 33
0.0
  0
SOLID
  5
439
330
435
100
AcDbEntity
  8
0
  6
Continuous
 62
     7
370
     0
100
AcDbTrace
 10
7.7296482534
 20
5.6705787089
 30
0.0
 11
7.5736482534
 21
5.6965787089
 31
0.0
 12
7.5736482534
 22
5.6445787089
 32
0.0
 13
7.5736482534
 23
5.6445787089
 33
0.0
  0
LINE
  5
43A
330
435
100
AcDbEntity
  8
0
  6
Continuous
 62
     7
370
     0
100
AcDbLine
 10
6.8918487722
 20
5.8236312965
 30
0.0
 11
6.8918487722
 21
5.6829883782
 31
0.0
  0
LINE
  5
43B
330
435
100
AcDbEntity
  8
0
  6
Continuous
 62
     7
370
     0
100
AcDbLine
 10
6.8918487722
 20
5.6829883782
 30
0.0
 11
6.9129499395
 21
5.6829883782
 31
0.0
  0
LINE
  5
43C
330
435
100
AcDbEntity
  8
0
  6
Continuous
 62
     7
370
     0
100
AcDbLine
 10
6.8918487722
 20
5.8236312965
 30
0.0
 11
6.9129499395
 21
5.8236312965
 31
0.0
  0
LINE
  5
43D
330
435
100
AcDbEntity
  8
0
  6
Continuous
 62
     7
370
     0
100
AcDbLine
 10
7.3224581107
 20
5.8236312965
 30
0.0
 11
7.3224581107
 21
5.6829883782
 31
0.0
  0
LINE
  5
43E
330
435
100
AcDbEntity
  8
0
  6
Continuous
 62
     7
370
     0
100
AcDbLine
 10
7.3224581107
 20
5.6829883782
 30
0.0
 11
7.3013569434
 21
5.6829883782
 31
0.0
  0
LINE
  5
43F
330
435
100
AcDbEntity
  8
0
  6
Continuous
 62
     7
370
     0
100
AcDbLine
 10
7.3224581107
 20
5.8236312965
 30
0.0
 11
7.3013569434
 21
5.8236312965
 31
0.0
  0
LINE
  5
440
330
435
100
AcDbEntity
  8
0
  6
Continuous
 62
     7
370
     0
100
AcDbLine
 10
6.509988478
 20
4.3772623205
 30
0.0
 11
6.509988478
 21
5.7955787089
 31
0.0
  0
LINE
  5
441
330
435
100
AcDbEntity
  8
0
  6
Continuous
 62
     7
370
     0
100
AcDbLine
 10
7.7296482534
 20
4.3772623205
 30
0.0
 11
7.7296482534
 21
5.7955787089
 31
0.0
  0
LINE
  5
442
330
435
100
AcDbEntity
  8
0
  6
Continuous
 62
     7
370
     0
100
AcDbLine
 10
6.509988478
 20
5.6705787089
 30
0.0
 11
6.7660088889
 21
5.6705787089
 31
0.0
  0
LINE
  5
443
330
435
100
AcDbEntity
  8
0
  6
Continuous
 62
     7
370
     0
100
AcDbLine
 10
7.7296482534
 20
5.6705787089
 30
0.0
 11
7.448297994
 21
5.6705787089
 31
0.0
  0
MTEXT
  5
444
330
435
100
AcDbEntity
  8
0
  6
Continuous
 62
     7
370
     0
100
AcDbMText
 10
6.9725425465
 20
5.6381730904
 30
0.0
 40
0.1041666667
 41
0.0
 71
     1
 72
     1
  1
1.22
  7
SLDTEXTSTYLE0
 73
     1
 44
1.0
  0
MTEXT
  5
445
330
435
100
AcDbEntity
  8
0
  6
Continuous
 62
     7
370
     0
100
AcDbMText
 10
6.9340511068
 20
5.8036353472
 30
0.0
 40
0.1041666667
 41
0.0
 71
     1
 72
     1
  1
30.98
  7
SLDTEXTSTYLE0
 73
     1
 44
1.0
  0
ENDBLK
  5
437
330
435
100
AcDbEntity
  8
0
100
AcDbBlockEnd
  0
BLOCK
  5
447
330
446
100
AcDbEntity
  8
0
100
AcDbBlockBegin
  2
SW_NOTE_5
 70
     0
 71
     0
 10
0.0
 20
0.0
 30
0.0
  3
SW_NOTE_5
  1

  0
MTEXT
  5
44A
330
446
100
AcDbEntity
  8
0
  6
Continuous
 62
     0
370
     0
100
AcDbMText
 10
0.0
 20
0.1596679688
 30
0.0
 40
0.125
 41
0.0
 71
     1
 72
     1
  1
SECTION A-A 
  7
SLDTEXTSTYLE17
 73
     1
 44
1.0
  0
MTEXT
  5
44C
330
446
100
AcDbEntity
  8
0
  6
Continuous
 62
     0
370
     0
100
AcDbMText
 10
0.1009259241
 20
-0.0069986959
 30
0.0
 40
0.125
 41
0.0
 71
     1
 72
     1
  1
SCALE 1 : 1
  7
SLDTEXTSTYLE18
 73
     1
 44
1.0
  0
ENDBLK
  5
448
330
446
100
AcDbEntity
  8
0
100
AcDbBlockEnd
  0
BLOCK
  5
44F
330
44E
100
AcDbEntity
  8
0
100
AcDbBlockBegin
  2
SW_NOTE_6
 70
     0
 71
     0
 10
0.0
 20
0.0
 30
0.0
  3
SW_NOTE_6
  1

  0
MTEXT
  5
452
330
44E
100
AcDbEntity
  8
0
  6
Continuous
 62
     0
370
     0
100
AcDbMText
 10
0.0196969575
 20
0.0370127487
 30
0.0
 40
0.09
 41
0.0
 71
     1
 72
     1
  1
INTERNAL  SM1 THREAD
  7
SLDTEXTSTYLE19
 73
     1
 44
1.0
  0
MTEXT
  5
453
330
44E
100
AcDbEntity
  8
0
  6
Continuous
 62
     0
370
     0
100
AcDbMText
 10
0.4002594695
 20
-0.0923573343
 30
0.0
 40
0.09
 41
0.0
 71
     1
 72
     1
  1
(1.035-40)
  7
SLDTEXTSTYLE0
 73
     1
 44
1.0
  0
ENDBLK
  5
450
330
44E
100
AcDbEntity
  8
0
100
AcDbBlockEnd
  0
BLOCK
  5
459
330
458
100
AcDbEntity
  8
0
100
AcDbBlockBegin
  2
SW_NOTE_7
 70
     0
 71
     0
 10
0.0
 20
0.0
 30
0.0
  3
SW_NOTE_7
  1

  0
CIRCLE
  5
45B
330
458
100
AcDbEntity
  8
0
  6
Continuous
 62
     0
370
     0
100
AcDbCircle
 10
-0.1951044477
 20
0.0267879874
 30
0.0
 40
0.196934866881202
  0
MTEXT
  5
45C
330
458
100
AcDbEntity
  8
0
  6
Continuous
 62
     0
370
     0
100
AcDbMText
 10
-0.263045172
 20
0.0976478976
 30
0.0
 40
0.1377952756
 41
0.0
 71
     1
 72
     1
  1
A
  7
SLDTEXTSTYLE0
 73
     1
 44
1.0
  0
ENDBLK
  5
45A
330
458
100
AcDbEntity
  8
0
100
AcDbBlockEnd
  0
BLOCK
  5
460
330
45F
100
AcDbEntity
  8
0
100
AcDbBlockBegin
  2
SW_NOTE_8
 70
     0
 71
     0
 10
0.0
 20
0.0
 30
0.0
  3
SW_NOTE_8
  1

  0
CIRCLE
  5
462
330
45F
100
AcDbEntity
  8
0
  6
Continuous
 62
     0
370
     0
100
AcDbCircle
 10
0.196088905
 20
0.0182341197
 30
0.0
 40
0.196934866881202
  0
MTEXT
  5
463
330
45F
100
AcDbEntity
  8
0
  6
Continuous
 62
     0
370
     0
100
AcDbMText
 10
0.143363072
 20
0.0890940299
 30
0.0
 40
0.1377952756
 41
0.0
 71
     1
 72
     1
  1
B
  7
SLDTEXTSTYLE0
 73
     1
 44
1.0
  0
ENDBLK
  5
461
330
45F
100
AcDbEntity
  8
0
100
AcDbBlockEnd
  0
BLOCK
  5
467
330
466
100
AcDbEntity
  8
0
100
AcDbBlockBegin
  2
SW_NOTE_9
 70
     0
 71
     0
 10
0.0
 20
0.0
 30
0.0
  3
SW_NOTE_9
  1

  0
CIRCLE
  5
469
330
466
100
AcDbEntity
  8
0
  6
Continuous
 62
     0
370
     0
100
AcDbCircle
 10
0.1969113743
 20
-0.0030417858
 30
0.0
 40
0.1969348668812025
  0
MTEXT
  5
46A
330
466
100
AcDbEntity
  8
0
  6
Continuous
 62
     0
370
     0
100
AcDbMText
 10
0.1222722682
 20
0.0678181244
 30
0.0
 40
0.1377952756
 41
0.0
 71
     1
 72
     1
  1
C
  7
SLDTEXTSTYLE0
 73
     1
 44
1.0
  0
ENDBLK
  5
468
330
466
100
AcDbEntity
  8
0
100
AcDbBlockEnd
  0
BLOCK
  5
46E
330
46D
100
AcDbEntity
  8
0
100
AcDbBlockBegin
  2
SW_NOTE_10
 70
     0
 71
     0
 10
0.0
 20
0.0
 30
0.0
  3
SW_NOTE_10
  1

  0
CIRCLE
  5
470
330
46D
100
AcDbEntity
  8
0
  6
Continuous
 62
     0
370
     0
100
AcDbCircle
 10
0.1959818237
 20
0.0193511389
 30
0.0
 40
0.1969348668812025
  0
MTEXT
  5
471
330
46D
100
AcDbEntity
  8
0
  6
Continuous
 62
     0
370
     0
100
AcDbMText
 10
0.1276583313
 20
0.0902110491
 30
0.0
 40
0.1377952756
 41
0.0
 71
     1
 72
     1
  1
D
  7
SLDTEXTSTYLE0
 73
     1
 44
1.0
  0
ENDBLK
  5
46F
330
46D
100
AcDbEntity
  8
0
100
AcDbBlockEnd
  0
BLOCK
  5
475
330
474
100
AcDbEntity
  8
0
100
AcDbBlockBegin
  2
SW_NOTE_11
 70
     0
 71
     0
 10
0.0
 20
0.0
 30
0.0
  3
SW_NOTE_11
  1

  0
CIRCLE
  5
477
330
474
100
AcDbEntity
  8
0
  6
Continuous
 62
     0
370
     0
100
AcDbCircle
 10
-0.1941453632
 20
0.0330290741
 30
0.0
 40
0.1969348668812025
  0
MTEXT
  5
478
330
474
100
AcDbEntity
  8
0
  6
Continuous
 62
     0
370
     0
100
AcDbMText
 10
-0.2624688556
 20
0.1038889843
 30
0.0
 40
0.1377952756
 41
0.0
 71
     1
 72
     1
  1
D
  7
SLDTEXTSTYLE0
 73
     1
 44
1.0
  0
ENDBLK
  5
476
330
474
100
AcDbEntity
  8
0
100
AcDbBlockEnd
  0
ENDSEC
  0
SECTION
  2
ENTITIES
  0
LINE
  5
30
330
1F
100
AcDbEntity
  8
0
  6
Continuous
 62
     7
370
     0
100
AcDbLine
 10
0.329927
 20
8.1920731707
 30
0.0
 11
10.629927
 21
8.1920731707
 31
0.0
  0
LINE
  5
31
330
1F
100
AcDbEntity
  8
0
  6
Continuous
 62
     7
370
     0
100
AcDbLine
 10
0.329927
 20
8.1920731707
 30
0.0
 11
0.329927
 21
0.3920731707
 31
0.0
  0
LINE
  5
32
330
1F
100
AcDbEntity
  8
0
  6
Continuous
 62
     7
370
     0
100
AcDbLine
 10
10.629927
 20
0.3920731707
 30
0.0
 11
0.329927
 21
0.3920731707
 31
0.0
  0
LINE
  5
33
330
1F
100
AcDbEntity
  8
0
  6
Continuous
 62
     7
370
     0
100
AcDbLine
 10
10.629927
 20
0.3920731707
 30
0.0
 11
10.629927
 21
8.1920731707
 31
0.0
  0
LINE
  5
34
330
1F
100
AcDbEntity
  8
0
  6
Continuous
 62
     7
370
     0
100
AcDbLine
 10
7.8832069922
 20
1.2010186622
 30
0.0
 11
6.3491817542
 21
1.2010186622
 31
0.0
  0
LINE
  5
35
330
1F
100
AcDbEntity
  8
0
  6
Continuous
 62
     7
370
     0
100
AcDbLine
 10
6.3491817542
 20
0.3920731707
 30
0.0
 11
6.3491817542
 21
1.6988536355
 31
0.0
  0
LINE
  5
36
330
1F
100
AcDbEntity
  8
0
  6
Continuous
 62
     7
370
     0
100
AcDbLine
 10
7.8832069922
 20
1.270166923
 30
0.0
 11
10.629927
 21
1.270166923
 31
0.0
  0
LINE
  5
37
330
1F
100
AcDbEntity
  8
0
  6
Continuous
 62
     7
370
     0
100
AcDbLine
 10
7.8832069922
 20
1.9437769943
 30
0.0
 11
7.8832069922
 21
0.3920731707
 31
0.0
  0
LINE
  5
38
330
1F
100
AcDbEntity
  8
0
  6
Continuous
 62
     7
370
     0
100
AcDbLine
 10
7.8832069922
 20
1.323339557
 30
0.0
 11
6.3491817542
 21
1.323339557
 31
0.0
  0
LINE
  5
39
330
1F
100
AcDbEntity
  8
0
  6
Continuous
 62
     7
370
     0
100
AcDbLine
 10
7.8832069922
 20
1.6988536355
 30
0.0
 11
6.3491817542
 21
1.6988536355
 31
0.0
  0
LINE
  5
3A
330
1F
100
AcDbEntity
  8
0
  6
Continuous
 62
     7
370
     0
100
AcDbLine
 10
7.8832069922
 20
0.7890359178
 30
0.0
 11
10.629927
 21
0.7890359178
 31
0.0
  0
LINE
  5
3B
330
1F
100
AcDbEntity
  8
0
  6
Continuous
 62
     7
370
     0
100
AcDbLine
 10
7.8832069922
 20
1.4456604517
 30
0.0
 11
6.3491817542
 21
1.4456604517
 31
0.0
  0
LINE
  5
3C
330
1F
100
AcDbEntity
  8
0
  6
Continuous
 62
     7
370
     0
100
AcDbLine
 10
7.8832069922
 20
1.5679813464
 30
0.0
 11
6.3491817542
 21
1.5679813464
 31
0.0
  0
LINE
  5
3D
330
1F
100
AcDbEntity
  8
0
  6
Continuous
 62
     7
370
     0
100
AcDbLine
 10
6.9294188505
 20
1.6988536355
 30
0.0
 11
6.9294188505
 21
1.2010186622
 31
0.0
  0
LINE
  5
3E
330
1F
100
AcDbEntity
  8
0
  6
Continuous
 62
     7
370
     0
100
AcDbLine
 10
7.2989435727
 20
1.6988536355
 30
0.0
 11
7.2989435727
 21
1.2010186622
 31
0.0
  0
LINE
  5
3F
330
1F
100
AcDbEntity
  8
0
  6
Continuous
 62
     7
370
     0
100
AcDbLine
 10
8.9000563418
 20
0.7890359178
 30
0.0
 11
8.9000563418
 21
0.3920731707
 31
0.0
  0
LINE
  5
40
330
1F
100
AcDbEntity
  8
0
  6
Continuous
 62
     7
370
     0
100
AcDbLine
 10
9.3113942988
 20
0.96139916
 30
0.0
 11
9.3113942988
 21
0.7890359178
 31
0.0
  0
LINE
  5
41
330
1F
100
AcDbEntity
  8
0
  6
Continuous
 62
     7
370
     0
100
AcDbLine
 10
10.0324602448
 20
1.270166923
 30
0.0
 11
10.0324602448
 21
0.96139916
 31
0.0
  0
LINE
  5
42
330
1F
100
AcDbEntity
  8
0
  6
Continuous
 62
     7
370
     0
100
AcDbLine
 10
6.3491817542
 20
1.0381709011
 30
0.0
 11
7.8832069922
 21
1.0381709011
 31
0.0
  0
LINE
  5
43
330
1F
100
AcDbEntity
  8
0
  6
Continuous
 62
     7
370
     0
100
AcDbLine
 10
7.8832069922
 20
1.9437769943
 30
0.0
 11
10.629927
 21
1.9437769943
 31
0.0
  0
LINE
  5
44
330
1F
100
AcDbEntity
  8
0
  6
Continuous
 62
     7
370
     0
100
AcDbLine
 10
10.315241862
 20
1.2693980507
 30
0.0
 11
10.315241862
 21
0.96139916
 31
0.0
  0
LINE
  5
45
330
1F
100
AcDbEntity
  8
0
  6
Continuous
 62
     7
370
     0
100
AcDbLine
 10
7.8832069922
 20
0.96139916
 30
0.0
 11
10.629927
 21
0.96139916
 31
0.0
  0
LINE
  5
46
330
1F
100
AcDbEntity
  8
0
  6
Continuous
 62
     7
370
     0
100
AcDbLine
 10
10.629927
 20
1.9437769943
 30
0.0
 11
10.629927
 21
1.9698084888
 31
0.0
  0
LINE
  5
47
330
1F
100
AcDbEntity
  8
0
  6
Continuous
 62
     7
370
     0
100
AcDbLine
 10
7.8832069922
 20
1.6268095213
 30
0.0
 11
10.629927
 21
1.6268095213
 31
0.0
  0
LINE
  5
48
330
1F
100
AcDbEntity
  8
0
  6
Continuous
 62
     7
370
     0
100
AcDbLine
 10
6.692177
 20
0.3920731707
 30
0.0
 11
6.692177
 21
0.3072739649
 31
0.0
  0
LINE
  5
49
330
1F
100
AcDbEntity
  8
0
  6
Continuous
 62
     7
370
     0
100
AcDbLine
 10
2.754677
 20
0.3920731707
 30
0.0
 11
2.754677
 21
0.3072739649
 31
0.0
  0
LINE
  5
4A
330
1F
100
AcDbEntity
  8
0
  6
Continuous
 62
     7
370
     0
100
AcDbLine
 10
2.754677
 20
0.3920731707
 30
0.0
 11
2.7672319738
 21
0.3575
 31
0.0
  0
LINE
  5
4B
330
1F
100
AcDbEntity
  8
0
  6
Continuous
 62
     7
370
     0
100
AcDbLine
 10
2.7672319738
 20
0.3575
 30
0.0
 11
2.7414258825
 21
0.3575
 31
0.0
  0
LINE
  5
4C
330
1F
100
AcDbEntity
  8
0
  6
Continuous
 62
     7
370
     0
100
AcDbLine
 10
2.7414258825
 20
0.3575
 30
0.0
 11
2.754677
 21
0.3920731707
 31
0.0
  0
MTEXT
  5
4E
330
1F
100
AcDbEntity
  8
0
  6
Continuous
 62
     7
370
     0
100
AcDbMText
 10
10.4043270877
 20
1.1203120088
 30
0.0
 40
0.1041666667
 41
0.0
 71
     1
 72
     1
  1
C
  7
SLDTEXTSTYLE0
 73
     1
 44
1.0
  0
MTEXT
  5
4F
330
1F
100
AcDbEntity
  8
0
  6
Continuous
 62
     7
370
     0
100
AcDbMText
 10
1.7387909509
 20
0.3094873007
 30
0.0
 40
0.09375
 41
0.0
 71
     1
 72
     1
  1
5
  7
SLDTEXTSTYLE0
 73
     1
 44
1.0
  0
MTEXT
  5
50
330
1F
100
AcDbEntity
  8
0
  6
Continuous
 62
     7
370
     0
100
AcDbMText
 10
3.723800327
 20
0.3126246278
 30
0.0
 40
0.09375
 41
0.0
 71
     1
 72
     1
  1
4
  7
SLDTEXTSTYLE0
 73
     1
 44
1.0
  0
MTEXT
  5
51
330
1F
100
AcDbEntity
  8
0
  6
Continuous
 62
     7
370
     0
100
AcDbMText
 10
5.6324457277
 20
0.3105200602
 30
0.0
 40
0.09375
 41
0.0
 71
     1
 72
     1
  1
3
  7
SLDTEXTSTYLE0
 73
     1
 44
1.0
  0
MTEXT
  5
52
330
1F
100
AcDbEntity
  8
0
  6
Continuous
 62
     7
370
     0
100
AcDbMText
 10
7.6059721724
 20
0.3113400111
 30
0.0
 40
0.09375
 41
0.0
 71
     1
 72
     1
  1
2
  7
SLDTEXTSTYLE0
 73
     1
 44
1.0
  0
MTEXT
  5
53
330
1F
100
AcDbEntity
  8
0
  6
Continuous
 62
     7
370
     0
100
AcDbMText
 10
9.6619921328
 20
0.300272888
 30
0.0
 40
0.09375
 41
0.0
 71
     1
 72
     1
  1
1
  7
SLDTEXTSTYLE0
 73
     1
 44
1.0
  0
MTEXT
  5
54
330
1F
100
AcDbEntity
  8
0
  6
Continuous
 62
     7
370
     0
100
AcDbMText
 10
9.2682576635
 20
0.5941666803
 30
0.0
 40
0.09375
 41
0.0
 71
     1
 72
     1
  1
MAP103050-A1
  7
SLDTEXTSTYLE0
 73
     1
 44
1.0
  0
MTEXT
  5
55
330
1F
100
AcDbEntity
  8
0
  6
Continuous
 62
     7
370
     0
100
AcDbMText
 10
7.9301743649
 20
1.2499730493
 30
0.0
 40
0.0833333333
 41
0.0
 71
     1
 72
     1
  1
MATERIAL:
  7
SLDTEXTSTYLE0
 73
     1
 44
1.0
  0
MTEXT
  5
57
330
1F
100
AcDbEntity
  8
0
  6
Continuous
 62
     7
370
     0
100
AcDbMText
 10
8.9438302275
 20
0.7457341193
 30
0.0
 40
0.0833333333
 41
0.0
 71
     1
 72
     1
  1
PART  NO.
  7
SLDTEXTSTYLE1
 73
     1
 44
1.0
  0
MTEXT
  5
59
330
1F
100
AcDbEntity
  8
0
  6
Continuous
 62
     7
370
     0
100
AcDbMText
 10
6.3927073562
 20
1.1440291591
 30
0.0
 40
0.06
 41
0.0
 71
     1
 72
     1
  1
PROPRIETARY AND CONFIDENTIAL
  7
SLDTEXTSTYLE2
 73
     1
 44
1.0
  0
MTEXT
  5
5A
330
1F
100
AcDbEntity
  8
0
  6
Continuous
 62
     7
370
     0
100
AcDbMText
 10
6.4985660702
 20
1.5406501707
 30
0.0
 40
0.065
 41
0.0
 71
     1
 72
     1
  1
DRAWN
  7
SLDTEXTSTYLE0
 73
     1
 44
1.0
  0
MTEXT
  5
5B
330
1F
100
AcDbEntity
  8
0
  6
Continuous
 62
     7
370
     0
100
AcDbMText
 10
6.4369653776
 20
1.4183941661
 30
0.0
 40
0.065
 41
0.0
 71
     1
 72
     1
  1
ENG APPR.
  7
SLDTEXTSTYLE0
 73
     1
 44
1.0
  0
MTEXT
  5
5C
330
1F
100
AcDbEntity
  8
0
  6
Continuous
 62
     7
370
     0
100
AcDbMText
 10
6.4273055419
 20
1.298296273
 30
0.0
 40
0.065
 41
0.0
 71
     1
 72
     1
  1
MFG APPR.
  7
SLDTEXTSTYLE0
 73
     1
 44
1.0
  0
MTEXT
  5
5D
330
1F
100
AcDbEntity
  8
0
  6
Continuous
 62
     7
370
     0
100
AcDbMText
 10
6.9752663896
 20
1.6608078346
 30
0.0
 40
0.065
 41
0.0
 71
     1
 72
     1
  1
NAME
  7
SLDTEXTSTYLE0
 73
     1
 44
1.0
  0
MTEXT
  5
5E
330
1F
100
AcDbEntity
  8
0
  6
Continuous
 62
     7
370
     0
100
AcDbMText
 10
7.9386050459
 20
1.5661804433
 30
0.0
 40
0.1
 41
0.0
 71
     1
 72
     1
  1
TITLE:
  7
SLDTEXTSTYLE0
 73
     1
 44
1.0
  0
MTEXT
  5
5F
330
1F
100
AcDbEntity
  8
0
  6
Continuous
 62
     7
370
     0
100
AcDbMText
 10
10.0657693915
 20
1.2262994671
 30
0.0
 40
0.0833333333
 41
0.0
 71
     1
 72
     1
  1
SIZE
  7
SLDTEXTSTYLE0
 73
     1
 44
1.0
  0
MTEXT
  5
60
330
1F
100
AcDbEntity
  8
0
  6
Continuous
 62
     7
370
     0
100
AcDbMText
 10
10.1162261111
 20
1.1164461388
 30
0.0
 40
0.1041666667
 41
0.0
 71
     1
 72
     1
  1
A
  7
SLDTEXTSTYLE0
 73
     1
 44
1.0
  0
MTEXT
  5
61
330
1F
100
AcDbEntity
  8
0
  6
Continuous
 62
     7
370
     0
100
AcDbMText
 10
10.335100974
 20
1.2278993505
 30
0.0
 40
0.0833333333
 41
0.0
 71
     1
 72
     1
  1
REV.
  7
SLDTEXTSTYLE0
 73
     1
 44
1.0
  0
MTEXT
  5
62
330
1F
100
AcDbEntity
  8
0
  6
Continuous
 62
     7
370
     0
100
AcDbMText
 10
8.3227727705
 20
0.9309786574
 30
0.0
 40
0.0833333333
 41
0.0
 71
     1
 72
     1
  1
SCALE: 1:1
  7
SLDTEXTSTYLE0
 73
     1
 44
1.0
  0
MTEXT
  5
64
330
1F
100
AcDbEntity
  8
0
  6
Continuous
 62
     7
370
     0
100
AcDbMText
 10
9.6378279873
 20
0.926579063
 30
0.0
 40
0.0833333333
 41
0.0
 71
     1
 72
     1
  1
SHEET 1 OF 1
  7
SLDTEXTSTYLE3
 73
     1
 44
1.0
  0
MTEXT
  5
65
330
1F
100
AcDbEntity
  8
0
  6
Continuous
 62
     7
370
     0
100
AcDbMText
 10
8.0632326366
 20
0.6044052155
 30
0.0
 40
0.1041666667
 41
0.0
 71
     1
 72
     1
  1
13319-E01
  7
SLDTEXTSTYLE0
 73
     1
 44
1.0
  0
INSERT
  5
75
330
1F
100
AcDbEntity
  8
0
  6
Continuous
 62
     7
370
     0
100
AcDbBlockReference
  2
SW_NOTE_0
 10
6.3891646717
 20
0.9312082413
 30
0.0
  0
MTEXT
  5
76
330
1F
100
AcDbEntity
  8
0
  6
Continuous
 62
     7
370
     0
100
AcDbMText
 10
7.9076399399
 20
0.7468305835
 30
0.0
 40
0.0833333333
 41
0.0
 71
     1
 72
     1
  1
DWG.  NO.
  7
SLDTEXTSTYLE1
 73
     1
 44
1.0
  0
MTEXT
  5
77
330
1F
100
AcDbEntity
  8
0
  6
Continuous
 62
     7
370
     0
100
AcDbMText
 10
7.0592138229
 20
1.5434434118
 30
0.0
 40
0.065
 41
0.0
 71
     1
 72
     1
  1
AP
  7
SLDTEXTSTYLE0
 73
     1
 44
1.0
  0
MTEXT
  5
78
330
1F
100
AcDbEntity
  8
0
  6
Continuous
 62
     7
370
     0
100
AcDbMText
 10
7.0628716471
 20
1.4267005168
 30
0.0
 40
0.065
 41
0.0
 71
     1
 72
     1
  1
TO
  7
SLDTEXTSTYLE0
 73
     1
 44
1.0
  0
MTEXT
  5
79
330
1F
100
AcDbEntity
  8
0
  6
Continuous
 62
     7
370
     0
100
AcDbMText
 10
7.0636219211
 20
1.3041261123
 30
0.0
 40
0.065
 41
0.0
 71
     1
 72
     1
  1
TO
  7
SLDTEXTSTYLE0
 73
     1
 44
1.0
  0
MTEXT
  5
7A
330
1F
100
AcDbEntity
  8
0
  6
Continuous
 62
     7
370
     0
100
AcDbMText
 10
7.3775562039
 20
1.5451308061
 30
0.0
 40
0.065
 41
0.0
 71
     1
 72
     1
  1
04/14/06
  7
SLDTEXTSTYLE0
 73
     1
 44
1.0
  0
MTEXT
  5
7B
330
1F
100
AcDbEntity
  8
0
  6
Continuous
 62
     7
370
     0
100
AcDbMText
 10
7.4731545031
 20
1.6582684693
 30
0.0
 40
0.065
 41
0.0
 71
     1
 72
     1
  1
DATE
  7
SLDTEXTSTYLE0
 73
     1
 44
1.0
  0
MTEXT
  5
7C
330
1F
100
AcDbEntity
  8
0
  6
Continuous
 62
     7
370
     0
100
AcDbMText
 10
7.3821011998
 20
1.4184142209
 30
0.0
 40
0.065
 41
0.0
 71
     1
 72
     1
  1
04/14/06
  7
SLDTEXTSTYLE0
 73
     1
 44
1.0
  0
MTEXT
  5
7D
330
1F
100
AcDbEntity
  8
0
  6
Continuous
 62
     7
370
     0
100
AcDbMText
 10
7.3821011998
 20
1.2979456571
 30
0.0
 40
0.065
 41
0.0
 71
     1
 72
     1
  1
04/14/06
  7
SLDTEXTSTYLE0
 73
     1
 44
1.0
  0
MTEXT
  5
7E
330
1F
100
AcDbEntity
  8
0
  6
Continuous
 62
     7
370
     0
100
AcDbMText
 10
7.9182509893
 20
1.8945248266
 30
0.0
 40
0.1875
 41
0.0
 71
     1
 72
     1
  1
THORLABS INC.
  7
SLDTEXTSTYLE0
 73
     1
 44
1.0
  0
INSERT
  5
85
330
1F
100
AcDbEntity
  8
0
  6
Continuous
 62
     7
370
     0
100
AcDbBlockReference
  2
SW_NOTE_1
 10
9.7899715108
 20
1.7786954532
 30
0.0
  0
INSERT
  5
8C
330
1F
100
AcDbEntity
  8
0
  6
Continuous
 62
     7
370
     0
100
AcDbBlockReference
  2
SW_NOTE_2
 10
8.3517259707
 20
1.4181307304
 30
0.0
  0
MTEXT
  5
8D
330
1F
100
AcDbEntity
  8
0
  6
Continuous
 62
     7
370
     0
100
AcDbMText
 10
8.3691642187
 20
1.131481397
 30
0.0
 40
0.1041666667
 41
0.0
 71
     1
 72
     1
  1
SEE TABLE
  7
SLDTEXTSTYLE0
 73
     1
 44
1.0
  0
INSERT
  5
9D
330
1F
100
AcDbEntity
  8
0
  6
Continuous
 62
     7
370
     0
100
AcDbBlockReference
  2
SW_NOTE_3
 10
0.7430088909
 20
1.9507502886
 30
0.0
  0
MTEXT
  5
9E
330
1F
100
AcDbEntity
  8
0
  6
Continuous
 62
     7
370
     0
100
AcDbMText
 10
0.7620169462
 20
2.2570689847
 30
0.0
 40
0.09
 41
0.0
 71
     1
 72
     1
  1
SPECIFICATIONS:
  7
SLDTEXTSTYLE0
 73
     1
 44
1.0
  0
INSERT
  5
A5
330
1F
100
AcDbEntity
  8
0
  6
Continuous
 62
     7
370
     0
100
AcDbBlockReference
  2
SW_NOTE_4
 10
0.4364230893
 20
0.6907607603
 30
0.0
  0
INSERT
  5
C2
330
1F
100
AcDbEntity
  8
0
  6
Continuous
 62
     7
370
     0
100
AcDbBlockReference
  2
SW_TABLEANNOTATION_0
 10
0.3174104478
 20
8.1967910448
 30
0.0
  0
ARC
  5
C3
330
1F
100
AcDbEntity
  8
0
  6
Continuous
 62
     7
370
     0
100
AcDbCircle
 10
2.5954750307
 20
4.3272623205
 30
0.0
 40
0.5001794919243118
100
AcDbArc
 50
85.7349964512
 51
264.0166754972
  0
SPLINE
  5
C4
330
1F
100
AcDbEntity
  8
0
  6
Continuous
 62
     7
370
     0
100
AcDbSpline
210
0.0
220
0.0
230
1.0
 70
    24
 71
     1
 72
     4
 73
     2
 74
     0
 42
0.00000001
 43
0.00000001
 40
0.0
 40
0.0
 40
1.0
 40
1.0
 10
2.543336815472823
 20
3.829807660514318
 30
0.0
 10
2.54292842685723
 20
3.825253456458205
 30
0.0
  0
SPLINE
  5
C5
330
1F
100
AcDbEntity
  8
0
  6
Continuous
 62
     7
370
     0
100
AcDbSpline
210
0.0
220
0.0
230
1.0
 70
    24
 71
     1
 72
     4
 73
     2
 74
     0
 42
0.00000001
 43
0.00000001
 40
0.0
 40
0.0
 40
1.0
 40
1.0
 10
2.633156339745014
 20
4.831444539519619
 30
0.0
 10
2.632673193243031
 20
4.826056691760495
 30
0.0
  0
LINE
  5
C6
330
1F
100
AcDbEntity
  8
0
  6
Continuous
 62
     7
370
     0
100
AcDbLine
 10
2.5433368155
 20
3.8298076605
 30
0.0
 11
2.5478191262
 21
3.8797928797
 31
0.0
  0
LINE
  5
C7
330
1F
100
AcDbEntity
  8
0
  6
Continuous
 62
     7
370
     0
100
AcDbLine
 10
2.6326731932
 20
4.8260566918
 30
0.0
 11
2.6281908848
 21
4.7760715092
 31
0.0
  0
ARC
  5
C8
330
1F
100
AcDbEntity
  8
0
  6
Continuous
 62
     7
370
     0
100
AcDbCircle
 10
2.5954750307
 20
4.3272623205
 30
0.0
 40
0.4499999999999998
100
AcDbArc
 50
85.830809848
 51
263.9208621004
  0
LINE
  5
C9
330
1F
100
AcDbEntity
  8
0
  6
Continuous
 62
     7
370
     0
100
AcDbLine
 10
2.6476132459
 20
4.8247169806
 30
0.0
 11
2.6431309351
 21
4.7747317613
 31
0.0
  0
ARC
  5
CA
330
1F
100
AcDbEntity
  8
0
  6
Continuous
 62
     7
370
     0
100
AcDbCircle
 10
2.5954750307
 20
4.3272623205
 30
0.0
 40
0.5001794919243115
100
AcDbArc
 50
265.7349964512
 51
84.0166754972
  0
LINE
  5
CB
330
1F
100
AcDbEntity
  8
0
  6
Continuous
 62
     7
370
     0
100
AcDbLine
 10
2.5582768681
 20
3.8284679493
 30
0.0
 11
2.5627591765
 21
3.8784531319
 31
0.0
  0
ARC
  5
CC
330
1F
100
AcDbEntity
  8
0
  6
Continuous
 62
     7
370
     0
100
AcDbCircle
 10
2.5954750307
 20
4.3272623205
 30
0.0
 40
0.45
100
AcDbArc
 50
265.830809848
 51
83.9208621004
  0
SPLINE
  5
CD
330
1F
100
AcDbEntity
  8
0
  6
Continuous
 62
     7
370
     0
100
AcDbSpline
210
0.0
220
0.0
230
1.0
 70
    24
 71
     1
 72
     4
 73
     2
 74
     0
 42
0.00000001
 43
0.00000001
 40
0.0
 40
0.0
 40
1.0
 40
1.0
 10
2.647613245862601
 20
4.824716980570287
 30
0.0
 10
2.648036718053948
 20
4.82943940934972
 30
0.0
  0
SPLINE
  5
CE
330
1F
100
AcDbEntity
  8
0
  6
Continuous
 62
     7
370
     0
100
AcDbSpline
210
0.0
220
0.0
230
1.0
 70
    24
 71
     1
 72
     4
 73
     2
 74
     0
 42
0.00000001
 43
0.00000001
 40
0.0
 40
0.0
 40
1.0
 40
1.0
 10
2.557829118264838
 20
3.823474813671905
 30
0.0
 10
2.558276868092394
 20
3.828467949324109
 30
0.0
  0
ARC
  5
CF
330
1F
100
AcDbEntity
  8
0
  6
Continuous
 62
     7
370
     0
100
AcDbCircle
 10
2.5954750307
 20
4.3272623205
 30
0.0
 40
0.4499999999999986
100
AcDbArc
 50
83.9208621004
 51
85.830809848
  0
ARC
  5
D0
330
1F
100
AcDbEntity
  8
0
  6
Continuous
 62
     7
370
     0
100
AcDbCircle
 10
2.5954750307
 20
4.3272623205
 30
0.0
 40
0.45
100
AcDbArc
 50
263.9208621004
 51
265.830809848
  0
CIRCLE
  5
D1
330
1F
100
AcDbEntity
  8
0
  6
Continuous
 62
     7
370
     0
100
AcDbCircle
 10
2.5954750307
 20
4.3272623205
 30
0.0
 40
0.590000000000001
  0
CIRCLE
  5
D2
330
1F
100
AcDbEntity
  8
0
  6
Continuous
 62
     7
370
     0
100
AcDbCircle
 10
2.5954750307
 20
4.3272623205
 30
0.0
 40
0.6000000000000012
  0
CIRCLE
  5
D3
330
1F
100
AcDbEntity
  8
0
  6
Continuous
 62
     7
370
     0
100
AcDbCircle
 10
2.5954750307
 20
4.3272623205
 30
0.0
 40
0.5060000000000003
  0
CIRCLE
  5
D4
330
1F
100
AcDbEntity
  8
0
  6
Continuous
 62
     7
370
     0
100
AcDbCircle
 10
2.5954750307
 20
4.3272623205
 30
0.0
 40
0.5160000000000007
  0
DIMENSION
  5
D5
330
1F
100
AcDbEntity
  8
0
  6
Continuous
 62
     7
370
     0
100
AcDbDimension
  2
*D7
 10
2.3751016943
 20
3.7691981731
 30
0.0
 11
3.5580696833
 21
5.3214347332
 31
0.0
 70
   163
  1
<>
 71
     1
 42
-1.0
  3
SLDDIMSTYLE0
100
AcDbDiametricDimension
 15
2.815848367
 25
4.885326468
 35
0.0
 40
0.0
  0
LINE
  5
E6
330
1F
100
AcDbEntity
  8
0
  6
PHANTOM
 62
     7
370
    30
100
AcDbLine
 10
2.5954750307
 20
5.1505264155
 30
0.0
 11
2.5954750307
 21
3.5297252286
 31
0.0
  0
LINE
  5
E7
330
1F
100
AcDbEntity
  8
0
  6
Continuous
 62
     7
370
    30
100
AcDbLine
 10
2.5954750307
 20
5.1505264155
 30
0.0
 11
2.1254750307
 21
5.1505264155
 31
0.0
  0
SOLID
  5
E8
330
1F
100
AcDbEntity
  8
0
  6
Continuous
 62
     7
370
    30
100
AcDbTrace
 10
2.1254750307
 20
5.1505264155
 30
0.0
 11
2.3654750307
 21
5.0905264155
 31
0.0
 12
2.3654750307
 22
5.2105264155
 32
0.0
 13
2.3654750307
 23
5.2105264155
 33
0.0
  0
LINE
  5
E9
330
1F
100
AcDbEntity
  8
0
  6
Continuous
 62
     7
370
    30
100
AcDbLine
 10
2.5954750307
 20
3.5297252286
 30
0.0
 11
2.1254750307
 21
3.5297252286
 31
0.0
  0
SOLID
  5
EA
330
1F
100
AcDbEntity
  8
0
  6
Continuous
 62
     7
370
    30
100
AcDbTrace
 10
2.1254750307
 20
3.5297252286
 30
0.0
 11
2.3654750307
 21
3.4697252286
 31
0.0
 12
2.3654750307
 22
3.5897252286
 32
0.0
 13
2.3654750307
 23
3.5897252286
 33
0.0
  0
MTEXT
  5
EB
330
1F
100
AcDbEntity
  8
0
  6
Continuous
 62
     7
100
AcDbMText
 10
1.9377474042
 20
5.2663645478
 30
0.0
 40
0.1458333333
 41
0.0
 71
     1
 72
     1
  1
A
  7
SLDTEXTSTYLE0
 73
     1
 44
1.0
  0
MTEXT
  5
EC
330
1F
100
AcDbEntity
  8
0
  6
Continuous
 62
     7
100
AcDbMText
 10
1.9377474042
 20
3.6455633608
 30
0.0
 40
0.1458333333
 41
0.0
 71
     1
 72
     1
  1
A
  7
SLDTEXTSTYLE0
 73
     1
 44
1.0
  0
LINE
  5
ED
330
1F
100
AcDbEntity
  8
0
  6
Continuous
 62
     7
370
     0
100
AcDbLine
 10
6.1572474253
 20
7.013486233
 30
0.0
 11
6.1572474253
 21
7.0053221519
 31
0.0
  0
LINE
  5
EE
330
1F
100
AcDbEntity
  8
0
  6
Continuous
 62
     7
370
     0
100
AcDbLine
 10
6.5743726206
 20
6.2827618296
 30
0.0
 11
6.5814425391
 21
6.2786791256
 31
0.0
  0
LINE
  5
EF
330
1F
100
AcDbEntity
  8
0
  6
Continuous
 62
     7
370
     0
100
AcDbLine
 10
7.4305843936
 20
7.9515247077
 30
0.0
 11
6.2815358742
 21
7.2881931169
 31
0.0
  0
LINE
  5
F0
330
1F
100
AcDbEntity
  8
0
  6
Continuous
 62
     7
370
     0
100
AcDbLine
 10
6.8814871138
 20
6.248934482
 30
0.0
 11
8.0305356332
 21
6.9122660729
 31
0.0
  0
LINE
  5
F1
330
1F
100
AcDbEntity
  8
0
  6
Continuous
 62
     7
370
     0
100
AcDbLine
 10
8.1548240821
 20
7.1869729568
 30
0.0
 11
8.1548240821
 21
7.1951370379
 31
0.0
  0
LINE
  5
F2
330
1F
100
AcDbEntity
  8
0
  6
Continuous
 62
     7
370
     0
100
AcDbLine
 10
7.7376988868
 20
7.9176973602
 30
0.0
 11
7.7306289682
 21
7.9217800642
 31
0.0
  0
LWPOLYLINE
  5
F3
330
1F
100
AcDbEntity
  8
0
  6
Continuous
 62
     7
370
     0
100
AcDbPolyline
 90
       77
 70
   128
 43
0.0
 10
6.9821825595
 20
6.4271351681
 10
6.9880814183
 20
6.4629602002
 10
6.9911546898
 20
6.5008449303
 10
6.9913813803
 20
6.5405305672
 10
6.9887599413
 20
6.5817460178
 10
6.9833082799
 20
6.6242097389
 10
6.9750636364
 20
6.6676316601
 10
6.9640823302
 20
6.7117151657
 10
6.9504393748
 20
6.7561591206
 10
6.9342279652
 20
6.8006599275
 10
6.9155588419
 20
6.8449136009
 10
6.894559534
 20
6.8886178433
 10
6.8713734879
 20
6.9314741103
 10
6.846159088
 20
6.9731896502
 10
6.8190885741
 20
7.0134795036
 10
6.7903468652
 20
7.0520684499
 10
6.7601302965
 20
7.0886928876
 10
6.7286452776
 20
7.1231026344
 10
6.6961068833
 20
7.1550626371
 10
6.6627373837
 20
7.1843545763
 10
6.6287647263
 20
7.2107783584
 10
6.5944209789
 20
7.2341534822
 10
6.559940744
 20
7.2543202719
 10
6.5255595567
 20
7.2711409679
 10
6.4915122753
 20
7.2845006677
 10
6.4580314772
 20
7.2943081111
 10
6.4253458703
 20
7.3004963032
 10
6.3936787304
 20
7.3030229725
 10
6.3632463761
 20
7.3018708593
 10
6.3342566914
 20
7.2970478336
 10
6.3069077051
 20
7.2885868415
 10
6.2813862386
 20
7.2765456804
 10
6.2578666294
 20
7.2610066034
 10
6.2365095401
 20
7.2420757583
 10
6.2174608615
 20
7.2198824618
 10
6.2008507153
 20
7.1945783168
 10
6.1867925656
 20
7.1663361762
 10
6.1753824439
 20
7.1353489625
 10
6.1666982928
 20
7.1018283497
 10
6.160799434
 20
7.0660033176
 10
6.1577261625
 20
7.0281185875
 10
6.157499472
 20
6.9884329506
 10
6.1601209111
 20
6.9472174999
 10
6.1655725725
 20
6.9047537789
 10
6.1738172159
 20
6.8613318577
 10
6.1847985221
 20
6.8172483521
 10
6.1984414776
 20
6.7728043972
 10
6.2146528871
 20
6.7283035903
 10
6.2333220104
 20
6.6840499169
 10
6.2543213184
 20
6.6403456745
 10
6.2775073644
 20
6.5974894075
 10
6.3027217643
 20
6.5557738676
 10
6.3297922783
 20
6.5154840142
 10
6.3585339871
 20
6.4768950678
 10
6.3887505559
 20
6.4402706302
 10
6.4202355747
 20
6.4058608833
 10
6.4527739691
 20
6.3739008807
 10
6.4861434687
 20
6.3446089415
 10
6.520116126
 20
6.3181851594
 10
6.5544598735
 20
6.2948100356
 10
6.5889401083
 20
6.2746432459
 10
6.6233212956
 20
6.2578225499
 10
6.6573685771
 20
6.2444628501
 10
6.6908493751
 20
6.2346554067
 10
6.723534982
 20
6.2284672146
 10
6.7552021219
 20
6.2259405452
 10
6.7856344762
 20
6.2270926585
 10
6.8146241609
 20
6.2319156842
 10
6.8419731472
 20
6.2403766762
 10
6.8674946137
 20
6.2524178374
 10
6.891014223
 20
6.2679569144
 10
6.9123713122
 20
6.2868877595
 10
6.9314199908
 20
6.309081056
 10
6.948030137
 20
6.334385201
 10
6.9620882867
 20
6.3626273416
 10
6.9734984084
 20
6.3936145553
 10
6.9821825595
 20
6.4271351681
  0
LWPOLYLINE
  5
F4
330
1F
100
AcDbEntity
  8
0
  6
Continuous
 62
     7
370
     0
100
AcDbPolyline
 90
       18
 70
   128
 43
0.0
 10
6.9961645109
 20
6.4254994698
 10
6.9874657821
 20
6.3918373957
 10
6.9760654944
 20
6.3606823736
 10
6.9620395149
 20
6.3322417351
 10
6.9454811843
 20
6.306704748
 10
6.9265006954
 20
6.2842413566
 10
6.9052243603
 20
6.2650010512
 10
6.8817937694
 20
6.2491118728
 10
6.8563648496
 20
6.2366795613
 10
6.8291068261
 20
6.2277868516
 10
6.8002010964
 20
6.2224929233
 10
6.7698400236
 20
6.2208330066
 10
6.7382256554
 20
6.2228181479
 10
6.7055683803
 20
6.2284351365
 10
6.6720855272
 20
6.2376465922
 10
6.6379999188
 20
6.2503912144
 10
6.6035383892
 20
6.2665841896
 10
6.5814425391
 20
6.2786791256
  0
LWPOLYLINE
  5
F5
330
1F
100
AcDbEntity
  8
0
  6
Continuous
 62
     7
370
     0
100
AcDbPolyline
 90
       44
 70
   128
 43
0.0
 10
6.1572474253
 20
7.013486233
 10
6.1572656095
 20
7.0180116927
 10
6.1589974245
 20
7.0569285265
 10
6.163541001
 20
7.0939263406
 10
6.1708661021
 20
7.1287589207
 10
6.1809239805
 20
7.1611944617
 10
6.1936477028
 20
7.1910171105
 10
6.2089525946
 20
7.2180284021
 10
6.2267368044
 20
7.2420485809
 10
6.2468819812
 20
7.2629177967
 10
6.2692540623
 20
7.2804971682
 10
6.293704165
 20
7.2946697075
 10
6.320069578
 20
7.3053410989
 10
6.3481748438
 20
7.3124403258
 10
6.3778329265
 20
7.3159201443
 10
6.4088464565
 20
7.3157573965
 10
6.4410090438
 20
7.3119531657
 10
6.4741066518
 20
7.3045327683
 10
6.5079190213
 20
7.2935455858
 10
6.5422211365
 20
7.2790647361
 10
6.5767847225
 20
7.2611865869
 10
6.6113797645
 20
7.2400301144
 10
6.645776038
 20
7.2157361113
 10
6.6797446416
 20
7.1884662503
 10
6.7130595199
 20
7.1584020077
 10
6.7454989677
 20
7.1257434562
 10
6.7768471059
 20
7.090707933
 10
6.8068953178
 20
7.0535285937
 10
6.8354436376
 20
7.0144528608
 10
6.8623020809
 20
6.9737407767
 10
6.8872919091
 20
6.9316632737
 10
6.9102468192
 20
6.8885003705
 10
6.9310140498
 20
6.8445393093
 10
6.9494553987
 20
6.8000726436
 10
6.9654481415
 20
6.7553962918
 10
6.9788858493
 20
6.7108075675
 10
6.9896790964
 20
6.6666032015
 10
6.9977560553
 20
6.6230773664
 10
7.0030629755
 20
6.5805197195
 10
7.00556454
 20
6.5392134749
 10
7.0052441015
 20
6.4994335189
 10
7.0021037924
 20
6.4614445805
 10
6.9961645109
 20
6.4254994698
 10
6.9961645109
 20
6.4254994698
  0
SPLINE
  5
F6
330
1F
100
AcDbEntity
  8
0
  6
Continuous
 62
     7
370
     0
100
AcDbSpline
210
0.0
220
0.0
230
1.0
 70
    24
 71
     1
 72
     4
 73
     2
 74
     0
 42
0.00000001
 43
0.00000001
 40
0.0
 40
0.0
 40
1.0
 40
1.0
 10
7.865048935921909
 20
7.701939370445351
 30
0.0
 10
7.881933140454861
 20
7.695714489183847
 30
0.0
  0
ARC
  5
F7
330
1F
100
AcDbEntity
  8
0
  6
Continuous
 62
     7
370
     0
100
AcDbCircle
 10
7.8456954986
 20
7.6721591262
 30
0.0
 40
0.035516453759067
100
AcDbArc
 50
56.9811660136
 51
112.1756009348
  0
SPLINE
  5
F8
330
1F
100
AcDbEntity
  8
0
  6
Continuous
 62
     7
370
     0
100
AcDbSpline
210
0.0
220
0.0
230
1.0
 70
     8
 71
     3
 72
    13
 73
     9
 74
     0
 42
0.00000001
 43
0.00000001
 40
0.0
 40
0.0
 40
0.0
 40
0.0
 40
0.2505394783770121
 40
0.4996876272642157
 40
0.6251017812219594
 40
0.7498743002532586
 40
0.8749192415306726
 40
1.0
 40
1.0
 40
1.0
 40
1.0
 10
7.835867585100586
 20
7.671259446250225
 30
0.0
 10
7.83361642720612
 20
7.674157057688911
 30
0.0
 10
7.829126612849633
 20
7.679936189161163
 30
0.0
 10
7.825374179139315
 20
7.688006125146982
 30
0.0
 10
7.825000696523759
 20
7.69434909199602
 30
0.0
 10
7.826157453227756
 20
7.698694630400303
 30
0.0
 10
7.828516543109014
 20
7.702469480400937
 30
0.0
 10
7.831032019795787
 20
7.70418872982288
 30
0.0
 10
7.83228993824324
 20
7.705048477629331
 30
0.0
  0
ARC
  5
F9
330
1F
100
AcDbEntity
  8
0
  6
Continuous
 62
     7
370
     0
100
AcDbCircle
 10
7.8632659901
 20
7.6860095438
 30
0.0
 40
0.0311165225577316
100
AcDbArc
 50
208.2960708284
 51
289.1685528296
  0
SPLINE
  5
FA
330
1F
100
AcDbEntity
  8
0
  6
Continuous
 62
     7
370
     0
100
AcDbSpline
210
0.0
220
0.0
230
1.0
 70
    24
 71
     1
 72
     4
 73
     2
 74
     0
 42
0.00000001
 43
0.00000001
 40
0.0
 40
0.0
 40
1.0
 40
1.0
 10
7.861378144940407
 20
7.674787363818299
 30
0.0
 10
7.873483046463387
 20
7.656618223082535
 30
0.0
  0
ARC
  5
FB
330
1F
100
AcDbEntity
  8
0
  6
Continuous
 62
     7
370
     0
100
AcDbCircle
 10
7.8557393291
 20
7.6854164606
 30
0.0
 40
0.0120322043369642
100
AcDbArc
 50
218.3377458597
 51
297.9462869211
  0
SPLINE
  5
FC
330
1F
100
AcDbEntity
  8
0
  6
Continuous
 62
     7
370
     0
100
AcDbSpline
210
0.0
220
0.0
230
1.0
 70
     8
 71
     3
 72
    12
 73
     8
 74
     0
 42
0.00000001
 43
0.00000001
 40
0.0
 40
0.0
 40
0.0
 40
0.0
 40
0.2494023648056426
 40
0.499148631088338
 40
0.7488658669771199
 40
0.874354673402456
 40
1.0
 40
1.0
 40
1.0
 40
1.0
 10
7.846709312728161
 20
7.688811714684093
 30
0.0
 10
7.845937230051494
 20
7.688210225192776
 30
0.0
 10
7.844392000071636
 20
7.687006416814939
 30
0.0
 10
7.843724261356651
 20
7.684043424409793
 30
0.0
 10
7.844207234070993
 20
7.681403140239562
 30
0.0
 10
7.845243825619507
 20
7.679369165365142
 30
0.0
 10
7.845948898289201
 20
7.6784252069305
 30
0.0
 10
7.846301654343477
 20
7.677952933550584
 30
0.0
  0
SPLINE
  5
FD
330
1F
100
AcDbEntity
  8
0
  6
Continuous
 62
     7
370
     0
100
AcDbSpline
210
0.0
220
0.0
230
1.0
 70
     8
 71
     3
 72
    12
 73
     8
 74
     0
 42
0.00000001
 43
0.00000001
 40
0.0
 40
0.0
 40
0.0
 40
0.0
 40
0.5004590000213438
 40
0.7499685526057039
 40
0.874907034948095
 40
0.9374264460328714
 40
1.0
 40
1.0
 40
1.0
 40
1.0
 10
7.868992065577651
 20
7.684634032103506
 30
0.0
 10
7.865252191967113
 20
7.686137607166235
 30
0.0
 10
7.859647761637148
 20
7.688390806755974
 30
0.0
 10
7.852854507665799
 20
7.689921414029233
 30
0.0
 10
7.84957902028953
 20
7.689795841471
 30
0.0
 10
7.847857055216113
 20
7.689362745776086
 30
0.0
 10
7.847092003934272
 20
7.68899544470665
 30
0.0
 10
7.846709312728161
 20
7.688811714684093
 30
0.0
  0
ARC
  5
FE
330
1F
100
AcDbEntity
  8
0
  6
Continuous
 62
     7
370
     0
100
AcDbCircle
 10
7.8987266484
 20
7.7317086466
 30
0.0
 40
0.0556791230541458
100
AcDbArc
 50
237.7215303328
 51
286.027263418
  0
ARC
  5
FF
330
1F
100
AcDbEntity
  8
0
  6
Continuous
 62
     7
370
     0
100
AcDbCircle
 10
7.1366640427
 20
7.096795871
 30
0.0
 40
0.9707879088866735
100
AcDbArc
 50
36.7906404274
 51
40.6536877171
  0
LINE
  5
100
330
1F
100
AcDbEntity
  8
0
  6
Continuous
 62
     7
370
     0
100
AcDbLine
 10
7.8602951781
 20
7.7218214914
 30
0.0
 11
7.873163144
 21
7.72925001
 31
0.0
  0
ARC
  5
101
330
1F
100
AcDbEntity
  8
0
  6
Continuous
 62
     7
370
     0
100
AcDbCircle
 10
7.1343133059
 20
7.0980939254
 30
0.0
 40
0.9571236886046505
100
AcDbArc
 50
38.6375903062
 51
40.6675344423
  0
LINE
  5
102
330
1F
100
AcDbEntity
  8
0
  6
Continuous
 62
     7
370
     0
100
AcDbLine
 10
7.7825411877
 20
7.7538351476
 30
0.0
 11
7.7951336575
 21
7.7611046256
 31
0.0
  0
ARC
  5
103
330
1F
100
AcDbEntity
  8
0
  6
Continuous
 62
     7
370
     0
100
AcDbCircle
 10
7.1491341986
 20
7.1206327083
 30
0.0
 40
0.895628127605494
100
AcDbArc
 50
41.348161824
 51
44.9907470749
  0
LINE
  5
104
330
1F
100
AcDbEntity
  8
0
  6
Continuous
 62
     7
370
     0
100
AcDbLine
 10
7.8340828382
 20
7.7195836242
 30
0.0
 11
7.8214903684
 21
7.7123141461
 31
0.0
  0
ARC
  5
105
330
1F
100
AcDbEntity
  8
0
  6
Continuous
 62
     7
370
     0
100
AcDbCircle
 10
7.1617266684
 20
7.1279021864
 30
0.0
 40
0.8956281276084753
100
AcDbArc
 50
41.348161824
 51
44.9907470749
  0
ARC
  5
106
330
1F
100
AcDbEntity
  8
0
  6
Continuous
 62
     7
370
     0
100
AcDbCircle
 10
7.7201392259
 20
7.8159007904
 30
0.0
 40
0.0438118824970481
100
AcDbArc
 50
53.4993350605
 51
127.6958602719
  0
SPLINE
  5
107
330
1F
100
AcDbEntity
  8
0
  6
Continuous
 62
     7
370
     0
100
AcDbSpline
210
0.0
220
0.0
230
1.0
 70
    24
 71
     1
 72
     4
 73
     2
 74
     0
 42
0.00000001
 43
0.00000001
 40
0.0
 40
0.0
 40
1.0
 40
1.0
 10
7.681690585546025
 20
7.841821927428214
 30
0.0
 10
7.69334957978173
 20
7.850567718523356
 30
0.0
  0
SPLINE
  5
108
330
1F
100
AcDbEntity
  8
0
  6
Continuous
 62
     7
370
     0
100
AcDbSpline
210
0.0
220
0.0
230
1.0
 70
     8
 71
     3
 72
    12
 73
     8
 74
     0
 42
0.00000001
 43
0.00000001
 40
0.0
 40
0.0
 40
0.0
 40
0.0
 40
0.250326267418036
 40
0.4997345046006484
 40
0.6249000363599483
 40
0.7501600021982613
 40
1.0
 40
1.0
 40
1.0
 40
1.0
 10
7.687053476422233
 20
7.81753315552043
 30
0.0
 10
7.684755283773776
 20
7.819371351464327
 30
0.0
 10
7.680167326718774
 20
7.82304100207214
 30
0.0
 10
7.67699766111346
 20
7.828557864882871
 30
0.0
 10
7.676742849826661
 20
7.832948295601867
 30
0.0
 10
7.677632331936538
 20
7.837245711701332
 30
0.0
 10
7.680068167177172
 20
7.839992436920826
 30
0.0
 10
7.681690585546025
 20
7.841821927428214
 30
0.0
  0
ARC
  5
109
330
1F
100
AcDbEntity
  8
0
  6
Continuous
 62
     7
370
     0
100
AcDbCircle
 10
7.7141550781
 20
7.8510636726
 30
0.0
 40
0.0431137146318556
100
AcDbArc
 50
231.0525435836
 51
305.8383376987
  0
SPLINE
  5
10A
330
1F
100
AcDbEntity
  8
0
  6
Continuous
 62
     7
370
     0
100
AcDbSpline
210
0.0
220
0.0
230
1.0
 70
     8
 71
     3
 72
     9
 73
     5
 74
     0
 42
0.00000001
 43
0.00000001
 40
0.0
 40
0.0
 40
0.0
 40
0.0
 40
0.498709290677206
 40
1.0
 40
1.0
 40
1.0
 40
1.0
 10
7.755751578267079
 20
7.831463731890692
 30
0.0
 10
7.753809448756502
 20
7.828473831557958
 30
0.0
 10
7.749915136886072
 20
7.822478554572695
 30
0.0
 10
7.742909852478967
 20
7.818238221115365
 30
0.0
 10
7.739398168489521
 20
7.816112581348775
 30
0.0
  0
ARC
  5
10B
330
1F
100
AcDbEntity
  8
0
  6
Continuous
 62
     7
370
     0
100
AcDbCircle
 10
7.7382512336
 20
7.8351077548
 30
0.0
 40
0.0178757087930131
100
AcDbArc
 50
348.2376172843
 51
63.5980745497
  0
LINE
  5
10C
330
1F
100
AcDbEntity
  8
0
  6
Continuous
 62
     7
370
     0
100
AcDbLine
 10
7.5982104828
 20
7.9115994743
 30
0.0
 11
7.6192055851
 21
7.9237196889
 31
0.0
  0
ARC
  5
10D
330
1F
100
AcDbEntity
  8
0
  6
Continuous
 62
     7
370
     0
100
AcDbCircle
 10
7.5880038592
 20
7.9258358682
 30
0.0
 40
0.0175171366421532
100
AcDbArc
 50
254.3959372313
 51
305.638208249
  0
SPLINE
  5
10E
330
1F
100
AcDbEntity
  8
0
  6
Continuous
 62
     7
370
     0
100
AcDbSpline
210
0.0
220
0.0
230
1.0
 70
     8
 71
     3
 72
    11
 73
     7
 74
     0
 42
0.00000001
 43
0.00000001
 40
0.0
 40
0.0
 40
0.0
 40
0.0
 40
0.2494767938084876
 40
0.5035301869435176
 40
0.7522417858376437
 40
1.0
 40
1.0
 40
1.0
 40
1.0
 10
7.582150906453783
 20
7.912709836694804
 30
0.0
 10
7.581866835195383
 20
7.91235988435089
 30
0.0
 10
7.581293481451077
 20
7.911653559860897
 30
0.0
 10
7.581259045936049
 20
7.910585433808983
 30
0.0
 10
7.581892646821315
 20
7.909627121504381
 30
0.0
 10
7.58282611819955
 20
7.909184992147281
 30
0.0
 10
7.583291957603197
 20
7.908964351985355
 30
0.0
  0
SPLINE
  5
10F
330
1F
100
AcDbEntity
  8
0
  6
Continuous
 62
     7
370
     0
100
AcDbSpline
210
0.0
220
0.0
230
1.0
 70
    24
 71
     1
 72
     4
 73
     2
 74
     0
 42
0.00000001
 43
0.00000001
 40
0.0
 40
0.0
 40
1.0
 40
1.0
 10
7.585530320962447
 20
7.914951931797988
 30
0.0
 10
7.582150906453783
 20
7.912709836694804
 30
0.0
  0
LINE
  5
110
330
1F
100
AcDbEntity
  8
0
  6
Continuous
 62
     7
370
     0
100
AcDbLine
 10
7.6081898792
 20
7.9280330163
 30
0.0
 11
7.585530321
 21
7.9149519318
 31
0.0
  0
ARC
  5
111
330
1F
100
AcDbEntity
  8
0
  6
Continuous
 62
     7
370
     0
100
AcDbCircle
 10
7.4620987915
 20
7.5396883159
 30
0.0
 40
0.414914704792597
100
AcDbArc
 50
69.3842416395
 51
71.6573073818
  0
LINE
  5
112
330
1F
100
AcDbEntity
  8
0
  6
Continuous
 62
     7
370
     0
100
AcDbLine
 10
7.5714362092
 20
7.9212623481
 30
0.0
 11
7.5926723707
 21
7.9335217231
 31
0.0
  0
ARC
  5
113
330
1F
100
AcDbEntity
  8
0
  6
Continuous
 62
     7
370
     0
100
AcDbCircle
 10
7.5608061337
 20
7.9363834391
 30
0.0
 40
0.0184836657167992
100
AcDbArc
 50
257.8004773085
 51
305.1070877768
  0
SPLINE
  5
114
330
1F
100
AcDbEntity
  8
0
  6
Continuous
 62
     7
370
     0
100
AcDbSpline
210
0.0
220
0.0
230
1.0
 70
     8
 71
     3
 72
    10
 73
     6
 74
     0
 42
0.00000001
 43
0.00000001
 40
0.0
 40
0.0
 40
0.0
 40
0.0
 40
0.4988594542991792
 40
0.749198759526625
 40
1.0
 40
1.0
 40
1.0
 40
1.0
 10
7.555178603496592
 20
7.920737378660222
 30
0.0
 10
7.555110207698599
 20
7.920245432845913
 30
0.0
 10
7.555007489294503
 20
7.919506617152118
 30
0.0
 10
7.555843522575219
 20
7.918720119533993
 30
0.0
 10
7.556547776034292
 20
7.918451574287681
 30
0.0
 10
7.556900227342929
 20
7.918317177896337
 30
0.0
  0
SPLINE
  5
115
330
1F
100
AcDbEntity
  8
0
  6
Continuous
 62
     7
370
     0
100
AcDbSpline
210
0.0
220
0.0
230
1.0
 70
     8
 71
     3
 72
     9
 73
     5
 74
     0
 42
0.00000001
 43
0.00000001
 40
0.0
 40
0.0
 40
0.0
 40
0.0
 40
0.5015784057013167
 40
1.0
 40
1.0
 40
1.0
 40
1.0
 10
7.558273179163405
 20
7.923445150024659
 30
0.0
 10
7.557551735176737
 20
7.923016022001448
 30
0.0
 10
7.556113387794818
 20
7.922160466781502
 30
0.0
 10
7.555489541807959
 20
7.921210741999976
 30
0.0
 10
7.555178603496592
 20
7.920737378660222
 30
0.0
  0
LINE
  5
116
330
1F
100
AcDbEntity
  8
0
  6
Continuous
 62
     7
370
     0
100
AcDbLine
 10
7.5817133098
 20
7.9369768494
 30
0.0
 11
7.5582731792
 21
7.92344515
 31
0.0
  0
ARC
  5
117
330
1F
100
AcDbEntity
  8
0
  6
Continuous
 62
     7
370
     0
100
AcDbCircle
 10
7.4750922447
 20
7.5808535493
 30
0.0
 40
0.3717416527489515
100
AcDbArc
 50
73.332632289
 51
75.7784590185
  0
LINE
  5
118
330
1F
100
AcDbEntity
  8
0
  6
Continuous
 62
     7
370
     0
100
AcDbLine
 10
7.5405794584
 20
7.9262857788
 30
0.0
 11
7.5664187014
 21
7.9412024562
 31
0.0
  0
SPLINE
  5
119
330
1F
100
AcDbEntity
  8
0
  6
Continuous
 62
     7
370
     0
100
AcDbSpline
210
0.0
220
0.0
230
1.0
 70
     8
 71
     3
 72
    13
 73
     9
 74
     0
 42
0.00000001
 43
0.00000001
 40
0.0
 40
0.0
 40
0.0
 40
0.0
 40
0.2493026324882739
 40
0.3767800005184462
 40
0.4994269650590066
 40
0.6183515801792814
 40
0.7497380290330482
 40
1.0
 40
1.0
 40
1.0
 40
1.0
 10
7.537947300682425
 20
7.913192958120145
 30
0.0
 10
7.536110283061022
 20
7.913862230211516
 30
0.0
 10
7.533333932512949
 20
7.914873725101953
 30
0.0
 10
7.531811384947052
 20
7.916975606813312
 30
0.0
 10
7.531774552508619
 20
7.918749982862742
 30
0.0
 10
7.532912506309444
 20
7.920668605390348
 30
0.0
 10
7.535622431097841
 20
7.923241513787581
 30
0.0
 10
7.538616275912405
 20
7.925080127211768
 30
0.0
 10
7.540579458425814
 20
7.926285778789205
 30
0.0
  0
ARC
  5
11A
330
1F
100
AcDbEntity
  8
0
  6
Continuous
 62
     7
370
     0
100
AcDbCircle
 10
7.5491721104
 20
7.9534497061
 30
0.0
 40
0.0417923690613295
100
AcDbArc
 50
254.4199076049
 51
283.4041956705
  0
SPLINE
  5
11B
330
1F
100
AcDbEntity
  8
0
  6
Continuous
 62
     7
370
     0
100
AcDbSpline
210
0.0
220
0.0
230
1.0
 70
     8
 71
     3
 72
    12
 73
     8
 74
     0
 42
0.00000001
 43
0.00000001
 40
0.0
 40
0.0
 40
0.0
 40
0.0
 40
0.2503253654036793
 40
0.4999978777421007
 40
0.7494826629082574
 40
0.8746982187917888
 40
1.0
 40
1.0
 40
1.0
 40
1.0
 10
7.564175071151179
 20
7.90447175714269
 30
0.0
 10
7.562978862995274
 20
7.904955371463153
 30
0.0
 10
7.560589566415898
 20
7.905921338829215
 30
0.0
 10
7.558100860557932
 20
7.907854569150672
 30
0.0
 10
7.557676178158304
 20
7.909868945318177
 30
0.0
 10
7.558131011332314
 20
7.911535280949259
 30
0.0
 10
7.558617202240755
 20
7.912375535203992
 30
0.0
 10
7.558860381365768
 20
7.912795806934517
 30
0.0
  0
ARC
  5
11C
330
1F
100
AcDbEntity
  8
0
  6
Continuous
 62
     7
370
     0
100
AcDbCircle
 10
7.5772972879
 20
7.9413370031
 30
0.0
 40
0.0391310481378217
100
AcDbArc
 50
250.4067683416
 51
281.555706853
  0
LINE
  5
11D
330
1F
100
AcDbEntity
  8
0
  6
Continuous
 62
     7
370
     0
100
AcDbLine
 10
7.5791325223
 20
7.8995333671
 30
0.0
 11
7.5851360425
 21
7.9029991255
 31
0.0
  0
ARC
  5
11E
330
1F
100
AcDbEntity
  8
0
  6
Continuous
 62
     7
370
     0
100
AcDbCircle
 10
7.4034292352
 20
7.4713027446
 30
0.0
 40
0.4628748330556867
100
AcDbArc
 50
65.7226862815
 51
67.6916271796
  0
LINE
  5
11F
330
1F
100
AcDbEntity
  8
0
  6
Continuous
 62
     7
370
     0
100
AcDbLine
 10
7.6348825806
 20
7.9169938257
 30
0.0
 11
7.5937418224
 21
7.8932437716
 31
0.0
  0
ARC
  5
120
330
1F
100
AcDbEntity
  8
0
  6
Continuous
 62
     7
370
     0
100
AcDbCircle
 10
7.4449613807
 20
7.495948819
 30
0.0
 40
0.4618971313185662
100
AcDbArc
 50
65.7212440985
 51
67.8374240465
  0
SPLINE
  5
121
330
1F
100
AcDbEntity
  8
0
  6
Continuous
 62
     7
370
     0
100
AcDbSpline
210
0.0
220
0.0
230
1.0
 70
    24
 71
     1
 72
     4
 73
     2
 74
     0
 42
0.00000001
 43
0.00000001
 40
0.0
 40
0.0
 40
1.0
 40
1.0
 10
7.238691364432148
 20
7.105221888422999
 30
0.0
 10
7.244623158139309
 20
7.09583867738809
 30
0.0
  0
SPLINE
  5
122
330
1F
100
AcDbEntity
  8
0
  6
Continuous
 62
     7
370
     0
100
AcDbSpline
210
0.0
220
0.0
230
1.0
 70
    24
 71
     1
 72
     4
 73
     2
 74
     0
 42
0.00000001
 43
0.00000001
 40
0.0
 40
0.0
 40
1.0
 40
1.0
 10
7.232376957771049
 20
7.112451392482267
 30
0.0
 10
7.238691364432148
 20
7.105221888422999
 30
0.0
  0
ARC
  5
123
330
1F
100
AcDbEntity
  8
0
  6
Continuous
 62
     7
370
     0
100
AcDbCircle
 10
7.2217151832
 20
7.0990155093
 30
0.0
 40
0.0171521541745827
100
AcDbArc
 50
51.5669496694
 51
118.0534021252
  0
ARC
  5
124
330
1F
100
AcDbEntity
  8
0
  6
Continuous
 62
     7
370
     0
100
AcDbCircle
 10
7.2233392465
 20
7.0993673528
 30
0.0
 40
0.0176778763003786
100
AcDbArc
 50
123.2421088309
 51
207.2520696159
  0
ARC
  5
125
330
1F
100
AcDbEntity
  8
0
  6
Continuous
 62
     7
370
     0
100
AcDbCircle
 10
7.1920942554
 20
7.0771057171
 30
0.0
 40
0.0210204595722301
100
AcDbArc
 50
42.3729997934
 51
68.7129781487
  0
SPLINE
  5
126
330
1F
100
AcDbEntity
  8
0
  6
Continuous
 62
     7
370
     0
100
AcDbSpline
210
0.0
220
0.0
230
1.0
 70
     8
 71
     3
 72
     9
 73
     5
 74
     0
 42
0.00000001
 43
0.00000001
 40
0.0
 40
0.0
 40
0.0
 40
0.0
 40
0.500165444583705
 40
1.0
 40
1.0
 40
1.0
 40
1.0
 10
7.188951511283497
 20
7.095585928447078
 30
0.0
 10
7.190619918263431
 20
7.096358242529308
 30
0.0
 10
7.193955628472924
 20
7.097902359762101
 30
0.0
 10
7.197802651735151
 20
7.097095380214719
 30
0.0
 10
7.199725526897101
 20
7.096692023951421
 30
0.0
  0
SPLINE
  5
127
330
1F
100
AcDbEntity
  8
0
  6
Continuous
 62
     7
370
     0
100
AcDbSpline
210
0.0
220
0.0
230
1.0
 70
     8
 71
     3
 72
    14
 73
    10
 74
     0
 42
0.00000001
 43
0.00000001
 40
0.0
 40
0.0
 40
0.0
 40
0.0
 40
0.2499004290087986
 40
0.3800976031611238
 40
0.4999571058498231
 40
0.6257216768277764
 40
0.7499966555366204
 40
0.8749516763669822
 40
0.9999999999999999
 40
0.9999999999999999
 40
0.9999999999999999
 40
0.9999999999999999
 10
7.18616016731497
 20
7.066256299740223
 30
0.0
 10
7.184901618073575
 20
7.068918758521382
 30
0.0
 10
7.182987369458585
 20
7.072968348212954
 30
0.0
 10
7.181756709393396
 20
7.078677589186577
 30
0.0
 10
7.181575541066171
 20
7.082946978997547
 30
0.0
 10
7.182236164418916
 20
7.086942909845297
 30
0.0
 10
7.183715597488009
 20
7.090559009903597
 30
0.0
 10
7.185954210305692
 20
7.093577068909892
 30
0.0
 10
7.187952162408179
 20
7.09491614201788
 30
0.0
 10
7.188951511283497
 20
7.095585928447078
 30
0.0
  0
ARC
  5
128
330
1F
100
AcDbEntity
  8
0
  6
Continuous
 62
     7
370
     0
100
AcDbCircle
 10
6.2766998453
 20
6.59195528
 30
0.0
 40
1.025709283636758
100
AcDbArc
 50
24.9590419998
 51
27.5429058256
  0
LINE
  5
129
330
1F
100
AcDbEntity
  8
0
  6
Continuous
 62
     7
370
     0
100
AcDbLine
 10
7.2634159179
 20
7.0575629698
 30
0.0
 11
7.2066177953
 21
7.0247741115
 31
0.0
  0
ARC
  5
12A
330
1F
100
AcDbEntity
  8
0
  6
Continuous
 62
     7
370
     0
100
AcDbCircle
 10
6.3340952076
 20
6.6250327021
 30
0.0
 40
1.025046055048853
100
AcDbArc
 50
24.9585055464
 51
27.3420931257
  0
ARC
  5
12B
330
1F
100
AcDbEntity
  8
0
  6
Continuous
 62
     7
370
     0
100
AcDbCircle
 10
6.3268936812
 20
6.6243631603
 30
0.0
 40
1.004920848752507
100
AcDbArc
 50
36.0376571106
 51
36.1612210093
  0
ARC
  5
12C
330
1F
100
AcDbEntity
  8
0
  6
Continuous
 62
     7
370
     0
100
AcDbCircle
 10
7.1473058203
 20
7.2242113677
 30
0.0
 40
0.0113948162172232
100
AcDbArc
 50
186.4381372636
 51
217.1744638098
  0
SPLINE
  5
12D
330
1F
100
AcDbEntity
  8
0
  6
Continuous
 62
     7
370
     0
100
AcDbSpline
210
0.0
220
0.0
230
1.0
 70
    24
 71
     1
 72
     4
 73
     2
 74
     0
 42
0.00000001
 43
0.00000001
 40
0.0
 40
0.0
 40
1.0
 40
1.0
 10
7.137708376738995
 20
7.229019760402958
 30
0.0
 10
7.135982865435623
 20
7.222933662657516
 30
0.0
  0
SPLINE
  5
12E
330
1F
100
AcDbEntity
  8
0
  6
Continuous
 62
     7
370
     0
100
AcDbSpline
210
0.0
220
0.0
230
1.0
 70
    24
 71
     1
 72
     4
 73
     2
 74
     0
 42
0.00000001
 43
0.00000001
 40
0.0
 40
0.0
 40
1.0
 40
1.0
 10
7.147188380654196
 20
7.249440190346369
 30
0.0
 10
7.137708376738995
 20
7.229019760402958
 30
0.0
  0
ARC
  5
12F
330
1F
100
AcDbEntity
  8
0
  6
Continuous
 62
     7
370
     0
100
AcDbCircle
 10
6.3721083096
 20
6.6544958919
 30
0.0
 40
0.9770915181193356
100
AcDbArc
 50
37.5095109622
 51
39.1209825238
  0
SPLINE
  5
130
330
1F
100
AcDbEntity
  8
0
  6
Continuous
 62
     7
370
     0
100
AcDbSpline
210
0.0
220
0.0
230
1.0
 70
    24
 71
     1
 72
     4
 73
     2
 74
     0
 42
0.00000001
 43
0.00000001
 40
0.0
 40
0.0
 40
1.0
 40
1.0
 10
7.121034311063697
 20
7.252357060098896
 30
0.0
 10
7.130150949412031
 20
7.271001521252797
 30
0.0
  0
SPLINE
  5
131
330
1F
100
AcDbEntity
  8
0
  6
Continuous
 62
     7
370
     0
100
AcDbSpline
210
0.0
220
0.0
230
1.0
 70
    24
 71
     1
 72
     4
 73
     2
 74
     0
 42
0.00000001
 43
0.00000001
 40
0.0
 40
0.0
 40
1.0
 40
1.0
 10
7.119044020496442
 20
7.242861662663653
 30
0.0
 10
7.121034311063697
 20
7.252357060098896
 30
0.0
  0
SPLINE
  5
132
330
1F
100
AcDbEntity
  8
0
  6
Continuous
 62
     7
370
     0
100
AcDbSpline
210
0.0
220
0.0
230
1.0
 70
    24
 71
     1
 72
     4
 73
     2
 74
     0
 42
0.00000001
 43
0.00000001
 40
0.0
 40
0.0
 40
1.0
 40
1.0
 10
7.120833694001396
 20
7.236637093313217
 30
0.0
 10
7.119044020496442
 20
7.242861662663653
 30
0.0
  0
SPLINE
  5
133
330
1F
100
AcDbEntity
  8
0
  6
Continuous
 62
     7
370
     0
100
AcDbSpline
210
0.0
220
0.0
230
1.0
 70
    24
 71
     1
 72
     4
 73
     2
 74
     0
 42
0.00000001
 43
0.00000001
 40
0.0
 40
0.0
 40
1.0
 40
1.0
 10
7.113340225315504
 20
7.242099227918835
 30
0.0
 10
7.120833694001397
 20
7.236637093313217
 30
0.0
  0
ARC
  5
134
330
1F
100
AcDbEntity
  8
0
  6
Continuous
 62
     7
370
     0
100
AcDbCircle
 10
7.1029788332
 20
7.2235919952
 30
0.0
 40
0.0212102831421962
100
AcDbArc
 50
60.75743879
 51
117.6960462653
  0
SPLINE
  5
135
330
1F
100
AcDbEntity
  8
0
  6
Continuous
 62
     7
370
     0
100
AcDbSpline
210
0.0
220
0.0
230
1.0
 70
     8
 71
     3
 72
    14
 73
    10
 74
     0
 42
0.00000001
 43
0.00000001
 40
0.0
 40
0.0
 40
0.0
 40
0.0
 40
0.2503817225610952
 40
0.3755492991302682
 40
0.5004182237809754
 40
0.6251583274712329
 40
0.7499167264487333
 40
0.8736417211001746
 40
1.0
 40
1.0
 40
1.0
 40
1.0
 10
7.096096333291277
 20
7.209144689766623
 30
0.0
 10
7.093965544059336
 20
7.212054397824155
 30
0.0
 10
7.090769558368108
 20
7.21641868931677
 30
0.0
 10
7.087300627026404
 20
7.222548423450041
 30
0.0
 10
7.085596810543214
 20
7.227365386805229
 30
0.0
 10
7.085473736907704
 20
7.232115898299615
 30
0.0
 10
7.086793113744871
 20
7.236361192125877
 30
0.0
 10
7.089379064583913
 20
7.239913263851174
 30
0.0
 10
7.091864762151273
 20
7.241546771198122
 30
0.0
 10
7.093120697672337
 20
7.242372124985279
 30
0.0
  0
ARC
  5
136
330
1F
100
AcDbEntity
  8
0
  6
Continuous
 62
     7
370
     0
100
AcDbCircle
 10
6.2907694531
 20
6.603106392
 30
0.0
 40
1.007885808217324
100
AcDbArc
 50
34.6353597467
 51
36.9628154862
  0
LINE
  5
137
330
1F
100
AcDbEntity
  8
0
  6
Continuous
 62
     7
370
     0
100
AcDbLine
 10
7.1768416769
 20
7.2087287927
 30
0.0
 11
7.1200435543
 21
7.1759399345
 31
0.0
  0
ARC
  5
138
330
1F
100
AcDbEntity
  8
0
  6
Continuous
 62
     7
370
     0
100
AcDbCircle
 10
6.343663612
 20
6.6331352165
 30
0.0
 40
1.012666604984725
100
AcDbArc
 50
34.6383070838
 51
36.0360742081
  0
LINE
  5
139
330
1F
100
AcDbEntity
  8
0
  6
Continuous
 62
     7
370
     0
100
AcDbLine
 10
7.139503333
 20
7.2155750226
 30
0.0
 11
7.1625531774
 21
7.2288814146
 31
0.0
  0
ARC
  5
13A
330
1F
100
AcDbEntity
  8
0
  6
Continuous
 62
     7
370
     0
100
AcDbCircle
 10
7.0062399692
 20
7.3441023039
 30
0.0
 40
0.0405883505415483
100
AcDbArc
 50
47.4078330432
 51
127.8528908242
  0
SPLINE
  5
13B
330
1F
100
AcDbEntity
  8
0
  6
Continuous
 62
     7
370
     0
100
AcDbSpline
210
0.0
220
0.0
230
1.0
 70
    24
 71
     1
 72
     4
 73
     2
 74
     0
 42
0.00000001
 43
0.00000001
 40
0.0
 40
0.0
 40
1.0
 40
1.0
 10
6.969646455830497
 20
7.367214467909272
 30
0.0
 10
6.981333488047001
 20
7.376150414530996
 30
0.0
  0
SPLINE
  5
13C
330
1F
100
AcDbEntity
  8
0
  6
Continuous
 62
     7
370
     0
100
AcDbSpline
210
0.0
220
0.0
230
1.0
 70
     8
 71
     3
 72
    12
 73
     8
 74
     0
 42
0.00000001
 43
0.00000001
 40
0.0
 40
0.0
 40
0.0
 40
0.0
 40
0.2503262674180342
 40
0.4997345046006485
 40
0.6249000363599433
 40
0.7501600021982595
 40
1.0
 40
1.0
 40
1.0
 40
1.0
 10
6.97457264398431
 20
7.34044586905278
 30
0.0
 10
6.972329557531571
 20
7.342561990265774
 30
0.0
 10
6.967851610775133
 20
7.346786472166769
 30
0.0
 10
6.964797941944592
 20
7.352970785457243
 30
0.0
 10
6.964611791855362
 20
7.357779034160689
 30
0.0
 10
6.965556768153357
 20
7.362428176517667
 30
0.0
 10
6.968011470674629
 20
7.365300992848407
 30
0.0
 10
6.969646455830497
 20
7.367214467909272
 30
0.0
  0
ARC
  5
13D
330
1F
100
AcDbEntity
  8
0
  6
Continuous
 62
     7
370
     0
100
AcDbCircle
 10
7.0028093343
 20
7.3686609243
 30
0.0
 40
0.0399174150283297
100
AcDbArc
 50
224.9780414435
 51
306.0384507623
  0
SPLINE
  5
13E
330
1F
100
AcDbEntity
  8
0
  6
Continuous
 62
     7
370
     0
100
AcDbSpline
210
0.0
220
0.0
230
1.0
 70
     8
 71
     3
 72
     9
 73
     5
 74
     0
 42
0.00000001
 43
0.00000001
 40
0.0
 40
0.0
 40
0.0
 40
0.0
 40
0.4987092906772022
 40
1.0
 40
1.0
 40
1.0
 40
1.0
 10
7.042772795471597
 20
7.352210690714005
 30
0.0
 10
7.040791141895452
 20
7.349069762123292
 30
0.0
 10
7.03681757730945
 20
7.342771646869718
 30
0.0
 10
7.029807803525812
 20
7.338516084210479
 30
0.0
 10
7.02629386905362
 20
7.336382810186461
 30
0.0
  0
ARC
  5
13F
330
1F
100
AcDbEntity
  8
0
  6
Continuous
 62
     7
370
     0
100
AcDbCircle
 10
7.0226511639
 20
7.3566069552
 30
0.0
 40
0.0205962908874138
100
AcDbArc
 50
347.6754312512
 51
57.5276344034
  0
LINE
  5
140
330
1F
100
AcDbEntity
  8
0
  6
Continuous
 62
     7
370
     0
100
AcDbLine
 10
6.9031988342
 20
7.4342891159
 30
0.0
 11
6.9154124968
 21
7.4413399132
 31
0.0
  0
ARC
  5
141
330
1F
100
AcDbEntity
  8
0
  6
Continuous
 62
     7
370
     0
100
AcDbCircle
 10
6.5911715399
 20
6.9149432
 30
0.0
 40
0.6058722743239856
100
AcDbArc
 50
56.4397764629
 51
59.0022059832
  0
LINE
  5
142
330
1F
100
AcDbEntity
  8
0
  6
Continuous
 62
     7
370
     0
100
AcDbLine
 10
6.9383193792
 20
7.4268705269
 30
0.0
 11
6.9261057166
 21
7.4198197295
 31
0.0
  0
ARC
  5
143
330
1F
100
AcDbEntity
  8
0
  6
Continuous
 62
     7
370
     0
100
AcDbCircle
 10
6.6033852025
 20
6.9219939973
 30
0.0
 40
0.6058722743245131
100
AcDbArc
 50
56.4397764629
 51
59.0022059832
  0
ARC
  5
144
330
1F
100
AcDbEntity
  8
0
  6
Continuous
 62
     7
370
     0
100
AcDbCircle
 10
6.8332531159
 20
7.4328577897
 30
0.0
 40
0.0594963011938286
100
AcDbArc
 50
73.4059573779
 51
126.7309457368
  0
SPLINE
  5
145
330
1F
100
AcDbEntity
  8
0
  6
Continuous
 62
     7
370
     0
100
AcDbSpline
210
0.0
220
0.0
230
1.0
 70
    24
 71
     1
 72
     4
 73
     2
 74
     0
 42
0.00000001
 43
0.00000001
 40
0.0
 40
0.0
 40
1.0
 40
1.0
 10
6.785979811594519
 20
7.472405272385304
 30
0.0
 10
6.797670870863197
 20
7.480541263700106
 30
0.0
  0
SPLINE
  5
146
330
1F
100
AcDbEntity
  8
0
  6
Continuous
 62
     7
370
     0
100
AcDbSpline
210
0.0
220
0.0
230
1.0
 70
     8
 71
     3
 72
    12
 73
     8
 74
     0
 42
0.00000001
 43
0.00000001
 40
0.0
 40
0.0
 40
0.0
 40
0.0
 40
0.2503262674180375
 40
0.4997345046006477
 40
0.6249000363599443
 40
0.7501600021982571
 40
1.0
 40
1.0
 40
1.0
 40
1.0
 10
6.79109950798814
 20
7.456131897925371
 30
0.0
 10
6.788813396084044
 20
7.45706631099493
 30
0.0
 10
6.784249556213624
 20
7.458931710328463
 30
0.0
 10
6.781149145388922
 20
7.462292579646014
 30
0.0
 10
6.780947417371327
 20
7.465336879834923
 30
0.0
 10
6.781887263890582
 20
7.468503143962721
 30
0.0
 10
6.784343683050272
 20
7.470845270118413
 30
0.0
 10
6.785979811594519
 20
7.472405272385304
 30
0.0
  0
ARC
  5
147
330
1F
100
AcDbEntity
  8
0
  6
Continuous
 62
     7
370
     0
100
AcDbCircle
 10
6.8102425972
 20
7.5110349384
 30
0.0
 40
0.0581446619686321
100
AcDbArc
 50
250.777826275
 51
304.9776146977
  0
SPLINE
  5
148
330
1F
100
AcDbEntity
  8
0
  6
Continuous
 62
     7
370
     0
100
AcDbSpline
210
0.0
220
0.0
230
1.0
 70
     8
 71
     3
 72
     9
 73
     5
 74
     0
 42
0.00000001
 43
0.00000001
 40
0.0
 40
0.0
 40
0.0
 40
0.0
 40
0.4987092906772028
 40
1.0
 40
1.0
 40
1.0
 40
1.0
 10
6.859872214077652
 20
7.47716600503629
 30
0.0
 10
6.857947105284545
 20
7.474675720665038
 30
0.0
 10
6.854086922951684
 20
7.469682261714492
 30
0.0
 10
6.847084595609919
 20
7.465492754463054
 30
0.0
 10
6.843574393969856
 20
7.463392593401267
 30
0.0
  0
SPLINE
  5
149
330
1F
100
AcDbEntity
  8
0
  6
Continuous
 62
     7
370
     0
100
AcDbSpline
210
0.0
220
0.0
230
1.0
 70
     8
 71
     3
 72
    11
 73
     7
 74
     0
 42
0.00000001
 43
0.00000001
 40
0.0
 40
0.0
 40
0.0
 40
0.0
 40
0.2504031889031602
 40
0.500382460786753
 40
0.7500984159891435
 40
0.9999999999999999
 40
0.9999999999999999
 40
0.9999999999999999
 40
0.9999999999999999
 10
6.850244588587667
 20
7.48987620521515
 30
0.0
 10
6.851983486898656
 20
7.489152639387441
 30
0.0
 10
6.855458339673986
 20
7.487706732683951
 30
0.0
 10
6.859316930266745
 20
7.484766412687265
 30
0.0
 10
6.861010985550422
 20
7.481102882645522
 30
0.0
 10
6.860251898579426
 20
7.478478622580152
 30
0.0
 10
6.859872214077652
 20
7.47716600503629
 30
0.0
  0
LINE
  5
14A
330
1F
100
AcDbEntity
  8
0
  6
Continuous
 62
     7
370
     0
100
AcDbLine
 10
6.7339826794
 20
7.5002864095
 30
0.0
 11
6.7537380491
 21
7.5116909417
 31
0.0
  0
ARC
  5
14B
330
1F
100
AcDbEntity
  8
0
  6
Continuous
 62
     7
370
     0
100
AcDbCircle
 10
6.7168241772
 20
7.5250119333
 30
0.0
 40
0.030095941946602
100
AcDbArc
 50
272.4947078801
 51
304.7590663727
  0
SPLINE
  5
14C
330
1F
100
AcDbEntity
  8
0
  6
Continuous
 62
     7
370
     0
100
AcDbSpline
210
0.0
220
0.0
230
1.0
 70
     8
 71
     3
 72
    13
 73
     9
 74
     0
 42
0.00000001
 43
0.00000001
 40
0.0
 40
0.0
 40
0.0
 40
0.0
 40
0.2556326815356257
 40
0.3827690308553957
 40
0.5009930149484351
 40
0.6250249963042182
 40
0.7509663452184059
 40
0.9999999999999999
 40
0.9999999999999999
 40
0.9999999999999999
 40
0.9999999999999999
 10
6.720257460284126
 20
7.49928959594594
 30
0.0
 10
6.719413717349788
 20
7.498784136443578
 30
0.0
 10
6.718150347332591
 20
7.498027291729151
 30
0.0
 10
6.716831820619495
 20
7.497047444389878
 30
0.0
 10
6.716157136305469
 20
7.4963586867782
 30
0.0
 10
6.715962115977069
 20
7.495771966005509
 30
0.0
 10
6.716347572143881
 20
7.495163596078114
 30
0.0
 10
6.717421160230338
 20
7.495031947294906
 30
0.0
 10
6.718134166596804
 20
7.494944514859925
 30
0.0
  0
LINE
  5
14D
330
1F
100
AcDbEntity
  8
0
  6
Continuous
 62
     7
370
     0
100
AcDbLine
 10
6.7428825815
 20
7.5123508004
 30
0.0
 11
6.7202574603
 21
7.4992895959
 31
0.0
  0
ARC
  5
14E
330
1F
100
AcDbEntity
  8
0
  6
Continuous
 62
     7
370
     0
100
AcDbCircle
 10
6.7318103083
 20
7.2455075082
 30
0.0
 40
0.267072907344843
100
AcDbArc
 50
87.6239581896
 51
90.6797140279
  0
LINE
  5
14F
330
1F
100
AcDbEntity
  8
0
  6
Continuous
 62
     7
370
     0
100
AcDbLine
 10
6.7024928544
 20
7.4974660242
 30
0.0
 11
6.7286420305
 21
7.5125616223
 31
0.0
  0
SPLINE
  5
150
330
1F
100
AcDbEntity
  8
0
  6
Continuous
 62
     7
370
     0
100
AcDbSpline
210
0.0
220
0.0
230
1.0
 70
     8
 71
     3
 72
    13
 73
     9
 74
     0
 42
0.00000001
 43
0.00000001
 40
0.0
 40
0.0
 40
0.0
 40
0.0
 40
0.2493827994174835
 40
0.3744361297780026
 40
0.4994378368474289
 40
0.624507769364407
 40
0.7497582852968263
 40
1.0
 40
1.0
 40
1.0
 40
1.0
 10
6.699095849476129
 20
7.488129377127295
 30
0.0
 10
6.697415483504185
 20
7.488270667251094
 30
0.0
 10
6.694892495821734
 20
7.488482807491939
 30
0.0
 10
6.693640977076814
 20
7.489641798726074
 30
0.0
 10
6.693708495585987
 20
7.490839396267885
 30
0.0
 10
6.69491895854553
 20
7.492340825617982
 30
0.0
 10
6.697638816826005
 20
7.494552486998996
 30
0.0
 10
6.700551641696639
 20
7.496300850822039
 30
0.0
 10
6.702492854405683
 20
7.497466024227259
 30
0.0
  0
ARC
  5
151
330
1F
100
AcDbEntity
  8
0
  6
Continuous
 62
     7
370
     0
100
AcDbCircle
 10
6.6997607143
 20
7.5484864754
 30
0.0
 40
0.0603607601053109
100
AcDbArc
 50
269.3688827634
 51
289.8968803804
  0
LINE
  5
152
330
1F
100
AcDbEntity
  8
0
  6
Continuous
 62
     7
370
     0
100
AcDbLine
 10
6.7135994527
 20
7.4878588643
 30
0.0
 11
6.7203031923
 21
7.4917288508
 31
0.0
  0
ARC
  5
153
330
1F
100
AcDbEntity
  8
0
  6
Continuous
 62
     7
370
     0
100
AcDbCircle
 10
6.6887972204
 20
7.1919729989
 30
0.0
 40
0.2969235525313942
100
AcDbArc
 50
82.5695197236
 51
85.2084602909
  0
LINE
  5
154
330
1F
100
AcDbEntity
  8
0
  6
Continuous
 62
     7
370
     0
100
AcDbLine
 10
6.7683370614
 20
7.5101531916
 30
0.0
 11
6.7271963032
 21
7.4864031375
 31
0.0
  0
ARC
  5
155
330
1F
100
AcDbEntity
  8
0
  6
Continuous
 62
     7
370
     0
100
AcDbCircle
 10
6.7300090244
 20
7.216344995
 30
0.0
 40
0.2962976457158923
100
AcDbArc
 50
82.5675894156
 51
85.4065430601
  0
LINE
  5
156
330
1F
100
AcDbEntity
  8
0
  6
Continuous
 62
     7
370
     0
100
AcDbLine
 10
7.1424529045
 20
6.9493954662
 30
0.0
 11
7.158259496
 21
6.9585204172
 31
0.0
  0
ARC
  5
157
330
1F
100
AcDbEntity
  8
0
  6
Continuous
 62
     7
370
     0
100
AcDbCircle
 10
6.2346758755
 20
6.5630324719
 30
0.0
 40
0.9865776693357445
100
AcDbArc
 50
21.6950796924
 51
23.0553032748
  0
LINE
  5
158
330
1F
100
AcDbEntity
  8
0
  6
Continuous
 62
     7
370
     0
100
AcDbLine
 10
7.1671752366
 20
6.9368625968
 30
0.0
 11
7.1513686451
 21
6.9277376457
 31
0.0
  0
ARC
  5
159
330
1F
100
AcDbEntity
  8
0
  6
Continuous
 62
     7
370
     0
100
AcDbCircle
 10
6.250482467
 20
6.5721574229
 30
0.0
 40
0.9865776693397696
100
AcDbArc
 50
21.6950796924
 51
23.0553032748
  0
LINE
  5
15A
330
1F
100
AcDbEntity
  8
0
  6
Continuous
 62
     7
370
     0
100
AcDbLine
 10
7.0931960526
 20
7.0494888058
 30
0.0
 11
7.1090026442
 21
7.0586137569
 31
0.0
  0
ARC
  5
15B
330
1F
100
AcDbEntity
  8
0
  6
Continuous
 62
     7
370
     0
100
AcDbCircle
 10
6.1885968474
 20
6.5417093486
 30
0.0
 40
1.037371533882304
100
AcDbArc
 50
27.9913922194
 51
29.3068423732
  0
LINE
  5
15C
330
1F
100
AcDbEntity
  8
0
  6
Continuous
 62
     7
370
     0
100
AcDbLine
 10
7.1204212938
 20
7.0377131232
 30
0.0
 11
7.1046147023
 21
7.0285881721
 31
0.0
  0
ARC
  5
15D
330
1F
100
AcDbEntity
  8
0
  6
Continuous
 62
     7
370
     0
100
AcDbCircle
 10
6.2044034389
 20
6.5508342996
 30
0.0
 40
1.037371533888817
100
AcDbArc
 50
27.9913922194
 51
29.3068423732
  0
LINE
  5
15E
330
1F
100
AcDbEntity
  8
0
  6
Continuous
 62
     7
370
     0
100
AcDbLine
 10
6.9851684109
 20
7.1558532311
 30
0.0
 11
7.0284787013
 21
7.1808557295
 31
0.0
  0
SPLINE
  5
15F
330
1F
100
AcDbEntity
  8
0
  6
Continuous
 62
     7
370
     0
100
AcDbSpline
210
0.0
220
0.0
230
1.0
 70
    24
 71
     1
 72
     4
 73
     2
 74
     0
 42
0.00000001
 43
0.00000001
 40
0.0
 40
0.0
 40
1.0
 40
1.0
 10
7.0190230775089
 20
7.192976985341216
 30
0.0
 10
6.985168410931942
 20
7.155853231090731
 30
0.0
  0
ARC
  5
160
330
1F
100
AcDbEntity
  8
0
  6
Continuous
 62
     7
370
     0
100
AcDbCircle
 10
6.260316446
 20
6.5915201612
 30
0.0
 40
0.9681869985029544
100
AcDbArc
 50
38.4052572875
 51
39.4655208527
  0
SPLINE
  5
161
330
1F
100
AcDbEntity
  8
0
  6
Continuous
 62
     7
370
     0
100
AcDbSpline
210
0.0
220
0.0
230
1.0
 70
    24
 71
     1
 72
     4
 73
     2
 74
     0
 42
0.00000001
 43
0.00000001
 40
0.0
 40
0.0
 40
1.0
 40
1.0
 10
6.9546454343635
 20
7.193630467540657
 30
0.0
 10
7.007763798546801
 20
7.206913140662699
 30
0.0
  0
LINE
  5
162
330
1F
100
AcDbEntity
  8
0
  6
Continuous
 62
     7
370
     0
100
AcDbLine
 10
6.9979557247
 20
7.218632966
 30
0.0
 11
6.9546454344
 21
7.1936304675
 31
0.0
  0
ARC
  5
163
330
1F
100
AcDbEntity
  8
0
  6
Continuous
 62
     7
370
     0
100
AcDbCircle
 10
6.2854440453
 20
6.6125868974
 30
0.0
 40
0.935395494185454
100
AcDbArc
 50
40.3837249639
 51
41.582873973
  0
LINE
  5
164
330
1F
100
AcDbEntity
  8
0
  6
Continuous
 62
     7
370
     0
100
AcDbLine
 10
6.9283184862
 20
7.2006225187
 30
0.0
 11
6.9851166088
 21
7.2334113769
 31
0.0
  0
ARC
  5
165
330
1F
100
AcDbEntity
  8
0
  6
Continuous
 62
     7
370
     0
100
AcDbCircle
 10
6.2240908972
 20
6.5758296589
 30
0.0
 40
0.9414364633909661
100
AcDbArc
 50
39.6628392514
 51
41.5795359301
  0
SPLINE
  5
166
330
1F
100
AcDbEntity
  8
0
  6
Continuous
 62
     7
370
     0
100
AcDbSpline
210
0.0
220
0.0
230
1.0
 70
    24
 71
     1
 72
     4
 73
     2
 74
     0
 42
0.00000001
 43
0.00000001
 40
0.0
 40
0.0
 40
1.0
 40
1.0
 10
6.991133390377811
 20
7.187206312304654
 30
0.0
 10
6.948821568981076
 20
7.176719056467346
 30
0.0
  0
SPLINE
  5
167
330
1F
100
AcDbEntity
  8
0
  6
Continuous
 62
     7
370
     0
100
AcDbSpline
210
0.0
220
0.0
230
1.0
 70
    24
 71
     1
 72
     4
 73
     2
 74
     0
 42
0.00000001
 43
0.00000001
 40
0.0
 40
0.0
 40
1.0
 40
1.0
 10
6.964256056123932
 20
7.157617283397753
 30
0.0
 10
6.991133390377811
 20
7.187206312304654
 30
0.0
  0
ARC
  5
168
330
1F
100
AcDbEntity
  8
0
  6
Continuous
 62
     7
370
     0
100
AcDbCircle
 10
6.1856925115
 20
6.5447104125
 30
0.0
 40
0.9908663004378861
100
AcDbArc
 50
36.3519314451
 51
38.2108048089
  0
LINE
  5
169
330
1F
100
AcDbEntity
  8
0
  6
Continuous
 62
     7
370
     0
100
AcDbLine
 10
7.0405257969
 20
7.1648287391
 30
0.0
 11
6.9837276743
 21
7.1320398808
 31
0.0
  0
ARC
  5
16A
330
1F
100
AcDbEntity
  8
0
  6
Continuous
 62
     7
370
     0
100
AcDbCircle
 10
6.238950722
 20
6.5748456632
 30
0.0
 40
0.9952902242571223
100
AcDbArc
 50
36.3541727005
 51
37.5084007083
  0
ARC
  5
16B
330
1F
100
AcDbEntity
  8
0
  6
Continuous
 62
     7
370
     0
100
AcDbCircle
 10
6.3290581356
 20
6.671147581
 30
0.0
 40
0.8171946512187315
100
AcDbArc
 50
46.8748503685
 51
47.4064426846
  0
LINE
  5
16C
330
1F
100
AcDbEntity
  8
0
  6
Continuous
 62
     7
370
     0
100
AcDbLine
 10
6.8991896302
 20
7.274227081
 30
0.0
 11
6.887687666
 21
7.2675871384
 31
0.0
  0
ARC
  5
16D
330
1F
100
AcDbEntity
  8
0
  6
Continuous
 62
     7
370
     0
100
AcDbCircle
 10
6.3405600998
 20
6.6777875236
 30
0.0
 40
0.8171946512096867
100
AcDbArc
 50
46.8748503685
 51
47.4064426847
  0
LINE
  5
16E
330
1F
100
AcDbEntity
  8
0
  6
Continuous
 62
     7
370
     0
100
AcDbLine
 10
6.9081183838
 20
7.2877472023
 30
0.0
 11
6.893631878
 21
7.2793843205
 31
0.0
  0
SPLINE
  5
16F
330
1F
100
AcDbEntity
  8
0
  6
Continuous
 62
     7
370
     0
100
AcDbSpline
210
0.0
220
0.0
230
1.0
 70
     8
 71
     3
 72
    13
 73
     9
 74
     0
 42
0.00000001
 43
0.00000001
 40
0.0
 40
0.0
 40
0.0
 40
0.0
 40
0.2500979381481724
 40
0.3777541129277189
 40
0.4995112558109199
 40
0.6243482411512716
 40
0.7495213959045828
 40
1.0
 40
1.0
 40
1.0
 40
1.0
 10
6.910576215574481
 20
7.309272409427391
 30
0.0
 10
6.912572708270508
 20
7.307433540660232
 30
0.0
 10
6.915588260229628
 20
7.304656067782716
 30
0.0
 10
6.917914017727132
 20
7.300300420584932
 30
0.0
 10
6.918008007703631
 20
7.296970083697429
 30
0.0
 10
6.916611638697279
 20
7.294045444738908
 30
0.0
 10
6.913295448064763
 20
7.290884612747685
 30
0.0
 10
6.910189428304466
 20
7.289002299070595
 30
0.0
 10
6.908118383845004
 20
7.287747202318879
 30
0.0
  0
SPLINE
  5
170
330
1F
100
AcDbEntity
  8
0
  6
Continuous
 62
     7
370
     0
100
AcDbSpline
210
0.0
220
0.0
230
1.0
 70
    24
 71
     1
 72
     4
 73
     2
 74
     0
 42
0.00000001
 43
0.00000001
 40
0.0
 40
0.0
 40
1.0
 40
1.0
 10
6.898692102200711
 20
7.3176828129726
 30
0.0
 10
6.910576215574481
 20
7.309272409427391
 30
0.0
  0
SPLINE
  5
171
330
1F
100
AcDbEntity
  8
0
  6
Continuous
 62
     7
370
     0
100
AcDbSpline
210
0.0
220
0.0
230
1.0
 70
    24
 71
     1
 72
     4
 73
     2
 74
     0
 42
0.00000001
 43
0.00000001
 40
0.0
 40
0.0
 40
1.0
 40
1.0
 10
6.888927311560547
 20
7.310436924695754
 30
0.0
 10
6.898692102200711
 20
7.3176828129726
 30
0.0
  0
SPLINE
  5
172
330
1F
100
AcDbEntity
  8
0
  6
Continuous
 62
     7
370
     0
100
AcDbSpline
210
0.0
220
0.0
230
1.0
 70
    24
 71
     1
 72
     4
 73
     2
 74
     0
 42
0.00000001
 43
0.00000001
 40
0.0
 40
0.0
 40
1.0
 40
1.0
 10
6.894690381559418
 20
7.306948463230412
 30
0.0
 10
6.888927311560547
 20
7.310436924695754
 30
0.0
  0
ARC
  5
173
330
1F
100
AcDbEntity
  8
0
  6
Continuous
 62
     7
370
     0
100
AcDbCircle
 10
6.8932302202
 20
7.3045192454
 30
0.0
 40
0.0028342848091051
100
AcDbArc
 50
347.523010854
 51
58.9906411745
  0
SPLINE
  5
174
330
1F
100
AcDbEntity
  8
0
  6
Continuous
 62
     7
370
     0
100
AcDbSpline
210
0.0
220
0.0
230
1.0
 70
     8
 71
     3
 72
     9
 73
     5
 74
     0
 42
0.00000001
 43
0.00000001
 40
0.0
 40
0.0
 40
0.0
 40
0.0
 40
0.5014428105295667
 40
1.0
 40
1.0
 40
1.0
 40
1.0
 10
6.892997310411833
 20
7.301465531448427
 30
0.0
 10
6.893596995255336
 20
7.301806500090081
 30
0.0
 10
6.894792913974104
 20
7.302486475222827
 30
0.0
 10
6.895596789380956
 20
7.303434340330236
 30
0.0
 10
6.89599756724448
 20
7.303906905294185
 30
0.0
  0
LINE
  5
175
330
1F
100
AcDbEntity
  8
0
  6
Continuous
 62
     7
370
     0
100
AcDbLine
 10
6.8783960145
 20
7.2930363828
 30
0.0
 11
6.8929973104
 21
7.3014655314
 31
0.0
  0
ARC
  5
176
330
1F
100
AcDbEntity
  8
0
  6
Continuous
 62
     7
370
     0
100
AcDbCircle
 10
6.3701456144
 20
6.7108878679
 30
0.0
 40
0.7727971031574961
100
AcDbArc
 50
48.8770999442
 51
49.7014710411
  0
LINE
  5
177
330
1F
100
AcDbEntity
  8
0
  6
Continuous
 62
     7
370
     0
100
AcDbLine
 10
6.8584657857
 20
7.293648634
 30
0.0
 11
6.8699677499
 21
7.3002885766
 31
0.0
  0
ARC
  5
178
330
1F
100
AcDbEntity
  8
0
  6
Continuous
 62
     7
370
     0
100
AcDbCircle
 10
6.3586436502
 20
6.7042479253
 30
0.0
 40
0.7727971031688721
100
AcDbArc
 50
48.8770999442
 51
49.7014710411
  0
LINE
  5
179
330
1F
100
AcDbEntity
  8
0
  6
Continuous
 62
     7
370
     0
100
AcDbLine
 10
6.8512366859
 20
7.2773576361
 30
0.0
 11
6.8668940503
 21
7.2863964402
 31
0.0
  0
SPLINE
  5
17A
330
1F
100
AcDbEntity
  8
0
  6
Continuous
 62
     7
370
     0
100
AcDbSpline
210
0.0
220
0.0
230
1.0
 70
    24
 71
     1
 72
     4
 73
     2
 74
     0
 42
0.00000001
 43
0.00000001
 40
0.0
 40
0.0
 40
1.0
 40
1.0
 10
6.874576727763395
 20
7.268384016419967
 30
0.0
 10
6.85123668589955
 20
7.277357636068468
 30
0.0
  0
LINE
  5
17B
330
1F
100
AcDbEntity
  8
0
  6
Continuous
 62
     7
370
     0
100
AcDbLine
 10
6.8821299138
 20
7.2727443779
 30
0.0
 11
6.8745767278
 21
7.2683840164
 31
0.0
  0
LINE
  5
17C
330
1F
100
AcDbEntity
  8
0
  6
Continuous
 62
     7
370
     0
100
AcDbLine
 10
6.8044708058
 20
7.3618133906
 30
0.0
 11
6.8242261755
 21
7.3732179227
 31
0.0
  0
ARC
  5
17D
330
1F
100
AcDbEntity
  8
0
  6
Continuous
 62
     7
370
     0
100
AcDbCircle
 10
6.7949082608
 20
7.3739567232
 30
0.0
 40
0.0154564806622184
100
AcDbArc
 50
243.8026952894
 51
308.2194729463
  0
SPLINE
  5
17E
330
1F
100
AcDbEntity
  8
0
  6
Continuous
 62
     7
370
     0
100
AcDbSpline
210
0.0
220
0.0
230
1.0
 70
     8
 71
     3
 72
    13
 73
     9
 74
     0
 42
0.00000001
 43
0.00000001
 40
0.0
 40
0.0
 40
0.0
 40
0.0
 40
0.255632681535518
 40
0.382769030852312
 40
0.5009930149484838
 40
0.6250249962963633
 40
0.7509663452183406
 40
1.0
 40
1.0
 40
1.0
 40
1.0
 10
6.7897171370581
 20
7.367519010150947
 30
0.0
 10
6.788876439916049
 20
7.366994996697976
 30
0.0
 10
6.787617630485384
 20
7.366210370411766
 30
0.0
 10
6.786335073227108
 20
7.36501040669063
 30
0.0
 10
6.785709294037203
 20
7.364021190088292
 30
0.0
 10
6.785590754089237
 20
7.362960882617768
 30
0.0
 10
6.78610825504843
 20
7.361527408523576
 30
0.0
 10
6.787295978767713
 20
7.360662416295583
 30
0.0
 10
6.788084786490262
 20
7.360087945534153
 30
0.0
  0
LINE
  5
17F
330
1F
100
AcDbEntity
  8
0
  6
Continuous
 62
     7
370
     0
100
AcDbLine
 10
6.8123422583
 20
7.3805802146
 30
0.0
 11
6.7897171371
 21
7.3675190102
 31
0.0
  0
ARC
  5
180
330
1F
100
AcDbEntity
  8
0
  6
Continuous
 62
     7
370
     0
100
AcDbCircle
 10
6.5184010846
 20
6.8935364577
 30
0.0
 40
0.5688699629654413
100
AcDbArc
 50
58.8881334605
 51
60.7339256692
  0
LINE
  5
181
330
1F
100
AcDbEntity
  8
0
  6
Continuous
 62
     7
370
     0
100
AcDbLine
 10
6.7703530924
 20
7.3746996291
 30
0.0
 11
6.7965022685
 21
7.3897952271
 31
0.0
  0
SPLINE
  5
182
330
1F
100
AcDbEntity
  8
0
  6
Continuous
 62
     7
370
     0
100
AcDbSpline
210
0.0
220
0.0
230
1.0
 70
     8
 71
     3
 72
    13
 73
     9
 74
     0
 42
0.00000001
 43
0.00000001
 40
0.0
 40
0.0
 40
0.0
 40
0.0
 40
0.2492945499286714
 40
0.3757665645055476
 40
0.4994575090415667
 40
0.6241755381084634
 40
0.7497536491745604
 40
1.0
 40
1.0
 40
1.0
 40
1.0
 10
6.768263285020231
 20
7.357499620091855
 30
0.0
 10
6.766408466473512
 20
7.358789254177006
 30
0.0
 10
6.763612662099603
 20
7.360733144927067
 30
0.0
 10
6.762026451608246
 20
7.363918314919066
 30
0.0
 10
6.761931933366478
 20
7.366376530618996
 30
0.0
 10
6.762975672267945
 20
7.368750244835045
 30
0.0
 10
6.765544028809182
 20
7.371671883291614
 30
0.0
 10
6.768430864747843
 20
7.373489410821142
 30
0.0
 10
6.770353092362952
 20
7.374699629095651
 30
0.0
  0
ARC
  5
183
330
1F
100
AcDbEntity
  8
0
  6
Continuous
 62
     7
370
     0
100
AcDbCircle
 10
6.7866566605
 20
7.3886145439
 30
0.0
 40
0.0361449131236273
100
AcDbArc
 50
239.4108324163
 51
272.6920052506
  0
LINE
  5
184
330
1F
100
AcDbEntity
  8
0
  6
Continuous
 62
     7
370
     0
100
AcDbLine
 10
6.7674280529
 20
7.3404290645
 30
0.0
 11
6.7883542811
 21
7.3525095189
 31
0.0
  0
ARC
  5
185
330
1F
100
AcDbEntity
  8
0
  6
Continuous
 62
     7
370
     0
100
AcDbCircle
 10
6.432015951
 20
6.8129821887
 30
0.0
 40
0.6250611849478354
100
AcDbArc
 50
55.8211493197
 51
57.547051483
  0
LINE
  5
186
330
1F
100
AcDbEntity
  8
0
  6
Continuous
 62
     7
370
     0
100
AcDbLine
 10
6.839959723
 20
7.3628766627
 30
0.0
 11
6.7831616004
 21
7.3300878044
 31
0.0
  0
ARC
  5
187
330
1F
100
AcDbEntity
  8
0
  6
Continuous
 62
     7
370
     0
100
AcDbCircle
 10
6.4888140736
 20
6.8457710469
 30
0.0
 40
0.6250611849398484
100
AcDbArc
 50
55.8211493197
 51
57.547051483
  0
LINE
  5
188
330
1F
100
AcDbEntity
  8
0
  6
Continuous
 62
     7
370
     0
100
AcDbLine
 10
6.6194438803
 20
7.4304825723
 30
0.0
 11
6.6405193357
 21
7.4426491737
 31
0.0
  0
ARC
  5
189
330
1F
100
AcDbEntity
  8
0
  6
Continuous
 62
     7
370
     0
100
AcDbCircle
 10
6.5908843018
 20
7.143162853
 30
0.0
 40
0.2887356413308557
100
AcDbArc
 50
84.3234462757
 51
86.082889965
  0
ARC
  5
18A
330
1F
100
AcDbEntity
  8
0
  6
Continuous
 62
     7
370
     0
100
AcDbCircle
 10
6.6084118676
 20
7.3645344454
 30
0.0
 40
0.0667257157348784
100
AcDbArc
 50
88.1132366295
 51
121.6906636734
  0
SPLINE
  5
18B
330
1F
100
AcDbEntity
  8
0
  6
Continuous
 62
     7
370
     0
100
AcDbSpline
210
0.0
220
0.0
230
1.0
 70
     8
 71
     3
 72
    13
 73
     9
 74
     0
 42
0.00000001
 43
0.00000001
 40
0.0
 40
0.0
 40
0.0
 40
0.0
 40
0.2501206955155087
 40
0.3808254451806178
 40
0.5003377339304068
 40
0.6236969560610856
 40
0.7504281227974399
 40
1.0
 40
1.0
 40
1.0
 40
1.0
 10
6.573112685409161
 20
7.410717395287551
 30
0.0
 10
6.570989204391491
 20
7.410912527487125
 30
0.0
 10
6.567756062878672
 20
7.411209629278794
 30
0.0
 10
6.565231839605446
 20
7.412311612011609
 30
0.0
 10
6.564478128921369
 20
7.413541719481705
 30
0.0
 10
6.56507544448835
 20
7.415158459513344
 30
0.0
 10
6.567531949597529
 20
7.417733170428138
 30
0.0
 10
6.571035211744841
 20
7.419884399313403
 30
0.0
 10
6.573358646871183
 20
7.421311138320265
 30
0.0
  0
ARC
  5
18C
330
1F
100
AcDbEntity
  8
0
  6
Continuous
 62
     7
370
     0
100
AcDbCircle
 10
6.554417834
 20
7.1136494318
 30
0.0
 40
0.2976556271975122
100
AcDbArc
 50
81.164507287
 51
86.3990549512
  0
LINE
  5
18D
330
1F
100
AcDbEntity
  8
0
  6
Continuous
 62
     7
370
     0
100
AcDbLine
 10
6.6569352596
 20
7.4405617637
 30
0.0
 11
6.600137137
 21
7.4077729054
 31
0.0
  0
ARC
  5
18E
330
1F
100
AcDbEntity
  8
0
  6
Continuous
 62
     7
370
     0
100
AcDbCircle
 10
6.6103415678
 20
7.1397303095
 30
0.0
 40
0.3044183567980087
100
AcDbArc
 50
81.1958109282
 51
84.3107789722
  0
LINE
  5
18F
330
1F
100
AcDbEntity
  8
0
  6
Continuous
 62
     7
370
     0
100
AcDbLine
 10
6.5059335425
 20
7.4111077976
 30
0.0
 11
6.5470743007
 21
7.4348578518
 31
0.0
  0
ARC
  5
190
330
1F
100
AcDbEntity
  8
0
  6
Continuous
 62
     7
370
     0
100
AcDbCircle
 10
6.5666886978
 20
7.2049710737
 30
0.0
 40
0.2149035547141716
100
AcDbArc
 50
102.9076440499
 51
106.4219492132
  0
LINE
  5
191
330
1F
100
AcDbEntity
  8
0
  6
Continuous
 62
     7
370
     0
100
AcDbLine
 10
6.5598242654
 20
7.4381943708
 30
0.0
 11
6.5186835072
 21
7.4144443167
 31
0.0
  0
ARC
  5
192
330
1F
100
AcDbEntity
  8
0
  6
Continuous
 62
     7
370
     0
100
AcDbCircle
 10
6.607829456
 20
7.2287211279
 30
0.0
 40
0.2149035547139634
100
AcDbArc
 50
102.9076440499
 51
106.4219492132
  0
LINE
  5
193
330
1F
100
AcDbEntity
  8
0
  6
Continuous
 62
     7
370
     0
100
AcDbLine
 10
6.5129440595
 20
7.4197345914
 30
0.0
 11
6.526741825
 21
7.4276998719
 31
0.0
  0
ARC
  5
194
330
1F
100
AcDbEntity
  8
0
  6
Continuous
 62
     7
370
     0
100
AcDbCircle
 10
6.2827477523
 20
7.8142428439
 30
0.0
 40
0.4567571576813076
100
AcDbArc
 50
298.0615779193
 51
300.2636418922
  0
ARC
  5
195
330
1F
100
AcDbEntity
  8
0
  6
Continuous
 62
     7
370
     0
100
AcDbCircle
 10
6.4450794866
 20
7.5097310068
 30
0.0
 40
0.1116788319721748
100
AcDbArc
 50
294.5315492767
 51
298.0616305049
  0
SPLINE
  5
196
330
1F
100
AcDbEntity
  8
0
  6
Continuous
 62
     7
370
     0
100
AcDbSpline
210
0.0
220
0.0
230
1.0
 70
    24
 71
     1
 72
     4
 73
     2
 74
     0
 42
0.00000001
 43
0.00000001
 40
0.0
 40
0.0
 40
1.0
 40
1.0
 10
6.489316100609906
 20
7.407296446162267
 30
0.0
 10
6.491447894365583
 20
7.408133111788625
 30
0.0
  0
SPLINE
  5
197
330
1F
100
AcDbEntity
  8
0
  6
Continuous
 62
     7
370
     0
100
AcDbSpline
210
0.0
220
0.0
230
1.0
 70
    24
 71
     1
 72
     4
 73
     2
 74
     0
 42
0.00000001
 43
0.00000001
 40
0.0
 40
0.0
 40
1.0
 40
1.0
 10
6.474492417362153
 20
7.399086653971206
 30
0.0
 10
6.489316100609906
 20
7.407296446162267
 30
0.0
  0
ARC
  5
198
330
1F
100
AcDbEntity
  8
0
  6
Continuous
 62
     7
370
     0
100
AcDbCircle
 10
6.4664344544
 20
7.4237417613
 30
0.0
 40
0.0259384865516406
100
AcDbArc
 50
288.0988067792
 51
296.4012774821
  0
ARC
  5
199
330
1F
100
AcDbEntity
  8
0
  6
Continuous
 62
     7
370
     0
100
AcDbCircle
 10
6.3718971067
 20
7.6295610178
 30
0.0
 40
0.2524204197587248
100
AcDbArc
 50
294.8482077787
 51
298.7114434855
  0
LINE
  5
19A
330
1F
100
AcDbEntity
  8
0
  6
Continuous
 62
     7
370
     0
100
AcDbLine
 10
6.4864213658
 20
7.4042857633
 30
0.0
 11
6.4931595424
 21
7.4081756298
 31
0.0
  0
ARC
  5
19B
330
1F
100
AcDbEntity
  8
0
  6
Continuous
 62
     7
370
     0
100
AcDbCircle
 10
6.5639438438
 20
7.2137626817
 30
0.0
 40
0.2056909798913795
100
AcDbArc
 50
108.7518792212
 51
112.1410557231
  0
LINE
  5
19C
330
1F
100
AcDbEntity
  8
0
  6
Continuous
 62
     7
370
     0
100
AcDbLine
 10
6.5389610151
 20
7.4322855534
 30
0.0
 11
6.4978202569
 21
7.4085354993
 31
0.0
  0
ARC
  5
19D
330
1F
100
AcDbEntity
  8
0
  6
Continuous
 62
     7
370
     0
100
AcDbCircle
 10
6.6050361779
 20
7.237646325
 30
0.0
 40
0.2055489148262193
100
AcDbArc
 50
108.7510684149
 51
112.3896743764
  0
LINE
  5
19E
330
1F
100
AcDbEntity
  8
0
  6
Continuous
 62
     7
370
     0
100
AcDbLine
 10
6.8045872555
 20
7.1892743595
 30
0.0
 11
6.8171338093
 21
7.1965173308
 31
0.0
  0
ARC
  5
19F
330
1F
100
AcDbEntity
  8
0
  6
Continuous
 62
     7
370
     0
100
AcDbCircle
 10
6.1711802664
 20
6.5560719203
 30
0.0
 40
0.8956281276060429
100
AcDbArc
 50
41.348161824
 51
44.9907470749
  0
LINE
  5
1A0
330
1F
100
AcDbEntity
  8
0
  6
Continuous
 62
     7
370
     0
100
AcDbLine
 10
6.85608299
 20
7.1549963294
 30
0.0
 11
6.8435364363
 21
7.1477533581
 31
0.0
  0
ARC
  5
1A1
330
1F
100
AcDbEntity
  8
0
  6
Continuous
 62
     7
370
     0
100
AcDbCircle
 10
6.1837268202
 20
6.5633148916
 30
0.0
 40
0.8956281276060241
100
AcDbArc
 50
41.348161824
 51
44.9907470749
  0
SPLINE
  5
1A2
330
1F
100
AcDbEntity
  8
0
  6
Continuous
 62
     7
370
     0
100
AcDbSpline
210
0.0
220
0.0
230
1.0
 70
    24
 71
     1
 72
     4
 73
     2
 74
     0
 42
0.00000001
 43
0.00000001
 40
0.0
 40
0.0
 40
1.0
 40
1.0
 10
6.777246706897654
 20
7.212213063443351
 30
0.0
 10
6.783527179380312
 20
7.210820097382294
 30
0.0
  0
ARC
  5
1A3
330
1F
100
AcDbEntity
  8
0
  6
Continuous
 62
     7
370
     0
100
AcDbCircle
 10
6.783483748
 20
7.2286808154
 30
0.0
 40
0.0176093025622649
100
AcDbArc
 50
228.7703127574
 51
249.2561828663
  0
SPLINE
  5
1A4
330
1F
100
AcDbEntity
  8
0
  6
Continuous
 62
     7
370
     0
100
AcDbSpline
210
0.0
220
0.0
230
1.0
 70
     8
 71
     3
 72
    14
 73
    10
 74
     0
 42
0.00000001
 43
0.00000001
 40
0.0
 40
0.0
 40
0.0
 40
0.0
 40
0.2500538291745149
 40
0.3811582947718565
 40
0.5001174285993943
 40
0.624483957545943
 40
0.7452085715002528
 40
0.8651112779805464
 40
1.0
 40
1.0
 40
1.0
 40
1.0
 10
6.774021422756388
 20
7.227948570648436
 30
0.0
 10
6.772872959577638
 20
7.227212972142247
 30
0.0
 10
6.77112235144552
 20
7.226091695682768
 30
0.0
 10
6.769453399395464
 20
7.2241878314905
 30
0.0
 10
6.768696453907364
 20
7.222536192628096
 30
0.0
 10
6.768580508035082
 20
7.220761268751605
 30
0.0
 10
6.769071896778989
 20
7.21893500770814
 30
0.0
 10
6.770194652673768
 20
7.217122199030803
 30
0.0
 10
6.77129518916137
 20
7.216020548440078
 30
0.0
 10
6.771877822420355
 20
7.215437325365541
 30
0.0
  0
ARC
  5
1A5
330
1F
100
AcDbEntity
  8
0
  6
Continuous
 62
     7
370
     0
100
AcDbCircle
 10
6.7821301355
 20
7.2161586782
 30
0.0
 40
0.014309185325142
100
AcDbArc
 50
50.1354692681
 51
124.5189551679
  0
ARC
  5
1A6
330
1F
100
AcDbEntity
  8
0
  6
Continuous
 62
     7
370
     0
100
AcDbCircle
 10
6.7871657476
 20
7.2215852594
 30
0.0
 40
0.0069270580968822
100
AcDbArc
 50
303.1288766455
 51
53.3368407186
  0
SPLINE
  5
1A7
330
1F
100
AcDbEntity
  8
0
  6
Continuous
 62
     7
370
     0
100
AcDbSpline
210
0.0
220
0.0
230
1.0
 70
    24
 71
     1
 72
     4
 73
     2
 74
     0
 42
0.00000001
 43
0.00000001
 40
0.0
 40
0.0
 40
1.0
 40
1.0
 10
6.807871229709479
 20
7.202325648304921
 30
0.0
 10
6.790951551720442
 20
7.215784240443774
 30
0.0
  0
SPLINE
  5
1A8
330
1F
100
AcDbEntity
  8
0
  6
Continuous
 62
     7
370
     0
100
AcDbSpline
210
0.0
220
0.0
230
1.0
 70
     8
 71
     3
 72
    12
 73
     8
 74
     0
 42
0.00000001
 43
0.00000001
 40
0.0
 40
0.0
 40
0.0
 40
0.0
 40
0.2504240434344484
 40
0.4999145453400764
 40
0.6247093935834912
 40
0.7503037755852164
 40
1.0
 40
1.0
 40
1.0
 40
1.0
 10
6.800755286589593
 20
7.23282831848137
 30
0.0
 10
6.803170158150265
 20
7.230501810956635
 30
0.0
 10
6.807990899009455
 20
7.225857468762059
 30
0.0
 10
6.811863383152801
 20
7.218955525196789
 30
0.0
 10
6.812646067652983
 20
7.213366651568429
 30
0.0
 10
6.812007338945031
 20
7.207913539127425
 30
0.0
 10
6.809523697903906
 20
7.204558135730242
 30
0.0
 10
6.807871229709479
 20
7.202325648304921
 30
0.0
  0
ARC
  5
1A9
330
1F
100
AcDbEntity
  8
0
  6
Continuous
 62
     7
370
     0
100
AcDbCircle
 10
6.7737928353
 20
7.2067740906
 30
0.0
 40
0.0374939537543992
100
AcDbArc
 50
44.018567715
 51
116.3221989382
  0
SPLINE
  5
1AA
330
1F
100
AcDbEntity
  8
0
  6
Continuous
 62
     7
370
     0
100
AcDbSpline
210
0.0
220
0.0
230
1.0
 70
     8
 71
     3
 72
    13
 73
     9
 74
     0
 42
0.00000001
 43
0.00000001
 40
0.0
 40
0.0
 40
0.0
 40
0.0
 40
0.2497868956772463
 40
0.3752957420441743
 40
0.5002657264242287
 40
0.6270469575879859
 40
0.750713591721421
 40
1.0
 40
1.0
 40
1.0
 40
1.0
 10
6.757609436262207
 20
7.2138618703256
 30
0.0
 10
6.755398792489063
 20
7.216085528283664
 30
0.0
 10
6.752077380479087
 20
7.219426493633992
 30
0.0
 10
6.749824154906046
 20
7.224426012035144
 30
0.0
 10
6.749178465529106
 20
7.228201914418894
 30
0.0
 10
6.749594095506447
 20
7.231830074212814
 30
0.0
 10
6.751551025227998
 20
7.236341469385176
 30
0.0
 10
6.754917277928462
 20
7.23876233563159
 30
0.0
 10
6.757167322705224
 20
7.240380472455434
 30
0.0
  0
SPLINE
  5
1AB
330
1F
100
AcDbEntity
  8
0
  6
Continuous
 62
     7
370
     0
100
AcDbSpline
210
0.0
220
0.0
230
1.0
 70
    24
 71
     1
 72
     4
 73
     2
 74
     0
 42
0.00000001
 43
0.00000001
 40
0.0
 40
0.0
 40
1.0
 40
1.0
 10
6.769999263590035
 20
7.206298315146851
 30
0.0
 10
6.757609436262207
 20
7.2138618703256
 30
0.0
  0
SPLINE
  5
1AC
330
1F
100
AcDbEntity
  8
0
  6
Continuous
 62
     7
370
     0
100
AcDbSpline
210
0.0
220
0.0
230
1.0
 70
    24
 71
     1
 72
     4
 73
     2
 74
     0
 42
0.00000001
 43
0.00000001
 40
0.0
 40
0.0
 40
1.0
 40
1.0
 10
6.760172081507227
 20
7.202570207106519
 30
0.0
 10
6.769999263590034
 20
7.206298315146851
 30
0.0
  0
ARC
  5
1AD
330
1F
100
AcDbEntity
  8
0
  6
Continuous
 62
     7
370
     0
100
AcDbCircle
 10
6.2276006335
 20
6.6232084521
 30
0.0
 40
0.78695132653249
100
AcDbArc
 50
47.409592951
 51
49.791502696
  0
LINE
  5
1AE
330
1F
100
AcDbEntity
  8
0
  6
Continuous
 62
     7
370
     0
100
AcDbLine
 10
6.723041084
 20
7.2169339343
 30
0.0
 11
6.7356335538
 21
7.2242034124
 31
0.0
  0
ARC
  5
1AF
330
1F
100
AcDbEntity
  8
0
  6
Continuous
 62
     7
370
     0
100
AcDbCircle
 10
6.207419361
 20
6.6072675475
 30
0.0
 40
0.7984728326297925
100
AcDbArc
 50
46.2950363676
 51
49.7773271736
  0
SPLINE
  5
1B0
330
1F
100
AcDbEntity
  8
0
  6
Continuous
 62
     7
370
     0
100
AcDbSpline
210
0.0
220
0.0
230
1.0
 70
    24
 71
     1
 72
     4
 73
     2
 74
     0
 42
0.00000001
 43
0.00000001
 40
0.0
 40
0.0
 40
1.0
 40
1.0
 10
6.794391132535504
 20
7.197557356996061
 30
0.0
 10
6.759120204545912
 20
7.184489379793482
 30
0.0
  0
SPLINE
  5
1B1
330
1F
100
AcDbEntity
  8
0
  6
Continuous
 62
     7
370
     0
100
AcDbSpline
210
0.0
220
0.0
230
1.0
 70
    24
 71
     1
 72
     4
 73
     2
 74
     0
 42
0.00000001
 43
0.00000001
 40
0.0
 40
0.0
 40
1.0
 40
1.0
 10
6.783527179380312
 20
7.210820097382294
 30
0.0
 10
6.794391132535504
 20
7.197557356996061
 30
0.0
  0
LINE
  5
1B2
330
1F
100
AcDbEntity
  8
0
  6
Continuous
 62
     7
370
     0
100
AcDbLine
 10
6.6803067742
 20
7.2951881464
 30
0.0
 11
6.7013018765
 21
7.3073083609
 31
0.0
  0
ARC
  5
1B3
330
1F
100
AcDbEntity
  8
0
  6
Continuous
 62
     7
370
     0
100
AcDbCircle
 10
6.6717822754
 20
7.3068085102
 30
0.0
 40
0.0144117985247988
100
AcDbArc
 50
243.3530393978
 51
306.2631306162
  0
ARC
  5
1B4
330
1F
100
AcDbEntity
  8
0
  6
Continuous
 62
     7
370
     0
100
AcDbCircle
 10
6.666330931
 20
7.2967249239
 30
0.0
 40
0.0029749897398223
100
AcDbArc
 50
138.1633540726
 51
250.1081223762
  0
SPLINE
  5
1B5
330
1F
100
AcDbEntity
  8
0
  6
Continuous
 62
     7
370
     0
100
AcDbSpline
210
0.0
220
0.0
230
1.0
 70
    24
 71
     1
 72
     4
 73
     2
 74
     0
 42
0.00000001
 43
0.00000001
 40
0.0
 40
0.0
 40
1.0
 40
1.0
 10
6.667489277823826
 20
7.301020619921006
 30
0.0
 10
6.664114416238693
 20
7.298709269247839
 30
0.0
  0
LINE
  5
1B6
330
1F
100
AcDbEntity
  8
0
  6
Continuous
 62
     7
370
     0
100
AcDbLine
 10
6.690148836
 20
7.3141017044
 30
0.0
 11
6.6674892778
 21
7.3010206199
 31
0.0
  0
ARC
  5
1B7
330
1F
100
AcDbEntity
  8
0
  6
Continuous
 62
     7
370
     0
100
AcDbCircle
 10
6.403097683
 20
6.8309435223
 30
0.0
 40
0.5619966133784584
100
AcDbArc
 50
59.2848503828
 51
61.1416172112
  0
LINE
  5
1B8
330
1F
100
AcDbEntity
  8
0
  6
Continuous
 62
     7
370
     0
100
AcDbLine
 10
6.6531071389
 20
7.3108893976
 30
0.0
 11
6.6743433003
 21
7.3231487727
 31
0.0
  0
ARC
  5
1B9
330
1F
100
AcDbEntity
  8
0
  6
Continuous
 62
     7
370
     0
100
AcDbCircle
 10
6.6444248686
 20
7.3229522394
 30
0.0
 40
0.0148625021051673
100
AcDbArc
 50
246.205012165
 51
305.7445772571
  0
ARC
  5
1BA
330
1F
100
AcDbEntity
  8
0
  6
Continuous
 62
     7
370
     0
100
AcDbCircle
 10
6.6394799336
 20
7.3120905728
 30
0.0
 40
0.0029324762596707
100
AcDbArc
 50
168.4602970801
 51
248.9861305764
  0
SPLINE
  5
1BB
330
1F
100
AcDbEntity
  8
0
  6
Continuous
 62
     7
370
     0
100
AcDbSpline
210
0.0
220
0.0
230
1.0
 70
     8
 71
     3
 72
     9
 73
     5
 74
     0
 42
0.00000001
 43
0.00000001
 40
0.0
 40
0.0
 40
0.0
 40
0.0
 40
0.5015784057013122
 40
1.0
 40
1.0
 40
1.0
 40
1.0
 10
6.639672875313298
 20
7.315631745655463
 30
0.0
 10
6.63895184629923
 20
7.315199181533957
 30
0.0
 10
6.637514326250773
 20
7.314336775743378
 30
0.0
 10
6.636908627061607
 20
7.313229230236512
 30
0.0
 10
6.636606733506078
 20
7.312677205639222
 30
0.0
  0
LINE
  5
1BC
330
1F
100
AcDbEntity
  8
0
  6
Continuous
 62
     7
370
     0
100
AcDbLine
 10
6.6631130059
 20
7.329163445
 30
0.0
 11
6.6396728753
 21
7.3156317457
 31
0.0
  0
ARC
  5
1BD
330
1F
100
AcDbEntity
  8
0
  6
Continuous
 62
     7
370
     0
100
AcDbCircle
 10
6.4280801168
 20
6.8775848751
 30
0.0
 40
0.5090811957511753
100
AcDbArc
 50
62.5043960566
 51
64.4877028377
  0
LINE
  5
1BE
330
1F
100
AcDbEntity
  8
0
  6
Continuous
 62
     7
370
     0
100
AcDbLine
 10
6.621504591
 20
7.3221103443
 30
0.0
 11
6.647343834
 21
7.3370270218
 31
0.0
  0
SPLINE
  5
1BF
330
1F
100
AcDbEntity
  8
0
  6
Continuous
 62
     7
370
     0
100
AcDbSpline
210
0.0
220
0.0
230
1.0
 70
     8
 71
     3
 72
    13
 73
     9
 74
     0
 42
0.00000001
 43
0.00000001
 40
0.0
 40
0.0
 40
0.0
 40
0.0
 40
0.2493026324881872
 40
0.3767800005090964
 40
0.4994269650591044
 40
0.6183515801748573
 40
0.7497380290331296
 40
1.0
 40
1.0
 40
1.0
 40
1.0
 10
6.619299945478283
 20
7.305779024538741
 30
0.0
 10
6.617405034194383
 20
7.306920493186454
 30
0.0
 10
6.614541186880028
 20
7.30864563565035
 30
0.0
 10
6.612906844346982
 20
7.311584948414867
 30
0.0
 10
6.612799981600215
 20
7.313869083202144
 30
0.0
 10
6.613886982827174
 20
7.31614932707045
 30
0.0
 10
6.61655528613178
 20
7.319013049819818
 30
0.0
 10
6.619544466918414
 20
7.320883690940107
 30
0.0
 10
6.621504591044129
 20
7.322110344345222
 30
0.0
  0
ARC
  5
1C0
330
1F
100
AcDbEntity
  8
0
  6
Continuous
 62
     7
370
     0
100
AcDbCircle
 10
6.6358645156
 20
7.3383906692
 30
0.0
 40
0.0365773748511021
100
AcDbArc
 50
243.0724266427
 51
277.3759244881
  0
SPLINE
  5
1C1
330
1F
100
AcDbEntity
  8
0
  6
Continuous
 62
     7
370
     0
100
AcDbSpline
210
0.0
220
0.0
230
1.0
 70
     8
 71
     3
 72
    12
 73
     8
 74
     0
 42
0.00000001
 43
0.00000001
 40
0.0
 40
0.0
 40
0.0
 40
0.0
 40
0.2503253654036851
 40
0.4999978777420905
 40
0.7494826629082477
 40
0.8746982187918015
 40
1.0
 40
1.0
 40
1.0
 40
1.0
 10
6.646104034838763
 20
7.290982107968118
 30
0.0
 10
6.644887484724811
 20
7.291748883170007
 30
0.0
 10
6.642457557281535
 20
7.293280433810235
 30
0.0
 10
6.639901575310469
 20
7.296043882240522
 30
0.0
 10
6.639427754182808
 20
7.298622864574764
 30
0.0
 10
6.63985061498524
 20
7.300642815700945
 30
0.0
 10
6.64032366957727
 20
7.30162480259265
 30
0.0
 10
6.640560278283391
 20
7.30211596503307
 30
0.0
  0
ARC
  5
1C2
330
1F
100
AcDbEntity
  8
0
  6
Continuous
 62
     7
370
     0
100
AcDbCircle
 10
6.6638422198
 20
7.3213768634
 30
0.0
 40
0.0351921065548515
100
AcDbArc
 50
239.7324376347
 51
275.5449502973
  0
LINE
  5
1C3
330
1F
100
AcDbEntity
  8
0
  6
Continuous
 62
     7
370
     0
100
AcDbLine
 10
6.6612391946
 20
7.2828836729
 30
0.0
 11
6.6672427149
 21
7.2863494313
 31
0.0
  0
ARC
  5
1C4
330
1F
100
AcDbEntity
  8
0
  6
Continuous
 62
     7
370
     0
100
AcDbCircle
 10
6.3329890024
 20
6.7596996682
 30
0.0
 40
0.6176323270995075
100
AcDbArc
 50
56.2709886957
 51
57.8954825747
  0
LINE
  5
1C5
330
1F
100
AcDbEntity
  8
0
  6
Continuous
 62
     7
370
     0
100
AcDbLine
 10
6.7170797516
 20
7.2971178984
 30
0.0
 11
6.6759389935
 21
7.2733678443
 31
0.0
  0
ARC
  5
1C6
330
1F
100
AcDbEntity
  8
0
  6
Continuous
 62
     7
370
     0
100
AcDbCircle
 10
6.3747352087
 20
6.7843761059
 30
0.0
 40
0.6165256944487806
100
AcDbArc
 50
56.2699799893
 51
58.015578871
  0
LWPOLYLINE
  5
1C7
330
1F
100
AcDbEntity
  8
0
  6
Continuous
 62
     7
370
     0
100
AcDbPolyline
 90
       40
 70
   128
 43
0.0
 10
8.0305356332
 20
6.9122660729
 10
8.0428174451
 20
6.9199620216
 10
8.0651895261
 20
6.9375413931
 10
8.085334703
 20
6.9584106088
 10
8.1031189128
 20
6.9824307877
 10
8.1184238046
 20
7.0094420793
 10
8.1311475268
 20
7.039264728
 10
8.1412054053
 20
7.071700269
 10
8.1485305064
 20
7.1065328491
 10
8.1530740828
 20
7.1435306632
 10
8.1548058979
 20
7.182447497
 10
8.1537144265
 20
7.2230243654
 10
8.1498069324
 20
7.264991236
 10
8.1431094192
 20
7.3080688262
 10
8.1336664577
 20
7.3519704618
 10
8.1215408894
 20
7.3964039845
 10
8.1068134078
 20
7.4410736968
 10
8.089582022
 20
7.4856823289
 10
8.069961404
 20
7.5299330178
 10
8.0480821257
 20
7.5735312824
 10
8.0240897901
 20
7.6161869836
 10
7.9981440623
 20
7.6576162546
 10
7.9704176068
 20
7.6975433905
 10
7.9410949386
 20
7.7357026828
 10
7.9103711952
 20
7.7718401877
 10
7.878450838
 20
7.8057154161
 10
7.8455462918
 20
7.8371029338
 10
7.8118765309
 20
7.8657938623
 10
7.777665622
 20
7.8915972679
 10
7.7431412331
 20
7.9143414334
 10
7.7085331181
 20
7.9338750001
 10
7.6740715886
 20
7.9500679754
 10
7.6399859802
 20
7.9628125975
 10
7.606503127
 20
7.9720240532
 10
7.573845852
 20
7.9776410418
 10
7.5422314838
 20
7.9796261832
 10
7.511870411
 20
7.9779662664
 10
7.4829646813
 20
7.9726723381
 10
7.4557066578
 20
7.9637796285
 10
7.4305843936
 20
7.9515247077
  0
LINE
  5
1C8
330
1F
100
AcDbEntity
  8
0
  6
Continuous
 62
     7
370
     0
100
AcDbLine
 10
6.6011899213
 20
7.3360317555
 30
0.0
 11
6.6221850236
 21
7.34815197
 31
0.0
  0
ARC
  5
1C9
330
1F
100
AcDbEntity
  8
0
  6
Continuous
 62
     7
370
     0
100
AcDbCircle
 10
6.5909832977
 20
7.3502681494
 30
0.0
 40
0.0175171366424051
100
AcDbArc
 50
254.3959372317
 51
305.6382082486
  0
SPLINE
  5
1CA
330
1F
100
AcDbEntity
  8
0
  6
Continuous
 62
     7
370
     0
100
AcDbSpline
210
0.0
220
0.0
230
1.0
 70
     8
 71
     3
 72
    11
 73
     7
 74
     0
 42
0.00000001
 43
0.00000001
 40
0.0
 40
0.0
 40
0.0
 40
0.0
 40
0.2494767937593991
 40
0.5035301868638927
 40
0.7522417858703692
 40
0.9999999999999999
 40
0.9999999999999999
 40
0.9999999999999999
 40
0.9999999999999999
 10
6.585130344980749
 20
7.337142117859795
 30
0.0
 10
6.584846273722424
 20
7.336792165515951
 30
0.0
 10
6.584272919978248
 20
7.336085841026071
 30
0.0
 10
6.584238484462767
 20
7.335017714974073
 30
0.0
 10
6.584872085348139
 20
7.334059402669383
 30
0.0
 10
6.585805556726559
 20
7.333617273312234
 30
0.0
 10
6.586271396130163
 20
7.333396633150347
 30
0.0
  0
SPLINE
  5
1CB
330
1F
100
AcDbEntity
  8
0
  6
Continuous
 62
     7
370
     0
100
AcDbSpline
210
0.0
220
0.0
230
1.0
 70
    24
 71
     1
 72
     4
 73
     2
 74
     0
 42
0.00000001
 43
0.00000001
 40
0.0
 40
0.0
 40
1.0
 40
1.0
 10
6.588509759489414
 20
7.339384212962979
 30
0.0
 10
6.585130344980749
 20
7.337142117859795
 30
0.0
  0
LINE
  5
1CC
330
1F
100
AcDbEntity
  8
0
  6
Continuous
 62
     7
370
     0
100
AcDbLine
 10
6.6111693177
 20
7.3524652975
 30
0.0
 11
6.5885097595
 21
7.339384213
 31
0.0
  0
ARC
  5
1CD
330
1F
100
AcDbEntity
  8
0
  6
Continuous
 62
     7
370
     0
100
AcDbCircle
 10
6.46507823
 20
6.9641205971
 30
0.0
 40
0.4149147047969092
100
AcDbArc
 50
69.3842416395
 51
71.6573073818
  0
LINE
  5
1CE
330
1F
100
AcDbEntity
  8
0
  6
Continuous
 62
     7
370
     0
100
AcDbLine
 10
6.5744156478
 20
7.3456946293
 30
0.0
 11
6.5956518092
 21
7.3579540043
 31
0.0
  0
ARC
  5
1CF
330
1F
100
AcDbEntity
  8
0
  6
Continuous
 62
     7
370
     0
100
AcDbCircle
 10
6.5637855723
 20
7.3608157203
 30
0.0
 40
0.0184836657170098
100
AcDbArc
 50
257.8004773088
 51
305.1070877766
  0
SPLINE
  5
1D0
330
1F
100
AcDbEntity
  8
0
  6
Continuous
 62
     7
370
     0
100
AcDbSpline
210
0.0
220
0.0
230
1.0
 70
     8
 71
     3
 72
    10
 73
     6
 74
     0
 42
0.00000001
 43
0.00000001
 40
0.0
 40
0.0
 40
0.0
 40
0.0
 40
0.4988594542991949
 40
0.7491987595266316
 40
1.0
 40
1.0
 40
1.0
 40
1.0
 10
6.558158042023558
 20
7.345169659825213
 30
0.0
 10
6.558089646225564
 20
7.344677714010905
 30
0.0
 10
6.557986927821471
 20
7.343938898317109
 30
0.0
 10
6.558822961102186
 20
7.343152400698984
 30
0.0
 10
6.559527214561259
 20
7.342883855452673
 30
0.0
 10
6.559879665869896
 20
7.342749459061328
 30
0.0
  0
SPLINE
  5
1D1
330
1F
100
AcDbEntity
  8
0
  6
Continuous
 62
     7
370
     0
100
AcDbSpline
210
0.0
220
0.0
230
1.0
 70
     8
 71
     3
 72
     9
 73
     5
 74
     0
 42
0.00000001
 43
0.00000001
 40
0.0
 40
0.0
 40
0.0
 40
0.0
 40
0.5015784057013222
 40
1.0
 40
1.0
 40
1.0
 40
1.0
 10
6.561252617690371
 20
7.34787743118965
 30
0.0
 10
6.560531173703704
 20
7.347448303166439
 30
0.0
 10
6.559092826321785
 20
7.346592747946493
 30
0.0
 10
6.558468980334926
 20
7.345643023164968
 30
0.0
 10
6.558158042023558
 20
7.345169659825213
 30
0.0
  0
LINE
  5
1D2
330
1F
100
AcDbEntity
  8
0
  6
Continuous
 62
     7
370
     0
100
AcDbLine
 10
6.5846927483
 20
7.3614091306
 30
0.0
 11
6.5612526177
 21
7.3478774312
 31
0.0
  0
ARC
  5
1D3
330
1F
100
AcDbEntity
  8
0
  6
Continuous
 62
     7
370
     0
100
AcDbCircle
 10
6.4780716832
 20
7.0052858305
 30
0.0
 40
0.3717416527493855
100
AcDbArc
 50
73.3326322891
 51
75.7784590185
  0
LINE
  5
1D4
330
1F
100
AcDbEntity
  8
0
  6
Continuous
 62
     7
370
     0
100
AcDbLine
 10
6.543558897
 20
7.35071806
 30
0.0
 11
6.5693981399
 21
7.3656347374
 31
0.0
  0
SPLINE
  5
1D5
330
1F
100
AcDbEntity
  8
0
  6
Continuous
 62
     7
370
     0
100
AcDbSpline
210
0.0
220
0.0
230
1.0
 70
     8
 71
     3
 72
    13
 73
     9
 74
     0
 42
0.00000001
 43
0.00000001
 40
0.0
 40
0.0
 40
0.0
 40
0.0
 40
0.2493026324882644
 40
0.3767800005160215
 40
0.499426965059077
 40
0.6183515801772357
 40
0.7497380290330655
 40
0.9999999999999999
 40
0.9999999999999999
 40
0.9999999999999999
 40
0.9999999999999999
 10
6.540926739209391
 20
7.337625239285136
 30
0.0
 10
6.539089721587992
 20
7.338294511376509
 30
0.0
 10
6.536313371039943
 20
7.33930600626694
 30
0.0
 10
6.534790823474006
 20
7.341407887978288
 30
0.0
 10
6.534753991035579
 20
7.343182264027711
 30
0.0
 10
6.535891944836409
 20
7.345100886555328
 30
0.0
 10
6.538601869624786
 20
7.347673794952564
 30
0.0
 10
6.54159571443937
 20
7.349512408376759
 30
0.0
 10
6.54355889695278
 20
7.350718059954196
 30
0.0
  0
ARC
  5
1D6
330
1F
100
AcDbEntity
  8
0
  6
Continuous
 62
     7
370
     0
100
AcDbCircle
 10
6.5521515489
 20
7.3778819873
 30
0.0
 40
0.041792369061344
100
AcDbArc
 50
254.4199076049
 51
283.4041956704
  0
SPLINE
  5
1D7
330
1F
100
AcDbEntity
  8
0
  6
Continuous
 62
     7
370
     0
100
AcDbSpline
210
0.0
220
0.0
230
1.0
 70
     8
 71
     3
 72
    12
 73
     8
 74
     0
 42
0.00000001
 43
0.00000001
 40
0.0
 40
0.0
 40
0.0
 40
0.0
 40
0.2503253654036866
 40
0.4999978777420936
 40
0.7494826629082607
 40
0.8746982187918034
 40
1.0
 40
1.0
 40
1.0
 40
1.0
 10
6.567154509678146
 20
7.328904038307681
 30
0.0
 10
6.565958301522241
 20
7.329387652628144
 30
0.0
 10
6.563569004942864
 20
7.330353619994206
 30
0.0
 10
6.561080299084898
 20
7.332286850315663
 30
0.0
 10
6.56065561668527
 20
7.334301226483168
 30
0.0
 10
6.561110449859281
 20
7.33596756211425
 30
0.0
 10
6.56159664076772
 20
7.336807816368984
 30
0.0
 10
6.561839819892734
 20
7.337228088099508
 30
0.0
  0
ARC
  5
1D8
330
1F
100
AcDbEntity
  8
0
  6
Continuous
 62
     7
370
     0
100
AcDbCircle
 10
6.5802767264
 20
7.3657692842
 30
0.0
 40
0.0391310481378063
100
AcDbArc
 50
250.4067683416
 51
281.555706853
  0
LINE
  5
1D9
330
1F
100
AcDbEntity
  8
0
  6
Continuous
 62
     7
370
     0
100
AcDbLine
 10
6.5821119608
 20
7.3239656482
 30
0.0
 11
6.588115481
 21
7.3274314067
 31
0.0
  0
ARC
  5
1DA
330
1F
100
AcDbEntity
  8
0
  6
Continuous
 62
     7
370
     0
100
AcDbCircle
 10
6.4064086737
 20
6.8957350258
 30
0.0
 40
0.462874833057029
100
AcDbArc
 50
65.7226862815
 51
67.6916271796
  0
LINE
  5
1DB
330
1F
100
AcDbEntity
  8
0
  6
Continuous
 62
     7
370
     0
100
AcDbLine
 10
6.6378620191
 20
7.3414261069
 30
0.0
 11
6.596721261
 21
7.3176760527
 31
0.0
  0
ARC
  5
1DC
330
1F
100
AcDbEntity
  8
0
  6
Continuous
 62
     7
370
     0
100
AcDbCircle
 10
6.4479408192
 20
6.9203811001
 30
0.0
 40
0.4618971313240382
100
AcDbArc
 50
65.7212440985
 51
67.8374240465
  0
ARC
  5
1DD
330
1F
100
AcDbEntity
  8
0
  6
Continuous
 62
     7
370
     0
100
AcDbCircle
 10
6.7231186645
 20
7.2403330715
 30
0.0
 40
0.0438118824970443
100
AcDbArc
 50
53.4993350605
 51
127.6958602719
  0
SPLINE
  5
1DE
330
1F
100
AcDbEntity
  8
0
  6
Continuous
 62
     7
370
     0
100
AcDbSpline
210
0.0
220
0.0
230
1.0
 70
    24
 71
     1
 72
     4
 73
     2
 74
     0
 42
0.00000001
 43
0.00000001
 40
0.0
 40
0.0
 40
1.0
 40
1.0
 10
6.68467002407299
 20
7.266254208593205
 30
0.0
 10
6.696329018308697
 20
7.274999999688348
 30
0.0
  0
SPLINE
  5
1DF
330
1F
100
AcDbEntity
  8
0
  6
Continuous
 62
     7
370
     0
100
AcDbSpline
210
0.0
220
0.0
230
1.0
 70
     8
 71
     3
 72
    12
 73
     8
 74
     0
 42
0.00000001
 43
0.00000001
 40
0.0
 40
0.0
 40
0.0
 40
0.0
 40
0.2503262674180391
 40
0.4997345046006504
 40
0.6249000363599466
 40
0.7501600021982658
 40
0.9999999999999999
 40
0.9999999999999999
 40
0.9999999999999999
 40
0.9999999999999999
 10
6.690032914949199
 20
7.241965436685422
 30
0.0
 10
6.687734722300744
 20
7.243803632629318
 30
0.0
 10
6.68314676524574
 20
7.247473283237132
 30
0.0
 10
6.679977099640427
 20
7.252990146047862
 30
0.0
 10
6.679722288353628
 20
7.257380576766858
 30
0.0
 10
6.680611770463504
 20
7.261677992866323
 30
0.0
 10
6.683047605704138
 20
7.264424718085817
 30
0.0
 10
6.68467002407299
 20
7.266254208593205
 30
0.0
  0
ARC
  5
1E0
330
1F
100
AcDbEntity
  8
0
  6
Continuous
 62
     7
370
     0
100
AcDbCircle
 10
6.7171345167
 20
7.2754959537
 30
0.0
 40
0.0431137146318508
100
AcDbArc
 50
231.0525435836
 51
305.8383376987
  0
SPLINE
  5
1E1
330
1F
100
AcDbEntity
  8
0
  6
Continuous
 62
     7
370
     0
100
AcDbSpline
210
0.0
220
0.0
230
1.0
 70
     8
 71
     3
 72
     9
 73
     5
 74
     0
 42
0.00000001
 43
0.00000001
 40
0.0
 40
0.0
 40
0.0
 40
0.0
 40
0.4987092906772052
 40
0.9999999999999999
 40
0.9999999999999999
 40
0.9999999999999999
 40
0.9999999999999999
 10
6.758731016794044
 20
7.255896013055684
 30
0.0
 10
6.756788887283467
 20
7.252906112722949
 30
0.0
 10
6.752894575413039
 20
7.246910835737686
 30
0.0
 10
6.745889291005933
 20
7.242670502280356
 30
0.0
 10
6.742377607016486
 20
7.240544862513767
 30
0.0
  0
ARC
  5
1E2
330
1F
100
AcDbEntity
  8
0
  6
Continuous
 62
     7
370
     0
100
AcDbCircle
 10
6.7412306722
 20
7.2595400359
 30
0.0
 40
0.0178757087930091
100
AcDbArc
 50
348.2376172842
 51
63.5980745497
  0
LINE
  5
1E3
330
1F
100
AcDbEntity
  8
0
  6
Continuous
 62
     7
370
     0
100
AcDbLine
 10
6.7855206263
 20
7.1782674287
 30
0.0
 11
6.7981130961
 21
7.1855369068
 31
0.0
  0
ARC
  5
1E4
330
1F
100
AcDbEntity
  8
0
  6
Continuous
 62
     7
370
     0
100
AcDbCircle
 10
6.1521136372
 20
6.5450649895
 30
0.0
 40
0.8956281276066212
100
AcDbArc
 50
41.348161824
 51
44.9907470749
  0
LINE
  5
1E5
330
1F
100
AcDbEntity
  8
0
  6
Continuous
 62
     7
370
     0
100
AcDbLine
 10
6.8370622768
 20
7.1440159054
 30
0.0
 11
6.824469807
 21
7.1367464273
 31
0.0
  0
ARC
  5
1E6
330
1F
100
AcDbEntity
  8
0
  6
Continuous
 62
     7
370
     0
100
AcDbCircle
 10
6.1647061069
 20
6.5523344675
 30
0.0
 40
0.8956281276059506
100
AcDbArc
 50
41.348161824
 51
44.9907470749
  0
ARC
  5
1E7
330
1F
100
AcDbEntity
  8
0
  6
Continuous
 62
     7
370
     0
100
AcDbCircle
 10
6.8398153058
 20
7.0507857182
 30
0.0
 40
0.0447027285917561
100
AcDbArc
 50
46.0133392601
 51
91.0246784155
  0
LINE
  5
1E8
330
1F
100
AcDbEntity
  8
0
  6
Continuous
 62
     7
370
     0
100
AcDbLine
 10
6.883797783
 20
7.0904176775
 30
0.0
 11
6.8708609431
 21
7.0829493988
 31
0.0
  0
SPLINE
  5
1E9
330
1F
100
AcDbEntity
  8
0
  6
Continuous
 62
     7
370
     0
100
AcDbSpline
210
0.0
220
0.0
230
1.0
 70
    24
 71
     1
 72
     4
 73
     2
 74
     0
 42
0.00000001
 43
0.00000001
 40
0.0
 40
0.0
 40
1.0
 40
1.0
 10
6.861439664811558
 20
7.103839417798268
 30
0.0
 10
6.883797783031892
 20
7.090417677507693
 30
0.0
  0
LINE
  5
1EA
330
1F
100
AcDbEntity
  8
0
  6
Continuous
 62
     7
370
     0
100
AcDbLine
 10
6.8992859482
 20
7.1256876122
 30
0.0
 11
6.8614396648
 21
7.1038394178
 31
0.0
  0
ARC
  5
1EB
330
1F
100
AcDbEntity
  8
0
  6
Continuous
 62
     7
370
     0
100
AcDbCircle
 10
6.1441279323
 20
6.5250338643
 30
0.0
 40
0.9649085727889087
100
AcDbArc
 50
38.4987889341
 51
39.8068933895
  0
LINE
  5
1EC
330
1F
100
AcDbEntity
  8
0
  6
Continuous
 62
     7
370
     0
100
AcDbLine
 10
6.8276146154
 20
7.1094248866
 30
0.0
 11
6.8853769746
 21
7.1427703867
 31
0.0
  0
ARC
  5
1ED
330
1F
100
AcDbEntity
  8
0
  6
Continuous
 62
     7
370
     0
100
AcDbCircle
 10
6.0877446642
 20
6.4928215973
 30
0.0
 40
0.9631236478925396
100
AcDbArc
 50
38.7361186344
 51
39.8076274888
  0
LINE
  5
1EE
330
1F
100
AcDbEntity
  8
0
  6
Continuous
 62
     7
370
     0
100
AcDbLine
 10
6.9194962417
 20
7.0533681426
 30
0.0
 11
6.9427067922
 21
7.0667673082
 31
0.0
  0
ARC
  5
1EF
330
1F
100
AcDbEntity
  8
0
  6
Continuous
 62
     7
370
     0
100
AcDbCircle
 10
6.0817792885
 20
6.4817885295
 30
0.0
 40
1.014136552841981
100
AcDbArc
 50
34.3059671556
 51
36.0498763944
  0
LINE
  5
1F0
330
1F
100
AcDbEntity
  8
0
  6
Continuous
 62
     7
370
     0
100
AcDbLine
 10
6.8902462517
 20
7.0719769615
 30
0.0
 11
6.9017137789
 21
7.0785970241
 31
0.0
  0
ARC
  5
1F1
330
1F
100
AcDbEntity
  8
0
  6
Continuous
 62
     7
370
     0
100
AcDbCircle
 10
6.0703117613
 20
6.475168467
 30
0.0
 40
1.014136552845516
100
AcDbArc
 50
34.3059671556
 51
36.0498763944
  0
LINE
  5
1F2
330
1F
100
AcDbEntity
  8
0
  6
Continuous
 62
     7
370
     0
100
AcDbLine
 10
6.8981108532
 20
7.0410226206
 30
0.0
 11
6.9080287145
 21
7.0467480801
 31
0.0
  0
ARC
  5
1F3
330
1F
100
AcDbEntity
  8
0
  6
Continuous
 62
     7
370
     0
100
AcDbCircle
 10
6.0615949324
 20
6.4702819992
 30
0.0
 40
1.012671586727222
100
AcDbArc
 50
34.3050548788
 51
36.3483841289
  0
LINE
  5
1F4
330
1F
100
AcDbEntity
  8
0
  6
Continuous
 62
     7
370
     0
100
AcDbLine
 10
6.8650268625
 20
7.0634417399
 30
0.0
 11
6.877229046
 21
7.0704859106
 31
0.0
  0
ARC
  5
1F5
330
1F
100
AcDbEntity
  8
0
  6
Continuous
 62
     7
370
     0
100
AcDbCircle
 10
6.044513006
 20
6.4597649708
 30
0.0
 40
1.018660213330142
100
AcDbArc
 50
32.9148321174
 51
36.3430376464
  0
LINE
  5
1F6
330
1F
100
AcDbEntity
  8
0
  6
Continuous
 62
     7
370
     0
100
AcDbLine
 10
6.9564552153
 20
7.0460854192
 30
0.0
 11
6.8996570927
 21
7.013296561
 31
0.0
  0
ARC
  5
1F7
330
1F
100
AcDbEntity
  8
0
  6
Continuous
 62
     7
370
     0
100
AcDbCircle
 10
6.0945366628
 20
6.4880299585
 30
0.0
 40
1.026805477367398
100
AcDbArc
 50
32.9213331728
 51
34.3071410484
  0
LINE
  5
1F8
330
1F
100
AcDbEntity
  8
0
  6
Continuous
 62
     7
370
     0
100
AcDbLine
 10
6.4902761781
 20
7.4020689935
 30
0.0
 11
6.5010090489
 21
7.408264948
 31
0.0
  0
ARC
  5
1F9
330
1F
100
AcDbEntity
  8
0
  6
Continuous
 62
     7
370
     0
100
AcDbCircle
 10
6.5510313333
 20
7.1959322697
 30
0.0
 40
0.2149035547134475
100
AcDbArc
 50
102.9076440499
 51
106.4219492132
  0
LINE
  5
1FA
330
1F
100
AcDbEntity
  8
0
  6
Continuous
 62
     7
370
     0
100
AcDbLine
 10
6.5137590136
 20
7.411601467
 30
0.0
 11
6.5030261428
 21
7.4054055126
 31
0.0
  0
ARC
  5
1FB
330
1F
100
AcDbEntity
  8
0
  6
Continuous
 62
     7
370
     0
100
AcDbCircle
 10
6.5617642041
 20
7.2021282241
 30
0.0
 40
0.2149035547125492
100
AcDbArc
 50
102.9076440499
 51
106.4219492132
  0
SPLINE
  5
1FC
330
1F
100
AcDbEntity
  8
0
  6
Continuous
 62
     7
370
     0
100
AcDbSpline
210
0.0
220
0.0
230
1.0
 70
     8
 71
     3
 72
    13
 73
     9
 74
     0
 42
0.00000001
 43
0.00000001
 40
0.0
 40
0.0
 40
0.0
 40
0.0
 40
0.2501705057673
 40
0.3840880187048166
 40
0.4999102936425117
 40
0.614022711624687
 40
0.749821308406812
 40
1.0
 40
1.0
 40
1.0
 40
1.0
 10
6.553622855218328
 20
7.426141631167809
 30
0.0
 10
6.552908814955408
 20
7.425718213909402
 30
0.0
 10
6.551812545397096
 20
7.425068139291821
 30
0.0
 10
6.550816344542899
 20
7.424309083181907
 30
0.0
 10
6.550485570618156
 20
7.423870245624273
 30
0.0
 10
6.55070798798121
 20
7.423638041743116
 30
0.0
 10
6.551482339675483
 20
7.423531832325137
 30
0.0
 10
6.552424898458557
 20
7.4236210252801
 30
0.0
 10
6.553035836278477
 20
7.42367883742979
 30
0.0
  0
SPLINE
  5
1FD
330
1F
100
AcDbEntity
  8
0
  6
Continuous
 62
     7
370
     0
100
AcDbSpline
210
0.0
220
0.0
230
1.0
 70
    24
 71
     1
 72
     4
 73
     2
 74
     0
 42
0.00000001
 43
0.00000001
 40
0.0
 40
0.0
 40
1.0
 40
1.0
 10
6.572745544399165
 20
7.430123481360012
 30
0.0
 10
6.553622855218328
 20
7.426141631167809
 30
0.0
  0
ARC
  5
1FE
330
1F
100
AcDbEntity
  8
0
  6
Continuous
 62
     7
370
     0
100
AcDbCircle
 10
6.5604138413
 20
7.5155992857
 30
0.0
 40
0.0863607782888066
100
AcDbArc
 50
278.2094897751
 51
287.346407219
  0
SPLINE
  5
1FF
330
1F
100
AcDbEntity
  8
0
  6
Continuous
 62
     7
370
     0
100
AcDbSpline
210
0.0
220
0.0
230
1.0
 70
     8
 71
     3
 72
     9
 73
     5
 74
     0
 42
0.00000001
 43
0.00000001
 40
0.0
 40
0.0
 40
0.0
 40
0.0
 40
0.5006506955429294
 40
1.0
 40
1.0
 40
1.0
 40
1.0
 10
6.596316659890218
 20
7.437686140536045
 30
0.0
 10
6.594817497624568
 20
7.436865393739364
 30
0.0
 10
6.591823070014668
 20
7.43522603359468
 30
0.0
 10
6.58804748064735
 20
7.433852233906906
 30
0.0
 10
6.586162142722864
 20
7.433166227988355
 30
0.0
  0
SPLINE
  5
200
330
1F
100
AcDbEntity
  8
0
  6
Continuous
 62
     7
370
     0
100
AcDbSpline
210
0.0
220
0.0
230
1.0
 70
     8
 71
     3
 72
    14
 73
    10
 74
     0
 42
0.00000001
 43
0.00000001
 40
0.0
 40
0.0
 40
0.0
 40
0.0
 40
0.2500047170985987
 40
0.3799563988538222
 40
0.5001514804937237
 40
0.6248780927827257
 40
0.7508658106742084
 40
0.8742378331962624
 40
1.0
 40
1.0
 40
1.0
 40
1.0
 10
6.594939821891061
 20
7.443861888485932
 30
0.0
 10
6.596421315430899
 20
7.443923295956608
 30
0.0
 10
6.598672884748688
 20
7.444016622841359
 30
0.0
 10
6.600623405780089
 20
7.443551550478824
 30
0.0
 10
6.601397038064327
 20
7.44288597609651
 30
0.0
 10
6.601349087019661
 20
7.441909556179979
 30
0.0
 10
6.600545313614909
 20
7.44068383371277
 30
0.0
 10
6.598853321125536
 20
7.439233430400107
 30
0.0
 10
6.597167604446452
 20
7.438205192062677
 30
0.0
 10
6.596316659890218
 20
7.437686140536045
 30
0.0
  0
SPLINE
  5
201
330
1F
100
AcDbEntity
  8
0
  6
Continuous
 62
     7
370
     0
100
AcDbSpline
210
0.0
220
0.0
230
1.0
 70
    24
 71
     1
 72
     4
 73
     2
 74
     0
 42
0.00000001
 43
0.00000001
 40
0.0
 40
0.0
 40
1.0
 40
1.0
 10
6.584820882823571
 20
7.442092399783085
 30
0.0
 10
6.594939821891061
 20
7.443861888485932
 30
0.0
  0
SPLINE
  5
202
330
1F
100
AcDbEntity
  8
0
  6
Continuous
 62
     7
370
     0
100
AcDbSpline
210
0.0
220
0.0
230
1.0
 70
    24
 71
     1
 72
     4
 73
     2
 74
     0
 42
0.00000001
 43
0.00000001
 40
0.0
 40
0.0
 40
1.0
 40
1.0
 10
6.575299694866785
 20
7.438990724326144
 30
0.0
 10
6.584820882823571
 20
7.442092399783085
 30
0.0
  0
SPLINE
  5
203
330
1F
100
AcDbEntity
  8
0
  6
Continuous
 62
     7
370
     0
100
AcDbSpline
210
0.0
220
0.0
230
1.0
 70
     8
 71
     3
 72
     9
 73
     5
 74
     0
 42
0.00000001
 43
0.00000001
 40
0.0
 40
0.0
 40
0.0
 40
0.0
 40
0.4998463205888566
 40
1.0
 40
1.0
 40
1.0
 40
1.0
 10
6.578884351362738
 20
7.441700659684218
 30
0.0
 10
6.578466861566859
 20
7.441296877902487
 30
0.0
 10
6.577631625257853
 20
7.440489066050925
 30
0.0
 10
6.576077164256241
 20
7.439490273896932
 30
0.0
 10
6.575299694866785
 20
7.438990724326144
 30
0.0
  0
ARC
  5
204
330
1F
100
AcDbEntity
  8
0
  6
Continuous
 62
     7
370
     0
100
AcDbCircle
 10
6.610374522
 20
7.216712057
 30
0.0
 40
0.2271816501861819
100
AcDbArc
 50
97.9675538691
 51
101.1468567818
  0
SPLINE
  5
205
330
1F
100
AcDbEntity
  8
0
  6
Continuous
 62
     7
370
     0
100
AcDbSpline
210
0.0
220
0.0
230
1.0
 70
     8
 71
     3
 72
     9
 73
     5
 74
     0
 42
0.00000001
 43
0.00000001
 40
0.0
 40
0.0
 40
0.0
 40
0.0
 40
0.5000572978128635
 40
1.0
 40
1.0
 40
1.0
 40
1.0
 10
6.559338555804723
 20
7.434869253750938
 30
0.0
 10
6.560855249261413
 20
7.435750575626454
 30
0.0
 10
6.563888288601753
 20
7.437513017409368
 30
0.0
 10
6.565599337474653
 20
7.4389096594594
 30
0.0
 10
6.566454763871746
 20
7.439607900459881
 30
0.0
  0
LINE
  5
206
330
1F
100
AcDbEntity
  8
0
  6
Continuous
 62
     7
370
     0
100
AcDbLine
 10
6.541167289
 20
7.4243792047
 30
0.0
 11
6.5593385558
 21
7.4348692538
 31
0.0
  0
ARC
  5
207
330
1F
100
AcDbEntity
  8
0
  6
Continuous
 62
     7
370
     0
100
AcDbCircle
 10
6.5473445779
 20
7.4087006435
 30
0.0
 40
0.0168515927836332
100
AcDbArc
 50
111.5042371364
 51
143.7685513955
  0
ARC
  5
208
330
1F
100
AcDbEntity
  8
0
  6
Continuous
 62
     7
370
     0
100
AcDbCircle
 10
6.539802547
 20
7.4306647527
 30
0.0
 40
0.0134428972013852
100
AcDbArc
 50
243.2478822422
 51
294.7804035028
  0
SPLINE
  5
209
330
1F
100
AcDbEntity
  8
0
  6
Continuous
 62
     7
370
     0
100
AcDbSpline
210
0.0
220
0.0
230
1.0
 70
     8
 71
     3
 72
     9
 73
     5
 74
     0
 42
0.00000001
 43
0.00000001
 40
0.0
 40
0.0
 40
0.0
 40
0.0
 40
0.4989850375674094
 40
1.0
 40
1.0
 40
1.0
 40
1.0
 10
6.560284892731497
 20
7.420859953242039
 30
0.0
 10
6.557479497764255
 20
7.420284025552266
 30
0.0
 10
6.551857295180953
 20
7.41912982723686
 30
0.0
 10
6.547580008658187
 20
7.418683354887101
 30
0.0
 10
6.545437024111671
 20
7.418459665559559
 30
0.0
  0
ARC
  5
20A
330
1F
100
AcDbEntity
  8
0
  6
Continuous
 62
     7
370
     0
100
AcDbCircle
 10
6.5413324502
 20
7.4969005888
 30
0.0
 40
0.0783669147498297
100
AcDbArc
 50
283.9953056561
 51
296.8195815144
  0
SPLINE
  5
20B
330
1F
100
AcDbEntity
  8
0
  6
Continuous
 62
     7
370
     0
100
AcDbSpline
210
0.0
220
0.0
230
1.0
 70
    24
 71
     1
 72
     4
 73
     2
 74
     0
 42
0.00000001
 43
0.00000001
 40
0.0
 40
0.0
 40
1.0
 40
1.0
 10
6.565058175876738
 20
7.427180114914436
 30
0.0
 10
6.576690235942309
 20
7.426963471885189
 30
0.0
  0
SPLINE
  5
20C
330
1F
100
AcDbEntity
  8
0
  6
Continuous
 62
     7
370
     0
100
AcDbSpline
210
0.0
220
0.0
230
1.0
 70
     8
 71
     3
 72
     9
 73
     5
 74
     0
 42
0.00000001
 43
0.00000001
 40
0.0
 40
0.0
 40
0.0
 40
0.0
 40
0.4984185104767918
 40
0.9999999999999999
 40
0.9999999999999999
 40
0.9999999999999999
 40
0.9999999999999999
 10
6.559286547684105
 20
7.4248934479485
 30
0.0
 10
6.560273570644432
 20
7.425228986454499
 30
0.0
 10
6.562253880242849
 20
7.425902192804074
 30
0.0
 10
6.564121441646246
 20
7.426753243592378
 30
0.0
 10
6.565058175876737
 20
7.427180114914436
 30
0.0
  0
SPLINE
  5
20D
330
1F
100
AcDbEntity
  8
0
  6
Continuous
 62
     7
370
     0
100
AcDbSpline
210
0.0
220
0.0
230
1.0
 70
     8
 71
     3
 72
     9
 73
     5
 74
     0
 42
0.00000001
 43
0.00000001
 40
0.0
 40
0.0
 40
0.0
 40
0.0
 40
0.5011984280361784
 40
1.0
 40
1.0
 40
1.0
 40
1.0
 10
6.553035836278477
 20
7.42367883742979
 30
0.0
 10
6.553919499151271
 20
7.423779812298736
 30
0.0
 10
6.555682599000278
 20
7.423981279149584
 30
0.0
 10
6.558087152579112
 20
7.424589877923417
 30
0.0
 10
6.559286547684105
 20
7.4248934479485
 30
0.0
  0
LINE
  5
20E
330
1F
100
AcDbEntity
  8
0
  6
Continuous
 62
     7
370
     0
100
AcDbLine
 10
6.6705323181
 20
7.4072451954
 30
0.0
 11
6.6508458225
 21
7.3958804234
 31
0.0
  0
SPLINE
  5
20F
330
1F
100
AcDbEntity
  8
0
  6
Continuous
 62
     7
370
     0
100
AcDbSpline
210
0.0
220
0.0
230
1.0
 70
     8
 71
     3
 72
    11
 73
     7
 74
     0
 42
0.00000001
 43
0.00000001
 40
0.0
 40
0.0
 40
0.0
 40
0.0
 40
0.4988199337615916
 40
0.7491888849042878
 40
0.8745696102450842
 40
0.9999999999999999
 40
0.9999999999999999
 40
0.9999999999999999
 40
0.9999999999999999
 10
6.677311191612218
 20
7.400523918562027
 30
0.0
 10
6.675307294158682
 20
7.401383422237444
 30
0.0
 10
6.672297595473717
 20
7.40267433015145
 30
0.0
 10
6.670847136708637
 20
7.404865648600858
 30
0.0
 10
6.670498770422904
 20
7.406200528359706
 30
0.0
 10
6.67052113405548
 20
7.406896927120658
 30
0.0
 10
6.670532318085939
 20
7.407245195449905
 30
0.0
  0
ARC
  5
210
330
1F
100
AcDbEntity
  8
0
  6
Continuous
 62
     7
370
     0
100
AcDbCircle
 10
6.6899291686
 20
7.4456480317
 30
0.0
 40
0.046855084376063
100
AcDbArc
 50
254.3775064054
 51
303.0306564391
  0
SPLINE
  5
211
330
1F
100
AcDbEntity
  8
0
  6
Continuous
 62
     7
370
     0
100
AcDbSpline
210
0.0
220
0.0
230
1.0
 70
     8
 71
     3
 72
    13
 73
     9
 74
     0
 42
0.00000001
 43
0.00000001
 40
0.0
 40
0.0
 40
0.0
 40
0.0
 40
0.1251722017704557
 40
0.2501710903368909
 40
0.3751630043242083
 40
0.5002554073255723
 40
0.7499099807477165
 40
1.0
 40
1.0
 40
1.0
 40
1.0
 10
6.720390335570762
 20
7.425320244927476
 30
0.0
 10
6.72160500343341
 20
7.424832349208663
 30
0.0
 10
6.72403265733178
 20
7.423857233310567
 30
0.0
 10
6.726411286457672
 20
7.421760653576172
 30
0.0
 10
6.727275559419047
 20
7.419242312204193
 30
0.0
 10
6.726337844252003
 20
7.41564244047702
 30
0.0
 10
6.722851714085149
 20
7.411081098941775
 30
0.0
 10
6.717931532707311
 20
7.407938419933488
 30
0.0
 10
6.715469298450961
 20
7.406365711263485
 30
0.0
  0
ARC
  5
212
330
1F
100
AcDbEntity
  8
0
  6
Continuous
 62
     7
370
     0
100
AcDbCircle
 10
6.7113451199
 20
7.3981599646
 30
0.0
 40
0.0286268537310953
100
AcDbArc
 50
71.5806421775
 51
90.3430272808
  0
SPLINE
  5
213
330
1F
100
AcDbEntity
  8
0
  6
Continuous
 62
     7
370
     0
100
AcDbSpline
210
0.0
220
0.0
230
1.0
 70
    24
 71
     1
 72
     4
 73
     2
 74
     0
 42
0.00000001
 43
0.00000001
 40
0.0
 40
0.0
 40
1.0
 40
1.0
 10
6.700419393996122
 20
7.425510631341898
 30
0.0
 10
6.711173733257946
 20
7.426786305266456
 30
0.0
  0
LINE
  5
214
330
1F
100
AcDbEntity
  8
0
  6
Continuous
 62
     7
370
     0
100
AcDbLine
 10
6.7065032673
 20
7.4290227766
 30
0.0
 11
6.700419394
 21
7.4255106313
 31
0.0
  0
ARC
  5
215
330
1F
100
AcDbEntity
  8
0
  6
Continuous
 62
     7
370
     0
100
AcDbCircle
 10
6.595278844
 20
7.0684136311
 30
0.0
 40
0.3773722673361316
100
AcDbArc
 50
72.8584147728
 51
75.1180651933
  0
LINE
  5
216
330
1F
100
AcDbEntity
  8
0
  6
Continuous
 62
     7
370
     0
100
AcDbLine
 10
6.635400518
 20
7.4003388817
 30
0.0
 11
6.6921986407
 21
7.4331277399
 31
0.0
  0
ARC
  5
217
330
1F
100
AcDbEntity
  8
0
  6
Continuous
 62
     7
370
     0
100
AcDbCircle
 10
6.5382370556
 20
7.0347558019
 30
0.0
 40
0.3782746709477163
100
AcDbArc
 50
72.6810595571
 51
75.1161996852
  0
ARC
  5
218
330
1F
100
AcDbEntity
  8
0
  6
Continuous
 62
     7
370
     0
100
AcDbCircle
 10
6.7455652424
 20
7.4249992844
 30
0.0
 40
0.0487406669818873
100
AcDbArc
 50
243.5005846271
 51
298.2016954485
  0
SPLINE
  5
219
330
1F
100
AcDbEntity
  8
0
  6
Continuous
 62
     7
370
     0
100
AcDbSpline
210
0.0
220
0.0
230
1.0
 70
     8
 71
     3
 72
    13
 73
     9
 74
     0
 42
0.00000001
 43
0.00000001
 40
0.0
 40
0.0
 40
0.0
 40
0.0
 40
0.2502092620005192
 40
0.3753081960891675
 40
0.500375081085543
 40
0.6255355602287033
 40
0.7507183164374093
 40
1.0
 40
1.0
 40
1.0
 40
1.0
 10
6.766349231940446
 20
7.406426035388636
 30
0.0
 10
6.769264451493408
 20
7.40489939601742
 30
0.0
 10
6.773637214447417
 20
7.40260947172002
 30
0.0
 10
6.777360361436974
 20
7.398516417306863
 30
0.0
 10
6.778417713424517
 20
7.395044683646665
 30
0.0
 10
6.777887148277592
 20
7.391487897905009
 30
0.0
 10
6.775567588888705
 20
7.386805149275515
 30
0.0
 10
6.771383985580041
 20
7.383947194071891
 30
0.0
 10
6.768598952969793
 20
7.382044647904514
 30
0.0
  0
ARC
  5
21A
330
1F
100
AcDbEntity
  8
0
  6
Continuous
 62
     7
370
     0
100
AcDbCircle
 10
6.7445262327
 20
7.3625692364
 30
0.0
 40
0.0489863461841293
100
AcDbArc
 50
63.5452130352
 51
104.969241498
  0
SPLINE
  5
21B
330
1F
100
AcDbEntity
  8
0
  6
Continuous
 62
     7
370
     0
100
AcDbSpline
210
0.0
220
0.0
230
1.0
 70
    24
 71
     1
 72
     4
 73
     2
 74
     0
 42
0.00000001
 43
0.00000001
 40
0.0
 40
0.0
 40
1.0
 40
1.0
 10
6.745860173528568
 20
7.402385009836937
 30
0.0
 10
6.731873036819747
 20
7.409893212840092
 30
0.0
  0
SPLINE
  5
21C
330
1F
100
AcDbEntity
  8
0
  6
Continuous
 62
     7
370
     0
100
AcDbSpline
210
0.0
220
0.0
230
1.0
 70
    24
 71
     1
 72
     4
 73
     2
 74
     0
 42
0.00000001
 43
0.00000001
 40
0.0
 40
0.0
 40
1.0
 40
1.0
 10
6.751183468805277
 20
7.402631792030792
 30
0.0
 10
6.745860173528567
 20
7.402385009836937
 30
0.0
  0
SPLINE
  5
21D
330
1F
100
AcDbEntity
  8
0
  6
Continuous
 62
     7
370
     0
100
AcDbSpline
210
0.0
220
0.0
230
1.0
 70
     8
 71
     3
 72
     9
 73
     5
 74
     0
 42
0.00000001
 43
0.00000001
 40
0.0
 40
0.0
 40
0.0
 40
0.0
 40
0.4998133900792564
 40
1.0
 40
1.0
 40
1.0
 40
1.0
 10
6.756742653974658
 20
7.401241138530107
 30
0.0
 10
6.755921988268621
 20
7.401576445043373
 30
0.0
 10
6.754280044050391
 20
7.40224730844944
 30
0.0
 10
6.752215917344663
 20
7.402503598952775
 30
0.0
 10
6.751183468805277
 20
7.402631792030792
 30
0.0
  0
SPLINE
  5
21E
330
1F
100
AcDbEntity
  8
0
  6
Continuous
 62
     7
370
     0
100
AcDbSpline
210
0.0
220
0.0
230
1.0
 70
     8
 71
     3
 72
    10
 73
     6
 74
     0
 42
0.00000001
 43
0.00000001
 40
0.0
 40
0.0
 40
0.0
 40
0.0
 40
0.2506462839715419
 40
0.5011586610055125
 40
0.9999999999999999
 40
0.9999999999999999
 40
0.9999999999999999
 40
0.9999999999999999
 10
6.760017045890174
 20
7.396827089634288
 30
0.0
 10
6.760035123786588
 20
7.397252571792608
 30
0.0
 10
6.76007126992136
 20
7.398103308796829
 30
0.0
 10
6.759294497455816
 20
7.399736048740375
 30
0.0
 10
6.757762498600642
 20
7.400639629172258
 30
0.0
 10
6.756742653974658
 20
7.401241138530107
 30
0.0
  0
SPLINE
  5
21F
330
1F
100
AcDbEntity
  8
0
  6
Continuous
 62
     7
370
     0
100
AcDbSpline
210
0.0
220
0.0
230
1.0
 70
     8
 71
     3
 72
     9
 73
     5
 74
     0
 42
0.00000001
 43
0.00000001
 40
0.0
 40
0.0
 40
0.0
 40
0.0
 40
0.5011623542816284
 40
0.9999999999999999
 40
0.9999999999999999
 40
0.9999999999999999
 40
0.9999999999999999
 10
6.756418717682634
 20
7.392555563214906
 30
0.0
 10
6.757304902309094
 20
7.393210738497399
 30
0.0
 10
6.759073160876178
 20
7.394518049944268
 30
0.0
 10
6.759702905543115
 20
7.396058603516975
 30
0.0
 10
6.760017045890174
 20
7.396827089634288
 30
0.0
  0
ARC
  5
220
330
1F
100
AcDbEntity
  8
0
  6
Continuous
 62
     7
370
     0
100
AcDbCircle
 10
6.5437901519
 20
6.9648488267
 30
0.0
 40
0.4776441766033667
100
AcDbArc
 50
63.5663591694
 51
67.7052446508
  0
LINE
  5
221
330
1F
100
AcDbEntity
  8
0
  6
Continuous
 62
     7
370
     0
100
AcDbLine
 10
6.7232039991
 20
7.405752686
 30
0.0
 11
6.7249947241
 21
7.4067864495
 31
0.0
  0
SPLINE
  5
222
330
1F
100
AcDbEntity
  8
0
  6
Continuous
 62
     7
370
     0
100
AcDbSpline
210
0.0
220
0.0
230
1.0
 70
     8
 71
     3
 72
    13
 73
     9
 74
     0
 42
0.00000001
 43
0.00000001
 40
0.0
 40
0.0
 40
0.0
 40
0.0
 40
0.2500649107443101
 40
0.3783596976340918
 40
0.5001025157058575
 40
0.622952087249182
 40
0.7501470080802197
 40
0.9999999999999999
 40
0.9999999999999999
 40
0.9999999999999999
 40
0.9999999999999999
 10
6.723817708484986
 20
7.381379364799851
 30
0.0
 10
6.720686578280275
 20
7.38298145500509
 30
0.0
 10
6.715949034440233
 20
7.385405491083692
 30
0.0
 10
6.712164526563823
 20
7.389449950053598
 30
0.0
 10
6.711099267829426
 20
7.392807945444144
 30
0.0
 10
6.711910259246208
 20
7.396285194124148
 30
0.0
 10
6.71538929397806
 20
7.400843696790568
 30
0.0
 10
6.720089428004927
 20
7.403796195534095
 30
0.0
 10
6.723203999149133
 20
7.40575268599529
 30
0.0
  0
ARC
  5
223
330
1F
100
AcDbEntity
  8
0
  6
Continuous
 62
     7
370
     0
100
AcDbCircle
 10
6.8488797978
 20
7.3373737746
 30
0.0
 40
0.0174515735970748
100
AcDbArc
 50
234.7341798225
 51
304.4162254334
  0
SPLINE
  5
224
330
1F
100
AcDbEntity
  8
0
  6
Continuous
 62
     7
370
     0
100
AcDbSpline
210
0.0
220
0.0
230
1.0
 70
     8
 71
     3
 72
    12
 73
     8
 74
     0
 42
0.00000001
 43
0.00000001
 40
0.0
 40
0.0
 40
0.0
 40
0.0
 40
0.2499205863327759
 40
0.377082137608117
 40
0.5003335730966849
 40
0.7497132612427841
 40
1.0
 40
1.0
 40
1.0
 40
1.0
 10
6.836718891717812
 20
7.331760219092422
 30
0.0
 10
6.836189245326913
 20
7.331102559485279
 30
0.0
 10
6.835390110705041
 20
7.330110277520359
 30
0.0
 10
6.83509841569538
 20
7.328577279927489
 30
0.0
 10
6.83527340606885
 20
7.327007635950285
 30
0.0
 10
6.83644885554019
 20
7.325073307966538
 30
0.0
 10
6.83801784999841
 20
7.323775138811282
 30
0.0
 10
6.838803771334991
 20
7.323124875942436
 30
0.0
  0
SPLINE
  5
225
330
1F
100
AcDbEntity
  8
0
  6
Continuous
 62
     7
370
     0
100
AcDbSpline
210
0.0
220
0.0
230
1.0
 70
    24
 71
     1
 72
     4
 73
     2
 74
     0
 42
0.00000001
 43
0.00000001
 40
0.0
 40
0.0
 40
1.0
 40
1.0
 10
6.82002854672464
 20
7.341236615460685
 30
0.0
 10
6.836718891717812
 20
7.331760219092422
 30
0.0
  0
SPLINE
  5
226
330
1F
100
AcDbEntity
  8
0
  6
Continuous
 62
     7
370
     0
100
AcDbSpline
210
0.0
220
0.0
230
1.0
 70
     8
 71
     3
 72
    12
 73
     8
 74
     0
 42
0.00000001
 43
0.00000001
 40
0.0
 40
0.0
 40
0.0
 40
0.0
 40
0.2504931653223382
 40
0.5001218721704475
 40
0.6252456824059339
 40
0.7504040889272302
 40
1.0
 40
1.0
 40
1.0
 40
1.0
 10
6.828455335028345
 20
7.316543091227468
 30
0.0
 10
6.826142783468628
 20
7.318409704446904
 30
0.0
 10
6.821525661025195
 20
7.322136489154664
 30
0.0
 10
6.817409044646101
 20
7.327479637242208
 30
0.0
 10
6.816295514855513
 20
7.331949633378416
 30
0.0
 10
6.816560273974773
 20
7.336383451816526
 30
0.0
 10
6.818642038548452
 20
7.33929647073785
 30
0.0
 10
6.82002854672464
 20
7.341236615460685
 30
0.0
  0
SPLINE
  5
227
330
1F
100
AcDbEntity
  8
0
  6
Continuous
 62
     7
370
     0
100
AcDbSpline
210
0.0
220
0.0
230
1.0
 70
    24
 71
     1
 72
     4
 73
     2
 74
     0
 42
0.00000001
 43
0.00000001
 40
0.0
 40
0.0
 40
1.0
 40
1.0
 10
6.841981954547644
 20
7.308556022143224
 30
0.0
 10
6.828455335028345
 20
7.316543091227468
 30
0.0
  0
SPLINE
  5
228
330
1F
100
AcDbEntity
  8
0
  6
Continuous
 62
     7
370
     0
100
AcDbSpline
210
0.0
220
0.0
230
1.0
 70
     8
 71
     3
 72
     9
 73
     5
 74
     0
 42
0.00000001
 43
0.00000001
 40
0.0
 40
0.0
 40
0.0
 40
0.0
 40
0.4972076014098474
 40
1.0
 40
1.0
 40
1.0
 40
1.0
 10
6.860998311287972
 20
7.305927025290244
 30
0.0
 10
6.857809737785313
 20
7.305827164601726
 30
0.0
 10
6.851396775687358
 20
7.305626321557019
 30
0.0
 10
6.845131890964394
 20
7.307575826085359
 30
0.0
 10
6.841981954547644
 20
7.308556022143224
 30
0.0
  0
SPLINE
  5
229
330
1F
100
AcDbEntity
  8
0
  6
Continuous
 62
     7
370
     0
100
AcDbSpline
210
0.0
220
0.0
230
1.0
 70
     8
 71
     3
 72
     9
 73
     5
 74
     0
 42
0.00000001
 43
0.00000001
 40
0.0
 40
0.0
 40
0.0
 40
0.0
 40
0.5005315226334689
 40
1.0
 40
1.0
 40
1.0
 40
1.0
 10
6.873701845491613
 20
7.310280195913389
 30
0.0
 10
6.871822770319143
 20
7.309265438322124
 30
0.0
 10
6.868068610815693
 20
7.307238078315056
 30
0.0
 10
6.863353406972169
 20
7.306363733142349
 30
0.0
 10
6.860998311287972
 20
7.305927025290244
 30
0.0
  0
SPLINE
  5
22A
330
1F
100
AcDbEntity
  8
0
  6
Continuous
 62
     7
370
     0
100
AcDbSpline
210
0.0
220
0.0
230
1.0
 70
     8
 71
     3
 72
    14
 73
    10
 74
     0
 42
0.00000001
 43
0.00000001
 40
0.0
 40
0.0
 40
0.0
 40
0.0
 40
0.2500796953168197
 40
0.3795939076710709
 40
0.5000103126989737
 40
0.6249779831585327
 40
0.7499325412133023
 40
0.8625387534457218
 40
1.0
 40
1.0
 40
1.0
 40
1.0
 10
6.87037938350587
 20
7.342233495345325
 30
0.0
 10
6.873392325493128
 20
7.339789840744617
 30
0.0
 10
6.877965645294564
 20
7.336080637573579
 30
0.0
 10
6.882027189580853
 20
7.330272621071972
 30
0.0
 10
6.883523750543323
 20
7.325636088711147
 30
0.0
 10
6.883339148355954
 20
7.321090487056568
 30
0.0
 10
6.8817947057463
 20
7.316880409086007
 30
0.0
 10
6.878399182387364
 20
7.313228590811546
 30
0.0
 10
6.875368049249622
 20
7.311326028215484
 30
0.0
 10
6.873701845491613
 20
7.310280195913389
 30
0.0
  0
ARC
  5
22B
330
1F
100
AcDbEntity
  8
0
  6
Continuous
 62
     7
370
     0
100
AcDbCircle
 10
6.8447092964
 20
7.3110147596
 30
0.0
 40
0.0404173580546805
100
AcDbArc
 50
50.5707208601
 51
107.1744240522
  0
SPLINE
  5
22C
330
1F
100
AcDbEntity
  8
0
  6
Continuous
 62
     7
370
     0
100
AcDbSpline
210
0.0
220
0.0
230
1.0
 70
    24
 71
     1
 72
     4
 73
     2
 74
     0
 42
0.00000001
 43
0.00000001
 40
0.0
 40
0.0
 40
1.0
 40
1.0
 10
6.845943015051205
 20
7.337939235601461
 30
0.0
 10
6.832774794297984
 20
7.349629918436199
 30
0.0
  0
ARC
  5
22D
330
1F
100
AcDbEntity
  8
0
  6
Continuous
 62
     7
370
     0
100
AcDbCircle
 10
6.8508806311
 20
7.3222241688
 30
0.0
 40
0.016472503650805
100
AcDbArc
 50
53.4460300345
 51
107.4425263539
  0
SPLINE
  5
22E
330
1F
100
AcDbEntity
  8
0
  6
Continuous
 62
     7
370
     0
100
AcDbSpline
210
0.0
220
0.0
230
1.0
 70
     8
 71
     3
 72
    14
 73
    10
 74
     0
 42
0.00000001
 43
0.00000001
 40
0.0
 40
0.0
 40
0.0
 40
0.0
 40
0.2499126333276867
 40
0.3788826256970225
 40
0.5000564188327573
 40
0.6248407341128722
 40
0.7500055571874297
 40
0.8749218735121157
 40
1.0
 40
1.0
 40
1.0
 40
1.0
 10
6.858743438409779
 20
7.322977038292794
 30
0.0
 10
6.859953354950916
 20
7.323750417789156
 30
0.0
 10
6.861787661403835
 20
7.324922907752306
 30
0.0
 10
6.863395133390281
 20
7.326939279864894
 30
0.0
 10
6.864088499916036
 20
7.328627408358391
 30
0.0
 10
6.864172134630937
 20
7.330416588270985
 30
0.0
 10
6.863627164058562
 20
7.332234904964378
 30
0.0
 10
6.862468930263611
 20
7.333974052348831
 30
0.0
 10
6.86128411248454
 20
7.334962116624972
 30
0.0
 10
6.860691320155365
 20
7.335456468527833
 30
0.0
  0
SPLINE
  5
22F
330
1F
100
AcDbEntity
  8
0
  6
Continuous
 62
     7
370
     0
100
AcDbSpline
210
0.0
220
0.0
230
1.0
 70
     8
 71
     3
 72
    13
 73
     9
 74
     0
 42
0.00000001
 43
0.00000001
 40
0.0
 40
0.0
 40
0.0
 40
0.0
 40
0.2501705057673898
 40
0.3840880186947753
 40
0.4999102936417851
 40
0.6140227116115515
 40
0.7498213084067269
 40
1.0
 40
1.0
 40
1.0
 40
1.0
 10
6.922418022196567
 20
7.255050858844209
 30
0.0
 10
6.921706514628561
 20
7.254596373179946
 30
0.0
 10
6.920614133529343
 20
7.253898599084727
 30
0.0
 10
6.91965875156368
 20
7.252632623425667
 30
0.0
 10
6.919382032128516
 20
7.251514428611279
 30
0.0
 10
6.919680892154511
 20
7.250302526446199
 30
0.0
 10
6.920568788876181
 20
7.248707874972615
 30
0.0
 10
6.921597421616675
 20
7.247601635239801
 30
0.0
 10
6.922264149947302
 20
7.246884604426667
 30
0.0
  0
SPLINE
  5
230
330
1F
100
AcDbEntity
  8
0
  6
Continuous
 62
     7
370
     0
100
AcDbSpline
210
0.0
220
0.0
230
1.0
 70
    24
 71
     1
 72
     4
 73
     2
 74
     0
 42
0.00000001
 43
0.00000001
 40
0.0
 40
0.0
 40
1.0
 40
1.0
 10
6.942699726681584
 20
7.241177359305315
 30
0.0
 10
6.922418022196566
 20
7.255050858844209
 30
0.0
  0
ARC
  5
231
330
1F
100
AcDbEntity
  8
0
  6
Continuous
 62
     7
370
     0
100
AcDbCircle
 10
6.9655250186
 20
7.2671356738
 30
0.0
 40
0.0345662848073738
100
AcDbArc
 50
228.6746521145
 51
254.9002304678
  0
SPLINE
  5
232
330
1F
100
AcDbEntity
  8
0
  6
Continuous
 62
     7
370
     0
100
AcDbSpline
210
0.0
220
0.0
230
1.0
 70
     8
 71
     3
 72
     9
 73
     5
 74
     0
 42
0.00000001
 43
0.00000001
 40
0.0
 40
0.0
 40
0.0
 40
0.0
 40
0.5006506955429142
 40
1.0
 40
1.0
 40
1.0
 40
1.0
 10
6.966748162426257
 20
7.235463108874775
 30
0.0
 10
6.965247327137462
 20
7.234733283062545
 30
0.0
 10
6.962249557830126
 20
7.233275528546817
 30
0.0
 10
6.958428514924274
 20
7.233600540968598
 30
0.0
 10
6.956520479806936
 20
7.233762835695353
 30
0.0
  0
SPLINE
  5
233
330
1F
100
AcDbEntity
  8
0
  6
Continuous
 62
     7
370
     0
100
AcDbSpline
210
0.0
220
0.0
230
1.0
 70
     8
 71
     3
 72
    14
 73
    10
 74
     0
 42
0.00000001
 43
0.00000001
 40
0.0
 40
0.0
 40
0.0
 40
0.0
 40
0.2500047170986684
 40
0.3799563988580274
 40
0.5001514804936136
 40
0.6248780927813683
 40
0.7508658106708879
 40
0.8742378331967264
 40
1.0
 40
1.0
 40
1.0
 40
1.0
 10
6.964783889570273
 20
7.257094265284821
 30
0.0
 10
6.966357725336955
 20
7.255296012905132
 30
0.0
 10
6.96874963608665
 20
7.252563034478353
 30
0.0
 10
6.970838680473468
 20
7.248552797675133
 30
0.0
 10
6.971696594861796
 20
7.245458203072712
 30
0.0
 10
6.971710092096466
 20
7.242450598790259
 30
0.0
 10
6.970949168405907
 20
7.23961946848855
 30
0.0
 10
6.969280882472697
 20
7.237182307608542
 30
0.0
 10
6.967597784877198
 20
7.236039828691832
 30
0.0
 10
6.966748162426257
 20
7.235463108874775
 30
0.0
  0
SPLINE
  5
234
330
1F
100
AcDbEntity
  8
0
  6
Continuous
 62
     7
370
     0
100
AcDbSpline
210
0.0
220
0.0
230
1.0
 70
    24
 71
     1
 72
     4
 73
     2
 74
     0
 42
0.00000001
 43
0.00000001
 40
0.0
 40
0.0
 40
1.0
 40
1.0
 10
6.954037244189446
 20
7.265466568338728
 30
0.0
 10
6.964783889570273
 20
7.257094265284821
 30
0.0
  0
SPLINE
  5
235
330
1F
100
AcDbEntity
  8
0
  6
Continuous
 62
     7
370
     0
100
AcDbSpline
210
0.0
220
0.0
230
1.0
 70
    24
 71
     1
 72
     4
 73
     2
 74
     0
 42
0.00000001
 43
0.00000001
 40
0.0
 40
0.0
 40
1.0
 40
1.0
 10
6.94401863096509
 20
7.268831099124601
 30
0.0
 10
6.954037244189446
 20
7.265466568338728
 30
0.0
  0
SPLINE
  5
236
330
1F
100
AcDbEntity
  8
0
  6
Continuous
 62
     7
370
     0
100
AcDbSpline
210
0.0
220
0.0
230
1.0
 70
     8
 71
     3
 72
     9
 73
     5
 74
     0
 42
0.00000001
 43
0.00000001
 40
0.0
 40
0.0
 40
0.0
 40
0.0
 40
0.4998463205888645
 40
1.0
 40
1.0
 40
1.0
 40
1.0
 10
6.947451231452952
 20
7.273344958331539
 30
0.0
 10
6.947072849999139
 20
7.272480948904333
 30
0.0
 10
6.946315854422243
 20
7.270752398764783
 30
0.0
 10
6.944784529006266
 20
7.269471663553084
 30
0.0
 10
6.94401863096509
 20
7.268831099124601
 30
0.0
  0
ARC
  5
237
330
1F
100
AcDbEntity
  8
0
  6
Continuous
 62
     7
370
     0
100
AcDbCircle
 10
6.3509967935
 20
6.6746611896
 30
0.0
 40
0.8450918006824242
100
AcDbArc
 50
45.1068755852
 51
46.4310905398
  0
SPLINE
  5
238
330
1F
100
AcDbEntity
  8
0
  6
Continuous
 62
     7
370
     0
100
AcDbSpline
210
0.0
220
0.0
230
1.0
 70
     8
 71
     3
 72
     9
 73
     5
 74
     0
 42
0.00000001
 43
0.00000001
 40
0.0
 40
0.0
 40
0.0
 40
0.0
 40
0.5000572978128768
 40
1.0
 40
1.0
 40
1.0
 40
1.0
 10
6.926574943075289
 20
7.280122039176758
 30
0.0
 10
6.928089997342802
 20
7.281020633305448
 30
0.0
 10
6.931119758680432
 20
7.282817615636512
 30
0.0
 10
6.932677607876558
 20
7.285585339938089
 30
0.0
 10
6.933456443213269
 20
7.286969043504327
 30
0.0
  0
LINE
  5
239
330
1F
100
AcDbEntity
  8
0
  6
Continuous
 62
     7
370
     0
100
AcDbLine
 10
6.9084036763
 20
7.2696319901
 30
0.0
 11
6.9265749431
 21
7.2801220392
 31
0.0
  0
ARC
  5
23A
330
1F
100
AcDbEntity
  8
0
  6
Continuous
 62
     7
370
     0
100
AcDbCircle
 10
6.9136451816
 20
7.2586291945
 30
0.0
 40
0.0121874890610141
100
AcDbArc
 50
115.4721687446
 51
176.8829842446
  0
ARC
  5
23B
330
1F
100
AcDbEntity
  8
0
  6
Continuous
 62
     7
370
     0
100
AcDbCircle
 10
6.9355020949
 20
7.2678529959
 30
0.0
 40
0.0350868414986654
100
AcDbArc
 50
194.1225979646
 51
233.8685290826
  0
SPLINE
  5
23C
330
1F
100
AcDbEntity
  8
0
  6
Continuous
 62
     7
370
     0
100
AcDbSpline
210
0.0
220
0.0
230
1.0
 70
     8
 71
     3
 72
     9
 73
     5
 74
     0
 42
0.00000001
 43
0.00000001
 40
0.0
 40
0.0
 40
0.0
 40
0.0
 40
0.4989850375674104
 40
1.0
 40
1.0
 40
1.0
 40
1.0
 10
6.930447243786554
 20
7.227191957823242
 30
0.0
 10
6.927540633281762
 20
7.228981823934804
 30
0.0
 10
6.921715587867652
 20
7.23256883752601
 30
0.0
 10
6.917117298723725
 20
7.237196176293561
 30
0.0
 10
6.914813487061025
 20
7.239514542252348
 30
0.0
  0
ARC
  5
23D
330
1F
100
AcDbEntity
  8
0
  6
Continuous
 62
     7
370
     0
100
AcDbCircle
 10
6.9402120219
 20
7.2468893987
 30
0.0
 40
0.0219849964761975
100
AcDbArc
 50
243.6306183537
 51
288.2330410243
  0
SPLINE
  5
23E
330
1F
100
AcDbEntity
  8
0
  6
Continuous
 62
     7
370
     0
100
AcDbSpline
210
0.0
220
0.0
230
1.0
 70
    24
 71
     1
 72
     4
 73
     2
 74
     0
 42
0.00000001
 43
0.00000001
 40
0.0
 40
0.0
 40
1.0
 40
1.0
 10
6.934829064020405
 20
7.24177190731573
 30
0.0
 10
6.947090746759116
 20
7.226008229847237
 30
0.0
  0
SPLINE
  5
23F
330
1F
100
AcDbEntity
  8
0
  6
Continuous
 62
     7
370
     0
100
AcDbSpline
210
0.0
220
0.0
230
1.0
 70
     8
 71
     3
 72
     9
 73
     5
 74
     0
 42
0.00000001
 43
0.00000001
 40
0.0
 40
0.0
 40
0.0
 40
0.0
 40
0.4984185104768362
 40
1.0
 40
1.0
 40
1.0
 40
1.0
 10
6.928911279375226
 20
7.242029917779472
 30
0.0
 10
6.929931966045016
 20
7.241791590181166
 30
0.0
 10
6.931979816693288
 20
7.241313422550358
 30
0.0
 10
6.93387731432961
 20
7.241618757138305
 30
0.0
 10
6.934829064020405
 20
7.24177190731573
 30
0.0
  0
SPLINE
  5
240
330
1F
100
AcDbEntity
  8
0
  6
Continuous
 62
     7
370
     0
100
AcDbSpline
210
0.0
220
0.0
230
1.0
 70
     8
 71
     3
 72
     9
 73
     5
 74
     0
 42
0.00000001
 43
0.00000001
 40
0.0
 40
0.0
 40
0.0
 40
0.0
 40
0.5011984280361751
 40
1.0
 40
1.0
 40
1.0
 40
1.0
 10
6.922264149947302
 20
7.246884604426667
 30
0.0
 10
6.923221199708664
 20
7.245926193506649
 30
0.0
 10
6.925130722380379
 20
7.244013955027024
 30
0.0
 10
6.927653108976154
 20
7.242690205916626
 30
0.0
 10
6.928911279375226
 20
7.242029917779472
 30
0.0
  0
SPLINE
  5
241
330
1F
100
AcDbEntity
  8
0
  6
Continuous
 62
     7
370
     0
100
AcDbSpline
210
0.0
220
0.0
230
1.0
 70
     8
 71
     3
 72
     9
 73
     5
 74
     0
 42
0.00000001
 43
0.00000001
 40
0.0
 40
0.0
 40
0.0
 40
0.0
 40
0.5000883479088499
 40
1.0
 40
1.0
 40
1.0
 40
1.0
 10
7.096356007051766
 20
7.080514980795495
 30
0.0
 10
7.087405241588785
 20
7.077570072106078
 30
0.0
 10
7.069506873229655
 20
7.071681295249489
 30
0.0
 10
7.049346809875211
 20
7.075699070816995
 30
0.0
 10
7.039268559297429
 20
7.077707603638679
 30
0.0
  0
ARC
  5
242
330
1F
100
AcDbEntity
  8
0
  6
Continuous
 62
     7
370
     0
100
AcDbCircle
 10
6.2043023311
 20
6.5508333798
 30
0.0
 40
1.037459569899283
100
AcDbArc
 50
30.7008969556
 51
31.9284643885
  0
SPLINE
  5
243
330
1F
100
AcDbEntity
  8
0
  6
Continuous
 62
     7
370
     0
100
AcDbSpline
210
0.0
220
0.0
230
1.0
 70
    24
 71
     1
 72
     4
 73
     2
 74
     0
 42
0.00000001
 43
0.00000001
 40
0.0
 40
0.0
 40
1.0
 40
1.0
 10
7.06521930384118
 20
7.09311886155685
 30
0.0
 10
7.084803663497619
 20
7.099504285585303
 30
0.0
  0
SPLINE
  5
244
330
1F
100
AcDbEntity
  8
0
  6
Continuous
 62
     7
370
     0
100
AcDbSpline
210
0.0
220
0.0
230
1.0
 70
    24
 71
     1
 72
     4
 73
     2
 74
     0
 42
0.00000001
 43
0.00000001
 40
0.0
 40
0.0
 40
1.0
 40
1.0
 10
7.042293386682505
 20
7.092445244674547
 30
0.0
 10
7.06521930384118
 20
7.09311886155685
 30
0.0
  0
SPLINE
  5
245
330
1F
100
AcDbEntity
  8
0
  6
Continuous
 62
     7
370
     0
100
AcDbSpline
210
0.0
220
0.0
230
1.0
 70
    24
 71
     1
 72
     4
 73
     2
 74
     0
 42
0.00000001
 43
0.00000001
 40
0.0
 40
0.0
 40
1.0
 40
1.0
 10
7.022813008474273
 20
7.097507296587136
 30
0.0
 10
7.042293386682505
 20
7.092445244674547
 30
0.0
  0
LINE
  5
246
330
1F
100
AcDbEntity
  8
0
  6
Continuous
 62
     7
370
     0
100
AcDbLine
 10
7.0121604907
 20
7.091357729
 30
0.0
 11
7.0228130085
 21
7.0975072966
 31
0.0
  0
ARC
  5
247
330
1F
100
AcDbEntity
  8
0
  6
Continuous
 62
     7
370
     0
100
AcDbCircle
 10
6.149046252
 20
6.5189605476
 30
0.0
 40
1.035666318079368
100
AcDbArc
 50
29.9519026505
 51
33.5514070734
  0
LINE
  5
248
330
1F
100
AcDbEntity
  8
0
  6
Continuous
 62
     7
370
     0
100
AcDbLine
 10
7.0597211021
 20
7.0437341902
 30
0.0
 11
7.0463939759
 21
7.036040604
 31
0.0
  0
ARC
  5
249
330
1F
100
AcDbEntity
  8
0
  6
Continuous
 62
     7
370
     0
100
AcDbCircle
 10
6.1604526422
 20
6.5255031612
 30
0.0
 40
1.037905179874823
100
AcDbArc
 50
29.9540159951
 51
32.1432218729
  0
ARC
  5
24A
330
1F
100
AcDbEntity
  8
0
  6
Continuous
 62
     7
370
     0
100
AcDbCircle
 10
7.0807381634
 20
6.9308116132
 30
0.0
 40
0.0336588254017447
100
AcDbArc
 50
31.4680031087
 51
86.4902645399
  0
LINE
  5
24B
330
1F
100
AcDbEntity
  8
0
  6
Continuous
 62
     7
370
     0
100
AcDbLine
 10
7.1223836866
 20
6.9558505503
 30
0.0
 11
7.1094468466
 21
6.9483822715
 31
0.0
  0
SPLINE
  5
24C
330
1F
100
AcDbEntity
  8
0
  6
Continuous
 62
     7
370
     0
100
AcDbSpline
210
0.0
220
0.0
230
1.0
 70
    24
 71
     1
 72
     4
 73
     2
 74
     0
 42
0.00000001
 43
0.00000001
 40
0.0
 40
0.0
 40
1.0
 40
1.0
 10
7.104464143212219
 20
6.97221777071212
 30
0.0
 10
7.122383686614378
 20
6.955850550251871
 30
0.0
  0
LINE
  5
24D
330
1F
100
AcDbEntity
  8
0
  6
Continuous
 62
     7
370
     0
100
AcDbLine
 10
7.1423104266
 20
6.9940659651
 30
0.0
 11
7.1044641432
 21
6.9722177707
 31
0.0
  0
ARC
  5
24E
330
1F
100
AcDbEntity
  8
0
  6
Continuous
 62
     7
370
     0
100
AcDbCircle
 10
6.2168587509
 20
6.5571959009
 30
0.0
 40
1.023384706267847
100
AcDbArc
 50
25.2701899979
 51
26.5279757698
  0
LINE
  5
24F
330
1F
100
AcDbEntity
  8
0
  6
Continuous
 62
     7
370
     0
100
AcDbLine
 10
7.074735462
 20
6.9809295516
 30
0.0
 11
7.1324978211
 21
7.0142750517
 31
0.0
  0
ARC
  5
250
330
1F
100
AcDbEntity
  8
0
  6
Continuous
 62
     7
370
     0
100
AcDbCircle
 10
6.1583096192
 20
6.523464167
 30
0.0
 40
1.024261149978013
100
AcDbArc
 50
25.4992160303
 51
26.5276496337
  0
LINE
  5
251
330
1F
100
AcDbEntity
  8
0
  6
Continuous
 62
     7
370
     0
100
AcDbLine
 10
7.1171187378
 20
6.9347703631
 30
0.0
 11
7.1329253293
 21
6.9438953141
 31
0.0
  0
ARC
  5
252
330
1F
100
AcDbEntity
  8
0
  6
Continuous
 62
     7
370
     0
100
AcDbCircle
 10
6.2093417089
 20
6.5484073687
 30
0.0
 40
0.9865776693504525
100
AcDbArc
 50
21.6950796924
 51
23.0553032748
  0
LINE
  5
253
330
1F
100
AcDbEntity
  8
0
  6
Continuous
 62
     7
370
     0
100
AcDbLine
 10
7.14184107
 20
6.9222374937
 30
0.0
 11
7.1260344784
 21
6.9131125426
 31
0.0
  0
ARC
  5
254
330
1F
100
AcDbEntity
  8
0
  6
Continuous
 62
     7
370
     0
100
AcDbCircle
 10
6.2251483004
 20
6.5575323198
 30
0.0
 40
0.9865776693517976
100
AcDbArc
 50
21.6950796924
 51
23.0553032748
  0
ARC
  5
255
330
1F
100
AcDbEntity
  8
0
  6
Continuous
 62
     7
370
     0
100
AcDbCircle
 10
7.1226085256
 20
6.8345573037
 30
0.0
 40
0.0280793450523162
100
AcDbArc
 50
24.5196726783
 51
85.8521218661
  0
LINE
  5
256
330
1F
100
AcDbEntity
  8
0
  6
Continuous
 62
     7
370
     0
100
AcDbLine
 10
7.1610924824
 20
6.8536786695
 30
0.0
 11
7.1481556424
 21
6.8462103907
 31
0.0
  0
SPLINE
  5
257
330
1F
100
AcDbEntity
  8
0
  6
Continuous
 62
     7
370
     0
100
AcDbSpline
210
0.0
220
0.0
230
1.0
 70
    24
 71
     1
 72
     4
 73
     2
 74
     0
 42
0.00000001
 43
0.00000001
 40
0.0
 40
0.0
 40
1.0
 40
1.0
 10
7.145843469649577
 20
6.870311072855035
 30
0.0
 10
7.161092482416959
 20
6.85367866946217
 30
0.0
  0
LINE
  5
258
330
1F
100
AcDbEntity
  8
0
  6
Continuous
 62
     7
370
     0
100
AcDbLine
 10
7.1836897531
 20
6.8921592672
 30
0.0
 11
7.1458434696
 21
6.8703110729
 31
0.0
  0
ARC
  5
259
330
1F
100
AcDbEntity
  8
0
  6
Continuous
 62
     7
370
     0
100
AcDbCircle
 10
6.290590138
 20
6.5874594657
 30
0.0
 40
0.9436465924400088
100
AcDbArc
 50
18.8381592744
 51
20.1658405836
  0
LINE
  5
25A
330
1F
100
AcDbEntity
  8
0
  6
Continuous
 62
     7
370
     0
100
AcDbLine
 10
7.118627628
 20
6.8794253835
 30
0.0
 11
7.1763899872
 21
6.9127708836
 31
0.0
  0
ARC
  5
25B
330
1F
100
AcDbEntity
  8
0
  6
Continuous
 62
     7
370
     0
100
AcDbCircle
 10
6.2309306842
 20
6.5534323463
 30
0.0
 40
0.9456623733768628
100
AcDbArc
 50
19.0803233705
 51
20.1649822565
  0
LINE
  5
25C
330
1F
100
AcDbEntity
  8
0
  6
Continuous
 62
     7
370
     0
100
AcDbLine
 10
6.6854590769
 20
7.4991939804
 30
0.0
 11
6.7064541792
 21
7.511314195
 31
0.0
  0
ARC
  5
25D
330
1F
100
AcDbEntity
  8
0
  6
Continuous
 62
     7
370
     0
100
AcDbCircle
 10
6.6635044121
 20
7.5333834433
 30
0.0
 40
0.0406315970673568
100
AcDbArc
 50
281.1275758452
 51
302.7064311623
  0
SPLINE
  5
25E
330
1F
100
AcDbEntity
  8
0
  6
Continuous
 62
     7
370
     0
100
AcDbSpline
210
0.0
220
0.0
230
1.0
 70
     8
 71
     3
 72
    11
 73
     7
 74
     0
 42
0.00000001
 43
0.00000001
 40
0.0
 40
0.0
 40
0.0
 40
0.0
 40
0.2494767938216814
 40
0.5035301869266818
 40
0.7522417857995315
 40
1.0
 40
1.0
 40
1.0
 40
1.0
 10
6.670830526625076
 20
7.494975598208378
 30
0.0
 10
6.670519470724871
 20
7.494722930200576
 30
0.0
 10
6.669891652669428
 20
7.494212959043542
 30
0.0
 10
6.66970651588941
 20
7.493691306446403
 30
0.0
 10
6.67015191322813
 20
7.493420348416818
 30
0.0
 10
6.670948531610509
 20
7.49348397332068
 30
0.0
 10
6.671346075917575
 20
7.493515724682281
 30
0.0
  0
SPLINE
  5
25F
330
1F
100
AcDbEntity
  8
0
  6
Continuous
 62
     7
370
     0
100
AcDbSpline
210
0.0
220
0.0
230
1.0
 70
    24
 71
     1
 72
     4
 73
     2
 74
     0
 42
0.00000001
 43
0.00000001
 40
0.0
 40
0.0
 40
1.0
 40
1.0
 10
6.674252290073447
 20
7.497065227649086
 30
0.0
 10
6.670830526625076
 20
7.494975598208378
 30
0.0
  0
LINE
  5
260
330
1F
100
AcDbEntity
  8
0
  6
Continuous
 62
     7
370
     0
100
AcDbLine
 10
6.6969118483
 20
7.5101463122
 30
0.0
 11
6.6742522901
 21
7.4970652276
 31
0.0
  0
ARC
  5
261
330
1F
100
AcDbEntity
  8
0
  6
Continuous
 62
     7
370
     0
100
AcDbCircle
 10
6.7289805087
 20
7.2860521638
 30
0.0
 40
0.2263770887542343
100
AcDbArc
 50
98.143935665
 51
101.5483497309
  0
LINE
  5
262
330
1F
100
AcDbEntity
  8
0
  6
Continuous
 62
     7
370
     0
100
AcDbLine
 10
6.6624248348
 20
7.4955871261
 30
0.0
 11
6.6836609962
 21
7.5078465012
 31
0.0
  0
ARC
  5
263
330
1F
100
AcDbEntity
  8
0
  6
Continuous
 62
     7
370
     0
100
AcDbCircle
 10
6.634581796
 20
7.5402199348
 30
0.0
 40
0.0526053459225767
100
AcDbArc
 50
285.7200511244
 51
301.9569245812
  0
SPLINE
  5
264
330
1F
100
AcDbEntity
  8
0
  6
Continuous
 62
     7
370
     0
100
AcDbSpline
210
0.0
220
0.0
230
1.0
 70
     8
 71
     3
 72
    10
 73
     6
 74
     0
 42
0.00000001
 43
0.00000001
 40
0.0
 40
0.0
 40
0.0
 40
0.0
 40
0.4988594542991808
 40
0.7491987595266492
 40
1.0
 40
1.0
 40
1.0
 40
1.0
 10
6.647733729210594
 20
7.490046406159475
 30
0.0
 10
6.647581839943118
 20
7.489815335776454
 30
0.0
 10
6.64735372909988
 20
7.489468308887755
 30
0.0
 10
6.647959329581481
 20
7.489408454117866
 30
0.0
 10
6.648542629309434
 20
7.489524240630763
 30
0.0
 10
6.648834548006881
 20
7.489582187251353
 30
0.0
  0
SPLINE
  5
265
330
1F
100
AcDbEntity
  8
0
  6
Continuous
 62
     7
370
     0
100
AcDbSpline
210
0.0
220
0.0
230
1.0
 70
     8
 71
     3
 72
     9
 73
     5
 74
     0
 42
0.00000001
 43
0.00000001
 40
0.0
 40
0.0
 40
0.0
 40
0.0
 40
0.5015784057012909
 40
1.0
 40
1.0
 40
1.0
 40
1.0
 10
6.650999687990224
 20
7.492221118603553
 30
0.0
 10
6.650275825642107
 20
7.491799397177933
 30
0.0
 10
6.648832656757864
 20
7.490958608537858
 30
0.0
 10
6.648099266668285
 20
7.490349833022441
 30
0.0
 10
6.647733729210595
 20
7.490046406159475
 30
0.0
  0
LINE
  5
266
330
1F
100
AcDbEntity
  8
0
  6
Continuous
 62
     7
370
     0
100
AcDbLine
 10
6.6744398186
 20
7.505752818
 30
0.0
 11
6.650999688
 21
7.4922211186
 31
0.0
  0
ARC
  5
267
330
1F
100
AcDbEntity
  8
0
  6
Continuous
 62
     7
370
     0
100
AcDbCircle
 10
6.7259949623
 20
7.2993725615
 30
0.0
 40
0.212722220575571
100
AcDbArc
 50
104.0258121212
 51
107.5744124099
  0
LINE
  5
268
330
1F
100
AcDbEntity
  8
0
  6
Continuous
 62
     7
370
     0
100
AcDbLine
 10
6.6359254835
 20
7.4872494242
 30
0.0
 11
6.6617647264
 21
7.5021661016
 31
0.0
  0
SPLINE
  5
269
330
1F
100
AcDbEntity
  8
0
  6
Continuous
 62
     7
370
     0
100
AcDbSpline
210
0.0
220
0.0
230
1.0
 70
     8
 71
     3
 72
    13
 73
     9
 74
     0
 42
0.00000001
 43
0.00000001
 40
0.0
 40
0.0
 40
0.0
 40
0.0
 40
0.2493026324883185
 40
0.3767800005149368
 40
0.4994269650590998
 40
0.618351580172417
 40
0.7497380290330061
 40
1.0
 40
1.0
 40
1.0
 40
1.0
 10
6.630952961042646
 20
7.481106861348302
 30
0.0
 10
6.62944973512441
 20
7.480759026104135
 30
0.0
 10
6.627177855936477
 20
7.480233330237354
 30
0.0
 10
6.626262585161675
 20
7.480539012516184
 30
0.0
 10
6.626598732484664
 20
7.481221663950365
 30
0.0
 10
6.62800341326707
 20
7.482366883906519
 30
0.0
 10
6.630928921985214
 20
7.484318364566159
 30
0.0
 10
6.633946643859966
 20
7.486088606491346
 30
0.0
 10
6.635925483506535
 20
7.487249424171361
 30
0.0
  0
ARC
  5
26A
330
1F
100
AcDbEntity
  8
0
  6
Continuous
 62
     7
370
     0
100
AcDbCircle
 10
6.6003875472
 20
7.5961067688
 30
0.0
 40
0.1189925343772769
100
AcDbArc
 50
284.884320839
 51
294.4543153586
  0
SPLINE
  5
26B
330
1F
100
AcDbEntity
  8
0
  6
Continuous
 62
     7
370
     0
100
AcDbSpline
210
0.0
220
0.0
230
1.0
 70
     8
 71
     3
 72
    12
 73
     8
 74
     0
 42
0.00000001
 43
0.00000001
 40
0.0
 40
0.0
 40
0.0
 40
0.0
 40
0.250325365403683
 40
0.499997877742102
 40
0.7494826629082647
 40
0.8746982187917983
 40
1.0
 40
1.0
 40
1.0
 40
1.0
 10
6.653168718702841
 20
7.485613535744122
 30
0.0
 10
6.652148556963072
 20
7.485475215738603
 30
0.0
 10
6.650110894083739
 20
7.485198936468636
 30
0.0
 10
6.648151158577402
 20
7.48531505367316
 30
0.0
 10
6.648091894203892
 20
7.486096495046187
 30
0.0
 10
6.648777597921772
 20
7.486991637370812
 30
0.0
 10
6.649356863403702
 20
7.487523058154648
 30
0.0
 10
6.649646595833086
 20
7.487788860001173
 30
0.0
  0
ARC
  5
26C
330
1F
100
AcDbEntity
  8
0
  6
Continuous
 62
     7
370
     0
100
AcDbCircle
 10
6.6396109101
 20
7.5683559365
 30
0.0
 40
0.0838458052179586
100
AcDbArc
 50
279.3055438692
 51
292.9077387863
  0
LINE
  5
26D
330
1F
100
AcDbEntity
  8
0
  6
Continuous
 62
     7
370
     0
100
AcDbLine
 10
6.6662442327
 20
7.4876570534
 30
0.0
 11
6.672247753
 21
7.4911228119
 31
0.0
  0
ARC
  5
26E
330
1F
100
AcDbEntity
  8
0
  6
Continuous
 62
     7
370
     0
100
AcDbCircle
 10
6.6900930075
 20
7.2434031884
 30
0.0
 40
0.2454153919544916
100
AcDbArc
 50
92.5709023732
 51
95.5766427454
  0
LINE
  5
26F
330
1F
100
AcDbEntity
  8
0
  6
Continuous
 62
     7
370
     0
100
AcDbLine
 10
6.7202254974
 20
7.5123216187
 30
0.0
 11
6.6790847392
 21
7.4885715645
 31
0.0
  0
ARC
  5
270
330
1F
100
AcDbEntity
  8
0
  6
Continuous
 62
     7
370
     0
100
AcDbCircle
 10
6.7312073
 20
7.2675726147
 30
0.0
 40
0.2449952549157612
100
AcDbArc
 50
92.5691184819
 51
95.7987794102
  0
ARC
  5
271
330
1F
100
AcDbEntity
  8
0
  6
Continuous
 62
     7
370
     0
100
AcDbCircle
 10
6.7890946851
 20
7.4343827709
 30
0.0
 40
0.0717231643391782
100
AcDbArc
 50
82.2090806689
 51
125.947101471
  0
SPLINE
  5
272
330
1F
100
AcDbEntity
  8
0
  6
Continuous
 62
     7
370
     0
100
AcDbSpline
210
0.0
220
0.0
230
1.0
 70
    24
 71
     1
 72
     4
 73
     2
 74
     0
 42
0.00000001
 43
0.00000001
 40
0.0
 40
0.0
 40
1.0
 40
1.0
 10
6.735243245808026
 20
7.484563571839153
 30
0.0
 10
6.74699045680766
 20
7.492446927366999
 30
0.0
  0
SPLINE
  5
273
330
1F
100
AcDbEntity
  8
0
  6
Continuous
 62
     7
370
     0
100
AcDbSpline
210
0.0
220
0.0
230
1.0
 70
     8
 71
     3
 72
    12
 73
     8
 74
     0
 42
0.00000001
 43
0.00000001
 40
0.0
 40
0.0
 40
0.0
 40
0.0
 40
0.2503262674180349
 40
0.4997345046006518
 40
0.6249000363599422
 40
0.7501600021982606
 40
1.0
 40
1.0
 40
1.0
 40
1.0
 10
6.7396845597513
 20
7.471633050503597
 30
0.0
 10
6.737469802817134
 20
7.472188633073917
 30
0.0
 10
6.733048411204008
 20
7.473297760707251
 30
0.0
 10
6.730131758442206
 20
7.475759941095375
 30
0.0
 10
6.730048058556569
 20
7.478244351663071
 30
0.0
 10
6.731089012147017
 20
7.480940855995921
 30
0.0
 10
6.733582456303799
 20
7.483115273803896
 30
0.0
 10
6.735243245808026
 20
7.484563571839153
 30
0.0
  0
ARC
  5
274
330
1F
100
AcDbEntity
  8
0
  6
Continuous
 62
     7
370
     0
100
AcDbCircle
 10
6.7523864766
 20
7.5399040407
 30
0.0
 40
0.0694425430849852
100
AcDbArc
 50
259.4605427146
 51
304.3372982675
  0
SPLINE
  5
275
330
1F
100
AcDbEntity
  8
0
  6
Continuous
 62
     7
370
     0
100
AcDbSpline
210
0.0
220
0.0
230
1.0
 70
     8
 71
     3
 72
     9
 73
     5
 74
     0
 42
0.00000001
 43
0.00000001
 40
0.0
 40
0.0
 40
0.0
 40
0.0
 40
0.4987092906772034
 40
1.0
 40
1.0
 40
1.0
 40
1.0
 10
6.807953204663574
 20
7.495665727692842
 30
0.0
 10
6.805996585661225
 20
7.493387804628045
 30
0.0
 10
6.802073219806758
 20
7.488820167514843
 30
0.0
 10
6.795068097263956
 20
7.484652416023797
 30
0.0
 10
6.791556494415581
 20
7.482563160922571
 30
0.0
  0
SPLINE
  5
276
330
1F
100
AcDbEntity
  8
0
  6
Continuous
 62
     7
370
     0
100
AcDbSpline
210
0.0
220
0.0
230
1.0
 70
     8
 71
     3
 72
    11
 73
     7
 74
     0
 42
0.00000001
 43
0.00000001
 40
0.0
 40
0.0
 40
0.0
 40
0.0
 40
0.2504031889031623
 40
0.5003824607867564
 40
0.7500984159891436
 40
1.0
 40
1.0
 40
1.0
 40
1.0
 10
6.79881737319485
 20
7.505443882907263
 30
0.0
 10
6.800504472941448
 20
7.505006021524476
 30
0.0
 10
6.803875816279739
 20
7.50413104003098
 30
0.0
 10
6.807593634379783
 20
7.502022795347905
 30
0.0
 10
6.809169650417387
 20
7.499093189338489
 30
0.0
 10
6.808358787004733
 20
7.496808497860865
 30
0.0
 10
6.807953204663574
 20
7.495665727692842
 30
0.0
  0
SPLINE
  5
277
330
1F
100
AcDbEntity
  8
0
  6
Continuous
 62
     7
370
     0
100
AcDbSpline
210
0.0
220
0.0
230
1.0
 70
     8
 71
     3
 72
     9
 73
     5
 74
     0
 42
0.00000001
 43
0.00000001
 40
0.0
 40
0.0
 40
0.0
 40
0.0
 40
0.5000883479088507
 40
1.0
 40
1.0
 40
1.0
 40
1.0
 10
6.915149286623559
 20
7.45839312725465
 30
0.0
 10
6.905810554337327
 20
7.454565558850917
 30
0.0
 10
6.887136389411704
 20
7.446911774435147
 30
0.0
 10
6.864518171111782
 20
7.444419592342942
 30
0.0
 10
6.85321106023411
 20
7.443173721475914
 30
0.0
  0
ARC
  5
278
330
1F
100
AcDbEntity
  8
0
  6
Continuous
 62
     7
370
     0
100
AcDbCircle
 10
6.6525260111
 20
6.9895516849
 30
0.0
 40
0.5373855998781948
100
AcDbArc
 50
60.7444694702
 51
62.6477803987
  0
SPLINE
  5
279
330
1F
100
AcDbEntity
  8
0
  6
Continuous
 62
     7
370
     0
100
AcDbSpline
210
0.0
220
0.0
230
1.0
 70
    24
 71
     1
 72
     4
 73
     2
 74
     0
 42
0.00000001
 43
0.00000001
 40
0.0
 40
0.0
 40
1.0
 40
1.0
 10
6.87909667683017
 20
7.458403526117034
 30
0.0
 10
6.899432797437116
 20
7.466856955955762
 30
0.0
  0
SPLINE
  5
27A
330
1F
100
AcDbEntity
  8
0
  6
Continuous
 62
     7
370
     0
100
AcDbSpline
210
0.0
220
0.0
230
1.0
 70
    24
 71
     1
 72
     4
 73
     2
 74
     0
 42
0.00000001
 43
0.00000001
 40
0.0
 40
0.0
 40
1.0
 40
1.0
 10
6.854320109166632
 20
7.452377884682291
 30
0.0
 10
6.87909667683017
 20
7.458403526117033
 30
0.0
  0
SPLINE
  5
27B
330
1F
100
AcDbEntity
  8
0
  6
Continuous
 62
     7
370
     0
100
AcDbSpline
210
0.0
220
0.0
230
1.0
 70
    24
 71
     1
 72
     4
 73
     2
 74
     0
 42
0.00000001
 43
0.00000001
 40
0.0
 40
0.0
 40
1.0
 40
1.0
 10
6.832584557453657
 20
7.450335281477316
 30
0.0
 10
6.854320109166632
 20
7.452377884682291
 30
0.0
  0
LINE
  5
27C
330
1F
100
AcDbEntity
  8
0
  6
Continuous
 62
     7
370
     0
100
AcDbLine
 10
6.8219320397
 20
7.4441857139
 30
0.0
 11
6.8325845575
 21
7.4503352815
 31
0.0
  0
ARC
  5
27D
330
1F
100
AcDbEntity
  8
0
  6
Continuous
 62
     7
370
     0
100
AcDbCircle
 10
6.6012082849
 20
6.9663942344
 30
0.0
 40
0.5263113848201246
100
AcDbArc
 50
59.5514239366
 51
65.204635108
  0
LINE
  5
27E
330
1F
100
AcDbEntity
  8
0
  6
Continuous
 62
     7
370
     0
100
AcDbLine
 10
6.8812515115
 20
7.4278126222
 30
0.0
 11
6.8679243853
 21
7.420119036
 31
0.0
  0
ARC
  5
27F
330
1F
100
AcDbEntity
  8
0
  6
Continuous
 62
     7
370
     0
100
AcDbCircle
 10
6.6059593926
 20
6.9585623448
 30
0.0
 40
0.5440418858182113
100
AcDbArc
 50
59.6013973796
 51
62.9690491903
  0
ARC
  5
280
330
1F
100
AcDbEntity
  8
0
  6
Continuous
 62
     7
370
     0
100
AcDbCircle
 10
6.9560495299
 20
7.3803827996
 30
0.0
 40
0.0441702800158364
100
AcDbArc
 50
54.1272041066
 51
127.6783787343
  0
SPLINE
  5
281
330
1F
100
AcDbEntity
  8
0
  6
Continuous
 62
     7
370
     0
100
AcDbSpline
210
0.0
220
0.0
230
1.0
 70
    24
 71
     1
 72
     4
 73
     2
 74
     0
 42
0.00000001
 43
0.00000001
 40
0.0
 40
0.0
 40
1.0
 40
1.0
 10
6.917394078473076
 20
7.406615446126855
 30
0.0
 10
6.929051399506403
 20
7.415341555157672
 30
0.0
  0
SPLINE
  5
282
330
1F
100
AcDbEntity
  8
0
  6
Continuous
 62
     7
370
     0
100
AcDbSpline
210
0.0
220
0.0
230
1.0
 70
     8
 71
     3
 72
    12
 73
     8
 74
     0
 42
0.00000001
 43
0.00000001
 40
0.0
 40
0.0
 40
0.0
 40
0.0
 40
0.2503262674180368
 40
0.4997345046006457
 40
0.6249000363599436
 40
0.750160002198259
 40
1.0
 40
1.0
 40
1.0
 40
1.0
 10
6.922785611540351
 20
7.382583983318866
 30
0.0
 10
6.920483617162146
 20
7.384393286461999
 30
0.0
 10
6.91588807058986
 20
7.38800525742786
 30
0.0
 10
6.912710843981697
 20
7.39345287874228
 30
0.0
 10
6.912451678958888
 20
7.39780000018916
 30
0.0
 10
6.913337717403056
 20
7.402060978397005
 30
0.0
 10
6.915772416708194
 20
7.404794650085923
 30
0.0
 10
6.917394078473076
 20
7.406615446126855
 30
0.0
  0
ARC
  5
283
330
1F
100
AcDbEntity
  8
0
  6
Continuous
 62
     7
370
     0
100
AcDbCircle
 10
6.9497385826
 20
7.4166848026
 30
0.0
 40
0.0434664068266347
100
AcDbArc
 50
231.6774831436
 51
305.8185522735
  0
SPLINE
  5
284
330
1F
100
AcDbEntity
  8
0
  6
Continuous
 62
     7
370
     0
100
AcDbSpline
210
0.0
220
0.0
230
1.0
 70
     8
 71
     3
 72
     9
 73
     5
 74
     0
 42
0.00000001
 43
0.00000001
 40
0.0
 40
0.0
 40
0.0
 40
0.0
 40
0.4987092906772068
 40
1.0
 40
1.0
 40
1.0
 40
1.0
 10
6.991519917928641
 20
7.3967403209648
 30
0.0
 10
6.989580773917494
 20
7.393766206877694
 30
0.0
 10
6.985692448499467
 20
7.387802584096438
 30
0.0
 10
6.978687513516772
 20
7.383563846971864
 30
0.0
 10
6.975176004690536
 20
7.381439007432054
 30
0.0
  0
ARC
  5
285
330
1F
100
AcDbEntity
  8
0
  6
Continuous
 62
     7
370
     0
100
AcDbCircle
 10
6.9742830603
 20
7.4003192604
 30
0.0
 40
0.0176044900287384
100
AcDbArc
 50
348.2701768806
 51
64.244498636
  0
LINE
  5
286
330
1F
100
AcDbEntity
  8
0
  6
Continuous
 62
     7
370
     0
100
AcDbLine
 10
7.0556691057
 20
7.335664987
 30
0.0
 11
7.0662871864
 21
7.3417946745
 31
0.0
  0
ARC
  5
287
330
1F
100
AcDbEntity
  8
0
  6
Continuous
 62
     7
370
     0
100
AcDbCircle
 10
6.4541352457
 20
6.7320194824
 30
0.0
 40
0.8521918093652487
100
AcDbArc
 50
45.1003901982
 51
45.7348120719
  0
LINE
  5
288
330
1F
100
AcDbEntity
  8
0
  6
Continuous
 62
     7
370
     0
100
AcDbLine
 10
7.0367117302
 20
7.3352244297
 30
0.0
 11
7.0489483508
 21
7.3422884804
 31
0.0
  0
ARC
  5
289
330
1F
100
AcDbEntity
  8
0
  6
Continuous
 62
     7
370
     0
100
AcDbCircle
 10
6.4418986251
 20
6.7249554317
 30
0.0
 40
0.852191809321797
100
AcDbArc
 50
45.1003901982
 51
45.7348120719
  0
LINE
  5
28A
330
1F
100
AcDbEntity
  8
0
  6
Continuous
 62
     7
370
     0
100
AcDbLine
 10
7.0085248273
 20
7.3084491743
 30
0.0
 11
7.0434324851
 21
7.3286009362
 31
0.0
  0
ARC
  5
28B
330
1F
100
AcDbEntity
  8
0
  6
Continuous
 62
     7
370
     0
100
AcDbCircle
 10
6.3940700515
 20
6.6918800311
 30
0.0
 40
0.8704666448988423
100
AcDbArc
 50
43.8917150658
 51
45.0984093103
  0
SPLINE
  5
28C
330
1F
100
AcDbEntity
  8
0
  6
Continuous
 62
     7
370
     0
100
AcDbSpline
210
0.0
220
0.0
230
1.0
 70
    24
 71
     1
 72
     4
 73
     2
 74
     0
 42
0.00000001
 43
0.00000001
 40
0.0
 40
0.0
 40
1.0
 40
1.0
 10
7.081850344469849
 20
7.28655003185696
 30
0.0
 10
7.02137303137861
 20
7.295372492779942
 30
0.0
  0
LINE
  5
28D
330
1F
100
AcDbEntity
  8
0
  6
Continuous
 62
     7
370
     0
100
AcDbLine
 10
7.0948216215
 20
7.2940381907
 30
0.0
 11
7.0818503445
 21
7.2865500319
 31
0.0
  0
ARC
  5
28E
330
1F
100
AcDbEntity
  8
0
  6
Continuous
 62
     7
370
     0
100
AcDbCircle
 10
6.4159182314
 20
6.694931196
 30
0.0
 40
0.9054496143092126
100
AcDbArc
 50
41.427204916
 51
43.8839040123
  0
LINE
  5
28F
330
1F
100
AcDbEntity
  8
0
  6
Continuous
 62
     7
370
     0
100
AcDbLine
 10
7.0791353905
 20
7.3287179929
 30
0.0
 11
7.0685173098
 21
7.3225883054
 31
0.0
  0
ARC
  5
290
330
1F
100
AcDbEntity
  8
0
  6
Continuous
 62
     7
370
     0
100
AcDbCircle
 10
6.4518324107
 20
6.7252255312
 30
0.0
 40
0.8704666449094625
100
AcDbArc
 50
43.8917150659
 51
45.0984093103
  0
SPLINE
  5
291
330
1F
100
AcDbEntity
  8
0
  6
Continuous
 62
     7
370
     0
100
AcDbSpline
210
0.0
220
0.0
230
1.0
 70
    24
 71
     1
 72
     4
 73
     2
 74
     0
 42
0.00000001
 43
0.00000001
 40
0.0
 40
0.0
 40
1.0
 40
1.0
 10
7.141222610757948
 20
7.144025057991647
 30
0.0
 10
7.181492735439818
 20
7.201938313110826
 30
0.0
  0
ARC
  5
292
330
1F
100
AcDbEntity
  8
0
  6
Continuous
 62
     7
370
     0
100
AcDbCircle
 10
6.2673604542
 20
6.5872745788
 30
0.0
 40
1.03614968255194
100
AcDbArc
 50
31.0059798586
 51
32.501813578
  0
SPLINE
  5
293
330
1F
100
AcDbEntity
  8
0
  6
Continuous
 62
     7
370
     0
100
AcDbSpline
210
0.0
220
0.0
230
1.0
 70
    24
 71
     1
 72
     4
 73
     2
 74
     0
 42
0.00000001
 43
0.00000001
 40
0.0
 40
0.0
 40
1.0
 40
1.0
 10
7.227423505785806
 20
7.127726295279047
 30
0.0
 10
7.155458379140817
 20
7.12102380873934
 30
0.0
  0
ARC
  5
294
330
1F
100
AcDbEntity
  8
0
  6
Continuous
 62
     7
370
     0
100
AcDbCircle
 10
6.3216481666
 20
6.6185478376
 30
0.0
 40
1.039082127078116
100
AcDbArc
 50
29.3423663581
 51
30.7405083271
  0
SPLINE
  5
295
330
1F
100
AcDbEntity
  8
0
  6
Continuous
 62
     7
370
     0
100
AcDbSpline
210
0.0
220
0.0
230
1.0
 70
    24
 71
     1
 72
     4
 73
     2
 74
     0
 42
0.00000001
 43
0.00000001
 40
0.0
 40
0.0
 40
1.0
 40
1.0
 10
7.20335432773572
 20
7.147605579599269
 30
0.0
 10
7.214730008077678
 20
7.149675403502244
 30
0.0
  0
ARC
  5
296
330
1F
100
AcDbEntity
  8
0
  6
Continuous
 62
     7
370
     0
100
AcDbCircle
 10
6.3147380356
 20
6.6146227825
 30
0.0
 40
1.036199583410483
100
AcDbArc
 50
30.9548910851
 51
32.5170332475
  0
SPLINE
  5
297
330
1F
100
AcDbEntity
  8
0
  6
Continuous
 62
     7
370
     0
100
AcDbSpline
210
0.0
220
0.0
230
1.0
 70
    24
 71
     1
 72
     4
 73
     2
 74
     0
 42
0.00000001
 43
0.00000001
 40
0.0
 40
0.0
 40
1.0
 40
1.0
 10
7.195750254386027
 20
7.180361533600917
 30
0.0
 10
7.188494347786832
 20
7.171632193161177
 30
0.0
  0
ARC
  5
298
330
1F
100
AcDbEntity
  8
0
  6
Continuous
 62
     7
370
     0
100
AcDbCircle
 10
6.3311532565
 20
6.6245514813
 30
0.0
 40
1.027838889623998
100
AcDbArc
 50
32.7351182605
 51
34.1767963537
  0
SPLINE
  5
299
330
1F
100
AcDbEntity
  8
0
  6
Continuous
 62
     7
370
     0
100
AcDbSpline
210
0.0
220
0.0
230
1.0
 70
    24
 71
     1
 72
     4
 73
     2
 74
     0
 42
0.00000001
 43
0.00000001
 40
0.0
 40
0.0
 40
1.0
 40
1.0
 10
7.276048486184727
 20
7.027013799624075
 30
0.0
 10
7.281064827069917
 20
7.017369329983835
 30
0.0
  0
SPLINE
  5
29A
330
1F
100
AcDbEntity
  8
0
  6
Continuous
 62
     7
370
     0
100
AcDbSpline
210
0.0
220
0.0
230
1.0
 70
    24
 71
     1
 72
     4
 73
     2
 74
     0
 42
0.00000001
 43
0.00000001
 40
0.0
 40
0.0
 40
1.0
 40
1.0
 10
7.270500499041352
 20
7.034485955564759
 30
0.0
 10
7.276048486184727
 20
7.027013799624075
 30
0.0
  0
ARC
  5
29B
330
1F
100
AcDbEntity
  8
0
  6
Continuous
 62
     7
370
     0
100
AcDbCircle
 10
7.2601751887
 20
7.0230472034
 30
0.0
 40
0.0154096426527538
100
AcDbArc
 50
47.9286787227
 51
119.2671111692
  0
ARC
  5
29C
330
1F
100
AcDbEntity
  8
0
  6
Continuous
 62
     7
370
     0
100
AcDbCircle
 10
7.2634013256
 20
7.0202521625
 30
0.0
 40
0.019478981229737
100
AcDbArc
 50
123.5298480024
 51
201.3796523969
  0
ARC
  5
29D
330
1F
100
AcDbEntity
  8
0
  6
Continuous
 62
     7
370
     0
100
AcDbCircle
 10
7.2304334809
 20
7.0016627255
 30
0.0
 40
0.018758803626318
100
AcDbArc
 50
37.7654003944
 51
65.9945067671
  0
SPLINE
  5
29E
330
1F
100
AcDbEntity
  8
0
  6
Continuous
 62
     7
370
     0
100
AcDbSpline
210
0.0
220
0.0
230
1.0
 70
     8
 71
     3
 72
     9
 73
     5
 74
     0
 42
0.00000001
 43
0.00000001
 40
0.0
 40
0.0
 40
0.0
 40
0.0
 40
0.5001654445837068
 40
1.0
 40
1.0
 40
1.0
 40
1.0
 10
7.227646617581831
 20
7.017816159997596
 30
0.0
 10
7.229301853954693
 20
7.018583681909112
 30
0.0
 10
7.232611231663182
 20
7.020118217970784
 30
0.0
 10
7.236247489388919
 20
7.019238651491428
 30
0.0
 10
7.238065016652642
 20
7.01879901377126
 30
0.0
  0
SPLINE
  5
29F
330
1F
100
AcDbEntity
  8
0
  6
Continuous
 62
     7
370
     0
100
AcDbSpline
210
0.0
220
0.0
230
1.0
 70
     8
 71
     3
 72
    14
 73
    10
 74
     0
 42
0.00000001
 43
0.00000001
 40
0.0
 40
0.0
 40
0.0
 40
0.0
 40
0.2499004290088932
 40
0.3800976031651793
 40
0.499957105849633
 40
0.625721676823068
 40
0.7499966555365268
 40
0.8749516763669378
 40
1.0
 40
1.0
 40
1.0
 40
1.0
 10
7.222901249078747
 20
6.987869049602976
 30
0.0
 10
7.221884754530278
 20
6.990600989930801
 30
0.0
 10
7.220338670183657
 20
6.994756260790938
 30
0.0
 10
7.219560963535502
 20
7.000607765436402
 30
0.0
 10
7.219686893577121
 20
7.004976986173431
 30
0.0
 10
7.220600016862607
 20
7.00905786411879
 30
0.0
 10
7.222271652748681
 20
7.012740298278424
 30
0.0
 10
7.22463001238247
 20
7.015800458239214
 30
0.0
 10
7.226640832365204
 20
7.017144092260613
 30
0.0
 10
7.227646617581833
 20
7.017816159997596
 30
0.0
  0
ARC
  5
2A0
330
1F
100
AcDbEntity
  8
0
  6
Continuous
 62
     7
370
     0
100
AcDbCircle
 10
6.3261229182
 20
6.6134645314
 30
0.0
 40
0.9717973647027432
100
AcDbArc
 50
19.9819350541
 51
22.6605126393
  0
LINE
  5
2A1
330
1F
100
AcDbEntity
  8
0
  6
Continuous
 62
     7
370
     0
100
AcDbLine
 10
7.2962166031
 20
6.9783397246
 30
0.0
 11
7.2394184805
 21
6.9455508663
 31
0.0
  0
ARC
  5
2A2
330
1F
100
AcDbEntity
  8
0
  6
Continuous
 62
     7
370
     0
100
AcDbCircle
 10
6.3843044511
 20
6.6467799926
 30
0.0
 40
0.9703172825635391
100
AcDbArc
 50
19.9806266963
 51
22.4530307603
  0
LINE
  5
2A3
330
1F
100
AcDbEntity
  8
0
  6
Continuous
 62
     7
370
     0
100
AcDbLine
 10
7.6773273356
 20
7.8707558652
 30
0.0
 11
7.698322438
 21
7.8828760798
 31
0.0
  0
ARC
  5
2A4
330
1F
100
AcDbEntity
  8
0
  6
Continuous
 62
     7
370
     0
100
AcDbCircle
 10
7.6688028368
 20
7.8823762291
 30
0.0
 40
0.0144117985248306
100
AcDbArc
 50
243.3530393979
 51
306.2631306161
  0
ARC
  5
2A5
330
1F
100
AcDbEntity
  8
0
  6
Continuous
 62
     7
370
     0
100
AcDbCircle
 10
7.6633514924
 20
7.8722926428
 30
0.0
 40
0.0029749897398793
100
AcDbArc
 50
138.1633540742
 51
250.1081223746
  0
SPLINE
  5
2A6
330
1F
100
AcDbEntity
  8
0
  6
Continuous
 62
     7
370
     0
100
AcDbSpline
210
0.0
220
0.0
230
1.0
 70
    24
 71
     1
 72
     4
 73
     2
 74
     0
 42
0.00000001
 43
0.00000001
 40
0.0
 40
0.0
 40
1.0
 40
1.0
 10
7.664509839296858
 20
7.876588338756015
 30
0.0
 10
7.661134977711727
 20
7.874276988082848
 30
0.0
  0
LINE
  5
2A7
330
1F
100
AcDbEntity
  8
0
  6
Continuous
 62
     7
370
     0
100
AcDbLine
 10
7.6871693975
 20
7.8896694233
 30
0.0
 11
7.6645098393
 21
7.8765883388
 31
0.0
  0
ARC
  5
2A8
330
1F
100
AcDbEntity
  8
0
  6
Continuous
 62
     7
370
     0
100
AcDbCircle
 10
7.4001182444
 20
7.4065112411
 30
0.0
 40
0.5619966133827479
100
AcDbArc
 50
59.2848503828
 51
61.1416172112
  0
LINE
  5
2A9
330
1F
100
AcDbEntity
  8
0
  6
Continuous
 62
     7
370
     0
100
AcDbLine
 10
7.6501277004
 20
7.8864571165
 30
0.0
 11
7.6713638618
 21
7.8987164915
 31
0.0
  0
ARC
  5
2AA
330
1F
100
AcDbEntity
  8
0
  6
Continuous
 62
     7
370
     0
100
AcDbCircle
 10
7.6414454301
 20
7.8985199583
 30
0.0
 40
0.0148625021051363
100
AcDbArc
 50
246.2050121649
 51
305.7445772572
  0
ARC
  5
2AB
330
1F
100
AcDbEntity
  8
0
  6
Continuous
 62
     7
370
     0
100
AcDbCircle
 10
7.6365004951
 20
7.8876582916
 30
0.0
 40
0.0029324762596699
100
AcDbArc
 50
168.4602970801
 51
248.9861305764
  0
SPLINE
  5
2AC
330
1F
100
AcDbEntity
  8
0
  6
Continuous
 62
     7
370
     0
100
AcDbSpline
210
0.0
220
0.0
230
1.0
 70
     8
 71
     3
 72
     9
 73
     5
 74
     0
 42
0.00000001
 43
0.00000001
 40
0.0
 40
0.0
 40
0.0
 40
0.0
 40
0.5015784057013122
 40
1.0
 40
1.0
 40
1.0
 40
1.0
 10
7.636693436786332
 20
7.891199464490473
 30
0.0
 10
7.635972407772263
 20
7.890766900368966
 30
0.0
 10
7.634534887723807
 20
7.889904494578387
 30
0.0
 10
7.633929188534641
 20
7.888796949071522
 30
0.0
 10
7.633627294979112
 20
7.888244924474231
 30
0.0
  0
LINE
  5
2AD
330
1F
100
AcDbEntity
  8
0
  6
Continuous
 62
     7
370
     0
100
AcDbLine
 10
7.6601335674
 20
7.9047311639
 30
0.0
 11
7.6366934368
 21
7.8911994645
 31
0.0
  0
ARC
  5
2AE
330
1F
100
AcDbEntity
  8
0
  6
Continuous
 62
     7
370
     0
100
AcDbCircle
 10
7.4251006782
 20
7.4531525939
 30
0.0
 40
0.5090811957412661
100
AcDbArc
 50
62.5043960566
 51
64.4877028377
  0
LINE
  5
2AF
330
1F
100
AcDbEntity
  8
0
  6
Continuous
 62
     7
370
     0
100
AcDbLine
 10
7.6185251525
 20
7.8976780632
 30
0.0
 11
7.6443643954
 21
7.9125947406
 31
0.0
  0
SPLINE
  5
2B0
330
1F
100
AcDbEntity
  8
0
  6
Continuous
 62
     7
370
     0
100
AcDbSpline
210
0.0
220
0.0
230
1.0
 70
     8
 71
     3
 72
    13
 73
     9
 74
     0
 42
0.00000001
 43
0.00000001
 40
0.0
 40
0.0
 40
0.0
 40
0.0
 40
0.2493026324880679
 40
0.3767800005080275
 40
0.4994269650597017
 40
0.6183515801794559
 40
0.7497380290332597
 40
0.9999999999999999
 40
0.9999999999999999
 40
0.9999999999999999
 40
0.9999999999999999
 10
7.616320506951316
 20
7.881346743373751
 30
0.0
 10
7.614425595667453
 20
7.882488212021469
 30
0.0
 10
7.611561748353163
 20
7.884213354485371
 30
0.0
 10
7.609927405819844
 20
7.887152667249844
 30
0.0
 10
7.609820543073265
 20
7.889436802037173
 30
0.0
 10
7.610907544300297
 20
7.891717045905471
 30
0.0
 10
7.613575847604811
 20
7.894580768654856
 30
0.0
 10
7.616565028391435
 20
7.896451409775119
 30
0.0
 10
7.618525152517163
 20
7.897678063180231
 30
0.0
  0
ARC
  5
2B1
330
1F
100
AcDbEntity
  8
0
  6
Continuous
 62
     7
370
     0
100
AcDbCircle
 10
7.632885077
 20
7.9139583881
 30
0.0
 40
0.036577374851129
100
AcDbArc
 50
243.0724266427
 51
277.3759244881
  0
SPLINE
  5
2B2
330
1F
100
AcDbEntity
  8
0
  6
Continuous
 62
     7
370
     0
100
AcDbSpline
210
0.0
220
0.0
230
1.0
 70
     8
 71
     3
 72
    12
 73
     8
 74
     0
 42
0.00000001
 43
0.00000001
 40
0.0
 40
0.0
 40
0.0
 40
0.0
 40
0.2503253654036766
 40
0.4999978777420963
 40
0.7494826629082572
 40
0.8746982187918025
 40
1.0
 40
1.0
 40
1.0
 40
1.0
 10
7.643124596311798
 20
7.866549826803126
 30
0.0
 10
7.641908046197845
 20
7.867316602005015
 30
0.0
 10
7.639478118754568
 20
7.868848152645245
 30
0.0
 10
7.636922136783503
 20
7.87161160107553
 30
0.0
 10
7.636448315655842
 20
7.874190583409773
 30
0.0
 10
7.636871176458274
 20
7.876210534535954
 30
0.0
 10
7.637344231050304
 20
7.877192521427657
 30
0.0
 10
7.637580839756425
 20
7.877683683868079
 30
0.0
  0
ARC
  5
2B3
330
1F
100
AcDbEntity
  8
0
  6
Continuous
 62
     7
370
     0
100
AcDbCircle
 10
7.6608627813
 20
7.8969445822
 30
0.0
 40
0.0351921065548367
100
AcDbArc
 50
239.7324376347
 51
275.5449502973
  0
LINE
  5
2B4
330
1F
100
AcDbEntity
  8
0
  6
Continuous
 62
     7
370
     0
100
AcDbLine
 10
7.6582597561
 20
7.8584513917
 30
0.0
 11
7.6642632763
 21
7.8619171502
 31
0.0
  0
ARC
  5
2B5
330
1F
100
AcDbEntity
  8
0
  6
Continuous
 62
     7
370
     0
100
AcDbCircle
 10
7.3300095639
 20
7.335267387
 30
0.0
 40
0.6176323271000975
100
AcDbArc
 50
56.2709886957
 51
57.8954825747
  0
LINE
  5
2B6
330
1F
100
AcDbEntity
  8
0
  6
Continuous
 62
     7
370
     0
100
AcDbLine
 10
7.7141003131
 20
7.8726856173
 30
0.0
 11
7.6729595549
 21
7.8489355631
 31
0.0
  0
ARC
  5
2B7
330
1F
100
AcDbEntity
  8
0
  6
Continuous
 62
     7
370
     0
100
AcDbCircle
 10
7.3717557701
 20
7.3599438247
 30
0.0
 40
0.6165256944550027
100
AcDbArc
 50
56.2699799893
 51
58.015578871
  0
ARC
  5
2B8
330
1F
100
AcDbEntity
  8
0
  6
Continuous
 62
     7
370
     0
100
AcDbCircle
 10
7.7550422599
 20
7.7766897617
 30
0.0
 40
0.0120023068023738
100
AcDbArc
 50
44.6072468385
 51
115.0749477433
  0
SPLINE
  5
2B9
330
1F
100
AcDbEntity
  8
0
  6
Continuous
 62
     7
370
     0
100
AcDbSpline
210
0.0
220
0.0
230
1.0
 70
    24
 71
     1
 72
     4
 73
     2
 74
     0
 42
0.00000001
 43
0.00000001
 40
0.0
 40
0.0
 40
1.0
 40
1.0
 10
7.765364096644358
 20
7.783200997473065
 30
0.0
 10
7.763587148937117
 20
7.785118298904911
 30
0.0
  0
SPLINE
  5
2BA
330
1F
100
AcDbEntity
  8
0
  6
Continuous
 62
     7
370
     0
100
AcDbSpline
210
0.0
220
0.0
230
1.0
 70
    24
 71
     1
 72
     4
 73
     2
 74
     0
 42
0.00000001
 43
0.00000001
 40
0.0
 40
0.0
 40
1.0
 40
1.0
 10
7.777429407963794
 20
7.788996618314511
 30
0.0
 10
7.765364096644358
 20
7.783200997473065
 30
0.0
  0
SPLINE
  5
2BB
330
1F
100
AcDbEntity
  8
0
  6
Continuous
 62
     7
370
     0
100
AcDbSpline
210
0.0
220
0.0
230
1.0
 70
    24
 71
     1
 72
     4
 73
     2
 74
     0
 42
0.00000001
 43
0.00000001
 40
0.0
 40
0.0
 40
1.0
 40
1.0
 10
7.771594550485052
 20
7.792938134081442
 30
0.0
 10
7.777429407963794
 20
7.788996618314511
 30
0.0
  0
SPLINE
  5
2BC
330
1F
100
AcDbEntity
  8
0
  6
Continuous
 62
     7
370
     0
100
AcDbSpline
210
0.0
220
0.0
230
1.0
 70
     8
 71
     3
 72
    14
 73
    10
 74
     0
 42
0.00000001
 43
0.00000001
 40
0.0
 40
0.0
 40
0.0
 40
0.0
 40
0.2498127395192797
 40
0.3773648753684227
 40
0.4998828473802761
 40
0.6245002249559115
 40
0.74976963946337
 40
0.8747912564028929
 40
1.0
 40
1.0
 40
1.0
 40
1.0
 10
7.772598919418803
 20
7.804236826109562
 30
0.0
 10
7.771589042235295
 20
7.803574171057596
 30
0.0
 10
7.770063530853351
 20
7.802573170301677
 30
0.0
 10
7.768845079439696
 20
7.800749683649218
 30
0.0
 10
7.768382663545465
 20
7.799221558821213
 30
0.0
 10
7.768437040662699
 20
7.797592072992916
 30
0.0
 10
7.769053123060917
 20
7.795939610749709
 30
0.0
 10
7.770134866799135
 20
7.794361389866007
 30
0.0
 10
7.771107746744177
 20
7.793412789136392
 30
0.0
 10
7.771594550485052
 20
7.792938134081442
 30
0.0
  0
ARC
  5
2BD
330
1F
100
AcDbEntity
  8
0
  6
Continuous
 62
     7
370
     0
100
AcDbCircle
 10
7.7794156845
 20
7.7927029466
 30
0.0
 40
0.0133977111236094
100
AcDbArc
 50
48.7738097106
 51
120.5839792519
  0
SPLINE
  5
2BE
330
1F
100
AcDbEntity
  8
0
  6
Continuous
 62
     7
370
     0
100
AcDbSpline
210
0.0
220
0.0
230
1.0
 70
     8
 71
     3
 72
    12
 73
     8
 74
     0
 42
0.00000001
 43
0.00000001
 40
0.0
 40
0.0
 40
0.0
 40
0.0
 40
0.2507186227520292
 40
0.5005671360416553
 40
0.6250149800175183
 40
0.7508411148631219
 40
1.0
 40
1.0
 40
1.0
 40
1.0
 10
7.78735224685932
 20
7.790994118060938
 30
0.0
 10
7.78816450350867
 20
7.791797933077016
 30
0.0
 10
7.789786197901505
 20
7.793402773499669
 30
0.0
 10
7.791150061027587
 20
7.795832675548424
 30
0.0
 10
7.791222503540868
 20
7.798034938800432
 30
0.0
 10
7.790568868660015
 20
7.80029838718059
 30
0.0
 10
7.789172824478714
 20
7.801789066764411
 30
0.0
 10
7.788245222592559
 20
7.80277954916613
 30
0.0
  0
SPLINE
  5
2BF
330
1F
100
AcDbEntity
  8
0
  6
Continuous
 62
     7
370
     0
100
AcDbSpline
210
0.0
220
0.0
230
1.0
 70
    24
 71
     1
 72
     4
 73
     2
 74
     0
 42
0.00000001
 43
0.00000001
 40
0.0
 40
0.0
 40
1.0
 40
1.0
 10
7.804443316171144
 20
7.777920982774769
 30
0.0
 10
7.78735224685932
 20
7.790994118060938
 30
0.0
  0
SPLINE
  5
2C0
330
1F
100
AcDbEntity
  8
0
  6
Continuous
 62
     7
370
     0
100
AcDbSpline
210
0.0
220
0.0
230
1.0
 70
     8
 71
     3
 72
    12
 73
     8
 74
     0
 42
0.00000001
 43
0.00000001
 40
0.0
 40
0.0
 40
0.0
 40
0.0
 40
0.2505093998122249
 40
0.4997729473066737
 40
0.6235673607819624
 40
0.750089174679864
 40
1.0
 40
1.0
 40
1.0
 40
1.0
 10
7.797477641601558
 20
7.808665705714149
 30
0.0
 10
7.799935775607682
 20
7.806326145326393
 30
0.0
 10
7.80483981864174
 20
7.801658659829772
 30
0.0
 10
7.808731555345886
 20
7.794686188600078
 30
0.0
 10
7.809407210500725
 20
7.789047906594956
 30
0.0
 10
7.808556213002018
 20
7.783594930086391
 30
0.0
 10
7.806084360581528
 20
7.780184885786061
 30
0.0
 10
7.804443316171144
 20
7.777920982774769
 30
0.0
  0
ARC
  5
2C1
330
1F
100
AcDbEntity
  8
0
  6
Continuous
 62
     7
370
     0
100
AcDbCircle
 10
7.7711293812
 20
7.7844220548
 30
0.0
 40
0.0358048241979363
100
AcDbArc
 50
42.6178848327
 51
114.4317648936
  0
ARC
  5
2C2
330
1F
100
AcDbEntity
  8
0
  6
Continuous
 62
     7
370
     0
100
AcDbCircle
 10
7.7600149872
 20
7.8081203563
 30
0.0
 40
0.0096368084758748
100
AcDbArc
 50
112.5448335051
 51
195.643852867
  0
SPLINE
  5
2C3
330
1F
100
AcDbEntity
  8
0
  6
Continuous
 62
     7
370
     0
100
AcDbSpline
210
0.0
220
0.0
230
1.0
 70
    24
 71
     1
 72
     4
 73
     2
 74
     0
 42
0.00000001
 43
0.00000001
 40
0.0
 40
0.0
 40
1.0
 40
1.0
 10
7.753722826484446
 20
7.800220850694687
 30
0.0
 10
7.75073516020065
 20
7.805521724173053
 30
0.0
  0
ARC
  5
2C4
330
1F
100
AcDbEntity
  8
0
  6
Continuous
 62
     7
370
     0
100
AcDbCircle
 10
7.7439902014
 20
7.7765253134
 30
0.0
 40
0.0256164493558605
100
AcDbArc
 50
67.6702483769
 51
113.0361755619
  0
SPLINE
  5
2C5
330
1F
100
AcDbEntity
  8
0
  6
Continuous
 62
     7
370
     0
100
AcDbSpline
210
0.0
220
0.0
230
1.0
 70
     8
 71
     3
 72
    13
 73
     9
 74
     0
 42
0.00000001
 43
0.00000001
 40
0.0
 40
0.0
 40
0.0
 40
0.0
 40
0.2504706134920069
 40
0.500029797866528
 40
0.6250199073750426
 40
0.750028168661161
 40
0.8749635130634401
 40
1.0
 40
1.0
 40
1.0
 40
1.0
 10
7.739766903189262
 20
7.773843808437047
 30
0.0
 10
7.737538922980715
 20
7.775974645737688
 30
0.0
 10
7.733091069886097
 20
7.780228566506561
 30
0.0
 10
7.728979325415314
 20
7.786198674420695
 30
0.0
 10
7.728096003354206
 20
7.791123524074574
 30
0.0
 10
7.728670676366445
 20
7.794652831779589
 30
0.0
 10
7.730585793609098
 20
7.79781630004176
 30
0.0
 10
7.732839074786509
 20
7.799337931498964
 30
0.0
 10
7.733966171231715
 20
7.800099055065575
 30
0.0
  0
ARC
  5
2C6
330
1F
100
AcDbEntity
  8
0
  6
Continuous
 62
     7
370
     0
100
AcDbCircle
 10
7.767505103
 20
7.7992333384
 30
0.0
 40
0.0376036695042447
100
AcDbArc
 50
222.4687172636
 51
282.4084416557
  0
SPLINE
  5
2C7
330
1F
100
AcDbEntity
  8
0
  6
Continuous
 62
     7
370
     0
100
AcDbSpline
210
0.0
220
0.0
230
1.0
 70
    24
 71
     1
 72
     4
 73
     2
 74
     0
 42
0.00000001
 43
0.00000001
 40
0.0
 40
0.0
 40
1.0
 40
1.0
 10
7.764061343303679
 20
7.777548565634897
 30
0.0
 10
7.775585350244004
 20
7.762508066953716
 30
0.0
  0
ARC
  5
2C8
330
1F
100
AcDbEntity
  8
0
  6
Continuous
 62
     7
370
     0
100
AcDbCircle
 10
7.7582016667
 20
7.7888163613
 30
0.0
 40
0.0127003554584852
100
AcDbArc
 50
228.9909492807
 51
297.4761242781
  0
SPLINE
  5
2C9
330
1F
100
AcDbEntity
  8
0
  6
Continuous
 62
     7
370
     0
100
AcDbSpline
210
0.0
220
0.0
230
1.0
 70
     8
 71
     3
 72
    14
 73
    10
 74
     0
 42
0.00000001
 43
0.00000001
 40
0.0
 40
0.0
 40
0.0
 40
0.0
 40
0.2493767508767044
 40
0.3764892636978729
 40
0.4994689653008962
 40
0.621493546557032
 40
0.7495690295588178
 40
0.8747074165035674
 40
1.0
 40
1.0
 40
1.0
 40
1.0
 10
7.749955641105941
 20
7.787560901396355
 30
0.0
 10
7.749240511419686
 20
7.7870657039673
 30
0.0
 10
7.748160865269512
 20
7.786318094116764
 30
0.0
 10
7.74744110835981
 20
7.784921763800462
 30
0.0
 10
7.747242479095396
 20
7.783784737540238
 30
0.0
 10
7.747428523440216
 20
7.782587815337221
 30
0.0
 10
7.74797010142116
 20
7.781399740174915
 30
0.0
 10
7.748793075200543
 20
7.780256736034284
 30
0.0
 10
7.749509524558436
 20
7.779574117213526
 30
0.0
 10
7.749867969805193
 20
7.779232597650489
 30
0.0
  0
LINE
  5
2CA
330
1F
100
AcDbEntity
  8
0
  6
Continuous
 62
     7
370
     0
100
AcDbLine
 10
7.801607817
 20
7.7648420784
 30
0.0
 11
7.8141543708
 21
7.7720850497
 31
0.0
  0
ARC
  5
2CB
330
1F
100
AcDbEntity
  8
0
  6
Continuous
 62
     7
370
     0
100
AcDbCircle
 10
7.1682008279
 20
7.1316396391
 30
0.0
 40
0.8956281276086612
100
AcDbArc
 50
41.348161824
 51
44.9907470749
  0
LINE
  5
2CC
330
1F
100
AcDbEntity
  8
0
  6
Continuous
 62
     7
370
     0
100
AcDbLine
 10
7.8531035515
 20
7.7305640482
 30
0.0
 11
7.8405569977
 21
7.7233210769
 31
0.0
  0
ARC
  5
2CD
330
1F
100
AcDbEntity
  8
0
  6
Continuous
 62
     7
370
     0
100
AcDbCircle
 10
7.1807473817
 20
7.1388826104
 30
0.0
 40
0.8956281276076701
100
AcDbArc
 50
41.348161824
 51
44.9907470749
  0
LINE
  5
2CE
330
1F
100
AcDbEntity
  8
0
  6
Continuous
 62
     7
370
     0
100
AcDbLine
 10
7.9165168032
 20
7.6289358614
 30
0.0
 11
7.9397273537
 21
7.642335027
 31
0.0
  0
ARC
  5
2CF
330
1F
100
AcDbEntity
  8
0
  6
Continuous
 62
     7
370
     0
100
AcDbCircle
 10
7.0787998499
 20
7.0573562483
 30
0.0
 40
1.014136552855917
100
AcDbArc
 50
34.3059671557
 51
36.0498763944
  0
LINE
  5
2D0
330
1F
100
AcDbEntity
  8
0
  6
Continuous
 62
     7
370
     0
100
AcDbLine
 10
7.8872668132
 20
7.6475446804
 30
0.0
 11
7.8987343404
 21
7.6541647429
 31
0.0
  0
ARC
  5
2D1
330
1F
100
AcDbEntity
  8
0
  6
Continuous
 62
     7
370
     0
100
AcDbCircle
 10
7.0673323228
 20
7.0507361858
 30
0.0
 40
1.014136552851478
100
AcDbArc
 50
34.3059671556
 51
36.0498763944
  0
LINE
  5
2D2
330
1F
100
AcDbEntity
  8
0
  6
Continuous
 62
     7
370
     0
100
AcDbLine
 10
7.8951314146
 20
7.6165903394
 30
0.0
 11
7.905049276
 21
7.6223157989
 31
0.0
  0
ARC
  5
2D3
330
1F
100
AcDbEntity
  8
0
  6
Continuous
 62
     7
370
     0
100
AcDbCircle
 10
7.0586154939
 20
7.045849718
 30
0.0
 40
1.012671586733357
100
AcDbArc
 50
34.3050548788
 51
36.3483841289
  0
LINE
  5
2D4
330
1F
100
AcDbEntity
  8
0
  6
Continuous
 62
     7
370
     0
100
AcDbLine
 10
7.8620474239
 20
7.6390094588
 30
0.0
 11
7.8742496075
 21
7.6460536294
 31
0.0
  0
ARC
  5
2D5
330
1F
100
AcDbEntity
  8
0
  6
Continuous
 62
     7
370
     0
100
AcDbCircle
 10
7.0415335675
 20
7.0353326897
 30
0.0
 40
1.018660213330514
100
AcDbArc
 50
32.9148321174
 51
36.3430376464
  0
LINE
  5
2D6
330
1F
100
AcDbEntity
  8
0
  6
Continuous
 62
     7
370
     0
100
AcDbLine
 10
7.9534757767
 20
7.6216531381
 30
0.0
 11
7.8966776541
 21
7.5888642798
 31
0.0
  0
ARC
  5
2D7
330
1F
100
AcDbEntity
  8
0
  6
Continuous
 62
     7
370
     0
100
AcDbCircle
 10
7.0915572243
 20
7.0635976773
 30
0.0
 40
1.026805477375839
100
AcDbArc
 50
32.9213331728
 51
34.3071410484
  0
LWPOLYLINE
  5
2D8
330
1F
100
AcDbEntity
  8
0
  6
Continuous
 62
     7
370
     0
100
AcDbPolyline
 90
       72
 70
   128
 43
0.0
 10
6.9310420207
 20
6.4694464354
 10
6.9228216494
 20
6.438146832
 10
6.9118747225
 20
6.4094012418
 10
6.8982869149
 20
6.383434638
 10
6.8821645693
 20
6.3604502447
 10
6.8636338651
 20
6.3406279457
 10
6.8428398302
 20
6.3241228776
 10
6.8199452059
 20
6.3110642147
 10
6.795129174
 20
6.3015541589
 10
6.7685859533
 20
6.2956671392
 10
6.7405232807
 20
6.2934492295
 10
6.7111607845
 20
6.2949177881
 10
6.6807282662
 20
6.3000613213
 10
6.6494639014
 20
6.3088395742
 10
6.6176123762
 20
6.321183845
 10
6.585422972
 20
6.3369975229
 10
6.5531476144
 20
6.3561568447
 10
6.521038902
 20
6.3785118625
 10
6.4893481289
 20
6.4038876181
 10
6.4583233184
 20
6.4320855117
 10
6.4282072817
 20
6.4628848566
 10
6.3992357176
 20
6.4960446063
 10
6.3716353679
 20
6.5313052406
 10
6.3456222428
 20
6.5683907973
 10
6.3213999302
 20
6.6070110316
 10
6.2991580026
 20
6.6468636879
 10
6.2790705332
 20
6.6876368651
 10
6.2612947336
 20
6.7290114578
 10
6.2459697237
 20
6.7706636537
 10
6.2332154424
 20
6.8122674678
 10
6.2231317093
 20
6.853497294
 10
6.2157974431
 20
6.894030453
 10
6.2112700446
 20
6.9335497177
 10
6.2095849467
 20
6.9717457965
 10
6.2107553377
 20
7.0083197531
 10
6.2147720575
 20
7.0429853468
 10
6.22160367
 20
7.0754712724
 10
6.2311967085
 20
7.1055232833
 10
6.2434760945
 20
7.1329061819
 10
6.2583457251
 20
7.1574056599
 10
6.2756892254
 20
7.1788299756
 10
6.2953708588
 20
7.1970114547
 10
6.31723659
 20
7.2118078025
 10
6.3411152899
 20
7.2231032175
 10
6.3668200754
 20
7.2308092978
 10
6.3941497716
 20
7.2348657328
 10
6.4228904866
 20
7.2352407754
 10
6.4528172854
 20
7.2319314905
 10
6.4836959502
 20
7.2249637776
 10
6.5152848135
 20
7.2143921686
 10
6.5473366498
 20
7.2002994006
 10
6.5796006098
 20
7.1827957686
 10
6.6118241843
 20
7.1620182624
 10
6.6437551803
 20
7.138129494
 10
6.6751436944
 20
7.1113164255
 10
6.7057440688
 20
7.0817889054
 10
6.7353168142
 20
7.0497780268
 10
6.7636304838
 20
7.015534318
 10
6.7904634846
 20
6.9793257825
 10
6.8156058121
 20
6.9414358012
 10
6.8388606935
 20
6.9021609147
 10
6.8600461277
 20
6.8618085021
 10
6.8789963101
 20
6.8206943757
 10
6.8955629298
 20
6.7791403095
 10
6.9096163305
 20
6.7374715201
 10
6.9210465254
 20
6.6960141226
 10
6.9297640575
 20
6.6550925771
 10
6.9357007004
 20
6.6150271502
 10
6.9388099919
 20
6.5761314084
 10
6.9390675975
 20
6.5387097634
 10
6.9364715012
 20
6.5030550903
 10
6.9310420207
 20
6.4694464354
  0
LWPOLYLINE
  5
2D9
330
1F
100
AcDbEntity
  8
0
  6
Continuous
 62
     7
370
     0
100
AcDbPolyline
 90
       46
 70
   128
 43
0.0
 10
6.4517397481
 20
7.2321114149
 10
6.4278641483
 20
7.2334716959
 10
6.3997639523
 20
7.2317629581
 10
6.3731687578
 20
7.2263488727
 10
6.3482926937
 20
7.2172730308
 10
6.3253360475
 20
7.2046085058
 10
6.3044836525
 20
7.1884572649
 10
6.2859033999
 20
7.1689493484
 10
6.2697448871
 20
7.1462418226
 10
6.2561382129
 20
7.1205175152
 10
6.2451929301
 20
7.0919835431
 10
6.2369971639
 20
7.0608696452
 10
6.2316169017
 20
7.0274263321
 10
6.2290954621
 20
6.9919228699
 10
6.2294531465
 20
6.9546451115
 10
6.2326870748
 20
6.9158931955
 10
6.2387712093
 20
6.8759791296
 10
6.2476565644
 20
6.8352242783
 10
6.2592716001
 20
6.7939567757
 10
6.2735227992
 20
6.7525088836
 10
6.2902954194
 20
6.7112143159
 10
6.3094544173
 20
6.6704055523
 10
6.330845536
 20
6.6304111608
 10
6.3542965468
 20
6.5915531529
 10
6.3796186359
 20
6.5541443904
 10
6.4066079248
 20
6.5184860666
 10
6.4350471116
 20
6.4848652814
 10
6.4647072206
 20
6.4535527295
 10
6.4953494461
 20
6.4248005213
 10
6.526727075
 20
6.3988401526
 10
6.5585874729
 20
6.375880641
 10
6.5906741188
 20
6.3561068431
 10
6.6227286698
 20
6.3396779657
 10
6.6544930414
 20
6.3267262847
 10
6.6857114858
 20
6.3173560792
 10
6.7161326502
 20
6.3116427927
 10
6.7455116015
 20
6.3096324252
 10
6.7736117975
 20
6.311341163
 10
6.8002069919
 20
6.3167552484
 10
6.825083056
 20
6.3258310902
 10
6.8480397023
 20
6.3384956153
 10
6.8688920973
 20
6.3546468562
 10
6.8874723498
 20
6.3741547727
 10
6.9036308627
 20
6.3968622984
 10
6.9172375369
 20
6.4225866059
 10
6.9180373351
 20
6.4243727826
  0
SPLINE
  5
2DA
330
1F
100
AcDbEntity
  8
0
  6
Continuous
 62
     7
370
     0
100
AcDbSpline
210
0.0
220
0.0
230
1.0
 70
     8
 71
     3
 72
    14
 73
    10
 74
     0
 42
0.00000001
 43
0.00000001
 40
0.0
 40
0.0
 40
0.0
 40
0.0
 40
0.5001598129721797
 40
0.6334839770276136
 40
0.7547008492889871
 40
0.8160823888842353
 40
0.8744466572137138
 40
0.9383930382634508
 40
1.0
 40
1.0
 40
1.0
 40
1.0
 10
6.727042713446046
 20
7.252813774016348
 30
0.0
 10
6.73072992540957
 20
7.254998658841337
 30
0.0
 10
6.735400012126286
 20
7.257765953398761
 30
0.0
 10
6.739552666066756
 20
7.261933640263853
 30
0.0
 10
6.740611642098895
 20
7.26397076678802
 30
0.0
 10
6.740818567015356
 20
7.265646605326775
 30
0.0
 10
6.740509983704404
 20
7.266949352393096
 30
0.0
 10
6.739752430871696
 20
7.268214292768357
 30
0.0
 10
6.738883720615065
 20
7.268943421196481
 30
0.0
 10
6.738457458770078
 20
7.269301192532358
 30
0.0
  0
SPLINE
  5
2DB
330
1F
100
AcDbEntity
  8
0
  6
Continuous
 62
     7
370
     0
100
AcDbSpline
210
0.0
220
0.0
230
1.0
 70
     8
 71
     3
 72
    14
 73
    10
 74
     0
 42
0.00000001
 43
0.00000001
 40
0.0
 40
0.0
 40
0.0
 40
0.0
 40
0.0625270621852555
 40
0.1249759676499915
 40
0.1874784178587739
 40
0.249933795641051
 40
0.3634906992529488
 40
0.4998436771422602
 40
1.0
 40
1.0
 40
1.0
 40
1.0
 10
6.738457458770078
 20
7.269301192532358
 30
0.0
 10
6.737977997501471
 20
7.269629474188029
 30
0.0
 10
6.737019674274682
 20
7.270285627158366
 30
0.0
 10
6.735234474780937
 20
7.270962807420563
 30
0.0
 10
6.733334879493849
 20
7.271386042025392
 30
0.0
 10
6.730853625688176
 20
7.271548883329892
 30
0.0
 10
6.727721487248016
 20
7.271167815174975
 30
0.0
 10
6.720943831167776
 20
7.269155823446404
 30
0.0
 10
6.716254436945796
 20
7.266431636949623
 30
0.0
 10
6.712569604426078
 20
7.264291025493655
 30
0.0
  0
SPLINE
  5
2DC
330
1F
100
AcDbEntity
  8
0
  6
Continuous
 62
     7
370
     0
100
AcDbSpline
210
0.0
220
0.0
230
1.0
 70
     8
 71
     3
 72
    14
 73
    10
 74
     0
 42
0.00000001
 43
0.00000001
 40
0.0
 40
0.0
 40
0.0
 40
0.0
 40
0.500303431536112
 40
0.6254176539424889
 40
0.7501401738687201
 40
0.8143424488233882
 40
0.875038356694749
 40
0.9374874297319965
 40
1.0
 40
1.0
 40
1.0
 40
1.0
 10
6.712569604426078
 20
7.264291025493655
 30
0.0
 10
6.708799456941286
 20
7.26205988361122
 30
0.0
 10
6.704086483480928
 20
7.259270785168617
 30
0.0
 10
6.699771864831941
 20
7.255135896441995
 30
0.0
 10
6.698660148198963
 20
7.253098621351207
 30
0.0
 10
6.698518859275468
 20
7.251340209982857
 30
0.0
 10
6.698889407841
 20
7.250002553321735
 30
0.0
 10
6.699714852800163
 20
7.24872203622173
 30
0.0
 10
6.700610174083312
 20
7.247987691455627
 30
0.0
 10
6.701058062196376
 20
7.247620332499888
 30
0.0
  0
SPLINE
  5
2DD
330
1F
100
AcDbEntity
  8
0
  6
Continuous
 62
     7
370
     0
100
AcDbSpline
210
0.0
220
0.0
230
1.0
 70
     8
 71
     3
 72
    14
 73
    10
 74
     0
 42
0.00000001
 43
0.00000001
 40
0.0
 40
0.0
 40
0.0
 40
0.0
 40
0.0625005409549568
 40
0.1249727346346874
 40
0.1854844482493635
 40
0.2498740647271634
 40
0.360650559510486
 40
0.4996888686475235
 40
0.9999999999999999
 40
0.9999999999999999
 40
0.9999999999999999
 40
0.9999999999999999
 10
6.701058062196376
 20
7.247620332499888
 30
0.0
 10
6.701539542379918
 20
7.247286589757771
 30
0.0
 10
6.70250228437047
 20
7.246619255643385
 30
0.0
 10
6.704269178098254
 20
7.245904077041293
 30
0.0
 10
6.706197144315508
 20
7.245475766757918
 30
0.0
 10
6.708671213901827
 20
7.245350155187586
 30
0.0
 10
6.711805225594177
 20
7.245801304269801
 30
0.0
 10
6.718489404737642
 20
7.247971631086541
 30
0.0
 10
6.723287809869983
 20
7.250688072674003
 30
0.0
 10
6.727042713446046
 20
7.252813774016348
 30
0.0
  0
SPLINE
  5
2DE
330
1F
100
AcDbEntity
  8
0
  6
Continuous
 62
     7
370
     0
100
AcDbSpline
210
0.0
220
0.0
230
1.0
 70
     8
 71
     3
 72
     9
 73
     5
 74
     0
 42
0.00000001
 43
0.00000001
 40
0.0
 40
0.0
 40
0.0
 40
0.0
 40
0.4999994477952465
 40
1.0
 40
1.0
 40
1.0
 40
1.0
 10
6.930361494478728
 20
7.259636527783992
 30
0.0
 10
6.93179071445251
 20
7.258799845262645
 30
0.0
 10
6.934649157556967
 20
7.257126478371865
 30
0.0
 10
6.937389979687286
 20
7.255299063684419
 30
0.0
 10
6.93876039226594
 20
7.254385355331588
 30
0.0
  0
ARC
  5
2DF
330
1F
100
AcDbEntity
  8
0
  6
Continuous
 62
     7
370
     0
100
AcDbCircle
 10
6.9605284735
 20
7.2850051777
 30
0.0
 40
0.0375689084108766
100
AcDbArc
 50
234.5904202105
 51
248.7798519364
  0
ARC
  5
2E0
330
1F
100
AcDbEntity
  8
0
  6
Continuous
 62
     7
370
     0
100
AcDbCircle
 10
6.9485064529
 20
7.2552534347
 30
0.0
 40
0.0055005164135557
100
AcDbArc
 50
253.3488800753
 51
297.6312180752
  0
SPLINE
  5
2E1
330
1F
100
AcDbEntity
  8
0
  6
Continuous
 62
     7
370
     0
100
AcDbSpline
210
0.0
220
0.0
230
1.0
 70
     8
 71
     3
 72
    13
 73
     9
 74
     0
 42
0.00000001
 43
0.00000001
 40
0.0
 40
0.0
 40
0.0
 40
0.0
 40
0.2485845284706774
 40
0.373538853585465
 40
0.4967972082328764
 40
0.621257230153768
 40
0.750209309934807
 40
1.0
 40
1.0
 40
1.0
 40
1.0
 10
6.951057475967353
 20
7.250380246582951
 30
0.0
 10
6.951628175451013
 20
7.250804941872927
 30
0.0
 10
6.952485744633536
 20
7.251443115908602
 30
0.0
 10
6.952887258532151
 20
7.252727308596207
 30
0.0
 10
6.952909919662358
 20
7.253753405690957
 30
0.0
 10
6.952628157877088
 20
7.254818937968585
 30
0.0
 10
6.95192723713065
 20
7.256209464102056
 30
0.0
 10
6.951085405676808
 20
7.257145559593932
 30
0.0
 10
6.950530195976412
 20
7.257762938874803
 30
0.0
  0
ARC
  5
2E2
330
1F
100
AcDbEntity
  8
0
  6
Continuous
 62
     7
370
     0
100
AcDbCircle
 10
6.9396917643
 20
7.248746817
 30
0.0
 40
0.0140982996964202
100
AcDbArc
 50
39.7559162246
 51
118.913498443
  0
LINE
  5
2E3
330
1F
100
AcDbEntity
  8
0
  6
Continuous
 62
     7
370
     0
100
AcDbLine
 10
6.9328753968
 20
7.2610877727
 30
0.0
 11
6.9303614945
 21
7.2596365278
 31
0.0
  0
SPLINE
  5
2E4
330
1F
100
AcDbEntity
  8
0
  6
Continuous
 62
     7
370
     0
100
AcDbSpline
210
0.0
220
0.0
230
1.0
 70
    24
 71
     1
 72
     4
 73
     2
 74
     0
 42
0.00000001
 43
0.00000001
 40
0.0
 40
0.0
 40
1.0
 40
1.0
 10
7.16328535230236
 20
7.140843056675286
 30
0.0
 10
7.188297008992599
 20
7.145114158708494
 30
0.0
  0
ARC
  5
2E5
330
1F
100
AcDbEntity
  8
0
  6
Continuous
 62
     7
370
     0
100
AcDbCircle
 10
6.3024083
 20
6.6075072008
 30
0.0
 40
1.036252887084801
100
AcDbArc
 50
31.2517249877
 51
32.2291664929
  0
SPLINE
  5
2E6
330
1F
100
AcDbEntity
  8
0
  6
Continuous
 62
     7
370
     0
100
AcDbSpline
210
0.0
220
0.0
230
1.0
 70
    24
 71
     1
 72
     4
 73
     2
 74
     0
 42
0.00000001
 43
0.00000001
 40
0.0
 40
0.0
 40
1.0
 40
1.0
 10
7.178997202426708
 20
7.160148080624757
 30
0.0
 10
7.16328535230236
 20
7.140843056675286
 30
0.0
  0
ARC
  5
2E7
330
1F
100
AcDbEntity
  8
0
  6
Continuous
 62
     7
370
     0
100
AcDbCircle
 10
6.2963815617
 20
6.6034902109
 30
0.0
 40
1.028627411798398
100
AcDbArc
 50
26.3513364178
 51
26.9506127336
  0
SPLINE
  5
2E8
330
1F
100
AcDbEntity
  8
0
  6
Continuous
 62
     7
370
     0
100
AcDbSpline
210
0.0
220
0.0
230
1.0
 70
     8
 71
     3
 72
    12
 73
     8
 74
     0
 42
0.00000001
 43
0.00000001
 40
0.0
 40
0.0
 40
0.0
 40
0.0
 40
0.2508758277601322
 40
0.5006089009255494
 40
0.6255741322412531
 40
0.750685252371301
 40
0.9999999999999999
 40
0.9999999999999999
 40
0.9999999999999999
 40
0.9999999999999999
 10
7.213297485067369
 20
7.069687102554913
 30
0.0
 10
7.212712736141939
 20
7.070771860988612
 30
0.0
 10
7.211545901857863
 20
7.072936436715623
 30
0.0
 10
7.209554627725034
 20
7.075342233170974
 30
0.0
 10
7.207537150999006
 20
7.0764021061528
 30
0.0
 10
7.205406652710757
 20
7.07675238379321
 30
0.0
 10
7.204003864312033
 20
7.076120797180704
 30
0.0
 10
7.203069805354789
 20
7.075700249695976
 30
0.0
  0
SPLINE
  5
2E9
330
1F
100
AcDbEntity
  8
0
  6
Continuous
 62
     7
370
     0
100
AcDbSpline
210
0.0
220
0.0
230
1.0
 70
     8
 71
     3
 72
    13
 73
     9
 74
     0
 42
0.00000001
 43
0.00000001
 40
0.0
 40
0.0
 40
0.0
 40
0.0
 40
0.125264224999943
 40
0.2502628772393294
 40
0.3767307195539906
 40
0.5001238771619468
 40
0.7494666677388275
 40
1.0
 40
1.0
 40
1.0
 40
1.0
 10
7.203069805354789
 20
7.075700249695976
 30
0.0
 10
7.202656970750994
 20
7.075427829908822
 30
0.0
 10
7.201832176794301
 20
7.074883567891874
 30
0.0
 10
7.200873459192933
 20
7.073654473251818
 30
0.0
 10
7.200270294059018
 20
7.072134095990192
 30
0.0
 10
7.200093911477988
 20
7.069818778792015
 30
0.0
 10
7.200906471716771
 20
7.066857343780841
 30
0.0
 10
7.201939202480014
 20
7.064697871695026
 30
0.0
 10
7.202456797675349
 20
7.063615564073465
 30
0.0
  0
ARC
  5
2EA
330
1F
100
AcDbEntity
  8
0
  6
Continuous
 62
     7
370
     0
100
AcDbCircle
 10
6.2855895841
 20
6.5972620482
 30
0.0
 40
1.028654990297709
100
AcDbArc
 50
26.3513418165
 51
26.9596188658
  0
LINE
  5
2EB
330
1F
100
AcDbEntity
  8
0
  6
Continuous
 62
     7
370
     0
100
AcDbLine
 10
7.2073560485
 20
7.0538556028
 30
0.0
 11
7.2181233563
 21
7.0600714373
 31
0.0
  0
ARC
  5
2EC
330
1F
100
AcDbEntity
  8
0
  6
Continuous
 62
     7
370
     0
100
AcDbCircle
 10
6.3184154743
 20
6.6162318362
 30
0.0
 40
1.028941894336639
100
AcDbArc
 50
26.3514027755
 51
27.0541691332
  0
SPLINE
  5
2ED
330
1F
100
AcDbEntity
  8
0
  6
Continuous
 62
     7
370
     0
100
AcDbSpline
210
0.0
220
0.0
230
1.0
 70
     8
 71
     3
 72
    13
 73
     9
 74
     0
 42
0.00000001
 43
0.00000001
 40
0.0
 40
0.0
 40
0.0
 40
0.0
 40
0.2576868080690654
 40
0.4999433752792886
 40
0.6237499127117271
 40
0.7488287379132479
 40
0.8752064661317279
 40
1.0
 40
1.0
 40
1.0
 40
1.0
 10
7.234767367063807
 20
7.084228236378562
 30
0.0
 10
7.234094798569396
 20
7.085451599380719
 30
0.0
 10
7.232789934864024
 20
7.087825070623092
 30
0.0
 10
7.230605250615667
 20
7.090445598286792
 30
0.0
 10
7.22844067154143
 20
7.09167802502712
 30
0.0
 10
7.226693758223887
 20
7.092050351604878
 30
0.0
 10
7.224976772169923
 20
7.091894092674512
 30
0.0
 10
7.223974561771241
 20
7.091393827016314
 30
0.0
 10
7.223476617156511
 20
7.091145271831932
 30
0.0
  0
SPLINE
  5
2EE
330
1F
100
AcDbEntity
  8
0
  6
Continuous
 62
     7
370
     0
100
AcDbSpline
210
0.0
220
0.0
230
1.0
 70
     8
 71
     3
 72
    13
 73
     9
 74
     0
 42
0.00000001
 43
0.00000001
 40
0.0
 40
0.0
 40
0.0
 40
0.0
 40
0.1296897594729743
 40
0.2496082834035273
 40
0.3753937891368145
 40
0.4998958881041899
 40
0.7495309619034592
 40
1.0
 40
1.0
 40
1.0
 40
1.0
 10
7.223476617156511
 20
7.091145271831932
 30
0.0
 10
7.223004057938501
 20
7.090823925988915
 30
0.0
 10
7.222094543604498
 20
7.090205445512276
 30
0.0
 10
7.221132036639175
 20
7.088737817435907
 30
0.0
 10
7.220594760182026
 20
7.086996208551927
 30
0.0
 10
7.220571772012351
 20
7.084387073130468
 30
0.0
 10
7.221547491110882
 20
7.081127583596207
 30
0.0
 10
7.222704106615814
 20
7.078726521464048
 30
0.0
 10
7.223283378743512
 20
7.077523988414734
 30
0.0
  0
ARC
  5
2EF
330
1F
100
AcDbEntity
  8
0
  6
Continuous
 62
     7
370
     0
100
AcDbCircle
 10
6.3069117253
 20
6.6095901183
 30
0.0
 40
1.028931054129338
100
AcDbArc
 50
26.3514003123
 51
27.0505676871
  0
LINE
  5
2F0
330
1F
100
AcDbEntity
  8
0
  6
Continuous
 62
     7
370
     0
100
AcDbLine
 10
7.2289251012
 20
7.0663071519
 30
0.0
 11
7.2404385444
 21
7.0729537212
 31
0.0
  0
ARC
  5
2F1
330
1F
100
AcDbEntity
  8
0
  6
Continuous
 62
     7
370
     0
100
AcDbCircle
 10
6.3426925993
 20
6.6239981168
 30
0.0
 40
0.9779643087591359
100
AcDbArc
 50
21.4255047864
 51
22.045303426
  0
SPLINE
  5
2F2
330
1F
100
AcDbEntity
  8
0
  6
Continuous
 62
     7
370
     0
100
AcDbSpline
210
0.0
220
0.0
230
1.0
 70
     8
 71
     3
 72
    12
 73
     8
 74
     0
 42
0.00000001
 43
0.00000001
 40
0.0
 40
0.0
 40
0.0
 40
0.0
 40
0.2508758277602201
 40
0.5006089009257387
 40
0.6255741322673555
 40
0.7506852523711888
 40
1.0
 40
1.0
 40
1.0
 40
1.0
 10
7.249155361052382
 20
6.991066844262813
 30
0.0
 10
7.24867387810029
 20
6.992177551391082
 30
0.0
 10
7.247713105380124
 20
6.994393906309361
 30
0.0
 10
7.245978261467582
 20
6.996867818478502
 30
0.0
 10
7.244120761383567
 20
6.997971208718255
 30
0.0
 10
7.242103690455339
 20
6.998352802749118
 30
0.0
 10
7.240713667714478
 20
6.997724800987635
 30
0.0
 10
7.239788108882407
 20
6.997306640507372
 30
0.0
  0
SPLINE
  5
2F3
330
1F
100
AcDbEntity
  8
0
  6
Continuous
 62
     7
370
     0
100
AcDbSpline
210
0.0
220
0.0
230
1.0
 70
     8
 71
     3
 72
    13
 73
     9
 74
     0
 42
0.00000001
 43
0.00000001
 40
0.0
 40
0.0
 40
0.0
 40
0.0
 40
0.1252642250000681
 40
0.2502628772395815
 40
0.3767307195474303
 40
0.5001238771614336
 40
0.7494666677385585
 40
0.9999999999999999
 40
0.9999999999999999
 40
0.9999999999999999
 40
0.9999999999999999
 10
7.239788108882407
 20
6.997306640507372
 30
0.0
 10
7.239372830227564
 20
6.997033538598367
 30
0.0
 10
7.238543153350413
 20
6.996487913783882
 30
0.0
 10
7.237535981271371
 20
6.995245346002217
 30
0.0
 10
7.236848661612722
 20
6.993701766203669
 30
0.0
 10
7.236513082994552
 20
6.991343173827791
 30
0.0
 10
7.237078204900907
 20
6.988316034956152
 30
0.0
 10
7.237910902615981
 20
6.986106217825963
 30
0.0
 10
7.238328243080533
 20
6.984998677729488
 30
0.0
  0
ARC
  5
2F4
330
1F
100
AcDbEntity
  8
0
  6
Continuous
 62
     7
370
     0
100
AcDbCircle
 10
6.3318651573
 20
6.6177584326
 30
0.0
 40
0.9780289993426503
100
AcDbArc
 50
21.4255185545
 51
22.0546096667
  0
LINE
  5
2F5
330
1F
100
AcDbEntity
  8
0
  6
Continuous
 62
     7
370
     0
100
AcDbLine
 10
7.2423057155
 20
6.9750240389
 30
0.0
 11
7.2530730233
 21
6.9812398734
 31
0.0
  0
ARC
  5
2F6
330
1F
100
AcDbEntity
  8
0
  6
Continuous
 62
     7
370
     0
100
AcDbCircle
 10
6.3643184753
 20
6.636606787
 30
0.0
 40
0.9787059333447594
100
AcDbArc
 50
21.4256748784
 51
22.1522885004
  0
SPLINE
  5
2F7
330
1F
100
AcDbEntity
  8
0
  6
Continuous
 62
     7
370
     0
100
AcDbSpline
210
0.0
220
0.0
230
1.0
 70
     8
 71
     3
 72
    13
 73
     9
 74
     0
 42
0.00000001
 43
0.00000001
 40
0.0
 40
0.0
 40
0.0
 40
0.0
 40
0.2576868080727664
 40
0.4999433752796972
 40
0.6237499127151459
 40
0.7488287379045411
 40
0.8752064661198786
 40
1.0
 40
1.0
 40
1.0
 40
1.0
 10
7.27078113264981
 20
7.00564710290584
 30
0.0
 10
7.270225257327173
 20
7.006900474428658
 30
0.0
 10
7.26914679239871
 20
7.009332165807365
 30
0.0
 10
7.267241136810139
 20
7.012028865437747
 30
0.0
 10
7.265254398042998
 20
7.013311094921307
 30
0.0
 10
7.263606220347507
 20
7.01371151232158
 30
0.0
 10
7.261948858317978
 20
7.013572390573738
 30
0.0
 10
7.260952235871081
 20
7.013073738561905
 30
0.0
 10
7.260457067609971
 20
7.012825985111873
 30
0.0
  0
SPLINE
  5
2F8
330
1F
100
AcDbEntity
  8
0
  6
Continuous
 62
     7
370
     0
100
AcDbSpline
210
0.0
220
0.0
230
1.0
 70
     8
 71
     3
 72
    13
 73
     9
 74
     0
 42
0.00000001
 43
0.00000001
 40
0.0
 40
0.0
 40
0.0
 40
0.0
 40
0.1296897594766274
 40
0.2496082834080183
 40
0.3753937891341961
 40
0.4998958881042715
 40
0.7495309619034941
 40
1.0
 40
1.0
 40
1.0
 40
1.0
 10
7.260457067609971
 20
7.012825985111873
 30
0.0
 10
7.259981044117334
 20
7.012503638570982
 30
0.0
 10
7.259064862243467
 20
7.011883232094337
 30
0.0
 10
7.25803722320654
 20
7.010396896675821
 30
0.0
 10
7.257397575796146
 20
7.008626192842155
 30
0.0
 10
7.257188545183632
 20
7.005965055090819
 30
0.0
 10
7.257889375689588
 20
7.002630738212934
 30
0.0
 10
7.258823757794806
 20
7.000172599990171
 30
0.0
 10
7.259291727926508
 20
6.998941481306044
 30
0.0
  0
ARC
  5
2F9
330
1F
100
AcDbEntity
  8
0
  6
Continuous
 62
     7
370
     0
100
AcDbCircle
 10
6.352828926
 20
6.6299697105
 30
0.0
 40
0.9786802229760584
100
AcDbArc
 50
21.4256685319
 51
22.1485686257
  0
LINE
  5
2FA
330
1F
100
AcDbEntity
  8
0
  6
Continuous
 62
     7
370
     0
100
AcDbLine
 10
7.2638747682
 20
6.9874755879
 30
0.0
 11
7.2753882114
 21
6.9941221572
 31
0.0
  0
ARC
  5
2FB
330
1F
100
AcDbEntity
  8
0
  6
Continuous
 62
     7
370
     0
100
AcDbCircle
 10
6.3182575761
 20
6.6196994009
 30
0.0
 40
1.00232392391953
100
AcDbArc
 50
36.0373474536
 51
36.62872568
  0
SPLINE
  5
2FC
330
1F
100
AcDbEntity
  8
0
  6
Continuous
 62
     7
370
     0
100
AcDbSpline
210
0.0
220
0.0
230
1.0
 70
    24
 71
     1
 72
     4
 73
     2
 74
     0
 42
0.00000001
 43
0.00000001
 40
0.0
 40
0.0
 40
1.0
 40
1.0
 10
7.122641020344179
 20
7.217713216130511
 30
0.0
 10
7.117975047362714
 20
7.222453437431517
 30
0.0
  0
ARC
  5
2FD
330
1F
100
AcDbEntity
  8
0
  6
Continuous
 62
     7
370
     0
100
AcDbCircle
 10
7.1127987273
 20
7.2175299664
 30
0.0
 40
0.0071438684206931
100
AcDbArc
 50
43.56589562
 51
116.7855167459
  0
SPLINE
  5
2FE
330
1F
100
AcDbEntity
  8
0
  6
Continuous
 62
     7
370
     0
100
AcDbSpline
210
0.0
220
0.0
230
1.0
 70
     8
 71
     3
 72
    13
 73
     9
 74
     0
 42
0.00000001
 43
0.00000001
 40
0.0
 40
0.0
 40
0.0
 40
0.0
 40
0.1252323796024156
 40
0.2501692759913993
 40
0.3766784429512367
 40
0.499807057108759
 40
0.7494738685102422
 40
1.0
 40
1.0
 40
1.0
 40
1.0
 10
7.109579329474824
 20
7.223907296044418
 30
0.0
 10
7.109117824113716
 20
7.223602256222819
 30
0.0
 10
7.108195902303869
 20
7.222992896314782
 30
0.0
 10
7.107212079815321
 20
7.221663581739866
 30
0.0
 10
7.106727733294734
 20
7.220036318250626
 30
0.0
 10
7.107004188480544
 20
7.217608796557067
 30
0.0
 10
7.108514789784116
 20
7.214654937119765
 30
0.0
 10
7.110060701829982
 20
7.212482121250209
 30
0.0
 10
7.110834985773766
 20
7.211393846891331
 30
0.0
  0
ARC
  5
2FF
330
1F
100
AcDbEntity
  8
0
  6
Continuous
 62
     7
370
     0
100
AcDbCircle
 10
6.3068229923
 20
6.6131159892
 30
0.0
 40
1.002183456644645
100
AcDbArc
 50
36.0373192494
 51
36.653510238
  0
LINE
  5
300
330
1F
100
AcDbEntity
  8
0
  6
Continuous
 62
     7
370
     0
100
AcDbLine
 10
7.117222582
 20
7.2027126188
 30
0.0
 11
7.1287704622
 21
7.2093790682
 31
0.0
  0
SPLINE
  5
301
330
1F
100
AcDbEntity
  8
0
  6
Continuous
 62
     7
370
     0
100
AcDbSpline
210
0.0
220
0.0
230
1.0
 70
    24
 71
     1
 72
     4
 73
     2
 74
     0
 42
0.00000001
 43
0.00000001
 40
0.0
 40
0.0
 40
1.0
 40
1.0
 10
7.038419355567929
 20
7.305213126270663
 30
0.0
 10
7.070276544204883
 20
7.300639542877938
 30
0.0
  0
ARC
  5
302
330
1F
100
AcDbEntity
  8
0
  6
Continuous
 62
     7
370
     0
100
AcDbCircle
 10
6.411501271
 20
6.6952261486
 30
0.0
 40
0.8947123775597952
100
AcDbArc
 50
42.5829584205
 51
43.8913716539
  0
LINE
  5
303
330
1F
100
AcDbEntity
  8
0
  6
Continuous
 62
     7
370
     0
100
AcDbLine
 10
7.0562806892
 20
7.3155242547
 30
0.0
 11
7.0384193556
 21
7.3052131263
 31
0.0
  0
SPLINE
  5
304
330
1F
100
AcDbEntity
  8
0
  6
Continuous
 62
     7
370
     0
100
AcDbSpline
210
0.0
220
0.0
230
1.0
 70
     8
 71
     3
 72
    14
 73
    10
 74
     0
 42
0.00000001
 43
0.00000001
 40
0.0
 40
0.0
 40
0.0
 40
0.0
 40
0.5001598129720083
 40
0.6334839770257825
 40
0.7547008492913921
 40
0.8160823888862206
 40
0.8744466572158163
 40
0.9383930382658925
 40
1.0
 40
1.0
 40
1.0
 40
1.0
 10
7.011388652811986
 20
7.350390635976355
 30
0.0
 10
7.015076969060188
 20
7.352580233017208
 30
0.0
 10
7.019748454423151
 20
7.355353495893491
 30
0.0
 10
7.023934631719653
 20
7.359671602346188
 30
0.0
 10
7.025020374560998
 20
7.361830301050085
 30
0.0
 10
7.025256188622928
 20
7.363639462930061
 30
0.0
 10
7.024974840422717
 20
7.365069539177737
 30
0.0
 10
7.024248280793687
 20
7.366481429398212
 30
0.0
 10
7.023401611748836
 20
7.367317475315832
 30
0.0
 10
7.022986165164214
 20
7.367727709306521
 30
0.0
  0
SPLINE
  5
305
330
1F
100
AcDbEntity
  8
0
  6
Continuous
 62
     7
370
     0
100
AcDbSpline
210
0.0
220
0.0
230
1.0
 70
     8
 71
     3
 72
    14
 73
    10
 74
     0
 42
0.00000001
 43
0.00000001
 40
0.0
 40
0.0
 40
0.0
 40
0.0
 40
0.0625270621852606
 40
0.1249759676500047
 40
0.187478417858554
 40
0.249933795640794
 40
0.3634906992473809
 40
0.4998436771421964
 40
1.0
 40
1.0
 40
1.0
 40
1.0
 10
7.022986165164214
 20
7.367727709306521
 30
0.0
 10
7.022517458696883
 20
7.368108713839401
 30
0.0
 10
7.021580631629509
 20
7.368870246662336
 30
0.0
 10
7.019825284239976
 20
7.36969717276764
 30
0.0
 10
7.017951962437883
 20
7.370254226553583
 30
0.0
 10
7.015497982581475
 20
7.370558091696019
 30
0.0
 10
7.01238993229001
 20
7.370303762824912
 30
0.0
 10
7.005644015987959
 20
7.368461210452996
 30
0.0
 10
7.00095429010959
 20
7.36573559099554
 30
0.0
 10
6.997269196980922
 20
7.363593853547651
 30
0.0
  0
SPLINE
  5
306
330
1F
100
AcDbEntity
  8
0
  6
Continuous
 62
     7
370
     0
100
AcDbSpline
210
0.0
220
0.0
230
1.0
 70
     8
 71
     3
 72
    14
 73
    10
 74
     0
 42
0.00000001
 43
0.00000001
 40
0.0
 40
0.0
 40
0.0
 40
0.0
 40
0.5003034315361674
 40
0.6254176539425531
 40
0.750140173868796
 40
0.8143424488227587
 40
0.8750383566947391
 40
0.937487429731989
 40
1.0
 40
1.0
 40
1.0
 40
1.0
 10
6.997269196980922
 20
7.363593853547651
 30
0.0
 10
6.993498173537565
 20
7.361357767304182
 30
0.0
 10
6.98878410506183
 20
7.35856248803114
 30
0.0
 10
6.984442031281684
 20
7.354281030290688
 30
0.0
 10
6.98330680021723
 20
7.352119744707741
 30
0.0
 10
6.983136855063576
 20
7.350213070779982
 30
0.0
 10
6.98348058949681
 20
7.348738787403833
 30
0.0
 10
6.984275324029487
 20
7.347304197204377
 30
0.0
 10
6.985148393907245
 20
7.34646085069689
 30
0.0
 10
6.985585150664268
 20
7.346038963176729
 30
0.0
  0
SPLINE
  5
307
330
1F
100
AcDbEntity
  8
0
  6
Continuous
 62
     7
370
     0
100
AcDbSpline
210
0.0
220
0.0
230
1.0
 70
     8
 71
     3
 72
    14
 73
    10
 74
     0
 42
0.00000001
 43
0.00000001
 40
0.0
 40
0.0
 40
0.0
 40
0.0
 40
0.0625005409549611
 40
0.1249727346346884
 40
0.1854844482502815
 40
0.249874064727214
 40
0.3606505595122479
 40
0.4996888686475219
 40
1.0
 40
1.0
 40
1.0
 40
1.0
 10
6.985585150664268
 20
7.346038963176729
 30
0.0
 10
6.986055667731088
 20
7.345652089556039
 30
0.0
 10
6.986996488460548
 20
7.344878517782149
 30
0.0
 10
6.988731770080357
 20
7.344013584229022
 30
0.0
 10
6.990631363743359
 20
7.343452799720234
 30
0.0
 10
6.99307654414669
 20
7.343194168492492
 30
0.0
 10
6.996185037012213
 20
7.34352956275384
 30
0.0
 10
7.002837230473996
 20
7.345556470262128
 30
0.0
 10
7.007634577352761
 20
7.348268436632629
 30
0.0
 10
7.011388652811986
 20
7.350390635976355
 30
0.0
  0
ARC
  5
308
330
1F
100
AcDbEntity
  8
0
  6
Continuous
 62
     7
370
     0
100
AcDbCircle
 10
6.7389883613
 20
7.4019132391
 30
0.0
 40
0.0161937848546833
100
AcDbArc
 50
246.3736049687
 51
278.802315684
  0
ARC
  5
309
330
1F
100
AcDbEntity
  8
0
  6
Continuous
 62
     7
370
     0
100
AcDbCircle
 10
6.7378454482
 20
7.4103168971
 30
0.0
 40
0.0246738579407637
100
AcDbArc
 50
278.4388446489
 51
296.4088537566
  0
ARC
  5
30A
330
1F
100
AcDbEntity
  8
0
  6
Continuous
 62
     7
370
     0
100
AcDbCircle
 10
6.5298301338
 20
6.9469924964
 30
0.0
 40
0.4925812867144446
100
AcDbArc
 50
63.603814457
 51
65.5958340837
  0
SPLINE
  5
30B
330
1F
100
AcDbEntity
  8
0
  6
Continuous
 62
     7
370
     0
100
AcDbSpline
210
0.0
220
0.0
230
1.0
 70
     8
 71
     3
 72
    13
 73
     9
 74
     0
 42
0.00000001
 43
0.00000001
 40
0.0
 40
0.0
 40
0.0
 40
0.0
 40
0.2503831206488719
 40
0.4995031561262199
 40
0.6232338939450222
 40
0.7495671229801234
 40
0.8746833959388535
 40
1.0
 40
1.0
 40
1.0
 40
1.0
 10
6.733350261045828
 20
7.395563429274065
 30
0.0
 10
6.732432313715305
 20
7.394883143216137
 30
0.0
 10
6.730601049740454
 20
7.393526002878069
 30
0.0
 10
6.72920029143277
 20
7.391564487253308
 30
0.0
 10
6.729237636972129
 20
7.38998242610316
 30
0.0
 10
6.729853092795493
 20
7.388869984136574
 30
0.0
 10
6.730963941227514
 20
7.387879256981059
 30
0.0
 10
6.731986614202478
 20
7.387344459203058
 30
0.0
 10
6.732498359728116
 20
7.387076846411176
 30
0.0
  0
SPLINE
  5
30C
330
1F
100
AcDbEntity
  8
0
  6
Continuous
 62
     7
370
     0
100
AcDbSpline
210
0.0
220
0.0
230
1.0
 70
     8
 71
     3
 72
    14
 73
    10
 74
     0
 42
0.00000001
 43
0.00000001
 40
0.0
 40
0.0
 40
0.0
 40
0.0
 40
0.5001598129720306
 40
0.6334839770244312
 40
0.7547008492894294
 40
0.8160823888845677
 40
0.8744466572122886
 40
0.9383930382633103
 40
1.0
 40
1.0
 40
1.0
 40
1.0
 10
6.959809174718374
 20
7.393526385456687
 30
0.0
 10
6.963496305906747
 20
7.395710778887587
 30
0.0
 10
6.968166290316614
 20
7.398477451063365
 30
0.0
 10
6.97231653159088
 20
7.402629467455467
 30
0.0
 10
6.973373589093766
 20
7.404653931707033
 30
0.0
 10
6.97357845467241
 20
7.406315888189449
 30
0.0
 10
6.973267938710322
 20
7.407605380501753
 30
0.0
 10
6.972508197531347
 20
7.408855027561271
 30
0.0
 10
6.971637943925339
 20
7.409573033449908
 30
0.0
 10
6.971210924784183
 20
7.409925347138462
 30
0.0
  0
SPLINE
  5
30D
330
1F
100
AcDbEntity
  8
0
  6
Continuous
 62
     7
370
     0
100
AcDbSpline
210
0.0
220
0.0
230
1.0
 70
     8
 71
     3
 72
    14
 73
    10
 74
     0
 42
0.00000001
 43
0.00000001
 40
0.0
 40
0.0
 40
0.0
 40
0.0
 40
0.0625270621852641
 40
0.1249759676500079
 40
0.1874784178595539
 40
0.2499337956408439
 40
0.3634906992489725
 40
0.4998436771421799
 40
1.0
 40
1.0
 40
1.0
 40
1.0
 10
6.971210924784183
 20
7.409925347138462
 30
0.0
 10
6.970730713417621
 20
7.410248145094796
 30
0.0
 10
6.969770890932522
 20
7.410893337520897
 30
0.0
 10
6.967983627619486
 20
7.411554948935523
 30
0.0
 10
6.966082226765014
 20
7.411964274166907
 30
0.0
 10
6.963599109934749
 20
7.412112460931584
 30
0.0
 10
6.960465337805501
 20
7.411718226399103
 30
0.0
 10
6.953685542169031
 20
7.409688636515572
 30
0.0
 10
6.948996172111818
 20
7.406964599412139
 30
0.0
 10
6.945311358580315
 20
7.404824105346499
 30
0.0
  0
SPLINE
  5
30E
330
1F
100
AcDbEntity
  8
0
  6
Continuous
 62
     7
370
     0
100
AcDbSpline
210
0.0
220
0.0
230
1.0
 70
     8
 71
     3
 72
    14
 73
    10
 74
     0
 42
0.00000001
 43
0.00000001
 40
0.0
 40
0.0
 40
0.0
 40
0.0
 40
0.5003034315361828
 40
0.6254176539425701
 40
0.7501401738688263
 40
0.8143424488258795
 40
0.8750383566947324
 40
0.9374874297319882
 40
1.0
 40
1.0
 40
1.0
 40
1.0
 10
6.945311358580315
 20
7.404824105346499
 30
0.0
 10
6.941541268706928
 20
7.402593476542299
 30
0.0
 10
6.936828367265243
 20
7.399805019486834
 30
0.0
 10
6.932515599332568
 20
7.395685353571957
 30
0.0
 10
6.931405475926045
 20
7.393660960885002
 30
0.0
 10
6.931266143958083
 20
7.391917956112832
 30
0.0
 10
6.931638534956913
 20
7.390594500550153
 30
0.0
 10
6.932466102959117
 20
7.389330002157409
 30
0.0
 10
6.933362976606849
 20
7.388606994794355
 30
0.0
 10
6.933811641296608
 20
7.388245307420598
 30
0.0
  0
SPLINE
  5
30F
330
1F
100
AcDbEntity
  8
0
  6
Continuous
 62
     7
370
     0
100
AcDbSpline
210
0.0
220
0.0
230
1.0
 70
     8
 71
     3
 72
    14
 73
    10
 74
     0
 42
0.00000001
 43
0.00000001
 40
0.0
 40
0.0
 40
0.0
 40
0.0
 40
0.0625005409549488
 40
0.1249727346346683
 40
0.1854844482460603
 40
0.24987406472721
 40
0.3606505595091247
 40
0.4996888686475862
 40
1.0
 40
1.0
 40
1.0
 40
1.0
 10
6.933811641296608
 20
7.388245307420598
 30
0.0
 10
6.934293889391822
 20
7.387917091930753
 30
0.0
 10
6.935258166857433
 20
7.387260809814011
 30
0.0
 10
6.937027293323522
 20
7.386561216703283
 30
0.0
 10
6.938957273831921
 20
7.386146697094161
 30
0.0
 10
6.941433404386347
 20
7.386034936547481
 30
0.0
 10
6.944569245956968
 20
7.386498142292146
 30
0.0
 10
6.951255727640119
 20
7.388683410504398
 30
0.0
 10
6.956054210397934
 20
7.391400318856372
 30
0.0
 10
6.959809174718374
 20
7.393526385456687
 30
0.0
  0
SPLINE
  5
310
330
1F
100
AcDbEntity
  8
0
  6
Continuous
 62
     7
370
     0
100
AcDbSpline
210
0.0
220
0.0
230
1.0
 70
     8
 71
     3
 72
    13
 73
     9
 74
     0
 42
0.00000001
 43
0.00000001
 40
0.0
 40
0.0
 40
0.0
 40
0.0
 40
0.2502837930805907
 40
0.49963352982618
 40
0.626205589485991
 40
0.7498197801868239
 40
0.8748231480904523
 40
0.9999999999999999
 40
0.9999999999999999
 40
0.9999999999999999
 40
0.9999999999999999
 10
6.686846912605702
 20
7.416762823402116
 30
0.0
 10
6.685760555958262
 20
7.416096295292613
 30
0.0
 10
6.68359189693432
 20
7.414765726549107
 30
0.0
 10
6.681781178045098
 20
7.412887722903952
 30
0.0
 10
6.681446908871149
 20
7.411424492358408
 30
0.0
 10
6.681822772996832
 20
7.410418914935914
 30
0.0
 10
6.68274582944865
 20
7.409548286377976
 30
0.0
 10
6.68378895462154
 20
7.409144123062468
 30
0.0
 10
6.684310878878333
 20
7.40894190127399
 30
0.0
  0
ARC
  5
311
330
1F
100
AcDbEntity
  8
0
  6
Continuous
 62
     7
370
     0
100
AcDbCircle
 10
6.6883134061
 20
7.4295335763
 30
0.0
 40
0.0209770661692278
100
AcDbArc
 50
259.0002383467
 51
305.8357776478
  0
SPLINE
  5
312
330
1F
100
AcDbEntity
  8
0
  6
Continuous
 62
     7
370
     0
100
AcDbSpline
210
0.0
220
0.0
230
1.0
 70
     8
 71
     3
 72
    13
 73
     9
 74
     0
 42
0.00000001
 43
0.00000001
 40
0.0
 40
0.0
 40
0.0
 40
0.0
 40
0.2503895108602863
 40
0.4999174635820457
 40
0.6260458464162916
 40
0.7500378636043064
 40
0.8749142295199687
 40
1.0
 40
1.0
 40
1.0
 40
1.0
 10
6.700594723622649
 20
7.412527502508969
 30
0.0
 10
6.701664909603036
 20
7.413175977627898
 30
0.0
 10
6.70380159919134
 20
7.414470696546181
 30
0.0
 10
6.705713582751197
 20
7.4163088851557
 30
0.0
 10
6.706264848947195
 20
7.417792327070076
 30
0.0
 10
6.706070244065881
 20
7.41883599762814
 30
0.0
 10
6.705301911547535
 20
7.419755354932353
 30
0.0
 10
6.704297599548501
 20
7.420160571808997
 30
0.0
 10
6.703795022870236
 20
7.420363349981553
 30
0.0
  0
ARC
  5
313
330
1F
100
AcDbEntity
  8
0
  6
Continuous
 62
     7
370
     0
100
AcDbCircle
 10
6.6994596658
 20
7.3990817388
 30
0.0
 40
0.0217187084234743
100
AcDbArc
 50
78.4856154606
 51
125.5020577185
  0
SPLINE
  5
314
330
1F
100
AcDbEntity
  8
0
  6
Continuous
 62
     7
370
     0
100
AcDbSpline
210
0.0
220
0.0
230
1.0
 70
     8
 71
     3
 72
    14
 73
    10
 74
     0
 42
0.00000001
 43
0.00000001
 40
0.0
 40
0.0
 40
0.0
 40
0.0
 40
0.5001598129721878
 40
0.6334839770339684
 40
0.7547008492929835
 40
0.8160823888875937
 40
0.8744466572131849
 40
0.9383930382645692
 40
1.0
 40
1.0
 40
1.0
 40
1.0
 10
6.828106059981752
 20
7.469931515362803
 30
0.0
 10
6.831793058278603
 20
7.472100925955961
 30
0.0
 10
6.836462874373036
 20
7.474848621421951
 30
0.0
 10
6.840612959576386
 20
7.478523882435128
 30
0.0
 10
6.841670665788631
 20
7.480163310520452
 30
0.0
 10
6.84187734297636
 20
7.481403421131105
 30
0.0
 10
6.841569397664609
 20
7.482290345173187
 30
0.0
 10
6.840813661295714
 20
7.483075775434028
 30
0.0
 10
6.839947525393763
 20
7.483456473661669
 30
0.0
 10
6.839522526742314
 20
7.483643276024893
 30
0.0
  0
ARC
  5
315
330
1F
100
AcDbEntity
  8
0
  6
Continuous
 62
     7
370
     0
100
AcDbCircle
 10
6.8348776738
 20
7.4524931588
 30
0.0
 40
0.0314945147759311
100
AcDbArc
 50
81.5190059632
 51
132.304058953
  0
SPLINE
  5
316
330
1F
100
AcDbEntity
  8
0
  6
Continuous
 62
     7
370
     0
100
AcDbSpline
210
0.0
220
0.0
230
1.0
 70
     8
 71
     3
 72
    14
 73
    10
 74
     0
 42
0.00000001
 43
0.00000001
 40
0.0
 40
0.0
 40
0.0
 40
0.0
 40
0.5003034315361278
 40
0.6254176539425034
 40
0.7501401738687378
 40
0.814342448826152
 40
0.87503835669475
 40
0.9374874297319942
 40
0.9999999999999999
 40
0.9999999999999999
 40
0.9999999999999999
 40
0.9999999999999999
 10
6.813679821099267
 20
7.475785979621545
 30
0.0
 10
6.80990920164309
 20
7.473570823752904
 30
0.0
 10
6.805195638182307
 20
7.470801709053393
 30
0.0
 10
6.800870693724281
 20
7.467142023553776
 30
0.0
 10
6.799750942132561
 20
7.465507065391559
 30
0.0
 10
6.79960138444115
 20
7.464230131298384
 30
0.0
 10
6.799965315050643
 20
7.463336525502107
 30
0.0
 10
6.800784459920067
 20
7.462557180349896
 30
0.0
 10
6.80167661624064
 20
7.462177863592207
 30
0.0
 10
6.802122921068305
 20
7.461988108841535
 30
0.0
  0
ARC
  5
317
330
1F
100
AcDbEntity
  8
0
  6
Continuous
 62
     7
370
     0
100
AcDbCircle
 10
6.8068347191
 20
7.4930432116
 30
0.0
 40
0.0314105149194175
100
AcDbArc
 50
261.3726661588
 51
312.6255743532
  0
ARC
  5
318
330
1F
100
AcDbEntity
  8
0
  6
Continuous
 62
     7
370
     0
100
AcDbCircle
 10
6.5791125754
 20
7.1335875918
 30
0.0
 40
0.2916832492353102
100
AcDbArc
 50
84.3277482298
 51
85.1107034782
  0
ARC
  5
319
330
1F
100
AcDbEntity
  8
0
  6
Continuous
 62
     7
370
     0
100
AcDbCircle
 10
6.6014101228
 20
7.3995185571
 30
0.0
 40
0.0248235691016354
100
AcDbArc
 50
84.0740811254
 51
119.2400125364
  0
SPLINE
  5
31A
330
1F
100
AcDbEntity
  8
0
  6
Continuous
 62
     7
370
     0
100
AcDbSpline
210
0.0
220
0.0
230
1.0
 70
     8
 71
     3
 72
    13
 73
     9
 74
     0
 42
0.00000001
 43
0.00000001
 40
0.0
 40
0.0
 40
0.0
 40
0.0
 40
0.1297148784708614
 40
0.2501166036159073
 40
0.3795473458337666
 40
0.5003189319527666
 40
0.7495371040294029
 40
1.0
 40
1.0
 40
1.0
 40
1.0
 10
6.589284575206311
 20
7.421179136045271
 30
0.0
 10
6.588788200787397
 20
7.420874808365937
 30
0.0
 10
6.587831090198046
 20
7.42028800285497
 30
0.0
 10
6.586855681302103
 20
7.419420619401969
 30
0.0
 10
6.586313241164031
 20
7.418640624181623
 30
0.0
 10
6.586392746844662
 20
7.417781086800783
 30
0.0
 10
6.587984671201364
 20
7.417228037686971
 30
0.0
 10
6.589764172468779
 20
7.41704147533349
 30
0.0
 10
6.590656139503996
 20
7.416947961789912
 30
0.0
  0
ARC
  5
31B
330
1F
100
AcDbEntity
  8
0
  6
Continuous
 62
     7
370
     0
100
AcDbCircle
 10
6.5664765932
 20
7.1266621927
 30
0.0
 40
0.2912910540814823
100
AcDbArc
 50
84.3273681227
 51
85.2385016518
  0
LINE
  5
31C
330
1F
100
AcDbEntity
  8
0
  6
Continuous
 62
     7
370
     0
100
AcDbLine
 10
6.5952690933
 20
7.4165267648
 30
0.0
 11
6.6079419161
 21
7.4238426297
 31
0.0
  0
SPLINE
  5
31D
330
1F
100
AcDbEntity
  8
0
  6
Continuous
 62
     7
370
     0
100
AcDbSpline
210
0.0
220
0.0
230
1.0
 70
     8
 71
     3
 72
    14
 73
    10
 74
     0
 42
0.00000001
 43
0.00000001
 40
0.0
 40
0.0
 40
0.0
 40
0.0
 40
0.5001598129720854
 40
0.6334839770274827
 40
0.7547008492890112
 40
0.8160823888842126
 40
0.8744466572132079
 40
0.9383930382645951
 40
1.0
 40
1.0
 40
1.0
 40
1.0
 10
6.776470225783428
 20
7.486674223273069
 30
0.0
 10
6.780158304993507
 20
7.48883709547387
 30
0.0
 10
6.784829490132733
 20
7.491576509653157
 30
0.0
 10
6.789015389045765
 20
7.495044229052204
 30
0.0
 10
6.790102288988249
 20
7.496516139970468
 30
0.0
 10
6.790341334411492
 20
7.497572856710222
 30
0.0
 10
6.790064571472121
 20
7.498284873214216
 30
0.0
 10
6.789345155210131
 20
7.49886874140684
 30
0.0
 10
6.788505830900879
 20
7.49910313272198
 30
0.0
 10
6.788093988257299
 20
7.49921814468791
 30
0.0
  0
ARC
  5
31E
330
1F
100
AcDbEntity
  8
0
  6
Continuous
 62
     7
370
     0
100
AcDbCircle
 10
6.7872499814
 20
7.460829759
 30
0.0
 40
0.0383976626832782
100
AcDbArc
 50
88.7404981764
 51
130.1755309015
  0
SPLINE
  5
31F
330
1F
100
AcDbEntity
  8
0
  6
Continuous
 62
     7
370
     0
100
AcDbSpline
210
0.0
220
0.0
230
1.0
 70
     8
 71
     3
 72
    14
 73
    10
 74
     0
 42
0.00000001
 43
0.00000001
 40
0.0
 40
0.0
 40
0.0
 40
0.0
 40
0.500303431536214
 40
0.625417653942616
 40
0.7501401738688808
 40
0.8143424488224466
 40
0.8750383566947173
 40
0.93748742973198
 40
1.0
 40
1.0
 40
1.0
 40
1.0
 10
6.762478442075563
 20
7.490168323081109
 30
0.0
 10
6.758706474017059
 20
7.487959835863602
 30
0.0
 10
6.753991224699954
 20
7.485199057489378
 30
0.0
 10
6.749627431690288
 20
7.481738065353202
 30
0.0
 10
6.748475026862451
 20
7.480271412893882
 30
0.0
 10
6.74828684211851
 20
7.479196067754465
 30
0.0
 10
6.74861548578208
 20
7.478488506039996
 30
0.0
 10
6.749395195999624
 20
7.477919282133239
 30
0.0
 10
6.750259851595927
 20
7.477688975465836
 30
0.0
 10
6.750692399074431
 20
7.477573763618836
 30
0.0
  0
ARC
  5
320
330
1F
100
AcDbEntity
  8
0
  6
Continuous
 62
     7
370
     0
100
AcDbCircle
 10
6.7517117308
 20
7.515745594
 30
0.0
 40
0.0381854379089318
100
AcDbArc
 50
268.4703503194
 51
310.4192186536
  0
SPLINE
  5
321
330
1F
100
AcDbEntity
  8
0
  6
Continuous
 62
     7
370
     0
100
AcDbSpline
210
0.0
220
0.0
230
1.0
 70
     8
 71
     3
 72
     9
 73
     5
 74
     0
 42
0.00000001
 43
0.00000001
 40
0.0
 40
0.0
 40
0.0
 40
0.0
 40
0.499999447795248
 40
1.0
 40
1.0
 40
1.0
 40
1.0
 10
6.561566327500488
 20
7.430727300107591
 30
0.0
 10
6.562901913981637
 20
7.431068400586536
 30
0.0
 10
6.56557308989401
 20
7.431750602297853
 30
0.0
 10
6.568146657649611
 20
7.432315508955091
 30
0.0
 10
6.569433442948548
 20
7.432597962595652
 30
0.0
  0
ARC
  5
322
330
1F
100
AcDbEntity
  8
0
  6
Continuous
 62
     7
370
     0
100
AcDbCircle
 10
6.549813456
 20
7.5274559843
 30
0.0
 40
0.0968658255980817
100
AcDbArc
 50
281.6860034882
 51
286.4271864095
  0
ARC
  5
323
330
1F
100
AcDbEntity
  8
0
  6
Continuous
 62
     7
370
     0
100
AcDbCircle
 10
6.5702594104
 20
7.4559761251
 30
0.0
 40
0.0225298035648629
100
AcDbArc
 50
287.9606451438
 51
299.2207842251
  0
SPLINE
  5
324
330
1F
100
AcDbEntity
  8
0
  6
Continuous
 62
     7
370
     0
100
AcDbSpline
210
0.0
220
0.0
230
1.0
 70
     8
 71
     3
 72
    13
 73
     9
 74
     0
 42
0.00000001
 43
0.00000001
 40
0.0
 40
0.0
 40
0.0
 40
0.0
 40
0.2485845284646388
 40
0.3735388535819008
 40
0.4967972082301854
 40
0.6212572301514601
 40
0.7502093099286635
 40
1.0
 40
1.0
 40
1.0
 40
1.0
 10
6.58125792619283
 20
7.436313350632602
 30
0.0
 10
6.581832142091405
 20
7.436672353505595
 30
0.0
 10
6.582694995261659
 20
7.437211813955682
 30
0.0
 10
6.583136564922214
 20
7.437768913981022
 30
0.0
 10
6.583198695961289
 20
7.438094238804405
 30
0.0
 10
6.582966118880494
 20
7.438308846715382
 30
0.0
 10
6.582339069832655
 20
7.438453699311404
 30
0.0
 10
6.581559547109969
 20
7.438399303367971
 30
0.0
 10
6.58104543163549
 20
7.438363427830986
 30
0.0
  0
ARC
  5
325
330
1F
100
AcDbEntity
  8
0
  6
Continuous
 62
     7
370
     0
100
AcDbCircle
 10
6.5882838081
 20
7.392148172
 30
0.0
 40
0.0467786699346157
100
AcDbArc
 50
98.9015253114
 51
121.1584310272
  0
LINE
  5
326
330
1F
100
AcDbEntity
  8
0
  6
Continuous
 62
     7
370
     0
100
AcDbLine
 10
6.5640802299
 20
7.432178545
 30
0.0
 11
6.5615663275
 21
7.4307273001
 31
0.0
  0
ARC
  5
327
330
1F
100
AcDbEntity
  8
0
  6
Continuous
 62
     7
370
     0
100
AcDbCircle
 10
7.2506276529
 20
7.154836336
 30
0.0
 40
0.905094099581443
100
AcDbArc
 50
2.552026146
 51
57.4425973213
  0
SPLINE
  5
328
330
1F
100
AcDbEntity
  8
0
  6
Continuous
 62
     7
370
     0
100
AcDbSpline
210
0.0
220
0.0
230
1.0
 70
     8
 71
     3
 72
    14
 73
    10
 74
     0
 42
0.00000001
 43
0.00000001
 40
0.0
 40
0.0
 40
0.0
 40
0.0
 40
0.5001598129719828
 40
0.6334839770291133
 40
0.754700849292349
 40
0.8160823888869984
 40
0.8744466572175058
 40
0.9383930382670197
 40
0.9999999999999999
 40
0.9999999999999999
 40
0.9999999999999999
 40
0.9999999999999999
 10
7.724063274919081
 20
7.828381492851357
 30
0.0
 10
7.727750486882632
 20
7.83056637767633
 30
0.0
 10
7.732420573599398
 20
7.833333672233747
 30
0.0
 10
7.736573227539762
 20
7.837501359098918
 30
0.0
 10
7.737632203571978
 20
7.839538485623074
 30
0.0
 10
7.737839128488475
 20
7.841214324161854
 30
0.0
 10
7.737530545177339
 20
7.84251707122817
 30
0.0
 10
7.736772992344723
 20
7.843782011603421
 30
0.0
 10
7.735904282088089
 20
7.844511140031515
 30
0.0
 10
7.735478020243112
 20
7.844868911367366
 30
0.0
  0
SPLINE
  5
329
330
1F
100
AcDbEntity
  8
0
  6
Continuous
 62
     7
370
     0
100
AcDbSpline
210
0.0
220
0.0
230
1.0
 70
     8
 71
     3
 72
    14
 73
    10
 74
     0
 42
0.00000001
 43
0.00000001
 40
0.0
 40
0.0
 40
0.0
 40
0.0
 40
0.0625270621852785
 40
0.1249759676500338
 40
0.187478417865473
 40
0.249933795641048
 40
0.3634906992553141
 40
0.4998436771420765
 40
1.0
 40
1.0
 40
1.0
 40
1.0
 10
7.735478020243112
 20
7.844868911367366
 30
0.0
 10
7.734998558974504
 20
7.845197193023038
 30
0.0
 10
7.734040235747715
 20
7.845853345993373
 30
0.0
 10
7.73225503625391
 20
7.846530526255599
 30
0.0
 10
7.730355440966809
 20
7.846953760860396
 30
0.0
 10
7.727874187161118
 20
7.847116602164904
 30
0.0
 10
7.724742048721047
 20
7.846735534009936
 30
0.0
 10
7.717964392640764
 20
7.844723542281448
 30
0.0
 10
7.713274998418817
 20
7.841999355784652
 30
0.0
 10
7.709590165899111
 20
7.839858744328665
 30
0.0
  0
SPLINE
  5
32A
330
1F
100
AcDbEntity
  8
0
  6
Continuous
 62
     7
370
     0
100
AcDbSpline
210
0.0
220
0.0
230
1.0
 70
     8
 71
     3
 72
    14
 73
    10
 74
     0
 42
0.00000001
 43
0.00000001
 40
0.0
 40
0.0
 40
0.0
 40
0.0
 40
0.5003034315360011
 40
0.625417653942341
 40
0.7501401738685478
 40
0.8143424488239492
 40
0.8750383566947797
 40
0.9374874297320123
 40
0.9999999999999999
 40
0.9999999999999999
 40
0.9999999999999999
 40
0.9999999999999999
 10
7.709590165899111
 20
7.839858744328665
 30
0.0
 10
7.705820018414324
 20
7.837627602446228
 30
0.0
 10
7.701107044953972
 20
7.834838504003624
 30
0.0
 10
7.696792426304966
 20
7.830703615277003
 30
0.0
 10
7.695680709672024
 20
7.828666340186208
 30
0.0
 10
7.695539420748447
 20
7.826907928817862
 30
0.0
 10
7.695909969314052
 20
7.825570272156742
 30
0.0
 10
7.696735414273193
 20
7.824289755056737
 30
0.0
 10
7.697630735556345
 20
7.823555410290635
 30
0.0
 10
7.69807862366941
 20
7.823188051334896
 30
0.0
  0
SPLINE
  5
32B
330
1F
100
AcDbEntity
  8
0
  6
Continuous
 62
     7
370
     0
100
AcDbSpline
210
0.0
220
0.0
230
1.0
 70
     8
 71
     3
 72
    14
 73
    10
 74
     0
 42
0.00000001
 43
0.00000001
 40
0.0
 40
0.0
 40
0.0
 40
0.0
 40
0.0625005409549656
 40
0.1249727346347041
 40
0.1854844482492897
 40
0.2498740647269
 40
0.360650559506497
 40
0.4996888686474537
 40
0.9999999999999999
 40
0.9999999999999999
 40
0.9999999999999999
 40
0.9999999999999999
 10
7.69807862366941
 20
7.823188051334896
 30
0.0
 10
7.698560103852952
 20
7.822854308592781
 30
0.0
 10
7.699522845843505
 20
7.822186974478396
 30
0.0
 10
7.701289739571284
 20
7.821471795876291
 30
0.0
 10
7.703217705788547
 20
7.821043485592968
 30
0.0
 10
7.705691775374821
 20
7.820917874022578
 30
0.0
 10
7.708825787067189
 20
7.821369023104783
 30
0.0
 10
7.715509966210628
 20
7.823539349921551
 30
0.0
 10
7.720308371343007
 20
7.82625579150902
 30
0.0
 10
7.724063274919081
 20
7.828381492851357
 30
0.0
  0
ARC
  5
32C
330
1F
100
AcDbEntity
  8
0
  6
Continuous
 62
     7
370
     0
100
AcDbCircle
 10
6.841178934
 20
6.6719368232
 30
0.0
 40
0.2991630256811596
100
AcDbArc
 50
232.1736826418
 51
279.3024070289
  0
SPLINE
  5
32D
330
1F
100
AcDbEntity
  8
0
  6
Continuous
 62
     7
370
     0
100
AcDbSpline
210
0.0
220
0.0
230
1.0
 70
    24
 71
     1
 72
     4
 73
     2
 74
     0
 42
0.00000001
 43
0.00000001
 40
0.0
 40
0.0
 40
1.0
 40
1.0
 10
6.659719825824078
 20
6.432485679620912
 30
0.0
 10
6.657711247176072
 20
6.435635905224859
 30
0.0
  0
LWPOLYLINE
  5
32E
330
1F
100
AcDbEntity
  8
0
  6
Continuous
 62
     7
370
     0
100
AcDbPolyline
 90
       11
 70
   128
 43
0.0
 10
6.6608807185
 20
6.4746211602
 10
6.6908307261
 20
6.4564433484
 10
6.7207203052
 20
6.4415571066
 10
6.7502844811
 20
6.4300944032
 10
6.7792611635
 20
6.4221568566
 10
6.8073934703
 20
6.4178148342
 10
6.8344320049
 20
6.4171068286
 10
6.8601370673
 20
6.4200391162
 10
6.8842807788
 20
6.4265857021
 10
6.9066491022
 20
6.4366885499
 10
6.9262351464
 20
6.449624452
  0
LINE
  5
32F
330
1F
100
AcDbEntity
  8
0
  6
Continuous
 62
     7
370
     0
100
AcDbLine
 10
6.6577112472
 20
6.4356359052
 30
0.0
 11
6.6608807185
 21
6.4746211602
 31
0.0
  0
LINE
  5
330
330
1F
100
AcDbEntity
  8
0
  6
Continuous
 62
     7
370
     0
100
AcDbLine
 10
6.6608807185
 20
6.4746211602
 30
0.0
 11
6.6785583881
 21
6.4848262616
 31
0.0
  0
ARC
  5
331
330
1F
100
AcDbEntity
  8
0
  6
Continuous
 62
     7
370
     0
100
AcDbCircle
 10
6.9445326692
 20
6.8868377042
 30
0.0
 40
0.4820326941419453
100
AcDbArc
 50
234.991888457
 51
236.5110306647
  0
LINE
  5
332
330
1F
100
AcDbEntity
  8
0
  6
Continuous
 62
     7
370
     0
100
AcDbLine
 10
6.6503165062
 20
6.4818136825
 30
0.0
 11
6.6679941758
 21
6.4920187839
 31
0.0
  0
LWPOLYLINE
  5
333
330
1F
100
AcDbEntity
  8
0
  6
Continuous
 62
     7
370
     0
100
AcDbPolyline
 90
       26
 70
   128
 43
0.0
 10
6.4777067222
 20
7.2265826564
 10
6.461379539
 20
7.2187862935
 10
6.4409849017
 20
7.2052167469
 10
6.4227447517
 20
7.1883007972
 10
6.4068207902
 20
7.1681884066
 10
6.3933541852
 20
7.1450578739
 10
6.3824643199
 20
7.1191142544
 10
6.3742477343
 20
7.0905875415
 10
6.3687772696
 20
7.0597306284
 10
6.3661014222
 20
7.0268170654
 10
6.3662439137
 20
6.9921386357
 10
6.369203481
 20
6.9560027679
 10
6.3749538871
 20
6.9187298113
 10
6.3834441539
 20
6.8806501953
 10
6.3945990142
 20
6.8421015008
 10
6.4083195785
 20
6.8034254668
 10
6.4244842124
 20
6.7649649615
 10
6.4429496144
 20
6.7270609421
 10
6.4635520861
 20
6.6900494328
 10
6.486108984
 20
6.6542585453
 10
6.5104203384
 20
6.6200055705
 10
6.5362706258
 20
6.5875941654
 10
6.5634306802
 20
6.5573116613
 10
6.5916597242
 20
6.5294265166
 10
6.6207075037
 20
6.5041859367
 10
6.6503165062
 20
6.4818136825
  0
LWPOLYLINE
  5
334
330
1F
100
AcDbEntity
  8
0
  6
Continuous
 62
     7
370
     0
100
AcDbPolyline
 90
       32
 70
   128
 43
0.0
 10
6.4832588881
 20
7.225086161
 10
6.471910112
 20
7.2123643916
 10
6.4569211043
 20
7.1906344644
 10
6.4445009815
 20
7.165913826
 10
6.434762222
 20
7.1384263505
 10
6.4277930216
 20
7.1084209687
 10
6.4236564944
 20
7.0761694139
 10
6.4223901015
 20
7.0419637613
 10
6.4240053116
 20
7.0061137825
 10
6.4284874969
 20
6.9689441405
 10
6.4357960663
 20
6.9307914493
 10
6.445864832
 20
6.8920012256
 10
6.4586026099
 20
6.8529247597
 10
6.4738940447
 20
6.813915934
 10
6.4916006546
 20
6.7753280187
 10
6.511562086
 20
6.7375104717
 10
6.5335975651
 20
6.7008057747
 10
6.557507535
 20
6.6655463311
 10
6.5830754634
 20
6.6320514559
 10
6.6100698033
 20
6.6006244838
 10
6.6382460896
 20
6.5715500223
 10
6.6673491537
 20
6.5450913744
 10
6.6971154335
 20
6.5214881535
 10
6.7272753611
 20
6.5009541142
 10
6.7575558035
 20
6.4836752159
 10
6.7876825363
 20
6.4698079389
 10
6.8173827272
 20
6.4594778674
 10
6.8463874066
 20
6.4527785523
 10
6.8744339037
 20
6.4497706634
 10
6.901268225
 20
6.4504814408
 10
6.9266473548
 20
6.4549044475
 10
6.9277157477
 20
6.4551808774
  0
LWPOLYLINE
  5
335
330
1F
100
AcDbEntity
  8
0
  6
Continuous
 62
     7
370
     0
100
AcDbPolyline
 90
       24
 70
   128
 43
0.0
 10
6.3962107983
 20
7.2312671412
 10
6.3819440148
 20
7.2145554267
 10
6.3663955189
 20
7.19076374
 10
6.3535053805
 20
7.1639336508
 10
6.3433814856
 20
7.1342897176
 10
6.3361085676
 20
7.1020800495
 10
6.3317474982
 20
7.0675742303
 10
6.3303347782
 20
7.0310610613
 10
6.3318822315
 20
6.9928461451
 10
6.3363769064
 20
6.953249327
 10
6.343781184
 20
6.9126020184
 10
6.3540330933
 20
6.8712444231
 10
6.3670468292
 20
6.8295226894
 10
6.3827134715
 20
6.7877860137
 10
6.4009018958
 20
6.7463837172
 10
6.4214598714
 20
6.7056623226
 10
6.4442153354
 20
6.6659626535
 10
6.4689778324
 20
6.6276169824
 10
6.4955401092
 20
6.5909462489
 10
6.5236798487
 20
6.5562573741
 10
6.5531615314
 20
6.5238406917
 10
6.5837384058
 20
6.493967518
 10
6.6151545543
 20
6.4668878809
 10
6.6471470349
 20
6.4428284275
  0
SPLINE
  5
336
330
1F
100
AcDbEntity
  8
0
  6
Continuous
 62
     7
370
     0
100
AcDbSpline
210
0.0
220
0.0
230
1.0
 70
    24
 71
     1
 72
     4
 73
     2
 74
     0
 42
0.00000001
 43
0.00000001
 40
0.0
 40
0.0
 40
1.0
 40
1.0
 10
6.647147034886403
 20
6.442828427481563
 30
0.0
 10
6.64915561353441
 20
6.439678201877617
 30
0.0
  0
LINE
  5
337
330
1F
100
AcDbEntity
  8
0
  6
Continuous
 62
     7
370
     0
100
AcDbLine
 10
6.6471470349
 20
6.4428284275
 30
0.0
 11
6.6503165062
 21
6.4818136825
 31
0.0
  0
LINE
  5
338
330
1F
100
AcDbEntity
  8
0
  6
Continuous
 62
     7
370
     0
100
AcDbLine
 10
6.6668604073
 20
6.4780731611
 30
0.0
 11
6.6679941758
 21
6.4920187839
 31
0.0
  0
LINE
  5
339
330
1F
100
AcDbEntity
  8
0
  6
Continuous
 62
     7
370
     0
100
AcDbLine
 10
6.509988478
 20
4.3272623205
 30
0.0
 11
5.6290919848
 21
4.3272623205
 31
0.0
  0
LINE
  5
33A
330
1F
100
AcDbEntity
  8
0
  6
Continuous
 62
     7
370
     0
100
AcDbLine
 10
5.6290919848
 20
4.3272623205
 30
0.0
 11
6.5142878894
 21
4.6411401393
 31
0.0
  0
LINE
  5
33B
330
1F
100
AcDbEntity
  8
0
  6
Continuous
 62
     7
370
     0
100
AcDbLine
 10
5.6290919848
 20
4.3272623205
 30
0.0
 11
6.5133168475
 21
4.0510893996
 31
0.0
  0
LINE
  5
33C
330
1F
100
AcDbEntity
  8
0
  6
Continuous
 62
     7
370
     0
100
AcDbLine
 10
7.7296482534
 20
4.3272623205
 30
0.0
 11
9.4791951344
 21
4.3272623205
 31
0.0
  0
LINE
  5
33D
330
1F
100
AcDbEntity
  8
0
  6
Continuous
 62
     7
370
     0
100
AcDbLine
 10
9.4791951344
 20
4.3272623205
 30
0.0
 11
7.7139297984
 21
4.6411401393
 31
0.0
  0
LINE
  5
33E
330
1F
100
AcDbEntity
  8
0
  6
Continuous
 62
     7
370
     0
100
AcDbLine
 10
9.4791951344
 20
4.3272623205
 30
0.0
 11
7.7174862693
 21
4.0510893996
 31
0.0
  0
LINE
  5
33F
330
1F
100
AcDbEntity
  8
0
  6
Continuous
 62
     7
370
     0
100
AcDbLine
 10
6.5209017035
 20
3.8272623205
 30
0.0
 11
6.7648716968
 21
3.8272623205
 31
0.0
  0
LINE
  5
340
330
1F
100
AcDbEntity
  8
0
  6
Continuous
 62
     7
370
     0
100
AcDbLine
 10
6.7648716968
 20
4.8272623205
 30
0.0
 11
6.5209017035
 21
4.8272623205
 31
0.0
  0
ARC
  5
341
330
1F
100
AcDbEntity
  8
0
  6
Continuous
 62
     7
370
     0
100
AcDbCircle
 10
17.9694372969
 20
4.3272623205
 30
0.0
 40
11.45944881889772
100
AcDbArc
 50
177.4992700088
 51
182.5007299912
  0
ARC
  5
342
330
1F
100
AcDbEntity
  8
0
  6
Continuous
 62
     7
370
     0
100
AcDbCircle
 10
5.6501459583
 20
4.3272623205
 30
0.0
 40
1.312598425196854
100
AcDbArc
 50
337.609082359
 51
0.0
  0
ARC
  5
343
330
1F
100
AcDbEntity
  8
0
  6
Continuous
 62
     7
370
     0
100
AcDbCircle
 10
5.6501459583
 20
4.3272623205
 30
0.0
 40
1.312598425196854
100
AcDbArc
 50
0.0
 51
22.390917641
  0
LINE
  5
344
330
1F
100
AcDbEntity
  8
0
  6
Continuous
 62
     7
370
     0
100
AcDbLine
 10
6.7648716968
 20
3.8272623205
 30
0.0
 11
6.8637828998
 21
3.8272623205
 31
0.0
  0
LINE
  5
345
330
1F
100
AcDbEntity
  8
0
  6
Continuous
 62
     7
370
     0
100
AcDbLine
 10
6.8637828998
 20
4.8272623205
 30
0.0
 11
6.7648716968
 21
4.8272623205
 31
0.0
  0
LINE
  5
346
330
1F
100
AcDbEntity
  8
0
  6
Continuous
 62
     7
370
     0
100
AcDbLine
 10
7.3479080134
 20
3.8272623205
 30
0.0
 11
7.421006358
 21
3.8272623205
 31
0.0
  0
LINE
  5
347
330
1F
100
AcDbEntity
  8
0
  6
Continuous
 62
     7
370
     0
100
AcDbLine
 10
7.421006358
 20
4.8272623205
 30
0.0
 11
7.3479080134
 21
4.8272623205
 31
0.0
  0
ARC
  5
348
330
1F
100
AcDbEntity
  8
0
  6
Continuous
 62
     7
370
     0
100
AcDbCircle
 10
8.0009080959
 20
4.3272623205
 30
0.0
 40
0.8224409448818891
100
AcDbArc
 50
142.5588390421
 51
217.4411609579
  0
ARC
  5
349
330
1F
100
AcDbEntity
  8
0
  6
Continuous
 62
     7
370
     0
100
AcDbCircle
 10
4.58791597
 20
4.3272623205
 30
0.0
 40
3.141732283464568
100
AcDbArc
 50
350.8425609973
 51
0.0
  0
ARC
  5
34A
330
1F
100
AcDbEntity
  8
0
  6
Continuous
 62
     7
370
     0
100
AcDbCircle
 10
4.58791597
 20
4.3272623205
 30
0.0
 40
3.141732283464568
100
AcDbArc
 50
0.0
 51
9.1574390027
  0
LINE
  5
34B
330
1F
100
AcDbEntity
  8
0
  6
Continuous
 62
     7
370
     0
100
AcDbLine
 10
7.421006358
 20
3.8272623205
 30
0.0
 11
7.6896061126
 21
3.8272623205
 31
0.0
  0
LINE
  5
34C
330
1F
100
AcDbEntity
  8
0
  6
Continuous
 62
     7
370
     0
100
AcDbLine
 10
7.6896061126
 20
4.8272623205
 30
0.0
 11
7.421006358
 21
4.8272623205
 31
0.0
  0
LINE
  5
34D
330
1F
100
AcDbEntity
  8
0
  6
Continuous
 62
     7
370
     0
100
AcDbLine
 10
6.5209017035
 20
4.3272623205
 30
0.0
 11
6.5209017035
 21
4.8272623205
 31
0.0
  0
LINE
  5
34E
330
1F
100
AcDbEntity
  8
0
  6
Continuous
 62
     7
370
     0
100
AcDbLine
 10
6.5209017035
 20
3.8272623205
 30
0.0
 11
6.5209017035
 21
4.3272623205
 31
0.0
  0
LINE
  5
34F
330
1F
100
AcDbEntity
  8
0
  6
Continuous
 62
     7
370
     0
100
AcDbLine
 10
6.7648716968
 20
4.3272623205
 30
0.0
 11
6.7648716968
 21
4.8272623205
 31
0.0
  0
LINE
  5
350
330
1F
100
AcDbEntity
  8
0
  6
Continuous
 62
     7
370
     0
100
AcDbLine
 10
6.7648716968
 20
3.8272623205
 30
0.0
 11
6.7648716968
 21
4.3272623205
 31
0.0
  0
LINE
  5
351
330
1F
100
AcDbEntity
  8
0
  6
Continuous
 62
     7
370
     0
100
AcDbLine
 10
6.8637828998
 20
4.3272623205
 30
0.0
 11
6.8637828998
 21
4.8272623205
 31
0.0
  0
LINE
  5
352
330
1F
100
AcDbEntity
  8
0
  6
Continuous
 62
     7
370
     0
100
AcDbLine
 10
6.8637828998
 20
3.8272623205
 30
0.0
 11
6.8637828998
 21
4.3272623205
 31
0.0
  0
LINE
  5
353
330
1F
100
AcDbEntity
  8
0
  6
Continuous
 62
     7
370
     0
100
AcDbLine
 10
6.7648716968
 20
4.3272623205
 30
0.0
 11
6.7648716968
 21
4.8272623205
 31
0.0
  0
LINE
  5
354
330
1F
100
AcDbEntity
  8
0
  6
Continuous
 62
     7
370
     0
100
AcDbLine
 10
6.7648716968
 20
3.8272623205
 30
0.0
 11
6.7648716968
 21
4.3272623205
 31
0.0
  0
LINE
  5
355
330
1F
100
AcDbEntity
  8
0
  6
Continuous
 62
     7
370
     0
100
AcDbLine
 10
7.3479080134
 20
4.3272623205
 30
0.0
 11
7.3479080134
 21
4.8272623205
 31
0.0
  0
LINE
  5
356
330
1F
100
AcDbEntity
  8
0
  6
Continuous
 62
     7
370
     0
100
AcDbLine
 10
7.3479080134
 20
3.8272623205
 30
0.0
 11
7.3479080134
 21
4.3272623205
 31
0.0
  0
LINE
  5
357
330
1F
100
AcDbEntity
  8
0
  6
Continuous
 62
     7
370
     0
100
AcDbLine
 10
7.421006358
 20
4.3272623205
 30
0.0
 11
7.421006358
 21
4.8272623205
 31
0.0
  0
LINE
  5
358
330
1F
100
AcDbEntity
  8
0
  6
Continuous
 62
     7
370
     0
100
AcDbLine
 10
7.421006358
 20
3.8272623205
 30
0.0
 11
7.421006358
 21
4.3272623205
 31
0.0
  0
LINE
  5
359
330
1F
100
AcDbEntity
  8
0
  6
Continuous
 62
     7
370
     0
100
AcDbLine
 10
7.6896061126
 20
4.3272623205
 30
0.0
 11
7.6896061126
 21
4.8272623205
 31
0.0
  0
LINE
  5
35A
330
1F
100
AcDbEntity
  8
0
  6
Continuous
 62
     7
370
     0
100
AcDbLine
 10
7.6896061126
 20
3.8272623205
 30
0.0
 11
7.6896061126
 21
4.3272623205
 31
0.0
  0
LINE
  5
35B
330
1F
100
AcDbEntity
  8
0
  6
Continuous
 62
     7
370
     0
100
AcDbLine
 10
7.421006358
 20
4.3272623205
 30
0.0
 11
7.421006358
 21
4.8272623205
 31
0.0
  0
LINE
  5
35C
330
1F
100
AcDbEntity
  8
0
  6
Continuous
 62
     7
370
     0
100
AcDbLine
 10
7.421006358
 20
3.8272623205
 30
0.0
 11
7.421006358
 21
4.3272623205
 31
0.0
  0
LINE
  5
35D
330
1F
100
AcDbEntity
  8
0
  6
Continuous
 62
     7
370
     0
100
AcDbLine
 10
7.7136045703
 20
3.8097623205
 30
0.0
 11
7.7662840622
 21
3.8097623205
 31
0.0
  0
LINE
  5
35E
330
1F
100
AcDbEntity
  8
0
  6
Continuous
 62
     7
370
     0
100
AcDbLine
 10
7.7662840622
 20
4.8447623205
 30
0.0
 11
7.7136045703
 21
4.8447623205
 31
0.0
  0
LINE
  5
35F
330
1F
100
AcDbEntity
  8
0
  6
Continuous
 62
     7
370
     0
100
AcDbLine
 10
7.6962840622
 20
4.8347623205
 30
0.0
 11
7.7136045703
 21
4.8447623205
 31
0.0
  0
LINE
  5
360
330
1F
100
AcDbEntity
  8
0
  6
Continuous
 62
     7
370
     0
100
AcDbLine
 10
7.7136045703
 20
3.8097623205
 30
0.0
 11
7.6962840622
 21
3.8197623205
 31
0.0
  0
LINE
  5
361
330
1F
100
AcDbEntity
  8
0
  6
Continuous
 62
     7
370
     0
100
AcDbLine
 10
7.7762840622
 20
3.8779136137
 30
0.0
 11
7.7512840622
 21
3.8779136137
 31
0.0
  0
LINE
  5
362
330
1F
100
AcDbEntity
  8
0
  6
Continuous
 62
     7
370
     0
100
AcDbLine
 10
7.7512840622
 20
3.8773566286
 30
0.0
 11
7.7512840622
 21
3.8779136137
 31
0.0
  0
LINE
  5
363
330
1F
100
AcDbEntity
  8
0
  6
Continuous
 62
     7
370
     0
100
AcDbLine
 10
7.7762840622
 20
3.8773566286
 30
0.0
 11
7.7512840622
 21
3.8773566286
 31
0.0
  0
LINE
  5
364
330
1F
100
AcDbEntity
  8
0
  6
Continuous
 62
     7
370
     0
100
AcDbLine
 10
7.7762840622
 20
3.8772623205
 30
0.0
 11
7.7762840622
 21
3.8773566286
 31
0.0
  0
LINE
  5
365
330
1F
100
AcDbEntity
  8
0
  6
Continuous
 62
     7
370
     0
100
AcDbLine
 10
7.6972537999
 20
3.8772623205
 30
0.0
 11
7.7762840622
 21
3.8772623205
 31
0.0
  0
LINE
  5
366
330
1F
100
AcDbEntity
  8
0
  6
Continuous
 62
     7
370
     0
100
AcDbLine
 10
7.7762840622
 20
4.7772623205
 30
0.0
 11
7.6972537999
 21
4.7772623205
 31
0.0
  0
LINE
  5
367
330
1F
100
AcDbEntity
  8
0
  6
Continuous
 62
     7
370
     0
100
AcDbLine
 10
7.7762840622
 20
3.8779136137
 30
0.0
 11
7.7762840622
 21
4.7772623205
 31
0.0
  0
LINE
  5
368
330
1F
100
AcDbEntity
  8
0
  6
Continuous
 62
     7
370
     0
100
AcDbLine
 10
7.7662840622
 20
4.8447623205
 30
0.0
 11
7.7762840622
 21
4.8274418125
 31
0.0
  0
LINE
  5
369
330
1F
100
AcDbEntity
  8
0
  6
Continuous
 62
     7
370
     0
100
AcDbLine
 10
7.7762840622
 20
4.8274418125
 30
0.0
 11
7.7762840622
 21
4.7772623205
 31
0.0
  0
LINE
  5
36A
330
1F
100
AcDbEntity
  8
0
  6
Continuous
 62
     7
370
     0
100
AcDbLine
 10
7.6962840622
 20
4.8347623205
 30
0.0
 11
7.6962840622
 21
4.7839126728
 31
0.0
  0
LINE
  5
36B
330
1F
100
AcDbEntity
  8
0
  6
Continuous
 62
     7
370
     0
100
AcDbLine
 10
7.7762840622
 20
3.8772623205
 30
0.0
 11
7.7762840622
 21
3.8270828286
 31
0.0
  0
LINE
  5
36C
330
1F
100
AcDbEntity
  8
0
  6
Continuous
 62
     7
370
     0
100
AcDbLine
 10
7.7762840622
 20
3.8270828286
 30
0.0
 11
7.7662840622
 21
3.8097623205
 31
0.0
  0
LINE
  5
36D
330
1F
100
AcDbEntity
  8
0
  6
Continuous
 62
     7
370
     0
100
AcDbLine
 10
7.6962840622
 20
3.8706119683
 30
0.0
 11
7.6962840622
 21
3.8197623205
 31
0.0
  0
LINE
  5
36E
330
1F
100
AcDbEntity
  8
0
  6
Continuous
 62
     7
370
     0
100
AcDbLine
 10
7.7762840622
 20
3.8773566286
 30
0.0
 11
7.7762840622
 21
3.8779136137
 31
0.0
  0
LINE
  5
36F
330
1F
100
AcDbEntity
  8
0
  6
Continuous
 62
     7
370
     0
100
AcDbLine
 10
6.5196143291
 20
3.8197623205
 30
0.0
 11
6.502293821
 21
3.8097623205
 31
0.0
  0
LINE
  5
370
330
1F
100
AcDbEntity
  8
0
  6
Continuous
 62
     7
370
     0
100
AcDbLine
 10
6.502293821
 20
4.8447623205
 30
0.0
 11
6.5196143291
 21
4.8347623205
 31
0.0
  0
LINE
  5
371
330
1F
100
AcDbEntity
  8
0
  6
Continuous
 62
     7
370
     0
100
AcDbLine
 10
6.502293821
 20
4.8447623205
 30
0.0
 11
6.4496143291
 21
4.8447623205
 31
0.0
  0
LINE
  5
372
330
1F
100
AcDbEntity
  8
0
  6
Continuous
 62
     7
370
     0
100
AcDbLine
 10
6.4496143291
 20
3.8097623205
 30
0.0
 11
6.502293821
 21
3.8097623205
 31
0.0
  0
LINE
  5
373
330
1F
100
AcDbEntity
  8
0
  6
Continuous
 62
     7
370
     0
100
AcDbLine
 10
6.4396143291
 20
3.8784531485
 30
0.0
 11
6.4646143291
 21
3.8784531485
 31
0.0
  0
LINE
  5
374
330
1F
100
AcDbEntity
  8
0
  6
Continuous
 62
     7
370
     0
100
AcDbLine
 10
6.4646143291
 20
3.8797928639
 30
0.0
 11
6.4646143291
 21
3.8784531485
 31
0.0
  0
LINE
  5
375
330
1F
100
AcDbEntity
  8
0
  6
Continuous
 62
     7
370
     0
100
AcDbLine
 10
6.4396143291
 20
3.8797928639
 30
0.0
 11
6.4646143291
 21
3.8797928639
 31
0.0
  0
LINE
  5
376
330
1F
100
AcDbEntity
  8
0
  6
Continuous
 62
     7
370
     0
100
AcDbLine
 10
6.4396143291
 20
4.7772623205
 30
0.0
 11
6.4396143291
 21
3.8797928639
 31
0.0
  0
LINE
  5
377
330
1F
100
AcDbEntity
  8
0
  6
Continuous
 62
     7
370
     0
100
AcDbLine
 10
6.5188273903
 20
4.7772623205
 30
0.0
 11
6.4396143291
 21
4.7772623205
 31
0.0
  0
LINE
  5
378
330
1F
100
AcDbEntity
  8
0
  6
Continuous
 62
     7
370
     0
100
AcDbLine
 10
6.4396143291
 20
3.8772623205
 30
0.0
 11
6.5188273903
 21
3.8772623205
 31
0.0
  0
LINE
  5
379
330
1F
100
AcDbEntity
  8
0
  6
Continuous
 62
     7
370
     0
100
AcDbLine
 10
6.4396143291
 20
3.8784531485
 30
0.0
 11
6.4396143291
 21
3.8772623205
 31
0.0
  0
LINE
  5
37A
330
1F
100
AcDbEntity
  8
0
  6
Continuous
 62
     7
370
     0
100
AcDbLine
 10
6.4396143291
 20
4.8274418125
 30
0.0
 11
6.4496143291
 21
4.8447623205
 31
0.0
  0
LINE
  5
37B
330
1F
100
AcDbEntity
  8
0
  6
Continuous
 62
     7
370
     0
100
AcDbLine
 10
6.4396143291
 20
4.7772623205
 30
0.0
 11
6.4396143291
 21
4.8274418125
 31
0.0
  0
LINE
  5
37C
330
1F
100
AcDbEntity
  8
0
  6
Continuous
 62
     7
370
     0
100
AcDbLine
 10
6.5196143291
 20
4.7968592115
 30
0.0
 11
6.5196143291
 21
4.8347623205
 31
0.0
  0
LINE
  5
37D
330
1F
100
AcDbEntity
  8
0
  6
Continuous
 62
     7
370
     0
100
AcDbLine
 10
6.4496143291
 20
3.8097623205
 30
0.0
 11
6.4396143291
 21
3.8270828286
 31
0.0
  0
LINE
  5
37E
330
1F
100
AcDbEntity
  8
0
  6
Continuous
 62
     7
370
     0
100
AcDbLine
 10
6.4396143291
 20
3.8270828286
 30
0.0
 11
6.4396143291
 21
3.8772623205
 31
0.0
  0
LINE
  5
37F
330
1F
100
AcDbEntity
  8
0
  6
Continuous
 62
     7
370
     0
100
AcDbLine
 10
6.5196143291
 20
3.8197623205
 30
0.0
 11
6.5196143291
 21
3.8576654296
 31
0.0
  0
LINE
  5
380
330
1F
100
AcDbEntity
  8
0
  6
Continuous
 62
     7
370
     0
100
AcDbLine
 10
6.4396143291
 20
3.8784531485
 30
0.0
 11
6.4396143291
 21
3.8797928639
 31
0.0
  0
LINE
  5
381
330
1F
100
AcDbEntity
  8
0
  6
Continuous
 62
     7
370
     0
100
AcDbLine
 10
6.5736391411
 20
3.7272623205
 30
0.0
 11
6.5846534094
 21
3.7272623205
 31
0.0
  0
LINE
  5
382
330
1F
100
AcDbEntity
  8
0
  6
Continuous
 62
     7
370
     0
100
AcDbLine
 10
6.6032261906
 20
3.7272623205
 30
0.0
 11
7.9196534415
 21
3.7272623205
 31
0.0
  0
LINE
  5
383
330
1F
100
AcDbEntity
  8
0
  6
Continuous
 62
     7
370
     0
100
AcDbLine
 10
7.9196534415
 20
4.9272623205
 30
0.0
 11
7.8496534415
 21
4.9272623205
 31
0.0
  0
LINE
  5
384
330
1F
100
AcDbEntity
  8
0
  6
Continuous
 62
     7
370
     0
100
AcDbLine
 10
7.7906892661
 20
4.9272623205
 30
0.0
 11
6.7140203246
 21
4.9272623205
 31
0.0
  0
LINE
  5
385
330
1F
100
AcDbEntity
  8
0
  6
Continuous
 62
     7
370
     0
100
AcDbLine
 10
6.695172922
 20
4.9272623205
 30
0.0
 11
6.6075755194
 21
4.9272623205
 31
0.0
  0
LINE
  5
386
330
1F
100
AcDbEntity
  8
0
  6
Continuous
 62
     7
370
     0
100
AcDbLine
 10
6.5506777215
 20
4.9272623205
 30
0.0
 11
6.4396534415
 21
4.9272623205
 31
0.0
  0
LINE
  5
387
330
1F
100
AcDbEntity
  8
0
  6
Continuous
 62
     7
370
     0
100
AcDbLine
 10
6.3806892661
 20
4.9272623205
 30
0.0
 11
6.2946534415
 21
4.9272623205
 31
0.0
  0
LINE
  5
388
330
1F
100
AcDbEntity
  8
0
  6
Continuous
 62
     7
370
     0
100
AcDbLine
 10
6.2946534415
 20
3.7272623205
 30
0.0
 11
6.5275755194
 21
3.7272623205
 31
0.0
  0
LINE
  5
389
330
1F
100
AcDbEntity
  8
0
  6
Continuous
 62
     7
370
     0
100
AcDbLine
 10
7.9296534415
 20
3.7372623205
 30
0.0
 11
7.9196534415
 21
3.7272623205
 31
0.0
  0
LINE
  5
38A
330
1F
100
AcDbEntity
  8
0
  6
Continuous
 62
     7
370
     0
100
AcDbLine
 10
7.9196534415
 20
4.9272623205
 30
0.0
 11
7.9296534415
 21
4.9172623205
 31
0.0
  0
LINE
  5
38B
330
1F
100
AcDbEntity
  8
0
  6
Continuous
 62
     7
370
     0
100
AcDbLine
 10
6.2846534415
 20
4.9172623205
 30
0.0
 11
6.2946534415
 21
4.9272623205
 31
0.0
  0
LINE
  5
38C
330
1F
100
AcDbEntity
  8
0
  6
Continuous
 62
     7
370
     0
100
AcDbLine
 10
6.2946534415
 20
3.7272623205
 30
0.0
 11
6.2846534415
 21
3.7372623205
 31
0.0
  0
LINE
  5
38D
330
1F
100
AcDbEntity
  8
0
  6
Continuous
 62
     7
370
     0
100
AcDbLine
 10
7.3146534415
 20
3.8022623205
 30
0.0
 11
7.3346534415
 21
3.8022623205
 31
0.0
  0
LINE
  5
38E
330
1F
100
AcDbEntity
  8
0
  6
Continuous
 62
     7
370
     0
100
AcDbLine
 10
7.3346534415
 20
4.8522623205
 30
0.0
 11
7.3146534415
 21
4.8522623205
 31
0.0
  0
LINE
  5
38F
330
1F
100
AcDbEntity
  8
0
  6
Continuous
 62
     7
370
     0
100
AcDbLine
 10
6.8596534415
 20
4.8522623205
 30
0.0
 11
6.8796534415
 21
4.8522623205
 31
0.0
  0
LINE
  5
390
330
1F
100
AcDbEntity
  8
0
  6
Continuous
 62
     7
370
     0
100
AcDbLine
 10
6.8796534415
 20
3.8022623205
 30
0.0
 11
6.8596534415
 21
3.8022623205
 31
0.0
  0
LINE
  5
391
330
1F
100
AcDbEntity
  8
0
  6
Continuous
 62
     7
370
     0
100
AcDbLine
 10
7.9296534415
 20
4.8432623205
 30
0.0
 11
7.9123329334
 21
4.8332623205
 31
0.0
  0
LINE
  5
392
330
1F
100
AcDbEntity
  8
0
  6
Continuous
 62
     7
370
     0
100
AcDbLine
 10
7.9123329334
 20
3.8212623205
 30
0.0
 11
7.9296534415
 21
3.8112623205
 31
0.0
  0
LINE
  5
393
330
1F
100
AcDbEntity
  8
0
  6
Continuous
 62
     7
370
     0
100
AcDbLine
 10
7.9123329334
 20
3.8212623205
 30
0.0
 11
7.9123329334
 21
4.8332623205
 31
0.0
  0
LINE
  5
394
330
1F
100
AcDbEntity
  8
0
  6
Continuous
 62
     7
370
     0
100
AcDbLine
 10
7.9296534415
 20
4.8432623205
 30
0.0
 11
7.9296534415
 21
3.8112623205
 31
0.0
  0
LINE
  5
395
330
1F
100
AcDbEntity
  8
0
  6
Continuous
 62
     7
370
     0
100
AcDbLine
 10
6.2846534415
 20
3.8112623205
 30
0.0
 11
6.3019739495
 21
3.8212623205
 31
0.0
  0
LINE
  5
396
330
1F
100
AcDbEntity
  8
0
  6
Continuous
 62
     7
370
     0
100
AcDbLine
 10
6.3019739495
 20
4.8332623205
 30
0.0
 11
6.2846534415
 21
4.8432623205
 31
0.0
  0
LINE
  5
397
330
1F
100
AcDbEntity
  8
0
  6
Continuous
 62
     7
370
     0
100
AcDbLine
 10
6.3019739495
 20
4.8332623205
 30
0.0
 11
6.3019739495
 21
3.8212623205
 31
0.0
  0
LINE
  5
398
330
1F
100
AcDbEntity
  8
0
  6
Continuous
 62
     7
370
     0
100
AcDbLine
 10
6.2846534415
 20
3.8112623205
 30
0.0
 11
6.2846534415
 21
4.8432623205
 31
0.0
  0
LINE
  5
399
330
1F
100
AcDbEntity
  8
0
  6
Continuous
 62
     7
370
     0
100
AcDbLine
 10
7.6286534415
 20
3.8212623205
 30
0.0
 11
7.6286534415
 21
3.8272623205
 31
0.0
  0
LINE
  5
39A
330
1F
100
AcDbEntity
  8
0
  6
Continuous
 62
     7
370
     0
100
AcDbLine
 10
7.6286534415
 20
4.8272623205
 30
0.0
 11
7.6286534415
 21
4.8332623205
 31
0.0
  0
LINE
  5
39B
330
1F
100
AcDbEntity
  8
0
  6
Continuous
 62
     7
370
     0
100
AcDbLine
 10
7.6286534415
 20
4.8332623205
 30
0.0
 11
7.9123329334
 21
4.8332623205
 31
0.0
  0
LINE
  5
39C
330
1F
100
AcDbEntity
  8
0
  6
Continuous
 62
     7
370
     0
100
AcDbLine
 10
7.9123329334
 20
3.8212623205
 30
0.0
 11
7.6286534415
 21
3.8212623205
 31
0.0
  0
LINE
  5
39D
330
1F
100
AcDbEntity
  8
0
  6
Continuous
 62
     7
370
     0
100
AcDbLine
 10
7.6274987409
 20
4.8312623205
 30
0.0
 11
7.6274987409
 21
4.8272623205
 31
0.0
  0
LINE
  5
39E
330
1F
100
AcDbEntity
  8
0
  6
Continuous
 62
     7
370
     0
100
AcDbLine
 10
7.6274987409
 20
3.8272623205
 30
0.0
 11
7.6274987409
 21
3.8232623205
 31
0.0
  0
LINE
  5
39F
330
1F
100
AcDbEntity
  8
0
  6
Continuous
 62
     7
370
     0
100
AcDbLine
 10
7.6274987409
 20
4.8312623205
 30
0.0
 11
7.6286534415
 21
4.8332623205
 31
0.0
  0
LINE
  5
3A0
330
1F
100
AcDbEntity
  8
0
  6
Continuous
 62
     7
370
     0
100
AcDbLine
 10
7.6286534415
 20
3.8212623205
 30
0.0
 11
7.6274987409
 21
3.8232623205
 31
0.0
  0
LINE
  5
3A1
330
1F
100
AcDbEntity
  8
0
  6
Continuous
 62
     7
370
     0
100
AcDbLine
 10
6.586808142
 20
3.8232623205
 30
0.0
 11
6.586808142
 21
3.8272623205
 31
0.0
  0
LINE
  5
3A2
330
1F
100
AcDbEntity
  8
0
  6
Continuous
 62
     7
370
     0
100
AcDbLine
 10
6.586808142
 20
4.8272623205
 30
0.0
 11
6.586808142
 21
4.8312623205
 31
0.0
  0
LINE
  5
3A3
330
1F
100
AcDbEntity
  8
0
  6
Continuous
 62
     7
370
     0
100
AcDbLine
 10
6.586808142
 20
3.8232623205
 30
0.0
 11
6.5856534415
 21
3.8212623205
 31
0.0
  0
LINE
  5
3A4
330
1F
100
AcDbEntity
  8
0
  6
Continuous
 62
     7
370
     0
100
AcDbLine
 10
6.5856534415
 20
4.8332623205
 30
0.0
 11
6.5856534415
 21
4.8272623205
 31
0.0
  0
LINE
  5
3A5
330
1F
100
AcDbEntity
  8
0
  6
Continuous
 62
     7
370
     0
100
AcDbLine
 10
6.5856534415
 20
3.8272623205
 30
0.0
 11
6.5856534415
 21
3.8212623205
 31
0.0
  0
LINE
  5
3A6
330
1F
100
AcDbEntity
  8
0
  6
Continuous
 62
     7
370
     0
100
AcDbLine
 10
6.5856534415
 20
4.8332623205
 30
0.0
 11
6.586808142
 21
4.8312623205
 31
0.0
  0
LINE
  5
3A7
330
1F
100
AcDbEntity
  8
0
  6
Continuous
 62
     7
370
     0
100
AcDbLine
 10
6.5856534415
 20
3.8212623205
 30
0.0
 11
6.3019739495
 21
3.8212623205
 31
0.0
  0
LINE
  5
3A8
330
1F
100
AcDbEntity
  8
0
  6
Continuous
 62
     7
370
     0
100
AcDbLine
 10
6.3019739495
 20
4.8332623205
 30
0.0
 11
6.5856534415
 21
4.8332623205
 31
0.0
  0
LINE
  5
3A9
330
1F
100
AcDbEntity
  8
0
  6
Continuous
 62
     7
370
     0
100
AcDbLine
 10
7.3346534415
 20
3.8232623205
 30
0.0
 11
7.6274987409
 21
3.8232623205
 31
0.0
  0
LINE
  5
3AA
330
1F
100
AcDbEntity
  8
0
  6
Continuous
 62
     7
370
     0
100
AcDbLine
 10
7.6274987409
 20
4.8312623205
 30
0.0
 11
7.3346534415
 21
4.8312623205
 31
0.0
  0
LINE
  5
3AB
330
1F
100
AcDbEntity
  8
0
  6
Continuous
 62
     7
370
     0
100
AcDbLine
 10
7.3346534415
 20
3.8232623205
 30
0.0
 11
7.3346534415
 21
3.845065428
 31
0.0
  0
LINE
  5
3AC
330
1F
100
AcDbEntity
  8
0
  6
Continuous
 62
     7
370
     0
100
AcDbLine
 10
7.3346534415
 20
4.8094592131
 30
0.0
 11
7.3346534415
 21
4.8312623205
 31
0.0
  0
LINE
  5
3AD
330
1F
100
AcDbEntity
  8
0
  6
Continuous
 62
     7
370
     0
100
AcDbLine
 10
6.8596534415
 20
4.8312623205
 30
0.0
 11
6.586808142
 21
4.8312623205
 31
0.0
  0
LINE
  5
3AE
330
1F
100
AcDbEntity
  8
0
  6
Continuous
 62
     7
370
     0
100
AcDbLine
 10
6.586808142
 20
3.8232623205
 30
0.0
 11
6.8596534415
 21
3.8232623205
 31
0.0
  0
LINE
  5
3AF
330
1F
100
AcDbEntity
  8
0
  6
Continuous
 62
     7
370
     0
100
AcDbLine
 10
6.8596534415
 20
4.8312623205
 30
0.0
 11
6.8596534415
 21
4.8272623205
 31
0.0
  0
LINE
  5
3B0
330
1F
100
AcDbEntity
  8
0
  6
Continuous
 62
     7
370
     0
100
AcDbLine
 10
6.8596534415
 20
3.8272623205
 30
0.0
 11
6.8596534415
 21
3.8232623205
 31
0.0
  0
LINE
  5
3B1
330
1F
100
AcDbEntity
  8
0
  6
Continuous
 62
     7
370
     0
100
AcDbLine
 10
7.313152247
 20
4.7782623205
 30
0.0
 11
6.8828314923
 21
4.7782623205
 31
0.0
  0
LINE
  5
3B2
330
1F
100
AcDbEntity
  8
0
  6
Continuous
 62
     7
370
     0
100
AcDbLine
 10
6.8828314923
 20
3.8762623205
 30
0.0
 11
7.313152247
 21
3.8762623205
 31
0.0
  0
LINE
  5
3B3
330
1F
100
AcDbEntity
  8
0
  6
Continuous
 62
     7
370
     0
100
AcDbLine
 10
6.5846534094
 20
3.7272623205
 30
0.0
 11
6.6032261906
 21
3.7272623205
 31
0.0
  0
LINE
  5
3B4
330
1F
100
AcDbEntity
  8
0
  6
Continuous
 62
     7
370
     0
100
AcDbLine
 10
6.5275755194
 20
3.7272623205
 30
0.0
 11
6.5736391411
 21
3.7272623205
 31
0.0
  0
LINE
  5
3B5
330
1F
100
AcDbEntity
  8
0
  6
Continuous
 62
     7
370
     0
100
AcDbLine
 10
6.8796534415
 20
3.8022623205
 30
0.0
 11
6.8796534415
 21
3.8676690497
 31
0.0
  0
LINE
  5
3B6
330
1F
100
AcDbEntity
  8
0
  6
Continuous
 62
     7
370
     0
100
AcDbLine
 10
6.8596534415
 20
3.8022623205
 30
0.0
 11
6.8596534415
 21
3.8232623205
 31
0.0
  0
LINE
  5
3B7
330
1F
100
AcDbEntity
  8
0
  6
Continuous
 62
     7
370
     0
100
AcDbLine
 10
7.3346534415
 20
3.8232623205
 30
0.0
 11
7.3346534415
 21
3.8022623205
 31
0.0
  0
LINE
  5
3B8
330
1F
100
AcDbEntity
  8
0
  6
Continuous
 62
     7
370
     0
100
AcDbLine
 10
7.3146534415
 20
3.8022623205
 30
0.0
 11
7.3146534415
 21
3.8739813293
 31
0.0
  0
LINE
  5
3B9
330
1F
100
AcDbEntity
  8
0
  6
Continuous
 62
     7
370
     0
100
AcDbLine
 10
6.2846534415
 20
3.7372623205
 30
0.0
 11
6.2846534415
 21
3.8112623205
 31
0.0
  0
LINE
  5
3BA
330
1F
100
AcDbEntity
  8
0
  6
Continuous
 62
     7
370
     0
100
AcDbLine
 10
7.9296534415
 20
3.8112623205
 30
0.0
 11
7.9296534415
 21
3.7372623205
 31
0.0
  0
LINE
  5
3BB
330
1F
100
AcDbEntity
  8
0
  6
Continuous
 62
     7
370
     0
100
AcDbLine
 10
6.4396534415
 20
4.9272623205
 30
0.0
 11
6.3806892661
 21
4.9272623205
 31
0.0
  0
LINE
  5
3BC
330
1F
100
AcDbEntity
  8
0
  6
Continuous
 62
     7
370
     0
100
AcDbLine
 10
6.6075755194
 20
4.9272623205
 30
0.0
 11
6.5506777215
 21
4.9272623205
 31
0.0
  0
LINE
  5
3BD
330
1F
100
AcDbEntity
  8
0
  6
Continuous
 62
     7
370
     0
100
AcDbLine
 10
6.7140203246
 20
4.9272623205
 30
0.0
 11
6.695172922
 21
4.9272623205
 31
0.0
  0
LINE
  5
3BE
330
1F
100
AcDbEntity
  8
0
  6
Continuous
 62
     7
370
     0
100
AcDbLine
 10
7.8496534415
 20
4.9272623205
 30
0.0
 11
7.7906892661
 21
4.9272623205
 31
0.0
  0
LINE
  5
3BF
330
1F
100
AcDbEntity
  8
0
  6
Continuous
 62
     7
370
     0
100
AcDbLine
 10
6.8796534415
 20
4.7868555914
 30
0.0
 11
6.8796534415
 21
4.8522623205
 31
0.0
  0
LINE
  5
3C0
330
1F
100
AcDbEntity
  8
0
  6
Continuous
 62
     7
370
     0
100
AcDbLine
 10
6.8596534415
 20
4.8312623205
 30
0.0
 11
6.8596534415
 21
4.8522623205
 31
0.0
  0
LINE
  5
3C1
330
1F
100
AcDbEntity
  8
0
  6
Continuous
 62
     7
370
     0
100
AcDbLine
 10
7.3346534415
 20
4.8522623205
 30
0.0
 11
7.3346534415
 21
4.8312623205
 31
0.0
  0
LINE
  5
3C2
330
1F
100
AcDbEntity
  8
0
  6
Continuous
 62
     7
370
     0
100
AcDbLine
 10
7.3146534415
 20
4.7805433118
 30
0.0
 11
7.3146534415
 21
4.8522623205
 31
0.0
  0
LINE
  5
3C3
330
1F
100
AcDbEntity
  8
0
  6
Continuous
 62
     7
370
     0
100
AcDbLine
 10
6.2846534415
 20
4.8432623205
 30
0.0
 11
6.2846534415
 21
4.9172623205
 31
0.0
  0
LINE
  5
3C4
330
1F
100
AcDbEntity
  8
0
  6
Continuous
 62
     7
370
     0
100
AcDbLine
 10
7.9296534415
 20
4.9172623205
 30
0.0
 11
7.9296534415
 21
4.8432623205
 31
0.0
  0
DIMENSION
  5
3C5
330
1F
100
AcDbEntity
  8
0
  6
Continuous
 62
     7
370
     0
100
AcDbDimension
  2
*D8
 10
7.9296534415
 20
2.8535215058
 30
0.0
 11
8.7557484022
 21
2.8535215058
 31
0.0
 70
   160
 71
     1
 42
-1.0
  3
SLDDIMSTYLE1
100
AcDbAlignedDimension
 13
9.4791951344
 23
4.3272623205
 33
0.0
 14
7.9296534415
 24
3.7372623205
 34
0.0
100
AcDbRotatedDimension
  0
DIMENSION
  5
3D8
330
1F
100
AcDbEntity
  8
0
  6
Continuous
 62
     7
370
     0
100
AcDbDimension
  2
*D9
 10
6.2846534415
 20
2.8535215058
 30
0.0
 11
5.0531079255
 21
2.8535215058
 31
0.0
 70
   160
 71
     1
 42
-1.0
  3
SLDDIMSTYLE2
100
AcDbAlignedDimension
 13
5.6290919848
 23
4.3272623205
 33
0.0
 14
6.2846534415
 24
3.7372623205
 34
0.0
100
AcDbRotatedDimension
  0
DIMENSION
  5
3EB
330
1F
100
AcDbEntity
  8
0
  6
Continuous
 62
     7
370
     0
100
AcDbDimension
  2
*D10
 10
6.509988478
 20
5.2589852908
 30
0.0
 11
5.0531079255
 21
5.2589852908
 31
0.0
 70
   160
 71
     1
 42
-1.0
  3
SLDDIMSTYLE2
100
AcDbAlignedDimension
 13
5.6290919848
 23
4.3272623205
 33
0.0
 14
6.509988478
 24
4.3272623205
 34
0.0
100
AcDbRotatedDimension
  0
DIMENSION
  5
3FD
330
1F
100
AcDbEntity
  8
0
  6
Continuous
 62
     7
370
     0
100
AcDbDimension
  2
*D11
 10
7.7296482534
 20
5.2589852908
 30
0.0
 11
8.7557484022
 21
5.2589852908
 31
0.0
 70
   160
 71
     1
 42
-1.0
  3
SLDDIMSTYLE1
100
AcDbAlignedDimension
 13
9.4791951344
 23
4.3272623205
 33
0.0
 14
7.7296482534
 24
4.3272623205
 34
0.0
100
AcDbRotatedDimension
  0
DIMENSION
  5
40F
330
1F
100
AcDbEntity
  8
0
  6
Continuous
 62
     7
370
     0
100
AcDbDimension
  2
*D12
 10
7.9296534415
 20
2.5115049873
 30
0.0
 11
7.1071534415
 21
2.5115049873
 31
0.0
 70
   160
 71
     1
 42
-1.0
  3
SLDDIMSTYLE3
100
AcDbAlignedDimension
 13
6.2846534415
 23
3.7372623205
 33
0.0
 14
7.9296534415
 24
3.7372623205
 34
0.0
100
AcDbRotatedDimension
  0
DIMENSION
  5
422
330
1F
100
AcDbEntity
  8
0
  6
Continuous
 62
     7
370
     0
100
AcDbDimension
  2
*D13
 10
6.9627443835
 20
3.3779309446
 30
0.0
 11
6.4835468887
 21
3.3779309446
 31
0.0
 70
   160
 71
     1
 42
-1.0
  3
SLDDIMSTYLE2
100
AcDbAlignedDimension
 13
7.1784671511
 23
4.3272623205
 33
0.0
 14
6.9627443835
 24
4.3272623205
 34
0.0
100
AcDbRotatedDimension
  0
DIMENSION
  5
434
330
1F
100
AcDbEntity
  8
0
  6
Continuous
 62
     7
370
     0
100
AcDbDimension
  2
*D14
 10
7.7296482534
 20
5.6705787089
 30
0.0
 11
7.1071534415
 21
5.6705787089
 31
0.0
 70
   160
 71
     1
 42
-1.0
  3
SLDDIMSTYLE1
100
AcDbAlignedDimension
 13
6.509988478
 23
4.3272623205
 33
0.0
 14
7.7296482534
 24
4.3272623205
 34
0.0
100
AcDbRotatedDimension
  0
INSERT
  5
44D
330
1F
100
AcDbEntity
  8
0
  6
Continuous
 62
     7
370
     0
100
AcDbBlockReference
  2
SW_NOTE_5
 10
6.6546711601
 20
2.983382614
 30
0.0
  0
INSERT
  5
454
102
{ACAD_REACTORS
330
456
330
457
102
}
330
1F
100
AcDbEntity
  8
0
  6
Continuous
 62
     7
370
     0
100
AcDbBlockReference
  2
SW_NOTE_6
 10
8.0751764392
 20
3.427309144
 30
0.0
  0
LEADER
  5
456
330
1F
100
AcDbEntity
  8
0
  6
Continuous
 62
     7
370
     0
100
AcDbLeader
  3
SLDDIMSTYLE4
 73
     2
 76
     3
 10
6.3799588062
 20
3.8212623205
 30
0.0
 10
7.8251764392
 20
3.427309144
 30
0.0
 10
8.0751764392
 20
3.427309144
 30
0.0
340
454
  0
LEADER
  5
457
330
1F
100
AcDbEntity
  8
0
  6
Continuous
 62
     7
370
     0
100
AcDbLeader
  3
SLDDIMSTYLE4
 73
     2
 76
     3
 10
7.8396800727
 20
3.8212623205
 30
0.0
 10
7.8251764392
 20
3.427309144
 30
0.0
 10
8.0751764392
 20
3.427309144
 30
0.0
340
454
  0
INSERT
  5
45D
102
{ACAD_REACTORS
330
45E
102
}
330
1F
100
AcDbEntity
  8
0
  6
Continuous
 62
     7
370
     0
100
AcDbBlockReference
  2
SW_NOTE_7
 10
6.1088328524
 20
4.767468993
 30
0.0
  0
LEADER
  5
45E
330
1F
100
AcDbEntity
  8
0
  6
Continuous
 62
     7
370
     0
100
AcDbLeader
  3
SLDDIMSTYLE4
 73
     2
 76
     2
 10
6.7648716968
 20
4.6773943662
 30
0.0
 10
6.1088328524
 20
4.767468993
 30
0.0
340
45D
  0
INSERT
  5
464
330
1F
100
AcDbEntity
  8
0
  6
Continuous
 62
     7
370
     0
100
AcDbBlockReference
  2
SW_NOTE_8
 10
8.6275632351
 20
4.7760228608
 30
0.0
  0
LEADER
  5
465
330
1F
100
AcDbEntity
  8
0
  6
Continuous
 62
     7
370
     0
100
AcDbLeader
  3
SLDDIMSTYLE4
 76
     2
 10
7.421006358
 20
4.6638262911
 30
0.0
 10
8.6275632351
 20
4.7760228608
 30
0.0
  0
INSERT
  5
46B
330
1F
100
AcDbEntity
  8
0
  6
Continuous
 62
     7
370
     0
100
AcDbBlockReference
  2
SW_NOTE_9
 10
8.9189555518
 20
3.7118256145
 30
0.0
  0
LEADER
  5
46C
330
1F
100
AcDbEntity
  8
0
  6
Continuous
 62
     7
370
     0
100
AcDbLeader
  3
SLDDIMSTYLE4
 76
     2
 10
7.9196534415
 20
3.7272623205
 30
0.0
 10
8.9189555518
 20
3.7118256145
 30
0.0
  0
INSERT
  5
472
330
1F
100
AcDbEntity
  8
0
  6
Continuous
 62
     7
370
     0
100
AcDbBlockReference
  2
SW_NOTE_10
 10
8.4856376316
 20
3.9473035069
 30
0.0
  0
LEADER
  5
473
330
1F
100
AcDbEntity
  8
0
  6
Continuous
 62
     7
370
     0
100
AcDbLeader
  3
SLDDIMSTYLE4
 76
     2
 10
7.7762840622
 20
3.8772623205
 30
0.0
 10
8.4856376316
 20
3.9473035069
 30
0.0
  0
INSERT
  5
479
102
{ACAD_REACTORS
330
47A
102
}
330
1F
100
AcDbEntity
  8
0
  6
Continuous
 62
     7
370
     0
100
AcDbBlockReference
  2
SW_NOTE_11
 10
6.1083103438
 20
3.9336255717
 30
0.0
  0
LEADER
  5
47A
330
1F
100
AcDbEntity
  8
0
  6
Continuous
 62
     7
370
     0
100
AcDbLeader
  3
SLDDIMSTYLE4
 73
     2
 76
     2
 10
6.4396143291
 20
3.8772623205
 30
0.0
 10
6.1083103438
 20
3.9336255717
 30
0.0
340
479
  0
HATCH
  5
47B
330
1F
100
AcDbEntity
  8
0
  6
Continuous
 62
     7
370
     0
100
AcDbHatch
 10
0.0
 20
0.0
 30
0.0
210
0.0
220
0.0
230
1.0
  2
ANSI31
 70
     0
 71
     0
 91
        1
 92
        0
 93
        6
 72
     1
 10
7.776284062189529
 20
3.877262320542302
 11
7.696284062189529
 21
3.877262320542302
 72
     1
 10
7.696284062189529
 20
3.877262320542302
 11
7.696284062189529
 21
3.819762320542302
 72
     1
 10
7.696284062189529
 20
3.819762320542302
 11
7.713604570265217
 21
3.809762320542302
 72
     1
 10
7.713604570265217
 20
3.809762320542302
 11
7.766284062189529
 21
3.809762320542303
 72
     1
 10
7.766284062189529
 20
3.809762320542303
 11
7.776284062189529
 21
3.827082828617991
 72
     1
 10
7.776284062189529
 20
3.827082828617991
 11
7.776284062189529
 21
3.877262320542302
 97
        0
 75
     0
 76
     1
 52
0.0
 41
1.0
 77
     0
 78
     1
 53
45.0
 43
0.0
 44
0.0
 45
-0.0883883476483184
 46
0.0883883476483184
 79
     0
 98
        1
 10
0.0
 20
0.0
  0
HATCH
  5
47C
330
1F
100
AcDbEntity
  8
0
  6
Continuous
 62
     7
370
     0
100
AcDbHatch
 10
0.0
 20
0.0
 30
0.0
210
0.0
220
0.0
230
1.0
  2
ANSI31
 70
     0
 71
     0
 91
        1
 92
        0
 93
        6
 72
     1
 10
7.776284062189529
 20
4.777262320542301
 11
7.776284062189529
 21
4.827441812466612
 72
     1
 10
7.776284062189529
 20
4.827441812466612
 11
7.76628406218953
 21
4.844762320542301
 72
     1
 10
7.76628406218953
 20
4.844762320542301
 11
7.713604570265217
 21
4.844762320542301
 72
     1
 10
7.713604570265217
 20
4.844762320542301
 11
7.696284062189529
 21
4.834762320542301
 72
     1
 10
7.696284062189529
 20
4.834762320542301
 11
7.696284062189529
 21
4.777262320542301
 72
     1
 10
7.696284062189529
 20
4.777262320542301
 11
7.776284062189529
 21
4.777262320542301
 97
        0
 75
     0
 76
     1
 52
0.0
 41
1.0
 77
     0
 78
     1
 53
45.0
 43
0.0
 44
0.0
 45
-0.0883883476483184
 46
0.0883883476483184
 79
     0
 98
        1
 10
0.0
 20
0.0
  0
HATCH
  5
47D
330
1F
100
AcDbEntity
  8
0
  6
Continuous
 62
     7
370
     0
100
AcDbHatch
 10
0.0
 20
0.0
 30
0.0
210
0.0
220
0.0
230
1.0
  2
ANSI31
 70
     0
 71
     0
 91
        1
 92
        0
 93
        6
 72
     1
 10
6.439614329094834
 20
4.777262320542303
 11
6.519614329094835
 21
4.777262320542303
 72
     1
 10
6.519614329094835
 20
4.777262320542303
 11
6.519614329094835
 21
4.834762320542303
 72
     1
 10
6.519614329094835
 20
4.834762320542303
 11
6.502293821019146
 21
4.844762320542303
 72
     1
 10
6.502293821019146
 20
4.844762320542303
 11
6.449614329094834
 21
4.844762320542302
 72
     1
 10
6.449614329094834
 20
4.844762320542302
 11
6.439614329094834
 21
4.827441812466614
 72
     1
 10
6.439614329094834
 20
4.827441812466614
 11
6.439614329094834
 21
4.777262320542303
 97
        0
 75
     0
 76
     1
 52
0.0
 41
1.0
 77
     0
 78
     1
 53
45.0
 43
0.0
 44
0.0
 45
-0.0883883476483184
 46
0.0883883476483184
 79
     0
 98
        1
 10
0.0
 20
0.0
  0
HATCH
  5
47E
330
1F
100
AcDbEntity
  8
0
  6
Continuous
 62
     7
370
     0
100
AcDbHatch
 10
0.0
 20
0.0
 30
0.0
210
0.0
220
0.0
230
1.0
  2
ANSI31
 70
     0
 71
     0
 91
        1
 92
        0
 93
        6
 72
     1
 10
6.439614329094834
 20
3.877262320542302
 11
6.439614329094834
 21
3.827082828617991
 72
     1
 10
6.439614329094834
 20
3.827082828617991
 11
6.449614329094834
 21
3.809762320542302
 72
     1
 10
6.449614329094834
 20
3.809762320542302
 11
6.502293821019146
 21
3.809762320542302
 72
     1
 10
6.502293821019146
 20
3.809762320542302
 11
6.519614329094835
 21
3.819762320542301
 72
     1
 10
6.519614329094835
 20
3.819762320542301
 11
6.519614329094835
 21
3.877262320542302
 72
     1
 10
6.519614329094835
 20
3.877262320542302
 11
6.439614329094834
 21
3.877262320542302
 97
        0
 75
     0
 76
     1
 52
0.0
 41
1.0
 77
     0
 78
     1
 53
45.0
 43
0.0
 44
0.0
 45
-0.0883883476483184
 46
0.0883883476483184
 79
     0
 98
        1
 10
0.0
 20
0.0
  0
HATCH
  5
47F
330
1F
100
AcDbEntity
  8
0
  6
Continuous
 62
     7
370
     0
100
AcDbHatch
 10
0.0
 20
0.0
 30
0.0
210
0.0
220
0.0
230
1.0
  2
ANSI31
 70
     0
 71
     0
 91
        1
 92
        0
 93
       28
 72
     1
 10
7.627498740928851
 20
4.831262320542303
 11
7.62865344146723
 21
4.833262320542303
 72
     1
 10
7.62865344146723
 20
4.833262320542303
 11
7.91233293339154
 21
4.833262320542302
 72
     1
 10
7.91233293339154
 20
4.833262320542302
 11
7.92965344146723
 21
4.843262320542302
 72
     1
 10
7.92965344146723
 20
4.843262320542302
 11
7.92965344146723
 21
4.917262320542302
 72
     1
 10
7.92965344146723
 20
4.917262320542302
 11
7.919653441467228
 21
4.927262320542303
 72
     1
 10
7.919653441467228
 20
4.927262320542303
 11
7.84965344146723
 21
4.927262320542303
 72
     1
 10
7.84965344146723
 20
4.927262320542303
 11
7.790689266121239
 21
4.927262320542303
 72
     1
 10
7.790689266121239
 20
4.927262320542303
 11
6.714020324584113
 21
4.927262320542303
 72
     1
 10
6.714020324584113
 20
4.927262320542303
 11
6.69517292198671
 21
4.927262320542303
 72
     1
 10
6.69517292198671
 20
4.927262320542303
 11
6.607575519389307
 21
4.927262320542303
 72
     1
 10
6.607575519389307
 20
4.927262320542303
 11
6.550677721546401
 21
4.927262320542303
 72
     1
 10
6.550677721546401
 20
4.927262320542303
 11
6.43965344146723
 21
4.927262320542303
 72
     1
 10
6.43965344146723
 20
4.927262320542303
 11
6.380689266121347
 21
4.927262320542303
 72
     1
 10
6.380689266121347
 20
4.927262320542303
 11
6.29465344146723
 21
4.927262320542303
 72
     1
 10
6.29465344146723
 20
4.927262320542303
 11
6.284653441467229
 21
4.917262320542302
 72
     1
 10
6.284653441467229
 20
4.917262320542302
 11
6.284653441467229
 21
4.843262320542302
 72
     1
 10
6.284653441467229
 20
4.843262320542302
 11
6.301973949542919
 21
4.833262320542302
 72
     1
 10
6.301973949542919
 20
4.833262320542302
 11
6.585653441467231
 21
4.833262320542302
 72
     1
 10
6.585653441467231
 20
4.833262320542302
 11
6.586808142005609
 21
4.831262320542303
 72
     1
 10
6.586808142005609
 20
4.831262320542303
 11
6.85965344146723
 21
4.831262320542303
 72
     1
 10
6.85965344146723
 20
4.831262320542303
 11
6.85965344146723
 21
4.852262320542303
 72
     1
 10
6.85965344146723
 20
4.852262320542303
 11
6.87965344146723
 21
4.852262320542303
 72
     1
 10
6.87965344146723
 20
4.852262320542303
 11
6.87965344146723
 21
4.778262320542303
 72
     1
 10
6.87965344146723
 20
4.778262320542303
 11
7.31465344146723
 21
4.778262320542303
 72
     1
 10
7.31465344146723
 20
4.778262320542303
 11
7.31465344146723
 21
4.852262320542303
 72
     1
 10
7.31465344146723
 20
4.852262320542303
 11
7.334653441467229
 21
4.852262320542303
 72
     1
 10
7.334653441467229
 20
4.852262320542303
 11
7.334653441467229
 21
4.831262320542303
 72
     1
 10
7.334653441467229
 20
4.831262320542303
 11
7.627498740928851
 21
4.831262320542303
 97
        0
 75
     0
 76
     1
 52
0.0
 41
1.0
 77
     0
 78
     1
 53
45.0
 43
0.0
 44
0.0
 45
-0.0883883476483184
 46
0.0883883476483184
 79
     0
 98
        1
 10
0.0
 20
0.0
  0
HATCH
  5
480
330
1F
100
AcDbEntity
  8
0
  6
Continuous
 62
     7
370
     0
100
AcDbHatch
 10
0.0
 20
0.0
 30
0.0
210
0.0
220
0.0
230
1.0
  2
ANSI31
 70
     0
 71
     0
 91
        1
 92
        0
 93
       24
 72
     1
 10
7.627498740928851
 20
3.823262320542301
 11
7.334653441467229
 21
3.823262320542301
 72
     1
 10
7.334653441467229
 20
3.823262320542301
 11
7.334653441467229
 21
3.802262320542301
 72
     1
 10
7.334653441467229
 20
3.802262320542301
 11
7.31465344146723
 21
3.8022623205423
 72
     1
 10
7.31465344146723
 20
3.8022623205423
 11
7.31465344146723
 21
3.876262320542301
 72
     1
 10
7.31465344146723
 20
3.876262320542301
 11
6.87965344146723
 21
3.876262320542301
 72
     1
 10
6.87965344146723
 20
3.876262320542301
 11
6.87965344146723
 21
3.802262320542301
 72
     1
 10
6.87965344146723
 20
3.802262320542301
 11
6.85965344146723
 21
3.8022623205423
 72
     1
 10
6.85965344146723
 20
3.8022623205423
 11
6.85965344146723
 21
3.823262320542301
 72
     1
 10
6.85965344146723
 20
3.823262320542301
 11
6.586808142005609
 21
3.823262320542302
 72
     1
 10
6.586808142005609
 20
3.823262320542302
 11
6.585653441467231
 21
3.821262320542302
 72
     1
 10
6.585653441467231
 20
3.821262320542302
 11
6.301973949542919
 21
3.821262320542302
 72
     1
 10
6.301973949542919
 20
3.821262320542302
 11
6.284653441467229
 21
3.811262320542301
 72
     1
 10
6.284653441467229
 20
3.811262320542301
 11
6.284653441467229
 21
3.737262320542301
 72
     1
 10
6.284653441467229
 20
3.737262320542301
 11
6.29465344146723
 21
3.727262320542301
 72
     1
 10
6.29465344146723
 20
3.727262320542301
 11
6.527575519389308
 21
3.727262320542301
 72
     1
 10
6.527575519389308
 20
3.727262320542301
 11
6.573639141141053
 21
3.727262320542301
 72
     1
 10
6.573639141141053
 20
3.727262320542301
 11
6.5846534093583
 21
3.727262320542301
 72
     1
 10
6.5846534093583
 20
3.727262320542301
 11
6.6032261906422
 21
3.727262320542301
 72
     1
 10
6.6032261906422
 20
3.727262320542301
 11
7.919653441467228
 21
3.727262320542301
 72
     1
 10
7.919653441467228
 20
3.727262320542301
 11
7.92965344146723
 21
3.737262320542301
 72
     1
 10
7.92965344146723
 20
3.737262320542301
 11
7.92965344146723
 21
3.811262320542302
 72
     1
 10
7.92965344146723
 20
3.811262320542302
 11
7.91233293339154
 21
3.821262320542302
 72
     1
 10
7.91233293339154
 20
3.821262320542302
 11
7.62865344146723
 21
3.821262320542302
 72
     1
 10
7.62865344146723
 20
3.821262320542302
 11
7.627498740928851
 21
3.823262320542301
 97
        0
 75
     0
 76
     1
 52
0.0
 41
1.0
 77
     0
 78
     1
 53
45.0
 43
0.0
 44
0.0
 45
-0.0883883476483184
 46
0.0883883476483184
 79
     0
 98
        1
 10
0.0
 20
0.0
  0
ENDSEC
  0
SECTION
  2
OBJECTS
  0
DICTIONARY
  5
C
330
0
100
AcDbDictionary
281
     1
  3
ACAD_GROUP
350
D
  3
ACAD_LAYOUT
350
1A
  3
ACAD_MLINESTYLE
350
17
  3
ACAD_PLOTSETTINGS
350
19
  3
ACAD_PLOTSTYLENAME
350
E
  0
DICTIONARY
  5
D
102
{ACAD_REACTORS
330
C
102
}
330
C
100
AcDbDictionary
281
     1
  0
DICTIONARY
  5
1A
102
{ACAD_REACTORS
330
C
102
}
330
C
100
AcDbDictionary
281
     1
  3
Layout1
350
1E
  3
Layout2
350
26
  3
Model
350
22
  0
DICTIONARY
  5
17
102
{ACAD_REACTORS
330
C
102
}
330
C
100
AcDbDictionary
281
     1
  3
Standard
350
18
  0
DICTIONARY
  5
19
102
{ACAD_REACTORS
330
C
102
}
330
C
100
AcDbDictionary
281
     1
  0
ACDBDICTIONARYWDFLT
  5
E
102
{ACAD_REACTORS
330
C
102
}
330
C
100
AcDbDictionary
281
     1
  3
Normal
350
F
100
AcDbDictionaryWithDefault
340
F
  0
LAYOUT
  5
1E
102
{ACAD_REACTORS
330
1A
102
}
330
1A
100
AcDbPlotSettings
  1

  2
none_device
  4

  6

 40
0.0
 41
0.0
 42
0.0
 43
0.0
 44
0.0
 45
0.0
 46
0.0
 47
0.0
 48
0.0
 49
0.0
140
0.0
141
0.0
142
1.0
143
1.0
 70
   688
 72
     0
 73
     0
 74
     5
  7

 75
    16
147
1.0
148
0.0
149
0.0
100
AcDbLayout
  1
Layout1
 70
     1
 71
     1
 10
0.0
 20
0.0
 11
12.0
 21
9.0
 12
0.0
 22
0.0
 32
0.0
 14
1.0000000000E+20
 24
1.0000000000E+20
 34
1.0000000000E+20
 15
-1.0000000000E+20
 25
-1.0000000000E+20
 35
-1.0000000000E+20
146
0.0
 13
0.0
 23
0.0
 33
0.0
 16
1.0
 26
0.0
 36
0.0
 17
0.0
 27
1.0
 37
0.0
 76
     0
330
1B
  0
LAYOUT
  5
26
102
{ACAD_REACTORS
330
1A
102
}
330
1A
100
AcDbPlotSettings
  1

  2
none_device
  4

  6

 40
0.0
 41
0.0
 42
0.0
 43
0.0
 44
0.0
 45
0.0
 46
0.0
 47
0.0
 48
0.0
 49
0.0
140
0.0
141
0.0
142
1.0
143
1.0
 70
   688
 72
     0
 73
     0
 74
     5
  7

 75
    16
147
1.0
148
0.0
149
0.0
100
AcDbLayout
  1
Layout2
 70
     1
 71
     2
 10
0.0
 20
0.0
 11
0.0
 21
0.0
 12
0.0
 22
0.0
 32
0.0
 14
0.0
 24
0.0
 34
0.0
 15
0.0
 25
0.0
 35
0.0
146
0.0
 13
0.0
 23
0.0
 33
0.0
 16
1.0
 26
0.0
 36
0.0
 17
0.0
 27
1.0
 37
0.0
 76
     0
330
23
  0
LAYOUT
  5
22
102
{ACAD_REACTORS
330
1A
102
}
330
1A
100
AcDbPlotSettings
  1

  2
none_device
  4

  6

 40
0.0
 41
0.0
 42
0.0
 43
0.0
 44
0.0
 45
0.0
 46
0.0
 47
0.0
 48
0.0
 49
0.0
140
0.0
141
0.0
142
1.0
143
1.0
 70
  1712
 72
     0
 73
     0
 74
     0
  7

 75
     0
147
1.0
148
0.0
149
0.0
100
AcDbLayout
  1
Model
 70
     1
 71
     0
 10
0.0
 20
0.0
 11
0.0
 21
0.0
 12
0.0
 22
0.0
 32
0.0
 14
0.0
 24
0.0
 34
0.0
 15
11.0
 25
8.5
 35
0.0
146
0.0
 13
0.0
 23
0.0
 33
0.0
 16
1.0
 26
0.0
 36
0.0
 17
0.0
 27
1.0
 37
0.0
 76
     0
330
1F
  0
MLINESTYLE
  5
18
102
{ACAD_REACTORS
330
17
102
}
330
17
100
AcDbMlineStyle
  2
Standard
 70
     0
  3

 62
   256
 51
90.0
 52
90.0
 71
     2
 49
0.5
 62
   256
  6
BYLAYER
 49
-0.5
 62
   256
  6
BYLAYER
  0
ACDBPLACEHOLDER
  5
F
102
{ACAD_REACTORS
330
E
102
}
330
E
  0
ENDSEC
  0
EOF
