  0
SECTION
  2
HEADER
  9
$ACADVER
  1
AC1015
  9
$ACADMAINTVER
 70
     6
  9
$DWGCODEPAGE
  3
ANSI_1252
  9
$INSBASE
 10
0.0
 20
0.0
 30
0.0
  9
$EXTMIN
 10
0.0
 20
0.0
 30
0.0
  9
$EXTMAX
 10
279.4
 20
215.9
 30
0.0
  9
$LIMMIN
 10
0.0
 20
0.0
  9
$LIMMAX
 10
279.4
 20
215.9
  9
$ORTHOMODE
 70
     0
  9
$REGENMODE
 70
     1
  9
$FILLMODE
 70
     1
  9
$QTEXTMODE
 70
     0
  9
$MIRRTEXT
 70
     1
  9
$LTSCALE
 40
1.0
  9
$ATTMODE
 70
     1
  9
$TEXTSIZE
 40
2.8222222222
  9
$TRACEWID
 40
1.0
  9
$TEXTSTYLE
  7
Standard
  9
$CLAYER
  8
0
  9
$CELTYPE
  6
ByLayer
  9
$CECOLOR
 62
   256
  9
$CELTSCALE
 40
1.0
  9
$DISPSILH
 70
     0
  9
$DIMSCALE
 40
1.0
  9
$DIMASZ
 40
3.175
  9
$DIMEXO
 40
1.27
  9
$DIMDLI
 40
3.75
  9
$DIMRND
 40
0.0
  9
$DIMDLE
 40
0.0
  9
$DIMEXE
 40
1.778
  9
$DIMTP
 40
0.0
  9
$DIMTM
 40
0.0
  9
$DIMTXT
 40
2.8222222222
  9
$DIMCEN
 40
2.5
  9
$DIMTSZ
 40
0.0
  9
$DIMTOL
 70
     0
  9
$DIMLIM
 70
     0
  9
$DIMTIH
 70
     1
  9
$DIMTOH
 70
     1
  9
$DIMSE1
 70
     0
  9
$DIMSE2
 70
     0
  9
$DIMTAD
 70
     1
  9
$DIMZIN
 70
     1
  9
$DIMBLK
  1

  9
$DIMASO
 70
     1
  9
$DIMSHO
 70
     1
  9
$DIMPOST
  1

  9
$DIMAPOST
  1

  9
$DIMALT
 70
     0
  9
$DIMALTD
 70
     3
  9
$DIMALTF
 40
0.0393700787
  9
$DIMLFAC
 40
1.0
  9
$DIMTOFL
 70
     1
  9
$DIMTVP
 40
0.0
  9
$DIMTIX
 70
     0
  9
$DIMSOXD
 70
     0
  9
$DIMSAH
 70
     0
  9
$DIMBLK1
  1

  9
$DIMBLK2
  1

  9
$DIMSTYLE
  2
ISO-25
  9
$DIMCLRD
 70
     0
  9
$DIMCLRE
 70
     0
  9
$DIMCLRT
 70
     0
  9
$DIMTFAC
 40
1.0
  9
$DIMGAP
 40
2.54
  9
$DIMJUST
 70
     0
  9
$DIMSD1
 70
     0
  9
$DIMSD2
 70
     0
  9
$DIMTOLJ
 70
     0
  9
$DIMTZIN
 70
     1
  9
$DIMALTZ
 70
     0
  9
$DIMALTTZ
 70
     0
  9
$DIMUPT
 70
     0
  9
$DIMDEC
 70
     1
  9
$DIMTDEC
 70
     1
  9
$DIMALTU
 70
     2
  9
$DIMALTTD
 70
     3
  9
$DIMTXSTY
  7
Standard
  9
$DIMAUNIT
 70
     0
  9
$DIMADEC
 70
     0
  9
$DIMALTRND
 40
0.0
  9
$DIMAZIN
 70
     0
  9
$DIMDSEP
 70
    44
  9
$DIMATFIT
 70
     3
  9
$DIMFRAC
 70
     0
  9
$DIMLDRBLK
  1

  9
$DIMLUNIT
 70
     2
  9
$DIMLWD
 70
    -2
  9
$DIMLWE
 70
    -2
  9
$DIMTMOVE
 70
     0
  9
$LUNITS
 70
     2
  9
$LUPREC
 70
     1
  9
$SKETCHINC
 40
1.0
  9
$FILLETRAD
 40
10.0
  9
$AUNITS
 70
     0
  9
$AUPREC
 70
     0
  9
$MENU
  1
.
  9
$ELEVATION
 40
0.0
  9
$PELEVATION
 40
0.0
  9
$THICKNESS
 40
0.0
  9
$LIMCHECK
 70
     0
  9
$CHAMFERA
 40
10.0
  9
$CHAMFERB
 40
10.0
  9
$CHAMFERC
 40
20.0
  9
$CHAMFERD
 40
0.0
  9
$SKPOLY
 70
     0
  9
$TDCREATE
 40
2456244.561085637
  9
$TDUCREATE
 40
2456244.76941897
  9
$TDUPDATE
 40
2456244.561085648
  9
$TDUUPDATE
 40
2456244.769418981
  9
$TDINDWG
 40
0.0000000116
  9
$TDUSRTIMER
 40
0.0000000116
  9
$USRTIMER
 70
     1
  9
$ANGBASE
 50
0.0
  9
$ANGDIR
 70
     0
  9
$PDMODE
 70
     0
  9
$PDSIZE
 40
-1.0
  9
$PLINEWID
 40
0.0
  9
$SPLFRAME
 70
     0
  9
$SPLINETYPE
 70
     6
  9
$SPLINESEGS
 70
     8
  9
$HANDSEED
  5
23B
  9
$SURFTAB1
 70
     6
  9
$SURFTAB2
 70
     6
  9
$SURFTYPE
 70
     6
  9
$SURFU
 70
     6
  9
$SURFV
 70
     6
  9
$UCSBASE
  2

  9
$UCSNAME
  2

  9
$UCSORG
 10
0.0
 20
0.0
 30
0.0
  9
$UCSXDIR
 10
1.0
 20
0.0
 30
0.0
  9
$UCSYDIR
 10
0.0
 20
1.0
 30
0.0
  9
$UCSORTHOREF
  2

  9
$UCSORTHOVIEW
 70
     0
  9
$UCSORGTOP
 10
0.0
 20
0.0
 30
0.0
  9
$UCSORGBOTTOM
 10
0.0
 20
0.0
 30
0.0
  9
$UCSORGLEFT
 10
0.0
 20
0.0
 30
0.0
  9
$UCSORGRIGHT
 10
0.0
 20
0.0
 30
0.0
  9
$UCSORGFRONT
 10
0.0
 20
0.0
 30
0.0
  9
$UCSORGBACK
 10
0.0
 20
0.0
 30
0.0
  9
$PUCSBASE
  2

  9
$PUCSNAME
  2

  9
$PUCSORG
 10
0.0
 20
0.0
 30
0.0
  9
$PUCSXDIR
 10
1.0
 20
0.0
 30
0.0
  9
$PUCSYDIR
 10
0.0
 20
1.0
 30
0.0
  9
$PUCSORTHOREF
  2

  9
$PUCSORTHOVIEW
 70
     0
  9
$PUCSORGTOP
 10
0.0
 20
0.0
 30
0.0
  9
$PUCSORGBOTTOM
 10
0.0
 20
0.0
 30
0.0
  9
$PUCSORGLEFT
 10
0.0
 20
0.0
 30
0.0
  9
$PUCSORGRIGHT
 10
0.0
 20
0.0
 30
0.0
  9
$PUCSORGFRONT
 10
0.0
 20
0.0
 30
0.0
  9
$PUCSORGBACK
 10
0.0
 20
0.0
 30
0.0
  9
$USERI1
 70
     0
  9
$USERI2
 70
     0
  9
$USERI3
 70
     0
  9
$USERI4
 70
     0
  9
$USERI5
 70
     0
  9
$USERR1
 40
0.0
  9
$USERR2
 40
0.0
  9
$USERR3
 40
0.0
  9
$USERR4
 40
0.0
  9
$USERR5
 40
0.0
  9
$WORLDVIEW
 70
     1
  9
$SHADEDGE
 70
     3
  9
$SHADEDIF
 70
    70
  9
$TILEMODE
 70
     1
  9
$MAXACTVP
 70
    64
  9
$PINSBASE
 10
0.0
 20
0.0
 30
0.0
  9
$PLIMCHECK
 70
     0
  9
$PEXTMIN
 10
1.0000000000E+20
 20
1.0000000000E+20
 30
1.0000000000E+20
  9
$PEXTMAX
 10
-1.0000000000E+20
 20
-1.0000000000E+20
 30
-1.0000000000E+20
  9
$PLIMMIN
 10
0.0
 20
0.0
  9
$PLIMMAX
 10
420.0
 20
297.0
  9
$UNITMODE
 70
     0
  9
$VISRETAIN
 70
     1
  9
$PLINEGEN
 70
     0
  9
$PSLTSCALE
 70
     1
  9
$TREEDEPTH
 70
  3020
  9
$CMLSTYLE
  2
Standard
  9
$CMLJUST
 70
     0
  9
$CMLSCALE
 40
20.0
  9
$PROXYGRAPHICS
 70
     1
  9
$MEASUREMENT
 70
     1
  9
$CELWEIGHT
370
    -1
  9
$ENDCAPS
280
     0
  9
$JOINSTYLE
280
     0
  9
$LWDISPLAY
290
     1
  9
$INSUNITS
 70
     4
  9
$HYPERLINKBASE
  1

  9
$STYLESHEET
  1

  9
$XEDIT
290
     1
  9
$CEPSNTYPE
380
     0
  9
$PSTYLEMODE
290
     1
  9
$FINGERPRINTGUID
  2
{4160DA31-7ED2-4E03-9D04-3E68E23101C0}
  9
$VERSIONGUID
  2
{FAEB1C32-E019-11D5-929B-00C0DF256EC4}
  9
$EXTNAMES
290
     1
  9
$PSVPSCALE
 40
0.0
  9
$OLESTARTUP
290
     0
  0
ENDSEC
  0
SECTION
  2
CLASSES
  0
CLASS
  1
ACDBDICTIONARYWDFLT
  2
AcDbDictionaryWithDefault
  3
ObjectDBX Classes
 90
        0
280
     0
281
     0
  0
CLASS
  1
VISUALSTYLE
  2
AcDbVisualStyle
  3
ObjectDBX Classes
 90
     4095
280
     0
281
     0
  0
CLASS
  1
MATERIAL
  2
AcDbMaterial
  3
ObjectDBX Classes
 90
     1153
280
     0
281
     0
  0
CLASS
  1
ACDBPLACEHOLDER
  2
AcDbPlaceHolder
  3
ObjectDBX Classes
 90
        0
280
     0
281
     0
  0
CLASS
  1
LAYOUT
  2
AcDbLayout
  3
ObjectDBX Classes
 90
        0
280
     0
281
     0
  0
ENDSEC
  0
SECTION
  2
TABLES
  0
TABLE
  2
VPORT
  5
8
330
0
100
AcDbSymbolTable
 70
     1
  0
VPORT
  5
29
330
8
100
AcDbSymbolTableRecord
100
AcDbViewportTableRecord
  2
*Active
 70
     0
 10
0.0
 20
0.0
 11
1.0
 21
1.0
 12
139.7
 22
107.95
 13
0.0
 23
0.0
 14
10.0
 24
10.0
 15
10.0
 25
10.0
 16
0.0
 26
0.0
 36
1.0
 17
0.0
 27
0.0
 37
0.0
 40
215.9
 41
1.2941176471
 42
50.0
 43
0.0
 44
0.0
 50
0.0
 51
0.0
 71
     0
 72
  2000
 73
     1
 74
     3
 75
     0
 76
     0
 77
     0
 78
     0
281
     0
 65
     1
110
0.0
120
0.0
130
0.0
111
1.0
121
0.0
131
0.0
112
0.0
122
1.0
132
0.0
 79
     0
146
0.0
  0
ENDTAB
  0
TABLE
  2
LTYPE
  5
5
330
0
100
AcDbSymbolTable
 70
     6
  0
LTYPE
  5
14
330
5
100
AcDbSymbolTableRecord
100
AcDbLinetypeTableRecord
  2
ByBlock
 70
     0
  3

 72
    65
 73
     0
 40
0.0
  0
LTYPE
  5
15
330
5
100
AcDbSymbolTableRecord
100
AcDbLinetypeTableRecord
  2
ByLayer
 70
     0
  3

 72
    65
 73
     0
 40
0.0
  0
LTYPE
  5
16
330
5
100
AcDbSymbolTableRecord
100
AcDbLinetypeTableRecord
  2
Continuous
 70
     0
  3
Solid line
 72
    65
 73
     0
 40
0.0
  0
LTYPE
  5
3F
330
5
100
AcDbSymbolTableRecord
100
AcDbLinetypeTableRecord
  2
HIDDEN
 70
     0
  3
Hidden __ __ __ __ __ __ __ __ __ __ __ __ __ __
 72
    65
 73
     2
 40
1.905
 49
1.27
 74
     0
 49
-0.635
 74
     0
  0
LTYPE
  5
40
330
5
100
AcDbSymbolTableRecord
100
AcDbLinetypeTableRecord
  2
PHANTOM
 70
     0
  3
Phantom ______  __  __  ______  __  __  ______
 72
    65
 73
     6
 40
12.7
 49
6.35
 74
     0
 49
-1.27
 74
     0
 49
1.27
 74
     0
 49
-1.27
 74
     0
 49
1.27
 74
     0
 49
-1.27
 74
     0
  0
LTYPE
  5
41
330
5
100
AcDbSymbolTableRecord
100
AcDbLinetypeTableRecord
  2
CENTER
 70
     0
  3
Center ____ _ ____ _ ____ _ ____ _ ____ _ ____
 72
    65
 73
     4
 40
10.16
 49
6.35
 74
     0
 49
-1.27
 74
     0
 49
1.27
 74
     0
 49
-1.27
 74
     0
  0
LTYPE
  5
42
330
5
100
AcDbSymbolTableRecord
100
AcDbLinetypeTableRecord
  2
CENTERX2
 70
     0
  3
Center (2x) ________  __  ________  __  _____
 72
    65
 73
     4
 40
20.32
 49
12.7
 74
     0
 49
-2.54
 74
     0
 49
2.54
 74
     0
 49
-2.54
 74
     0
  0
LTYPE
  5
43
330
5
100
AcDbSymbolTableRecord
100
AcDbLinetypeTableRecord
  2
DOT2
 70
     0
  3
Dot (.5x) ........................................
 72
    65
 73
     2
 40
0.635
 49
0.0
 74
     0
 49
-0.635
 74
     0
  0
ENDTAB
  0
TABLE
  2
LAYER
  5
2
330
0
100
AcDbSymbolTable
 70
     2
  0
LAYER
  5
10
330
2
100
AcDbSymbolTableRecord
100
AcDbLayerTableRecord
  2
0
 70
     0
 62
     7
  6
Continuous
370
    -3
390
F
  0
LAYER
  5
44
330
2
100
AcDbSymbolTableRecord
100
AcDbLayerTableRecord
  2
FORMAT
 70
     0
 62
     7
  6
Continuous
370
    -3
390
F
  0
ENDTAB
  0
TABLE
  2
STYLE
  5
3
330
0
100
AcDbSymbolTable
 70
     5
  0
STYLE
  5
11
330
3
100
AcDbSymbolTableRecord
100
AcDbTextStyleTableRecord
  2
Standard
 70
     0
 40
0.0
 41
1.0
 50
0.0
 71
     0
 42
2.5
  3
txt
  4

  0
STYLE
  5
6B
330
3
100
AcDbSymbolTableRecord
100
AcDbTextStyleTableRecord
  2
SLDTEXTSTYLE0
 70
     0
 40
0.0
 41
0.75
 50
0.0
 71
     0
 42
0.2
  3
TXT
  4

  0
STYLE
  5
75
330
3
100
AcDbSymbolTableRecord
100
AcDbTextStyleTableRecord
  2
SLDTEXTSTYLE1
 70
     0
 40
0.0
 41
0.6
 50
0.0
 71
     0
 42
0.2
  3
TXT
  4

  0
STYLE
  5
9E
330
3
100
AcDbSymbolTableRecord
100
AcDbTextStyleTableRecord
  2
SLDTEXTSTYLE2
 70
     0
 40
0.0
 41
0.75
 50
0.0
 71
     0
 42
0.2
  3
TXT
  4
bigfont
  0
STYLE
  5
B3
330
3
100
AcDbSymbolTableRecord
100
AcDbTextStyleTableRecord
  2
SLDTEXTSTYLE3
 70
     0
 40
0.0
 41
0.7
 50
0.0
 71
     0
 42
0.2
  3
TXT
  4

  0
ENDTAB
  0
TABLE
  2
VIEW
  5
6
330
0
100
AcDbSymbolTable
 70
     0
  0
ENDTAB
  0
TABLE
  2
UCS
  5
7
330
0
100
AcDbSymbolTable
 70
     0
  0
ENDTAB
  0
TABLE
  2
APPID
  5
9
330
0
100
AcDbSymbolTable
 70
     1
  0
APPID
  5
12
330
9
100
AcDbSymbolTableRecord
100
AcDbRegAppTableRecord
  2
ACAD
 70
     0
  0
ENDTAB
  0
TABLE
  2
DIMSTYLE
  5
A
330
0
100
AcDbSymbolTable
 70
     5
100
AcDbDimStyleTable
  0
DIMSTYLE
105
27
330
A
100
AcDbSymbolTableRecord
100
AcDbDimStyleTableRecord
  2
ISO-25
 70
     0
 41
2.5
 42
0.625
 43
3.75
 44
1.25
 73
     0
 74
     0
 77
     1
 78
     8
140
2.5
141
2.5
143
0.0393700787
147
0.625
171
     3
172
     1
178
     0
271
     2
272
     2
274
     3
278
    44
283
     0
284
     8
340
11
  0
DIMSTYLE
105
C0
102
{ACAD_REACTORS
330
BF
102
}
330
A
100
AcDbSymbolTableRecord
100
AcDbDimStyleTableRecord
  2
SLDDIMSTYLE0
 70
     0
 41
3.175
 44
0.0
 45
0.000000001
 78
    12
 79
     3
140
2.1166666667
141
0.0
143
0.0393700787
147
0.5291666667
148
0.000000001
170
     1
173
     1
178
     0
271
     1
272
     1
276
     2
284
    12
340
6B
  0
DIMSTYLE
105
202
102
{ACAD_REACTORS
330
201
102
}
330
A
100
AcDbSymbolTableRecord
100
AcDbDimStyleTableRecord
  2
SLDDIMSTYLE1
 70
     0
 41
3.175
 44
0.0
 45
0.000000001
 78
     4
 79
     1
140
2.1166666667
141
0.0
143
0.0393700787
147
0.5291666667
148
0.000000001
170
     1
173
     1
178
     0
271
     1
272
     1
276
     2
284
    12
340
6B
  0
DIMSTYLE
105
213
102
{ACAD_REACTORS
330
212
102
}
330
A
100
AcDbSymbolTableRecord
100
AcDbDimStyleTableRecord
  2
SLDDIMSTYLE2
 70
     0
 41
3.175
 44
0.0
 45
0.000000001
 78
     4
 79
     1
140
2.1166666667
143
0.0393700787
147
0.5291666667
148
0.000000001
170
     1
172
     1
173
     1
178
     0
271
     1
272
     1
276
     2
284
    12
289
     0
340
6B
  0
DIMSTYLE
105
226
102
{ACAD_REACTORS
330
225
102
}
330
A
100
AcDbSymbolTableRecord
100
AcDbDimStyleTableRecord
  2
SLDDIMSTYLE3
 70
     0
 41
3.175
 44
0.0
 45
0.000000001
 78
    12
 79
     3
140
2.1166666667
143
0.0393700787
147
0.5291666667
148
0.000000001
170
     1
172
     1
173
     1
178
     0
271
     1
272
     1
276
     2
284
    12
289
     0
340
6B
  0
ENDTAB
  0
TABLE
  2
BLOCK_RECORD
  5
1
330
0
100
AcDbSymbolTable
 70
    12
  0
BLOCK_RECORD
  5
1F
330
1
100
AcDbSymbolTableRecord
100
AcDbBlockTableRecord
  2
*Model_Space
340
22
  0
BLOCK_RECORD
  5
1B
330
1
100
AcDbSymbolTableRecord
100
AcDbBlockTableRecord
  2
*Paper_Space
340
1E
  0
BLOCK_RECORD
  5
23
330
1
100
AcDbSymbolTableRecord
100
AcDbBlockTableRecord
  2
*Paper_Space0
340
26
  0
BLOCK_RECORD
  5
45
330
1
100
AcDbSymbolTableRecord
100
AcDbBlockTableRecord
  2
Third Angle Projection Block
340
0
102
{BLKREFS
331
6A
102
}
  0
BLOCK_RECORD
  5
7B
330
1
100
AcDbSymbolTableRecord
100
AcDbBlockTableRecord
  2
SW_NOTE_0
340
0
102
{BLKREFS
331
80
102
}
  0
BLOCK_RECORD
  5
81
330
1
100
AcDbSymbolTableRecord
100
AcDbBlockTableRecord
  2
SW_NOTE_1
340
0
102
{BLKREFS
331
86
102
}
  0
BLOCK_RECORD
  5
88
330
1
100
AcDbSymbolTableRecord
100
AcDbBlockTableRecord
  2
SW_NOTE_2
340
0
102
{BLKREFS
331
8D
102
}
  0
BLOCK_RECORD
  5
8F
330
1
100
AcDbSymbolTableRecord
100
AcDbBlockTableRecord
  2
SW_NOTE_3
340
0
102
{BLKREFS
331
95
102
}
  0
BLOCK_RECORD
  5
96
330
1
100
AcDbSymbolTableRecord
100
AcDbBlockTableRecord
  2
SW_NOTE_4
340
0
102
{BLKREFS
331
BA
102
}
  0
BLOCK_RECORD
  5
C1
330
1
100
AcDbSymbolTableRecord
100
AcDbBlockTableRecord
  2
*D7
340
0
  0
BLOCK_RECORD
  5
D0
330
1
100
AcDbSymbolTableRecord
100
AcDbBlockTableRecord
  2
SW_CENTERMARKSYMBOL_0
340
0
102
{BLKREFS
331
D7
102
}
  0
BLOCK_RECORD
  5
203
330
1
100
AcDbSymbolTableRecord
100
AcDbBlockTableRecord
  2
*D9
340
0
  0
BLOCK_RECORD
  5
214
330
1
100
AcDbSymbolTableRecord
100
AcDbBlockTableRecord
  2
*D10
340
0
  0
BLOCK_RECORD
  5
227
330
1
100
AcDbSymbolTableRecord
100
AcDbBlockTableRecord
  2
*D11
340
0
  0
ENDTAB
  0
ENDSEC
  0
SECTION
  2
BLOCKS
  0
BLOCK
  5
20
330
1F
100
AcDbEntity
  8
0
100
AcDbBlockBegin
  2
*Model_Space
 70
     0
 10
0.0
 20
0.0
 30
0.0
  3
*Model_Space
  1

  0
ENDBLK
  5
21
330
1F
100
AcDbEntity
  8
0
100
AcDbBlockEnd
  0
BLOCK
  5
1C
330
1B
100
AcDbEntity
 67
     1
  8
0
100
AcDbBlockBegin
  2
*Paper_Space
 70
     0
 10
0.0
 20
0.0
 30
0.0
  3
*Paper_Space
  1

  0
ENDBLK
  5
1D
330
1B
100
AcDbEntity
 67
     1
  8
0
100
AcDbBlockEnd
  0
BLOCK
  5
24
330
23
100
AcDbEntity
  8
0
100
AcDbBlockBegin
  2
*Paper_Space0
 70
     0
 10
0.0
 20
0.0
 30
0.0
  3
*Paper_Space0
  1

  0
ENDBLK
  5
25
330
23
100
AcDbEntity
  8
0
100
AcDbBlockEnd
  0
BLOCK
  5
46
330
45
100
AcDbEntity
  8
0
100
AcDbBlockBegin
  2
Third Angle Projection Block
 70
     0
 10
0.0
 20
0.0
 30
0.0
  3
Third Angle Projection Block
  1

  0
CIRCLE
  5
48
330
45
100
AcDbEntity
  8
0
  6
Continuous
 62
     7
370
    30
100
AcDbCircle
 10
101.4766388944
 20
18.9404083667
 30
0.0
 40
1.768227153674871
  0
CIRCLE
  5
49
330
45
100
AcDbEntity
  8
0
  6
Continuous
 62
     7
370
    30
100
AcDbCircle
 10
101.4766388944
 20
18.9404083667
 30
0.0
 40
3.901228248531818
  0
LINE
  5
4A
330
45
100
AcDbEntity
  8
0
  6
CENTERX2
 62
     7
370
     0
100
AcDbLine
 10
110.1367822585
 20
18.9404083667
 30
0.0
 11
119.4527334874
 21
18.9404083667
 31
0.0
  0
LINE
  5
4B
330
45
100
AcDbEntity
  8
0
  6
Continuous
 62
     7
370
    30
100
AcDbLine
 10
111.0016388944
 20
20.7086355204
 30
0.0
 11
111.0016388944
 21
17.172181213
 31
0.0
  0
LINE
  5
4C
330
45
100
AcDbEntity
  8
0
  6
Continuous
 62
     7
370
    30
100
AcDbLine
 10
111.0016388944
 20
17.172181213
 30
0.0
 11
118.6216388944
 21
15.1304083667
 31
0.0
  0
LINE
  5
4D
330
45
100
AcDbEntity
  8
0
  6
Continuous
 62
     7
370
    30
100
AcDbLine
 10
118.6216388944
 20
15.1304083667
 30
0.0
 11
118.6216388944
 21
22.7504083667
 31
0.0
  0
LINE
  5
4E
330
45
100
AcDbEntity
  8
0
  6
Continuous
 62
     7
370
    30
100
AcDbLine
 10
118.6216388944
 20
22.7504083667
 30
0.0
 11
111.0016388944
 21
20.7086355204
 31
0.0
  0
LINE
  5
4F
330
45
100
AcDbEntity
  8
0
  6
CENTERX2
 62
     7
370
     0
100
AcDbLine
 10
96.6025854619
 20
18.9404083667
 30
0.0
 11
106.3506923269
 21
18.9404083667
 31
0.0
  0
LINE
  5
50
330
45
100
AcDbEntity
  8
0
  6
CENTERX2
 62
     7
370
     0
100
AcDbLine
 10
101.4766388944
 20
23.8144617992
 30
0.0
 11
101.4766388944
 21
14.0663549342
 31
0.0
  0
POINT
  5
51
330
45
100
AcDbEntity
  8
0
  6
Continuous
 62
     7
370
     0
100
AcDbPoint
 10
101.4766388944
 20
18.9404083667
 30
0.0
  0
ENDBLK
  5
47
330
45
100
AcDbEntity
  8
0
100
AcDbBlockEnd
  0
BLOCK
  5
7C
330
7B
100
AcDbEntity
  8
0
100
AcDbBlockBegin
  2
SW_NOTE_0
 70
     0
 10
0.0
 20
0.0
 30
0.0
  3
SW_NOTE_0
  1

  0
MTEXT
  5
7E
330
7B
100
AcDbEntity
  8
0
  6
Continuous
 62
     0
370
     0
100
AcDbMText
 10
19.90725
 20
1.9645392354
 30
0.0
 40
1.524
 41
0.0
 71
     2
 72
     1
  1
VALUES IN PARENTHESIS ARE CALCULATED
  7
SLDTEXTSTYLE0
 73
     1
 44
1.0
  0
MTEXT
  5
7F
330
7B
100
AcDbEntity
  8
0
  6
Continuous
 62
     0
370
     0
100
AcDbMText
 10
19.8778795174
 20
-0.5594606586
 30
0.0
 40
1.524
 41
0.0
 71
     2
 72
     1
  1
AND MAY CONTAIN ROUNDOFF ERRORS
  7
SLDTEXTSTYLE0
 73
     1
 44
1.0
  0
ENDBLK
  5
7D
330
7B
100
AcDbEntity
  8
0
100
AcDbBlockEnd
  0
BLOCK
  5
82
330
81
100
AcDbEntity
  8
0
100
AcDbBlockBegin
  2
SW_NOTE_1
 70
     0
 10
0.0
 20
0.0
 30
0.0
  3
SW_NOTE_1
  1

  0
MTEXT
  5
84
330
81
100
AcDbEntity
  8
0
  6
Continuous
 62
     0
370
     0
100
AcDbMText
 10
0.0
 20
2.7285267159
 30
0.0
 40
2.1166666667
 41
0.0
 71
     1
 72
     1
  1
DRAWING
  7
SLDTEXTSTYLE0
 73
     1
 44
1.0
  0
MTEXT
  5
85
330
81
100
AcDbEntity
  8
0
  6
Continuous
 62
     0
370
     0
100
AcDbMText
 10
0.0
 20
-0.0936954723
 30
0.0
 40
2.1166666667
 41
0.0
 71
     1
 72
     1
  1
PROJECTION
  7
SLDTEXTSTYLE0
 73
     1
 44
1.0
  0
ENDBLK
  5
83
330
81
100
AcDbEntity
  8
0
100
AcDbBlockEnd
  0
BLOCK
  5
89
330
88
100
AcDbEntity
  8
0
100
AcDbBlockBegin
  2
SW_NOTE_2
 70
     0
 10
0.0
 20
0.0
 30
0.0
  3
SW_NOTE_2
  1

  0
MTEXT
  5
8B
330
88
100
AcDbEntity
  8
0
  6
Continuous
 62
     0
370
     0
100
AcDbMText
 10
25.052734375
 20
4.0927900738
 30
0.0
 40
3.175
 41
0.0
 71
     2
 72
     1
  1
FOR INFORMATION ONLY
  7
SLDTEXTSTYLE0
 73
     1
 44
1.0
  0
MTEXT
  5
8C
330
88
100
AcDbEntity
  8
0
  6
Continuous
 62
     0
370
     0
100
AcDbMText
 10
25.3768468589
 20
-0.1405432084
 30
0.0
 40
3.175
 41
0.0
 71
     2
 72
     1
  1
NOT FOR MANUFACTURING PURPOSES
  7
SLDTEXTSTYLE0
 73
     1
 44
1.0
  0
ENDBLK
  5
8A
330
88
100
AcDbEntity
  8
0
100
AcDbBlockEnd
  0
BLOCK
  5
90
330
8F
100
AcDbEntity
  8
0
100
AcDbBlockBegin
  2
SW_NOTE_3
 70
     0
 10
0.0
 20
0.0
 30
0.0
  3
SW_NOTE_3
  1

  0
MTEXT
  5
92
330
8F
100
AcDbEntity
  8
0
  6
Continuous
 62
     0
370
     0
100
AcDbMText
 10
1.9016927083
 20
3.4106583948
 30
0.0
 40
2.6458333333
 41
0.0
 71
     2
 72
     1
  1
%%c
  7
SLDTEXTSTYLE0
 73
     1
 44
1.0
  0
MTEXT
  5
93
330
8F
100
AcDbEntity
  8
0
  6
Continuous
 62
     0
370
     0
100
AcDbMText
 10
29.5425665677
 20
3.4106583948
 30
0.0
 40
2.6458333333
 41
0.0
 71
     2
 72
     1
  1
50.8mm, f= 50.0mm CONCAVE
  7
SLDTEXTSTYLE0
 73
     1
 44
1.0
  0
MTEXT
  5
94
330
8F
100
AcDbEntity
  8
0
  6
Continuous
 62
     0
370
     0
100
AcDbMText
 10
27.6865657965
 20
-0.1171193403
 30
0.0
 40
2.6458333333
 41
0.0
 71
     2
 72
     1
  1
PROTECTED ALUMINUM MIRROR
  7
SLDTEXTSTYLE0
 73
     1
 44
1.0
  0
ENDBLK
  5
91
330
8F
100
AcDbEntity
  8
0
100
AcDbBlockEnd
  0
BLOCK
  5
97
330
96
100
AcDbEntity
  8
0
100
AcDbBlockBegin
  2
SW_NOTE_4
 70
     0
 10
0.0
 20
0.0
 30
0.0
  3
SW_NOTE_4
  1

  0
MTEXT
  5
99
330
96
100
AcDbEntity
  8
0
  6
Continuous
 62
     0
370
     0
100
AcDbMText
 10
0.0
 20
3.0695925553
 30
0.0
 40
2.38125
 41
0.0
 71
     1
 72
     1
  1
NOTES/SPECIFICATIONS:
  7
SLDTEXTSTYLE0
 73
     1
 44
1.0
  0
MTEXT
  5
9A
330
96
100
AcDbEntity
  8
0
  6
Continuous
 62
     0
370
     0
100
AcDbMText
 10
9.9999997765
 20
-3.2804073679
 30
0.0
 40
2.38125
 41
0.0
 71
     1
 72
     1
  1
CLEAR APERTURE: >90% DIAMETER
  7
SLDTEXTSTYLE0
 73
     1
 44
1.0
  0
MTEXT
  5
9B
330
96
100
AcDbEntity
  8
0
  6
Continuous
 62
     0
370
     0
100
AcDbMText
 10
0.0
 20
-3.2804073679
 30
0.0
 40
2.38125
 41
0.0
 71
     1
 72
     1
  1
1.
  7
SLDTEXTSTYLE0
 73
     1
 44
1.0
  0
MTEXT
  5
9C
330
96
100
AcDbEntity
  8
0
  6
Continuous
 62
     0
370
     0
100
AcDbMText
 10
9.9999997765
 20
-6.5976282029
 30
0.0
 40
2.38125
 41
0.0
 71
     1
 72
     1
  1
SURFACE ACCURACY
  7
SLDTEXTSTYLE0
 73
     1
 44
1.0
  0
MTEXT
  5
9D
330
96
100
AcDbEntity
  8
0
  6
Continuous
 62
     0
370
     0
100
AcDbMText
 10
42.9582651705
 20
-6.6891910621
 30
0.0
 40
2.286
 41
0.0
 71
     1
 72
     1
  1
:
  7
SLDTEXTSTYLE0
 73
     1
 44
1.0
  0
MTEXT
  5
9F
330
96
100
AcDbEntity
  8
0
  6
Continuous
 62
     0
370
     0
100
AcDbMText
 10
44.6957833081
 20
-6.5976282029
 30
0.0
 40
2.38125
 41
0.0
 71
     1
 72
     1
  1
\M+183C9/
  7
SLDTEXTSTYLE2
 73
     1
 44
1.0
  0
MTEXT
  5
A0
330
96
100
AcDbEntity
  8
0
  6
Continuous
 62
     0
370
     0
100
AcDbMText
 10
47.7715637535
 20
-6.6891910621
 30
0.0
 40
2.286
 41
0.0
 71
     1
 72
     1
  1
4
  7
SLDTEXTSTYLE0
 73
     1
 44
1.0
  0
MTEXT
  5
A1
330
96
100
AcDbEntity
  8
0
  6
Continuous
 62
     0
370
     0
100
AcDbMText
 10
50.3052156419
 20
-6.5976282029
 30
0.0
 40
2.38125
 41
0.0
 71
     1
 72
     1
  1
AT 632.8nm OVER CLEAR APERTURE
  7
SLDTEXTSTYLE0
 73
     1
 44
1.0
  0
MTEXT
  5
A2
330
96
100
AcDbEntity
  8
0
  6
Continuous
 62
     0
370
     0
100
AcDbMText
 10
0.0
 20
-6.5976282029
 30
0.0
 40
2.38125
 41
0.0
 71
     1
 72
     1
  1
2.
  7
SLDTEXTSTYLE0
 73
     1
 44
1.0
  0
MTEXT
  5
A3
330
96
100
AcDbEntity
  8
0
  6
Continuous
 62
     0
370
     0
100
AcDbMText
 10
9.9999997765
 20
-9.7726281646
 30
0.0
 40
2.38125
 41
0.0
 71
     1
 72
     1
  1
SURFACE QUALITY: 40-20 SCRATCH-DIG
  7
SLDTEXTSTYLE0
 73
     1
 44
1.0
  0
MTEXT
  5
A4
330
96
100
AcDbEntity
  8
0
  6
Continuous
 62
     0
370
     0
100
AcDbMText
 10
0.0
 20
-9.7726281646
 30
0.0
 40
2.38125
 41
0.0
 71
     1
 72
     1
  1
3.
  7
SLDTEXTSTYLE0
 73
     1
 44
1.0
  0
MTEXT
  5
A5
330
96
100
AcDbEntity
  8
0
  6
Continuous
 62
     0
370
     0
100
AcDbMText
 10
9.9999997765
 20
-12.9476281262
 30
0.0
 40
2.38125
 41
0.0
 71
     1
 72
     1
  1
BACK SURFACE: FINE GROUND
  7
SLDTEXTSTYLE0
 73
     1
 44
1.0
  0
MTEXT
  5
A6
330
96
100
AcDbEntity
  8
0
  6
Continuous
 62
     0
370
     0
100
AcDbMText
 10
0.0
 20
-12.9476281262
 30
0.0
 40
2.38125
 41
0.0
 71
     1
 72
     1
  1
4.
  7
SLDTEXTSTYLE0
 73
     1
 44
1.0
  0
MTEXT
  5
A7
330
96
100
AcDbEntity
  8
0
  6
Continuous
 62
     0
370
     0
100
AcDbMText
 10
9.9999997765
 20
-16.1226280878
 30
0.0
 40
2.38125
 41
0.0
 71
     1
 72
     1
  1
THICKNESS TOLERANCE:
  7
SLDTEXTSTYLE0
 73
     1
 44
1.0
  0
MTEXT
  5
A8
330
96
100
AcDbEntity
  8
0
  6
Continuous
 62
     0
370
     0
100
AcDbMText
 10
46.741804108
 20
-16.1226280878
 30
0.0
 40
2.38125
 41
0.0
 71
     1
 72
     1
  1
%%p
  7
SLDTEXTSTYLE0
 73
     1
 44
1.0
  0
MTEXT
  5
A9
330
96
100
AcDbEntity
  8
0
  6
Continuous
 62
     0
370
     0
100
AcDbMText
 10
49.0119289607
 20
-16.1226280878
 30
0.0
 40
2.38125
 41
0.0
 71
     1
 72
     1
  1
0.2 mm
  7
SLDTEXTSTYLE0
 73
     1
 44
1.0
  0
MTEXT
  5
AA
330
96
100
AcDbEntity
  8
0
  6
Continuous
 62
     0
370
     0
100
AcDbMText
 10
0.0
 20
-16.1226280878
 30
0.0
 40
2.38125
 41
0.0
 71
     1
 72
     1
  1
5.
  7
SLDTEXTSTYLE0
 73
     1
 44
1.0
  0
MTEXT
  5
AB
330
96
100
AcDbEntity
  8
0
  6
Continuous
 62
     0
370
     0
100
AcDbMText
 10
9.9999997765
 20
-19.2976280495
 30
0.0
 40
2.38125
 41
0.0
 71
     1
 72
     1
  1
DIAMETER TOLERANCE: + 0.0/-0.2 mm
  7
SLDTEXTSTYLE0
 73
     1
 44
1.0
  0
MTEXT
  5
AC
330
96
100
AcDbEntity
  8
0
  6
Continuous
 62
     0
370
     0
100
AcDbMText
 10
0.0
 20
-19.2976280495
 30
0.0
 40
2.38125
 41
0.0
 71
     1
 72
     1
  1
6.
  7
SLDTEXTSTYLE0
 73
     1
 44
1.0
  0
MTEXT
  5
AD
330
96
100
AcDbEntity
  8
0
  6
Continuous
 62
     0
370
     0
100
AcDbMText
 10
9.9999997765
 20
-22.4726280111
 30
0.0
 40
2.38125
 41
0.0
 71
     1
 72
     1
  1
COATING: PROTECTED ALUMINUM
  7
SLDTEXTSTYLE0
 73
     1
 44
1.0
  0
MTEXT
  5
AE
330
96
100
AcDbEntity
  8
0
  6
Continuous
 62
     0
370
     0
100
AcDbMText
 10
0.0
 20
-22.4726280111
 30
0.0
 40
2.38125
 41
0.0
 71
     1
 72
     1
  1
7.
  7
SLDTEXTSTYLE0
 73
     1
 44
1.0
  0
MTEXT
  5
AF
330
96
100
AcDbEntity
  8
0
  6
Continuous
 62
     0
370
     0
100
AcDbMText
 10
10.0
 20
-25.6476279727
 30
0.0
 40
2.38125
 41
0.0
 71
     1
 72
     1
  1
Ravg: >90% FROM 450nm - 2µm
  7
SLDTEXTSTYLE0
 73
     1
 44
1.0
  0
MTEXT
  5
B0
330
96
100
AcDbEntity
  8
0
  6
Continuous
 62
     0
370
     0
100
AcDbMText
 10
10.0
 20
-28.8226279343
 30
0.0
 40
2.38125
 41
0.0
 71
     1
 72
     1
  1
Ravg: >95% FROM 2µm - 20µm
  7
SLDTEXTSTYLE0
 73
     1
 44
1.0
  0
MTEXT
  5
B1
330
96
100
AcDbEntity
  8
0
  6
Continuous
 62
     0
370
     0
100
AcDbMText
 10
10.0
 20
-31.997627896
 30
0.0
 40
2.38125
 41
0.0
 71
     1
 72
     1
  1
AOI: 0
  7
SLDTEXTSTYLE0
 73
     1
 44
1.0
  0
MTEXT
  5
B2
330
96
100
AcDbEntity
  8
0
  6
Continuous
 62
     0
370
     0
100
AcDbMText
 10
19.344201535
 20
-31.997627896
 30
0.0
 40
2.38125
 41
0.0
 71
     1
 72
     1
  1
%%d
  7
SLDTEXTSTYLE0
 73
     1
 44
1.0
  0
MTEXT
  5
B4
330
96
100
AcDbEntity
  8
0
  6
Continuous
 62
     0
370
     0
100
AcDbMText
 10
21.7505871639
 20
-31.997627896
 30
0.0
 40
2.38125
 41
0.0
 71
     1
 72
     1
  1
TO 45
  7
SLDTEXTSTYLE3
 73
     1
 44
1.0
  0
MTEXT
  5
B5
330
96
100
AcDbEntity
  8
0
  6
Continuous
 62
     0
370
     0
100
AcDbMText
 10
30.2459171414
 20
-31.997627896
 30
0.0
 40
2.38125
 41
0.0
 71
     1
 72
     1
  1
%%d
  7
SLDTEXTSTYLE0
 73
     1
 44
1.0
  0
MTEXT
  5
B6
330
96
100
AcDbEntity
  8
0
  6
Continuous
 62
     0
370
     0
100
AcDbMText
 10
9.9999997765
 20
-35.1726278576
 30
0.0
 40
2.38125
 41
0.0
 71
     1
 72
     1
  1
DAMAGE THRESHOLD: 0.3J/cm
  7
SLDTEXTSTYLE0
 73
     1
 44
1.0
  0
MTEXT
  5
B7
330
96
100
AcDbEntity
  8
0
  6
Continuous
 62
     0
370
     0
100
AcDbMText
 10
56.9326747209
 20
-35.1257800342
 30
0.0
 40
1.3229166667
 41
0.0
 71
     1
 72
     1
  1
2
  7
SLDTEXTSTYLE0
 73
     1
 44
1.0
  0
MTEXT
  5
B8
330
96
100
AcDbEntity
  8
0
  6
Continuous
 62
     0
370
     0
100
AcDbMText
 10
58.8031298429
 20
-35.1726278576
 30
0.0
 40
2.38125
 41
0.0
 71
     1
 72
     1
  1
10ns PULSE, 10Hz AT 1064nm
  7
SLDTEXTSTYLE0
 73
     1
 44
1.0
  0
MTEXT
  5
B9
330
96
100
AcDbEntity
  8
0
  6
Continuous
 62
     0
370
     0
100
AcDbMText
 10
0.0
 20
-35.1726278576
 30
0.0
 40
2.38125
 41
0.0
 71
     1
 72
     1
  1
8.
  7
SLDTEXTSTYLE0
 73
     1
 44
1.0
  0
ENDBLK
  5
98
330
96
100
AcDbEntity
  8
0
100
AcDbBlockEnd
  0
BLOCK
  5
C2
330
C1
100
AcDbEntity
  8
0
100
AcDbBlockBegin
  2
*D7
 70
     1
 10
0.0
 20
0.0
 30
0.0
  3
*D7
  1

  0
SOLID
  5
C4
330
C1
100
AcDbEntity
  8
0
  6
Continuous
 62
     7
370
     0
100
AcDbTrace
 10
82.8822301687
 20
88.5611872209
 30
0.0
 11
84.7672567002
 21
85.9563141
 31
0.0
 12
85.4859053354
 22
86.6745063717
 32
0.0
 13
85.4859053354
 23
86.6745063717
 33
0.0
  0
LINE
  5
C5
330
C1
100
AcDbEntity
  8
0
  6
Continuous
 62
     7
370
     0
100
AcDbLine
 10
98.0574727423
 20
77.8717972567
 30
0.0
 11
98.0574727423
 21
75.0131904761
 31
0.0
  0
LINE
  5
C6
330
C1
100
AcDbEntity
  8
0
  6
Continuous
 62
     7
370
     0
100
AcDbLine
 10
98.0574727423
 20
75.0131904761
 30
0.0
 11
98.4866479982
 21
75.0131904761
 31
0.0
  0
LINE
  5
C7
330
C1
100
AcDbEntity
  8
0
  6
Continuous
 62
     7
370
     0
100
AcDbLine
 10
98.0574727423
 20
77.8717972567
 30
0.0
 11
98.4866479982
 21
77.8717972567
 31
0.0
  0
LINE
  5
C8
330
C1
100
AcDbEntity
  8
0
  6
Continuous
 62
     7
370
     0
100
AcDbLine
 10
107.5292859781
 20
77.8717972567
 30
0.0
 11
107.5292859781
 21
75.0131904761
 31
0.0
  0
LINE
  5
C9
330
C1
100
AcDbEntity
  8
0
  6
Continuous
 62
     7
370
     0
100
AcDbLine
 10
107.5292859781
 20
75.0131904761
 30
0.0
 11
107.1001107222
 21
75.0131904761
 31
0.0
  0
LINE
  5
CA
330
C1
100
AcDbEntity
  8
0
  6
Continuous
 62
     7
370
     0
100
AcDbLine
 10
107.5292859781
 20
77.8717972567
 30
0.0
 11
107.1001107222
 21
77.8717972567
 31
0.0
  0
LINE
  5
CB
330
C1
100
AcDbEntity
  8
0
  6
Continuous
 62
     7
370
     0
100
AcDbLine
 10
82.8822301687
 20
88.5611872209
 30
0.0
 11
91.6322966362
 21
79.8055606672
 31
0.0
  0
LINE
  5
CC
330
C1
100
AcDbEntity
  8
0
  6
Continuous
 62
     7
370
     0
100
AcDbLine
 10
91.6322966362
 20
79.8055606672
 30
0.0
 11
95.4422966362
 21
79.8055606672
 31
0.0
  0
MTEXT
  5
CD
330
C1
100
AcDbEntity
  8
0
  6
Continuous
 62
     7
370
     0
100
AcDbMText
 10
97.1991222304
 20
80.8525538662
 30
0.0
 40
2.1166666667
 41
0.0
 71
     1
 72
     1
  1
%%c
  7
SLDTEXTSTYLE0
 73
     1
 44
1.0
  0
MTEXT
  5
CE
330
C1
100
AcDbEntity
  8
0
  6
Continuous
 62
     7
370
     0
100
AcDbMText
 10
100.2258823511
 20
80.8525538662
 30
0.0
 40
2.1166666667
 41
0.0
 71
     1
 72
     1
  1
50.8mm
  7
SLDTEXTSTYLE0
 73
     1
 44
1.0
  0
MTEXT
  5
CF
330
C1
100
AcDbEntity
  8
0
  6
Continuous
 62
     7
370
     0
100
AcDbMText
 10
98.9158232542
 20
77.4894870655
 30
0.0
 40
2.1166666667
 41
0.0
 71
     1
 72
     1
  1
2.00in
  7
SLDTEXTSTYLE0
 73
     1
 44
1.0
  0
ENDBLK
  5
C3
330
C1
100
AcDbEntity
  8
0
100
AcDbBlockEnd
  0
BLOCK
  5
D1
330
D0
100
AcDbEntity
  8
0
100
AcDbBlockBegin
  2
SW_CENTERMARKSYMBOL_0
 70
     0
 10
0.0
 20
0.0
 30
0.0
  3
SW_CENTERMARKSYMBOL_0
  1

  0
LINE
  5
D3
330
D0
100
AcDbEntity
  8
0
  6
Continuous
 62
     0
370
     0
100
AcDbLine
 10
0.0
 20
0.0
 30
0.0
 11
0.0
 21
2.0
 31
0.0
  0
LINE
  5
D4
330
D0
100
AcDbEntity
  8
0
  6
Continuous
 62
     0
370
     0
100
AcDbLine
 10
0.0
 20
0.0
 30
0.0
 11
-2.0
 21
0.0
 31
0.0
  0
LINE
  5
D5
330
D0
100
AcDbEntity
  8
0
  6
Continuous
 62
     0
370
     0
100
AcDbLine
 10
0.0
 20
0.0
 30
0.0
 11
0.0
 21
-2.0
 31
0.0
  0
LINE
  5
D6
330
D0
100
AcDbEntity
  8
0
  6
Continuous
 62
     0
370
     0
100
AcDbLine
 10
0.0
 20
0.0
 30
0.0
 11
2.0
 21
0.0
 31
0.0
  0
ENDBLK
  5
D2
330
D0
100
AcDbEntity
  8
0
100
AcDbBlockEnd
  0
BLOCK
  5
204
330
203
100
AcDbEntity
  8
0
100
AcDbBlockBegin
  2
*D9
 70
     1
 10
0.0
 20
0.0
 30
0.0
  3
*D9
  1

  0
SOLID
  5
206
330
203
100
AcDbEntity
  8
0
  6
Continuous
 62
     7
370
     0
100
AcDbTrace
 10
135.6477230835
 20
90.9257032707
 30
0.0
 11
138.7045865744
 21
89.928570081
 31
0.0
 12
138.8630998447
 22
90.9321285213
 32
0.0
 13
138.8630998447
 23
90.9321285213
 33
0.0
  0
LINE
  5
207
330
203
100
AcDbEntity
  8
0
  6
Continuous
 62
     7
370
     0
100
AcDbLine
 10
157.9614380632
 20
86.4555807325
 30
0.0
 11
157.9614380632
 21
83.5969739519
 31
0.0
  0
LINE
  5
208
330
203
100
AcDbEntity
  8
0
  6
Continuous
 62
     7
370
     0
100
AcDbLine
 10
157.9614380632
 20
83.5969739519
 30
0.0
 11
158.3906133192
 21
83.5969739519
 31
0.0
  0
LINE
  5
209
330
203
100
AcDbEntity
  8
0
  6
Continuous
 62
     7
370
     0
100
AcDbLine
 10
157.9614380632
 20
86.4555807325
 30
0.0
 11
158.3906133192
 21
86.4555807325
 31
0.0
  0
LINE
  5
20A
330
203
100
AcDbEntity
  8
0
  6
Continuous
 62
     7
370
     0
100
AcDbLine
 10
167.4332512991
 20
86.4555807325
 30
0.0
 11
167.4332512991
 21
83.5969739519
 31
0.0
  0
LINE
  5
20B
330
203
100
AcDbEntity
  8
0
  6
Continuous
 62
     7
370
     0
100
AcDbLine
 10
167.4332512991
 20
83.5969739519
 30
0.0
 11
167.0040760431
 21
83.5969739519
 31
0.0
  0
LINE
  5
20C
330
203
100
AcDbEntity
  8
0
  6
Continuous
 62
     7
370
     0
100
AcDbLine
 10
167.4332512991
 20
86.4555807325
 30
0.0
 11
167.0040760431
 21
86.4555807325
 31
0.0
  0
LINE
  5
20D
330
203
100
AcDbEntity
  8
0
  6
Continuous
 62
     7
370
     0
100
AcDbLine
 10
135.6477230835
 20
90.9257032707
 30
0.0
 11
151.7055875514
 21
88.3893441429
 31
0.0
  0
LINE
  5
20E
330
203
100
AcDbEntity
  8
0
  6
Continuous
 62
     7
370
     0
100
AcDbLine
 10
151.7055875514
 20
88.3893441429
 30
0.0
 11
155.5155875514
 21
88.3893441429
 31
0.0
  0
MTEXT
  5
20F
330
203
100
AcDbEntity
  8
0
  6
Continuous
 62
     7
370
     0
100
AcDbMText
 10
157.1030875514
 20
89.436337342
 30
0.0
 40
2.1166666667
 41
0.0
 71
     1
 72
     1
  1
R
  7
SLDTEXTSTYLE0
 73
     1
 44
1.0
  0
MTEXT
  5
210
330
203
100
AcDbEntity
  8
0
  6
Continuous
 62
     7
370
     0
100
AcDbMText
 10
158.8145785568
 20
89.436337342
 30
0.0
 40
2.1166666667
 41
0.0
 71
     1
 72
     1
  1
100.0mm
  7
SLDTEXTSTYLE0
 73
     1
 44
1.0
  0
MTEXT
  5
211
330
203
100
AcDbEntity
  8
0
  6
Continuous
 62
     7
370
     0
100
AcDbMText
 10
158.8197885751
 20
86.0732705413
 30
0.0
 40
2.1166666667
 41
0.0
 71
     1
 72
     1
  1
3.94in
  7
SLDTEXTSTYLE0
 73
     1
 44
1.0
  0
ENDBLK
  5
205
330
203
100
AcDbEntity
  8
0
100
AcDbBlockEnd
  0
BLOCK
  5
215
330
214
100
AcDbEntity
  8
0
100
AcDbBlockBegin
  2
*D10
 70
     1
 10
0.0
 20
0.0
 30
0.0
  3
*D10
  1

  0
SOLID
  5
217
330
214
100
AcDbEntity
  8
0
  6
Continuous
 62
     7
370
     0
100
AcDbTrace
 10
145.8722860437
 20
141.9274031008
 30
0.0
 11
149.0472860437
 21
141.4194031008
 31
0.0
 12
149.0472860437
 22
142.4354031008
 32
0.0
 13
149.0472860437
 23
142.4354031008
 33
0.0
  0
SOLID
  5
218
330
214
100
AcDbEntity
  8
0
  6
Continuous
 62
     7
370
     0
100
AcDbTrace
 10
136.8722860437
 20
141.9274031008
 30
0.0
 11
133.6972860437
 21
142.4354031008
 31
0.0
 12
133.6972860437
 22
141.4194031008
 32
0.0
 13
133.6972860437
 23
141.4194031008
 33
0.0
  0
LINE
  5
219
330
214
100
AcDbEntity
  8
0
  6
Continuous
 62
     7
370
     0
100
AcDbLine
 10
155.0015025542
 20
141.6751730907
 30
0.0
 11
155.0015025542
 21
138.8165663101
 31
0.0
  0
LINE
  5
21A
330
214
100
AcDbEntity
  8
0
  6
Continuous
 62
     7
370
     0
100
AcDbLine
 10
155.0015025542
 20
138.8165663101
 30
0.0
 11
155.4306778102
 21
138.8165663101
 31
0.0
  0
LINE
  5
21B
330
214
100
AcDbEntity
  8
0
  6
Continuous
 62
     7
370
     0
100
AcDbLine
 10
155.0015025542
 20
141.6751730907
 30
0.0
 11
155.4306778102
 21
141.6751730907
 31
0.0
  0
LINE
  5
21C
330
214
100
AcDbEntity
  8
0
  6
Continuous
 62
     7
370
     0
100
AcDbLine
 10
164.4733157901
 20
141.6751730907
 30
0.0
 11
164.4733157901
 21
138.8165663101
 31
0.0
  0
LINE
  5
21D
330
214
100
AcDbEntity
  8
0
  6
Continuous
 62
     7
370
     0
100
AcDbLine
 10
164.4733157901
 20
138.8165663101
 30
0.0
 11
164.0441405341
 21
138.8165663101
 31
0.0
  0
LINE
  5
21E
330
214
100
AcDbEntity
  8
0
  6
Continuous
 62
     7
370
     0
100
AcDbLine
 10
164.4733157901
 20
141.6751730907
 30
0.0
 11
164.0441405341
 21
141.6751730907
 31
0.0
  0
LINE
  5
21F
330
214
100
AcDbEntity
  8
0
  6
Continuous
 62
     7
370
     0
100
AcDbLine
 10
145.8722860437
 20
132.9974031008
 30
0.0
 11
145.8722860437
 21
143.7054031008
 31
0.0
  0
LINE
  5
220
330
214
100
AcDbEntity
  8
0
  6
Continuous
 62
     7
370
     0
100
AcDbLine
 10
136.8722860437
 20
107.7974031008
 30
0.0
 11
136.8722860437
 21
143.7054031008
 31
0.0
  0
LINE
  5
221
330
214
100
AcDbEntity
  8
0
  6
Continuous
 62
     7
370
     0
100
AcDbLine
 10
145.8722860437
 20
141.9274031008
 30
0.0
 11
152.1264767864
 21
141.9274031008
 31
0.0
  0
LINE
  5
222
330
214
100
AcDbEntity
  8
0
  6
Continuous
 62
     7
370
     0
100
AcDbLine
 10
136.8722860437
 20
141.9274031008
 30
0.0
 11
130.5222860437
 21
141.9274031008
 31
0.0
  0
MTEXT
  5
223
330
214
100
AcDbEntity
  8
0
  6
Continuous
 62
     7
370
     0
100
AcDbMText
 10
155.1382655341
 20
144.6559297002
 30
0.0
 40
2.1166666667
 41
0.0
 71
     1
 72
     1
  1
9.0mm
  7
SLDTEXTSTYLE0
 73
     1
 44
1.0
  0
MTEXT
  5
224
330
214
100
AcDbEntity
  8
0
  6
Continuous
 62
     7
370
     0
100
AcDbMText
 10
155.8598530661
 20
141.2928628995
 30
0.0
 40
2.1166666667
 41
0.0
 71
     1
 72
     1
  1
0.35in
  7
SLDTEXTSTYLE0
 73
     1
 44
1.0
  0
ENDBLK
  5
216
330
214
100
AcDbEntity
  8
0
100
AcDbBlockEnd
  0
BLOCK
  5
228
330
227
100
AcDbEntity
  8
0
100
AcDbBlockBegin
  2
*D11
 70
     1
 10
0.0
 20
0.0
 30
0.0
  3
*D11
  1

  0
SOLID
  5
22A
330
227
100
AcDbEntity
  8
0
  6
Continuous
 62
     7
370
     0
100
AcDbTrace
 10
145.8722860437
 20
153.9274031008
 30
0.0
 11
149.0472860437
 21
153.4194031008
 31
0.0
 12
149.0472860437
 22
154.4354031008
 32
0.0
 13
149.0472860437
 23
154.4354031008
 33
0.0
  0
SOLID
  5
22B
330
227
100
AcDbEntity
  8
0
  6
Continuous
 62
     7
370
     0
100
AcDbTrace
 10
133.6433533814
 20
153.9274031008
 30
0.0
 11
130.4683533814
 21
154.4354031008
 31
0.0
 12
130.4683533814
 22
153.4194031008
 32
0.0
 13
130.4683533814
 23
153.4194031008
 33
0.0
  0
LINE
  5
22C
330
227
100
AcDbEntity
  8
0
  6
Continuous
 62
     7
370
     0
100
AcDbLine
 10
154.4506150016
 20
153.6751730907
 30
0.0
 11
154.4506150016
 21
150.8165663101
 31
0.0
  0
LINE
  5
22D
330
227
100
AcDbEntity
  8
0
  6
Continuous
 62
     7
370
     0
100
AcDbLine
 10
154.4506150016
 20
150.8165663101
 30
0.0
 11
154.8797902576
 21
150.8165663101
 31
0.0
  0
LINE
  5
22E
330
227
100
AcDbEntity
  8
0
  6
Continuous
 62
     7
370
     0
100
AcDbLine
 10
154.4506150016
 20
153.6751730907
 30
0.0
 11
154.8797902576
 21
153.6751730907
 31
0.0
  0
LINE
  5
22F
330
227
100
AcDbEntity
  8
0
  6
Continuous
 62
     7
370
     0
100
AcDbLine
 10
163.9224282375
 20
153.6751730907
 30
0.0
 11
163.9224282375
 21
150.8165663101
 31
0.0
  0
LINE
  5
230
330
227
100
AcDbEntity
  8
0
  6
Continuous
 62
     7
370
     0
100
AcDbLine
 10
163.9224282375
 20
150.8165663101
 30
0.0
 11
163.4932529815
 21
150.8165663101
 31
0.0
  0
LINE
  5
231
330
227
100
AcDbEntity
  8
0
  6
Continuous
 62
     7
370
     0
100
AcDbLine
 10
163.9224282375
 20
153.6751730907
 30
0.0
 11
163.4932529815
 21
153.6751730907
 31
0.0
  0
LINE
  5
232
330
227
100
AcDbEntity
  8
0
  6
Continuous
 62
     7
370
     0
100
AcDbLine
 10
145.8722860437
 20
132.9974031008
 30
0.0
 11
145.8722860437
 21
155.7054031008
 31
0.0
  0
LINE
  5
233
330
227
100
AcDbEntity
  8
0
  6
Continuous
 62
     7
370
     0
100
AcDbLine
 10
133.6433533814
 20
133.0037619478
 30
0.0
 11
133.6433533814
 21
155.7054031008
 31
0.0
  0
LINE
  5
234
330
227
100
AcDbEntity
  8
0
  6
Continuous
 62
     7
370
     0
100
AcDbLine
 10
145.8722860437
 20
153.9274031008
 30
0.0
 11
151.5755892338
 21
153.9274031008
 31
0.0
  0
LINE
  5
235
330
227
100
AcDbEntity
  8
0
  6
Continuous
 62
     7
370
     0
100
AcDbLine
 10
133.6433533814
 20
153.9274031008
 30
0.0
 11
127.2933533814
 21
153.9274031008
 31
0.0
  0
MTEXT
  5
236
330
227
100
AcDbEntity
  8
0
  6
Continuous
 62
     7
370
     0
100
AcDbMText
 10
153.8058752393
 20
156.6559297002
 30
0.0
 40
2.1166666667
 41
0.0
 71
     1
 72
     1
  1
12.2mm
  7
SLDTEXTSTYLE0
 73
     1
 44
1.0
  0
MTEXT
  5
237
330
227
100
AcDbEntity
  8
0
  6
Continuous
 62
     7
370
     0
100
AcDbMText
 10
165.5745287493
 20
156.6559297002
 30
0.0
 40
2.1166666667
 41
0.0
 71
     1
 72
     1
  1
REF
  7
SLDTEXTSTYLE0
 73
     1
 44
1.0
  0
MTEXT
  5
238
330
227
100
AcDbEntity
  8
0
  6
Continuous
 62
     7
370
     0
100
AcDbMText
 10
155.3089655135
 20
153.2928628995
 30
0.0
 40
2.1166666667
 41
0.0
 71
     1
 72
     1
  1
0.48in
  7
SLDTEXTSTYLE0
 73
     1
 44
1.0
  0
ENDBLK
  5
229
330
227
100
AcDbEntity
  8
0
100
AcDbBlockEnd
  0
ENDSEC
  0
SECTION
  2
ENTITIES
  0
LINE
  5
52
330
1F
100
AcDbEntity
  8
0
  6
Continuous
 62
     7
370
     0
100
AcDbLine
 10
1.5793501011
 20
214.6453799966
 30
0.0
 11
277.9892068491
 21
214.6453799966
 31
0.0
  0
LINE
  5
53
330
1F
100
AcDbEntity
  8
0
  6
Continuous
 62
     7
370
     0
100
AcDbLine
 10
1.5793501011
 20
214.6453799966
 30
0.0
 11
1.5793501011
 21
0.9031642596
 31
0.0
  0
LINE
  5
54
330
1F
100
AcDbEntity
  8
0
  6
Continuous
 62
     7
370
     0
100
AcDbLine
 10
277.9892068491
 20
0.9031642596
 30
0.0
 11
1.5793501011
 21
0.9031642596
 31
0.0
  0
LINE
  5
55
330
1F
100
AcDbEntity
  8
0
  6
Continuous
 62
     7
370
     0
100
AcDbLine
 10
277.9892068491
 20
0.9031642596
 30
0.0
 11
277.9892068491
 21
214.6453799966
 31
0.0
  0
LINE
  5
56
330
1F
100
AcDbEntity
  8
0
  6
Continuous
 62
     7
370
     0
100
AcDbLine
 10
215.7427640041
 20
12.2958890132
 30
0.0
 11
171.6327596684
 21
12.2958890132
 31
0.0
  0
LINE
  5
57
330
1F
100
AcDbEntity
  8
0
  6
Continuous
 62
     7
370
     0
100
AcDbLine
 10
171.6327596684
 20
12.2958890132
 30
0.0
 11
171.6327596684
 21
26.1661402506
 31
0.0
  0
LINE
  5
58
330
1F
100
AcDbEntity
  8
0
  6
Continuous
 62
     7
370
     0
100
AcDbLine
 10
171.6327596684
 20
0.9031642596
 30
0.0
 11
171.6327596684
 21
26.1661402506
 31
0.0
  0
LINE
  5
59
330
1F
100
AcDbEntity
  8
0
  6
Continuous
 62
     7
370
     0
100
AcDbLine
 10
215.7427640041
 20
17.1604579552
 30
0.0
 11
277.9892068491
 21
17.1604579552
 31
0.0
  0
LINE
  5
5A
330
1F
100
AcDbEntity
  8
0
  6
Continuous
 62
     7
370
     0
100
AcDbLine
 10
215.7427640041
 20
35.2394508358
 30
0.0
 11
215.7427640041
 21
0.9031642596
 31
0.0
  0
LINE
  5
5B
330
1F
100
AcDbEntity
  8
0
  6
Continuous
 62
     7
370
     0
100
AcDbLine
 10
215.7427640041
 20
26.1661402506
 30
0.0
 11
171.6327596684
 21
26.1661402506
 31
0.0
  0
LINE
  5
5C
330
1F
100
AcDbEntity
  8
0
  6
Continuous
 62
     7
370
     0
100
AcDbLine
 10
215.7427640041
 20
9.1409200612
 30
0.0
 11
277.9892068491
 21
9.1409200612
 31
0.0
  0
LINE
  5
5D
330
1F
100
AcDbEntity
  8
0
  6
Continuous
 62
     7
370
     0
100
AcDbLine
 10
215.7427640041
 20
16.9216824031
 30
0.0
 11
171.6327596684
 21
16.9216824031
 31
0.0
  0
LINE
  5
5E
330
1F
100
AcDbEntity
  8
0
  6
Continuous
 62
     7
370
     0
100
AcDbLine
 10
215.7427640041
 20
21.4874005542
 30
0.0
 11
171.6327596684
 21
21.4874005542
 31
0.0
  0
LINE
  5
5F
330
1F
100
AcDbEntity
  8
0
  6
Continuous
 62
     7
370
     0
100
AcDbLine
 10
186.1338100705
 20
26.1661402506
 30
0.0
 11
186.1338100705
 21
12.2958890132
 31
0.0
  0
LINE
  5
60
330
1F
100
AcDbEntity
  8
0
  6
Continuous
 62
     7
370
     0
100
AcDbLine
 10
198.2145906188
 20
26.1661402506
 30
0.0
 11
198.2145906188
 21
12.2958890132
 31
0.0
  0
LINE
  5
61
330
1F
100
AcDbEntity
  8
0
  6
Continuous
 62
     7
370
     0
100
AcDbLine
 10
253.7490408369
 20
9.1409200612
 30
0.0
 11
253.7490408369
 21
0.9031642596
 31
0.0
  0
LINE
  5
62
330
1F
100
AcDbEntity
  8
0
  6
Continuous
 62
     7
370
     0
100
AcDbLine
 10
171.6327596684
 20
12.2958890132
 30
0.0
 11
171.6327596684
 21
7.5627342528
 31
0.0
  0
LINE
  5
63
330
1F
100
AcDbEntity
  8
0
  6
Continuous
 62
     7
370
     0
100
AcDbLine
 10
171.6327596684
 20
7.5627342528
 30
0.0
 11
215.7427640041
 21
7.5627342528
 31
0.0
  0
LINE
  5
64
330
1F
100
AcDbEntity
  8
0
  6
Continuous
 62
     7
370
     0
100
AcDbLine
 10
171.6327596684
 20
7.5627342528
 30
0.0
 11
171.6327596684
 21
35.2394508358
 31
0.0
  0
LINE
  5
65
330
1F
100
AcDbEntity
  8
0
  6
Continuous
 62
     7
370
     0
100
AcDbLine
 10
171.6327596684
 20
35.2394508358
 30
0.0
 11
215.7427640041
 21
35.2394508358
 31
0.0
  0
LINE
  5
66
330
1F
100
AcDbEntity
  8
0
  6
Continuous
 62
     7
370
     0
100
AcDbLine
 10
270.1683598194
 20
17.1604579552
 30
0.0
 11
270.1683598194
 21
9.1409200612
 31
0.0
  0
LINE
  5
67
330
1F
100
AcDbEntity
  8
0
  6
Continuous
 62
     7
370
     0
100
AcDbLine
 10
215.7427640041
 20
35.2394508358
 30
0.0
 11
277.9892068491
 21
35.2394508358
 31
0.0
  0
LINE
  5
68
330
1F
100
AcDbEntity
  8
0
  6
Continuous
 62
     7
370
     0
100
AcDbLine
 10
277.9892068491
 20
35.2394508358
 30
0.0
 11
277.9892068491
 21
50.0331356147
 31
0.0
  0
LINE
  5
69
330
1F
100
AcDbEntity
  8
0
  6
Continuous
 62
     7
370
     0
100
AcDbLine
 10
215.7427640041
 20
24.8927335446
 30
0.0
 11
277.9892068491
 21
24.8927335446
 31
0.0
  0
INSERT
  5
6A
330
1F
100
AcDbEntity
  8
0
  6
Continuous
 62
     7
100
AcDbBlockReference
  2
Third Angle Projection Block
 10
117.7262204235
 20
15.5162339489
 30
0.0
 41
0.8
 42
0.8
 43
0.8
  0
MTEXT
  5
6C
330
1F
100
AcDbEntity
  8
0
  6
Continuous
 62
     7
370
     0
100
AcDbMText
 10
273.8638944939
 20
13.1125292762
 30
0.0
 40
3.175
 41
0.0
 71
     2
 72
     1
  1
C
  7
SLDTEXTSTYLE0
 73
     1
 44
1.0
  0
MTEXT
  5
6D
330
1F
100
AcDbEntity
  8
0
  6
Continuous
 62
     7
370
     0
100
AcDbMText
 10
234.5759898282
 20
5.1306563898
 30
0.0
 40
3.175
 41
0.0
 71
     2
 72
     1
  1
CM508-050-G01
  7
SLDTEXTSTYLE0
 73
     1
 44
1.0
  0
MTEXT
  5
6E
330
1F
100
AcDbEntity
  8
0
  6
Continuous
 62
     7
370
     0
100
AcDbMText
 10
216.4199766059
 20
16.8243178599
 30
0.0
 40
2.1166666667
 41
0.0
 71
     1
 72
     1
  1
MATERIAL
  7
SLDTEXTSTYLE0
 73
     1
 44
1.0
  0
MTEXT
  5
6F
330
1F
100
AcDbEntity
  8
0
  6
Continuous
 62
     7
370
     0
100
AcDbMText
 10
174.230946566
 20
20.054553926
 30
0.0
 40
1.8520833333
 41
0.0
 71
     1
 72
     1
  1
DRAWN
  7
SLDTEXTSTYLE0
 73
     1
 44
1.0
  0
MTEXT
  5
70
330
1F
100
AcDbEntity
  8
0
  6
Continuous
 62
     7
370
     0
100
AcDbMText
 10
172.3960124543
 20
15.5787169747
 30
0.0
 40
1.8520833333
 41
0.0
 71
     1
 72
     1
  1
APPROVAL
  7
SLDTEXTSTYLE0
 73
     1
 44
1.0
  0
MTEXT
  5
71
330
1F
100
AcDbEntity
  8
0
  6
Continuous
 62
     7
370
     0
100
AcDbMText
 10
271.321689486
 20
16.0237652193
 30
0.0
 40
2.1166666667
 41
0.0
 71
     1
 72
     1
  1
REV
  7
SLDTEXTSTYLE0
 73
     1
 44
1.0
  0
MTEXT
  5
72
330
1F
100
AcDbEntity
  8
0
  6
Continuous
 62
     7
370
     0
100
AcDbMText
 10
190.2958696448
 20
20.3177146903
 30
0.0
 40
2.1166666667
 41
0.0
 71
     1
 72
     1
  1
BAG
  7
SLDTEXTSTYLE0
 73
     1
 44
1.0
  0
MTEXT
  5
73
330
1F
100
AcDbEntity
  8
0
  6
Continuous
 62
     7
370
     0
100
AcDbMText
 10
199.8662436873
 20
20.3177146903
 30
0.0
 40
2.1166666667
 41
0.0
 71
     1
 72
     1
  1
27/OCT/10
  7
SLDTEXTSTYLE0
 73
     1
 44
1.0
  0
MTEXT
  5
74
330
1F
100
AcDbEntity
  8
0
  6
Continuous
 62
     7
370
     0
100
AcDbMText
 10
203.6145073853
 20
24.8221395769
 30
0.0
 40
2.1166666667
 41
0.0
 71
     1
 72
     1
  1
DATE
  7
SLDTEXTSTYLE0
 73
     1
 44
1.0
  0
MTEXT
  5
76
330
1F
100
AcDbEntity
  8
0
  6
Continuous
 62
     7
370
     0
100
AcDbMText
 10
229.402906477
 20
27.7957480569
 30
0.0
 40
2.1166666667
 41
0.0
 71
     1
 72
     1
  1
w w w . t h o r  l a b s . c o m
  7
SLDTEXTSTYLE1
 73
     1
 44
1.0
  0
MTEXT
  5
77
330
1F
100
AcDbEntity
  8
0
  6
Continuous
 62
     7
370
     0
100
AcDbMText
 10
216.7004035316
 20
8.3494791871
 30
0.0
 40
2.1166666667
 41
0.0
 71
     1
 72
     1
  1
ITEM #
  7
SLDTEXTSTYLE0
 73
     1
 44
1.0
  0
MTEXT
  5
78
330
1F
100
AcDbEntity
  8
0
  6
Continuous
 62
     7
370
     0
100
AcDbMText
 10
254.5318000914
 20
8.3494791871
 30
0.0
 40
2.1166666667
 41
0.0
 71
     1
 72
     1
  1
APPROX WEIGHT
  7
SLDTEXTSTYLE0
 73
     1
 44
1.0
  0
MTEXT
  5
79
330
1F
100
AcDbEntity
  8
0
  6
Continuous
 62
     7
370
     0
100
AcDbMText
 10
243.7058359879
 20
13.1125292762
 30
0.0
 40
3.175
 41
0.0
 71
     2
 72
     1
  1
N-BK7
  7
SLDTEXTSTYLE0
 73
     1
 44
1.0
  0
MTEXT
  5
7A
330
1F
100
AcDbEntity
  8
0
  6
Continuous
 62
     7
370
     0
100
AcDbMText
 10
266.1678480997
 20
5.1306563898
 30
0.0
 40
3.175
 41
0.0
 71
     2
 72
     1
  1
0.05 kg
  7
SLDTEXTSTYLE0
 73
     1
 44
1.0
  0
INSERT
  5
80
330
1F
100
AcDbEntity
  8
0
  6
Continuous
 62
     7
370
     0
100
AcDbBlockReference
  2
SW_NOTE_0
 10
174.8430140051
 20
4.4558554801
 30
0.0
  0
INSERT
  5
86
330
1F
100
AcDbEntity
  8
0
  6
Continuous
 62
     7
370
     0
100
AcDbBlockReference
  2
SW_NOTE_1
 10
174.5483650337
 20
30.4835322715
 30
0.0
  0
MTEXT
  5
87
330
1F
100
AcDbEntity
  8
0
  6
Continuous
 62
     7
370
     0
100
AcDbMText
 10
187.9273588276
 20
24.8221395769
 30
0.0
 40
2.1166666667
 41
0.0
 71
     1
 72
     1
  1
NAME
  7
SLDTEXTSTYLE0
 73
     1
 44
1.0
  0
INSERT
  5
8D
330
1F
100
AcDbEntity
  8
0
  6
Continuous
 62
     7
370
     0
100
AcDbBlockReference
  2
SW_NOTE_2
 10
58.6204667508
 20
8.1776609732
 30
0.0
  0
MTEXT
  5
8E
330
1F
100
AcDbEntity
  8
0
  6
Continuous
 62
     7
370
     0
100
AcDbMText
 10
179.1174811218
 20
10.6680638482
 30
0.0
 40
1.5875
 41
0.0
 71
     1
 72
     1
  1
COPYRIGHT © 2010 BY THORLABS
  7
SLDTEXTSTYLE0
 73
     1
 44
1.0
  0
INSERT
  5
95
330
1F
100
AcDbEntity
  8
0
  6
Continuous
 62
     7
370
     0
100
AcDbBlockReference
  2
SW_NOTE_3
 10
218.9785626079
 20
20.5867261075
 30
0.0
  0
INSERT
  5
BA
330
1F
100
AcDbEntity
  8
0
  6
Continuous
 62
     7
370
     0
100
AcDbBlockReference
  2
SW_NOTE_4
 10
6.9966167511
 20
53.3990952253
 30
0.0
  0
MTEXT
  5
BB
330
1F
100
AcDbEntity
  8
0
  6
Continuous
 62
     7
370
     0
100
AcDbMText
 10
199.879570763
 20
15.8115327245
 30
0.0
 40
2.1166666667
 41
0.0
 71
     1
 72
     1
  1
08/NOV/12
  7
SLDTEXTSTYLE0
 73
     1
 44
1.0
  0
MTEXT
  5
BC
330
1F
100
AcDbEntity
  8
0
  6
Continuous
 62
     7
370
     0
100
AcDbMText
 10
190.3091967205
 20
15.8115327245
 30
0.0
 40
2.1166666667
 41
0.0
 71
     1
 72
     1
  1
WD
  7
SLDTEXTSTYLE0
 73
     1
 44
1.0
  0
CIRCLE
  5
BD
330
1F
100
AcDbEntity
  8
0
  6
Continuous
 62
     7
370
     0
100
AcDbCircle
 10
64.9274233762
 20
106.5274031008
 30
0.0
 40
25.39999999999999
  0
CIRCLE
  5
BE
330
1F
100
AcDbEntity
  8
0
  6
Continuous
 62
     7
370
     0
100
AcDbCircle
 10
64.9274233762
 20
106.5274031008
 30
0.0
 40
25.20635884701419
  0
DIMENSION
  5
BF
330
1F
100
AcDbEntity
  8
0
  6
Continuous
 62
     7
370
     0
100
AcDbDimension
  2
*D7
 10
46.9726165837
 20
124.4936189807
 30
0.0
 11
103.9226508227
 21
79.8055606672
 31
0.0
 70
   163
  1
<>
 71
     1
 42
-1.0
  3
SLDDIMSTYLE0
100
AcDbDiametricDimension
 15
82.8822301687
 25
88.5611872209
 35
0.0
 40
0.0
  0
INSERT
  5
D7
330
1F
100
AcDbEntity
  8
0
  6
Continuous
 62
     7
370
     0
100
AcDbBlockReference
  2
SW_CENTERMARKSYMBOL_0
 10
64.9274233762
 20
106.5274031008
 30
0.0
  0
LINE
  5
D8
330
1F
100
AcDbEntity
  8
0
  6
PHANTOM
 62
     7
370
    30
100
AcDbLine
 10
64.9274233762
 20
139.0213777472
 30
0.0
 11
64.9274233762
 21
74.122854363
 31
0.0
  0
LINE
  5
D9
330
1F
100
AcDbEntity
  8
0
  6
Continuous
 62
     7
370
    30
100
AcDbLine
 10
64.9274233762
 20
139.0213777472
 30
0.0
 11
56.0374233762
 21
139.0213777472
 31
0.0
  0
SOLID
  5
DA
330
1F
100
AcDbEntity
  8
0
  6
Continuous
 62
     7
370
    30
100
AcDbTrace
 10
56.0374233762
 20
139.0213777472
 30
0.0
 11
59.8474233762
 21
138.3863777472
 31
0.0
 12
59.8474233762
 22
139.6563777472
 32
0.0
 13
59.8474233762
 23
139.6563777472
 33
0.0
  0
LINE
  5
DB
330
1F
100
AcDbEntity
  8
0
  6
Continuous
 62
     7
370
    30
100
AcDbLine
 10
64.9274233762
 20
74.122854363
 30
0.0
 11
56.0374233762
 21
74.122854363
 31
0.0
  0
SOLID
  5
DC
330
1F
100
AcDbEntity
  8
0
  6
Continuous
 62
     7
370
    30
100
AcDbTrace
 10
56.0374233762
 20
74.122854363
 30
0.0
 11
59.8474233762
 21
73.487854363
 31
0.0
 12
59.8474233762
 22
74.757854363
 32
0.0
 13
59.8474233762
 23
74.757854363
 33
0.0
  0
MTEXT
  5
DD
330
1F
100
AcDbEntity
  8
0
  6
Continuous
 62
     7
100
AcDbMText
 10
52.6313739246
 20
141.1223176192
 30
0.0
 40
2.6458333333
 41
0.0
 71
     1
 72
     1
  1
A
  7
SLDTEXTSTYLE0
 73
     1
 44
1.0
  0
MTEXT
  5
DE
330
1F
100
AcDbEntity
  8
0
  6
Continuous
 62
     7
100
AcDbMText
 10
52.6313739246
 20
76.223794235
 30
0.0
 40
2.6458333333
 41
0.0
 71
     1
 72
     1
  1
A
  7
SLDTEXTSTYLE0
 73
     1
 44
1.0
  0
LINE
  5
DF
330
1F
100
AcDbEntity
  8
0
  6
Continuous
 62
     7
370
     0
100
AcDbLine
 10
216.1116269956
 20
176.3145840137
 30
0.0
 11
216.1334449345
 21
176.2379158677
 31
0.0
  0
LINE
  5
E0
330
1F
100
AcDbEntity
  8
0
  6
Continuous
 62
     7
370
     0
100
AcDbLine
 10
226.1956428091
 20
158.8077893226
 30
0.0
 11
226.2511250312
 21
158.7505551536
 31
0.0
  0
LINE
  5
E1
330
1F
100
AcDbEntity
  8
0
  6
Continuous
 62
     7
370
     0
100
AcDbLine
 10
228.5275159733
 20
201.1020051456
 30
0.0
 11
220.1273856954
 21
196.2527131563
 31
0.0
  0
LINE
  5
E2
330
1F
100
AcDbEntity
  8
0
  6
Continuous
 62
     7
370
     0
100
AcDbLine
 10
245.5253215043
 20
152.2574309473
 30
0.0
 11
253.9254517822
 21
157.1067229367
 31
0.0
  0
LINE
  5
E3
330
1F
100
AcDbEntity
  8
0
  6
Continuous
 62
     7
370
     0
100
AcDbLine
 10
259.1869961199
 20
168.735981021
 30
0.0
 11
259.1869961199
 21
168.8992626434
 31
0.0
  0
LINE
  5
E4
330
1F
100
AcDbEntity
  8
0
  6
Continuous
 62
     7
370
     0
100
AcDbLine
 10
241.3708013374
 20
199.7611611552
 30
0.0
 11
241.2294029661
 21
199.8428152353
 31
0.0
  0
LWPOLYLINE
  5
E5
330
1F
100
AcDbEntity
  8
0
  6
Continuous
 62
     7
370
     0
100
AcDbPolyline
 90
       53
 70
   128
 43
0.0
 10
250.786865842
 20
163.8866890317
 10
250.7738453291
 20
163.1046139188
 10
250.7348026691
 20
162.3387059042
 10
250.6697944699
 20
161.5900754813
 10
250.5789149874
 20
160.8598080927
 10
250.4622959879
 20
160.1489625562
 10
250.3201065581
 20
159.4585695299
 10
250.1525528588
 20
158.7896300177
 10
249.9598778271
 20
158.143113918
 10
249.7423608232
 20
157.5199586172
 10
249.500317226
 20
156.921067631
 10
249.2340979756
 20
156.3473092941
 10
248.9440890644
 20
155.7995155012
 10
248.6307109777
 20
155.2784805009
 10
248.2944180837
 20
154.7849597442
 10
247.935697975
 20
154.319668789
 10
247.5550707614
 20
153.8832822626
 10
247.153088316
 20
153.4764328839
 10
246.7303334749
 20
153.0997105455
 10
246.2874191922
 20
152.7536614588
 10
245.8249876513
 20
152.438787362
 10
245.3437093337
 20
152.1555447922
 10
244.8442820469
 20
151.9043444243
 10
244.3274299129
 20
151.6855504747
 10
243.7939023177
 20
151.4994801737
 10
243.2444728253
 20
151.3464033054
 10
242.6799380561
 20
151.2265418168
 10
242.1011165314
 20
151.1400694954
 10
241.5088474872
 20
151.087111718
 10
240.9039896568
 20
151.0677452681
 10
240.2874200264
 20
151.0819982254
 10
239.660032563
 20
151.1298499243
 10
239.0227369184
 20
151.2112309845
 10
238.3764571103
 20
151.3260234113
 10
237.7221301828
 20
151.4740607665
 10
237.0607048473
 20
151.6551284102
 10
236.3931401072
 20
151.8689638117
 10
235.7204038677
 20
152.1152569299
 10
235.043471532
 20
152.3936506635
 10
234.3633245873
 20
152.7037413681
 10
233.6809491815
 20
153.0450794419
 10
232.9973346939
 20
153.4171699773
 10
232.3134723
 20
153.8194734785
 10
231.630353535
 20
154.2514066441
 10
230.9489688557
 20
154.7123432121
 10
230.2703062048
 20
155.2016148686
 10
229.5953495783
 20
155.7185122165
 10
228.9250775987
 20
156.262285804
 10
228.2604620964
 20
156.8321472115
 10
227.6024667002
 20
157.4272701944
 10
226.9520454407
 20
158.0467918811
 10
226.3101413664
 20
158.6898140247
 10
226.2511250312
 20
158.7505551536
  0
LWPOLYLINE
  5
E6
330
1F
100
AcDbEntity
  8
0
  6
Continuous
 62
     7
370
     0
100
AcDbPolyline
 90
       95
 70
   128
 43
0.0
 10
216.1116269956
 20
176.3145840137
 10
216.0283234569
 20
176.6120177518
 10
215.7985015001
 20
177.4884984493
 10
215.593368301
 20
178.3602909877
 10
215.4132212831
 20
179.226131351
 10
215.2583216422
 20
180.0847641536
 10
215.1288939683
 20
180.93494446
 10
215.0251259189
 20
181.77543959
 10
214.9471679478
 20
182.605030906
 10
214.8951330866
 20
183.4225155799
 10
214.869096781
 20
184.2267083372
 10
214.869096781
 20
185.0164431751
 10
214.8951330866
 20
185.7905750537
 10
214.9471679478
 20
186.5479815557
 10
215.0251259189
 20
187.2875645142
 10
215.1288939683
 20
188.0082516045
 10
215.2583216422
 20
188.7089978993
 10
215.4132212831
 20
189.3887873834
 10
215.593368301
 20
190.0466344271
 10
215.7985015001
 20
190.681585215
 10
216.0283234569
 20
191.2927191293
 10
216.2825009516
 20
191.8791500841
 10
216.5606654509
 20
192.4400278106
 10
216.862413643
 20
192.9745390897
 10
217.1873080219
 20
193.4819089313
 10
217.5348775218
 20
193.9614016975
 10
217.9046182002
 20
194.4123221696
 10
218.2959939683
 20
194.8340165562
 10
218.7084373687
 20
195.2258734405
 10
219.1413503981
 20
195.5873246677
 10
219.5941053737
 20
195.917846168
 10
220.0660458443
 20
196.2169587168
 10
220.5564875412
 20
196.4842286295
 10
221.0647193709
 20
196.7192683903
 10
221.5900044458
 20
196.9217372139
 10
222.1315811528
 20
197.0913415401
 10
222.6886642574
 20
197.2278354587
 10
223.2604460424
 20
197.3310210665
 10
223.8460974788
 20
197.4007487544
 10
224.444769428
 20
197.4369174238
 10
225.0555938731
 20
197.4394746336
 10
225.6776851768
 20
197.4084166761
 10
226.3101413664
 20
197.3437885824
 10
226.9520454407
 20
197.245684057
 10
227.6024667002
 20
197.1142453422
 10
228.2604620964
 20
196.9496630114
 10
228.9250775987
 20
196.7521756934
 10
229.5953495783
 20
196.5220697258
 10
230.2703062048
 20
196.2596787404
 10
230.9489688557
 20
195.9653831789
 10
231.630353535
 20
195.6396097418
 10
232.3134723
 20
195.2828307694
 10
232.9973346939
 20
194.8955635572
 10
233.6809491815
 20
194.4783696055
 10
234.3633245873
 20
194.0318538058
 10
235.043471532
 20
193.5566635632
 10
235.7204038677
 20
193.0534878581
 10
236.3931401072
 20
192.5230562473
 10
237.0607048473
 20
191.9661378058
 10
237.7221301828
 20
191.3835400122
 10
238.3764571103
 20
190.7761075775
 10
239.0227369184
 20
190.1447212207
 10
239.660032563
 20
189.4902963918
 10
240.2874200264
 20
188.813781944
 10
240.9039896568
 20
188.1161587587
 10
241.5088474872
 20
187.3984383228
 10
242.1011165314
 20
186.6616612623
 10
242.6799380561
 20
185.9068958336
 10
243.2444728253
 20
185.1352363743
 10
243.7939023177
 20
184.3478017169
 10
244.3274299129
 20
183.5457335664
 10
244.8442820469
 20
182.7301948448
 10
245.3437093337
 20
181.9023680055
 10
245.8249876513
 20
181.0634533181
 10
246.2874191922
 20
180.2146671287
 10
246.7303334749
 20
179.3572400962
 10
247.153088316
 20
178.4924154079
 10
247.5550707614
 20
177.6214469767
 10
247.935697975
 20
176.7455976238
 10
248.2944180837
 20
175.8661372468
 10
248.6307109777
 20
174.9843409794
 10
248.9440890644
 20
174.1014873417
 10
249.2340979756
 20
173.2188563872
 10
249.500317226
 20
172.3377278463
 10
249.7423608232
 20
171.4593792712
 10
249.9598778271
 20
170.5850841834
 10
250.1525528588
 20
169.7161102271
 10
250.3201065581
 20
168.8537173316
 10
250.4622959879
 20
167.999155884
 10
250.5789149874
 20
167.1536649168
 10
250.6697944699
 20
166.318470311
 10
250.7348026691
 20
165.4947830191
 10
250.7738453291
 20
164.6837973087
 10
250.786865842
 20
163.8866890317
 10
250.786865842
 20
163.8866890317
  0
LWPOLYLINE
  5
E7
330
1F
100
AcDbEntity
  8
0
  6
Continuous
 62
     7
370
     0
100
AcDbPolyline
 90
      165
 70
   128
 43
0.0
 10
250.5443312915
 20
163.904767024
 10
250.5312520054
 20
164.7006651935
 10
250.4920333429
 20
165.5104962949
 10
250.4267328626
 20
166.3330717895
 10
250.335446402
 20
167.1671844343
 10
250.2183079367
 20
168.0116100539
 10
250.0754893834
 20
168.8651093373
 10
249.9072003481
 20
169.7264296566
 10
249.7136878182
 20
170.5943069055
 10
249.4952358
 20
171.4674673544
 10
249.2521649019
 20
172.3446295199
 10
248.984831864
 20
173.2245060457
 10
248.6936290344
 20
174.1058055916
 10
248.3789837934
 20
174.9872347289
 10
248.0413579263
 20
175.8674998389
 10
247.6812469456
 20
176.7453090111
 10
247.2991793639
 20
177.6193739395
 10
246.8957159179
 20
178.4884118134
 10
246.471448746
 20
179.3511471997
 10
246.0270005187
 20
180.2063139154
 10
245.5630235251
 20
181.0526568853
 10
245.0801987153
 20
181.8889339844
 10
244.5792347015
 20
182.7139178609
 10
244.0608667173
 20
183.526397737
 10
243.5258555393
 20
184.3251811865
 10
242.9749863701
 20
185.1090958845
 10
242.4090676862
 20
185.8769913282
 10
241.8289300514
 20
186.6277405251
 10
241.2354248975
 20
187.3602416471
 10
240.6294232753
 20
188.073419648
 10
240.0118145757
 20
188.7662278406
 10
239.3835052247
 20
189.4376494334
 10
238.7454173527
 20
190.0866990225
 10
238.0984874419
 20
190.7124240383
 10
237.4436649511
 20
191.3139061429
 10
236.7819109224
 20
191.8902625785
 10
236.1141965714
 20
192.4406474625
 10
235.4415018607
 20
192.9642530292
 10
234.7648140628
 20
193.4603108152
 10
234.0851263101
 20
193.9280927872
 10
233.4034361384
 20
194.3669124109
 10
232.7207440218
 20
194.7761256577
 10
232.0380519052
 20
195.155131951
 10
231.3563617334
 20
195.5033750466
 10
230.6766739808
 20
195.8203438498
 10
229.9999861828
 20
196.1055731652
 10
229.3272914722
 20
196.3586443794
 10
228.6595771211
 20
196.5791860755
 10
227.9978230925
 20
196.7668745782
 10
227.3430006016
 20
196.9214344287
 10
226.6960706908
 20
197.0426387891
 10
226.0579828189
 20
197.1303097753
 10
225.4296734678
 20
197.1843187181
 10
224.8120647682
 20
197.2045863518
 10
224.206063146
 20
197.1910829309
 10
223.6125579922
 20
197.1438282736
 10
223.0324203573
 20
197.0628917326
 10
222.4665016735
 20
196.9483920934
 10
221.9156325043
 20
196.8004974
 10
221.3806213263
 20
196.6194247083
 10
220.8622533421
 20
196.4054397674
 10
220.3612893282
 20
196.1588566298
 10
219.8784645185
 20
195.8800371901
 10
219.4144875249
 20
195.5693906544
 10
218.9700392976
 20
195.2273729393
 10
218.5457721256
 20
194.854486003
 10
218.1423086797
 20
194.4512771084
 10
217.7602410979
 20
194.0183380202
 10
217.4001301172
 20
193.5563041363
 10
217.0625042501
 20
193.065853555
 10
216.7478590091
 20
192.5477060803
 10
216.4566561796
 20
192.0026221649
 10
216.1893231417
 20
191.4314017947
 10
215.9462522436
 20
190.8348833145
 10
215.7278002253
 20
190.2139421972
 10
215.5342876954
 20
189.5694897596
 10
215.3659986601
 20
188.9024718246
 10
215.2231801069
 20
188.2138673329
 10
215.1060416416
 20
187.5046869066
 10
215.014755181
 20
186.7759713657
 10
214.9494547007
 20
186.0287902009
 10
214.9102360381
 20
185.2642400034
 10
214.897156752
 20
184.4834428562
 10
214.9102360381
 20
183.6875446867
 10
214.9494547007
 20
182.8777135853
 10
215.014755181
 20
182.0551380907
 10
215.1060416416
 20
181.2210254459
 10
215.2231801069
 20
180.3765998263
 10
215.3659986601
 20
179.5231005429
 10
215.5342876954
 20
178.6617802236
 10
215.7278002253
 20
177.7939029747
 10
215.9462522436
 20
176.9207425258
 10
216.1893231417
 20
176.0435803603
 10
216.4566561796
 20
175.1637038345
 10
216.7478590091
 20
174.2824042887
 10
217.0625042501
 20
173.4009751513
 10
217.4001301172
 20
172.5207100413
 10
217.7602410979
 20
171.6429008691
 10
218.1423086797
 20
170.7688359407
 10
218.5457721256
 20
169.8997980668
 10
218.9700392976
 20
169.0370626805
 10
219.4144875249
 20
168.1818959649
 10
219.8784645185
 20
167.3355529949
 10
220.3612893282
 20
166.4992758958
 10
220.8622533421
 20
165.6742920194
 10
221.3806213263
 20
164.8618121433
 10
221.9156325043
 20
164.0630286937
 10
222.4665016735
 20
163.2791139957
 10
223.0324203573
 20
162.511218552
 10
223.6125579922
 20
161.7604693551
 10
224.206063146
 20
161.0279682331
 10
224.8120647682
 20
160.3147902322
 10
225.4296734678
 20
159.6219820396
 10
226.0579828189
 20
158.9505604469
 10
226.6960706908
 20
158.3015108577
 10
227.3430006016
 20
157.6757858419
 10
227.9978230925
 20
157.0743037373
 10
228.6595771211
 20
156.4979473017
 10
229.3272914722
 20
155.9475624177
 10
229.9999861828
 20
155.423956851
 10
230.6766739808
 20
154.927899065
 10
231.3563617334
 20
154.460117093
 10
232.0380519052
 20
154.0212974693
 10
232.7207440218
 20
153.6120842225
 10
233.4034361384
 20
153.2330779292
 10
234.0851263101
 20
152.8848348336
 10
234.7648140628
 20
152.5678660304
 10
235.4415018607
 20
152.2826367151
 10
236.1141965714
 20
152.0295655008
 10
236.7819109224
 20
151.8090238047
 10
237.4436649511
 20
151.621335302
 10
238.0984874419
 20
151.4667754515
 10
238.7454173527
 20
151.3455710911
 10
239.3835052247
 20
151.2579001049
 10
240.0118145757
 20
151.2038911621
 10
240.6294232753
 20
151.1836235284
 10
241.2354248975
 20
151.1971269493
 10
241.8289300514
 20
151.2443816066
 10
242.4090676862
 20
151.3253181476
 10
242.9749863701
 20
151.4398177868
 10
243.5258555393
 20
151.5877124802
 10
244.0608667173
 20
151.7687851719
 10
244.5792347015
 20
151.9827701128
 10
245.0801987153
 20
152.2293532505
 10
245.5630235251
 20
152.5081726901
 10
246.0270005187
 20
152.8188192258
 10
246.471448746
 20
153.1608369409
 10
246.8957159179
 20
153.5337238772
 10
247.2991793639
 20
153.9369327718
 10
247.6812469456
 20
154.36987186
 10
248.0413579263
 20
154.8319057439
 10
248.3789837934
 20
155.3223563252
 10
248.6936290344
 20
155.8405038
 10
248.984831864
 20
156.3855877153
 10
249.2521649019
 20
156.9568080855
 10
249.4952358
 20
157.5533265658
 10
249.7136878182
 20
158.174267683
 10
249.9072003481
 20
158.8187201206
 10
250.0754893834
 20
159.4857380556
 10
250.2183079367
 20
160.1743425473
 10
250.335446402
 20
160.8835229736
 10
250.4267328626
 20
161.6122385145
 10
250.4920333429
 20
162.3594196793
 10
250.5312520054
 20
163.1239698768
 10
250.5443312915
 20
163.904767024
  0
LWPOLYLINE
  5
E8
330
1F
100
AcDbEntity
  8
0
  6
Continuous
 62
     7
370
     0
100
AcDbPolyline
 90
       85
 70
   128
 43
0.0
 10
253.9254517822
 20
157.1067229367
 10
253.9867916333
 20
157.1424773762
 10
254.4587321039
 20
157.441589925
 10
254.9114870795
 20
157.7721114252
 10
255.3444001088
 20
158.1335626524
 10
255.7568435093
 20
158.5254195368
 10
256.1482192774
 20
158.9471139233
 10
256.5179599558
 20
159.3980343955
 10
256.8655294556
 20
159.8775271616
 10
257.1904238345
 20
160.3848970032
 10
257.4921720267
 20
160.9194082824
 10
257.770336526
 20
161.4802860089
 10
258.0245140206
 20
162.0667169637
 10
258.2543359774
 20
162.6778508779
 10
258.4594691766
 20
163.3128016658
 10
258.6396161945
 20
163.9706487095
 10
258.7945158353
 20
164.6504381936
 10
258.9239435093
 20
165.3511844884
 10
259.0277115587
 20
166.0718715788
 10
259.1056695298
 20
166.8114545372
 10
259.157704391
 20
167.5688610393
 10
259.1837406966
 20
168.3429929179
 10
259.1837406966
 20
169.1327277558
 10
259.157704391
 20
169.936920513
 10
259.1056695298
 20
170.754405187
 10
259.0277115587
 20
171.583996503
 10
258.9239435093
 20
172.424491633
 10
258.7945158353
 20
173.2746719393
 10
258.6396161945
 20
174.1333047419
 10
258.4594691766
 20
174.9991451053
 10
258.2543359774
 20
175.8709376436
 10
258.0245140206
 20
176.7474183411
 10
257.770336526
 20
177.6273163846
 10
257.4921720267
 20
178.5093560059
 10
257.1904238345
 20
179.392258332
 10
256.8655294556
 20
180.2747432389
 10
256.5179599558
 20
181.1555312079
 10
256.1482192774
 20
182.0333451805
 10
255.7568435093
 20
182.9069124105
 10
255.3444001088
 20
183.7749663089
 10
254.9114870795
 20
184.6362482806
 10
254.4587321039
 20
185.4895095489
 10
253.9867916333
 20
186.3335129667
 10
253.4963499364
 20
187.1670348097
 10
252.9881181067
 20
187.9888665508
 10
252.4628330318
 20
188.7978166127
 10
251.9212563248
 20
189.592712095
 10
251.3641732202
 20
190.3724004754
 10
250.7923914352
 20
191.1357512801
 10
250.2067399988
 20
191.8816577236
 10
249.6080680495
 20
192.6090383128
 10
248.9972436045
 20
193.3168384153
 10
248.3751523008
 20
194.0040317887
 10
247.7426961112
 20
194.6696220683
 10
247.1007920369
 20
195.3126442118
 10
246.4503707774
 20
195.9321658986
 10
245.7923753812
 20
196.5272888814
 10
245.1277598789
 20
197.0971502889
 10
244.4574878993
 20
197.6409238765
 10
243.7825312728
 20
198.1578212244
 10
243.1038686219
 20
198.6470928809
 10
242.4224839426
 20
199.1080294489
 10
241.7393651776
 20
199.5399626144
 10
241.0555027837
 20
199.9422661157
 10
240.3718882961
 20
200.314356651
 10
239.6895128903
 20
200.6556947248
 10
239.0093659456
 20
200.9657854295
 10
238.3324336099
 20
201.244179163
 10
237.6596973704
 20
201.4904722813
 10
236.9921326303
 20
201.7043076827
 10
236.3307072948
 20
201.8853753264
 10
235.6763803672
 20
202.0334126817
 10
235.0301005592
 20
202.1482051084
 10
234.3928049146
 20
202.2295861686
 10
233.7654174511
 20
202.2774378676
 10
233.1488478208
 20
202.2916908248
 10
232.5439899904
 20
202.272324375
 10
231.9517209462
 20
202.2193665975
 10
231.3728994215
 20
202.1328942761
 10
230.8083646522
 20
202.0130327875
 10
230.2589351599
 20
201.8599559193
 10
229.7254075647
 20
201.6738856183
 10
229.2085554306
 20
201.4550916686
 10
228.7091281439
 20
201.2038913007
 10
228.5275159733
 20
201.1020051456
  0
ARC
  5
E9
330
1F
100
AcDbEntity
  8
0
  6
Continuous
 62
     7
370
     0
100
AcDbCircle
 10
220.5306495111
 20
167.1569131699
 30
0.0
 40
38.69559296387371
100
AcDbArc
 50
2.5807340673
 51
57.4138894
  0
SPLINE
  5
EA
330
1F
100
AcDbEntity
  8
0
  6
Continuous
 62
     7
370
     0
100
AcDbSpline
210
0.0
220
0.0
230
1.0
 70
     8
 71
     3
 72
    19
 73
    15
 74
     0
 42
0.00000001
 43
0.00000001
 40
0.0
 40
0.0
 40
0.0
 40
0.0
 40
0.0801399024652517
 40
0.1562809906190943
 40
0.2294060490129018
 40
0.3017986969723053
 40
0.3727428627695777
 40
0.442667609902629
 40
0.5133209646126977
 40
0.5865476923632091
 40
0.668322508229505
 40
0.7636766255259052
 40
0.8740807567185483
 40
1.0
 40
1.0
 40
1.0
 40
1.0
 10
219.3761204905997
 20
107.6700920280589
 30
0.0
 10
219.375553540359
 20
107.6888005478315
 30
0.0
 10
219.3744479295146
 20
107.7252840711842
 30
0.0
 10
219.3639387192881
 20
107.77800461092
 30
0.0
 10
219.3465792238409
 20
107.8269035670164
 30
0.0
 10
219.3221421125288
 20
107.8713037380675
 30
0.0
 10
219.2921687198933
 20
107.9112378692207
 30
0.0
 10
219.2559039414018
 20
107.9451129056254
 30
0.0
 10
219.2136189425086
 20
107.9719944222913
 30
0.0
 10
219.1651837641183
 20
107.9930912103295
 30
0.0
 10
219.1085727426949
 20
108.0081012116694
 30
0.0
 10
219.0422229603833
 20
108.0182845883967
 30
0.0
 10
218.9650731316495
 20
108.0248556773053
 30
0.0
 10
218.9099419964597
 20
108.0254100175319
 30
0.0
 10
218.8805666930653
 20
108.0257053844291
 30
0.0
  0
SPLINE
  5
EB
330
1F
100
AcDbEntity
  8
0
  6
Continuous
 62
     7
370
     0
100
AcDbSpline
210
0.0
220
0.0
230
1.0
 70
     8
 71
     3
 72
    19
 73
    15
 74
     0
 42
0.00000001
 43
0.00000001
 40
0.0
 40
0.0
 40
0.0
 40
0.0
 40
0.0889709576989538
 40
0.1722707767733144
 40
0.2503120304637098
 40
0.3246551996215511
 40
0.3978444501802941
 40
0.4733008807185328
 40
0.551825888744448
 40
0.6347494834982532
 40
0.7217660118923859
 40
0.8103926655611189
 40
0.9031752367994196
 40
1.0
 40
1.0
 40
1.0
 40
1.0
 10
219.0896541757459
 20
107.3243568204767
 30
0.0
 10
219.1039961132052
 20
107.3273713504059
 30
0.0
 10
219.1317658121097
 20
107.3332082597294
 30
0.0
 10
219.1709144246195
 20
107.3462356323975
 30
0.0
 10
219.2068087530254
 20
107.3611591821079
 30
0.0
 10
219.2388223160601
 20
107.3801253558606
 30
0.0
 10
219.2684661073486
 20
107.4019825718846
 30
0.0
 10
219.2942287682406
 20
107.4292832806905
 30
0.0
 10
219.3179574018218
 20
107.460301508429
 30
0.0
 10
219.3385161737355
 20
107.4957983416915
 30
0.0
 10
219.3551409260434
 20
107.5350672968152
 30
0.0
 10
219.3678469397975
 20
107.5775016407759
 30
0.0
 10
219.3746150882017
 20
107.6229525898037
 30
0.0
 10
219.3756116082785
 20
107.6541571346441
 30
0.0
 10
219.3761204905997
 20
107.6700920280589
 30
0.0
  0
SPLINE
  5
EC
330
1F
100
AcDbEntity
  8
0
  6
Continuous
 62
     7
370
     0
100
AcDbSpline
210
0.0
220
0.0
230
1.0
 70
     8
 71
     3
 72
    11
 73
     7
 74
     0
 42
0.00000001
 43
0.00000001
 40
0.0
 40
0.0
 40
0.0
 40
0.0
 40
0.3293954641291864
 40
0.6051903468528028
 40
0.8278865786947356
 40
1.0
 40
1.0
 40
1.0
 40
1.0
 10
218.913905445225
 20
107.3144786716887
 30
0.0
 10
218.9332505959513
 20
107.3147009200864
 30
0.0
 10
218.9687929751061
 20
107.3151092517107
 30
0.0
 10
219.01740800584
 20
107.3163902078889
 30
0.0
 10
219.0567039808907
 20
107.3195191046639
 30
0.0
 10
219.0796507537214
 20
107.322888127708
 30
0.0
 10
219.0896541757459
 20
107.3243568204767
 30
0.0
  0
LINE
  5
ED
330
1F
100
AcDbEntity
  8
0
  6
Continuous
 62
     7
370
     0
100
AcDbLine
 10
218.4278182069
 20
107.3144786717
 30
0.0
 11
218.9139054452
 21
107.3144786717
 31
0.0
  0
LINE
  5
EE
330
1F
100
AcDbEntity
  8
0
  6
Continuous
 62
     7
370
     0
100
AcDbLine
 10
218.4278182069
 20
108.0257053844
 30
0.0
 11
218.4278182069
 21
107.3144786717
 31
0.0
  0
LINE
  5
EF
330
1F
100
AcDbEntity
  8
0
  6
Continuous
 62
     7
370
     0
100
AcDbLine
 10
218.8805666931
 20
108.0257053844
 30
0.0
 11
218.4278182069
 21
108.0257053844
 31
0.0
  0
SPLINE
  5
F0
330
1F
100
AcDbEntity
  8
0
  6
Continuous
 62
     7
370
     0
100
AcDbSpline
210
0.0
220
0.0
230
1.0
 70
     8
 71
     3
 72
    23
 73
    19
 74
     0
 42
0.00000001
 43
0.00000001
 40
0.0
 40
0.0
 40
0.0
 40
0.0
 40
0.076010519206233
 40
0.1481357362434482
 40
0.2177881778331534
 40
0.2867678984972338
 40
0.3540434632439189
 40
0.4186108400234793
 40
0.4836364388553435
 40
0.5502295626461513
 40
0.586927811313815
 40
0.6291578250269649
 40
0.67723822428767
 40
0.7300426397437307
 40
0.7888625661169238
 40
0.853750451461094
 40
0.9241097665384562
 40
1.0
 40
1.0
 40
1.0
 40
1.0
 10
219.2970953002952
 20
108.5739426421664
 30
0.0
 10
219.2965633858882
 20
108.5908532643291
 30
0.0
 10
219.2955267460505
 20
108.6238101167565
 30
0.0
 10
219.2868250814721
 20
108.6716691805364
 30
0.0
 10
219.2717671723778
 20
108.7161932511106
 30
0.0
 10
219.2513746399788
 20
108.7573725614865
 30
0.0
 10
219.2255522755986
 20
108.7940074725041
 30
0.0
 10
219.1947323829529
 20
108.8255049206089
 30
0.0
 10
219.1578123269788
 20
108.8493156046111
 30
0.0
 10
219.1233031335632
 20
108.8641687583557
 30
0.0
 10
219.0922648490589
 20
108.8734608074217
 30
0.0
 10
219.0645332319416
 20
108.8789585303658
 30
0.0
 10
219.0330773068265
 20
108.8838025710295
 30
0.0
 10
218.9977935608669
 20
108.8879208133321
 30
0.0
 10
218.9586686472239
 20
108.8911169487933
 30
0.0
 10
218.9155820152168
 20
108.8936560666096
 30
0.0
 10
218.8686362297263
 20
108.8947341143911
 30
0.0
 10
218.8361152747741
 20
108.8948976287015
 30
0.0
 10
218.8192398526728
 20
108.8949824777784
 30
0.0
  0
SPLINE
  5
F1
330
1F
100
AcDbEntity
  8
0
  6
Continuous
 62
     7
370
     0
100
AcDbSpline
210
0.0
220
0.0
230
1.0
 70
     8
 71
     3
 72
    15
 73
    11
 74
     0
 42
0.00000001
 43
0.00000001
 40
0.0
 40
0.0
 40
0.0
 40
0.0
 40
0.1323768784386554
 40
0.2551949197670693
 40
0.3737221416536682
 40
0.4900113154474162
 40
0.6078124214239341
 40
0.7311098159015431
 40
0.8599973777575848
 40
1.0
 40
1.0
 40
1.0
 40
1.0
 10
219.0982975559355
 20
108.2870647377798
 30
0.0
 10
219.1140317993645
 20
108.2925764444856
 30
0.0
 10
219.1443641280674
 20
108.3032018616064
 30
0.0
 10
219.1850122857911
 20
108.327333252105
 30
0.0
 10
219.2196327011726
 20
108.3562908029308
 30
0.0
 10
219.2481325990908
 20
108.3905858331783
 30
0.0
 10
219.2700333584473
 20
108.4300348101346
 30
0.0
 10
219.2862721393322
 20
108.4738196578257
 30
0.0
 10
219.2951632321776
 20
108.5225524478902
 30
0.0
 10
219.2964337709197
 20
108.5563469255271
 30
0.0
 10
219.2970953002952
 20
108.5739426421664
 30
0.0
  0
SPLINE
  5
F2
330
1F
100
AcDbEntity
  8
0
  6
Continuous
 62
     7
370
     0
100
AcDbSpline
210
0.0
220
0.0
230
1.0
 70
     8
 71
     3
 72
    15
 73
    11
 74
     0
 42
0.00000001
 43
0.00000001
 40
0.0
 40
0.0
 40
0.0
 40
0.0
 40
0.1669801744060311
 40
0.3208066328848162
 40
0.4631345048703153
 40
0.5942480539785179
 40
0.7123671525397409
 40
0.8194549510427486
 40
0.9157522665813508
 40
1.0
 40
1.0
 40
1.0
 40
1.0
 10
218.851343836234
 20
108.2627809553425
 30
0.0
 10
218.8652026493572
 20
108.2628357860435
 30
0.0
 10
218.8918285598263
 20
108.2629411282053
 30
0.0
 10
218.9302358013219
 20
108.2644099122908
 30
0.0
 10
218.9656838442383
 20
108.2656629954143
 30
0.0
 10
218.9980355708077
 20
108.2688081372279
 30
0.0
 10
219.0274512540978
 20
108.2718886639203
 30
0.0
 10
219.0538131761135
 20
108.2760355330447
 30
0.0
 10
219.0772504589973
 20
108.2807081139899
 30
0.0
 10
219.091601111281
 20
108.2850422840646
 30
0.0
 10
219.0982975559355
 20
108.2870647377798
 30
0.0
  0
LINE
  5
F3
330
1F
100
AcDbEntity
  8
0
  6
Continuous
 62
     7
370
     0
100
AcDbLine
 10
218.4278182069
 20
108.2627809553
 30
0.0
 11
218.8513438362
 21
108.2627809553
 31
0.0
  0
LINE
  5
F4
330
1F
100
AcDbEntity
  8
0
  6
Continuous
 62
     7
370
     0
100
AcDbLine
 10
218.4278182069
 20
108.8949824778
 30
0.0
 11
218.4278182069
 21
108.2627809553
 31
0.0
  0
LINE
  5
F5
330
1F
100
AcDbEntity
  8
0
  6
Continuous
 62
     7
370
     0
100
AcDbLine
 10
218.8192398527
 20
108.8949824778
 30
0.0
 11
218.4278182069
 21
108.8949824778
 31
0.0
  0
SPLINE
  5
F6
330
1F
100
AcDbEntity
  8
0
  6
Continuous
 62
     7
370
     0
100
AcDbSpline
210
0.0
220
0.0
230
1.0
 70
     8
 71
     3
 72
    15
 73
    11
 74
     0
 42
0.00000001
 43
0.00000001
 40
0.0
 40
0.0
 40
0.0
 40
0.0
 40
0.1426572507006123
 40
0.2811689939054435
 40
0.416977192367973
 40
0.5508524927475571
 40
0.6783641702618121
 40
0.795032443007094
 40
0.9019981783473521
 40
1.0
 40
1.0
 40
1.0
 40
1.0
 10
223.3273800058241
 20
105.4573866995332
 30
0.0
 10
223.3602964017433
 20
105.4743387093317
 30
0.0
 10
223.4251726690072
 20
105.5077501168578
 30
0.0
 10
223.5168288058688
 20
105.5654562107254
 30
0.0
 10
223.6023996691984
 20
105.6280119919925
 30
0.0
 10
223.6804687224303
 20
105.6954036107926
 30
0.0
 10
223.7504526539899
 20
105.7642899428158
 30
0.0
 10
223.8094291294053
 20
105.8337989576463
 30
0.0
 10
223.8587768911251
 20
105.9013827550604
 30
0.0
 10
223.8835355980283
 20
105.9485149587584
 30
0.0
 10
223.8953735611376
 20
105.9710504365124
 30
0.0
  0
LINE
  5
F7
330
1F
100
AcDbEntity
  8
0
  6
Continuous
 62
     7
370
     0
100
AcDbLine
 10
223.3273800058
 20
105.2145488752
 30
0.0
 11
223.3273800058
 21
105.4573866995
 31
0.0
  0
SPLINE
  5
F8
330
1F
100
AcDbEntity
  8
0
  6
Continuous
 62
     7
370
     0
100
AcDbSpline
210
0.0
220
0.0
230
1.0
 70
     8
 71
     3
 72
    15
 73
    11
 74
     0
 42
0.00000001
 43
0.00000001
 40
0.0
 40
0.0
 40
0.0
 40
0.0
 40
0.111670300101588
 40
0.2320944808560175
 40
0.3627434591045548
 40
0.5025575097108851
 40
0.6415251033312812
 40
0.7710984952996689
 40
0.890161757373254
 40
1.0
 40
1.0
 40
1.0
 40
1.0
 10
223.801531147651
 20
105.5174787713273
 30
0.0
 10
223.7863635561528
 20
105.5028514954273
 30
0.0
 10
223.7548393794342
 20
105.4724503054667
 30
0.0
 10
223.7015510889511
 20
105.4294250302082
 30
0.0
 10
223.642074546598
 20
105.3858170899589
 30
0.0
 10
223.5771820931225
 20
105.3438831802602
 30
0.0
 10
223.5110352145246
 20
105.3044069264839
 30
0.0
 10
223.4471127725367
 20
105.2689041053341
 30
0.0
 10
223.3864819795528
 20
105.2388601046499
 30
0.0
 10
223.3465441487431
 20
105.2224319262172
 30
0.0
 10
223.3273800058241
 20
105.2145488751601
 30
0.0
  0
LINE
  5
F9
330
1F
100
AcDbEntity
  8
0
  6
Continuous
 62
     7
370
     0
100
AcDbLine
 10
223.8015311477
 20
103.9163954886
 30
0.0
 11
223.8015311477
 21
105.5174787713
 31
0.0
  0
LINE
  5
FA
330
1F
100
AcDbEntity
  8
0
  6
Continuous
 62
     7
370
     0
100
AcDbLine
 10
224.0649484487
 20
103.9163954886
 30
0.0
 11
223.8015311477
 21
103.9163954886
 31
0.0
  0
LINE
  5
FB
330
1F
100
AcDbEntity
  8
0
  6
Continuous
 62
     7
370
     0
100
AcDbLine
 10
224.0649484487
 20
105.9710504365
 30
0.0
 11
224.0649484487
 21
103.9163954886
 31
0.0
  0
LINE
  5
FC
330
1F
100
AcDbEntity
  8
0
  6
Continuous
 62
     7
370
     0
100
AcDbLine
 10
223.8953735611
 20
105.9710504365
 30
0.0
 11
224.0649484487
 21
105.9710504365
 31
0.0
  0
SPLINE
  5
FD
330
1F
100
AcDbEntity
  8
0
  6
Continuous
 62
     7
370
     0
100
AcDbSpline
210
0.0
220
0.0
230
1.0
 70
     8
 71
     3
 72
    15
 73
    11
 74
     0
 42
0.00000001
 43
0.00000001
 40
0.0
 40
0.0
 40
0.0
 40
0.0
 40
0.1350979550560085
 40
0.2695732456824916
 40
0.4050257238579746
 40
0.543117254503311
 40
0.676347958779606
 40
0.7968031639125349
 40
0.9036633430014072
 40
1.0
 40
1.0
 40
1.0
 40
1.0
 10
220.3729903391282
 20
104.1271293294077
 30
0.0
 10
220.4015706791616
 20
104.1280699194222
 30
0.0
 10
220.4585996328738
 20
104.1299467642862
 30
0.0
 10
220.5435038627557
 20
104.1429706161446
 30
0.0
 10
220.6270732991186
 20
104.1650855615233
 30
0.0
 10
220.7078717511158
 20
104.1949432059812
 30
0.0
 10
220.7834534156497
 20
104.2291426526818
 30
0.0
 10
220.8503561420752
 20
104.2657873154171
 30
0.0
 10
220.908452132993
 20
104.3023526853029
 30
0.0
 10
220.9411310536364
 20
104.3303511898052
 30
0.0
 10
220.9566242966895
 20
104.3436254236794
 30
0.0
  0
SPLINE
  5
FE
330
1F
100
AcDbEntity
  8
0
  6
Continuous
 62
     7
370
     0
100
AcDbSpline
210
0.0
220
0.0
230
1.0
 70
     8
 71
     3
 72
    27
 73
    23
 74
     0
 42
0.00000001
 43
0.00000001
 40
0.0
 40
0.0
 40
0.0
 40
0.0
 40
0.0535380202824383
 40
0.1048826985393409
 40
0.1544354262966625
 40
0.202077388281957
 40
0.2478457174973384
 40
0.2919645642171056
 40
0.3350467073546695
 40
0.3767496878322567
 40
0.4174134425872738
 40
0.4572800041184969
 40
0.4961425302511459
 40
0.5345059916149059
 40
0.5728352863148919
 40
0.6111773970816753
 40
0.6495764163929738
 40
0.6889233555764774
 40
0.7670637924536081
 40
0.8444142911178967
 40
0.9215527733980451
 40
0.9999999999999999
 40
0.9999999999999999
 40
0.9999999999999999
 40
0.9999999999999999
 10
219.6395377916147
 20
104.9445461416197
 30
0.0
 10
219.6396796697659
 20
104.9223095751411
 30
0.0
 10
219.6399576136137
 20
104.8787474283484
 30
0.0
 10
219.6449393005265
 20
104.8147859077761
 30
0.0
 10
219.6514530156003
 20
104.753428412974
 30
0.0
 10
219.6620244302248
 20
104.6949758406113
 30
0.0
 10
219.6745928750479
 20
104.6392539763658
 30
0.0
 10
219.6901821674774
 20
104.586232342925
 30
0.0
 10
219.7092377383399
 20
104.5361755863704
 30
0.0
 10
219.7305216399587
 20
104.4885935288014
 30
0.0
 10
219.7548740850959
 20
104.4440001577869
 30
0.0
 10
219.7819931760712
 20
104.4024429645184
 30
0.0
 10
219.8117782586414
 20
104.3639441157261
 30
0.0
 10
219.8441277627641
 20
104.3284611421052
 30
0.0
 10
219.8785618149225
 20
104.2952812787498
 30
0.0
 10
219.9161588252299
 20
104.2656707000986
 30
0.0
 10
219.9564960150973
 20
104.2391993449099
 30
0.0
 10
220.0130874559902
 20
104.2076751794584
 30
0.0
 10
220.0877050162217
 20
104.175851197439
 30
0.0
 10
220.180198653571
 20
104.1474578515975
 30
0.0
 10
220.2757919643664
 20
104.1305943201519
 30
0.0
 10
220.3404096986533
 20
104.1282907852238
 30
0.0
 10
220.3729903391282
 20
104.1271293294077
 30
0.0
  0
SPLINE
  5
FF
330
1F
100
AcDbEntity
  8
0
  6
Continuous
 62
     7
370
     0
100
AcDbSpline
210
0.0
220
0.0
230
1.0
 70
     8
 71
     3
 72
    11
 73
     7
 74
     0
 42
0.00000001
 43
0.00000001
 40
0.0
 40
0.0
 40
0.0
 40
0.0
 40
0.242983155712029
 40
0.4890828315426193
 40
0.7406789124678691
 40
1.0
 40
1.0
 40
1.0
 40
1.0
 10
219.7160934447222
 20
105.3544893163242
 30
0.0
 10
219.7042865291744
 20
105.3226001569429
 30
0.0
 10
219.6805212616976
 20
105.258412825438
 30
0.0
 10
219.6573049380088
 20
105.1572517192355
 30
0.0
 10
219.642318488809
 20
105.0522859983232
 30
0.0
 10
219.6404739868957
 20
104.9808196149167
 30
0.0
 10
219.6395377916147
 20
104.9445461416197
 30
0.0
  0
SPLINE
  5
100
330
1F
100
AcDbEntity
  8
0
  6
Continuous
 62
     7
370
     0
100
AcDbSpline
210
0.0
220
0.0
230
1.0
 70
     8
 71
     3
 72
    19
 73
    15
 74
     0
 42
0.00000001
 43
0.00000001
 40
0.0
 40
0.0
 40
0.0
 40
0.0
 40
0.1068407194888262
 40
0.2068567378987617
 40
0.3015533362866502
 40
0.3909553380687737
 40
0.4761291424962585
 40
0.556665136878682
 40
0.6344649191351371
 40
0.709590998254727
 40
0.7833217488754624
 40
0.8557465147613805
 40
0.9277905570939555
 40
0.9999999999999999
 40
0.9999999999999999
 40
0.9999999999999999
 40
0.9999999999999999
 10
220.3692860333327
 20
105.7603165957004
 30
0.0
 10
220.3400333001613
 20
105.7595791820436
 30
0.0
 10
220.2833964206325
 20
105.7581514587535
 30
0.0
 10
220.2013216280112
 20
105.7479165687392
 30
0.0
 10
220.1253697471912
 20
105.7304566311708
 30
0.0
 10
220.0557953497425
 20
105.7055776921194
 30
0.0
 10
219.9928906422026
 20
105.6749962287721
 30
0.0
 10
219.9357556008219
 20
105.640415358672
 30
0.0
 10
219.88535880946
 20
105.6008263593959
 30
0.0
 10
219.8415087053858
 20
105.5567342060419
 30
0.0
 10
219.803373788337
 20
105.5095662917311
 30
0.0
 10
219.7693678585631
 20
105.4604006758683
 30
0.0
 10
219.7397952884992
 20
105.4088406921898
 30
0.0
 10
219.7240000962197
 20
105.3726202850128
 30
0.0
 10
219.7160934447222
 20
105.3544893163242
 30
0.0
  0
SPLINE
  5
101
330
1F
100
AcDbEntity
  8
0
  6
Continuous
 62
     7
370
     0
100
AcDbSpline
210
0.0
220
0.0
230
1.0
 70
     8
 71
     3
 72
    19
 73
    15
 74
     0
 42
0.00000001
 43
0.00000001
 40
0.0
 40
0.0
 40
0.0
 40
0.0
 40
0.0970736392699422
 40
0.1859176566619947
 40
0.2661170775880095
 40
0.3394023432726108
 40
0.409906998627881
 40
0.4831125348444962
 40
0.5604586209064112
 40
0.6427393188580128
 40
0.7286314268064343
 40
0.8161028309983855
 40
0.9060965824668288
 40
1.0
 40
1.0
 40
1.0
 40
1.0
 10
220.9475693269671
 20
105.3252664594929
 30
0.0
 10
220.9399189240091
 20
105.3496502203908
 30
0.0
 10
220.9252666970899
 20
105.3963505575867
 30
0.0
 10
220.8994584130955
 20
105.4616212749157
 30
0.0
 10
220.8693939351799
 20
105.5179820154669
 30
0.0
 10
220.8372476011393
 20
105.5675920709168
 30
0.0
 10
220.798950138016
 20
105.6102686056609
 30
0.0
 10
220.7544852761741
 20
105.6480829748127
 30
0.0
 10
220.70252162636
 20
105.6809235052047
 30
0.0
 10
220.6442034569677
 20
105.7090414620128
 30
0.0
 10
220.580801363756
 20
105.7320021530113
 30
0.0
 10
220.5133203921348
 20
105.748364368221
 30
0.0
 10
220.442447608471
 20
105.7585403490241
 30
0.0
 10
220.3940164416564
 20
105.7597161807216
 30
0.0
 10
220.3692860333327
 20
105.7603165957004
 30
0.0
  0
LINE
  5
102
330
1F
100
AcDbEntity
  8
0
  6
Continuous
 62
     7
370
     0
100
AcDbLine
 10
221.2126329861
 20
105.3919439638
 30
0.0
 11
220.947569327
 21
105.3252664595
 31
0.0
  0
SPLINE
  5
103
330
1F
100
AcDbEntity
  8
0
  6
Continuous
 62
     7
370
     0
100
AcDbSpline
210
0.0
220
0.0
230
1.0
 70
     8
 71
     3
 72
    23
 73
    19
 74
     0
 42
0.00000001
 43
0.00000001
 40
0.0
 40
0.0
 40
0.0
 40
0.0
 40
0.0962417038065444
 40
0.1880435953348888
 40
0.277016361072057
 40
0.3631733512100074
 40
0.4052611170930077
 40
0.4459839251834398
 40
0.4854695125335063
 40
0.524162609602229
 40
0.5618271345849222
 40
0.5992442824541233
 40
0.6355602607654662
 40
0.6719856687492345
 40
0.7462558542466003
 40
0.8249527203924827
 40
0.9094318888690911
 40
1.0
 40
1.0
 40
1.0
 40
1.0
 10
220.3746366972595
 20
105.9973921666139
 30
0.0
 10
220.410894720486
 20
105.9965198642151
 30
0.0
 10
220.4817381155795
 20
105.9948155003812
 30
0.0
 10
220.5854574804625
 20
105.9815598253013
 30
0.0
 10
220.6835513502785
 20
105.9588775177706
 30
0.0
 10
220.7612899283428
 20
105.9328179794588
 30
0.0
 10
220.8196778075412
 20
105.9074225891083
 30
0.0
 10
220.8609495225974
 20
105.88689799445
 30
0.0
 10
220.8997441522578
 20
105.864485419994
 30
0.0
 10
220.9365082553412
 20
105.8409132074475
 30
0.0
 10
220.9704208979842
 20
105.8146345455549
 30
0.0
 10
221.0019276938233
 20
105.7868851109597
 30
0.0
 10
221.0311115551688
 20
105.7573321921852
 30
0.0
 10
221.0670411722917
 20
105.7151544987438
 30
0.0
 10
221.1081431194059
 20
105.6565655138993
 30
0.0
 10
221.1493836038198
 20
105.577005059166
 30
0.0
 10
221.1855052208556
 20
105.4883166944781
 30
0.0
 10
221.2033831062334
 20
105.4248046205561
 30
0.0
 10
221.2126329861134
 20
105.3919439638123
 30
0.0
  0
SPLINE
  5
104
330
1F
100
AcDbEntity
  8
0
  6
Continuous
 62
     7
370
     0
100
AcDbSpline
210
0.0
220
0.0
230
1.0
 70
     8
 71
     3
 72
    31
 73
    27
 74
     0
 42
0.00000001
 43
0.00000001
 40
0.0
 40
0.0
 40
0.0
 40
0.0
 40
0.0441658303736071
 40
0.0877116370132015
 40
0.1310333546489274
 40
0.1737448717898873
 40
0.2162164427126821
 40
0.258650041086637
 40
0.3012017444202778
 40
0.3439246539575705
 40
0.3862893852073624
 40
0.4274140172821516
 40
0.4676700633357059
 40
0.5073454318185086
 40
0.5465860477516583
 40
0.5856495393161911
 40
0.6247877072639545
 40
0.6642540057451939
 40
0.7040740007747265
 40
0.7443338244331361
 40
0.7848909670235004
 40
0.8259919251338464
 40
0.8679773169112336
 40
0.9108104334296827
 40
0.9548479847577102
 40
1.0
 40
1.0
 40
1.0
 40
1.0
 10
219.3497787604982
 20
104.933844813766
 30
0.0
 10
219.3502057856613
 20
104.9584133710969
 30
0.0
 10
219.3510538411781
 20
105.0072055791073
 30
0.0
 10
219.356898128547
 20
105.0799132701627
 30
0.0
 10
219.3667784210681
 20
105.1513479243658
 30
0.0
 10
219.3804185604185
 20
105.2215503913863
 30
0.0
 10
219.3976323849253
 20
105.2904597762397
 30
0.0
 10
219.4190770687198
 20
105.3580894181749
 30
0.0
 10
219.4447338206243
 20
105.4243773644133
 30
0.0
 10
219.4737918148116
 20
105.4891835329602
 30
0.0
 10
219.506155325091
 20
105.5515806676141
 30
0.0
 10
219.5433216993373
 20
105.6095746579863
 30
0.0
 10
219.5823974253136
 20
105.6645205438653
 30
0.0
 10
219.6266063617505
 20
105.7140296229392
 30
0.0
 10
219.672871633776
 20
105.7606581265525
 30
0.0
 10
219.7234569678678
 20
105.8021584166194
 30
0.0
 10
219.7770873323619
 20
105.8397797501416
 30
0.0
 10
219.8339946791045
 20
105.873117781663
 30
0.0
 10
219.8938442587086
 20
105.9022120973113
 30
0.0
 10
219.9559218758556
 20
105.92783562579
 30
0.0
 10
220.0203684195598
 20
105.9490983786544
 30
0.0
 10
220.0868145029481
 20
105.9670373643634
 30
0.0
 10
220.1556283108463
 20
105.9803663122095
 30
0.0
 10
220.2266324713592
 20
105.9903929255483
 30
0.0
 10
220.2999072129795
 20
105.996119830108
 30
0.0
 10
220.3495202235085
 20
105.9969645361176
 30
0.0
 10
220.3746366972595
 20
105.9973921666139
 30
0.0
  0
SPLINE
  5
105
330
1F
100
AcDbEntity
  8
0
  6
Continuous
 62
     7
370
     0
100
AcDbSpline
210
0.0
220
0.0
230
1.0
 70
     8
 71
     3
 72
    31
 73
    27
 74
     0
 42
0.00000001
 43
0.00000001
 40
0.0
 40
0.0
 40
0.0
 40
0.0
 40
0.0446987814711664
 40
0.0887956818779962
 40
0.1319115347653975
 40
0.1742248801053775
 40
0.2163802275597409
 40
0.2583007325305778
 40
0.2998327517555806
 40
0.3414585724633182
 40
0.3827027363458724
 40
0.4230981840746573
 40
0.4630018560013459
 40
0.5026573531139108
 40
0.5419640133710467
 40
0.5816740271718884
 40
0.6217270830669661
 40
0.6622979005719345
 40
0.7033717954294
 40
0.7443535995666872
 40
0.7856501829506594
 40
0.8272650222339575
 40
0.8693364409303338
 40
0.9119633104320602
 40
0.9555479842919585
 40
1.0
 40
1.0
 40
1.0
 40
1.0
 10
220.3972741215655
 20
103.8900537584942
 30
0.0
 10
220.3724274879591
 20
103.890435175992
 30
0.0
 10
220.3230687873226
 20
103.8911928750986
 30
0.0
 10
220.2499907234443
 20
103.8976750273001
 30
0.0
 10
220.1786190339618
 20
103.9073065839801
 30
0.0
 10
220.1090890954337
 20
103.9214692682852
 30
0.0
 10
220.0411554393963
 20
103.9394999198098
 30
0.0
 10
219.9749489144852
 20
103.9617825789993
 30
0.0
 10
219.9104417698015
 20
103.9877847456052
 30
0.0
 10
219.8479935856274
 20
104.017595079235
 30
0.0
 10
219.7885429966308
 20
104.0517500801533
 30
0.0
 10
219.7322535887654
 20
104.0891983477664
 30
0.0
 10
219.6798354689257
 20
104.1305040331574
 30
0.0
 10
219.6312079547019
 20
104.1753292787285
 30
0.0
 10
219.5865468700664
 20
104.2239407668643
 30
0.0
 10
219.5451905033538
 20
104.2756924109761
 30
0.0
 10
219.5082481681168
 20
104.3315325337537
 30
0.0
 10
219.4749041170841
 20
104.390434000134
 30
0.0
 10
219.4454612006692
 20
104.4519510846591
 30
0.0
 10
219.4197535125955
 20
104.515558814338
 30
0.0
 10
219.3985036743598
 20
104.5811045955146
 30
0.0
 10
219.3807810252099
 20
104.6482984601091
 30
0.0
 10
219.3666870238664
 20
104.7171150828358
 30
0.0
 10
219.3568428007536
 20
104.7877701415645
 30
0.0
 10
219.3510480131005
 20
104.8602095980327
 30
0.0
 10
219.3502046144342
 20
104.9091390567007
 30
0.0
 10
219.3497787604982
 20
104.933844813766
 30
0.0
  0
SPLINE
  5
106
330
1F
100
AcDbEntity
  8
0
  6
Continuous
 62
     7
370
     0
100
AcDbSpline
210
0.0
220
0.0
230
1.0
 70
     8
 71
     3
 72
    15
 73
    11
 74
     0
 42
0.00000001
 43
0.00000001
 40
0.0
 40
0.0
 40
0.0
 40
0.0
 40
0.1355413924715102
 40
0.266762278932144
 40
0.3935537413023852
 40
0.5179457351920507
 40
0.6396635310860861
 40
0.7597971864522365
 40
0.8797395040428622
 40
1.0
 40
1.0
 40
1.0
 40
1.0
 10
221.2463833278059
 20
104.2098588255077
 30
0.0
 10
221.2131252573754
 20
104.1845285447661
 30
0.0
 10
221.1476692479664
 20
104.1346754091784
 30
0.0
 10
221.0450148436077
 20
104.0696598542203
 30
0.0
 10
220.9406767317669
 20
104.0145189358203
 30
0.0
 10
220.8349432666803
 20
103.9689963870764
 30
0.0
 10
220.727451028063
 20
103.9338620598286
 30
0.0
 10
220.6186640940351
 20
103.908713735394
 30
0.0
 10
220.5084639967809
 20
103.8927850681127
 30
0.0
 10
220.4343701288046
 20
103.8909649986695
 30
0.0
 10
220.3972741215655
 20
103.8900537584942
 30
0.0
  0
LINE
  5
107
330
1F
100
AcDbEntity
  8
0
  6
Continuous
 62
     7
370
     0
100
AcDbLine
 10
221.2463833278
 20
104.9700646927
 30
0.0
 11
221.2463833278
 21
104.2098588255
 31
0.0
  0
LINE
  5
108
330
1F
100
AcDbEntity
  8
0
  6
Continuous
 62
     7
370
     0
100
AcDbLine
 10
220.4034479646
 20
104.9700646927
 30
0.0
 11
221.2463833278
 21
104.9700646927
 31
0.0
  0
LINE
  5
109
330
1F
100
AcDbEntity
  8
0
  6
Continuous
 62
     7
370
     0
100
AcDbLine
 10
220.4034479646
 20
104.7329891217
 30
0.0
 11
220.4034479646
 21
104.9700646927
 31
0.0
  0
LINE
  5
10A
330
1F
100
AcDbEntity
  8
0
  6
Continuous
 62
     7
370
     0
100
AcDbLine
 10
220.9566242967
 20
104.7329891217
 30
0.0
 11
220.4034479646
 21
104.7329891217
 31
0.0
  0
LINE
  5
10B
330
1F
100
AcDbEntity
  8
0
  6
Continuous
 62
     7
370
     0
100
AcDbLine
 10
220.9566242967
 20
104.3436254237
 30
0.0
 11
220.9566242967
 21
104.7329891217
 31
0.0
  0
SPLINE
  5
10C
330
1F
100
AcDbEntity
  8
0
  6
Continuous
 62
     7
370
     0
100
AcDbSpline
210
0.0
220
0.0
230
1.0
 70
     8
 71
     3
 72
    31
 73
    27
 74
     0
 42
0.00000001
 43
0.00000001
 40
0.0
 40
0.0
 40
0.0
 40
0.0
 40
0.0628739462114324
 40
0.1228366299919128
 40
0.1796565674430314
 40
0.2339600122308621
 40
0.2855950186955589
 40
0.3345131060783806
 40
0.3809048259061763
 40
0.4248945919393346
 40
0.4665290347654872
 40
0.5064882940692463
 40
0.5450315536447542
 40
0.5818311798231344
 40
0.617448279949443
 40
0.652066912769046
 40
0.6858797142465105
 40
0.7191745547913923
 40
0.7521816462063928
 40
0.7852401639180908
 40
0.8186564497770833
 40
0.8525477406533113
 40
0.8876263422585189
 40
0.923635078068751
 40
0.9610218444769891
 40
1.0
 40
1.0
 40
1.0
 40
1.0
 10
218.1380591758294
 20
104.9297289184376
 30
0.0
 10
218.1377888115934
 20
104.9005039350947
 30
0.0
 10
218.13726060184
 20
104.8434071775069
 30
0.0
 10
218.1341228855637
 20
104.7599350666282
 30
0.0
 10
218.1281546660868
 20
104.6806271973456
 30
0.0
 10
218.120810662981
 20
104.6053018984051
 30
0.0
 10
218.1097007245645
 20
104.5341602529032
 30
0.0
 10
218.0977291639743
 20
104.4668999988095
 30
0.0
 10
218.082923300649
 20
104.4038265569132
 30
0.0
 10
218.0656483342
 20
104.3449122837503
 30
0.0
 10
218.04619279926
 20
104.2898456618606
 30
0.0
 10
218.024856794619
 20
104.2382105283273
 30
0.0
 10
218.0012251208155
 20
104.1900421660879
 30
0.0
 10
217.9745944099841
 20
104.1458103851879
 30
0.0
 10
217.9461831377851
 20
104.1049280827898
 30
0.0
 10
217.9157832218565
 20
104.067241900187
 30
0.0
 10
217.8827501483911
 20
104.0332942504783
 30
0.0
 10
217.8471172962185
 20
104.0032756780608
 30
0.0
 10
217.8096070258973
 20
103.9762351745065
 30
0.0
 10
217.7694731685319
 20
103.9530826934439
 30
0.0
 10
217.7268913837608
 20
103.933901265023
 30
0.0
 10
217.6821461768847
 20
103.9175020966847
 30
0.0
 10
217.6347835432276
 20
103.9054857479881
 30
0.0
 10
217.5851769801108
 20
103.8962874208295
 30
0.0
 10
217.5331437107326
 20
103.8908707796816
 30
0.0
 10
217.4976384867379
 20
103.8903298563721
 30
0.0
 10
217.479515923292
 20
103.8900537584942
 30
0.0
  0
SPLINE
  5
10D
330
1F
100
AcDbEntity
  8
0
  6
Continuous
 62
     7
370
     0
100
AcDbSpline
210
0.0
220
0.0
230
1.0
 70
     8
 71
     3
 72
    27
 73
    23
 74
     0
 42
0.00000001
 43
0.00000001
 40
0.0
 40
0.0
 40
0.0
 40
0.0
 40
0.0567243372181508
 40
0.1114372357370108
 40
0.1643678222229016
 40
0.21643537246209
 40
0.2676414903219249
 40
0.3173597799690281
 40
0.3674730633322806
 40
0.4182103970528083
 40
0.4714042826470198
 40
0.5279657201290493
 40
0.5880611158232137
 40
0.6521342629937146
 40
0.6863448363353056
 40
0.7232636803169653
 40
0.762610250771542
 40
0.8047389366452182
 40
0.84943033879095
 40
0.8967112583864923
 40
0.9468896380534765
 40
1.0
 40
1.0
 40
1.0
 40
1.0
 10
217.479515923292
 20
105.9710504365124
 30
0.0
 10
217.5059031124014
 20
105.9702746718276
 30
0.0
 10
217.5577418038242
 20
105.9687506509876
 30
0.0
 10
217.6334265610021
 20
105.9563210135622
 30
0.0
 10
217.7047545666473
 20
105.9350582030547
 30
0.0
 10
217.7716794794741
 20
105.906373754408
 30
0.0
 10
217.8330572284656
 20
105.8699389838301
 30
0.0
 10
217.8878701452989
 20
105.8256469691815
 30
0.0
 10
217.9355269841276
 20
105.7739627678692
 30
0.0
 10
217.9755076442999
 20
105.7142739390547
 30
0.0
 10
218.0104547320182
 20
105.6482270992422
 30
0.0
 10
218.0415009575933
 20
105.5755258058496
 30
0.0
 10
218.0695658437679
 20
105.496251528886
 30
0.0
 10
218.0894812979516
 20
105.4252899842107
 30
0.0
 10
218.1036869750684
 20
105.3640334609155
 30
0.0
 10
218.1130900046347
 20
105.313510813335
 30
0.0
 10
218.1208964042891
 20
105.2589965921661
 30
0.0
 10
218.126877161419
 20
105.2006226819846
 30
0.0
 10
218.1317842315307
 20
105.1384545543251
 30
0.0
 10
218.1355737368888
 20
105.0724535021219
 30
0.0
 10
218.137497298863
 20
105.0024545669742
 30
0.0
 10
218.1378683723761
 20
104.9544252589451
 30
0.0
 10
218.1380591758294
 20
104.9297289184376
 30
0.0
  0
SPLINE
  5
10E
330
1F
100
AcDbEntity
  8
0
  6
Continuous
 62
     7
370
     0
100
AcDbSpline
210
0.0
220
0.0
230
1.0
 70
     8
 71
     3
 72
    31
 73
    27
 74
     0
 42
0.00000001
 43
0.00000001
 40
0.0
 40
0.0
 40
0.0
 40
0.0
 40
0.0631144583947934
 40
0.1236146457694899
 40
0.1809737111859575
 40
0.2352614550083221
 40
0.2871007018338719
 40
0.3360307363034435
 40
0.3823823485850661
 40
0.4263340836597072
 40
0.4682106947981602
 40
0.5082496012618051
 40
0.546628336606585
 40
0.5836495392304462
 40
0.6189943150301618
 40
0.653583018620596
 40
0.6871561361903314
 40
0.7204221919788074
 40
0.7532302188118172
 40
0.7862601560778999
 40
0.8195039834988841
 40
0.8535452747120185
 40
0.8883082803397299
 40
0.9239958607406952
 40
0.961350304754645
 40
1.0
 40
1.0
 40
1.0
 40
1.0
 10
216.8209726707546
 20
104.9297289184376
 30
0.0
 10
216.821238063743
 20
104.9590918236398
 30
0.0
 10
216.8217578568471
 20
105.016601389873
 30
0.0
 10
216.8249819646125
 20
105.1007482165192
 30
0.0
 10
216.8306109955173
 20
105.1806589735586
 30
0.0
 10
216.83901358902
 20
105.2562642622325
 30
0.0
 10
216.8489638339625
 20
105.3277347385349
 30
0.0
 10
216.8618992151611
 20
105.3949684067253
 30
0.0
 10
216.8764533995049
 20
105.4581161163698
 30
0.0
 10
216.8939158089283
 20
105.5171120462108
 30
0.0
 10
216.9131012802738
 20
105.572463453851
 30
0.0
 10
216.9348678095919
 20
105.6240815431363
 30
0.0
 10
216.959358107786
 20
105.6719115867425
 30
0.0
 10
216.9853686289219
 20
105.7164496090481
 30
0.0
 10
217.0142686201551
 20
105.7570028605073
 30
0.0
 10
217.0443137359643
 20
105.7947094313704
 30
0.0
 10
217.0776874759746
 20
105.8281864745562
 30
0.0
 10
217.1130020884851
 20
105.8582953574194
 30
0.0
 10
217.1507775903209
 20
105.8848646918921
 30
0.0
 10
217.1908141115734
 20
105.9077908228255
 30
0.0
 10
217.2329576026003
 20
105.9280329433758
 30
0.0
 10
217.2780112717352
 20
105.9432712064379
 30
0.0
 10
217.3250398134659
 20
105.9556936212003
 30
0.0
 10
217.3744052291186
 20
105.9648317001214
 30
0.0
 10
217.4261619186198
 20
105.9702189060386
 30
0.0
 10
217.4615303406065
 20
105.9707701284046
 30
0.0
 10
217.479515923292
 20
105.9710504365124
 30
0.0
  0
SPLINE
  5
10F
330
1F
100
AcDbEntity
  8
0
  6
Continuous
 62
     7
370
     0
100
AcDbSpline
210
0.0
220
0.0
230
1.0
 70
     8
 71
     3
 72
    15
 73
    11
 74
     0
 42
0.00000001
 43
0.00000001
 40
0.0
 40
0.0
 40
0.0
 40
0.0
 40
0.0974206681772145
 40
0.2008855880393207
 40
0.3111719701726506
 40
0.429797945825373
 40
0.5577399263645872
 40
0.6947152693641585
 40
0.8421299102060552
 40
1.0
 40
1.0
 40
1.0
 40
1.0
 10
217.02059359418
 20
104.0880283237883
 30
0.0
 10
217.0043098372614
 20
104.1115178820363
 30
0.0
 10
216.9707320334412
 20
104.1599543566542
 30
0.0
 10
216.9314321254317
 20
104.242543038937
 30
0.0
 10
216.8963759116916
 20
104.3334615824366
 30
0.0
 10
216.8688632112796
 20
104.4344937981985
 30
0.0
 10
216.8473139085106
 20
104.544835583997
 30
0.0
 10
216.8317499317143
 20
104.6647034539199
 30
0.0
 10
216.8229422531056
 20
104.7940456210931
 30
0.0
 10
216.8216440189278
 20
104.8834801623188
 30
0.0
 10
216.8209726707546
 20
104.9297289184376
 30
0.0
  0
SPLINE
  5
110
330
1F
100
AcDbEntity
  8
0
  6
Continuous
 62
     7
370
     0
100
AcDbSpline
210
0.0
220
0.0
230
1.0
 70
     8
 71
     3
 72
    15
 73
    11
 74
     0
 42
0.00000001
 43
0.00000001
 40
0.0
 40
0.0
 40
0.0
 40
0.0
 40
0.1379032299933934
 40
0.2688733426002937
 40
0.3951781273461133
 40
0.5170892381308875
 40
0.6367430265135479
 40
0.756221816463797
 40
0.8766283594636795
 40
1.0
 40
1.0
 40
1.0
 40
1.0
 10
217.479515923292
 20
103.8900537584942
 30
0.0
 10
217.4557551413543
 20
103.8907315360554
 30
0.0
 10
217.4094281563903
 20
103.8920530157511
 30
0.0
 10
217.3417710108048
 20
103.9010316563135
 30
0.0
 10
217.2782711708815
 20
103.9168344852663
 30
0.0
 10
217.2183930518351
 20
103.9380283071909
 30
0.0
 10
217.1628097000959
 20
103.9663762644716
 30
0.0
 10
217.1112557272608
 20
104.0008670900015
 30
0.0
 10
217.0626951934117
 20
104.0406983182956
 30
0.0
 10
217.0347407979259
 20
104.0721242431069
 30
0.0
 10
217.02059359418
 20
104.0880283237883
 30
0.0
  0
SPLINE
  5
111
330
1F
100
AcDbEntity
  8
0
  6
Continuous
 62
     7
370
     0
100
AcDbSpline
210
0.0
220
0.0
230
1.0
 70
     8
 71
     3
 72
    31
 73
    27
 74
     0
 42
0.00000001
 43
0.00000001
 40
0.0
 40
0.0
 40
0.0
 40
0.0
 40
0.0628739462114324
 40
0.1228366299919129
 40
0.1796565674430314
 40
0.2339600122308621
 40
0.285595018695559
 40
0.3345131060783806
 40
0.3809048259061763
 40
0.4248945919393347
 40
0.4665290347654873
 40
0.5064882940692463
 40
0.5450315536447544
 40
0.5818311798231345
 40
0.617448279949443
 40
0.652066912769046
 40
0.6858797142465105
 40
0.7191745547913923
 40
0.7521816462063928
 40
0.7852401639180911
 40
0.8186564497770834
 40
0.8525477406533113
 40
0.8876263422585191
 40
0.923635078068751
 40
0.9610218444769892
 40
1.0
 40
1.0
 40
1.0
 40
1.0
 10
214.9770515636499
 20
104.9297289184376
 30
0.0
 10
214.9767811994139
 20
104.9005039350947
 30
0.0
 10
214.9762529896606
 20
104.8434071775069
 30
0.0
 10
214.9731152733842
 20
104.7599350666282
 30
0.0
 10
214.9671470539073
 20
104.6806271973456
 30
0.0
 10
214.9598030508015
 20
104.6053018984051
 30
0.0
 10
214.948693112385
 20
104.5341602529032
 30
0.0
 10
214.9367215517948
 20
104.4668999988095
 30
0.0
 10
214.9219156884695
 20
104.4038265569132
 30
0.0
 10
214.9046407220205
 20
104.3449122837503
 30
0.0
 10
214.8851851870805
 20
104.2898456618606
 30
0.0
 10
214.8638491824395
 20
104.2382105283273
 30
0.0
 10
214.840217508636
 20
104.1900421660879
 30
0.0
 10
214.8135867978046
 20
104.1458103851879
 30
0.0
 10
214.7851755256056
 20
104.1049280827898
 30
0.0
 10
214.754775609677
 20
104.067241900187
 30
0.0
 10
214.7217425362116
 20
104.0332942504783
 30
0.0
 10
214.686109684039
 20
104.0032756780608
 30
0.0
 10
214.6485994137178
 20
103.9762351745065
 30
0.0
 10
214.6084655563524
 20
103.9530826934439
 30
0.0
 10
214.5658837715813
 20
103.933901265023
 30
0.0
 10
214.5211385647052
 20
103.9175020966847
 30
0.0
 10
214.4737759310481
 20
103.9054857479881
 30
0.0
 10
214.4241693679313
 20
103.8962874208295
 30
0.0
 10
214.3721360985531
 20
103.8908707796816
 30
0.0
 10
214.3366308745585
 20
103.8903298563721
 30
0.0
 10
214.3185083111125
 20
103.8900537584942
 30
0.0
  0
SPLINE
  5
112
330
1F
100
AcDbEntity
  8
0
  6
Continuous
 62
     7
370
     0
100
AcDbSpline
210
0.0
220
0.0
230
1.0
 70
     8
 71
     3
 72
    27
 73
    23
 74
     0
 42
0.00000001
 43
0.00000001
 40
0.0
 40
0.0
 40
0.0
 40
0.0
 40
0.0567243372181506
 40
0.1114372357370108
 40
0.1643678222229014
 40
0.21643537246209
 40
0.267641490321925
 40
0.3173597799690279
 40
0.3674730633322807
 40
0.4182103970528082
 40
0.4714042826470199
 40
0.5279657201290493
 40
0.5880611158232139
 40
0.6521342629937146
 40
0.6863448363353056
 40
0.7232636803169653
 40
0.762610250771542
 40
0.8047389366452182
 40
0.84943033879095
 40
0.8967112583864923
 40
0.9468896380534765
 40
1.0
 40
1.0
 40
1.0
 40
1.0
 10
214.3185083111125
 20
105.9710504365124
 30
0.0
 10
214.3448955002219
 20
105.9702746718276
 30
0.0
 10
214.3967341916447
 20
105.9687506509876
 30
0.0
 10
214.4724189488226
 20
105.9563210135622
 30
0.0
 10
214.5437469544678
 20
105.9350582030546
 30
0.0
 10
214.6106718672946
 20
105.906373754408
 30
0.0
 10
214.6720496162861
 20
105.8699389838301
 30
0.0
 10
214.7268625331194
 20
105.8256469691815
 30
0.0
 10
214.7745193719481
 20
105.7739627678692
 30
0.0
 10
214.8145000321204
 20
105.7142739390547
 30
0.0
 10
214.8494471198387
 20
105.6482270992422
 30
0.0
 10
214.8804933454139
 20
105.5755258058496
 30
0.0
 10
214.9085582315884
 20
105.496251528886
 30
0.0
 10
214.9284736857721
 20
105.4252899842107
 30
0.0
 10
214.942679362889
 20
105.3640334609155
 30
0.0
 10
214.9520823924552
 20
105.313510813335
 30
0.0
 10
214.9598887921096
 20
105.2589965921661
 30
0.0
 10
214.9658695492395
 20
105.2006226819846
 30
0.0
 10
214.9707766193512
 20
105.1384545543251
 30
0.0
 10
214.9745661247093
 20
105.0724535021219
 30
0.0
 10
214.9764896866835
 20
105.0024545669742
 30
0.0
 10
214.9768607601966
 20
104.9544252589451
 30
0.0
 10
214.9770515636499
 20
104.9297289184376
 30
0.0
  0
SPLINE
  5
113
330
1F
100
AcDbEntity
  8
0
  6
Continuous
 62
     7
370
     0
100
AcDbSpline
210
0.0
220
0.0
230
1.0
 70
     8
 71
     3
 72
    31
 73
    27
 74
     0
 42
0.00000001
 43
0.00000001
 40
0.0
 40
0.0
 40
0.0
 40
0.0
 40
0.0631144583947934
 40
0.12361464576949
 40
0.1809737111859576
 40
0.2352614550083222
 40
0.287100701833872
 40
0.3360307363034437
 40
0.3823823485850664
 40
0.4263340836597074
 40
0.4682106947981604
 40
0.5082496012618052
 40
0.546628336606585
 40
0.5836495392304464
 40
0.6189943150301618
 40
0.6535830186205961
 40
0.6871561361903314
 40
0.7204221919788075
 40
0.753230218811817
 40
0.7862601560779
 40
0.8195039834988841
 40
0.8535452747120184
 40
0.8883082803397299
 40
0.923995860740695
 40
0.961350304754645
 40
1.0
 40
1.0
 40
1.0
 40
1.0
 10
213.6599650585751
 20
104.9297289184376
 30
0.0
 10
213.6602304515635
 20
104.9590918236398
 30
0.0
 10
213.6607502446677
 20
105.016601389873
 30
0.0
 10
213.663974352433
 20
105.1007482165192
 30
0.0
 10
213.6696033833379
 20
105.1806589735586
 30
0.0
 10
213.6780059768405
 20
105.2562642622325
 30
0.0
 10
213.687956221783
 20
105.3277347385349
 30
0.0
 10
213.7008916029817
 20
105.3949684067253
 30
0.0
 10
213.7154457873255
 20
105.4581161163698
 30
0.0
 10
213.7329081967488
 20
105.5171120462108
 30
0.0
 10
213.7520936680943
 20
105.572463453851
 30
0.0
 10
213.7738601974124
 20
105.6240815431363
 30
0.0
 10
213.7983504956065
 20
105.6719115867425
 30
0.0
 10
213.8243610167424
 20
105.7164496090481
 30
0.0
 10
213.8532610079757
 20
105.7570028605073
 30
0.0
 10
213.8833061237848
 20
105.7947094313704
 30
0.0
 10
213.9166798637951
 20
105.8281864745562
 30
0.0
 10
213.9519944763056
 20
105.8582953574194
 30
0.0
 10
213.9897699781414
 20
105.8848646918921
 30
0.0
 10
214.0298064993939
 20
105.9077908228255
 30
0.0
 10
214.0719499904208
 20
105.9280329433758
 30
0.0
 10
214.1170036595557
 20
105.9432712064379
 30
0.0
 10
214.1640322012864
 20
105.9556936212003
 30
0.0
 10
214.2133976169391
 20
105.9648317001214
 30
0.0
 10
214.2651543064403
 20
105.9702189060386
 30
0.0
 10
214.300522728427
 20
105.9707701284046
 30
0.0
 10
214.3185083111125
 20
105.9710504365124
 30
0.0
  0
SPLINE
  5
114
330
1F
100
AcDbEntity
  8
0
  6
Continuous
 62
     7
370
     0
100
AcDbSpline
210
0.0
220
0.0
230
1.0
 70
     8
 71
     3
 72
    15
 73
    11
 74
     0
 42
0.00000001
 43
0.00000001
 40
0.0
 40
0.0
 40
0.0
 40
0.0
 40
0.0974206681772145
 40
0.2008855880393206
 40
0.3111719701726505
 40
0.4297979458253729
 40
0.5577399263645872
 40
0.6947152693641585
 40
0.8421299102060552
 40
1.0
 40
1.0
 40
1.0
 40
1.0
 10
213.8595859820005
 20
104.0880283237883
 30
0.0
 10
213.8433022250819
 20
104.1115178820363
 30
0.0
 10
213.8097244212616
 20
104.1599543566542
 30
0.0
 10
213.7704245132522
 20
104.242543038937
 30
0.0
 10
213.7353682995121
 20
104.3334615824366
 30
0.0
 10
213.7078555991002
 20
104.4344937981985
 30
0.0
 10
213.6863062963311
 20
104.544835583997
 30
0.0
 10
213.6707423195348
 20
104.6647034539199
 30
0.0
 10
213.6619346409261
 20
104.7940456210931
 30
0.0
 10
213.6606364067484
 20
104.8834801623188
 30
0.0
 10
213.6599650585751
 20
104.9297289184376
 30
0.0
  0
SPLINE
  5
115
330
1F
100
AcDbEntity
  8
0
  6
Continuous
 62
     7
370
     0
100
AcDbSpline
210
0.0
220
0.0
230
1.0
 70
     8
 71
     3
 72
    15
 73
    11
 74
     0
 42
0.00000001
 43
0.00000001
 40
0.0
 40
0.0
 40
0.0
 40
0.0
 40
0.1379032299933935
 40
0.2688733426002935
 40
0.3951781273461131
 40
0.5170892381308877
 40
0.6367430265135475
 40
0.7562218164637969
 40
0.8766283594636793
 40
1.0
 40
1.0
 40
1.0
 40
1.0
 10
214.3185083111125
 20
103.8900537584942
 30
0.0
 10
214.2947475291748
 20
103.8907315360554
 30
0.0
 10
214.2484205442108
 20
103.8920530157511
 30
0.0
 10
214.1807633986253
 20
103.9010316563135
 30
0.0
 10
214.117263558702
 20
103.9168344852663
 30
0.0
 10
214.0573854396556
 20
103.9380283071909
 30
0.0
 10
214.0018020879164
 20
103.9663762644716
 30
0.0
 10
213.9502481150813
 20
104.0008670900015
 30
0.0
 10
213.9016875812322
 20
104.0406983182956
 30
0.0
 10
213.8737331857464
 20
104.0721242431069
 30
0.0
 10
213.8595859820005
 20
104.0880283237883
 30
0.0
  0
SPLINE
  5
116
330
1F
100
AcDbEntity
  8
0
  6
Continuous
 62
     7
370
     0
100
AcDbSpline
210
0.0
220
0.0
230
1.0
 70
     8
 71
     3
 72
    23
 73
    19
 74
     0
 42
0.00000001
 43
0.00000001
 40
0.0
 40
0.0
 40
0.0
 40
0.0
 40
0.0635999003471699
 40
0.1252966507935535
 40
0.1855687201945878
 40
0.2446982110006626
 40
0.3037168061899893
 40
0.3629196509481437
 40
0.4233003138688771
 40
0.4851773095450755
 40
0.5470834132243567
 40
0.608524799634247
 40
0.6699648532447271
 40
0.7322993779782991
 40
0.795650293490116
 40
0.8610554709467162
 40
0.9291221151732191
 40
1.0
 40
1.0
 40
1.0
 40
1.0
 10
212.4482454739063
 20
104.5144350798062
 30
0.0
 10
212.4477219882563
 20
104.492862813906
 30
0.0
 10
212.4466906816297
 20
104.4503638060055
 30
0.0
 10
212.4376292972058
 20
104.3879802498666
 30
0.0
 10
212.4239190214445
 20
104.3280523317698
 30
0.0
 10
212.4039278565943
 20
104.2708332094245
 30
0.0
 10
212.3783941722477
 20
104.2162824340547
 30
0.0
 10
212.3468086960153
 20
104.1644792193472
 30
0.0
 10
212.3094817657435
 20
104.1154768543172
 30
0.0
 10
212.2675144611772
 20
104.0691230241178
 30
0.0
 10
212.2205950397355
 20
104.0272211692247
 30
0.0
 10
212.1698369168777
 20
103.990296389533
 30
0.0
 10
212.115049641612
 20
103.9593671786077
 30
0.0
 10
212.0568979709425
 20
103.9337579031578
 30
0.0
 10
211.9951034546434
 20
103.9139108096257
 30
0.0
 10
211.929745525272
 20
103.900013636034
 30
0.0
 10
211.8608459317905
 20
103.8917384807395
 30
0.0
 10
211.8137345238297
 20
103.8906228566523
 30
0.0
 10
211.7897022213689
 20
103.8900537584942
 30
0.0
  0
SPLINE
  5
117
330
1F
100
AcDbEntity
  8
0
  6
Continuous
 62
     7
370
     0
100
AcDbSpline
210
0.0
220
0.0
230
1.0
 70
     8
 71
     3
 72
    23
 73
    19
 74
     0
 42
0.00000001
 43
0.00000001
 40
0.0
 40
0.0
 40
0.0
 40
0.0
 40
0.0690130029109932
 40
0.1352355440560497
 40
0.1996111851157138
 40
0.2624185195032886
 40
0.3237234972102992
 40
0.3837653656042444
 40
0.4437730350956272
 40
0.5037949564977896
 40
0.5638225777168209
 40
0.6234843128834681
 40
0.6834691722744386
 40
0.7435907624559172
 40
0.8057272199738402
 40
0.8686162107352969
 40
0.933278202847215
 40
1.0
 40
1.0
 40
1.0
 40
1.0
 10
212.0646440293033
 20
105.0433276295003
 30
0.0
 10
212.0799830161341
 20
105.0381207702948
 30
0.0
 10
212.1100407754235
 20
105.0279175852748
 30
0.0
 10
212.1525334791653
 20
105.0080794491533
 30
0.0
 10
212.19253908253
 20
104.9866892295216
 30
0.0
 10
212.2302831815295
 20
104.9635343037912
 30
0.0
 10
212.264372548473
 20
104.9368926952964
 30
0.0
 10
212.2959445047847
 20
104.908339611954
 30
0.0
 10
212.3248663080084
 20
104.8774726846737
 30
0.0
 10
212.3507429170185
 20
104.8440293869874
 30
0.0
 10
212.3738454582227
 20
104.8087116365798
 30
0.0
 10
212.3936230673319
 20
104.7714333271775
 30
0.0
 10
212.4104198109398
 20
104.7327250667544
 30
0.0
 10
212.4247748864487
 20
104.6924073577601
 30
0.0
 10
212.4352601343905
 20
104.6501962070784
 30
0.0
 10
212.4425965218836
 20
104.6062855972506
 30
0.0
 10
212.4472512529098
 20
104.560906952581
 30
0.0
 10
212.4479106210995
 20
104.5300867680027
 30
0.0
 10
212.4482454739063
 20
104.5144350798062
 30
0.0
  0
SPLINE
  5
118
330
1F
100
AcDbEntity
  8
0
  6
Continuous
 62
     7
370
     0
100
AcDbSpline
210
0.0
220
0.0
230
1.0
 70
     8
 71
     3
 72
    15
 73
    11
 74
     0
 42
0.00000001
 43
0.00000001
 40
0.0
 40
0.0
 40
0.0
 40
0.0
 40
0.1248350921668871
 40
0.2447781332833286
 40
0.3609889778410595
 40
0.4779641722472781
 40
0.5969221175582977
 40
0.7215907566966706
 40
0.8550978657574203
 40
1.0
 40
1.0
 40
1.0
 40
1.0
 10
212.3692202836018
 20
105.4462737821467
 30
0.0
 10
212.3684674603693
 20
105.4236869800977
 30
0.0
 10
212.3669913156224
 20
105.3793985100337
 30
0.0
 10
212.3519487404966
 20
105.315556312307
 30
0.0
 10
212.3285036004287
 20
105.2559564209448
 30
0.0
 10
212.2946182983464
 20
105.2017347062801
 30
0.0
 10
212.2517038235168
 20
105.1523311794883
 30
0.0
 10
212.1984503828112
 20
105.1093841518868
 30
0.0
 10
212.1356667260941
 20
105.0719247390157
 30
0.0
 10
212.0889555429799
 20
105.0531165990904
 30
0.0
 10
212.0646440293033
 20
105.0433276295003
 30
0.0
  0
SPLINE
  5
119
330
1F
100
AcDbEntity
  8
0
  6
Continuous
 62
     7
370
     0
100
AcDbSpline
210
0.0
220
0.0
230
1.0
 70
     8
 71
     3
 72
    23
 73
    19
 74
     0
 42
0.00000001
 43
0.00000001
 40
0.0
 40
0.0
 40
0.0
 40
0.0
 40
0.0732007449685416
 40
0.1425867913224121
 40
0.2096247814680876
 40
0.274882926768208
 40
0.3379306095315751
 40
0.4004618221882003
 40
0.4625006206857345
 40
0.5250054581372535
 40
0.5866888527108447
 40
0.6468127657705337
 40
0.7052153157505644
 40
0.7628810210075593
 40
0.8207275416930105
 40
0.8792954957245831
 40
0.9385111654136069
 40
0.9999999999999999
 40
0.9999999999999999
 40
0.9999999999999999
 40
0.9999999999999999
 10
211.7864095051062
 20
105.9710504365124
 30
0.0
 10
211.8078314715809
 20
105.9705677190908
 30
0.0
 10
211.8495590450469
 20
105.9696274400227
 30
0.0
 10
211.9105819186718
 20
105.9625476354909
 30
0.0
 10
211.9684678944868
 20
105.9506814420402
 30
0.0
 10
212.02318289227
 20
105.9338463008414
 30
0.0
 10
212.0748131720575
 20
105.9123215591374
 30
0.0
 10
212.1230194716996
 20
105.8858648260487
 30
0.0
 10
212.168298045786
 20
105.8549124572918
 30
0.0
 10
212.2094915895578
 20
105.8190953348614
 30
0.0
 10
212.2469728042713
 20
105.7802095874877
 30
0.0
 10
212.2794467364903
 20
105.7385497901108
 30
0.0
 10
212.3072985945674
 20
105.6950880459254
 30
0.0
 10
212.330313970603
 20
105.649560314829
 30
0.0
 10
212.3473408328159
 20
105.6014481578697
 30
0.0
 10
212.3603191238614
 20
105.5516580303599
 30
0.0
 10
212.3678471342827
 20
105.4995983285409
 30
0.0
 10
212.3687568563883
 20
105.4642704017438
 30
0.0
 10
212.3692202836018
 20
105.4462737821467
 30
0.0
  0
SPLINE
  5
11A
330
1F
100
AcDbEntity
  8
0
  6
Continuous
 62
     7
370
     0
100
AcDbSpline
210
0.0
220
0.0
230
1.0
 70
     8
 71
     3
 72
    23
 73
    19
 74
     0
 42
0.00000001
 43
0.00000001
 40
0.0
 40
0.0
 40
0.0
 40
0.0
 40
0.0621313717366117
 40
0.1219658247853497
 40
0.1805702366487598
 40
0.2385759705888209
 40
0.2960002420906481
 40
0.3543589964435931
 40
0.4137812280524365
 40
0.4750979653520684
 40
0.5372798973856026
 40
0.5989179536770425
 40
0.6612351129787322
 40
0.7243219805737479
 40
0.7892171825086325
 40
0.8563966620881328
 40
0.9265077687361052
 40
1.0
 40
1.0
 40
1.0
 40
1.0
 10
211.210184159136
 20
105.452859214672
 30
0.0
 10
211.2106361614536
 20
105.4708591427554
 30
0.0
 10
211.2115234561313
 20
105.5061935642143
 30
0.0
 10
211.2191898840733
 20
105.558040845709
 30
0.0
 10
211.2314687729481
 20
105.6077235126269
 30
0.0
 10
211.2488953891961
 20
105.6551013407061
 30
0.0
 10
211.2707280832174
 20
105.7005642928786
 30
0.0
 10
211.2982772611909
 20
105.743279467664
 30
0.0
 10
211.3299433301509
 20
105.7844540823522
 30
0.0
 10
211.3670386251859
 20
105.8224237336962
 30
0.0
 10
211.4079169990223
 20
105.8572002594197
 30
0.0
 10
211.4521946573116
 20
105.8881479517292
 30
0.0
 10
211.5002104132949
 20
105.9134556404063
 30
0.0
 10
211.5511637075449
 20
105.9346150007351
 30
0.0
 10
211.6053064789386
 20
105.9511805425987
 30
0.0
 10
211.6628294474742
 20
105.962462599478
 30
0.0
 10
211.7235298321042
 20
105.9696388246355
 30
0.0
 10
211.7651231772111
 20
105.9705725709028
 30
0.0
 10
211.7864095051062
 20
105.9710504365124
 30
0.0
  0
SPLINE
  5
11B
330
1F
100
AcDbEntity
  8
0
  6
Continuous
 62
     7
370
     0
100
AcDbSpline
210
0.0
220
0.0
230
1.0
 70
     8
 71
     3
 72
    15
 73
    11
 74
     0
 42
0.00000001
 43
0.00000001
 40
0.0
 40
0.0
 40
0.0
 40
0.0
 40
0.1453591950554989
 40
0.2787017789350165
 40
0.4036022344180536
 40
0.5216687911804251
 40
0.6375206936077398
 40
0.7537041507630958
 40
0.8732127703640606
 40
1.0
 40
1.0
 40
1.0
 40
1.0
 10
211.5213458459599
 20
105.0433276295003
 30
0.0
 10
211.4963521955451
 20
105.0531052870906
 30
0.0
 10
211.4484310796498
 20
105.0718522990232
 30
0.0
 10
211.3837978489601
 20
105.109370346828
 30
0.0
 10
211.3290961504501
 20
105.1525299199858
 30
0.0
 10
211.284997648668
 20
105.2023717833712
 30
0.0
 10
211.2513865730054
 20
105.2578655693755
 30
0.0
 10
211.2271852696918
 20
105.3183037342586
 30
0.0
 10
211.213010141883
 20
105.3840229855577
 30
0.0
 10
211.2111445310848
 20
105.4294661548357
 30
0.0
 10
211.210184159136
 20
105.452859214672
 30
0.0
  0
SPLINE
  5
11C
330
1F
100
AcDbEntity
  8
0
  6
Continuous
 62
     7
370
     0
100
AcDbSpline
210
0.0
220
0.0
230
1.0
 70
     8
 71
     3
 72
    23
 73
    19
 74
     0
 42
0.00000001
 43
0.00000001
 40
0.0
 40
0.0
 40
0.0
 40
0.0
 40
0.0698340680322546
 40
0.1370265239564767
 40
0.2014822968650622
 40
0.2645399492437557
 40
0.3259725932884495
 40
0.3863863095292152
 40
0.4457607667910172
 40
0.5056119070745054
 40
0.5651144217391008
 40
0.6247503916637622
 40
0.6841789512645825
 40
0.7442191416569944
 40
0.8051791454666236
 40
0.8683948608225696
 40
0.9332039334133245
 40
1.0
 40
1.0
 40
1.0
 40
1.0
 10
211.1311589688316
 20
104.5214321018645
 30
0.0
 10
211.1315162799377
 20
104.5379026499796
 30
0.0
 10
211.1322173861488
 20
104.5702207150654
 30
0.0
 10
211.1365002064422
 20
104.61762252233
 30
0.0
 10
211.1450357850188
 20
104.6628014270589
 30
0.0
 10
211.1560301538804
 20
104.7060236682613
 30
0.0
 10
211.169989562264
 20
104.7473973763066
 30
0.0
 10
211.1872111495339
 20
104.7865976432517
 30
0.0
 10
211.2081053717591
 20
104.8235297262677
 30
0.0
 10
211.2318425782842
 20
104.8584339408727
 30
0.0
 10
211.2587223054663
 20
104.8910652465645
 30
0.0
 10
211.2883088951301
 20
104.921137884028
 30
0.0
 10
211.3207098192691
 20
104.948309797204
 30
0.0
 10
211.3551969715683
 20
104.9733745958298
 30
0.0
 10
211.3932159298521
 20
104.9945592682193
 30
0.0
 10
211.4333527811196
 20
105.0140001523275
 30
0.0
 10
211.4762975841899
 20
105.03057962174
 30
0.0
 10
211.5061793721413
 20
105.0390357363542
 30
0.0
 10
211.5213458459599
 20
105.0433276295003
 30
0.0
  0
SPLINE
  5
11D
330
1F
100
AcDbEntity
  8
0
  6
Continuous
 62
     7
370
     0
100
AcDbSpline
210
0.0
220
0.0
230
1.0
 70
     8
 71
     3
 72
    23
 73
    19
 74
     0
 42
0.00000001
 43
0.00000001
 40
0.0
 40
0.0
 40
0.0
 40
0.0
 40
0.0704416310595481
 40
0.1380893247200281
 40
0.2031777335235315
 40
0.2661387238052539
 40
0.3279287813674604
 40
0.3891903607612971
 40
0.4502535751031184
 40
0.5123465781279282
 40
0.5738427205586503
 40
0.6339325568070919
 40
0.6934598075975581
 40
0.7524794354833053
 40
0.8123859308429278
 40
0.8730704652319968
 40
0.9351843065837709
 40
1.0
 40
1.0
 40
1.0
 40
1.0
 10
211.7897022213689
 20
103.8900537584942
 30
0.0
 10
211.7656723227225
 20
103.8906351213709
 30
0.0
 10
211.7185656270474
 20
103.8917747884378
 30
0.0
 10
211.6496030833407
 20
103.899880770883
 30
0.0
 10
211.5843386649294
 20
103.9144079405019
 30
0.0
 10
211.522624496367
 20
103.9342752083009
 30
0.0
 10
211.4641257992588
 20
103.959191109618
 30
0.0
 10
211.409706472868
 20
103.9908172342746
 30
0.0
 10
211.3586167987932
 20
104.0276952328584
 30
0.0
 10
211.3116647530046
 20
104.0698562626816
 30
0.0
 10
211.2693488474166
 20
104.1162051483838
 30
0.0
 10
211.2325139685106
 20
104.1659312025364
 30
0.0
 10
211.2011159985507
 20
104.2182691566855
 30
0.0
 10
211.1752761506297
 20
104.2735140525467
 30
0.0
 10
211.1555802942669
 20
104.3316663934718
 30
0.0
 10
211.1417575086559
 20
104.3925078548669
 30
0.0
 10
211.1326797229953
 20
104.4559919446341
 30
0.0
 10
211.1316730297893
 20
104.4993113471092
 30
0.0
 10
211.1311589688316
 20
104.5214321018645
 30
0.0
  0
SPLINE
  5
11E
330
1F
100
AcDbEntity
  8
0
  6
Continuous
 62
     7
370
     0
100
AcDbSpline
210
0.0
220
0.0
230
1.0
 70
     8
 71
     3
 72
    15
 73
    11
 74
     0
 42
0.00000001
 43
0.00000001
 40
0.0
 40
0.0
 40
0.0
 40
0.0
 40
0.1324616222426389
 40
0.2616495010354901
 40
0.3875466984163662
 40
0.5107816292933475
 40
0.6326753605997104
 40
0.7546603541381371
 40
0.8765227798028643
 40
1.0
 40
1.0
 40
1.0
 40
1.0
 10
209.2872378617269
 20
104.6210367688107
 30
0.0
 10
209.2867714560676
 20
104.5982427162238
 30
0.0
 10
209.2858501718046
 20
104.5532179582223
 30
0.0
 10
209.2783000567255
 20
104.4868656538929
 30
0.0
 10
209.2658630364867
 20
104.4229299860427
 30
0.0
 10
209.2492132982292
 20
104.3612216214957
 30
0.0
 10
209.2267172674613
 20
104.3020910160264
 30
0.0
 10
209.1994316877688
 20
104.245347172984
 30
0.0
 10
209.1679562411339
 20
104.1903979895814
 30
0.0
 10
209.1427145663378
 20
104.1565249893906
 30
0.0
 10
209.1300106601836
 20
104.1394770153928
 30
0.0
  0
SPLINE
  5
11F
330
1F
100
AcDbEntity
  8
0
  6
Continuous
 62
     7
370
     0
100
AcDbSpline
210
0.0
220
0.0
230
1.0
 70
     8
 71
     3
 72
    23
 73
    19
 74
     0
 42
0.00000001
 43
0.00000001
 40
0.0
 40
0.0
 40
0.0
 40
0.0
 40
0.0619974190757221
 40
0.1220879540822937
 40
0.1813753107870036
 40
0.2395080083953663
 40
0.2978356978967516
 40
0.3568799706531185
 40
0.4172818251154282
 40
0.4796404090798164
 40
0.5425000674783567
 40
0.6049624196481905
 40
0.6669910330782648
 40
0.7302162430101637
 40
0.794172863251256
 40
0.8604581431502615
 40
0.9285781799847829
 40
1.0
 40
1.0
 40
1.0
 40
1.0
 10
208.6842591961223
 20
105.2861654538735
 30
0.0
 10
208.7050044161913
 20
105.285621912651
 30
0.0
 10
208.7458567857411
 20
105.2845515481615
 30
0.0
 10
208.8060541668193
 20
105.2757571561569
 30
0.0
 10
208.8636129894199
 20
105.2608280927226
 30
0.0
 10
208.918984740133
 20
105.2407208208035
 30
0.0
 10
208.9714392778051
 20
105.214065197022
 30
0.0
 10
209.0215079291735
 20
105.1817908966198
 30
0.0
 10
209.0689885497701
 20
105.1436318915698
 30
0.0
 10
209.1136127179861
 20
105.1003081635476
 30
0.0
 10
209.1540886132355
 20
105.0522142708878
 30
0.0
 10
209.1903158605246
 20
105.000918730096
 30
0.0
 10
209.2199042972775
 20
104.9453947455965
 30
0.0
 10
209.244790203339
 20
104.8870920581124
 30
0.0
 10
209.2635596865465
 20
104.8250536078538
 30
0.0
 10
209.2778063794044
 20
104.7601598471347
 30
0.0
 10
209.2854236131086
 20
104.6915994557986
 30
0.0
 10
209.2866236472791
 20
104.6449257889716
 30
0.0
 10
209.2872378617269
 20
104.6210367688107
 30
0.0
  0
SPLINE
  5
120
330
1F
100
AcDbEntity
  8
0
  6
Continuous
 62
     7
370
     0
100
AcDbSpline
210
0.0
220
0.0
230
1.0
 70
     8
 71
     3
 72
    15
 73
    11
 74
     0
 42
0.00000001
 43
0.00000001
 40
0.0
 40
0.0
 40
0.0
 40
0.0
 40
0.1367294018595733
 40
0.2685149167908308
 40
0.3955294046848096
 40
0.5199999535658124
 40
0.640496476841269
 40
0.7612361017625323
 40
0.8801067171759528
 40
1.0
 40
1.0
 40
1.0
 40
1.0
 10
208.3179445118984
 20
105.1491061394392
 30
0.0
 10
208.3324791731187
 20
105.1600131529425
 30
0.0
 10
208.3610229485986
 20
105.1814328021435
 30
0.0
 10
208.4055461220468
 20
105.2094790093792
 30
0.0
 10
208.4507059301618
 20
105.2331200919334
 30
0.0
 10
208.4962394861997
 20
105.2524801505569
 30
0.0
 10
208.5425084827998
 20
105.2675616021682
 30
0.0
 10
208.5892337114185
 20
105.2780394983367
 30
0.0
 10
208.6365742636067
 20
105.2851210771047
 30
0.0
 10
208.6683188960184
 20
105.285816335646
 30
0.0
 10
208.6842591961223
 20
105.2861654538735
 30
0.0
  0
LINE
  5
121
330
1F
100
AcDbEntity
  8
0
  6
Continuous
 62
     7
370
     0
100
AcDbLine
 10
208.4224882532
 20
105.6812914054
 30
0.0
 11
208.3179445119
 21
105.1491061394
 31
0.0
  0
LINE
  5
122
330
1F
100
AcDbEntity
  8
0
  6
Continuous
 62
     7
370
     0
100
AcDbLine
 10
209.1818709413
 20
105.6812914054
 30
0.0
 11
208.4224882532
 21
105.6812914054
 31
0.0
  0
LINE
  5
123
330
1F
100
AcDbEntity
  8
0
  6
Continuous
 62
     7
370
     0
100
AcDbLine
 10
209.1818709413
 20
105.9447087064
 30
0.0
 11
209.1818709413
 21
105.6812914054
 31
0.0
  0
LINE
  5
124
330
1F
100
AcDbEntity
  8
0
  6
Continuous
 62
     7
370
     0
100
AcDbLine
 10
208.2072269276
 20
105.9447087064
 30
0.0
 11
209.1818709413
 21
105.9447087064
 31
0.0
  0
LINE
  5
125
330
1F
100
AcDbEntity
  8
0
  6
Continuous
 62
     7
370
     0
100
AcDbLine
 10
207.9964930868
 20
104.8910395024
 30
0.0
 11
208.2072269276
 21
105.9447087064
 31
0.0
  0
LINE
  5
126
330
1F
100
AcDbEntity
  8
0
  6
Continuous
 62
     7
370
     0
100
AcDbLine
 10
208.2599103878
 20
104.8646977722
 30
0.0
 11
207.9964930868
 21
104.8910395024
 31
0.0
  0
SPLINE
  5
127
330
1F
100
AcDbEntity
  8
0
  6
Continuous
 62
     7
370
     0
100
AcDbSpline
210
0.0
220
0.0
230
1.0
 70
     8
 71
     3
 72
    15
 73
    11
 74
     0
 42
0.00000001
 43
0.00000001
 40
0.0
 40
0.0
 40
0.0
 40
0.0
 40
0.1478596367312535
 40
0.283561321939547
 40
0.4123693961385313
 40
0.5342363558879458
 40
0.6526916293119824
 40
0.768663059498123
 40
0.8836524018604034
 40
1.0
 40
1.0
 40
1.0
 40
1.0
 10
208.6114078488104
 20
105.04908988296
 30
0.0
 10
208.5909230799449
 20
105.0484906634311
 30
0.0
 10
208.5516379290577
 20
105.0473414959805
 30
0.0
 10
208.4951892071271
 20
105.037673962272
 30
0.0
 10
208.4438018918271
 20
105.022057293092
 30
0.0
 10
208.3980577885454
 20
104.9987825476084
 30
0.0
 10
208.3571876926697
 20
104.970977041119
 30
0.0
 10
208.3203425499482
 20
104.939513849114
 30
0.0
 10
208.2872185347582
 20
104.9044142434878
 30
0.0
 10
208.2690486638745
 20
104.8779883144555
 30
0.0
 10
208.2599103877685
 20
104.8646977722496
 30
0.0
  0
SPLINE
  5
128
330
1F
100
AcDbEntity
  8
0
  6
Continuous
 62
     7
370
     0
100
AcDbSpline
210
0.0
220
0.0
230
1.0
 70
     8
 71
     3
 72
    23
 73
    19
 74
     0
 42
0.00000001
 43
0.00000001
 40
0.0
 40
0.0
 40
0.0
 40
0.0
 40
0.0728659334565352
 40
0.1418868719641258
 40
0.2074526264147115
 40
0.2704376800000974
 40
0.3316408722476697
 40
0.3901075774931577
 40
0.4480692869488365
 40
0.5055029519245378
 40
0.5624881528337237
 40
0.6190843288847292
 40
0.676415530692239
 40
0.735452360450793
 40
0.7962407694486783
 40
0.8604056780892031
 40
0.9283049272851063
 40
1.0
 40
1.0
 40
1.0
 40
1.0
 10
209.0238205607119
 20
104.605396366563
 30
0.0
 10
209.0235181701219
 20
104.622145974917
 30
0.0
 10
209.022929345511
 20
104.6547613470564
 30
0.0
 10
209.0179704816347
 20
104.7022547517571
 30
0.0
 10
209.0096042944743
 20
104.7469129250202
 30
0.0
 10
208.9987792316384
 20
104.7892280778628
 30
0.0
 10
208.9838582478823
 20
104.8285389839071
 30
0.0
 10
208.9661611209771
 20
104.8654156128557
 30
0.0
 10
208.944481396735
 20
104.8990753340751
 30
0.0
 10
208.9203612729242
 20
104.9305661893862
 30
0.0
 10
208.8928130463752
 20
104.9587964722713
 30
0.0
 10
208.8614645451764
 20
104.9826333705391
 30
0.0
 10
208.8275455525205
 20
105.003495470432
 30
0.0
 10
208.7903729051476
 20
105.0204133319925
 30
0.0
 10
208.7499247139996
 20
105.0329826674076
 30
0.0
 10
208.7066029226401
 20
105.0426536400055
 30
0.0
 10
208.6599580033132
 20
105.0477401755876
 30
0.0
 10
208.6278819688842
 20
105.0486318979846
 30
0.0
 10
208.6114078488104
 20
105.04908988296
 30
0.0
  0
SPLINE
  5
129
330
1F
100
AcDbEntity
  8
0
  6
Continuous
 62
     7
370
     0
100
AcDbSpline
210
0.0
220
0.0
230
1.0
 70
     8
 71
     3
 72
    23
 73
    19
 74
     0
 42
0.00000001
 43
0.00000001
 40
0.0
 40
0.0
 40
0.0
 40
0.0
 40
0.0658010376094729
 40
0.1286767959489732
 40
0.188675874952434
 40
0.2475984367338953
 40
0.304849420118828
 40
0.3617858992828996
 40
0.4195227063685897
 40
0.4786818154207407
 40
0.5387695030440196
 40
0.5987990560131542
 40
0.660184281500679
 40
0.7229515306109661
 40
0.7879926891048736
 40
0.8554037684344739
 40
0.9261530612840035
 40
1.0
 40
1.0
 40
1.0
 40
1.0
 10
208.6101730802118
 20
104.1271293294077
 30
0.0
 10
208.6258343593042
 20
104.1275077513727
 30
0.0
 10
208.65646067292
 20
104.1282477720129
 30
0.0
 10
208.7010161577039
 20
104.1345065692705
 30
0.0
 10
208.7431024215735
 20
104.1448266008523
 30
0.0
 10
208.7825180881576
 20
104.1592687184124
 30
0.0
 10
208.8197252297285
 20
104.1772292004623
 30
0.0
 10
208.8534895220439
 20
104.2004847530166
 30
0.0
 10
208.8856519804057
 20
104.2266262919942
 30
0.0
 10
208.9141429433319
 20
104.2577920235864
 30
0.0
 10
208.9400777243565
 20
104.2917211282783
 30
0.0
 10
208.9624613901498
 20
104.3287561893253
 30
0.0
 10
208.9813052742461
 20
104.3683773903372
 30
0.0
 10
208.9971697650137
 20
104.4105771351988
 30
0.0
 10
209.0088845337285
 20
104.4555964964088
 30
0.0
 10
209.017501692376
 20
104.5031959795502
 30
0.0
 10
209.0230335642394
 20
104.5534059055391
 30
0.0
 10
209.0235545085382
 20
104.5878204616533
 30
0.0
 10
209.0238205607119
 20
104.605396366563
 30
0.0
  0
SPLINE
  5
12A
330
1F
100
AcDbEntity
  8
0
  6
Continuous
 62
     7
370
     0
100
AcDbSpline
210
0.0
220
0.0
230
1.0
 70
     8
 71
     3
 72
    23
 73
    19
 74
     0
 42
0.00000001
 43
0.00000001
 40
0.0
 40
0.0
 40
0.0
 40
0.0
 40
0.0773613371189766
 40
0.1504798322806807
 40
0.2199772368520748
 40
0.2866809968624415
 40
0.3496784941856628
 40
0.4106796250174856
 40
0.4694271135192909
 40
0.5267557014271298
 40
0.5831419808348374
 40
0.6388244277786261
 40
0.6952634704038129
 40
0.7526958048985354
 40
0.810849183334895
 40
0.8713563036360844
 40
0.934436430984128
 40
1.0
 40
1.0
 40
1.0
 40
1.0
 10
208.233568657667
 20
104.4959135508286
 30
0.0
 10
208.2361769024971
 20
104.4810714316084
 30
0.0
 10
208.2412503443376
 20
104.4522012014117
 30
0.0
 10
208.2509183484888
 20
104.4104106868876
 30
0.0
 10
208.2634743338191
 20
104.3715861307975
 30
0.0
 10
208.2775823656714
 20
104.3353912903106
 30
0.0
 10
208.2943521416063
 20
104.3022088805445
 30
0.0
 10
208.3125223327683
 20
104.2715149686073
 30
0.0
 10
208.3339503598046
 20
104.2443990926889
 30
0.0
 10
208.3564790531709
 20
104.2194430669044
 30
0.0
 10
208.3812060155638
 20
104.197452394663
 30
0.0
 10
208.4083698436569
 20
104.1789134993255
 30
0.0
 10
208.4372126488388
 20
104.1627394357472
 30
0.0
 10
208.4680857256036
 20
104.1494968310552
 30
0.0
 10
208.5010363905377
 20
104.1398039418407
 30
0.0
 10
208.535645269736
 20
104.1321385304683
 30
0.0
 10
208.5723580151332
 20
104.1282759658304
 30
0.0
 10
208.5974068707486
 20
104.1275164291184
 30
0.0
 10
208.6101730802118
 20
104.1271293294077
 30
0.0
  0
LINE
  5
12B
330
1F
100
AcDbEntity
  8
0
  6
Continuous
 62
     7
370
     0
100
AcDbLine
 10
207.9701513567
 20
104.4695718207
 30
0.0
 11
208.2335686577
 21
104.4959135508
 31
0.0
  0
SPLINE
  5
12C
330
1F
100
AcDbEntity
  8
0
  6
Continuous
 62
     7
370
     0
100
AcDbSpline
210
0.0
220
0.0
230
1.0
 70
     8
 71
     3
 72
    23
 73
    19
 74
     0
 42
0.00000001
 43
0.00000001
 40
0.0
 40
0.0
 40
0.0
 40
0.0
 40
0.0692980234597528
 40
0.135560844101282
 40
0.1996709556470566
 40
0.2617162384956093
 40
0.3226619299471026
 40
0.3829069237782244
 40
0.4430320330728902
 40
0.503500787350163
 40
0.5637242810171083
 40
0.6239800220534739
 40
0.6836293869955233
 40
0.7438482724857304
 40
0.8051918462295105
 40
0.8676487429597675
 40
0.9327780842312613
 40
1.0
 40
1.0
 40
1.0
 40
1.0
 10
208.6085267220805
 20
103.8900537584942
 30
0.0
 10
208.5864157091785
 20
103.8905022767866
 30
0.0
 10
208.5431621295915
 20
103.8913796685977
 30
0.0
 10
208.4798311932763
 20
103.8990072974294
 30
0.0
 10
208.4195959838726
 20
103.9111706758216
 30
0.0
 10
208.3624376306746
 20
103.9286167257912
 30
0.0
 10
208.3081839309022
 20
103.950661442601
 30
0.0
 10
208.257465513167
 20
103.9786657919884
 30
0.0
 10
208.209402213981
 20
104.0107010234506
 30
0.0
 10
208.1650512657474
 20
104.0477541365638
 30
0.0
 10
208.1246417773388
 20
104.089082602631
 30
0.0
 10
208.0884340550451
 20
104.1338107605278
 30
0.0
 10
208.0569180879975
 20
104.1819677762771
 30
0.0
 10
208.0301090873313
 20
104.2332654889734
 30
0.0
 10
208.0077650232411
 20
104.2876547026845
 30
0.0
 10
207.9906709307888
 20
104.345506644561
 30
0.0
 10
207.977130987027
 20
104.4062536979492
 30
0.0
 10
207.9725022944988
 20
104.4482444776975
 30
0.0
 10
207.9701513566521
 20
104.4695718207271
 30
0.0
  0
SPLINE
  5
12D
330
1F
100
AcDbEntity
  8
0
  6
Continuous
 62
     7
370
     0
100
AcDbSpline
210
0.0
220
0.0
230
1.0
 70
     8
 71
     3
 72
    15
 73
    11
 74
     0
 42
0.00000001
 43
0.00000001
 40
0.0
 40
0.0
 40
0.0
 40
0.0
 40
0.1278926194654203
 40
0.2515785135038574
 40
0.3727928197023036
 40
0.4927776986078534
 40
0.6135900692425711
 40
0.7378086492801449
 40
0.8661799015391672
 40
1.0
 40
1.0
 40
1.0
 40
1.0
 10
209.1300106601836
 20
104.1394770153928
 30
0.0
 10
209.1138707035948
 20
104.1195766644677
 30
0.0
 10
209.0821216761403
 20
104.0804305376243
 30
0.0
 10
209.0271485816718
 20
104.0296212079771
 30
0.0
 10
208.9680517257122
 20
103.9864402703793
 30
0.0
 10
208.9044794156936
 20
103.9513588879594
 30
0.0
 10
208.8368584331073
 20
103.923168026519
 30
0.0
 10
208.764358072719
 20
103.904408066786
 30
0.0
 10
208.687854376658
 20
103.8918100107339
 30
0.0
 10
208.6353331049974
 20
103.8906472308499
 30
0.0
 10
208.6085267220805
 20
103.8900537584942
 30
0.0
  0
SPLINE
  5
12E
330
1F
100
AcDbEntity
  8
0
  6
Continuous
 62
     7
370
     0
100
AcDbSpline
210
0.0
220
0.0
230
1.0
 70
     8
 71
     3
 72
    27
 73
    23
 74
     0
 42
0.00000001
 43
0.00000001
 40
0.0
 40
0.0
 40
0.0
 40
0.0
 40
0.0467628351215619
 40
0.091968696607212
 40
0.1358043853805056
 40
0.1782315801839235
 40
0.2194414332265379
 40
0.2601769432685921
 40
0.3002796061140319
 40
0.3405476414666171
 40
0.3803111902076692
 40
0.4196419535698123
 40
0.4590173240985177
 40
0.4981819588897615
 40
0.5376702145628715
 40
0.5779133315743612
 40
0.6186488416164155
 40
0.6607616027603175
 40
0.7452991770631804
 40
0.8297447416906314
 40
0.9146020866092538
 40
1.0
 40
1.0
 40
1.0
 40
1.0
 10
204.5037443111084
 20
105.7603165957004
 30
0.0
 10
204.4856187334128
 20
105.760053611571
 30
0.0
 10
204.4499710710847
 20
105.7595363993972
 30
0.0
 10
204.3976003667685
 20
105.7538755695321
 30
0.0
 10
204.3473062752939
 20
105.7455377195285
 30
0.0
 10
204.2994636368044
 20
105.7330343966856
 30
0.0
 10
204.2538106529657
 20
105.7174460045186
 30
0.0
 10
204.2106182365997
 20
105.6980356981012
 30
0.0
 10
204.1695189737583
 20
105.6752845421551
 30
0.0
 10
204.1309715531534
 20
105.6490559132211
 30
0.0
 10
204.0952999310002
 20
105.6195698865516
 30
0.0
 10
204.0615360827207
 20
105.5883985428784
 30
0.0
 10
204.0313010476283
 20
105.5540881219198
 30
0.0
 10
204.0034418732913
 20
105.5177699741504
 30
0.0
 10
203.9787698179044
 20
105.4788023315984
 30
0.0
 10
203.9565608350754
 20
105.4377159807288
 30
0.0
 10
203.9369564901361
 20
105.3941741866494
 30
0.0
 10
203.9155864229323
 20
105.3328924094312
 30
0.0
 10
203.8937967751803
 20
105.2539628976444
 30
0.0
 10
203.8748942288847
 20
105.1573787577006
 30
0.0
 10
203.8628537525496
 20
105.0592729412323
 30
0.0
 10
203.8615136430327
 20
104.9932851810723
 30
0.0
 10
203.8608414608187
 20
104.9601865438675
 30
0.0
  0
SPLINE
  5
12F
330
1F
100
AcDbEntity
  8
0
  6
Continuous
 62
     7
370
     0
100
AcDbSpline
210
0.0
220
0.0
230
1.0
 70
     8
 71
     3
 72
    23
 73
    19
 74
     0
 42
0.00000001
 43
0.00000001
 40
0.0
 40
0.0
 40
0.0
 40
0.0
 40
0.0772311103286299
 40
0.1511651795217243
 40
0.2207847057253997
 40
0.2871495176777684
 40
0.3506324812950841
 40
0.4113067715078916
 40
0.4699644151376497
 40
0.5267072266832779
 40
0.5824983333641278
 40
0.6385087274080254
 40
0.6949179812139084
 40
0.7524203526591543
 40
0.8112509754155086
 40
0.8718561089908092
 40
0.9346441878526878
 40
1.0
 40
1.0
 40
1.0
 40
1.0
 10
205.0198775852845
 20
105.3380257350108
 30
0.0
 10
205.0141871702086
 20
105.3557973885829
 30
0.0
 10
205.0030492671947
 20
105.3905820134729
 30
0.0
 10
204.9832728308871
 20
105.4401562858195
 30
0.0
 10
204.9619149390553
 20
105.48617740736
 30
0.0
 10
204.9384668291628
 20
105.5283325472028
 30
0.0
 10
204.912877684249
 20
105.5666318027517
 30
0.0
 10
204.8857367543424
 20
105.6015406445254
 30
0.0
 10
204.8563937699601
 20
105.6324074936482
 30
0.0
 10
204.8254455919255
 20
105.6599440629068
 30
0.0
 10
204.7920930474219
 20
105.6834025847668
 30
0.0
 10
204.7571180649303
 20
105.7041906956428
 30
0.0
 10
204.7197831973632
 20
105.7213896873797
 30
0.0
 10
204.68062553429
 20
105.7359364813982
 30
0.0
 10
204.6392790731905
 20
105.7470081591008
 30
0.0
 10
204.5959121823651
 20
105.7547975211171
 30
0.0
 10
204.5504867586392
 20
105.7593056222309
 30
0.0
 10
204.5195318837521
 20
105.7599751326848
 30
0.0
 10
204.5037443111084
 20
105.7603165957004
 30
0.0
  0
LINE
  5
130
330
1F
100
AcDbEntity
  8
0
  6
Continuous
 62
     7
370
     0
100
AcDbLine
 10
205.3096366164
 20
105.4001757545
 30
0.0
 11
205.0198775853
 21
105.338025735
 31
0.0
  0
SPLINE
  5
131
330
1F
100
AcDbEntity
  8
0
  6
Continuous
 62
     7
370
     0
100
AcDbSpline
210
0.0
220
0.0
230
1.0
 70
     8
 71
     3
 72
    23
 73
    19
 74
     0
 42
0.00000001
 43
0.00000001
 40
0.0
 40
0.0
 40
0.0
 40
0.0
 40
0.0686494919759957
 40
0.134937373785155
 40
0.1988418982006104
 40
0.2614093284183097
 40
0.3225167637069052
 40
0.3823768656987784
 40
0.4424709047536874
 40
0.5022278334792912
 40
0.5621014330908561
 40
0.62173160809488
 40
0.6818513124344153
 40
0.7420491672939588
 40
0.8039081304743815
 40
0.8671621602461707
 40
0.9323605979385298
 40
1.0
 40
1.0
 40
1.0
 40
1.0
 10
204.5177383552248
 20
105.9973921666139
 30
0.0
 10
204.5423142488342
 20
105.9969289231786
 30
0.0
 10
204.5906206010974
 20
105.9960183723385
 30
0.0
 10
204.6615015665191
 20
105.9885289120651
 30
0.0
 10
204.7293870247768
 20
105.9759848865193
 30
0.0
 10
204.7945711357771
 20
105.9595283112728
 30
0.0
 10
204.8563761925022
 20
105.9369958340995
 30
0.0
 10
204.9154731955381
 20
105.9102073084412
 30
0.0
 10
204.9712742467327
 20
105.8780241398426
 30
0.0
 10
205.0242135258754
 20
105.8413307799807
 30
0.0
 10
205.0734292627841
 20
105.8000595577224
 30
0.0
 10
205.1196101793998
 20
105.7551964312762
 30
0.0
 10
205.1608732605418
 20
105.7056201497478
 30
0.0
 10
205.1988527750688
 20
105.6525305474889
 30
0.0
 10
205.232353760805
 20
105.5951914528892
 30
0.0
 10
205.2626086851301
 20
105.5341028012853
 30
0.0
 10
205.2886270394901
 20
105.4688104683986
 30
0.0
 10
205.3025481548532
 20
105.4233325525615
 30
0.0
 10
205.309636616401
 20
105.400175754469
 30
0.0
  0
SPLINE
  5
132
330
1F
100
AcDbEntity
  8
0
  6
Continuous
 62
     7
370
     0
100
AcDbSpline
210
0.0
220
0.0
230
1.0
 70
     8
 71
     3
 72
    31
 73
    27
 74
     0
 42
0.00000001
 43
0.00000001
 40
0.0
 40
0.0
 40
0.0
 40
0.0
 40
0.0494014326173349
 40
0.0976047534771127
 40
0.1442547055445423
 40
0.1894721438466749
 40
0.2339150059350921
 40
0.2772371111508619
 40
0.3198588355644323
 40
0.3619566544332702
 40
0.4034857542265475
 40
0.4439336363338552
 40
0.4836491750513743
 40
0.5228932833172718
 40
0.5618583840947368
 40
0.6007948668981946
 40
0.6401043361891355
 40
0.6796434268265384
 40
0.7193997691904886
 40
0.7588541926680972
 40
0.7983154646830742
 40
0.8378024081343659
 40
0.8774685864444087
 40
0.9176827969423332
 40
0.9583928898538524
 40
0.9999999999999999
 40
0.9999999999999999
 40
0.9999999999999999
 40
0.9999999999999999
 10
203.5710824297023
 20
104.958951775269
 30
0.0
 10
203.5715472880765
 20
104.9850263110429
 30
0.0
 10
203.5724657308142
 20
105.0365430080577
 30
0.0
 10
203.5776503251722
 20
105.1125573898898
 30
0.0
 10
203.587172545744
 20
105.1859205675447
 30
0.0
 10
203.6003961404229
 20
105.2566807977483
 30
0.0
 10
203.6171292778733
 20
105.3248953861207
 30
0.0
 10
203.63778446035
 20
105.3905975665158
 30
0.0
 10
203.6621004006653
 20
105.4537032736969
 30
0.0
 10
203.6900029677582
 20
105.5142820943517
 30
0.0
 10
203.7216775413284
 20
105.5716578090935
 30
0.0
 10
203.7561787649515
 20
105.6259119821484
 30
0.0
 10
203.7943296252997
 20
105.6761537841289
 30
0.0
 10
203.8349990061121
 20
105.7233430984982
 30
0.0
 10
203.8792026524295
 20
105.7666941702079
 30
0.0
 10
203.9268055857455
 20
105.806305199587
 30
0.0
 10
203.9773971082158
 20
105.8425374894241
 30
0.0
 10
204.0309698353868
 20
105.8750546737448
 30
0.0
 10
204.0868235093299
 20
105.9035868016519
 30
0.0
 10
204.1441285232305
 20
105.9290006165984
 30
0.0
 10
204.2031128034913
 20
105.9498306925173
 30
0.0
 10
204.2633087060776
 20
105.9671500632898
 30
0.0
 10
204.3248458273055
 20
105.9809378913178
 30
0.0
 10
204.3878679553362
 20
105.9901578549215
 30
0.0
 10
204.4523168567018
 20
105.9961662975549
 30
0.0
 10
204.4957733394454
 20
105.9969805858059
 30
0.0
 10
204.5177383552248
 20
105.9973921666139
 30
0.0
  0
SPLINE
  5
133
330
1F
100
AcDbEntity
  8
0
  6
Continuous
 62
     7
370
     0
100
AcDbSpline
210
0.0
220
0.0
230
1.0
 70
     8
 71
     3
 72
    31
 73
    27
 74
     0
 42
0.00000001
 43
0.00000001
 40
0.0
 40
0.0
 40
0.0
 40
0.0
 40
0.0491959188678573
 40
0.0962478839423339
 40
0.1413486305545651
 40
0.18465611934875
 40
0.226058682310063
 40
0.2661730836384071
 40
0.3052898413966903
 40
0.3432450951047079
 40
0.3808772760868657
 40
0.4184957931350257
 40
0.4563187508918002
 40
0.494236737091876
 40
0.533023528957667
 40
0.572473194333944
 40
0.613078809089891
 40
0.6549344546107934
 40
0.6973967795046183
 40
0.7398840686663999
 40
0.7821947798191174
 40
0.8250615348667028
 40
0.8679874655774052
 40
0.9114105439600777
 40
0.9553719455228146
 40
1.0
 40
1.0
 40
1.0
 40
1.0
 10
204.5235006086845
 20
103.8900537584942
 30
0.0
 10
204.4968732188471
 20
103.8904406066576
 30
0.0
 10
204.4447788584664
 20
103.8911974441757
 30
0.0
 10
204.3684636238878
 20
103.8973533594649
 30
0.0
 10
204.2958803420145
 20
103.9080298365343
 30
0.0
 10
204.2271645604732
 20
103.9228632734367
 30
0.0
 10
204.1620849901201
 20
103.9412038960259
 30
0.0
 10
204.1009114981948
 20
103.9642780244307
 30
0.0
 10
204.0437512321749
 20
103.9919191702871
 30
0.0
 10
203.9901273994882
 20
104.0233542967409
 30
0.0
 10
203.9402677588385
 20
104.0590660159478
 30
0.0
 10
203.8930384845836
 20
104.0980905656666
 30
0.0
 10
203.8495861464677
 20
104.1415022486378
 30
0.0
 10
203.8088242716893
 20
104.1882760747676
 30
0.0
 10
203.7716406687075
 20
104.2390290558052
 30
0.0
 10
203.7366673446398
 20
104.293071691186
 30
0.0
 10
203.7056113272841
 20
104.3513562098707
 30
0.0
 10
203.6773217046322
 20
104.4128020153963
 30
0.0
 10
203.6524912981666
 20
104.4768142019729
 30
0.0
 10
203.6305250736475
 20
104.5421283520985
 30
0.0
 10
203.6125664842387
 20
104.6088746112642
 30
0.0
 10
203.5971052976353
 20
104.6764913213046
 30
0.0
 10
203.5858734947321
 20
104.7455474303514
 30
0.0
 10
203.5769557909727
 20
104.8155248062562
 30
0.0
 10
203.5720526581557
 20
104.8868524708715
 30
0.0
 10
203.5714074576067
 20
104.9347984063017
 30
0.0
 10
203.5710824297023
 20
104.958951775269
 30
0.0
  0
SPLINE
  5
134
330
1F
100
AcDbEntity
  8
0
  6
Continuous
 62
     7
370
     0
100
AcDbSpline
210
0.0
220
0.0
230
1.0
 70
     8
 71
     3
 72
    23
 73
    19
 74
     0
 42
0.00000001
 43
0.00000001
 40
0.0
 40
0.0
 40
0.0
 40
0.0
 40
0.0715783870982365
 40
0.140016209075356
 40
0.206197439946981
 40
0.2701561038056544
 40
0.332001040268831
 40
0.3927550109285566
 40
0.4525790344906382
 40
0.512252798847904
 40
0.5715322524285594
 40
0.6301517528722204
 40
0.6887691695485558
 40
0.7481639008503609
 40
0.8087033721996508
 40
0.8702562984804197
 40
0.9339000275070017
 40
1.0
 40
1.0
 40
1.0
 40
1.0
 10
205.362320076604
 20
104.5741155620674
 30
0.0
 10
205.3550608040275
 20
104.5469572530171
 30
0.0
 10
205.3408607658875
 20
104.4938322297764
 30
0.0
 10
205.3127855655767
 20
104.4178044409236
 30
0.0
 10
205.2812745963202
 20
104.3464556040685
 30
0.0
 10
205.2455632593159
 20
104.2799736647122
 30
0.0
 10
205.2052606972674
 20
104.2187408527196
 30
0.0
 10
205.1614347652481
 20
104.161970208334
 30
0.0
 10
205.1123495797909
 20
104.1108522656828
 30
0.0
 10
205.0598061349891
 20
104.0642072493341
 30
0.0
 10
205.0033953227714
 20
104.0230664693794
 30
0.0
 10
204.9437972642597
 20
103.9875406511526
 30
0.0
 10
204.8813000436541
 20
103.9573153912634
 30
0.0
 10
204.8156510666717
 20
103.9324599934393
 30
0.0
 10
204.7468077725082
 20
103.9137541755348
 30
0.0
 10
204.6751246364053
 20
103.9001202795558
 30
0.0
 10
204.6003926350752
 20
103.891722593702
 30
0.0
 10
204.5494527404293
 20
103.8906170136613
 30
0.0
 10
204.5235006086845
 20
103.8900537584942
 30
0.0
  0
LINE
  5
135
330
1F
100
AcDbEntity
  8
0
  6
Continuous
 62
     7
370
     0
100
AcDbLine
 10
205.0725610455
 20
104.6416162455
 30
0.0
 11
205.3623200766
 21
104.5741155621
 31
0.0
  0
SPLINE
  5
136
330
1F
100
AcDbEntity
  8
0
  6
Continuous
 62
     7
370
     0
100
AcDbSpline
210
0.0
220
0.0
230
1.0
 70
     8
 71
     3
 72
    23
 73
    19
 74
     0
 42
0.00000001
 43
0.00000001
 40
0.0
 40
0.0
 40
0.0
 40
0.0
 40
0.0633358805656859
 40
0.1251107589802108
 40
0.1846884118917139
 40
0.2432104439678636
 40
0.3008880404131166
 40
0.3583701155312993
 40
0.4157614077031932
 40
0.4743866229897766
 40
0.5339662649724071
 40
0.5940075641988068
 40
0.6550724073076799
 40
0.7186100426051375
 40
0.7843747830517751
 40
0.8529914722129185
 40
0.9249004292977558
 40
0.9999999999999999
 40
0.9999999999999999
 40
0.9999999999999999
 40
0.9999999999999999
 10
204.4963356995173
 20
104.1271293294077
 30
0.0
 10
204.5141918050513
 20
104.1275038094995
 30
0.0
 10
204.5494639272011
 20
104.1282435400928
 30
0.0
 10
204.6011773369843
 20
104.1347184435843
 30
0.0
 10
204.6510283511048
 20
104.1442600608024
 30
0.0
 10
204.6984130314948
 20
104.1589837396663
 30
0.0
 10
204.7439687556725
 20
104.1770111593695
 30
0.0
 10
204.7873222725149
 20
104.1992421206784
 30
0.0
 10
204.8283372419268
 20
104.2259794786335
 30
0.0
 10
204.8674960900992
 20
104.2563372371381
 30
0.0
 10
204.9040766932723
 20
104.2908791785986
 30
0.0
 10
204.9376008495165
 20
104.3293270163659
 30
0.0
 10
204.9676758053638
 20
104.3718560285024
 30
0.0
 10
204.9955628576344
 20
104.4177836864473
 30
0.0
 10
205.0189931069135
 20
104.4684820189815
 30
0.0
 10
205.040695050074
 20
104.5224399319828
 30
0.0
 10
205.0587786768256
 20
104.5805442716956
 30
0.0
 10
205.0679009273883
 20
104.6209664850778
 30
0.0
 10
205.0725610454875
 20
104.6416162454525
 30
0.0
  0
SPLINE
  5
137
330
1F
100
AcDbEntity
  8
0
  6
Continuous
 62
     7
370
     0
100
AcDbSpline
210
0.0
220
0.0
230
1.0
 70
     8
 71
     3
 72
    27
 73
    23
 74
     0
 42
0.00000001
 43
0.00000001
 40
0.0
 40
0.0
 40
0.0
 40
0.0
 40
0.1053432609984026
 40
0.2043754661654294
 40
0.2980686612490644
 40
0.3870699389029767
 40
0.429725727732517
 40
0.4709012389537418
 40
0.5111216710274202
 40
0.5501787824700682
 40
0.5883543698960263
 40
0.6266830105708967
 40
0.6644516852874771
 40
0.7025148539501567
 40
0.7404811716294022
 40
0.7776181215946409
 40
0.8147160450669567
 40
0.8515265100150812
 40
0.8880984508373161
 40
0.9251116757437154
 40
0.9621036957071506
 40
1.0
 40
1.0
 40
1.0
 40
1.0
 10
203.8608414608187
 20
104.9601865438675
 30
0.0
 10
203.8615995869552
 20
104.918570546639
 30
0.0
 10
203.8630704203155
 20
104.8378317432937
 30
0.0
 10
203.8775839304163
 20
104.720827880828
 30
0.0
 10
203.8997117667966
 20
104.611694771135
 30
0.0
 10
203.9264168773218
 20
104.526549200893
 30
0.0
 10
203.9532047863511
 20
104.4637442251431
 30
0.0
 10
203.974869501209
 20
104.4197609948683
 30
0.0
 10
203.9995989089261
 20
104.379061047322
 30
0.0
 10
204.0267778989998
 20
104.3414132425485
 30
0.0
 10
204.0567565653492
 20
104.3069273980842
 30
0.0
 10
204.0891172444597
 20
104.2754203226998
 30
0.0
 10
204.1238671648243
 20
104.2465888441529
 30
0.0
 10
204.1614180807345
 20
104.2217826163491
 30
0.0
 10
204.2003246102295
 20
104.1997568491225
 30
0.0
 10
204.2400957842554
 20
104.1801711162857
 30
0.0
 10
204.2807566431798
 20
104.1636063702996
 30
0.0
 10
204.3224712363952
 20
104.1507385392005
 30
0.0
 10
204.3646537794246
 20
104.1396189441638
 30
0.0
 10
204.407768869507
 20
104.1323551028001
 30
0.0
 10
204.451804211895
 20
104.1282556195891
 30
0.0
 10
204.481372855491
 20
104.1275077695904
 30
0.0
 10
204.4963356995173
 20
104.1271293294077
 30
0.0
  0
SPLINE
  5
138
330
1F
100
AcDbEntity
  8
0
  6
Continuous
 62
     7
370
     0
100
AcDbSpline
210
0.0
220
0.0
230
1.0
 70
     8
 71
     3
 72
    23
 73
    19
 74
     0
 42
0.00000001
 43
0.00000001
 40
0.0
 40
0.0
 40
0.0
 40
0.0
 40
0.0704642259291749
 40
0.1379569656042689
 40
0.2035785636142837
 40
0.2676916802449441
 40
0.3301858648593755
 40
0.3915337640898203
 40
0.4526637734870356
 40
0.5131537880892143
 40
0.5734535531000293
 40
0.6329675593891935
 40
0.6923319074206222
 40
0.7514741915716302
 40
0.8121874455294302
 40
0.8729617178483164
 40
0.9354203067594908
 40
0.9999999999999999
 40
0.9999999999999999
 40
0.9999999999999999
 40
0.9999999999999999
 10
219.2785737713176
 20
108.1574140349365
 30
0.0
 10
219.293731956016
 20
108.1526688730739
 30
0.0
 10
219.323409102646
 20
108.1433786534875
 30
0.0
 10
219.3660730839251
 20
108.1263788546864
 30
0.0
 10
219.4061215325193
 20
108.1070221508261
 30
0.0
 10
219.4436416228452
 20
108.0852767333681
 30
0.0
 10
219.4783798363981
 20
108.0609412290354
 30
0.0
 10
219.5102381548677
 20
108.0339777001091
 30
0.0
 10
219.5394374700694
 20
108.0048034001732
 30
0.0
 10
219.5659256145636
 20
107.9734360756022
 30
0.0
 10
219.5891926705295
 20
107.9400775818237
 30
0.0
 10
219.6100603130955
 20
107.9054570037675
 30
0.0
 10
219.6272919045823
 20
107.8691574333814
 30
0.0
 10
219.6414160126232
 20
107.8312731134333
 30
0.0
 10
219.6524349166779
 20
107.7920381359648
 30
0.0
 10
219.6603476892203
 20
107.7513015962371
 30
0.0
 10
219.6648577675491
 20
107.7091583165255
 30
0.0
 10
219.6655351669105
 20
107.6805295282417
 30
0.0
 10
219.6658795217162
 20
107.6659761327305
 30
0.0
  0
SPLINE
  5
139
330
1F
100
AcDbEntity
  8
0
  6
Continuous
 62
     7
370
     0
100
AcDbSpline
210
0.0
220
0.0
230
1.0
 70
     8
 71
     3
 72
    15
 73
    11
 74
     0
 42
0.00000001
 43
0.00000001
 40
0.0
 40
0.0
 40
0.0
 40
0.0
 40
0.1158426906010177
 40
0.2305685484828841
 40
0.3473546045205438
 40
0.468252746734462
 40
0.5923025714800837
 40
0.7199701656206967
 40
0.8556003811349091
 40
1.0
 40
1.0
 40
1.0
 40
1.0
 10
219.5868543314117
 20
108.5994611932023
 30
0.0
 10
219.5858956347132
 20
108.5774278135498
 30
0.0
 10
219.5839874840561
 20
108.5335734767911
 30
0.0
 10
219.5688007396974
 20
108.4689733714223
 30
0.0
 10
219.5448314108645
 20
108.4062470713413
 30
0.0
 10
219.5109381013098
 20
108.3461571394862
 30
0.0
 10
219.4676182032944
 20
108.2898029074935
 30
0.0
 10
219.4139139003237
 20
108.2390910820691
 30
0.0
 10
219.3505969183464
 20
108.1939129819766
 30
0.0
 10
219.3030775254772
 20
108.1698317265017
 30
0.0
 10
219.2785737713176
 20
108.1574140349365
 30
0.0
  0
SPLINE
  5
13A
330
1F
100
AcDbEntity
  8
0
  6
Continuous
 62
     7
370
     0
100
AcDbSpline
210
0.0
220
0.0
230
1.0
 70
     8
 71
     3
 72
    23
 73
    19
 74
     0
 42
0.00000001
 43
0.00000001
 40
0.0
 40
0.0
 40
0.0
 40
0.0
 40
0.0587320371008649
 40
0.1146029008469823
 40
0.1676568100446118
 40
0.2179667070908438
 40
0.2657752056293752
 40
0.3111706510536955
 40
0.3537918046646691
 40
0.3947449080003071
 40
0.4728059510824635
 40
0.5491923665616072
 40
0.6247801075795549
 40
0.7026247640242251
 40
0.7797414321940387
 40
0.854063463988625
 40
0.9271552664103494
 40
0.9999999999999999
 40
0.9999999999999999
 40
0.9999999999999999
 40
0.9999999999999999
 10
218.9073200126996
 20
109.1320580486919
 30
0.0
 10
218.926396409169
 20
109.131984867034
 30
0.0
 10
218.9636198817575
 20
109.1318420688153
 30
0.0
 10
219.0179738488747
 20
109.1282708332231
 30
0.0
 10
219.0694511145017
 20
109.1233861235543
 30
0.0
 10
219.1181624972438
 20
109.1170895829932
 30
0.0
 10
219.1638972234695
 20
109.1079534304999
 30
0.0
 10
219.206612673615
 20
109.0968855924796
 30
0.0
 10
219.2465311379366
 20
109.0841191988978
 30
0.0
 10
219.2953253775575
 20
109.064671846365
 30
0.0
 10
219.3515553891758
 20
109.0347382370484
 30
0.0
 10
219.4117830734428
 20
108.9900725685315
 30
0.0
 10
219.4641834987525
 20
108.9364451226901
 30
0.0
 10
219.5073013427461
 20
108.874958219354
 30
0.0
 10
219.5428257958756
 20
108.8092786103744
 30
0.0
 10
219.5680122172637
 20
108.7406575546649
 30
0.0
 10
219.584115260617
 20
108.6705890998226
 30
0.0
 10
219.5859423388874
 20
108.6231437205868
 30
0.0
 10
219.5868543314117
 20
108.5994611932023
 30
0.0
  0
LINE
  5
13B
330
1F
100
AcDbEntity
  8
0
  6
Continuous
 62
     7
370
     0
100
AcDbLine
 10
218.1380591758
 20
109.1320580487
 30
0.0
 11
218.9073200127
 21
109.1320580487
 31
0.0
  0
LINE
  5
13C
330
1F
100
AcDbEntity
  8
0
  6
Continuous
 62
     7
370
     0
100
AcDbLine
 10
218.1380591758
 20
107.0774031008
 30
0.0
 11
218.1380591758
 21
109.1320580487
 31
0.0
  0
LINE
  5
13D
330
1F
100
AcDbEntity
  8
0
  6
Continuous
 62
     7
370
     0
100
AcDbLine
 10
218.9093779604
 20
107.0774031008
 30
0.0
 11
218.1380591758
 21
107.0774031008
 31
0.0
  0
SPLINE
  5
13E
330
1F
100
AcDbEntity
  8
0
  6
Continuous
 62
     7
370
     0
100
AcDbSpline
210
0.0
220
0.0
230
1.0
 70
     8
 71
     3
 72
    23
 73
    19
 74
     0
 42
0.00000001
 43
0.00000001
 40
0.0
 40
0.0
 40
0.0
 40
0.0
 40
0.064254575424703
 40
0.1273603868320973
 40
0.189471842092642
 40
0.2517207629332009
 40
0.3120272840890018
 40
0.3686746571150512
 40
0.4226814918055486
 40
0.4740604252251507
 40
0.5257737722739172
 40
0.5796221048577139
 40
0.6373752855308659
 40
0.6984003818208012
 40
0.7643573310122578
 40
0.8363147679791494
 40
0.9146777942540468
 40
1.0
 40
1.0
 40
1.0
 40
1.0
 10
219.6658795217162
 20
107.6659761327305
 30
0.0
 10
219.665169753956
 20
107.6426108598566
 30
0.0
 10
219.6637629078926
 20
107.5962980459909
 30
0.0
 10
219.6524643656271
 20
107.5281333723433
 30
0.0
 10
219.6333704282611
 20
107.4625647012774
 30
0.0
 10
219.6070892473361
 20
107.4006521989655
 30
0.0
 10
219.5757741623612
 20
107.3434049754502
 30
0.0
 10
219.5401834711276
 20
107.2923219496829
 30
0.0
 10
219.5012248099061
 20
107.2479287624772
 30
0.0
 10
219.4578011428419
 20
107.210586157125
 30
0.0
 10
219.4101925712176
 20
107.1788932130809
 30
0.0
 10
219.3570544275294
 20
107.1522056815507
 30
0.0
 10
219.2987975662938
 20
107.1286698362814
 30
0.0
 10
219.2342379492984
 20
107.1098685342617
 30
0.0
 10
219.1634049639315
 20
107.094932804444
 30
0.0
 10
219.0853373416564
 20
107.0852290364614
 30
0.0
 10
218.9999151433283
 20
107.078282439442
 30
0.0
 10
218.9404004560043
 20
107.0777044054885
 30
0.0
 10
218.9093779603638
 20
107.0774031007752
 30
0.0
  0
LINE
  5
13F
330
1F
100
AcDbEntity
  8
0
  6
Continuous
 62
     7
370
     0
100
AcDbLine
 10
214.9507098335
 20
107.3144786717
 30
0.0
 11
215.9253538473
 21
107.3144786717
 31
0.0
  0
LINE
  5
140
330
1F
100
AcDbEntity
  8
0
  6
Continuous
 62
     7
370
     0
100
AcDbLine
 10
214.9507098335
 20
109.1320580487
 30
0.0
 11
214.9507098335
 21
107.3144786717
 31
0.0
  0
LINE
  5
141
330
1F
100
AcDbEntity
  8
0
  6
Continuous
 62
     7
370
     0
100
AcDbLine
 10
214.6609508024
 20
109.1320580487
 30
0.0
 11
214.9507098335
 21
109.1320580487
 31
0.0
  0
LINE
  5
142
330
1F
100
AcDbEntity
  8
0
  6
Continuous
 62
     7
370
     0
100
AcDbLine
 10
214.6609508024
 20
107.0774031008
 30
0.0
 11
214.6609508024
 21
109.1320580487
 31
0.0
  0
LINE
  5
143
330
1F
100
AcDbEntity
  8
0
  6
Continuous
 62
     7
370
     0
100
AcDbLine
 10
215.9253538473
 20
107.0774031008
 30
0.0
 11
214.6609508024
 21
107.0774031008
 31
0.0
  0
LINE
  5
144
330
1F
100
AcDbEntity
  8
0
  6
Continuous
 62
     7
370
     0
100
AcDbLine
 10
215.9253538473
 20
107.3144786717
 30
0.0
 11
215.9253538473
 21
107.0774031008
 31
0.0
  0
SPLINE
  5
145
330
1F
100
AcDbEntity
  8
0
  6
Continuous
 62
     7
370
     0
100
AcDbSpline
210
0.0
220
0.0
230
1.0
 70
     8
 71
     3
 72
    31
 73
    27
 74
     0
 42
0.00000001
 43
0.00000001
 40
0.0
 40
0.0
 40
0.0
 40
0.0
 40
0.0430989705688971
 40
0.0855867603450731
 40
0.1269076657436393
 40
0.167967485621521
 40
0.2084495586010657
 40
0.2490254246415444
 40
0.289280534171679
 40
0.3300098489827311
 40
0.3705977240995773
 40
0.4104659863326997
 40
0.4500332158929486
 40
0.4896882096042476
 40
0.5291164230741916
 40
0.5690368070925098
 40
0.6097030542359447
 40
0.6507589174942195
 40
0.6925092624061778
 40
0.7342191213706865
 40
0.7767069111468624
 40
0.8195518402403215
 40
0.8633507288313336
 40
0.9078385251300617
 40
0.9533337036124182
 40
1.0
 40
1.0
 40
1.0
 40
1.0
 10
211.2641023879375
 20
109.1583997787934
 30
0.0
 10
211.2873001129477
 20
109.1579947028432
 30
0.0
 10
211.3333665991024
 20
109.1571902952711
 30
0.0
 10
211.4014717874228
 20
109.1510698279184
 30
0.0
 10
211.4678269119276
 20
109.1401458540039
 30
0.0
 10
211.5323666294524
 20
109.1255065039528
 30
0.0
 10
211.5952666175013
 20
109.1063003133173
 30
0.0
 10
211.6565644387667
 20
109.0836279896956
 30
0.0
 10
211.7157234993162
 20
109.0555337882821
 30
0.0
 10
211.7731373686092
 20
109.0240795341322
 30
0.0
 10
211.8281283184426
 20
108.988896590804
 30
0.0
 10
211.8798086754022
 20
108.9500300647042
 30
0.0
 10
211.9280546487015
 20
108.9077739016495
 30
0.0
 10
211.9735143126254
 20
108.8628226777869
 30
0.0
 10
212.01467074218
 20
108.8136593520486
 30
0.0
 10
212.0532242141159
 20
108.7617815235657
 30
0.0
 10
212.0880668717775
 20
108.7062693143733
 30
0.0
 10
212.1193223445794
 20
108.6475775530411
 30
0.0
 10
212.1472679134295
 20
108.5866127230865
 30
0.0
 10
212.1711527984558
 20
108.5231221501244
 30
0.0
 10
212.1916623134025
 20
108.4578674480032
 30
0.0
 10
212.2088305077246
 20
108.3904623785965
 30
0.0
 10
212.2211491503604
 20
108.320929985584
 30
0.0
 10
212.2309586186781
 20
108.2495698771771
 30
0.0
 10
212.2361216128703
 20
108.176148824539
 30
0.0
 10
212.2370443843935
 20
108.1265515951127
 30
0.0
 10
212.2375116330944
 20
108.1014378584709
 30
0.0
  0
SPLINE
  5
146
330
1F
100
AcDbEntity
  8
0
  6
Continuous
 62
     7
370
     0
100
AcDbSpline
210
0.0
220
0.0
230
1.0
 70
     8
 71
     3
 72
    23
 73
    19
 74
     0
 42
0.00000001
 43
0.00000001
 40
0.0
 40
0.0
 40
0.0
 40
0.0
 40
0.0752263466908988
 40
0.1465747215268523
 40
0.2145002518264754
 40
0.2795299716530229
 40
0.3424029515883816
 40
0.4034960527288085
 40
0.4637616065030394
 40
0.5238643590795866
 40
0.5832517242549666
 40
0.6413020392831351
 40
0.6988977748564889
 40
0.7562952438113089
 40
0.8146278048129693
 40
0.8743247683399981
 40
0.9357832838625451
 40
1.0
 40
1.0
 40
1.0
 40
1.0
 10
210.2882236055837
 20
108.0775656655664
 30
0.0
 10
210.2889377245777
 20
108.118759726332
 30
0.0
 10
210.2903291492219
 20
108.1990242646339
 30
0.0
 10
210.3033299795561
 20
108.3158997747459
 30
0.0
 10
210.3244399910035
 20
108.4258643415835
 30
0.0
 10
210.3546186203006
 20
108.5289093981276
 30
0.0
 10
210.3928701196616
 20
108.6251964166789
 30
0.0
 10
210.4393721243015
 20
108.7149434244636
 30
0.0
 10
210.4955233837757
 20
108.7971345499653
 30
0.0
 10
210.5590447670542
 20
108.8725521993003
 30
0.0
 10
210.6299952345691
 20
108.9392269291338
 30
0.0
 10
210.7055373164736
 20
108.9984436418033
 30
0.0
 10
210.7866142963999
 20
109.0478373810676
 30
0.0
 10
210.8724770852728
 20
109.0886203258999
 30
0.0
 10
210.9634904770379
 20
109.1199322899873
 30
0.0
 10
211.0593989337484
 20
109.1418535140121
 30
0.0
 10
211.1600998819447
 20
109.1559948337684
 30
0.0
 10
211.2289313368088
 20
109.1575864864248
 30
0.0
 10
211.2641023879375
 20
109.1583997787934
 30
0.0
  0
SPLINE
  5
147
330
1F
100
AcDbEntity
  8
0
  6
Continuous
 62
     7
370
     0
100
AcDbSpline
210
0.0
220
0.0
230
1.0
 70
     8
 71
     3
 72
    31
 73
    27
 74
     0
 42
0.00000001
 43
0.00000001
 40
0.0
 40
0.0
 40
0.0
 40
0.0
 40
0.0446969998899166
 40
0.0885335629185872
 40
0.1314091332352273
 40
0.1738139421467782
 40
0.2157145332694449
 40
0.2572471603264206
 40
0.2988479641797117
 40
0.3406041827148141
 40
0.3820294481091343
 40
0.4229697500404856
 40
0.4636322295306196
 40
0.5040475437003945
 40
0.5445912057564575
 40
0.5849639251690936
 40
0.6262652162680831
 40
0.6679794005009904
 40
0.7099427472053506
 40
0.7513818550852255
 40
0.7926185649779643
 40
0.8339484357458206
 40
0.8750080506311037
 40
0.9164455302232758
 40
0.9579066137283071
 40
1.0
 40
1.0
 40
1.0
 40
1.0
 10
211.262867619339
 20
107.0510613706737
 30
0.0
 10
211.2392530613415
 20
107.0514107509853
 30
0.0
 10
211.19247853595
 20
107.052102785884
 30
0.0
 10
211.1233445276765
 20
107.0590104738139
 30
0.0
 10
211.0559304648714
 20
107.0695483923768
 30
0.0
 10
210.9904323322141
 20
107.0847619631384
 30
0.0
 10
210.9269396303044
 20
107.1046091410945
 30
0.0
 10
210.8653772327446
 20
107.1286315373034
 30
0.0
 10
210.8055286180848
 20
107.1565080998894
 30
0.0
 10
210.7481364085886
 20
107.1890370261217
 30
0.0
 10
210.6933959439003
 20
107.2252056954992
 30
0.0
 10
210.6418377883702
 20
107.2648343151581
 30
0.0
 10
210.5934904517678
 20
107.3075576721969
 30
0.0
 10
210.5491297109279
 20
107.3540819327311
 30
0.0
 10
210.5073188611171
 20
107.4027205742668
 30
0.0
 10
210.4697296879494
 20
107.4552814649583
 30
0.0
 10
210.4351345876877
 20
107.5105725788261
 30
0.0
 10
210.4045572860497
 20
107.5691268982611
 30
0.0
 10
210.3769352699716
 20
107.6292044108982
 30
0.0
 10
210.3536631247857
 20
107.6908243339141
 30
0.0
 10
210.3332114194612
 20
107.7530785534359
 30
0.0
 10
210.3169237064012
 20
107.8163507784414
 30
0.0
 10
210.3039443811478
 20
107.88049505432
 30
0.0
 10
210.2952167254617
 20
107.9454046472369
 30
0.0
 10
210.2889135461633
 20
108.0111762289867
 30
0.0
 10
210.2884547431155
 20
108.0553244886279
 30
0.0
 10
210.2882236055837
 20
108.0775656655664
 30
0.0
  0
SPLINE
  5
148
330
1F
100
AcDbEntity
  8
0
  6
Continuous
 62
     7
370
     0
100
AcDbSpline
210
0.0
220
0.0
230
1.0
 70
     8
 71
     3
 72
    31
 73
    27
 74
     0
 42
0.00000001
 43
0.00000001
 40
0.0
 40
0.0
 40
0.0
 40
0.0
 40
0.0475595569054263
 40
0.0939621052432108
 40
0.1391115332408221
 40
0.1836263101269046
 40
0.2274570284004934
 40
0.2707025105518544
 40
0.3136105321155536
 40
0.3562604510849768
 40
0.3983661529550376
 40
0.4395565149792804
 40
0.4800453830214202
 40
0.5198884957050124
 40
0.5596577503171972
 40
0.5994212546627412
 40
0.6392077550883982
 40
0.6796683749857804
 40
0.7200198525128481
 40
0.7598588655624576
 40
0.7995598848323805
 40
0.8391991446364381
 40
0.8789560762302788
 40
0.918794269302466
 40
0.9590833628432749
 40
1.0
 40
1.0
 40
1.0
 40
1.0
 10
212.2375116330944
 20
108.1014378584709
 30
0.0
 10
212.2370835315428
 20
108.0759099957508
 30
0.0
 10
212.2362377431111
 20
108.0254753012412
 30
0.0
 10
212.2305147924955
 20
107.9509678264671
 30
0.0
 10
212.2204518561111
 20
107.8785993067678
 30
0.0
 10
212.2071050842996
 20
107.8081539523063
 30
0.0
 10
212.1892208175429
 20
107.739778415657
 30
0.0
 10
212.1679681148081
 20
107.6732766599668
 30
0.0
 10
212.1422617701469
 20
107.6090447829708
 30
0.0
 10
212.1132293078956
 20
107.546927972548
 30
0.0
 10
212.080379089169
 20
107.4877805504077
 30
0.0
 10
212.044143068882
 20
107.4320161032317
 30
0.0
 10
212.0044955761427
 20
107.3801562633584
 30
0.0
 10
211.9620388517661
 20
107.331564842925
 30
0.0
 10
211.9157814187828
 20
107.287110747414
 30
0.0
 10
211.8662928742454
 20
107.246378298412
 30
0.0
 10
211.8137635013312
 20
107.2089833426371
 30
0.0
 10
211.7580168280579
 20
107.1759386524339
 30
0.0
 10
211.7000533045135
 20
107.1469738011307
 30
0.0
 10
211.6410199374503
 20
107.121276759664
 30
0.0
 10
211.5808728755649
 20
107.0993613000992
 30
0.0
 10
211.5194065546176
 20
107.0816009983829
 30
0.0
 10
211.4567886486975
 20
107.0681800360632
 30
0.0
 10
211.393195372036
 20
107.0581302779196
 30
0.0
 10
211.3284182570611
 20
107.0523435926702
 30
0.0
 10
211.2848301124203
 20
107.0514909743008
 30
0.0
 10
211.262867619339
 20
107.0510613706737
 30
0.0
  0
LINE
  5
149
330
1F
100
AcDbEntity
  8
0
  6
Continuous
 62
     7
370
     0
100
AcDbLine
 10
208.0228348169
 20
108.8949824778
 30
0.0
 11
207.3642915643
 21
108.8949824778
 31
0.0
  0
LINE
  5
14A
330
1F
100
AcDbEntity
  8
0
  6
Continuous
 62
     7
370
     0
100
AcDbLine
 10
208.0228348169
 20
109.1320580487
 30
0.0
 11
208.0228348169
 21
108.8949824778
 31
0.0
  0
LINE
  5
14B
330
1F
100
AcDbEntity
  8
0
  6
Continuous
 62
     7
370
     0
100
AcDbLine
 10
206.4159892807
 20
109.1320580487
 30
0.0
 11
208.0228348169
 21
109.1320580487
 31
0.0
  0
LINE
  5
14C
330
1F
100
AcDbEntity
  8
0
  6
Continuous
 62
     7
370
     0
100
AcDbLine
 10
206.4159892807
 20
108.8949824778
 30
0.0
 11
206.4159892807
 21
109.1320580487
 31
0.0
  0
LINE
  5
14D
330
1F
100
AcDbEntity
  8
0
  6
Continuous
 62
     7
370
     0
100
AcDbLine
 10
207.0745325332
 20
108.8949824778
 30
0.0
 11
206.4159892807
 21
108.8949824778
 31
0.0
  0
LINE
  5
14E
330
1F
100
AcDbEntity
  8
0
  6
Continuous
 62
     7
370
     0
100
AcDbLine
 10
207.0745325332
 20
107.0774031008
 30
0.0
 11
207.0745325332
 21
108.8949824778
 31
0.0
  0
LINE
  5
14F
330
1F
100
AcDbEntity
  8
0
  6
Continuous
 62
     7
370
     0
100
AcDbLine
 10
207.3642915643
 20
107.0774031008
 30
0.0
 11
207.0745325332
 21
107.0774031008
 31
0.0
  0
LINE
  5
150
330
1F
100
AcDbEntity
  8
0
  6
Continuous
 62
     7
370
     0
100
AcDbLine
 10
207.3642915643
 20
108.8949824778
 30
0.0
 11
207.3642915643
 21
107.0774031008
 31
0.0
  0
CIRCLE
  5
151
330
1F
100
AcDbEntity
  8
0
  6
Continuous
 62
     7
370
     0
100
AcDbCircle
 10
214.0155784149
 20
106.5274031008
 30
0.0
 40
25.19999999999996
  0
LINE
  5
152
330
1F
100
AcDbEntity
  8
0
  6
Continuous
 62
     7
370
     0
100
AcDbLine
 10
209.629680353
 20
108.0520471145
 30
0.0
 11
208.6286946092
 21
108.0520471145
 31
0.0
  0
LINE
  5
153
330
1F
100
AcDbEntity
  8
0
  6
Continuous
 62
     7
370
     0
100
AcDbLine
 10
209.629680353
 20
107.0774031008
 30
0.0
 11
209.629680353
 21
108.0520471145
 31
0.0
  0
LINE
  5
154
330
1F
100
AcDbEntity
  8
0
  6
Continuous
 62
     7
370
     0
100
AcDbLine
 10
209.9194393842
 20
107.0774031008
 30
0.0
 11
209.629680353
 21
107.0774031008
 31
0.0
  0
LINE
  5
155
330
1F
100
AcDbEntity
  8
0
  6
Continuous
 62
     7
370
     0
100
AcDbLine
 10
209.9194393842
 20
109.1320580487
 30
0.0
 11
209.9194393842
 21
107.0774031008
 31
0.0
  0
LINE
  5
156
330
1F
100
AcDbEntity
  8
0
  6
Continuous
 62
     7
370
     0
100
AcDbLine
 10
209.629680353
 20
109.1320580487
 30
0.0
 11
209.9194393842
 21
109.1320580487
 31
0.0
  0
LINE
  5
157
330
1F
100
AcDbEntity
  8
0
  6
Continuous
 62
     7
370
     0
100
AcDbLine
 10
209.629680353
 20
108.2891226854
 30
0.0
 11
209.629680353
 21
109.1320580487
 31
0.0
  0
LINE
  5
158
330
1F
100
AcDbEntity
  8
0
  6
Continuous
 62
     7
370
     0
100
AcDbLine
 10
208.6286946092
 20
108.2891226854
 30
0.0
 11
209.629680353
 21
108.2891226854
 31
0.0
  0
LINE
  5
159
330
1F
100
AcDbEntity
  8
0
  6
Continuous
 62
     7
370
     0
100
AcDbLine
 10
208.6286946092
 20
109.1320580487
 30
0.0
 11
208.6286946092
 21
108.2891226854
 31
0.0
  0
LINE
  5
15A
330
1F
100
AcDbEntity
  8
0
  6
Continuous
 62
     7
370
     0
100
AcDbLine
 10
208.3389355781
 20
109.1320580487
 30
0.0
 11
208.6286946092
 21
109.1320580487
 31
0.0
  0
LINE
  5
15B
330
1F
100
AcDbEntity
  8
0
  6
Continuous
 62
     7
370
     0
100
AcDbLine
 10
208.3389355781
 20
107.0774031008
 30
0.0
 11
208.3389355781
 21
109.1320580487
 31
0.0
  0
LINE
  5
15C
330
1F
100
AcDbEntity
  8
0
  6
Continuous
 62
     7
370
     0
100
AcDbLine
 10
208.6286946092
 20
107.0774031008
 30
0.0
 11
208.3389355781
 21
107.0774031008
 31
0.0
  0
LINE
  5
15D
330
1F
100
AcDbEntity
  8
0
  6
Continuous
 62
     7
370
     0
100
AcDbLine
 10
208.6286946092
 20
108.0520471145
 30
0.0
 11
208.6286946092
 21
107.0774031008
 31
0.0
  0
LINE
  5
15E
330
1F
100
AcDbEntity
  8
0
  6
Continuous
 62
     7
370
     0
100
AcDbLine
 10
213.1928109388
 20
107.9993636543
 30
0.0
 11
212.8960548856
 21
107.9993636543
 31
0.0
  0
SPLINE
  5
15F
330
1F
100
AcDbEntity
  8
0
  6
Continuous
 62
     7
370
     0
100
AcDbSpline
210
0.0
220
0.0
230
1.0
 70
     8
 71
     3
 72
    11
 73
     7
 74
     0
 42
0.00000001
 43
0.00000001
 40
0.0
 40
0.0
 40
0.0
 40
0.0
 40
0.1774946570818498
 40
0.4052256231013752
 40
0.678388108334857
 40
0.9999999999999999
 40
0.9999999999999999
 40
0.9999999999999999
 40
0.9999999999999999
 10
213.3356325067004
 20
107.9898970950723
 30
0.0
 10
213.3272809260486
 20
107.9914031689015
 30
0.0
 10
213.3082140170545
 20
107.9948415806031
 30
0.0
 10
213.2758384531614
 20
107.9970872127673
 30
0.0
 10
213.2366114856162
 20
107.9994706508735
 30
0.0
 10
213.2081830337392
 20
107.9994012054812
 30
0.0
 10
213.1928109388064
 20
107.9993636543276
 30
0.0
  0
SPLINE
  5
160
330
1F
100
AcDbEntity
  8
0
  6
Continuous
 62
     7
370
     0
100
AcDbSpline
210
0.0
220
0.0
230
1.0
 70
     8
 71
     3
 72
    21
 73
    17
 74
     0
 42
0.00000001
 43
0.00000001
 40
0.0
 40
0.0
 40
0.0
 40
0.0
 40
0.0807814705861225
 40
0.1565412257955896
 40
0.2279349868434861
 40
0.2943103173046014
 40
0.3568678635548111
 40
0.4147585592592755
 40
0.467641396834016
 40
0.5167484215300131
 40
0.6047297418940536
 40
0.6815706529393895
 40
0.7481095416219826
 40
0.8049410995352804
 40
0.9054060495000024
 40
0.9999999999999999
 40
0.9999999999999999
 40
0.9999999999999999
 40
0.9999999999999999
 10
213.7669783371125
 20
107.5112184683842
 30
0.0
 10
213.7577735505617
 20
107.5264394019981
 30
0.0
 10
213.7399361856389
 20
107.5559350720867
 30
0.0
 10
213.7141707510443
 20
107.5990120783381
 30
0.0
 10
213.6889085895426
 20
107.638671326198
 30
0.0
 10
213.6654783668521
 20
107.676046298553
 30
0.0
 10
213.6429292452751
 20
107.7104584712125
 30
0.0
 10
213.6214791021008
 20
107.7420273853598
 30
0.0
 10
213.6017182547944
 20
107.7711671839077
 30
0.0
 10
213.5772418906383
 20
107.8050934927567
 30
0.0
 10
213.5487554680185
 20
107.8426332683183
 30
0.0
 10
213.5155137673461
 20
107.8812921483326
 30
0.0
 10
213.4838578125063
 20
107.9121143584045
 30
0.0
 10
213.4448729199092
 20
107.9423388140676
 30
0.0
 10
213.3965842324802
 20
107.9706087119095
 30
0.0
 10
213.3555379366387
 20
107.9835979533375
 30
0.0
 10
213.3356325067004
 20
107.9898970950723
 30
0.0
  0
LINE
  5
161
330
1F
100
AcDbEntity
  8
0
  6
Continuous
 62
     7
370
     0
100
AcDbLine
 10
214.0229870265
 20
107.0774031008
 30
0.0
 11
213.7669783371
 21
107.5112184684
 31
0.0
  0
LINE
  5
162
330
1F
100
AcDbEntity
  8
0
  6
Continuous
 62
     7
370
     0
100
AcDbLine
 10
214.3551397795
 20
107.0774031008
 30
0.0
 11
214.0229870265
 21
107.0774031008
 31
0.0
  0
LINE
  5
163
330
1F
100
AcDbEntity
  8
0
  6
Continuous
 62
     7
370
     0
100
AcDbLine
 10
214.0180479521
 20
107.644573477
 30
0.0
 11
214.3551397795
 21
107.0774031008
 31
0.0
  0
SPLINE
  5
164
330
1F
100
AcDbEntity
  8
0
  6
Continuous
 62
     7
370
     0
100
AcDbSpline
210
0.0
220
0.0
230
1.0
 70
     8
 71
     3
 72
    11
 73
     7
 74
     0
 42
0.00000001
 43
0.00000001
 40
0.0
 40
0.0
 40
0.0
 40
0.0
 40
0.2295275697008574
 40
0.4714659343032294
 40
0.7281863484998697
 40
1.0
 40
1.0
 40
1.0
 40
1.0
 10
213.8015518578707
 20
107.9244543593514
 30
0.0
 10
213.8209616677426
 20
107.9054270734727
 30
0.0
 10
213.8608307961347
 20
107.8663436765381
 30
0.0
 10
213.9157721868228
 20
107.7997732026163
 30
0.0
 10
213.9690397519915
 20
107.7256700500449
 30
0.0
 10
214.001403814163
 20
107.6721154505473
 30
0.0
 10
214.0180479521424
 20
107.644573477023
 30
0.0
  0
SPLINE
  5
165
330
1F
100
AcDbEntity
  8
0
  6
Continuous
 62
     7
370
     0
100
AcDbSpline
210
0.0
220
0.0
230
1.0
 70
     8
 71
     3
 72
    11
 73
     7
 74
     0
 42
0.00000001
 43
0.00000001
 40
0.0
 40
0.0
 40
0.0
 40
0.0
 40
0.2930762433192221
 40
0.5565623371181895
 40
0.791913609209812
 40
1.0
 40
1.0
 40
1.0
 40
1.0
 10
213.6418551191304
 20
108.0257053844291
 30
0.0
 10
213.6583969661372
 20
108.0173488081939
 30
0.0
 10
213.6898105291274
 20
108.0014793690779
 30
0.0
 10
213.733302996345
 20
107.9765962263715
 30
0.0
 10
213.7701700552696
 20
107.9511717862523
 30
0.0
 10
213.7915290106666
 20
107.9329874793547
 30
0.0
 10
213.8015518578707
 20
107.9244543593514
 30
0.0
  0
SPLINE
  5
166
330
1F
100
AcDbEntity
  8
0
  6
Continuous
 62
     7
370
     0
100
AcDbSpline
210
0.0
220
0.0
230
1.0
 70
     8
 71
     3
 72
    23
 73
    19
 74
     0
 42
0.00000001
 43
0.00000001
 40
0.0
 40
0.0
 40
0.0
 40
0.0
 40
0.0614130692946597
 40
0.1212950233845469
 40
0.1792240423087199
 40
0.2359380947348317
 40
0.292216833267361
 40
0.3481966394342067
 40
0.4044447389633586
 40
0.4620255339229972
 40
0.5203342118681487
 40
0.580382901650838
 40
0.6418259048139878
 40
0.7063632097966276
 40
0.7738513938275594
 40
0.8452662573568827
 40
0.9201546757684061
 40
1.0
 40
1.0
 40
1.0
 40
1.0
 10
214.1867996606051
 20
108.5780585374948
 30
0.0
 10
214.1863976003293
 20
108.5604826888695
 30
0.0
 10
214.1856035037125
 20
108.5257691825346
 30
0.0
 10
214.1795206437487
 20
108.4747310364673
 30
0.0
 10
214.1685141997698
 20
108.4259661402481
 30
0.0
 10
214.1544006047726
 20
108.3790474196583
 30
0.0
 10
214.1350833988445
 20
108.3346396379737
 30
0.0
 10
214.1127052542354
 20
108.2918357527205
 30
0.0
 10
214.0849819146686
 20
108.2518117008258
 30
0.0
 10
214.0539425703205
 20
108.2135017059597
 30
0.0
 10
214.0183487659983
 20
108.1777262659319
 30
0.0
 10
213.9778873837652
 20
108.1457760706604
 30
0.0
 10
213.9329595080187
 20
108.1170368060577
 30
0.0
 10
213.8833535464998
 20
108.0923013996007
 30
0.0
 10
213.8296405136971
 20
108.0696920637706
 30
0.0
 10
213.7711464585969
 20
108.0514859371822
 30
0.0
 10
213.7081074583278
 20
108.0366192387621
 30
0.0
 10
213.664405893054
 20
108.0294202096667
 30
0.0
 10
213.6418551191304
 20
108.0257053844291
 30
0.0
  0
SPLINE
  5
167
330
1F
100
AcDbEntity
  8
0
  6
Continuous
 62
     7
370
     0
100
AcDbSpline
210
0.0
220
0.0
230
1.0
 70
     8
 71
     3
 72
    27
 73
    23
 74
     0
 42
0.00000001
 43
0.00000001
 40
0.0
 40
0.0
 40
0.0
 40
0.0
 40
0.0621127506505294
 40
0.1202119588785538
 40
0.1743851213884738
 40
0.2254437557784867
 40
0.2723582126361769
 40
0.3163881629634407
 40
0.3568694790582283
 40
0.3939783235063667
 40
0.429589371877092
 40
0.4646830409549868
 40
0.5000363461428401
 40
0.5354827477530637
 40
0.5713634671484433
 40
0.6079085322052599
 40
0.6456622985331156
 40
0.6845173397035776
 40
0.7625786223763458
 40
0.8404972886541805
 40
0.9190729926935228
 40
1.0
 40
1.0
 40
1.0
 40
1.0
 10
213.4977987826378
 20
109.1320580486919
 30
0.0
 10
213.5187909468244
 20
109.1318935663986
 30
0.0
 10
213.5594188235733
 20
109.1315752301719
 30
0.0
 10
213.6183376336068
 20
109.1293217712184
 30
0.0
 10
213.6733324362028
 20
109.1244639048622
 30
0.0
 10
213.7245043484027
 20
109.1192107994412
 30
0.0
 10
213.7718442784249
 20
109.1111479842304
 30
0.0
 10
213.8153033869528
 20
109.1019001173272
 30
0.0
 10
213.8549487726523
 20
109.090895015896
 30
0.0
 10
213.8909576743777
 20
109.0778971427218
 30
0.0
 10
213.9243660834005
 20
109.063191996434
 30
0.0
 10
213.9553331550537
 20
109.0450482200738
 30
0.0
 10
213.9851461505939
 20
109.0251665098608
 30
0.0
 10
214.0126986057492
 20
109.0018084674283
 30
0.0
 10
214.0387172192198
 20
108.9762335729687
 30
0.0
 10
214.063177876137
 20
108.9480943179253
 30
0.0
 10
214.0857184559397
 20
108.9171465108329
 30
0.0
 10
214.113519561724
 20
108.8728537808607
 30
0.0
 10
214.143344480055
 20
108.8138651919045
 30
0.0
 10
214.1681933217014
 20
108.7383725795365
 30
0.0
 10
214.1842154102737
 20
108.6594045514834
 30
0.0
 10
214.1859298195279
 20
108.6054390522885
 30
0.0
 10
214.1867996606051
 20
108.5780585374948
 30
0.0
  0
LINE
  5
168
330
1F
100
AcDbEntity
  8
0
  6
Continuous
 62
     7
370
     0
100
AcDbLine
 10
212.6062958545
 20
109.1320580487
 30
0.0
 11
213.4977987826
 21
109.1320580487
 31
0.0
  0
LINE
  5
169
330
1F
100
AcDbEntity
  8
0
  6
Continuous
 62
     7
370
     0
100
AcDbLine
 10
212.6062958545
 20
107.0774031008
 30
0.0
 11
212.6062958545
 21
109.1320580487
 31
0.0
  0
LINE
  5
16A
330
1F
100
AcDbEntity
  8
0
  6
Continuous
 62
     7
370
     0
100
AcDbLine
 10
212.8960548856
 20
107.0774031008
 30
0.0
 11
212.6062958545
 21
107.0774031008
 31
0.0
  0
LINE
  5
16B
330
1F
100
AcDbEntity
  8
0
  6
Continuous
 62
     7
370
     0
100
AcDbLine
 10
212.8960548856
 20
107.9993636543
 30
0.0
 11
212.8960548856
 21
107.0774031008
 31
0.0
  0
LINE
  5
16C
330
1F
100
AcDbEntity
  8
0
  6
Continuous
 62
     7
370
     0
100
AcDbLine
 10
217.3774417191
 20
107.7096046232
 30
0.0
 11
216.5015791933
 21
107.7096046232
 31
0.0
  0
LINE
  5
16D
330
1F
100
AcDbEntity
  8
0
  6
Continuous
 62
     7
370
     0
100
AcDbLine
 10
217.6112245738
 20
107.0774031008
 30
0.0
 11
217.3774417191
 21
107.7096046232
 31
0.0
  0
LINE
  5
16E
330
1F
100
AcDbEntity
  8
0
  6
Continuous
 62
     7
370
     0
100
AcDbLine
 10
217.9186819548
 20
107.0774031008
 30
0.0
 11
217.6112245738
 21
107.0774031008
 31
0.0
  0
LINE
  5
16F
330
1F
100
AcDbEntity
  8
0
  6
Continuous
 62
     7
370
     0
100
AcDbLine
 10
217.1029115007
 20
109.1320580487
 30
0.0
 11
217.9186819548
 21
107.0774031008
 31
0.0
  0
LINE
  5
170
330
1F
100
AcDbEntity
  8
0
  6
Continuous
 62
     7
370
     0
100
AcDbLine
 10
216.7761094117
 20
109.1320580487
 30
0.0
 11
217.1029115007
 21
109.1320580487
 31
0.0
  0
LINE
  5
171
330
1F
100
AcDbEntity
  8
0
  6
Continuous
 62
     7
370
     0
100
AcDbLine
 10
215.9603389576
 20
107.0774031008
 30
0.0
 11
216.7761094117
 21
109.1320580487
 31
0.0
  0
LINE
  5
172
330
1F
100
AcDbEntity
  8
0
  6
Continuous
 62
     7
370
     0
100
AcDbLine
 10
216.2677963386
 20
107.0774031008
 30
0.0
 11
215.9603389576
 21
107.0774031008
 31
0.0
  0
LINE
  5
173
330
1F
100
AcDbEntity
  8
0
  6
Continuous
 62
     7
370
     0
100
AcDbLine
 10
216.5015791933
 20
107.7096046232
 30
0.0
 11
216.2677963386
 21
107.0774031008
 31
0.0
  0
SPLINE
  5
174
330
1F
100
AcDbEntity
  8
0
  6
Continuous
 62
     7
370
     0
100
AcDbSpline
210
0.0
220
0.0
230
1.0
 70
     8
 71
     3
 72
    23
 73
    19
 74
     0
 42
0.00000001
 43
0.00000001
 40
0.0
 40
0.0
 40
0.0
 40
0.0
 40
0.0749313059818448
 40
0.1470775964339468
 40
0.2163644561730687
 40
0.2825027309006236
 40
0.3466877108244161
 40
0.4088355551310376
 40
0.4692619872876908
 40
0.528432043253463
 40
0.5870013379727412
 40
0.6444163938320668
 40
0.7021887902662969
 40
0.7597671795443349
 40
0.8184897928274489
 40
0.8776328274167838
 40
0.9380195662701677
 40
1.0
 40
1.0
 40
1.0
 40
1.0
 10
221.1797058234865
 20
108.1574140349365
 30
0.0
 10
221.194478719487
 20
108.1506027811995
 30
0.0
 10
221.2234754386506
 20
108.1372334315635
 30
0.0
 10
221.2645531742026
 20
108.1144072782601
 30
0.0
 10
221.3028831580131
 20
108.0907035468844
 30
0.0
 10
221.3381557094294
 20
108.0654840529439
 30
0.0
 10
221.3702567752477
 20
108.0386957478631
 30
0.0
 10
221.3995452828837
 20
108.0106455666832
 30
0.0
 10
221.4261981246448
 20
107.9814911559961
 30
0.0
 10
221.4491398609043
 20
107.9502994049122
 30
0.0
 10
221.4697391863046
 20
107.91833122452
 30
0.0
 10
221.4877649677177
 20
107.8851398184148
 30
0.0
 10
221.5022789807344
 20
107.8505299942969
 30
0.0
 10
221.5150086754412
 20
107.8149189414649
 30
0.0
 10
221.5241649772464
 20
107.7779105614212
 30
0.0
 10
221.5313453646752
 20
107.7398786635219
 30
0.0
 10
221.5355335645804
 20
107.7006444867914
 30
0.0
 10
221.5359376731219
 20
107.674080463647
 30
0.0
 10
221.5361423589223
 20
107.6606254688036
 30
0.0
  0
SPLINE
  5
175
330
1F
100
AcDbEntity
  8
0
  6
Continuous
 62
     7
370
     0
100
AcDbSpline
210
0.0
220
0.0
230
1.0
 70
     8
 71
     3
 72
    23
 73
    19
 74
     0
 42
0.00000001
 43
0.00000001
 40
0.0
 40
0.0
 40
0.0
 40
0.0
 40
0.0327432182311376
 40
0.0724096054938575
 40
0.1196114857927603
 40
0.1746729151985131
 40
0.2373450901947013
 40
0.3083524168429163
 40
0.3876300477623597
 40
0.4747836155862522
 40
0.5633323159904144
 40
0.6451362168299873
 40
0.7202025267224655
 40
0.7891341563324459
 40
0.8514970735699655
 40
0.9073306044315619
 40
0.9569686823424193
 40
1.0
 40
1.0
 40
1.0
 40
1.0
 10
220.3717555705297
 20
108.4331790219366
 30
0.0
 10
220.3788910475289
 20
108.4270972755886
 30
0.0
 10
220.3946707143556
 20
108.4136478690377
 30
0.0
 10
220.4240312169573
 20
108.3958491541895
 30
0.0
 10
220.4604338857959
 20
108.3778658211862
 30
0.0
 10
220.5041219575461
 20
108.3599889965706
 30
0.0
 10
220.555020265314
 20
108.3420016575547
 30
0.0
 10
220.613046709123
 20
108.32348148008
 30
0.0
 10
220.6784223048528
 20
108.3050874812896
 30
0.0
 10
220.7491547332
 20
108.2873618200406
 30
0.0
 10
220.8206109789282
 20
108.2695649002712
 30
0.0
 10
220.8885184354853
 20
108.2518358097671
 30
0.0
 10
220.9508689752542
 20
108.2350335107449
 30
0.0
 10
221.0075636745779
 20
108.2186456203407
 30
0.0
 10
221.0586612142366
 20
108.202718477584
 30
0.0
 10
221.1039840115575
 20
108.186918388304
 30
0.0
 10
221.1438987451121
 20
108.172386313961
 30
0.0
 10
221.1683512349417
 20
108.1621618131865
 30
0.0
 10
221.1797058234865
 20
108.1574140349365
 30
0.0
  0
SPLINE
  5
176
330
1F
100
AcDbEntity
  8
0
  6
Continuous
 62
     7
370
     0
100
AcDbSpline
210
0.0
220
0.0
230
1.0
 70
     8
 71
     3
 72
    11
 73
     7
 74
     0
 42
0.00000001
 43
0.00000001
 40
0.0
 40
0.0
 40
0.0
 40
0.0
 40
0.2627412305282694
 40
0.5099565029432335
 40
0.7533267184204502
 40
1.0
 40
1.0
 40
1.0
 40
1.0
 10
220.298081044152
 20
108.6146900059172
 30
0.0
 10
220.2988298496928
 20
108.5970126578708
 30
0.0
 10
220.3002832122053
 20
108.562702555216
 30
0.0
 10
220.3151241683996
 20
108.5139582418355
 30
0.0
 10
220.3379496628615
 20
108.4695246418766
 30
0.0
 10
220.360436411766
 20
108.4453485470535
 30
0.0
 10
220.3717555705297
 20
108.4331790219366
 30
0.0
  0
SPLINE
  5
177
330
1F
100
AcDbEntity
  8
0
  6
Continuous
 62
     7
370
     0
100
AcDbSpline
210
0.0
220
0.0
230
1.0
 70
     8
 71
     3
 72
    23
 73
    19
 74
     0
 42
0.00000001
 43
0.00000001
 40
0.0
 40
0.0
 40
0.0
 40
0.0
 40
0.0915110363280374
 40
0.1771428603141479
 40
0.2571084852282349
 40
0.3311983993883849
 40
0.4005922945239577
 40
0.4656249598049641
 40
0.5269734913138597
 40
0.5854431157040231
 40
0.6413985080863303
 40
0.6950441672657237
 40
0.7467815514927477
 40
0.7969589345766986
 40
0.8475448623598797
 40
0.8974385414187385
 40
0.9476489188871279
 40
1.0
 40
1.0
 40
1.0
 40
1.0
 10
220.7331311803595
 20
108.9213242078799
 30
0.0
 10
220.7148714677592
 20
108.9211865747984
 30
0.0
 10
220.6795251549173
 20
108.9209201510018
 30
0.0
 10
220.6284280513066
 20
108.9160635780917
 30
0.0
 10
220.5810676410715
 20
108.9094001877902
 30
0.0
 10
220.5375252707443
 20
108.8995711204801
 30
0.0
 10
220.4979435794447
 20
108.8867048383693
 30
0.0
 10
220.4617351181368
 20
108.8718472349096
 30
0.0
 10
220.4299132190214
 20
108.8530187708434
 30
0.0
 10
220.4017360587264
 20
108.83204631073
 30
0.0
 10
220.3774296891908
 20
108.808841442147
 30
0.0
 10
220.3564811992327
 20
108.784389121056
 30
0.0
 10
220.3379538778688
 20
108.7594077742289
 30
0.0
 10
220.3235577404921
 20
108.7325319048754
 30
0.0
 10
220.3118371208818
 20
108.7047793429835
 30
0.0
 10
220.3042760333676
 20
108.6756284312853
 30
0.0
 10
220.2989226067786
 20
108.6456183859141
 30
0.0
 10
220.2983654414863
 20
108.625141930165
 30
0.0
 10
220.298081044152
 20
108.6146900059172
 30
0.0
  0
SPLINE
  5
178
330
1F
100
AcDbEntity
  8
0
  6
Continuous
 62
     7
370
     0
100
AcDbSpline
210
0.0
220
0.0
230
1.0
 70
     8
 71
     3
 72
    23
 73
    19
 74
     0
 42
0.00000001
 43
0.00000001
 40
0.0
 40
0.0
 40
0.0
 40
0.0
 40
0.0671554674490462
 40
0.1314033464826147
 40
0.1927317719102097
 40
0.2512526591565263
 40
0.3077037298841914
 40
0.3626989162982004
 40
0.417778332785431
 40
0.4723043857981148
 40
0.5278725997916965
 40
0.5852299868117377
 40
0.6450565760102913
 40
0.707952356429442
 40
0.7744342720454287
 40
0.84494043137526
 40
0.9204035944750272
 40
1.0
 40
1.0
 40
1.0
 40
1.0
 10
221.1936998676029
 20
108.552539986459
 30
0.0
 10
221.1918587814185
 20
108.5672525977106
 30
0.0
 10
221.1882563214108
 20
108.596040817455
 30
0.0
 10
221.1793190963384
 20
108.6377160965246
 30
0.0
 10
221.1667909052023
 20
108.6764222203896
 30
0.0
 10
221.1521165539076
 20
108.7125201498584
 30
0.0
 10
221.1343281679511
 20
108.7456344267373
 30
0.0
 10
221.1135920572128
 20
108.7760830205271
 30
0.0
 10
221.0896556998528
 20
108.8035071948391
 30
0.0
 10
221.0631350035281
 20
108.8286316014935
 30
0.0
 10
221.0332229483231
 20
108.8505079463215
 30
0.0
 10
221.0000732316775
 20
108.8694972852371
 30
0.0
 10
220.9636298958124
 20
108.8855389283679
 30
0.0
 10
220.9239250472397
 20
108.8986775572896
 30
0.0
 10
220.8809508251748
 20
108.9088647362339
 30
0.0
 10
220.8346094842498
 20
108.9163586195411
 30
0.0
 10
220.7849189361139
 20
108.9201965727068
 30
0.0
 10
220.7506978296775
 20
108.9209417087475
 30
0.0
 10
220.7331311803595
 20
108.9213242078799
 30
0.0
  0
LINE
  5
179
330
1F
100
AcDbEntity
  8
0
  6
Continuous
 62
     7
370
     0
100
AcDbLine
 10
221.4834588987
 20
108.5525399865
 30
0.0
 11
221.1936998676
 21
108.5525399865
 31
0.0
  0
SPLINE
  5
17A
330
1F
100
AcDbEntity
  8
0
  6
Continuous
 62
     7
370
     0
100
AcDbSpline
210
0.0
220
0.0
230
1.0
 70
     8
 71
     3
 72
    23
 73
    19
 74
     0
 42
0.00000001
 43
0.00000001
 40
0.0
 40
0.0
 40
0.0
 40
0.0
 40
0.1004750608070148
 40
0.1956443031597845
 40
0.286083379069932
 40
0.3729828804699541
 40
0.4150256681909615
 40
0.4560516735090278
 40
0.4959387495188997
 40
0.5355660888033513
 40
0.5740871099085041
 40
0.6125192874870976
 40
0.651080960134445
 40
0.6895131377130382
 40
0.7662374603277347
 40
0.8423504388672223
 40
0.9199744947371032
 40
1.0
 40
1.0
 40
1.0
 40
1.0
 10
220.7216066734402
 20
109.1583997787934
 30
0.0
 10
220.7581404412581
 20
109.1575626632982
 30
0.0
 10
220.8292787266111
 20
109.1559326381316
 30
0.0
 10
220.9326446659675
 20
109.1423711256734
 30
0.0
 10
221.029056789998
 20
109.1190824401823
 30
0.0
 10
221.1046664856129
 20
109.0930130933261
 30
0.0
 10
221.1605638493754
 20
109.0666214167588
 30
0.0
 10
221.2002748930294
 20
109.0460282595151
 30
0.0
 10
221.2371345942148
 20
109.022218818362
 30
0.0
 10
221.2714747645866
 20
108.9964532782332
 30
0.0
 10
221.3036143778548
 20
108.9687434061357
 30
0.0
 10
221.3327273737893
 20
108.9384300757914
 30
0.0
 10
221.360077919873
 20
108.9065475231766
 30
0.0
 10
221.3922186228179
 20
108.8607741669475
 30
0.0
 10
221.4268731144843
 20
108.8001933889408
 30
0.0
 10
221.4568366396449
 20
108.7217085847807
 30
0.0
 10
221.4774219309356
 20
108.638874318006
 30
0.0
 10
221.4814262437822
 20
108.5816088686449
 30
0.0
 10
221.4834588987194
 20
108.552539986459
 30
0.0
  0
SPLINE
  5
17B
330
1F
100
AcDbEntity
  8
0
  6
Continuous
 62
     7
370
     0
100
AcDbSpline
210
0.0
220
0.0
230
1.0
 70
     8
 71
     3
 72
    23
 73
    19
 74
     0
 42
0.00000001
 43
0.00000001
 40
0.0
 40
0.0
 40
0.0
 40
0.0
 40
0.0749954673898321
 40
0.149165440426656
 40
0.2236642943382247
 40
0.3004120221906724
 40
0.3395704846106351
 40
0.3789205746932797
 40
0.4180957375990934
 40
0.4582296767501552
 40
0.4984267212184585
 40
0.5397075464534807
 40
0.5822159516458436
 40
0.6258238199943751
 40
0.715481264873698
 40
0.8073840844133602
 40
0.9016341255073719
 40
1.0
 40
1.0
 40
1.0
 40
1.0
 10
220.0083220130356
 20
108.5957568874068
 30
0.0
 10
220.0092999175687
 20
108.6212293463326
 30
0.0
 10
220.0112449625887
 20
108.6718938822928
 30
0.0
 10
220.0284985778819
 20
108.7462409303675
 30
0.0
 10
220.0560184243603
 20
108.8177825661982
 30
0.0
 10
220.0873443673219
 20
108.8745805202905
 30
0.0
 10
220.117894084273
 20
108.9175308789928
 30
0.0
 10
220.1432200316702
 20
108.9484629421839
 30
0.0
 10
220.1716280350321
 20
108.977055476135
 30
0.0
 10
220.2022432266075
 20
109.0037076133336
 30
0.0
 10
220.2356128839686
 20
109.0280211400012
 30
0.0
 10
220.2709091025874
 20
109.0509953115268
 30
0.0
 10
220.3094094084307
 20
109.0707421632727
 30
0.0
 10
220.3635080637364
 20
109.0958754484258
 30
0.0
 10
220.4358790292924
 20
109.1209733839627
 30
0.0
 10
220.5269850230588
 20
109.1428430512598
 30
0.0
 10
220.6228710899869
 20
109.1557216436477
 30
0.0
 10
220.6882292857786
 20
109.1574944399901
 30
0.0
 10
220.7216066734402
 20
109.1583997787934
 30
0.0
  0
SPLINE
  5
17C
330
1F
100
AcDbEntity
  8
0
  6
Continuous
 62
     7
370
     0
100
AcDbSpline
210
0.0
220
0.0
230
1.0
 70
     8
 71
     3
 72
    15
 73
    11
 74
     0
 42
0.00000001
 43
0.00000001
 40
0.0
 40
0.0
 40
0.0
 40
0.0
 40
0.1448052410584837
 40
0.2795118010254856
 40
0.406393921131161
 40
0.527501540482917
 40
0.6453932904726505
 40
0.7618854106740868
 40
0.878942072918487
 40
1.0
 40
1.0
 40
1.0
 40
1.0
 10
220.3116634987356
 20
108.1516517814768
 30
0.0
 10
220.2874809547377
 20
108.1647158883526
 30
0.0
 10
220.2408023512781
 20
108.1899330145764
 30
0.0
 10
220.1779781208842
 20
108.2350213068235
 30
0.0
 10
220.1250423290347
 20
108.2850551123213
 30
0.0
 10
220.082218301432
 20
108.3399618799497
 30
0.0
 10
220.0486587867383
 20
108.3988130044449
 30
0.0
 10
220.0260163289137
 20
108.4617085332717
 30
0.0
 10
220.0105081144368
 20
108.5275067950803
 30
0.0
 10
220.0090588313943
 20
108.5727534160309
 30
0.0
 10
220.0083220130356
 20
108.5957568874068
 30
0.0
  0
SPLINE
  5
17D
330
1F
100
AcDbEntity
  8
0
  6
Continuous
 62
     7
370
     0
100
AcDbSpline
210
0.0
220
0.0
230
1.0
 70
     8
 71
     3
 72
    23
 73
    19
 74
     0
 42
0.00000001
 43
0.00000001
 40
0.0
 40
0.0
 40
0.0
 40
0.0
 40
0.0312001111539368
 40
0.0704867190162007
 40
0.1172148300204116
 40
0.1715755269954915
 40
0.2341219784876086
 40
0.3039626396728061
 40
0.3821556401561972
 40
0.4676462220680264
 40
0.5543353814021599
 40
0.6350744656665042
 40
0.7100366878785244
 40
0.7790924037748317
 40
0.8429656453505103
 40
0.9010012068505269
 40
0.953246256459026
 40
1.0
 40
1.0
 40
1.0
 40
1.0
 10
221.0274176963372
 20
107.9240427698186
 30
0.0
 10
221.0201790480632
 20
107.92701327219
 30
0.0
 10
221.0038256266146
 20
107.9337241766787
 30
0.0
 10
220.9757966296458
 20
107.9426082587553
 30
0.0
 10
220.9425366751014
 20
107.9540962833922
 30
0.0
 10
220.9032467193032
 20
107.9659270790688
 30
0.0
 10
220.8581370986549
 20
107.9784424062694
 30
0.0
 10
220.8072829161393
 20
107.9926078591846
 30
0.0
 10
220.7507125882437
 20
108.0076720429996
 30
0.0
 10
220.6900305471542
 20
108.0237062258045
 30
0.0
 10
220.6287601773718
 20
108.0400105308535
 30
0.0
 10
220.5702234969979
 20
108.056330104572
 30
0.0
 10
220.5163669682189
 20
108.0728965623562
 30
0.0
 10
220.4667494333572
 20
108.0888477740028
 30
0.0
 10
220.4216266933799
 20
108.1048647952053
 30
0.0
 10
220.380870679599
 20
108.1205091143417
 30
0.0
 10
220.3444305791503
 20
108.1354633289367
 30
0.0
 10
220.322174353017
 20
108.1464589335472
 30
0.0
 10
220.3116634987356
 20
108.1516517814768
 30
0.0
  0
SPLINE
  5
17E
330
1F
100
AcDbEntity
  8
0
  6
Continuous
 62
     7
370
     0
100
AcDbSpline
210
0.0
220
0.0
230
1.0
 70
     8
 71
     3
 72
    15
 73
    11
 74
     0
 42
0.00000001
 43
0.00000001
 40
0.0
 40
0.0
 40
0.0
 40
0.0
 40
0.1177675192120362
 40
0.230176448544057
 40
0.3398429589695383
 40
0.4506252599208618
 40
0.5669428888721625
 40
0.696021306454794
 40
0.8394383602270619
 40
1.0
 40
1.0
 40
1.0
 40
1.0
 10
221.2463833278059
 20
107.6466314246872
 30
0.0
 10
221.2456896326908
 20
107.6614839391157
 30
0.0
 10
221.2443338065763
 20
107.6905131574093
 30
0.0
 10
221.2354982632923
 20
107.7327760729968
 30
0.0
 10
221.2187050647515
 20
107.7714589166463
 30
0.0
 10
221.1969139597704
 20
107.808140541722
 30
0.0
 10
221.166598812101
 20
107.841677940693
 30
0.0
 10
221.1282990441495
 20
107.8725796623142
 30
0.0
 10
221.0811708159172
 20
107.9005954623878
 30
0.0
 10
221.0459966837871
 20
107.9159385475168
 30
0.0
 10
221.0274176963372
 20
107.9240427698186
 30
0.0
  0
SPLINE
  5
17F
330
1F
100
AcDbEntity
  8
0
  6
Continuous
 62
     7
370
     0
100
AcDbSpline
210
0.0
220
0.0
230
1.0
 70
     8
 71
     3
 72
    19
 73
    15
 74
     0
 42
0.00000001
 43
0.00000001
 40
0.0
 40
0.0
 40
0.0
 40
0.0
 40
0.1055838864195047
 40
0.2058681332620123
 40
0.300946717742213
 40
0.3930019285950097
 40
0.4809485116065868
 40
0.5628738662802266
 40
0.6414613436333616
 40
0.7177416181792268
 40
0.7917717603087844
 40
0.8627163930302565
 40
0.9317768462002767
 40
1.0
 40
1.0
 40
1.0
 40
1.0
 10
220.777171260373
 20
107.2881369415872
 30
0.0
 10
220.8003988422747
 20
107.2885668593889
 30
0.0
 10
220.8456881291958
 20
107.289405115853
 30
0.0
 10
220.911204144945
 20
107.2994746527703
 30
0.0
 10
220.9728549061361
 20
107.3137580203767
 30
0.0
 10
221.029493027812
 20
107.3353638500911
 30
0.0
 10
221.0809095777042
 20
107.3616001018847
 30
0.0
 10
221.1255590910195
 20
107.3933334636742
 30
0.0
 10
221.1636784704185
 20
107.4291199786681
 30
0.0
 10
221.1935287075379
 20
107.4699022438397
 30
0.0
 10
221.2169784577878
 20
107.5126352378279
 30
0.0
 10
221.2341812737369
 20
107.556560348395
 30
0.0
 10
221.2444286386359
 20
107.6014337710381
 30
0.0
 10
221.2457344194227
 20
107.6316269233037
 30
0.0
 10
221.2463833278059
 20
107.6466314246872
 30
0.0
  0
SPLINE
  5
180
330
1F
100
AcDbEntity
  8
0
  6
Continuous
 62
     7
370
     0
100
AcDbSpline
210
0.0
220
0.0
230
1.0
 70
     8
 71
     3
 72
    19
 73
    15
 74
     0
 42
0.00000001
 43
0.00000001
 40
0.0
 40
0.0
 40
0.0
 40
0.0
 40
0.0937964706969319
 40
0.1801880710186106
 40
0.2603631916661886
 40
0.3348466760639742
 40
0.4070930058327152
 40
0.4814483792884672
 40
0.5592709137563651
 40
0.6422698113109346
 40
0.7285859445716476
 40
0.8159775452756135
 40
0.9060351298875358
 40
1.0
 40
1.0
 40
1.0
 40
1.0
 10
220.2190558538476
 20
107.7886298135156
 30
0.0
 10
220.2222430350865
 20
107.7626134370112
 30
0.0
 10
220.2283657818717
 20
107.7126345768003
 30
0.0
 10
220.2454855934308
 20
107.6417970661119
 30
0.0
 10
220.2675198955309
 20
107.5781068741112
 30
0.0
 10
220.2949740285026
 20
107.5207187195109
 30
0.0
 10
220.3310888943736
 20
107.470320682826
 30
0.0
 10
220.3746010954788
 20
107.424862423377
 30
0.0
 10
220.4274442955782
 20
107.3854983233136
 30
0.0
 10
220.4870922225248
 20
107.3504668533225
 30
0.0
 10
220.5535233666508
 20
107.3229616087333
 30
0.0
 10
220.6244445377611
 20
107.3025715181692
 30
0.0
 10
220.6995175036953
 20
107.29049022704
 30
0.0
 10
220.7509228507944
 20
107.2889323957038
 30
0.0
 10
220.777171260373
 20
107.2881369415872
 30
0.0
  0
LINE
  5
181
330
1F
100
AcDbEntity
  8
0
  6
Continuous
 62
     7
370
     0
100
AcDbLine
 10
219.9292968227
 20
107.7886298135
 30
0.0
 11
220.2190558538
 21
107.7886298135
 31
0.0
  0
SPLINE
  5
182
330
1F
100
AcDbEntity
  8
0
  6
Continuous
 62
     7
370
     0
100
AcDbSpline
210
0.0
220
0.0
230
1.0
 70
     8
 71
     3
 72
    31
 73
    27
 74
     0
 42
0.00000001
 43
0.00000001
 40
0.0
 40
0.0
 40
0.0
 40
0.0
 40
0.0524925849212958
 40
0.1028254751380329
 40
0.1513973394924577
 40
0.1980330772483325
 40
0.2428758954632244
 40
0.2859991683849086
 40
0.3278486614843784
 40
0.3683945968796913
 40
0.4078519911389194
 40
0.4468375528599375
 40
0.4851660451611075
 40
0.5233414044713738
 40
0.5616022144094733
 40
0.5999198855663567
 40
0.6384964264110083
 40
0.6777905770472509
 40
0.7172899891758323
 40
0.7566052415928195
 40
0.7960678905323557
 40
0.8358862309537685
 40
0.8757136832726161
 40
0.9162634539474126
 40
0.9577596754778293
 40
0.9999999999999999
 40
0.9999999999999999
 40
0.9999999999999999
 40
0.9999999999999999
 10
220.7899305358909
 20
107.0510613706737
 30
0.0
 10
220.7675597906613
 20
107.0512459842674
 30
0.0
 10
220.7237386964844
 20
107.0516076159248
 30
0.0
 10
220.6593484928217
 20
107.0559870893932
 30
0.0
 10
220.597642183799
 20
107.0623222129964
 30
0.0
 10
220.5386803255585
 20
107.0717584501275
 30
0.0
 10
220.482647816668
 20
107.084138280856
 30
0.0
 10
220.4293435258417
 20
107.0990040649636
 30
0.0
 10
220.3786411068402
 20
107.1161250801857
 30
0.0
 10
220.3307177155592
 20
107.1362590973384
 30
0.0
 10
220.2856984520822
 20
107.1596526258936
 30
0.0
 10
220.2427738245448
 20
107.1848883242435
 30
0.0
 10
220.202645464517
 20
107.2134941709838
 30
0.0
 10
220.165228896801
 20
107.2450206688604
 30
0.0
 10
220.1295760651762
 20
107.2785570454471
 30
0.0
 10
220.0971646734139
 20
107.3154728988134
 30
0.0
 10
220.0668928169922
 20
107.3546886763923
 30
0.0
 10
220.0394521990756
 20
107.3965632959115
 30
0.0
 10
220.0149381845327
 20
107.4405488988189
 30
0.0
 10
219.9928931013432
 20
107.4859067942073
 30
0.0
 10
219.9743198103001
 20
107.5329660181848
 30
0.0
 10
219.9593515050526
 20
107.5814887344576
 30
0.0
 10
219.9466725926591
 20
107.6311502284053
 30
0.0
 10
219.937880059942
 20
107.6823648386425
 30
0.0
 10
219.9314154937296
 20
107.7349717697854
 30
0.0
 10
219.9300072178229
 20
107.7706381522682
 30
0.0
 10
219.9292968227311
 20
107.7886298135156
 30
0.0
  0
SPLINE
  5
183
330
1F
100
AcDbEntity
  8
0
  6
Continuous
 62
     7
370
     0
100
AcDbSpline
210
0.0
220
0.0
230
1.0
 70
     8
 71
     3
 72
    23
 73
    19
 74
     0
 42
0.00000001
 43
0.00000001
 40
0.0
 40
0.0
 40
0.0
 40
0.0
 40
0.0748159666505558
 40
0.1485345605139195
 40
0.2238723272963845
 40
0.3012971209351246
 40
0.3408936290197578
 40
0.3803400620654399
 40
0.4201265887284642
 40
0.4599499070829663
 40
0.5008311555562169
 40
0.5419071755971083
 40
0.5844387941530511
 40
0.6280801713306066
 40
0.7172666799070601
 40
0.8078600064218678
 40
0.9019246558363443
 40
1.0
 40
1.0
 40
1.0
 40
1.0
 10
221.5361423589223
 20
107.6606254688036
 30
0.0
 10
221.5350700734222
 20
107.6337729560064
 30
0.0
 10
221.5329412303072
 20
107.5804617930875
 30
0.0
 10
221.5146111233111
 20
107.5018786733861
 30
0.0
 10
221.485815494692
 20
107.4257320690249
 30
0.0
 10
221.4520454873167
 20
107.3653055438895
 30
0.0
 10
221.4201226233291
 20
107.3191484602706
 30
0.0
 10
221.3933059117591
 20
107.2859728580514
 30
0.0
 10
221.3635677204023
 20
107.2552969583446
 30
0.0
 10
221.3316401733454
 20
107.2261597434199
 30
0.0
 10
221.2972753832952
 20
107.1991557076901
 30
0.0
 10
221.2601836337543
 20
107.1742756557862
 30
0.0
 10
221.2207564105857
 20
107.1512605885964
 30
0.0
 10
221.1644553273777
 20
107.1232153814821
 30
0.0
 10
221.0896781355551
 20
107.0938774317329
 30
0.0
 10
220.9944270048125
 20
107.0694457807192
 30
0.0
 10
220.8940438501284
 20
107.0535963645905
 30
0.0
 10
220.8251145795921
 20
107.0519180462815
 30
0.0
 10
220.7899305358909
 20
107.0510613706737
 30
0.0
  0
LINE
  5
184
330
1F
100
AcDbEntity
  8
0
  6
Continuous
 62
     7
370
     0
100
AcDbLine
 10
206.5131244104
 20
103.9163954886
 30
0.0
 11
205.9681798689
 21
105.6549496753
 31
0.0
  0
LINE
  5
185
330
1F
100
AcDbEntity
  8
0
  6
Continuous
 62
     7
370
     0
100
AcDbLine
 10
206.8160543066
 20
103.9163954886
 30
0.0
 11
206.5131244104
 21
103.9163954886
 31
0.0
  0
LINE
  5
186
330
1F
100
AcDbEntity
  8
0
  6
Continuous
 62
     7
370
     0
100
AcDbLine
 10
207.3642915643
 20
105.6549496753
 30
0.0
 11
206.8160543066
 21
103.9163954886
 31
0.0
  0
LINE
  5
187
330
1F
100
AcDbEntity
  8
0
  6
Continuous
 62
     7
370
     0
100
AcDbLine
 10
207.3642915643
 20
103.9163954886
 30
0.0
 11
207.3642915643
 21
105.6549496753
 31
0.0
  0
LINE
  5
188
330
1F
100
AcDbEntity
  8
0
  6
Continuous
 62
     7
370
     0
100
AcDbLine
 10
207.6540505954
 20
103.9163954886
 30
0.0
 11
207.3642915643
 21
103.9163954886
 31
0.0
  0
LINE
  5
189
330
1F
100
AcDbEntity
  8
0
  6
Continuous
 62
     7
370
     0
100
AcDbLine
 10
207.6540505954
 20
105.9710504365
 30
0.0
 11
207.6540505954
 21
103.9163954886
 31
0.0
  0
LINE
  5
18A
330
1F
100
AcDbEntity
  8
0
  6
Continuous
 62
     7
370
     0
100
AcDbLine
 10
207.221881586
 20
105.9710504365
 30
0.0
 11
207.6540505954
 21
105.9710504365
 31
0.0
  0
LINE
  5
18B
330
1F
100
AcDbEntity
  8
0
  6
Continuous
 62
     7
370
     0
100
AcDbLine
 10
206.7670751522
 20
104.553947675
 30
0.0
 11
207.221881586
 21
105.9710504365
 31
0.0
  0
SPLINE
  5
18C
330
1F
100
AcDbEntity
  8
0
  6
Continuous
 62
     7
370
     0
100
AcDbSpline
210
0.0
220
0.0
230
1.0
 70
     8
 71
     3
 72
    15
 73
    11
 74
     0
 42
0.00000001
 43
0.00000001
 40
0.0
 40
0.0
 40
0.0
 40
0.0
 40
0.0892047702332451
 40
0.1898334556643485
 40
0.2992325919749813
 40
0.4192609378429058
 40
0.5492073901909386
 40
0.6890743636843492
 40
0.8395791979483176
 40
1.0
 40
1.0
 40
1.0
 40
1.0
 10
206.666235716628
 20
104.2275571754196
 30
0.0
 10
206.6691040541946
 20
104.2373019637915
 30
0.0
 10
206.6752080599653
 20
104.258039496622
 30
0.0
 10
206.6851036290732
 20
104.2906457121845
 30
0.0
 10
206.6956327963449
 20
104.3267281587363
 30
0.0
 10
206.7082329821488
 20
104.3656666378643
 30
0.0
 10
206.7213671846207
 20
104.4080719720831
 30
0.0
 10
206.7351532394728
 20
104.4539089451324
 30
0.0
 10
206.7510551852834
 20
104.5027199298079
 30
0.0
 10
206.7616228229982
 20
104.5365125247263
 30
0.0
 10
206.7670751521728
 20
104.5539476749585
 30
0.0
  0
SPLINE
  5
18D
330
1F
100
AcDbEntity
  8
0
  6
Continuous
 62
     7
370
     0
100
AcDbSpline
210
0.0
220
0.0
230
1.0
 70
     8
 71
     3
 72
    15
 73
    11
 74
     0
 42
0.00000001
 43
0.00000001
 40
0.0
 40
0.0
 40
0.0
 40
0.0
 40
0.1625255217041879
 40
0.3143148980392382
 40
0.4549784905465753
 40
0.5845192373662004
 40
0.704567103309074
 40
0.8134949897289303
 40
0.911681259682607
 40
1.0
 40
1.0
 40
1.0
 40
1.0
 10
206.57362807174
 20
104.5292523029883
 30
0.0
 10
206.5786830610419
 20
104.5129192428146
 30
0.0
 10
206.5884591160907
 20
104.4813320552187
 30
0.0
 10
206.6029558458812
 20
104.435717249801
 30
0.0
 10
206.616145439677
 20
104.3933285127556
 30
0.0
 10
206.6280247458064
 20
104.3540309184966
 30
0.0
 10
206.6392354004785
 20
104.318019577783
 30
0.0
 10
206.6489420609981
 20
104.2849989910035
 30
0.0
 10
206.6582219442478
 20
104.2553360902828
 30
0.0
 10
206.6636603705005
 20
104.2364843469718
 30
0.0
 10
206.666235716628
 20
104.2275571754196
 30
0.0
  0
LINE
  5
18E
330
1F
100
AcDbEntity
  8
0
  6
Continuous
 62
     7
370
     0
100
AcDbLine
 10
206.1142941531
 20
105.9710504365
 30
0.0
 11
206.5736280717
 21
104.529252303
 31
0.0
  0
LINE
  5
18F
330
1F
100
AcDbEntity
  8
0
  6
Continuous
 62
     7
370
     0
100
AcDbLine
 10
205.6784208378
 20
105.9710504365
 30
0.0
 11
206.1142941531
 21
105.9710504365
 31
0.0
  0
LINE
  5
190
330
1F
100
AcDbEntity
  8
0
  6
Continuous
 62
     7
370
     0
100
AcDbLine
 10
205.6784208378
 20
103.9163954886
 30
0.0
 11
205.6784208378
 21
105.9710504365
 31
0.0
  0
LINE
  5
191
330
1F
100
AcDbEntity
  8
0
  6
Continuous
 62
     7
370
     0
100
AcDbLine
 10
205.9681798689
 20
103.9163954886
 30
0.0
 11
205.6784208378
 21
103.9163954886
 31
0.0
  0
LINE
  5
192
330
1F
100
AcDbEntity
  8
0
  6
Continuous
 62
     7
370
     0
100
AcDbLine
 10
205.9681798689
 20
105.6549496753
 30
0.0
 11
205.9681798689
 21
103.9163954886
 31
0.0
  0
SPLINE
  5
193
330
1F
100
AcDbEntity
  8
0
  6
Continuous
 62
     7
370
     0
100
AcDbSpline
210
0.0
220
0.0
230
1.0
 70
     8
 71
     3
 72
    31
 73
    27
 74
     0
 42
0.00000001
 43
0.00000001
 40
0.0
 40
0.0
 40
0.0
 40
0.0
 40
0.0628739462114324
 40
0.1228366299919128
 40
0.1796565674430314
 40
0.233960012230862
 40
0.285595018695559
 40
0.3345131060783806
 40
0.3809048259061764
 40
0.4248945919393347
 40
0.4665290347654873
 40
0.5064882940692464
 40
0.5450315536447543
 40
0.5818311798231344
 40
0.617448279949443
 40
0.652066912769046
 40
0.6858797142465105
 40
0.7191745547913924
 40
0.7521816462063929
 40
0.7852401639180909
 40
0.8186564497770833
 40
0.8525477406533113
 40
0.887626342258519
 40
0.923635078068751
 40
0.9610218444769891
 40
1.0
 40
1.0
 40
1.0
 40
1.0
 10
210.8677416678166
 20
104.9297289184376
 30
0.0
 10
210.8674713035806
 20
104.9005039350947
 30
0.0
 10
210.8669430938272
 20
104.8434071775069
 30
0.0
 10
210.8638053775509
 20
104.7599350666282
 30
0.0
 10
210.857837158074
 20
104.6806271973456
 30
0.0
 10
210.8504931549682
 20
104.6053018984051
 30
0.0
 10
210.8393832165517
 20
104.5341602529032
 30
0.0
 10
210.8274116559615
 20
104.4668999988095
 30
0.0
 10
210.8126057926362
 20
104.4038265569132
 30
0.0
 10
210.7953308261872
 20
104.3449122837503
 30
0.0
 10
210.7758752912472
 20
104.2898456618606
 30
0.0
 10
210.7545392866062
 20
104.2382105283273
 30
0.0
 10
210.7309076128027
 20
104.1900421660879
 30
0.0
 10
210.7042769019713
 20
104.1458103851879
 30
0.0
 10
210.6758656297723
 20
104.1049280827898
 30
0.0
 10
210.6454657138437
 20
104.067241900187
 30
0.0
 10
210.6124326403782
 20
104.0332942504783
 30
0.0
 10
210.5767997882057
 20
104.0032756780608
 30
0.0
 10
210.5392895178844
 20
103.9762351745065
 30
0.0
 10
210.4991556605191
 20
103.9530826934439
 30
0.0
 10
210.456573875748
 20
103.933901265023
 30
0.0
 10
210.4118286688719
 20
103.9175020966847
 30
0.0
 10
210.3644660352148
 20
103.9054857479881
 30
0.0
 10
210.314859472098
 20
103.8962874208295
 30
0.0
 10
210.2628262027198
 20
103.8908707796816
 30
0.0
 10
210.2273209787251
 20
103.8903298563721
 30
0.0
 10
210.2091984152792
 20
103.8900537584942
 30
0.0
  0
SPLINE
  5
194
330
1F
100
AcDbEntity
  8
0
  6
Continuous
 62
     7
370
     0
100
AcDbSpline
210
0.0
220
0.0
230
1.0
 70
     8
 71
     3
 72
    27
 73
    23
 74
     0
 42
0.00000001
 43
0.00000001
 40
0.0
 40
0.0
 40
0.0
 40
0.0
 40
0.0567243372181508
 40
0.1114372357370108
 40
0.1643678222229016
 40
0.21643537246209
 40
0.2676414903219249
 40
0.3173597799690281
 40
0.3674730633322806
 40
0.4182103970528083
 40
0.4714042826470201
 40
0.5279657201290494
 40
0.5880611158232139
 40
0.6521342629937146
 40
0.6863448363353056
 40
0.7232636803169652
 40
0.762610250771542
 40
0.8047389366452182
 40
0.8494303387909499
 40
0.8967112583864923
 40
0.9468896380534765
 40
1.0
 40
1.0
 40
1.0
 40
1.0
 10
210.2091984152792
 20
105.9710504365124
 30
0.0
 10
210.2355856043885
 20
105.9702746718276
 30
0.0
 10
210.2874242958113
 20
105.9687506509876
 30
0.0
 10
210.3631090529893
 20
105.9563210135622
 30
0.0
 10
210.4344370586345
 20
105.9350582030546
 30
0.0
 10
210.5013619714613
 20
105.906373754408
 30
0.0
 10
210.5627397204528
 20
105.8699389838301
 30
0.0
 10
210.6175526372861
 20
105.8256469691815
 30
0.0
 10
210.6652094761148
 20
105.7739627678692
 30
0.0
 10
210.7051901362871
 20
105.7142739390547
 30
0.0
 10
210.7401372240054
 20
105.6482270992422
 30
0.0
 10
210.7711834495805
 20
105.5755258058496
 30
0.0
 10
210.7992483357551
 20
105.496251528886
 30
0.0
 10
210.8191637899388
 20
105.4252899842107
 30
0.0
 10
210.8333694670556
 20
105.3640334609155
 30
0.0
 10
210.8427724966219
 20
105.313510813335
 30
0.0
 10
210.8505788962762
 20
105.2589965921661
 30
0.0
 10
210.8565596534062
 20
105.2006226819846
 30
0.0
 10
210.8614667235179
 20
105.1384545543251
 30
0.0
 10
210.865256228876
 20
105.0724535021219
 30
0.0
 10
210.8671797908501
 20
105.0024545669742
 30
0.0
 10
210.8675508643633
 20
104.9544252589451
 30
0.0
 10
210.8677416678166
 20
104.9297289184376
 30
0.0
  0
SPLINE
  5
195
330
1F
100
AcDbEntity
  8
0
  6
Continuous
 62
     7
370
     0
100
AcDbSpline
210
0.0
220
0.0
230
1.0
 70
     8
 71
     3
 72
    31
 73
    27
 74
     0
 42
0.00000001
 43
0.00000001
 40
0.0
 40
0.0
 40
0.0
 40
0.0
 40
0.0631144583947934
 40
0.12361464576949
 40
0.1809737111859576
 40
0.2352614550083222
 40
0.287100701833872
 40
0.3360307363034437
 40
0.3823823485850663
 40
0.4263340836597074
 40
0.4682106947981602
 40
0.5082496012618052
 40
0.546628336606585
 40
0.5836495392304464
 40
0.6189943150301619
 40
0.6535830186205964
 40
0.6871561361903313
 40
0.7204221919788077
 40
0.7532302188118172
 40
0.7862601560779
 40
0.8195039834988844
 40
0.8535452747120187
 40
0.8883082803397302
 40
0.9239958607406948
 40
0.961350304754645
 40
1.0
 40
1.0
 40
1.0
 40
1.0
 10
209.5506551627418
 20
104.9297289184376
 30
0.0
 10
209.5509205557302
 20
104.9590918236398
 30
0.0
 10
209.5514403488343
 20
105.016601389873
 30
0.0
 10
209.5546644565997
 20
105.1007482165192
 30
0.0
 10
209.5602934875045
 20
105.1806589735586
 30
0.0
 10
209.5686960810072
 20
105.2562642622325
 30
0.0
 10
209.5786463259497
 20
105.3277347385349
 30
0.0
 10
209.5915817071484
 20
105.3949684067253
 30
0.0
 10
209.6061358914921
 20
105.4581161163698
 30
0.0
 10
209.6235983009154
 20
105.5171120462108
 30
0.0
 10
209.6427837722609
 20
105.572463453851
 30
0.0
 10
209.6645503015791
 20
105.6240815431363
 30
0.0
 10
209.6890405997732
 20
105.6719115867425
 30
0.0
 10
209.715051120909
 20
105.7164496090481
 30
0.0
 10
209.7439511121423
 20
105.7570028605073
 30
0.0
 10
209.7739962279514
 20
105.7947094313704
 30
0.0
 10
209.8073699679618
 20
105.8281864745562
 30
0.0
 10
209.8426845804723
 20
105.8582953574194
 30
0.0
 10
209.880460082308
 20
105.8848646918921
 30
0.0
 10
209.9204966035606
 20
105.9077908228255
 30
0.0
 10
209.9626400945874
 20
105.9280329433758
 30
0.0
 10
210.0076937637224
 20
105.9432712064379
 30
0.0
 10
210.0547223054531
 20
105.9556936212003
 30
0.0
 10
210.1040877211058
 20
105.9648317001214
 30
0.0
 10
210.155844410607
 20
105.9702189060386
 30
0.0
 10
210.1912128325936
 20
105.9707701284046
 30
0.0
 10
210.2091984152792
 20
105.9710504365124
 30
0.0
  0
SPLINE
  5
196
330
1F
100
AcDbEntity
  8
0
  6
Continuous
 62
     7
370
     0
100
AcDbSpline
210
0.0
220
0.0
230
1.0
 70
     8
 71
     3
 72
    15
 73
    11
 74
     0
 42
0.00000001
 43
0.00000001
 40
0.0
 40
0.0
 40
0.0
 40
0.0
 40
0.0974206681772145
 40
0.2008855880393207
 40
0.3111719701726504
 40
0.4297979458253728
 40
0.5577399263645871
 40
0.6947152693641585
 40
0.8421299102060552
 40
1.0
 40
1.0
 40
1.0
 40
1.0
 10
209.7502760861672
 20
104.0880283237883
 30
0.0
 10
209.7339923292486
 20
104.1115178820363
 30
0.0
 10
209.7004145254283
 20
104.1599543566542
 30
0.0
 10
209.6611146174188
 20
104.242543038937
 30
0.0
 10
209.6260584036788
 20
104.3334615824366
 30
0.0
 10
209.5985457032668
 20
104.4344937981985
 30
0.0
 10
209.5769964004978
 20
104.544835583997
 30
0.0
 10
209.5614324237015
 20
104.6647034539199
 30
0.0
 10
209.5526247450928
 20
104.7940456210931
 30
0.0
 10
209.551326510915
 20
104.8834801623188
 30
0.0
 10
209.5506551627418
 20
104.9297289184376
 30
0.0
  0
SPLINE
  5
197
330
1F
100
AcDbEntity
  8
0
  6
Continuous
 62
     7
370
     0
100
AcDbSpline
210
0.0
220
0.0
230
1.0
 70
     8
 71
     3
 72
    15
 73
    11
 74
     0
 42
0.00000001
 43
0.00000001
 40
0.0
 40
0.0
 40
0.0
 40
0.0
 40
0.1379032299933934
 40
0.2688733426002937
 40
0.3951781273461125
 40
0.5170892381308875
 40
0.6367430265135471
 40
0.7562218164637977
 40
0.87662835946368
 40
1.0
 40
1.0
 40
1.0
 40
1.0
 10
210.2091984152792
 20
103.8900537584942
 30
0.0
 10
210.1854376333415
 20
103.8907315360554
 30
0.0
 10
210.1391106483775
 20
103.8920530157511
 30
0.0
 10
210.0714535027919
 20
103.9010316563135
 30
0.0
 10
210.0079536628687
 20
103.9168344852663
 30
0.0
 10
209.9480755438223
 20
103.9380283071909
 30
0.0
 10
209.892492192083
 20
103.9663762644716
 30
0.0
 10
209.840938219248
 20
104.0008670900015
 30
0.0
 10
209.7923776853989
 20
104.0406983182956
 30
0.0
 10
209.7644232899131
 20
104.0721242431069
 30
0.0
 10
209.7502760861672
 20
104.0880283237883
 30
0.0
  0
LINE
  5
198
330
1F
100
AcDbEntity
  8
0
  6
Continuous
 62
     7
370
     0
100
AcDbLine
 10
212.6589793147
 20
104.7593308518
 30
0.0
 11
213.4228894877
 21
104.7593308518
 31
0.0
  0
LINE
  5
199
330
1F
100
AcDbEntity
  8
0
  6
Continuous
 62
     7
370
     0
100
AcDbLine
 10
212.6589793147
 20
104.5222552809
 30
0.0
 11
212.6589793147
 21
104.7593308518
 31
0.0
  0
LINE
  5
19A
330
1F
100
AcDbEntity
  8
0
  6
Continuous
 62
     7
370
     0
100
AcDbLine
 10
213.4228894877
 20
104.5222552809
 30
0.0
 11
212.6589793147
 21
104.5222552809
 31
0.0
  0
LINE
  5
19B
330
1F
100
AcDbEntity
  8
0
  6
Continuous
 62
     7
370
     0
100
AcDbLine
 10
213.4228894877
 20
104.7593308518
 30
0.0
 11
213.4228894877
 21
104.5222552809
 31
0.0
  0
SPLINE
  5
19C
330
1F
100
AcDbEntity
  8
0
  6
Continuous
 62
     7
370
     0
100
AcDbSpline
210
0.0
220
0.0
230
1.0
 70
     8
 71
     3
 72
    15
 73
    11
 74
     0
 42
0.00000001
 43
0.00000001
 40
0.0
 40
0.0
 40
0.0
 40
0.0
 40
0.1324616222426389
 40
0.26164950103549
 40
0.387546698416366
 40
0.5107816292933473
 40
0.6326753605997105
 40
0.7546603541381371
 40
0.8765227798028643
 40
1.0
 40
1.0
 40
1.0
 40
1.0
 10
216.5575553697397
 20
104.6210367688107
 30
0.0
 10
216.5570889640804
 20
104.5982427162238
 30
0.0
 10
216.5561676798174
 20
104.5532179582223
 30
0.0
 10
216.5486175647384
 20
104.4868656538929
 30
0.0
 10
216.5361805444995
 20
104.4229299860427
 30
0.0
 10
216.519530806242
 20
104.3612216214957
 30
0.0
 10
216.4970347754741
 20
104.3020910160264
 30
0.0
 10
216.4697491957816
 20
104.245347172984
 30
0.0
 10
216.4382737491467
 20
104.1903979895814
 30
0.0
 10
216.4130320743506
 20
104.1565249893906
 30
0.0
 10
216.4003281681964
 20
104.1394770153928
 30
0.0
  0
SPLINE
  5
19D
330
1F
100
AcDbEntity
  8
0
  6
Continuous
 62
     7
370
     0
100
AcDbSpline
210
0.0
220
0.0
230
1.0
 70
     8
 71
     3
 72
    23
 73
    19
 74
     0
 42
0.00000001
 43
0.00000001
 40
0.0
 40
0.0
 40
0.0
 40
0.0
 40
0.0619974190757217
 40
0.1220879540822929
 40
0.1813753107870032
 40
0.2395080083953659
 40
0.2978356978967512
 40
0.3568799706531182
 40
0.4172818251154283
 40
0.4796404090798161
 40
0.5425000674783564
 40
0.6049624196481904
 40
0.6669910330782645
 40
0.7302162430101636
 40
0.794172863251256
 40
0.8604581431502615
 40
0.9285781799847829
 40
1.0
 40
1.0
 40
1.0
 40
1.0
 10
215.9545767041351
 20
105.2861654538735
 30
0.0
 10
215.9753219242041
 20
105.285621912651
 30
0.0
 10
216.0161742937539
 20
105.2845515481615
 30
0.0
 10
216.0763716748321
 20
105.2757571561569
 30
0.0
 10
216.1339304974327
 20
105.2608280927226
 30
0.0
 10
216.1893022481458
 20
105.2407208208035
 30
0.0
 10
216.2417567858179
 20
105.214065197022
 30
0.0
 10
216.2918254371864
 20
105.1817908966198
 30
0.0
 10
216.3393060577829
 20
105.1436318915698
 30
0.0
 10
216.3839302259989
 20
105.1003081635476
 30
0.0
 10
216.4244061212483
 20
105.0522142708878
 30
0.0
 10
216.4606333685374
 20
105.000918730096
 30
0.0
 10
216.4902218052903
 20
104.9453947455965
 30
0.0
 10
216.5151077113518
 20
104.8870920581124
 30
0.0
 10
216.5338771945594
 20
104.8250536078538
 30
0.0
 10
216.5481238874173
 20
104.7601598471347
 30
0.0
 10
216.5557411211214
 20
104.6915994557986
 30
0.0
 10
216.556941155292
 20
104.6449257889716
 30
0.0
 10
216.5575553697397
 20
104.6210367688107
 30
0.0
  0
SPLINE
  5
19E
330
1F
100
AcDbEntity
  8
0
  6
Continuous
 62
     7
370
     0
100
AcDbSpline
210
0.0
220
0.0
230
1.0
 70
     8
 71
     3
 72
    15
 73
    11
 74
     0
 42
0.00000001
 43
0.00000001
 40
0.0
 40
0.0
 40
0.0
 40
0.0
 40
0.1367294018595732
 40
0.2685149167908296
 40
0.3955294046848086
 40
0.519999953565812
 40
0.6404964768412694
 40
0.7612361017625326
 40
0.880106717175953
 40
1.0
 40
1.0
 40
1.0
 40
1.0
 10
215.5882620199112
 20
105.1491061394392
 30
0.0
 10
215.6027966811316
 20
105.1600131529425
 30
0.0
 10
215.6313404566114
 20
105.1814328021435
 30
0.0
 10
215.6758636300596
 20
105.2094790093792
 30
0.0
 10
215.7210234381747
 20
105.2331200919334
 30
0.0
 10
215.7665569942125
 20
105.2524801505569
 30
0.0
 10
215.8128259908126
 20
105.2675616021682
 30
0.0
 10
215.8595512194313
 20
105.2780394983367
 30
0.0
 10
215.9068917716195
 20
105.2851210771047
 30
0.0
 10
215.9386364040312
 20
105.285816335646
 30
0.0
 10
215.9545767041351
 20
105.2861654538735
 30
0.0
  0
LINE
  5
19F
330
1F
100
AcDbEntity
  8
0
  6
Continuous
 62
     7
370
     0
100
AcDbLine
 10
215.6928057613
 20
105.6812914054
 30
0.0
 11
215.5882620199
 21
105.1491061394
 31
0.0
  0
LINE
  5
1A0
330
1F
100
AcDbEntity
  8
0
  6
Continuous
 62
     7
370
     0
100
AcDbLine
 10
216.4521884493
 20
105.6812914054
 30
0.0
 11
215.6928057613
 21
105.6812914054
 31
0.0
  0
LINE
  5
1A1
330
1F
100
AcDbEntity
  8
0
  6
Continuous
 62
     7
370
     0
100
AcDbLine
 10
216.4521884493
 20
105.9447087064
 30
0.0
 11
216.4521884493
 21
105.6812914054
 31
0.0
  0
LINE
  5
1A2
330
1F
100
AcDbEntity
  8
0
  6
Continuous
 62
     7
370
     0
100
AcDbLine
 10
215.4775444356
 20
105.9447087064
 30
0.0
 11
216.4521884493
 21
105.9447087064
 31
0.0
  0
LINE
  5
1A3
330
1F
100
AcDbEntity
  8
0
  6
Continuous
 62
     7
370
     0
100
AcDbLine
 10
215.2668105948
 20
104.8910395024
 30
0.0
 11
215.4775444356
 21
105.9447087064
 31
0.0
  0
LINE
  5
1A4
330
1F
100
AcDbEntity
  8
0
  6
Continuous
 62
     7
370
     0
100
AcDbLine
 10
215.5302278958
 20
104.8646977722
 30
0.0
 11
215.2668105948
 21
104.8910395024
 31
0.0
  0
SPLINE
  5
1A5
330
1F
100
AcDbEntity
  8
0
  6
Continuous
 62
     7
370
     0
100
AcDbSpline
210
0.0
220
0.0
230
1.0
 70
     8
 71
     3
 72
    15
 73
    11
 74
     0
 42
0.00000001
 43
0.00000001
 40
0.0
 40
0.0
 40
0.0
 40
0.0
 40
0.1478596367312524
 40
0.2835613219395479
 40
0.4123693961385312
 40
0.5342363558879448
 40
0.6526916293119828
 40
0.7686630594981232
 40
0.8836524018604038
 40
1.0
 40
1.0
 40
1.0
 40
1.0
 10
215.8817253568232
 20
105.04908988296
 30
0.0
 10
215.8612405879577
 20
105.0484906634311
 30
0.0
 10
215.8219554370705
 20
105.0473414959805
 30
0.0
 10
215.7655067151398
 20
105.037673962272
 30
0.0
 10
215.7141193998399
 20
105.022057293092
 30
0.0
 10
215.6683752965582
 20
104.9987825476084
 30
0.0
 10
215.6275052006825
 20
104.970977041119
 30
0.0
 10
215.590660057961
 20
104.939513849114
 30
0.0
 10
215.5575360427711
 20
104.9044142434878
 30
0.0
 10
215.5393661718873
 20
104.8779883144555
 30
0.0
 10
215.5302278957813
 20
104.8646977722496
 30
0.0
  0
SPLINE
  5
1A6
330
1F
100
AcDbEntity
  8
0
  6
Continuous
 62
     7
370
     0
100
AcDbSpline
210
0.0
220
0.0
230
1.0
 70
     8
 71
     3
 72
    23
 73
    19
 74
     0
 42
0.00000001
 43
0.00000001
 40
0.0
 40
0.0
 40
0.0
 40
0.0
 40
0.0728659334565351
 40
0.1418868719641257
 40
0.2074526264147115
 40
0.2704376800000974
 40
0.3316408722476697
 40
0.3901075774931577
 40
0.4480692869488361
 40
0.5055029519245373
 40
0.5624881528337238
 40
0.6190843288847293
 40
0.6764155306922391
 40
0.7354523604507931
 40
0.7962407694486783
 40
0.8604056780892032
 40
0.9283049272851057
 40
1.0
 40
1.0
 40
1.0
 40
1.0
 10
216.2941380687247
 20
104.605396366563
 30
0.0
 10
216.2938356781348
 20
104.622145974917
 30
0.0
 10
216.2932468535238
 20
104.6547613470564
 30
0.0
 10
216.2882879896475
 20
104.7022547517571
 30
0.0
 10
216.2799218024871
 20
104.7469129250202
 30
0.0
 10
216.2690967396512
 20
104.7892280778628
 30
0.0
 10
216.2541757558951
 20
104.8285389839071
 30
0.0
 10
216.23647862899
 20
104.8654156128557
 30
0.0
 10
216.2147989047478
 20
104.8990753340751
 30
0.0
 10
216.190678780937
 20
104.9305661893862
 30
0.0
 10
216.163130554388
 20
104.9587964722713
 30
0.0
 10
216.1317820531892
 20
104.9826333705391
 30
0.0
 10
216.0978630605334
 20
105.003495470432
 30
0.0
 10
216.0606904131605
 20
105.0204133319926
 30
0.0
 10
216.0202422220124
 20
105.0329826674076
 30
0.0
 10
215.9769204306529
 20
105.0426536400055
 30
0.0
 10
215.9302755113261
 20
105.0477401755876
 30
0.0
 10
215.8981994768971
 20
105.0486318979846
 30
0.0
 10
215.8817253568232
 20
105.04908988296
 30
0.0
  0
SPLINE
  5
1A7
330
1F
100
AcDbEntity
  8
0
  6
Continuous
 62
     7
370
     0
100
AcDbSpline
210
0.0
220
0.0
230
1.0
 70
     8
 71
     3
 72
    23
 73
    19
 74
     0
 42
0.00000001
 43
0.00000001
 40
0.0
 40
0.0
 40
0.0
 40
0.0
 40
0.065801037609473
 40
0.1286767959489727
 40
0.1886758749524336
 40
0.2475984367338943
 40
0.3048494201188272
 40
0.3617858992828988
 40
0.4195227063685893
 40
0.4786818154207404
 40
0.538769503044019
 40
0.598799056013154
 40
0.6601842815006786
 40
0.7229515306109658
 40
0.7879926891048735
 40
0.8554037684344737
 40
0.9261530612840035
 40
1.0
 40
1.0
 40
1.0
 40
1.0
 10
215.8804905882246
 20
104.1271293294077
 30
0.0
 10
215.896151867317
 20
104.1275077513727
 30
0.0
 10
215.9267781809328
 20
104.1282477720129
 30
0.0
 10
215.9713336657167
 20
104.1345065692705
 30
0.0
 10
216.0134199295863
 20
104.1448266008523
 30
0.0
 10
216.0528355961704
 20
104.1592687184124
 30
0.0
 10
216.0900427377414
 20
104.1772292004623
 30
0.0
 10
216.1238070300567
 20
104.2004847530166
 30
0.0
 10
216.1559694884185
 20
104.2266262919942
 30
0.0
 10
216.1844604513448
 20
104.2577920235864
 30
0.0
 10
216.2103952323693
 20
104.2917211282783
 30
0.0
 10
216.2327788981626
 20
104.3287561893253
 30
0.0
 10
216.2516227822589
 20
104.3683773903372
 30
0.0
 10
216.2674872730265
 20
104.4105771351988
 30
0.0
 10
216.2792020417413
 20
104.4555964964088
 30
0.0
 10
216.2878192003888
 20
104.5031959795502
 30
0.0
 10
216.2933510722522
 20
104.5534059055391
 30
0.0
 10
216.2938720165511
 20
104.5878204616533
 30
0.0
 10
216.2941380687247
 20
104.605396366563
 30
0.0
  0
SPLINE
  5
1A8
330
1F
100
AcDbEntity
  8
0
  6
Continuous
 62
     7
370
     0
100
AcDbSpline
210
0.0
220
0.0
230
1.0
 70
     8
 71
     3
 72
    23
 73
    19
 74
     0
 42
0.00000001
 43
0.00000001
 40
0.0
 40
0.0
 40
0.0
 40
0.0
 40
0.0773613371189766
 40
0.1504798322806808
 40
0.2199772368520749
 40
0.2866809968624412
 40
0.3496784941856629
 40
0.410679625017485
 40
0.469427113519291
 40
0.5267557014271297
 40
0.5831419808348368
 40
0.6388244277786262
 40
0.6952634704038116
 40
0.7526958048985345
 40
0.8108491833348943
 40
0.8713563036360842
 40
0.9344364309841278
 40
1.0
 40
1.0
 40
1.0
 40
1.0
 10
215.5038861656798
 20
104.4959135508286
 30
0.0
 10
215.5064944105099
 20
104.4810714316084
 30
0.0
 10
215.5115678523504
 20
104.4522012014117
 30
0.0
 10
215.5212358565016
 20
104.4104106868876
 30
0.0
 10
215.5337918418319
 20
104.3715861307975
 30
0.0
 10
215.5478998736842
 20
104.3353912903106
 30
0.0
 10
215.5646696496191
 20
104.3022088805446
 30
0.0
 10
215.5828398407811
 20
104.2715149686073
 30
0.0
 10
215.6042678678174
 20
104.2443990926889
 30
0.0
 10
215.6267965611837
 20
104.2194430669044
 30
0.0
 10
215.6515235235766
 20
104.197452394663
 30
0.0
 10
215.6786873516697
 20
104.1789134993255
 30
0.0
 10
215.7075301568516
 20
104.1627394357472
 30
0.0
 10
215.7384032336165
 20
104.1494968310552
 30
0.0
 10
215.7713538985505
 20
104.1398039418407
 30
0.0
 10
215.8059627777488
 20
104.1321385304683
 30
0.0
 10
215.842675523146
 20
104.1282759658304
 30
0.0
 10
215.8677243787614
 20
104.1275164291184
 30
0.0
 10
215.8804905882246
 20
104.1271293294077
 30
0.0
  0
LINE
  5
1A9
330
1F
100
AcDbEntity
  8
0
  6
Continuous
 62
     7
370
     0
100
AcDbLine
 10
215.2404688647
 20
104.4695718207
 30
0.0
 11
215.5038861657
 21
104.4959135508
 31
0.0
  0
SPLINE
  5
1AA
330
1F
100
AcDbEntity
  8
0
  6
Continuous
 62
     7
370
     0
100
AcDbSpline
210
0.0
220
0.0
230
1.0
 70
     8
 71
     3
 72
    23
 73
    19
 74
     0
 42
0.00000001
 43
0.00000001
 40
0.0
 40
0.0
 40
0.0
 40
0.0
 40
0.0692980234597531
 40
0.135560844101282
 40
0.1996709556470566
 40
0.2617162384956088
 40
0.3226619299471025
 40
0.3829069237782243
 40
0.4430320330728903
 40
0.5035007873501627
 40
0.5637242810171079
 40
0.6239800220534739
 40
0.6836293869955231
 40
0.7438482724857304
 40
0.8051918462295101
 40
0.8676487429597673
 40
0.9327780842312611
 40
1.0
 40
1.0
 40
1.0
 40
1.0
 10
215.8788442300933
 20
103.8900537584942
 30
0.0
 10
215.8567332171913
 20
103.8905022767866
 30
0.0
 10
215.8134796376043
 20
103.8913796685977
 30
0.0
 10
215.7501487012891
 20
103.8990072974294
 30
0.0
 10
215.6899134918854
 20
103.9111706758216
 30
0.0
 10
215.6327551386875
 20
103.9286167257912
 30
0.0
 10
215.5785014389151
 20
103.950661442601
 30
0.0
 10
215.5277830211798
 20
103.9786657919884
 30
0.0
 10
215.4797197219938
 20
104.0107010234506
 30
0.0
 10
215.4353687737602
 20
104.0477541365638
 30
0.0
 10
215.3949592853515
 20
104.089082602631
 30
0.0
 10
215.3587515630579
 20
104.1338107605278
 30
0.0
 10
215.3272355960103
 20
104.1819677762771
 30
0.0
 10
215.3004265953442
 20
104.2332654889734
 30
0.0
 10
215.2780825312539
 20
104.2876547026845
 30
0.0
 10
215.2609884388016
 20
104.345506644561
 30
0.0
 10
215.2474484950398
 20
104.4062536979492
 30
0.0
 10
215.2428198025117
 20
104.4482444776975
 30
0.0
 10
215.2404688646649
 20
104.4695718207271
 30
0.0
  0
SPLINE
  5
1AB
330
1F
100
AcDbEntity
  8
0
  6
Continuous
 62
     7
370
     0
100
AcDbSpline
210
0.0
220
0.0
230
1.0
 70
     8
 71
     3
 72
    15
 73
    11
 74
     0
 42
0.00000001
 43
0.00000001
 40
0.0
 40
0.0
 40
0.0
 40
0.0
 40
0.1278926194654207
 40
0.2515785135038573
 40
0.3727928197023036
 40
0.4927776986078534
 40
0.6135900692425711
 40
0.7378086492801457
 40
0.8661799015391679
 40
1.0
 40
1.0
 40
1.0
 40
1.0
 10
216.4003281681964
 20
104.1394770153928
 30
0.0
 10
216.3841882116076
 20
104.1195766644677
 30
0.0
 10
216.3524391841532
 20
104.0804305376243
 30
0.0
 10
216.2974660896846
 20
104.0296212079771
 30
0.0
 10
216.238369233725
 20
103.9864402703793
 30
0.0
 10
216.1747969237064
 20
103.9513588879594
 30
0.0
 10
216.1071759411201
 20
103.923168026519
 30
0.0
 10
216.0346755807318
 20
103.904408066786
 30
0.0
 10
215.9581718846709
 20
103.8918100107339
 30
0.0
 10
215.9056506130103
 20
103.8906472308499
 30
0.0
 10
215.8788442300933
 20
103.8900537584942
 30
0.0
  0
LINE
  5
1AC
330
1F
100
AcDbEntity
  8
0
  6
Continuous
 62
     7
370
     0
100
AcDbLine
 10
218.3487930166
 20
104.7593308518
 30
0.0
 11
219.1127031896
 21
104.7593308518
 31
0.0
  0
LINE
  5
1AD
330
1F
100
AcDbEntity
  8
0
  6
Continuous
 62
     7
370
     0
100
AcDbLine
 10
218.3487930166
 20
104.5222552809
 30
0.0
 11
218.3487930166
 21
104.7593308518
 31
0.0
  0
LINE
  5
1AE
330
1F
100
AcDbEntity
  8
0
  6
Continuous
 62
     7
370
     0
100
AcDbLine
 10
219.1127031896
 20
104.5222552809
 30
0.0
 11
218.3487930166
 21
104.5222552809
 31
0.0
  0
LINE
  5
1AF
330
1F
100
AcDbEntity
  8
0
  6
Continuous
 62
     7
370
     0
100
AcDbLine
 10
219.1127031896
 20
104.7593308518
 30
0.0
 11
219.1127031896
 21
104.5222552809
 31
0.0
  0
SPLINE
  5
1B0
330
1F
100
AcDbEntity
  8
0
  6
Continuous
 62
     7
370
     0
100
AcDbSpline
210
0.0
220
0.0
230
1.0
 70
     8
 71
     3
 72
    31
 73
    27
 74
     0
 42
0.00000001
 43
0.00000001
 40
0.0
 40
0.0
 40
0.0
 40
0.0
 40
0.0628739462114324
 40
0.1228366299919129
 40
0.1796565674430315
 40
0.2339600122308622
 40
0.285595018695559
 40
0.3345131060783805
 40
0.3809048259061763
 40
0.4248945919393348
 40
0.4665290347654876
 40
0.5064882940692462
 40
0.5450315536447548
 40
0.5818311798231348
 40
0.6174482799494427
 40
0.652066912769046
 40
0.685879714246511
 40
0.7191745547913925
 40
0.7521816462063932
 40
0.7852401639180917
 40
0.8186564497770835
 40
0.852547740653311
 40
0.8876263422585192
 40
0.9236350780687517
 40
0.9610218444769894
 40
1.0
 40
1.0
 40
1.0
 40
1.0
 10
222.8795705940986
 20
104.9297289184376
 30
0.0
 10
222.8793002298626
 20
104.9005039350947
 30
0.0
 10
222.8787720201093
 20
104.8434071775069
 30
0.0
 10
222.875634303833
 20
104.7599350666282
 30
0.0
 10
222.8696660843561
 20
104.6806271973456
 30
0.0
 10
222.8623220812502
 20
104.6053018984051
 30
0.0
 10
222.8512121428338
 20
104.5341602529032
 30
0.0
 10
222.8392405822435
 20
104.4668999988095
 30
0.0
 10
222.8244347189182
 20
104.4038265569132
 30
0.0
 10
222.8071597524692
 20
104.3449122837503
 30
0.0
 10
222.7877042175292
 20
104.2898456618606
 30
0.0
 10
222.7663682128883
 20
104.2382105283273
 30
0.0
 10
222.7427365390847
 20
104.1900421660879
 30
0.0
 10
222.7161058282533
 20
104.1458103851879
 30
0.0
 10
222.6876945560543
 20
104.1049280827898
 30
0.0
 10
222.6572946401258
 20
104.067241900187
 30
0.0
 10
222.6242615666603
 20
104.0332942504783
 30
0.0
 10
222.5886287144877
 20
104.0032756780608
 30
0.0
 10
222.5511184441665
 20
103.9762351745065
 30
0.0
 10
222.5109845868012
 20
103.9530826934439
 30
0.0
 10
222.4684028020301
 20
103.933901265023
 30
0.0
 10
222.4236575951539
 20
103.9175020966847
 30
0.0
 10
222.3762949614968
 20
103.9054857479881
 30
0.0
 10
222.3266883983801
 20
103.8962874208295
 30
0.0
 10
222.2746551290018
 20
103.8908707796816
 30
0.0
 10
222.2391499050072
 20
103.8903298563721
 30
0.0
 10
222.2210273415612
 20
103.8900537584942
 30
0.0
  0
SPLINE
  5
1B1
330
1F
100
AcDbEntity
  8
0
  6
Continuous
 62
     7
370
     0
100
AcDbSpline
210
0.0
220
0.0
230
1.0
 70
     8
 71
     3
 72
    27
 73
    23
 74
     0
 42
0.00000001
 43
0.00000001
 40
0.0
 40
0.0
 40
0.0
 40
0.0
 40
0.0567243372181508
 40
0.1114372357370111
 40
0.1643678222229013
 40
0.2164353724620895
 40
0.2676414903219251
 40
0.3173597799690279
 40
0.3674730633322809
 40
0.4182103970528079
 40
0.4714042826470199
 40
0.5279657201290493
 40
0.5880611158232137
 40
0.6521342629937144
 40
0.6863448363353054
 40
0.7232636803169651
 40
0.7626102507715418
 40
0.8047389366452181
 40
0.8494303387909499
 40
0.8967112583864923
 40
0.9468896380534765
 40
1.0
 40
1.0
 40
1.0
 40
1.0
 10
222.2210273415612
 20
105.9710504365124
 30
0.0
 10
222.2474145306706
 20
105.9702746718276
 30
0.0
 10
222.2992532220934
 20
105.9687506509876
 30
0.0
 10
222.3749379792714
 20
105.9563210135622
 30
0.0
 10
222.4462659849166
 20
105.9350582030546
 30
0.0
 10
222.5131908977433
 20
105.906373754408
 30
0.0
 10
222.5745686467349
 20
105.8699389838301
 30
0.0
 10
222.6293815635681
 20
105.8256469691815
 30
0.0
 10
222.6770384023968
 20
105.7739627678692
 30
0.0
 10
222.7170190625692
 20
105.7142739390547
 30
0.0
 10
222.7519661502874
 20
105.6482270992422
 30
0.0
 10
222.7830123758626
 20
105.5755258058496
 30
0.0
 10
222.8110772620372
 20
105.496251528886
 30
0.0
 10
222.8309927162208
 20
105.4252899842107
 30
0.0
 10
222.8451983933377
 20
105.3640334609155
 30
0.0
 10
222.8546014229039
 20
105.313510813335
 30
0.0
 10
222.8624078225583
 20
105.2589965921661
 30
0.0
 10
222.8683885796882
 20
105.2006226819846
 30
0.0
 10
222.8732956498
 20
105.1384545543251
 30
0.0
 10
222.8770851551581
 20
105.0724535021219
 30
0.0
 10
222.8790087171322
 20
105.0024545669742
 30
0.0
 10
222.8793797906453
 20
104.9544252589451
 30
0.0
 10
222.8795705940986
 20
104.9297289184376
 30
0.0
  0
SPLINE
  5
1B2
330
1F
100
AcDbEntity
  8
0
  6
Continuous
 62
     7
370
     0
100
AcDbSpline
210
0.0
220
0.0
230
1.0
 70
     8
 71
     3
 72
    31
 73
    27
 74
     0
 42
0.00000001
 43
0.00000001
 40
0.0
 40
0.0
 40
0.0
 40
0.0
 40
0.0631144583947934
 40
0.1236146457694899
 40
0.1809737111859575
 40
0.235261455008322
 40
0.2871007018338719
 40
0.3360307363034434
 40
0.3823823485850662
 40
0.426334083659707
 40
0.4682106947981599
 40
0.5082496012618049
 40
0.5466283366065846
 40
0.5836495392304459
 40
0.6189943150301614
 40
0.6535830186205956
 40
0.687156136190331
 40
0.7204221919788075
 40
0.7532302188118168
 40
0.7862601560779002
 40
0.8195039834988835
 40
0.8535452747120178
 40
0.8883082803397293
 40
0.9239958607406945
 40
0.9613503047546453
 40
1.0
 40
1.0
 40
1.0
 40
1.0
 10
221.5624840890239
 20
104.9297289184376
 30
0.0
 10
221.5627494820122
 20
104.9590918236398
 30
0.0
 10
221.5632692751164
 20
105.016601389873
 30
0.0
 10
221.5664933828817
 20
105.1007482165192
 30
0.0
 10
221.5721224137866
 20
105.1806589735586
 30
0.0
 10
221.5805250072893
 20
105.2562642622325
 30
0.0
 10
221.5904752522317
 20
105.3277347385349
 30
0.0
 10
221.6034106334304
 20
105.3949684067253
 30
0.0
 10
221.6179648177742
 20
105.4581161163698
 30
0.0
 10
221.6354272271975
 20
105.5171120462108
 30
0.0
 10
221.654612698543
 20
105.572463453851
 30
0.0
 10
221.6763792278611
 20
105.6240815431363
 30
0.0
 10
221.7008695260552
 20
105.6719115867425
 30
0.0
 10
221.7268800471911
 20
105.7164496090481
 30
0.0
 10
221.7557800384244
 20
105.7570028605073
 30
0.0
 10
221.7858251542335
 20
105.7947094313704
 30
0.0
 10
221.8191988942439
 20
105.8281864745562
 30
0.0
 10
221.8545135067543
 20
105.8582953574194
 30
0.0
 10
221.8922890085901
 20
105.8848646918921
 30
0.0
 10
221.9323255298426
 20
105.9077908228255
 30
0.0
 10
221.9744690208695
 20
105.9280329433758
 30
0.0
 10
222.0195226900044
 20
105.9432712064379
 30
0.0
 10
222.0665512317352
 20
105.9556936212003
 30
0.0
 10
222.1159166473878
 20
105.9648317001214
 30
0.0
 10
222.1676733368891
 20
105.9702189060386
 30
0.0
 10
222.2030417588757
 20
105.9707701284046
 30
0.0
 10
222.2210273415612
 20
105.9710504365124
 30
0.0
  0
SPLINE
  5
1B3
330
1F
100
AcDbEntity
  8
0
  6
Continuous
 62
     7
370
     0
100
AcDbSpline
210
0.0
220
0.0
230
1.0
 70
     8
 71
     3
 72
    15
 73
    11
 74
     0
 42
0.00000001
 43
0.00000001
 40
0.0
 40
0.0
 40
0.0
 40
0.0
 40
0.0974206681772145
 40
0.2008855880393207
 40
0.3111719701726504
 40
0.4297979458253728
 40
0.5577399263645871
 40
0.6947152693641585
 40
0.8421299102060552
 40
1.0
 40
1.0
 40
1.0
 40
1.0
 10
221.7621050124492
 20
104.0880283237883
 30
0.0
 10
221.7458212555306
 20
104.1115178820363
 30
0.0
 10
221.7122434517104
 20
104.1599543566542
 30
0.0
 10
221.6729435437009
 20
104.242543038937
 30
0.0
 10
221.6378873299608
 20
104.3334615824366
 30
0.0
 10
221.6103746295489
 20
104.4344937981985
 30
0.0
 10
221.5888253267798
 20
104.544835583997
 30
0.0
 10
221.5732613499836
 20
104.6647034539199
 30
0.0
 10
221.5644536713749
 20
104.7940456210931
 30
0.0
 10
221.5631554371971
 20
104.8834801623188
 30
0.0
 10
221.5624840890239
 20
104.9297289184376
 30
0.0
  0
SPLINE
  5
1B4
330
1F
100
AcDbEntity
  8
0
  6
Continuous
 62
     7
370
     0
100
AcDbSpline
210
0.0
220
0.0
230
1.0
 70
     8
 71
     3
 72
    15
 73
    11
 74
     0
 42
0.00000001
 43
0.00000001
 40
0.0
 40
0.0
 40
0.0
 40
0.0
 40
0.1379032299933933
 40
0.2688733426002927
 40
0.3951781273461147
 40
0.5170892381308879
 40
0.636743026513549
 40
0.7562218164637966
 40
0.8766283594636801
 40
1.0
 40
1.0
 40
1.0
 40
1.0
 10
222.2210273415612
 20
103.8900537584942
 30
0.0
 10
222.1972665596236
 20
103.8907315360554
 30
0.0
 10
222.1509395746596
 20
103.8920530157511
 30
0.0
 10
222.083282429074
 20
103.9010316563135
 30
0.0
 10
222.0197825891507
 20
103.9168344852663
 30
0.0
 10
221.9599044701044
 20
103.9380283071909
 30
0.0
 10
221.9043211183651
 20
103.9663762644716
 30
0.0
 10
221.85276714553
 20
104.0008670900015
 30
0.0
 10
221.8042066116809
 20
104.0406983182956
 30
0.0
 10
221.7762522161951
 20
104.0721242431069
 30
0.0
 10
221.7621050124492
 20
104.0880283237883
 30
0.0
  0
CIRCLE
  5
1B5
330
1F
100
AcDbEntity
  8
0
  6
Continuous
 62
     7
370
     0
100
AcDbCircle
 10
214.0155784149
 20
106.5274031008
 30
0.0
 40
25.39999999999998
  0
SPLINE
  5
1B6
330
1F
100
AcDbEntity
  8
0
  6
Continuous
 62
     7
370
     0
100
AcDbSpline
210
0.0
220
0.0
230
1.0
 70
     8
 71
     3
 72
    23
 73
    19
 74
     0
 42
0.00000001
 43
0.00000001
 40
0.0
 40
0.0
 40
0.0
 40
0.0
 40
0.1156291309254413
 40
0.2215410391198766
 40
0.3170478562190415
 40
0.4031508756396164
 40
0.4801812167162793
 40
0.5476493661481896
 40
0.6070358428421807
 40
0.6586524080635068
 40
0.7057228903536447
 40
0.7498040879796465
 40
0.7925868153452744
 40
0.8338739610102599
 40
0.8747683933034318
 40
0.9152226988916382
 40
0.9568807037304797
 40
1.0
 40
1.0
 40
1.0
 40
1.0
 10
222.6161532930837
 20
104.9305520975033
 30
0.0
 10
222.6159038415065
 20
104.9692485081197
 30
0.0
 10
222.6154259017244
 20
105.043389366479
 30
0.0
 10
222.610024306386
 20
105.1493822716775
 30
0.0
 10
222.6015595210435
 20
105.2452441784376
 30
0.0
 10
222.5899810394243
 20
105.3310634625482
 30
0.0
 10
222.5745932394994
 20
105.4067469554113
 30
0.0
 10
222.5559299372625
 20
105.4724557768962
 30
0.0
 10
222.5336898220468
 20
105.5280497922663
 30
0.0
 10
222.507246404419
 20
105.5740874445006
 30
0.0
 10
222.4778095896393
 20
105.6118508088337
 30
0.0
 10
222.447060046023
 20
105.6445382865187
 30
0.0
 10
222.4142290318794
 20
105.6723379213597
 30
0.0
 10
222.3787348804298
 20
105.6946391985217
 30
0.0
 10
222.3417216349316
 20
105.7126310394392
 30
0.0
 10
222.3023388250806
 20
105.7250134825261
 30
0.0
 10
222.2609735527747
 20
105.7326208682499
 30
0.0
 10
222.232585103051
 20
105.7335183764191
 30
0.0
 10
222.2181462148314
 20
105.7339748655989
 30
0.0
  0
SPLINE
  5
1B7
330
1F
100
AcDbEntity
  8
0
  6
Continuous
 62
     7
370
     0
100
AcDbSpline
210
0.0
220
0.0
230
1.0
 70
     8
 71
     3
 72
    23
 73
    19
 74
     0
 42
0.00000001
 43
0.00000001
 40
0.0
 40
0.0
 40
0.0
 40
0.0
 40
0.1184055081537694
 40
0.2266543328167019
 40
0.3240923419286019
 40
0.4117048030053215
 40
0.4890259050064157
 40
0.5569093973430755
 40
0.6162333444927066
 40
0.6673492812770752
 40
0.7135123932013472
 40
0.7576965045209773
 40
0.7994925114422908
 40
0.8399760647439393
 40
0.8798857418167766
 40
0.919148659385742
 40
0.9592273564930833
 40
1.0
 40
1.0
 40
1.0
 40
1.0
 10
221.8259013900388
 20
104.9305520975033
 30
0.0
 10
221.8261629424717
 20
104.8910336096131
 30
0.0
 10
221.8266636116813
 20
104.815386482665
 30
0.0
 10
221.8318943896148
 20
104.7073115104717
 30
0.0
 10
221.8408989585257
 20
104.6098131332419
 30
0.0
 10
221.8528035867751
 20
104.5230263438492
 30
0.0
 10
221.8685225160474
 20
104.446833745999
 30
0.0
 10
221.8882594908801
 20
104.3814295018867
 30
0.0
 10
221.9105077558903
 20
104.326028612309
 30
0.0
 10
221.9380395622491
 20
104.2813177286551
 30
0.0
 10
221.9681838493028
 20
104.2448718361228
 30
0.0
 10
221.9993057655722
 20
104.2135271898912
 30
0.0
 10
222.0321375021669
 20
104.1868849583066
 30
0.0
 10
222.0664648359734
 20
104.1646707704888
 30
0.0
 10
222.1028203802781
 20
104.1478516469575
 30
0.0
 10
222.1408065932473
 20
104.1356611087696
 30
0.0
 10
222.1804317403564
 20
104.1286456412157
 30
0.0
 10
222.2074182661159
 20
104.1276376505356
 30
0.0
 10
222.2210273415612
 20
104.1271293294077
 30
0.0
  0
SPLINE
  5
1B8
330
1F
100
AcDbEntity
  8
0
  6
Continuous
 62
     7
370
     0
100
AcDbSpline
210
0.0
220
0.0
230
1.0
 70
     8
 71
     3
 72
    15
 73
    11
 74
     0
 42
0.00000001
 43
0.00000001
 40
0.0
 40
0.0
 40
0.0
 40
0.0
 40
0.0838881132795455
 40
0.1771540327539694
 40
0.2825136355617224
 40
0.3993998606601625
 40
0.5294908061912204
 40
0.6728021776758327
 40
0.82953576161967
 40
1.0
 40
1.0
 40
1.0
 40
1.0
 10
221.9448507650284
 20
105.5932112453691
 30
0.0
 10
221.9350603407037
 20
105.576842643928
 30
0.0
 10
221.9143850258863
 20
105.5422756040643
 30
0.0
 10
221.8912505507856
 20
105.4821966645749
 30
0.0
 10
221.8708144700279
 20
105.4135378724687
 30
0.0
 10
221.8539888000778
 20
105.3352428623617
 30
0.0
 10
221.8418166082462
 20
105.2474459416885
 30
0.0
 10
221.8322071334593
 20
105.150249069975
 30
0.0
 10
221.8272153689901
 20
105.0435165487598
 30
0.0
 10
221.8263514673882
 20
104.9692458229608
 30
0.0
 10
221.8259013900388
 20
104.9305520975033
 30
0.0
  0
SPLINE
  5
1B9
330
1F
100
AcDbEntity
  8
0
  6
Continuous
 62
     7
370
     0
100
AcDbSpline
210
0.0
220
0.0
230
1.0
 70
     8
 71
     3
 72
    15
 73
    11
 74
     0
 42
0.00000001
 43
0.00000001
 40
0.0
 40
0.0
 40
0.0
 40
0.0
 40
0.1276647678962227
 40
0.2517385630080476
 40
0.3727533493873866
 40
0.4921467589723858
 40
0.614069621309244
 40
0.7371973244121077
 40
0.8656069906011179
 40
0.9999999999999999
 40
0.9999999999999999
 40
0.9999999999999999
 40
0.9999999999999999
 10
222.2181462148314
 20
105.7339748655989
 30
0.0
 10
222.2045379941111
 20
105.7336177035205
 30
0.0
 10
222.177704326642
 20
105.7329134256696
 30
0.0
 10
222.1384163232591
 20
105.7261911007148
 30
0.0
 10
222.1011835439962
 20
105.7149498750714
 30
0.0
 10
222.0655794215585
 20
105.6997225434408
 30
0.0
 10
222.0324927938718
 20
105.679229562742
 30
0.0
 10
222.0006115275643
 20
105.6553025490793
 30
0.0
 10
221.9714288177991
 20
105.6261501535359
 30
0.0
 10
221.9538435729335
 20
105.6043562783142
 30
0.0
 10
221.9448507650284
 20
105.5932112453691
 30
0.0
  0
SPLINE
  5
1BA
330
1F
100
AcDbEntity
  8
0
  6
Continuous
 62
     7
370
     0
100
AcDbSpline
210
0.0
220
0.0
230
1.0
 70
     8
 71
     3
 72
    23
 73
    19
 74
     0
 42
0.00000001
 43
0.00000001
 40
0.0
 40
0.0
 40
0.0
 40
0.0
 40
0.0407818458722593
 40
0.0808695887215865
 40
0.1202681657882668
 40
0.1601868504553522
 40
0.2004597376386395
 40
0.2422651778979076
 40
0.2864592615494687
 40
0.3329520837492632
 40
0.3844305340495304
 40
0.443389125360106
 40
0.5116814722136833
 40
0.5890200255490081
 40
0.6762451906507723
 40
0.7737051914728238
 40
0.881567767781983
 40
1.0
 40
1.0
 40
1.0
 40
1.0
 10
222.2210273415612
 20
104.1271293294077
 30
0.0
 10
222.2346330091382
 20
104.1276487574249
 30
0.0
 10
222.2616127771623
 20
104.1286787728452
 30
0.0
 10
222.3013294817902
 20
104.1355395425296
 30
0.0
 10
222.3391678991657
 20
104.1483576412462
 30
0.0
 10
222.3754692374057
 20
104.1651173597966
 30
0.0
 10
222.410046072566
 20
104.1868252194545
 30
0.0
 10
222.4427165627267
 20
104.2135680847662
 30
0.0
 10
222.4740024230021
 20
104.2448941195846
 30
0.0
 10
222.504011302684
 20
104.2817636292348
 30
0.0
 10
222.531333355033
 20
104.3266812261806
 30
0.0
 10
222.5539989701763
 20
104.3820369861456
 30
0.0
 10
222.5734283552578
 20
104.4475557725847
 30
0.0
 10
222.5892335373395
 20
104.5237095506341
 30
0.0
 10
222.6011872739533
 20
104.6103591236346
 30
0.0
 10
222.6101374002271
 20
104.7075870845181
 30
0.0
 10
222.6154031837994
 20
104.8155229995292
 30
0.0
 10
222.6158955903031
 20
104.891033431333
 30
0.0
 10
222.6161532930837
 20
104.9305520975033
 30
0.0
  0
SPLINE
  5
1BB
330
1F
100
AcDbEntity
  8
0
  6
Continuous
 62
     7
370
     0
100
AcDbSpline
210
0.0
220
0.0
230
1.0
 70
     8
 71
     3
 72
    23
 73
    19
 74
     0
 42
0.00000001
 43
0.00000001
 40
0.0
 40
0.0
 40
0.0
 40
0.0
 40
0.1156291309254414
 40
0.2215410391198768
 40
0.3170478562190417
 40
0.4031508756396167
 40
0.4801812167162795
 40
0.5476493661481898
 40
0.6070358428421809
 40
0.6586524080635072
 40
0.705722890353646
 40
0.749804087979647
 40
0.7925868153452743
 40
0.8338739610102607
 40
0.8747683933034329
 40
0.9152226988916381
 40
0.9568807037304801
 40
1.0
 40
1.0
 40
1.0
 40
1.0
 10
217.8746418748144
 20
104.9305520975033
 30
0.0
 10
217.8743924232372
 20
104.9692485081197
 30
0.0
 10
217.8739144834552
 20
105.043389366479
 30
0.0
 10
217.8685128881168
 20
105.1493822716775
 30
0.0
 10
217.8600481027742
 20
105.2452441784376
 30
0.0
 10
217.8484696211551
 20
105.3310634625482
 30
0.0
 10
217.8330818212301
 20
105.4067469554113
 30
0.0
 10
217.8144185189933
 20
105.4724557768962
 30
0.0
 10
217.7921784037776
 20
105.5280497922663
 30
0.0
 10
217.7657349861498
 20
105.5740874445006
 30
0.0
 10
217.73629817137
 20
105.6118508088337
 30
0.0
 10
217.7055486277538
 20
105.6445382865187
 30
0.0
 10
217.6727176136101
 20
105.6723379213597
 30
0.0
 10
217.6372234621606
 20
105.6946391985217
 30
0.0
 10
217.6002102166624
 20
105.7126310394392
 30
0.0
 10
217.5608274068113
 20
105.7250134825261
 30
0.0
 10
217.5194621345055
 20
105.7326208682499
 30
0.0
 10
217.4910736847818
 20
105.7335183764191
 30
0.0
 10
217.4766347965621
 20
105.7339748655989
 30
0.0
  0
SPLINE
  5
1BC
330
1F
100
AcDbEntity
  8
0
  6
Continuous
 62
     7
370
     0
100
AcDbSpline
210
0.0
220
0.0
230
1.0
 70
     8
 71
     3
 72
    23
 73
    19
 74
     0
 42
0.00000001
 43
0.00000001
 40
0.0
 40
0.0
 40
0.0
 40
0.0
 40
0.0407818458722597
 40
0.0808695887215869
 40
0.1202681657882672
 40
0.1601868504553523
 40
0.2004597376386391
 40
0.2422651778979082
 40
0.2864592615494684
 40
0.3329520837492633
 40
0.3844305340495303
 40
0.4433891253601058
 40
0.5116814722136833
 40
0.5890200255490083
 40
0.6762451906507723
 40
0.7737051914728237
 40
0.881567767781983
 40
1.0
 40
1.0
 40
1.0
 40
1.0
 10
217.479515923292
 20
104.1271293294077
 30
0.0
 10
217.493121590869
 20
104.1276487574249
 30
0.0
 10
217.520101358893
 20
104.1286787728452
 30
0.0
 10
217.559818063521
 20
104.1355395425296
 30
0.0
 10
217.5976564808964
 20
104.1483576412462
 30
0.0
 10
217.6339578191364
 20
104.1651173597966
 30
0.0
 10
217.6685346542967
 20
104.1868252194545
 30
0.0
 10
217.7012051444575
 20
104.2135680847662
 30
0.0
 10
217.7324910047328
 20
104.2448941195846
 30
0.0
 10
217.7624998844148
 20
104.2817636292348
 30
0.0
 10
217.7898219367638
 20
104.3266812261806
 30
0.0
 10
217.812487551907
 20
104.3820369861456
 30
0.0
 10
217.8319169369886
 20
104.4475557725847
 30
0.0
 10
217.8477221190703
 20
104.5237095506341
 30
0.0
 10
217.8596758556841
 20
104.6103591236346
 30
0.0
 10
217.8686259819579
 20
104.7075870845181
 30
0.0
 10
217.8738917655302
 20
104.8155229995292
 30
0.0
 10
217.8743841720339
 20
104.891033431333
 30
0.0
 10
217.8746418748144
 20
104.9305520975033
 30
0.0
  0
SPLINE
  5
1BD
330
1F
100
AcDbEntity
  8
0
  6
Continuous
 62
     7
370
     0
100
AcDbSpline
210
0.0
220
0.0
230
1.0
 70
     8
 71
     3
 72
    23
 73
    19
 74
     0
 42
0.00000001
 43
0.00000001
 40
0.0
 40
0.0
 40
0.0
 40
0.0
 40
0.1184055081537694
 40
0.2266543328167019
 40
0.3240923419286019
 40
0.4117048030053216
 40
0.4890259050064157
 40
0.5569093973430758
 40
0.6162333444927067
 40
0.6673492812770749
 40
0.7135123932013474
 40
0.757696504520978
 40
0.7994925114422909
 40
0.8399760647439395
 40
0.879885741816776
 40
0.9191486593857414
 40
0.959227356493083
 40
1.0
 40
1.0
 40
1.0
 40
1.0
 10
217.0843899717696
 20
104.9305520975033
 30
0.0
 10
217.0846515242025
 20
104.8910336096131
 30
0.0
 10
217.0851521934121
 20
104.815386482665
 30
0.0
 10
217.0903829713455
 20
104.7073115104717
 30
0.0
 10
217.0993875402565
 20
104.6098131332419
 30
0.0
 10
217.1112921685059
 20
104.5230263438492
 30
0.0
 10
217.1270110977782
 20
104.446833745999
 30
0.0
 10
217.1467480726108
 20
104.3814295018867
 30
0.0
 10
217.168996337621
 20
104.326028612309
 30
0.0
 10
217.1965281439798
 20
104.2813177286551
 30
0.0
 10
217.2266724310336
 20
104.2448718361228
 30
0.0
 10
217.257794347303
 20
104.2135271898912
 30
0.0
 10
217.2906260838977
 20
104.1868849583066
 30
0.0
 10
217.3249534177041
 20
104.1646707704888
 30
0.0
 10
217.3613089620089
 20
104.1478516469575
 30
0.0
 10
217.3992951749781
 20
104.1356611087696
 30
0.0
 10
217.4389203220872
 20
104.1286456412157
 30
0.0
 10
217.4659068478466
 20
104.1276376505356
 30
0.0
 10
217.479515923292
 20
104.1271293294077
 30
0.0
  0
SPLINE
  5
1BE
330
1F
100
AcDbEntity
  8
0
  6
Continuous
 62
     7
370
     0
100
AcDbSpline
210
0.0
220
0.0
230
1.0
 70
     8
 71
     3
 72
    15
 73
    11
 74
     0
 42
0.00000001
 43
0.00000001
 40
0.0
 40
0.0
 40
0.0
 40
0.0
 40
0.0838881132795455
 40
0.1771540327539696
 40
0.2825136355617228
 40
0.3993998606601629
 40
0.5294908061912204
 40
0.6728021776758328
 40
0.8295357616196702
 40
1.0
 40
1.0
 40
1.0
 40
1.0
 10
217.2033393467592
 20
105.5932112453691
 30
0.0
 10
217.1935489224345
 20
105.576842643928
 30
0.0
 10
217.1728736076171
 20
105.5422756040643
 30
0.0
 10
217.1497391325163
 20
105.4821966645749
 30
0.0
 10
217.1293030517586
 20
105.4135378724687
 30
0.0
 10
217.1124773818086
 20
105.3352428623617
 30
0.0
 10
217.100305189977
 20
105.2474459416885
 30
0.0
 10
217.09069571519
 20
105.150249069975
 30
0.0
 10
217.0857039507208
 20
105.0435165487598
 30
0.0
 10
217.084840049119
 20
104.9692458229608
 30
0.0
 10
217.0843899717696
 20
104.9305520975033
 30
0.0
  0
SPLINE
  5
1BF
330
1F
100
AcDbEntity
  8
0
  6
Continuous
 62
     7
370
     0
100
AcDbSpline
210
0.0
220
0.0
230
1.0
 70
     8
 71
     3
 72
    15
 73
    11
 74
     0
 42
0.00000001
 43
0.00000001
 40
0.0
 40
0.0
 40
0.0
 40
0.0
 40
0.1276647678962251
 40
0.2517385630080496
 40
0.3727533493873896
 40
0.492146758972386
 40
0.614069621309245
 40
0.7371973244121095
 40
0.8656069906011175
 40
1.0
 40
1.0
 40
1.0
 40
1.0
 10
217.4766347965621
 20
105.7339748655989
 30
0.0
 10
217.4630265758418
 20
105.7336177035205
 30
0.0
 10
217.4361929083728
 20
105.7329134256696
 30
0.0
 10
217.3969049049899
 20
105.7261911007148
 30
0.0
 10
217.3596721257269
 20
105.7149498750714
 30
0.0
 10
217.3240680032892
 20
105.6997225434408
 30
0.0
 10
217.2909813756025
 20
105.679229562742
 30
0.0
 10
217.2591001092951
 20
105.6553025490793
 30
0.0
 10
217.2299173995298
 20
105.6261501535359
 30
0.0
 10
217.2123321546642
 20
105.6043562783142
 30
0.0
 10
217.2033393467592
 20
105.5932112453691
 30
0.0
  0
SPLINE
  5
1C0
330
1F
100
AcDbEntity
  8
0
  6
Continuous
 62
     7
370
     0
100
AcDbSpline
210
0.0
220
0.0
230
1.0
 70
     8
 71
     3
 72
    15
 73
    11
 74
     0
 42
0.00000001
 43
0.00000001
 40
0.0
 40
0.0
 40
0.0
 40
0.0
 40
0.1531481085926329
 40
0.2994334688329067
 40
0.4364263514567513
 40
0.5656705729563587
 40
0.6865083102878737
 40
0.7992685160630052
 40
0.9033947408013442
 40
1.0
 40
1.0
 40
1.0
 40
1.0
 10
217.0905638147621
 20
108.4866856612052
 30
0.0
 10
217.0829110612619
 20
108.5075507365463
 30
0.0
 10
217.0679484832207
 20
108.5483458984603
 30
0.0
 10
217.0456347715242
 20
108.607617824904
 30
0.0
 10
217.0252493240898
 20
108.6639048790305
 30
0.0
 10
217.0052597188709
 20
108.7163999851072
 30
0.0
 10
216.9872147451927
 20
108.7658656873138
 30
0.0
 10
216.9705822304232
 20
108.811967867237
 30
0.0
 10
216.9541328136565
 20
108.8543860926584
 30
0.0
 10
216.9442612872596
 20
108.8817926369747
 30
0.0
 10
216.9395104562113
 20
108.8949824777784
 30
0.0
  0
LINE
  5
1C1
330
1F
100
AcDbEntity
  8
0
  6
Continuous
 62
     7
370
     0
100
AcDbLine
 10
217.2901847382
 20
107.9466801941
 30
0.0
 11
217.0905638148
 21
108.4866856612
 31
0.0
  0
LINE
  5
1C2
330
1F
100
AcDbEntity
  8
0
  6
Continuous
 62
     7
370
     0
100
AcDbLine
 10
216.5888361742
 20
107.9466801941
 30
0.0
 11
217.2901847382
 21
107.9466801941
 31
0.0
  0
LINE
  5
1C3
330
1F
100
AcDbEntity
  8
0
  6
Continuous
 62
     7
370
     0
100
AcDbLine
 10
216.7991584255
 20
108.5154969285
 30
0.0
 11
216.5888361742
 21
107.9466801941
 31
0.0
  0
SPLINE
  5
1C4
330
1F
100
AcDbEntity
  8
0
  6
Continuous
 62
     7
370
     0
100
AcDbSpline
210
0.0
220
0.0
230
1.0
 70
     8
 71
     3
 72
    11
 73
     7
 74
     0
 42
0.00000001
 43
0.00000001
 40
0.0
 40
0.0
 40
0.0
 40
0.0
 40
0.2472940500353362
 40
0.4956077709090485
 40
0.7463591727731967
 40
1.0
 40
1.0
 40
1.0
 40
1.0
 10
216.9395104562113
 20
108.8949824777784
 30
0.0
 10
216.9316516646632
 20
108.8624574919026
 30
0.0
 10
216.9159016773075
 20
108.7972734094451
 30
0.0
 10
216.882925038443
 20
108.7017699840756
 30
0.0
 10
216.8452009089065
 20
108.6071399806381
 30
0.0
 10
216.8145644206458
 20
108.5461610523954
 30
0.0
 10
216.7991584255143
 20
108.5154969285038
 30
0.0
  0
SPLINE
  5
1C5
330
1F
100
AcDbEntity
  8
0
  6
Continuous
 62
     7
370
     0
100
AcDbSpline
210
0.0
220
0.0
230
1.0
 70
     8
 71
     3
 72
    23
 73
    19
 74
     0
 42
0.00000001
 43
0.00000001
 40
0.0
 40
0.0
 40
0.0
 40
0.0
 40
0.1156291309254414
 40
0.2215410391198768
 40
0.3170478562190417
 40
0.4031508756396167
 40
0.4801812167162795
 40
0.5476493661481898
 40
0.6070358428421809
 40
0.6586524080635071
 40
0.7057228903536458
 40
0.7498040879796471
 40
0.7925868153452744
 40
0.8338739610102605
 40
0.8747683933034328
 40
0.9152226988916382
 40
0.95688070373048
 40
1.0
 40
1.0
 40
1.0
 40
1.0
 10
214.713634262635
 20
104.9305520975033
 30
0.0
 10
214.7133848110577
 20
104.9692485081197
 30
0.0
 10
214.7129068712757
 20
105.043389366479
 30
0.0
 10
214.7075052759373
 20
105.1493822716775
 30
0.0
 10
214.6990404905947
 20
105.2452441784376
 30
0.0
 10
214.6874620089756
 20
105.3310634625482
 30
0.0
 10
214.6720742090507
 20
105.4067469554113
 30
0.0
 10
214.6534109068138
 20
105.4724557768962
 30
0.0
 10
214.6311707915981
 20
105.5280497922663
 30
0.0
 10
214.6047273739703
 20
105.5740874445006
 30
0.0
 10
214.5752905591905
 20
105.6118508088337
 30
0.0
 10
214.5445410155743
 20
105.6445382865187
 30
0.0
 10
214.5117100014307
 20
105.6723379213597
 30
0.0
 10
214.4762158499811
 20
105.6946391985217
 30
0.0
 10
214.4392026044829
 20
105.7126310394392
 30
0.0
 10
214.3998197946318
 20
105.7250134825261
 30
0.0
 10
214.358454522326
 20
105.7326208682499
 30
0.0
 10
214.3300660726023
 20
105.7335183764191
 30
0.0
 10
214.3156271843827
 20
105.7339748655989
 30
0.0
  0
SPLINE
  5
1C6
330
1F
100
AcDbEntity
  8
0
  6
Continuous
 62
     7
370
     0
100
AcDbSpline
210
0.0
220
0.0
230
1.0
 70
     8
 71
     3
 72
    23
 73
    19
 74
     0
 42
0.00000001
 43
0.00000001
 40
0.0
 40
0.0
 40
0.0
 40
0.0
 40
0.1184055081537694
 40
0.2266543328167019
 40
0.324092341928602
 40
0.4117048030053217
 40
0.4890259050064157
 40
0.5569093973430758
 40
0.6162333444927067
 40
0.667349281277075
 40
0.7135123932013475
 40
0.7576965045209779
 40
0.799492511442291
 40
0.8399760647439393
 40
0.8798857418167761
 40
0.9191486593857416
 40
0.959227356493083
 40
1.0
 40
1.0
 40
1.0
 40
1.0
 10
213.9233823595901
 20
104.9305520975033
 30
0.0
 10
213.923643912023
 20
104.8910336096131
 30
0.0
 10
213.9241445812326
 20
104.815386482665
 30
0.0
 10
213.9293753591661
 20
104.7073115104717
 30
0.0
 10
213.938379928077
 20
104.6098131332419
 30
0.0
 10
213.9502845563264
 20
104.5230263438492
 30
0.0
 10
213.9660034855987
 20
104.446833745999
 30
0.0
 10
213.9857404604314
 20
104.3814295018867
 30
0.0
 10
214.0079887254415
 20
104.326028612309
 30
0.0
 10
214.0355205318003
 20
104.2813177286551
 30
0.0
 10
214.0656648188541
 20
104.2448718361228
 30
0.0
 10
214.0967867351235
 20
104.2135271898912
 30
0.0
 10
214.1296184717182
 20
104.1868849583066
 30
0.0
 10
214.1639458055247
 20
104.1646707704888
 30
0.0
 10
214.2003013498294
 20
104.1478516469575
 30
0.0
 10
214.2382875627985
 20
104.1356611087696
 30
0.0
 10
214.2779127099077
 20
104.1286456412157
 30
0.0
 10
214.3048992356671
 20
104.1276376505356
 30
0.0
 10
214.3185083111125
 20
104.1271293294077
 30
0.0
  0
SPLINE
  5
1C7
330
1F
100
AcDbEntity
  8
0
  6
Continuous
 62
     7
370
     0
100
AcDbSpline
210
0.0
220
0.0
230
1.0
 70
     8
 71
     3
 72
    15
 73
    11
 74
     0
 42
0.00000001
 43
0.00000001
 40
0.0
 40
0.0
 40
0.0
 40
0.0
 40
0.0838881132795456
 40
0.1771540327539697
 40
0.2825136355617227
 40
0.3993998606601629
 40
0.5294908061912204
 40
0.6728021776758328
 40
0.82953576161967
 40
1.0
 40
1.0
 40
1.0
 40
1.0
 10
214.0423317345796
 20
105.5932112453691
 30
0.0
 10
214.032541310255
 20
105.576842643928
 30
0.0
 10
214.0118659954376
 20
105.5422756040643
 30
0.0
 10
213.9887315203368
 20
105.4821966645749
 30
0.0
 10
213.9682954395791
 20
105.4135378724687
 30
0.0
 10
213.9514697696291
 20
105.3352428623617
 30
0.0
 10
213.9392975777975
 20
105.2474459416885
 30
0.0
 10
213.9296881030106
 20
105.150249069975
 30
0.0
 10
213.9246963385414
 20
105.0435165487598
 30
0.0
 10
213.9238324369395
 20
104.9692458229608
 30
0.0
 10
213.9233823595901
 20
104.9305520975033
 30
0.0
  0
SPLINE
  5
1C8
330
1F
100
AcDbEntity
  8
0
  6
Continuous
 62
     7
370
     0
100
AcDbSpline
210
0.0
220
0.0
230
1.0
 70
     8
 71
     3
 72
    15
 73
    11
 74
     0
 42
0.00000001
 43
0.00000001
 40
0.0
 40
0.0
 40
0.0
 40
0.0
 40
0.1276647678962242
 40
0.2517385630080495
 40
0.3727533493873896
 40
0.4921467589723854
 40
0.6140696213092446
 40
0.7371973244121095
 40
0.8656069906011172
 40
1.0
 40
1.0
 40
1.0
 40
1.0
 10
214.3156271843827
 20
105.7339748655989
 30
0.0
 10
214.3020189636623
 20
105.7336177035205
 30
0.0
 10
214.2751852961933
 20
105.7329134256696
 30
0.0
 10
214.2358972928104
 20
105.7261911007148
 30
0.0
 10
214.1986645135475
 20
105.7149498750714
 30
0.0
 10
214.1630603911098
 20
105.6997225434408
 30
0.0
 10
214.1299737634231
 20
105.679229562742
 30
0.0
 10
214.0980924971156
 20
105.6553025490793
 30
0.0
 10
214.0689097873503
 20
105.6261501535359
 30
0.0
 10
214.0513245424847
 20
105.6043562783142
 30
0.0
 10
214.0423317345796
 20
105.5932112453691
 30
0.0
  0
SPLINE
  5
1C9
330
1F
100
AcDbEntity
  8
0
  6
Continuous
 62
     7
370
     0
100
AcDbSpline
210
0.0
220
0.0
230
1.0
 70
     8
 71
     3
 72
    23
 73
    19
 74
     0
 42
0.00000001
 43
0.00000001
 40
0.0
 40
0.0
 40
0.0
 40
0.0
 40
0.0407818458722598
 40
0.0808695887215869
 40
0.1202681657882672
 40
0.1601868504553523
 40
0.2004597376386393
 40
0.2422651778979082
 40
0.2864592615494685
 40
0.3329520837492634
 40
0.3844305340495304
 40
0.4433891253601058
 40
0.5116814722136833
 40
0.5890200255490083
 40
0.6762451906507723
 40
0.7737051914728238
 40
0.881567767781983
 40
1.0
 40
1.0
 40
1.0
 40
1.0
 10
214.3185083111125
 20
104.1271293294077
 30
0.0
 10
214.3321139786894
 20
104.1276487574249
 30
0.0
 10
214.3590937467135
 20
104.1286787728452
 30
0.0
 10
214.3988104513415
 20
104.1355395425296
 30
0.0
 10
214.4366488687169
 20
104.1483576412462
 30
0.0
 10
214.4729502069569
 20
104.1651173597966
 30
0.0
 10
214.5075270421172
 20
104.1868252194545
 30
0.0
 10
214.540197532278
 20
104.2135680847662
 30
0.0
 10
214.5714833925533
 20
104.2448941195846
 30
0.0
 10
214.6014922722353
 20
104.2817636292348
 30
0.0
 10
214.6288143245843
 20
104.3266812261806
 30
0.0
 10
214.6514799397275
 20
104.3820369861456
 30
0.0
 10
214.6709093248091
 20
104.4475557725847
 30
0.0
 10
214.6867145068908
 20
104.5237095506341
 30
0.0
 10
214.6986682435046
 20
104.6103591236346
 30
0.0
 10
214.7076183697784
 20
104.7075870845181
 30
0.0
 10
214.7128841533507
 20
104.8155229995292
 30
0.0
 10
214.7133765598544
 20
104.891033431333
 30
0.0
 10
214.713634262635
 20
104.9305520975033
 30
0.0
  0
SPLINE
  5
1CA
330
1F
100
AcDbEntity
  8
0
  6
Continuous
 62
     7
370
     0
100
AcDbSpline
210
0.0
220
0.0
230
1.0
 70
     8
 71
     3
 72
    23
 73
    19
 74
     0
 42
0.00000001
 43
0.00000001
 40
0.0
 40
0.0
 40
0.0
 40
0.0
 40
0.0603255293380428
 40
0.1181599905079978
 40
0.1741866762963802
 40
0.2295388181457993
 40
0.2834498146386366
 40
0.337826511950592
 40
0.3926321025334827
 40
0.4484655764151903
 40
0.5059654091573048
 40
0.5650585322290047
 40
0.6266544786228437
 40
0.6922320330373637
 40
0.7611310781257616
 40
0.8353098773394202
 40
0.9153255598322018
 40
1.0
 40
1.0
 40
1.0
 40
1.0
 10
213.8970406294886
 20
108.5718846945023
 30
0.0
 10
213.8966582018777
 20
108.5834177719024
 30
0.0
 10
213.8959091385315
 20
108.6060076825269
 30
0.0
 10
213.8919823007309
 20
108.63916339949
 30
0.0
 10
213.8843475957361
 20
108.6706689942637
 30
0.0
 10
213.8742659865252
 20
108.7006910089634
 30
0.0
 10
213.8607949108159
 20
108.7290095537944
 30
0.0
 10
213.8447918224395
 20
108.7558440661728
 30
0.0
 10
213.8256951976636
 20
108.7810458183971
 30
0.0
 10
213.8038211127902
 20
108.8046915788671
 30
0.0
 10
213.7787056882182
 20
108.8262069100643
 30
0.0
 10
213.7500179688549
 20
108.8447699743289
 30
0.0
 10
213.7179842130577
 20
108.8605445742979
 30
0.0
 10
213.682567186798
 20
108.8730643513474
 30
0.0
 10
213.6438784601795
 20
108.8830781350175
 30
0.0
 10
213.6016977868053
 20
108.8897399823097
 30
0.0
 10
213.5562180679023
 20
108.8945604728061
 30
0.0
 10
213.5247032601447
 20
108.8948391814159
 30
0.0
 10
213.5085001104915
 20
108.8949824777784
 30
0.0
  0
SPLINE
  5
1CB
330
1F
100
AcDbEntity
  8
0
  6
Continuous
 62
     7
370
     0
100
AcDbSpline
210
0.0
220
0.0
230
1.0
 70
     8
 71
     3
 72
    19
 73
    15
 74
     0
 42
0.00000001
 43
0.00000001
 40
0.0
 40
0.0
 40
0.0
 40
0.0
 40
0.1288602680417312
 40
0.2408921848092288
 40
0.3380442015575111
 40
0.4201204852136087
 40
0.4940584568685509
 40
0.5660947835833201
 40
0.6368049543510103
 40
0.7091484493607201
 40
0.7819418055941266
 40
0.8542853006038363
 40
0.9261704072165581
 40
1.0
 40
1.0
 40
1.0
 40
1.0
 10
213.4463500910333
 20
108.236439225241
 30
0.0
 10
213.4739439770812
 20
108.2368709577578
 30
0.0
 10
213.5255281589121
 20
108.2376780412041
 30
0.0
 10
213.5976604766217
 20
108.2445696855276
 30
0.0
 10
213.6591332607614
 20
108.2555208010194
 30
0.0
 10
213.7111617405167
 20
108.2714942855177
 30
0.0
 10
213.7548738760184
 20
108.2936707864201
 30
0.0
 10
213.7928911507956
 20
108.3206969967808
 30
0.0
 10
213.8244839846896
 20
108.3545501387275
 30
0.0
 10
213.8507659589725
 20
108.3927462018922
 30
0.0
 10
213.8711954767416
 20
108.4347790627849
 30
0.0
 10
213.8859323564657
 20
108.4789284205446
 30
0.0
 10
213.895577900559
 20
108.5248232283837
 30
0.0
 10
213.8965487347545
 20
108.5560585992536
 30
0.0
 10
213.8970406294886
 20
108.5718846945023
 30
0.0
  0
LINE
  5
1CC
330
1F
100
AcDbEntity
  8
0
  6
Continuous
 62
     7
370
     0
100
AcDbLine
 10
212.8960548856
 20
108.2364392252
 30
0.0
 11
213.446350091
 21
108.2364392252
 31
0.0
  0
LINE
  5
1CD
330
1F
100
AcDbEntity
  8
0
  6
Continuous
 62
     7
370
     0
100
AcDbLine
 10
212.8960548856
 20
108.8949824778
 30
0.0
 11
212.8960548856
 21
108.2364392252
 31
0.0
  0
LINE
  5
1CE
330
1F
100
AcDbEntity
  8
0
  6
Continuous
 62
     7
370
     0
100
AcDbLine
 10
213.5085001105
 20
108.8949824778
 30
0.0
 11
212.8960548856
 21
108.8949824778
 31
0.0
  0
SPLINE
  5
1CF
330
1F
100
AcDbEntity
  8
0
  6
Continuous
 62
     7
370
     0
100
AcDbSpline
210
0.0
220
0.0
230
1.0
 70
     8
 71
     3
 72
    23
 73
    19
 74
     0
 42
0.00000001
 43
0.00000001
 40
0.0
 40
0.0
 40
0.0
 40
0.0
 40
0.0718367171319505
 40
0.1395582629178172
 40
0.2049233526537264
 40
0.2678265586039221
 40
0.3285473200936659
 40
0.3887551463289839
 40
0.4480299679797877
 40
0.5086005276974233
 40
0.5693212891871666
 40
0.6285118954019238
 40
0.687493275539241
 40
0.747078295388978
 40
0.8077025413165653
 40
0.8697098126206608
 40
0.933428331305089
 40
1.0
 40
1.0
 40
1.0
 40
1.0
 10
211.7917601690331
 20
104.1271293294077
 30
0.0
 10
211.8067332825179
 20
104.1273829629935
 30
0.0
 10
211.8358217736382
 20
104.1278757007475
 30
0.0
 10
211.8782236860822
 20
104.1335062866263
 30
0.0
 10
211.9181758740305
 20
104.1420497273082
 30
0.0
 10
211.9558613764689
 20
104.1537641848478
 30
0.0
 10
211.9907255047581
 20
104.1697903381985
 30
0.0
 10
212.0233360070352
 20
104.1885214303129
 30
0.0
 10
212.0533593197683
 20
104.2111593889712
 30
0.0
 10
212.0807869435557
 20
104.236995014054
 30
0.0
 10
212.1053395290857
 20
104.2655740572705
 30
0.0
 10
212.1263719234133
 20
104.2964046004327
 30
0.0
 10
212.1447187294096
 20
104.3286196099263
 30
0.0
 10
212.1596980577298
 20
104.36291433535
 30
0.0
 10
212.1705305263788
 20
104.3993594954071
 30
0.0
 10
212.1788893059313
 20
104.4372975404426
 30
0.0
 10
212.1839319103418
 20
104.4771197806224
 30
0.0
 10
212.1845250888165
 20
104.5042680160681
 30
0.0
 10
212.1848281728914
 20
104.5181393856018
 30
0.0
  0
SPLINE
  5
1D0
330
1F
100
AcDbEntity
  8
0
  6
Continuous
 62
     7
370
     0
100
AcDbSpline
210
0.0
220
0.0
230
1.0
 70
     8
 71
     3
 72
    19
 73
    15
 74
     0
 42
0.00000001
 43
0.00000001
 40
0.0
 40
0.0
 40
0.0
 40
0.0
 40
0.0798232712797877
 40
0.1598568116661121
 40
0.2397327021152788
 40
0.3213646023254468
 40
0.4025836963489389
 40
0.483265588546352
 40
0.5660170116609762
 40
0.6530713596602558
 40
0.7418556865073697
 40
0.8285909050739394
 40
0.9142807452008549
 40
1.0
 40
1.0
 40
1.0
 40
1.0
 10
211.3945762698465
 20
104.5263711762585
 30
0.0
 10
211.3950317777864
 20
104.5094688796322
 30
0.0
 10
211.3959439935576
 20
104.4756197626368
 30
0.0
 10
211.4039460892694
 20
104.4253466509382
 30
0.0
 10
211.4175239881849
 20
104.3760097164685
 30
0.0
 10
211.434926429353
 20
104.3275623571039
 30
0.0
 10
211.4594736547837
 20
104.2819599930343
 30
0.0
 10
211.4920260364609
 20
104.2412565278581
 30
0.0
 10
211.5328731784309
 20
104.2070355085081
 30
0.0
 10
211.5795228481191
 20
104.1781242926435
 30
0.0
 10
211.63042963174
 20
104.1553686792685
 30
0.0
 10
211.6834759888104
 20
104.1394844879127
 30
0.0
 10
211.7372928203118
 20
104.1289890071262
 30
0.0
 10
211.7736023091617
 20
104.1277492928943
 30
0.0
 10
211.7917601690331
 20
104.1271293294077
 30
0.0
  0
SPLINE
  5
1D1
330
1F
100
AcDbEntity
  8
0
  6
Continuous
 62
     7
370
     0
100
AcDbSpline
210
0.0
220
0.0
230
1.0
 70
     8
 71
     3
 72
    23
 73
    19
 74
     0
 42
0.00000001
 43
0.00000001
 40
0.0
 40
0.0
 40
0.0
 40
0.0
 40
0.0709524654154269
 40
0.1390889271416602
 40
0.2035598239190671
 40
0.2664237811295191
 40
0.3275165661984789
 40
0.3878608717608968
 40
0.4478987850107178
 40
0.5088188285885856
 40
0.5694824568188307
 40
0.6290357116670982
 40
0.6883784585529115
 40
0.7480679615575835
 40
0.8086301697509072
 40
0.8702311456070247
 40
0.933682580472202
 40
1.0
 40
1.0
 40
1.0
 40
1.0
 10
211.7839399679092
 20
104.9173812324526
 30
0.0
 10
211.7692414986904
 20
104.9171156410001
 30
0.0
 10
211.7404279218498
 20
104.9165949990468
 30
0.0
 10
211.6985697593418
 20
104.911054920861
 30
0.0
 10
211.6589429396133
 20
104.9025471982104
 30
0.0
 10
211.6218961011082
 20
104.8900950135786
 30
0.0
 10
211.5869660437602
 20
104.8745347433989
 30
0.0
 10
211.5547916265279
 20
104.8549688171337
 30
0.0
 10
211.5247988600753
 20
104.832258359635
 30
0.0
 10
211.4979039160718
 20
104.8058617726239
 30
0.0
 10
211.4736377068206
 20
104.7771879024491
 30
0.0
 10
211.4526569701578
 20
104.7464496017276
 30
0.0
 10
211.434122615729
 20
104.7143599069797
 30
0.0
 10
211.4200572856409
 20
104.6798658382993
 30
0.0
 10
211.4081522428777
 20
104.6440825259107
 30
0.0
 10
211.4007097080472
 20
104.606315454465
 30
0.0
 10
211.3954189957941
 20
104.5669937240883
 30
0.0
 10
211.3948612842389
 20
104.5401099377376
 30
0.0
 10
211.3945762698465
 20
104.5263711762585
 30
0.0
  0
SPLINE
  5
1D2
330
1F
100
AcDbEntity
  8
0
  6
Continuous
 62
     7
370
     0
100
AcDbSpline
210
0.0
220
0.0
230
1.0
 70
     8
 71
     3
 72
    23
 73
    19
 74
     0
 42
0.00000001
 43
0.00000001
 40
0.0
 40
0.0
 40
0.0
 40
0.0
 40
0.0666161804351809
 40
0.130423869924064
 40
0.1926709575700171
 40
0.2529685047960665
 40
0.312880382805784
 40
0.3722002559180861
 40
0.4319271071459047
 40
0.4924217452545999
 40
0.5527712209075778
 40
0.6132624068156194
 40
0.6735564905563719
 40
0.734319796033302
 40
0.7968580801403251
 40
0.8617690047507051
 40
0.9288631073150267
 40
0.9999999999999999
 40
0.9999999999999999
 40
0.9999999999999999
 40
0.9999999999999999
 10
212.1848281728914
 20
104.5181393856018
 30
0.0
 10
212.1845154362443
 20
104.532283033793
 30
0.0
 10
212.1839031477055
 20
104.5599740439935
 30
0.0
 10
212.1789886922309
 20
104.6006702999881
 30
0.0
 10
212.1701612059773
 20
104.6392758085189
 30
0.0
 10
212.1588090219041
 20
104.6763737864177
 30
0.0
 10
212.1434235664929
 20
104.7113188350749
 30
0.0
 10
212.1249554813479
 20
104.7446120247521
 30
0.0
 10
212.1023395800402
 20
104.7753758209473
 30
0.0
 10
212.0775394401886
 20
104.8046546594361
 30
0.0
 10
212.0494739866942
 20
104.8311587760397
 30
0.0
 10
212.0184809416559
 20
104.8540142771882
 30
0.0
 10
211.9855425449318
 20
104.8741995554817
 30
0.0
 10
211.9496623801476
 20
104.8896833680589
 30
0.0
 10
211.9116309359574
 20
104.9020862550015
 30
0.0
 10
211.8712675314417
 20
104.9110983811528
 30
0.0
 10
211.8284075930785
 20
104.916607254177
 30
0.0
 10
211.7990487255647
 20
104.9171182579818
 30
0.0
 10
211.7839399679092
 20
104.9173812324526
 30
0.0
  0
SPLINE
  5
1D3
330
1F
100
AcDbEntity
  8
0
  6
Continuous
 62
     7
370
     0
100
AcDbSpline
210
0.0
220
0.0
230
1.0
 70
     8
 71
     3
 72
    19
 73
    15
 74
     0
 42
0.00000001
 43
0.00000001
 40
0.0
 40
0.0
 40
0.0
 40
0.0
 40
0.0768426979287827
 40
0.1498390532852208
 40
0.2183793964454711
 40
0.2849970207005652
 40
0.3476576708142682
 40
0.4098471591145119
 40
0.4699357615076958
 40
0.5304196066566044
 40
0.6487517360264009
 40
0.7637748930771634
 40
0.8787494877784697
 40
0.9999999999999999
 40
0.9999999999999999
 40
0.9999999999999999
 40
0.9999999999999999
 10
211.792171758566
 20
105.154456803366
 30
0.0
 10
211.8043978446908
 20
105.1546312210034
 30
0.0
 10
211.8282380431703
 20
105.1549713258457
 30
0.0
 10
211.8627240895333
 20
105.1594099053519
 30
0.0
 10
211.8953132831675
 20
105.1653380460413
 30
0.0
 10
211.925524051407
 20
105.1743212321139
 30
0.0
 10
211.9537051760265
 20
105.1860019939006
 30
0.0
 10
211.9793983032527
 20
105.200401489822
 30
0.0
 10
212.0033722949244
 20
105.2169506428283
 30
0.0
 10
212.0314012341541
 20
105.2426933305878
 30
0.0
 10
212.0614793878419
 20
105.2788754241511
 30
0.0
 10
212.0872577936933
 20
105.3282707656637
 30
0.0
 10
212.1033217989491
 20
105.3823122025338
 30
0.0
 10
212.1049614013129
 20
105.419955213633
 30
0.0
 10
212.1058029825869
 20
105.4392767600884
 30
0.0
  0
SPLINE
  5
1D4
330
1F
100
AcDbEntity
  8
0
  6
Continuous
 62
     7
370
     0
100
AcDbSpline
210
0.0
220
0.0
230
1.0
 70
     8
 71
     3
 72
    19
 73
    15
 74
     0
 42
0.00000001
 43
0.00000001
 40
0.0
 40
0.0
 40
0.0
 40
0.0
 40
0.1273939413394724
 40
0.2461816112928118
 40
0.3612680043537856
 40
0.477140268037225
 40
0.5363265834357714
 40
0.5956719150436505
 40
0.6566189532057533
 40
0.7188356214960797
 40
0.7835815527063736
 40
0.8515878166889451
 40
0.9239265274809916
 40
1.0
 40
1.0
 40
1.0
 40
1.0
 10
211.473601460151
 20
105.4516244460735
 30
0.0
 10
211.4743832797045
 20
105.4306545821776
 30
0.0
 10
211.4758941019258
 20
105.39013150213
 30
0.0
 10
211.4923244554061
 20
105.3325714358929
 30
0.0
 10
211.5180167600179
 20
105.2808663545576
 30
0.0
 10
211.54813647832
 20
105.2433710265853
 30
0.0
 10
211.5770137239691
 20
105.2178235203326
 30
0.0
 10
211.6011157622478
 20
105.2007663581755
 30
0.0
 10
211.627454629198
 20
105.1862851718822
 30
0.0
 10
211.6562211377532
 20
105.1750294806248
 30
0.0
 10
211.6867185617942
 20
105.1650576389858
 30
0.0
 10
211.7199987140521
 20
105.1594841044472
 30
0.0
 10
211.7552793643603
 20
105.1549531520793
 30
0.0
 10
211.7796697012457
 20
105.1546250055171
 30
0.0
 10
211.792171758566
 20
105.154456803366
 30
0.0
  0
SPLINE
  5
1D5
330
1F
100
AcDbEntity
  8
0
  6
Continuous
 62
     7
370
     0
100
AcDbSpline
210
0.0
220
0.0
230
1.0
 70
     8
 71
     3
 72
    19
 73
    15
 74
     0
 42
0.00000001
 43
0.00000001
 40
0.0
 40
0.0
 40
0.0
 40
0.0
 40
0.0762358674075237
 40
0.1486180999543649
 40
0.2182394281414515
 40
0.2842516902686069
 40
0.3482575207850561
 40
0.4106562042500674
 40
0.4728623729995132
 40
0.5341947480221281
 40
0.653476101422413
 40
0.7677667895221957
 40
0.8817126094674202
 40
1.0
 40
1.0
 40
1.0
 40
1.0
 10
211.7897022213689
 20
105.7339748655989
 30
0.0
 10
211.7776120998786
 20
105.7338063169585
 30
0.0
 10
211.7540429985459
 20
105.7334777396162
 30
0.0
 10
211.7197145079719
 20
105.7289262456354
 30
0.0
 10
211.6872207375791
 20
105.7232096617476
 30
0.0
 10
211.6568614633364
 20
105.7140356024169
 30
0.0
 10
211.6287628789219
 20
105.7020472395836
 30
0.0
 10
211.6026314938328
 20
105.6874571448997
 30
0.0
 10
211.5782733391345
 20
105.670761544714
 30
0.0
 10
211.5495481630464
 20
105.6450466653143
 30
0.0
 10
211.5194632736885
 20
105.6088637522492
 30
0.0
 10
211.4929593322568
 20
105.5602573129391
 30
0.0
 10
211.4765790389136
 20
105.5072598894837
 30
0.0
 10
211.4746062798989
 20
105.470399295264
 30
0.0
 10
211.473601460151
 20
105.4516244460735
 30
0.0
  0
SPLINE
  5
1D6
330
1F
100
AcDbEntity
  8
0
  6
Continuous
 62
     7
370
     0
100
AcDbSpline
210
0.0
220
0.0
230
1.0
 70
     8
 71
     3
 72
    19
 73
    15
 74
     0
 42
0.00000001
 43
0.00000001
 40
0.0
 40
0.0
 40
0.0
 40
0.0
 40
0.1233861213626086
 40
0.2414346864233539
 40
0.3574485461509669
 40
0.4767139204528331
 40
0.5378895868739915
 40
0.5992703938301226
 40
0.6603520522565614
 40
0.7230069362990812
 40
0.7878755372012022
 40
0.8553601058610509
 40
0.9253732137563339
 40
0.9999999999999999
 40
0.9999999999999999
 40
0.9999999999999999
 40
0.9999999999999999
 10
212.1058029825869
 20
105.4392767600884
 30
0.0
 10
212.1047889953974
 20
105.4592737333159
 30
0.0
 10
212.102804885058
 20
105.4984026313417
 30
0.0
 10
212.0867801190847
 20
105.5545739281631
 30
0.0
 10
212.0598010223102
 20
105.6054483475806
 30
0.0
 10
212.0289811444144
 20
105.6426012155527
 30
0.0
 10
212.0004563745668
 20
105.6695162808996
 30
0.0
 10
211.9760519797783
 20
105.6866495225515
 30
0.0
 10
211.9498171640805
 20
105.7012314269438
 30
0.0
 10
211.9216520781741
 20
105.7131395149787
 30
0.0
 10
211.8915159935659
 20
105.7227435119321
 30
0.0
 10
211.8593272753367
 20
105.7290441965532
 30
0.0
 10
211.8252211808118
 20
105.7334630881259
 30
0.0
 10
211.801790997417
 20
105.7338006836027
 30
0.0
 10
211.7897022213689
 20
105.7339748655989
 30
0.0
  0
SPLINE
  5
1D7
330
1F
100
AcDbEntity
  8
0
  6
Continuous
 62
     7
370
     0
100
AcDbSpline
210
0.0
220
0.0
230
1.0
 70
     8
 71
     3
 72
    23
 73
    19
 74
     0
 42
0.00000001
 43
0.00000001
 40
0.0
 40
0.0
 40
0.0
 40
0.0
 40
0.0610549117432832
 40
0.1195453450847434
 40
0.1768063562451032
 40
0.2329564830316854
 40
0.2885834899465033
 40
0.3446666617213001
 40
0.4016615108374461
 40
0.4605400973082778
 40
0.520477062322188
 40
0.5812128653554004
 40
0.6434307597220102
 40
0.7079608695212424
 40
0.7753707435336734
 40
0.8464136772813297
 40
0.9211518871893692
 40
1.0
 40
1.0
 40
1.0
 40
1.0
 10
211.2616328507405
 20
107.2881369415872
 30
0.0
 10
211.286085770848
 20
107.2887489898884
 30
0.0
 10
211.3339645194877
 20
107.2899473787368
 30
0.0
 10
211.4042333774973
 20
107.2999786625538
 30
0.0
 10
211.4709966586905
 20
107.3170564956686
 30
0.0
 10
211.5349161064977
 20
107.3397909601441
 30
0.0
 10
211.5948361191411
 20
107.3705240805307
 30
0.0
 10
211.6521580545434
 20
107.4065123963269
 30
0.0
 10
211.7053193093532
 20
107.45048908743
 30
0.0
 10
211.7556248419551
 20
107.499888125802
 30
0.0
 10
211.8007455159743
 20
107.5560392056867
 30
0.0
 10
211.8407806154254
 20
107.6175591470836
 30
0.0
 10
211.8733023122288
 20
107.6853705927195
 30
0.0
 10
211.9013804080063
 20
107.7579797492801
 30
0.0
 10
211.9219408079666
 20
107.8367589574486
 30
0.0
 10
211.9371362034589
 20
107.9208126559722
 30
0.0
 10
211.9462932704859
 20
108.0104112191581
 30
0.0
 10
211.9472575568533
 20
108.0719189702924
 30
0.0
 10
211.9477526019779
 20
108.103495806135
 30
0.0
  0
SPLINE
  5
1D8
330
1F
100
AcDbEntity
  8
0
  6
Continuous
 62
     7
370
     0
100
AcDbSpline
210
0.0
220
0.0
230
1.0
 70
     8
 71
     3
 72
    23
 73
    19
 74
     0
 42
0.00000001
 43
0.00000001
 40
0.0
 40
0.0
 40
0.0
 40
0.0
 40
0.0759644026221997
 40
0.148125223974871
 40
0.2172006111446033
 40
0.2832999093723612
 40
0.3472018681362412
 40
0.4092995407059241
 40
0.4704256161074028
 40
0.5315880640528349
 40
0.5917391729173694
 40
0.6502577442905727
 40
0.7073030399522857
 40
0.7642084640229153
 40
0.8211475320101308
 40
0.8791188121552541
 40
0.9384228183936663
 40
1.0
 40
1.0
 40
1.0
 40
1.0
 10
210.5779826367001
 20
108.0742729493037
 30
0.0
 10
210.5784266786836
 20
108.0446095087487
 30
0.0
 10
210.5792925292134
 20
107.9867678931446
 30
0.0
 10
210.58919832793
 20
107.9024378934732
 30
0.0
 10
210.6042287953857
 20
107.8228682442344
 30
0.0
 10
210.624946708185
 20
107.7478355742941
 30
0.0
 10
210.6527966565573
 20
107.6780819456737
 30
0.0
 10
210.6860948757687
 20
107.6129370937816
 30
0.0
 10
210.7259625246832
 20
107.5528340644153
 30
0.0
 10
210.7715200041718
 20
107.4979409894903
 30
0.0
 10
210.8216280089107
 20
107.4486291642116
 30
0.0
 10
210.8751734971797
 20
107.4055579079862
 30
0.0
 10
210.9321685057399
 20
107.3694887775385
 30
0.0
 10
210.9919811435414
 20
107.3397060104772
 30
0.0
 10
211.0550410168172
 20
107.3164578450655
 30
0.0
 10
211.1211592605992
 20
107.3001335690459
 30
0.0
 10
211.1903844548368
 20
107.2899240595355
 30
0.0
 10
211.2375875004126
 20
107.288740069231
 30
0.0
 10
211.2616328507405
 20
107.2881369415872
 30
0.0
  0
SPLINE
  5
1D9
330
1F
100
AcDbEntity
  8
0
  6
Continuous
 62
     7
370
     0
100
AcDbSpline
210
0.0
220
0.0
230
1.0
 70
     8
 71
     3
 72
    23
 73
    19
 74
     0
 42
0.00000001
 43
0.00000001
 40
0.0
 40
0.0
 40
0.0
 40
0.0
 40
0.0559431333569181
 40
0.1103820356898404
 40
0.1640478588828492
 40
0.2167594775435857
 40
0.269601134614447
 40
0.3230085051908685
 40
0.3775814436721361
 40
0.4334493367080536
 40
0.4909218580498927
 40
0.550624770871325
 40
0.6131168723098182
 40
0.6798607463518503
 40
0.7513577440202
 40
0.828261101258994
 40
0.9107950320656292
 40
1.0
 40
1.0
 40
1.0
 40
1.0
 10
211.2657487460689
 20
108.9213242078799
 30
0.0
 10
211.2426628262521
 20
108.9208657306218
 30
0.0
 10
211.1971117340583
 20
108.9199611039048
 30
0.0
 10
211.1300551037018
 20
108.9099047733745
 30
0.0
 10
211.0654052414651
 20
108.894879241526
 30
0.0
 10
211.0030618176669
 20
108.8738727473677
 30
0.0
 10
210.9435580460336
 20
108.8460568477758
 30
0.0
 10
210.8865856425964
 20
108.8119444536728
 30
0.0
 10
210.8316388937908
 20
108.7724643916673
 30
0.0
 10
210.7795842315033
 20
108.7266547389963
 30
0.0
 10
210.7310579003191
 20
108.6740306307017
 30
0.0
 10
210.6900337555915
 20
108.6119884195923
 30
0.0
 10
210.6554574856003
 20
108.5420091835243
 30
0.0
 10
210.6265869370993
 20
108.4642703036093
 30
0.0
 10
210.604573994083
 20
108.3781697436016
 30
0.0
 10
210.5893602970465
 20
108.2840780346399
 30
0.0
 10
210.5797546791385
 20
108.1818960272285
 30
0.0
 10
210.5785884182841
 20
108.1110644375943
 30
0.0
 10
210.5779826367001
 20
108.0742729493037
 30
0.0
  0
SPLINE
  5
1DA
330
1F
100
AcDbEntity
  8
0
  6
Continuous
 62
     7
370
     0
100
AcDbSpline
210
0.0
220
0.0
230
1.0
 70
     8
 71
     3
 72
    31
 73
    27
 74
     0
 42
0.00000001
 43
0.00000001
 40
0.0
 40
0.0
 40
0.0
 40
0.0
 40
0.0508516157922844
 40
0.0997524678094164
 40
0.1474376477769318
 40
0.1940857839327041
 40
0.2391709270841438
 40
0.283339822245434
 40
0.3265771497238441
 40
0.3689362814999023
 40
0.4105718726814497
 40
0.4510505934949118
 40
0.4908768629924158
 40
0.5300443324843855
 40
0.5689366633103303
 40
0.6075778621311333
 40
0.6464200964505126
 40
0.6856793513063945
 40
0.7247985849801966
 40
0.7635130084045103
 40
0.8021725263787549
 40
0.8407403615726127
 40
0.8796493769005859
 40
0.9190706128663397
 40
0.9590978622172242
 40
1.0
 40
1.0
 40
1.0
 40
1.0
 10
211.9477526019779
 20
108.103495806135
 30
0.0
 10
211.9475776532216
 20
108.1238102870066
 30
0.0
 10
211.9472344670727
 20
108.1636599469954
 30
0.0
 10
211.9426895322553
 20
108.2223988017805
 30
0.0
 10
211.9368271495351
 20
108.2793105418593
 30
0.0
 10
211.9279015807042
 20
108.3343217307173
 30
0.0
 10
211.9156010143961
 20
108.3872045545127
 30
0.0
 10
211.901974075777
 20
108.4383616112667
 30
0.0
 10
211.8849340655718
 20
108.4873520575935
 30
0.0
 10
211.8655997992255
 20
108.5343680153058
 30
0.0
 10
211.8439650825651
 20
108.5791681133958
 30
0.0
 10
211.8195639995371
 20
108.6213746692003
 30
0.0
 10
211.7926801407833
 20
108.6608235929838
 30
0.0
 10
211.7640388641596
 20
108.698262796369
 30
0.0
 10
211.7320541777242
 20
108.7322432288567
 30
0.0
 10
211.6982661631099
 20
108.7642002396841
 30
0.0
 10
211.6619073267246
 20
108.7934735899817
 30
0.0
 10
211.6233405164182
 20
108.8200709264283
 30
0.0
 10
211.583112852403
 20
108.8440127209705
 30
0.0
 10
211.5413072637322
 20
108.864503790673
 30
0.0
 10
211.4985897729288
 20
108.8825026209521
 30
0.0
 10
211.4542453496294
 20
108.8962994797719
 30
0.0
 10
211.4088863048572
 20
108.9074268489041
 30
0.0
 10
211.36232927319
 20
108.9158791221215
 30
0.0
 10
211.3144014472922
 20
108.920256102548
 30
0.0
 10
211.2820827736558
 20
108.9209656160337
 30
0.0
 10
211.2657487460689
 20
108.9213242078799
 30
0.0
  0
SPLINE
  5
1DB
330
1F
100
AcDbEntity
  8
0
  6
Continuous
 62
     7
370
     0
100
AcDbSpline
210
0.0
220
0.0
230
1.0
 70
     8
 71
     3
 72
    23
 73
    19
 74
     0
 42
0.00000001
 43
0.00000001
 40
0.0
 40
0.0
 40
0.0
 40
0.0
 40
0.0407818458722597
 40
0.0808695887215869
 40
0.1202681657882672
 40
0.1601868504553523
 40
0.2004597376386391
 40
0.2422651778979082
 40
0.2864592615494684
 40
0.3329520837492633
 40
0.3844305340495303
 40
0.4433891253601058
 40
0.5116814722136833
 40
0.5890200255490083
 40
0.6762451906507723
 40
0.7737051914728237
 40
0.881567767781983
 40
1.0
 40
1.0
 40
1.0
 40
1.0
 10
210.2091984152792
 20
104.1271293294077
 30
0.0
 10
210.2228040828561
 20
104.1276487574249
 30
0.0
 10
210.2497838508802
 20
104.1286787728452
 30
0.0
 10
210.2895005555082
 20
104.1355395425296
 30
0.0
 10
210.3273389728836
 20
104.1483576412462
 30
0.0
 10
210.3636403111236
 20
104.1651173597966
 30
0.0
 10
210.3982171462839
 20
104.1868252194545
 30
0.0
 10
210.4308876364447
 20
104.2135680847662
 30
0.0
 10
210.46217349672
 20
104.2448941195846
 30
0.0
 10
210.492182376402
 20
104.2817636292348
 30
0.0
 10
210.519504428751
 20
104.3266812261806
 30
0.0
 10
210.5421700438942
 20
104.3820369861456
 30
0.0
 10
210.5615994289758
 20
104.4475557725847
 30
0.0
 10
210.5774046110574
 20
104.5237095506341
 30
0.0
 10
210.5893583476713
 20
104.6103591236346
 30
0.0
 10
210.5983084739451
 20
104.7075870845181
 30
0.0
 10
210.6035742575174
 20
104.8155229995292
 30
0.0
 10
210.604066664021
 20
104.891033431333
 30
0.0
 10
210.6043243668016
 20
104.9305520975033
 30
0.0
  0
SPLINE
  5
1DC
330
1F
100
AcDbEntity
  8
0
  6
Continuous
 62
     7
370
     0
100
AcDbSpline
210
0.0
220
0.0
230
1.0
 70
     8
 71
     3
 72
    23
 73
    19
 74
     0
 42
0.00000001
 43
0.00000001
 40
0.0
 40
0.0
 40
0.0
 40
0.0
 40
0.1184055081537695
 40
0.226654332816702
 40
0.324092341928602
 40
0.4117048030053218
 40
0.4890259050064156
 40
0.5569093973430757
 40
0.6162333444927068
 40
0.6673492812770749
 40
0.7135123932013475
 40
0.7576965045209781
 40
0.7994925114422909
 40
0.8399760647439395
 40
0.879885741816776
 40
0.9191486593857414
 40
0.959227356493083
 40
1.0
 40
1.0
 40
1.0
 40
1.0
 10
209.8140724637568
 20
104.9305520975033
 30
0.0
 10
209.8143340161897
 20
104.8910336096131
 30
0.0
 10
209.8148346853993
 20
104.815386482665
 30
0.0
 10
209.8200654633327
 20
104.7073115104717
 30
0.0
 10
209.8290700322437
 20
104.6098131332419
 30
0.0
 10
209.8409746604931
 20
104.5230263438492
 30
0.0
 10
209.8566935897654
 20
104.446833745999
 30
0.0
 10
209.876430564598
 20
104.3814295018867
 30
0.0
 10
209.8986788296082
 20
104.326028612309
 30
0.0
 10
209.926210635967
 20
104.2813177286551
 30
0.0
 10
209.9563549230208
 20
104.2448718361228
 30
0.0
 10
209.9874768392902
 20
104.2135271898912
 30
0.0
 10
210.0203085758849
 20
104.1868849583066
 30
0.0
 10
210.0546359096913
 20
104.1646707704888
 30
0.0
 10
210.0909914539961
 20
104.1478516469575
 30
0.0
 10
210.1289776669652
 20
104.1356611087696
 30
0.0
 10
210.1686028140744
 20
104.1286456412157
 30
0.0
 10
210.1955893398338
 20
104.1276376505356
 30
0.0
 10
210.2091984152792
 20
104.1271293294077
 30
0.0
  0
SPLINE
  5
1DD
330
1F
100
AcDbEntity
  8
0
  6
Continuous
 62
     7
370
     0
100
AcDbSpline
210
0.0
220
0.0
230
1.0
 70
     8
 71
     3
 72
    15
 73
    11
 74
     0
 42
0.00000001
 43
0.00000001
 40
0.0
 40
0.0
 40
0.0
 40
0.0
 40
0.0838881132795455
 40
0.1771540327539698
 40
0.2825136355617228
 40
0.3993998606601629
 40
0.5294908061912204
 40
0.6728021776758327
 40
0.82953576161967
 40
1.0
 40
1.0
 40
1.0
 40
1.0
 10
209.9330218387463
 20
105.5932112453691
 30
0.0
 10
209.9232314144217
 20
105.576842643928
 30
0.0
 10
209.9025560996043
 20
105.5422756040643
 30
0.0
 10
209.8794216245035
 20
105.4821966645749
 30
0.0
 10
209.8589855437458
 20
105.4135378724687
 30
0.0
 10
209.8421598737958
 20
105.3352428623617
 30
0.0
 10
209.8299876819642
 20
105.2474459416885
 30
0.0
 10
209.8203782071772
 20
105.150249069975
 30
0.0
 10
209.815386442708
 20
105.0435165487598
 30
0.0
 10
209.8145225411062
 20
104.9692458229608
 30
0.0
 10
209.8140724637568
 20
104.9305520975033
 30
0.0
  0
SPLINE
  5
1DE
330
1F
100
AcDbEntity
  8
0
  6
Continuous
 62
     7
370
     0
100
AcDbSpline
210
0.0
220
0.0
230
1.0
 70
     8
 71
     3
 72
    15
 73
    11
 74
     0
 42
0.00000001
 43
0.00000001
 40
0.0
 40
0.0
 40
0.0
 40
0.0
 40
0.1276647678962251
 40
0.2517385630080496
 40
0.3727533493873909
 40
0.4921467589723849
 40
0.614069621309245
 40
0.7371973244121106
 40
0.8656069906011167
 40
1.0
 40
1.0
 40
1.0
 40
1.0
 10
210.2063172885493
 20
105.7339748655989
 30
0.0
 10
210.192709067829
 20
105.7336177035205
 30
0.0
 10
210.16587540036
 20
105.7329134256696
 30
0.0
 10
210.126587396977
 20
105.7261911007148
 30
0.0
 10
210.0893546177141
 20
105.7149498750714
 30
0.0
 10
210.0537504952764
 20
105.6997225434408
 30
0.0
 10
210.0206638675897
 20
105.679229562742
 30
0.0
 10
209.9887826012823
 20
105.6553025490793
 30
0.0
 10
209.959599891517
 20
105.6261501535359
 30
0.0
 10
209.9420146466514
 20
105.6043562783142
 30
0.0
 10
209.9330218387463
 20
105.5932112453691
 30
0.0
  0
SPLINE
  5
1DF
330
1F
100
AcDbEntity
  8
0
  6
Continuous
 62
     7
370
     0
100
AcDbSpline
210
0.0
220
0.0
230
1.0
 70
     8
 71
     3
 72
    23
 73
    19
 74
     0
 42
0.00000001
 43
0.00000001
 40
0.0
 40
0.0
 40
0.0
 40
0.0
 40
0.1156291309254414
 40
0.2215410391198768
 40
0.3170478562190417
 40
0.4031508756396167
 40
0.4801812167162795
 40
0.5476493661481898
 40
0.6070358428421809
 40
0.6586524080635072
 40
0.705722890353646
 40
0.749804087979647
 40
0.7925868153452743
 40
0.8338739610102607
 40
0.8747683933034329
 40
0.9152226988916381
 40
0.9568807037304801
 40
1.0
 40
1.0
 40
1.0
 40
1.0
 10
210.6043243668016
 20
104.9305520975033
 30
0.0
 10
210.6040749152244
 20
104.9692485081197
 30
0.0
 10
210.6035969754424
 20
105.043389366479
 30
0.0
 10
210.5981953801039
 20
105.1493822716775
 30
0.0
 10
210.5897305947614
 20
105.2452441784376
 30
0.0
 10
210.5781521131422
 20
105.3310634625482
 30
0.0
 10
210.5627643132173
 20
105.4067469554113
 30
0.0
 10
210.5441010109805
 20
105.4724557768962
 30
0.0
 10
210.5218608957648
 20
105.5280497922663
 30
0.0
 10
210.495417478137
 20
105.5740874445006
 30
0.0
 10
210.4659806633572
 20
105.6118508088337
 30
0.0
 10
210.4352311197409
 20
105.6445382865187
 30
0.0
 10
210.4024001055973
 20
105.6723379213597
 30
0.0
 10
210.3669059541478
 20
105.6946391985217
 30
0.0
 10
210.3298927086496
 20
105.7126310394392
 30
0.0
 10
210.2905098987985
 20
105.7250134825261
 30
0.0
 10
210.2491446264926
 20
105.7326208682499
 30
0.0
 10
210.220756176769
 20
105.7335183764191
 30
0.0
 10
210.2063172885493
 20
105.7339748655989
 30
0.0
  0
LINE
  5
1E0
330
1F
100
AcDbEntity
  8
0
  6
Continuous
 62
     7
370
     0
100
AcDbLine
 10
145.8719860437
 20
105.5932112454
 30
0.0
 11
145.8722860437
 21
105.5932112454
 31
0.0
  0
LINE
  5
1E1
330
1F
100
AcDbEntity
  8
0
  6
Continuous
 62
     7
370
     0
100
AcDbLine
 10
145.8719860437
 20
105.5458908598
 30
0.0
 11
145.8722860437
 21
105.5458908427
 31
0.0
  0
LINE
  5
1E2
330
1F
100
AcDbEntity
  8
0
  6
Continuous
 62
     7
370
     0
100
AcDbLine
 10
145.8719860437
 20
107.644573477
 30
0.0
 11
145.8722860437
 21
107.644573477
 31
0.0
  0
LINE
  5
1E3
330
1F
100
AcDbEntity
  8
0
  6
Continuous
 62
     7
370
     0
100
AcDbLine
 10
145.8722860437
 20
107.6486596483
 30
0.0
 11
145.8719860437
 21
107.6486596625
 31
0.0
  0
LINE
  5
1E4
330
1F
100
AcDbEntity
  8
0
  6
Continuous
 62
     7
370
     0
100
AcDbLine
 10
145.8722860437
 20
107.6486596483
 30
0.0
 11
145.8722860437
 21
107.644573477
 31
0.0
  0
LINE
  5
1E5
330
1F
100
AcDbEntity
  8
0
  6
Continuous
 62
     7
370
     0
100
AcDbLine
 10
145.8719860437
 20
108.5780585375
 30
0.0
 11
145.8722860437
 21
108.5780585375
 31
0.0
  0
LINE
  5
1E6
330
1F
100
AcDbEntity
  8
0
  6
Continuous
 62
     7
370
     0
100
AcDbLine
 10
145.8719860437
 20
108.1766279558
 30
0.0
 11
145.8722860437
 21
108.1766279473
 31
0.0
  0
LINE
  5
1E7
330
1F
100
AcDbEntity
  8
0
  6
Continuous
 62
     7
370
     0
100
AcDbLine
 10
145.8722860437
 20
108.9985514553
 30
0.0
 11
145.8719860437
 21
108.9985514551
 31
0.0
  0
LINE
  5
1E8
330
1F
100
AcDbEntity
  8
0
  6
Continuous
 62
     7
370
     0
100
AcDbLine
 10
145.8719860437
 20
108.9985514551
 30
0.0
 11
145.8719860437
 21
108.1766279558
 31
0.0
  0
LINE
  5
1E9
330
1F
100
AcDbEntity
  8
0
  6
Continuous
 62
     7
370
     0
100
AcDbLine
 10
145.8719860437
 20
107.0899572432
 30
0.0
 11
145.8722860437
 21
107.0899572432
 31
0.0
  0
LINE
  5
1EA
330
1F
100
AcDbEntity
  8
0
  6
Continuous
 62
     7
370
     0
100
AcDbLine
 10
145.8722860437
 20
105.8994353199
 30
0.0
 11
145.8719860437
 21
105.8994353199
 31
0.0
  0
LINE
  5
1EB
330
1F
100
AcDbEntity
  8
0
  6
Continuous
 62
     7
370
     0
100
AcDbLine
 10
145.8719860437
 20
105.8994353199
 30
0.0
 11
145.8719860437
 21
105.5458908598
 31
0.0
  0
LINE
  5
1EC
330
1F
100
AcDbEntity
  8
0
  6
Continuous
 62
     7
370
     0
100
AcDbLine
 10
145.8722860437
 20
104.3150073946
 30
0.0
 11
145.8719860437
 21
104.3150073926
 31
0.0
  0
LINE
  5
1ED
330
1F
100
AcDbEntity
  8
0
  6
Continuous
 62
     7
370
     0
100
AcDbLine
 10
145.8719860437
 20
104.3150073926
 30
0.0
 11
145.8719860437
 21
103.9599604781
 31
0.0
  0
LINE
  5
1EE
330
1F
100
AcDbEntity
  8
0
  6
Continuous
 62
     7
370
     0
100
AcDbLine
 10
145.8719860437
 20
103.9599604781
 30
0.0
 11
145.8722860437
 21
103.9599604778
 31
0.0
  0
LINE
  5
1EF
330
1F
100
AcDbEntity
  8
0
  6
Continuous
 62
     7
370
     0
100
AcDbLine
 10
145.8722860437
 20
81.3274031008
 30
0.0
 11
145.6722860437
 21
81.1274031008
 31
0.0
  0
LINE
  5
1F0
330
1F
100
AcDbEntity
  8
0
  6
Continuous
 62
     7
370
     0
100
AcDbLine
 10
145.6722860437
 20
81.1274031008
 30
0.0
 11
133.792707879
 21
81.1274031008
 31
0.0
  0
LINE
  5
1F1
330
1F
100
AcDbEntity
  8
0
  6
Continuous
 62
     7
370
     0
100
AcDbLine
 10
133.792707879
 20
81.1274031008
 30
0.0
 11
133.6433533814
 21
81.3210442538
 31
0.0
  0
ARC
  5
1F2
330
1F
100
AcDbEntity
  8
0
  6
Continuous
 62
     7
370
     0
100
AcDbCircle
 10
36.8722860437
 20
106.5274031008
 30
0.0
 40
100.0
100
AcDbArc
 50
345.4003416144
 51
14.5996583856
  0
LINE
  5
1F3
330
1F
100
AcDbEntity
  8
0
  6
Continuous
 62
     7
370
     0
100
AcDbLine
 10
133.6433533814
 20
131.7337619478
 30
0.0
 11
133.792707879
 21
131.9274031008
 31
0.0
  0
LINE
  5
1F4
330
1F
100
AcDbEntity
  8
0
  6
Continuous
 62
     7
370
     0
100
AcDbLine
 10
133.792707879
 20
131.9274031008
 30
0.0
 11
145.6722860437
 21
131.9274031008
 31
0.0
  0
LINE
  5
1F5
330
1F
100
AcDbEntity
  8
0
  6
Continuous
 62
     7
370
     0
100
AcDbLine
 10
145.6722860437
 20
131.9274031008
 30
0.0
 11
145.8722860437
 21
131.7274031008
 31
0.0
  0
LINE
  5
1F6
330
1F
100
AcDbEntity
  8
0
  6
Continuous
 62
     7
370
     0
100
AcDbLine
 10
145.8722860437
 20
103.9599604778
 30
0.0
 11
145.8722860437
 21
81.3274031008
 31
0.0
  0
LINE
  5
1F7
330
1F
100
AcDbEntity
  8
0
  6
Continuous
 62
     7
370
     0
100
AcDbLine
 10
145.8722860437
 20
107.0899572432
 30
0.0
 11
145.8722860437
 21
105.8994353199
 31
0.0
  0
LINE
  5
1F8
330
1F
100
AcDbEntity
  8
0
  6
Continuous
 62
     7
370
     0
100
AcDbLine
 10
145.8722860437
 20
108.1766279473
 30
0.0
 11
145.8722860437
 21
107.6486596483
 31
0.0
  0
LINE
  5
1F9
330
1F
100
AcDbEntity
  8
0
  6
Continuous
 62
     7
370
     0
100
AcDbLine
 10
145.8722860437
 20
131.7274031008
 30
0.0
 11
145.8722860437
 21
108.9985514553
 31
0.0
  0
LINE
  5
1FA
330
1F
100
AcDbEntity
  8
0
  6
Continuous
 62
     7
370
     0
100
AcDbLine
 10
145.8719860437
 20
107.6486596625
 30
0.0
 11
145.8719860437
 21
107.0899572432
 31
0.0
  0
LINE
  5
1FB
330
1F
100
AcDbEntity
  8
0
  6
Continuous
 62
     7
370
     0
100
AcDbLine
 10
145.8722860437
 20
105.5458908427
 30
0.0
 11
145.8722860437
 21
104.3150073946
 31
0.0
  0
LINE
  5
1FC
330
1F
100
AcDbEntity
  8
0
  6
Continuous
 62
     7
370
     0
100
AcDbLine
 10
145.8719860437
 20
104.1271293294
 30
0.0
 11
145.8722860437
 21
104.1271293294
 31
0.0
  0
LINE
  5
1FD
330
1F
100
AcDbEntity
  8
0
  6
Continuous
 62
     7
370
     0
100
AcDbLine
 10
133.6433533814
 20
131.7337619478
 30
0.0
 11
133.6433533814
 21
81.3210442538
 31
0.0
  0
LINE
  5
1FE
330
1F
100
AcDbEntity
  8
0
  6
Continuous
 62
     7
370
     0
100
AcDbLine
 10
145.8722860437
 20
107.644573477
 30
0.0
 11
145.8722860437
 21
107.0899572432
 31
0.0
  0
LINE
  5
1FF
330
1F
100
AcDbEntity
  8
0
  6
Continuous
 62
     7
370
     0
100
AcDbLine
 10
145.8719860437
 20
105.7339748656
 30
0.0
 11
145.8722860437
 21
105.7339748656
 31
0.0
  0
HATCH
  5
200
330
1F
100
AcDbEntity
  8
0
  6
Continuous
 62
     7
370
     0
100
AcDbHatch
 10
0.0
 20
0.0
 30
0.0
210
0.0
220
0.0
230
1.0
  2
ANSI31
 70
     0
 71
     0
 91
        1
 92
        0
 93
       24
 72
     1
 10
145.8722860436771
 20
108.9985514552935
 11
145.8722860436771
 21
131.7274031007752
 72
     1
 10
145.8722860436771
 20
131.7274031007752
 11
145.6722860436771
 21
131.9274031007752
 72
     1
 10
145.6722860436771
 20
131.9274031007752
 11
133.7927078789855
 21
131.9274031007752
 72
     1
 10
133.7927078789855
 20
131.9274031007752
 11
133.6433533813662
 21
131.7337619477894
 72
     2
 10
36.87228604367712
 20
106.5274031007752
 40
100.0
 50
345.4003416143963
 51
374.5996583856053
 73
     0
 72
     1
 10
133.6433533813662
 20
81.32104425376103
 11
133.7927078789855
 21
81.12740310077523
 72
     1
 10
133.7927078789855
 20
81.12740310077523
 11
145.6722860436771
 21
81.12740310077523
 72
     1
 10
145.6722860436771
 20
81.12740310077523
 11
145.8722860436771
 21
81.32740310077523
 72
     1
 10
145.8722860436771
 20
81.32740310077523
 11
145.8722860436771
 21
103.9599604777548
 72
     1
 10
145.8722860436771
 20
103.9599604777548
 11
145.8719860436771
 21
103.959960478127
 72
     1
 10
145.8719860436771
 20
103.959960478127
 11
145.8719860436771
 21
104.3150073926226
 72
     1
 10
145.8719860436771
 20
104.3150073926226
 11
145.8722860436771
 21
104.3150073945826
 72
     1
 10
145.8722860436771
 20
104.3150073945826
 11
145.8722860436771
 21
105.5458908426919
 72
     1
 10
145.8722860436771
 20
105.5458908426919
 11
145.8719860436771
 21
105.5458908598034
 72
     1
 10
145.8719860436771
 20
105.5458908598034
 11
145.8719860436767
 21
105.8994353199486
 72
     1
 10
145.8719860436767
 20
105.8994353199486
 11
145.8722860436771
 21
105.8994353199352
 72
     1
 10
145.8722860436771
 20
105.8994353199352
 11
145.8722860436771
 21
107.0899572432462
 72
     1
 10
145.8722860436771
 20
107.0899572432462
 11
145.8719860436771
 21
107.0899572432462
 72
     1
 10
145.8719860436771
 20
107.0899572432462
 11
145.8719860436771
 21
107.6486596624766
 72
     1
 10
145.8719860436771
 20
107.6486596624766
 11
145.8722860436771
 21
107.6486596483381
 72
     1
 10
145.8722860436771
 20
107.6486596483381
 11
145.8722860436771
 21
108.1766279473201
 72
     1
 10
145.8722860436771
 20
108.1766279473201
 11
145.8719860436771
 21
108.1766279557779
 72
     1
 10
145.8719860436771
 20
108.1766279557779
 11
145.8719860436771
 21
108.9985514550682
 72
     1
 10
145.8719860436771
 20
108.9985514550682
 11
145.8722860436771
 21
108.9985514552935
 97
        0
 75
     0
 76
     1
 52
0.0
 41
0.5
 77
     0
 78
     1
 53
45.0
 43
0.0
 44
0.0
 45
-1.122532015133644
 46
1.122532015133644
 79
     0
 98
        1
 10
0.0
 20
0.0
  0
DIMENSION
  5
201
330
1F
100
AcDbEntity
  8
0
  6
Continuous
 62
     7
370
     0
100
AcDbDimension
  2
*D9
 10
36.8722860437
 20
106.5274031008
 30
0.0
 11
164.1222846812
 21
88.3893441429
 31
0.0
 70
   164
  1
<>
 71
     1
 42
-1.0
  3
SLDDIMSTYLE1
100
AcDbRadialDimension
 15
135.6477230835
 25
90.9257032707
 35
0.0
 40
0.0
  0
DIMENSION
  5
212
330
1F
100
AcDbEntity
  8
0
  6
Continuous
 62
     7
370
     0
100
AcDbDimension
  2
*D10
 10
136.8722860437
 20
141.9274031008
 30
0.0
 11
159.7374091722
 21
141.9274031008
 31
0.0
 70
   160
 71
     2
 42
-1.0
  3
SLDDIMSTYLE2
100
AcDbAlignedDimension
 13
145.8722860437
 23
131.7274031008
 33
0.0
 14
136.8722860437
 24
106.5274031008
 34
0.0
100
AcDbRotatedDimension
  0
DIMENSION
  5
225
330
1F
100
AcDbEntity
  8
0
  6
Continuous
 62
     7
370
     0
100
AcDbDimension
  2
*D11
 10
133.6433533814
 20
153.9274031008
 30
0.0
 11
161.8722860437
 21
153.9274031008
 31
0.0
 70
   160
  1
<> REF
 71
     2
 42
-1.0
  3
SLDDIMSTYLE3
100
AcDbAlignedDimension
 13
145.8722860437
 23
131.7274031008
 33
0.0
 14
133.6433533814
 24
131.7337619478
 34
0.0
100
AcDbRotatedDimension
  0
MTEXT
  5
239
330
1F
100
AcDbEntity
  8
0
  6
Continuous
 62
     7
370
     0
100
AcDbMText
 10
139.5767756625
 20
74.542596401
 30
0.0
 40
2.1166666667
 41
0.0
 71
     2
 72
     1
  1
SECTION A-A
  7
SLDTEXTSTYLE0
 73
     1
 44
1.0
  0
OLE2FRAME
  5
23A
330
1F
100
AcDbEntity
  8
0
100
AcDbOle2Frame
 70
     2
  3
Paintbrush Picture
 10
229.0524258301
 20
33.6996297921
 30
0.0
 11
265.1686469208
 21
28.555479607
 31
0.0
 71
     2
 72
     0
 73
     1
 90
     7296
310
80557333EF78ADA16C40002412788DD94040000000000000000041161DC7B292
310
7040002412788DD94040000000000000000041161DC7B2927040F6DD59E9338E
310
3C4000000000000000007333EF78ADA16C40F6DD59E9338E3C40000000000000
310
00000000000001000000000100000100000001000000000001000000001C0000
310
D0CF11E0A1B11AE1000000000000000000000000000000003E000300FEFF0900
310
0600000000000000000000000100000001000000000000000010000002000000
310
01000000FEFFFFFF0000000000000000FFFFFFFFFFFFFFFFFFFFFFFFFFFFFFFF
310
FFFFFFFFFFFFFFFFFFFFFFFFFFFFFFFFFFFFFFFFFFFFFFFFFFFFFFFFFFFFFFFF
310
FFFFFFFFFFFFFFFFFFFFFFFFFFFFFFFFFFFFFFFFFFFFFFFFFFFFFFFFFFFFFFFF
310
FFFFFFFFFFFFFFFFFFFFFFFFFFFFFFFFFFFFFFFFFFFFFFFFFFFFFFFFFFFFFFFF
310
FFFFFFFFFFFFFFFFFFFFFFFFFFFFFFFFFFFFFFFFFFFFFFFFFFFFFFFFFFFFFFFF
310
FFFFFFFFFFFFFFFFFFFFFFFFFFFFFFFFFFFFFFFFFFFFFFFFFFFFFFFFFFFFFFFF
310
FFFFFFFFFFFFFFFFFFFFFFFFFFFFFFFFFFFFFFFFFFFFFFFFFFFFFFFFFFFFFFFF
310
FFFFFFFFFFFFFFFFFFFFFFFFFFFFFFFFFFFFFFFFFFFFFFFFFFFFFFFFFFFFFFFF
310
FFFFFFFFFFFFFFFFFFFFFFFFFFFFFFFFFFFFFFFFFFFFFFFFFFFFFFFFFFFFFFFF
310
FFFFFFFFFFFFFFFFFFFFFFFFFFFFFFFFFFFFFFFFFFFFFFFFFFFFFFFFFFFFFFFF
310
FFFFFFFFFFFFFFFFFFFFFFFFFFFFFFFFFFFFFFFFFFFFFFFFFFFFFFFFFFFFFFFF
310
FFFFFFFFFFFFFFFFFFFFFFFFFFFFFFFFFFFFFFFFFFFFFFFFFFFFFFFFFFFFFFFF
310
FFFFFFFFFFFFFFFFFFFFFFFFFFFFFFFFFFFFFFFFFFFFFFFFFFFFFFFFFFFFFFFF
310
FFFFFFFFFFFFFFFFFFFFFFFFFFFFFFFFFFFFFFFFFFFFFFFFFFFFFFFFFFFFFFFF
310
FDFFFFFFFEFFFFFFFEFFFFFFFEFFFFFF05000000060000000700000008000000
310
090000000A0000000B0000000C000000FEFFFFFFFFFFFFFFFFFFFFFFFFFFFFFF
310
FFFFFFFFFFFFFFFFFFFFFFFFFFFFFFFFFFFFFFFFFFFFFFFFFFFFFFFFFFFFFFFF
310
FFFFFFFFFFFFFFFFFFFFFFFFFFFFFFFFFFFFFFFFFFFFFFFFFFFFFFFFFFFFFFFF
310
FFFFFFFFFFFFFFFFFFFFFFFFFFFFFFFFFFFFFFFFFFFFFFFFFFFFFFFFFFFFFFFF
310
FFFFFFFFFFFFFFFFFFFFFFFFFFFFFFFFFFFFFFFFFFFFFFFFFFFFFFFFFFFFFFFF
310
FFFFFFFFFFFFFFFFFFFFFFFFFFFFFFFFFFFFFFFFFFFFFFFFFFFFFFFFFFFFFFFF
310
FFFFFFFFFFFFFFFFFFFFFFFFFFFFFFFFFFFFFFFFFFFFFFFFFFFFFFFFFFFFFFFF
310
FFFFFFFFFFFFFFFFFFFFFFFFFFFFFFFFFFFFFFFFFFFFFFFFFFFFFFFFFFFFFFFF
310
FFFFFFFFFFFFFFFFFFFFFFFFFFFFFFFFFFFFFFFFFFFFFFFFFFFFFFFFFFFFFFFF
310
FFFFFFFFFFFFFFFFFFFFFFFFFFFFFFFFFFFFFFFFFFFFFFFFFFFFFFFFFFFFFFFF
310
FFFFFFFFFFFFFFFFFFFFFFFFFFFFFFFFFFFFFFFFFFFFFFFFFFFFFFFFFFFFFFFF
310
FFFFFFFFFFFFFFFFFFFFFFFFFFFFFFFFFFFFFFFFFFFFFFFFFFFFFFFFFFFFFFFF
310
FFFFFFFFFFFFFFFFFFFFFFFFFFFFFFFFFFFFFFFFFFFFFFFFFFFFFFFFFFFFFFFF
310
FFFFFFFFFFFFFFFFFFFFFFFFFFFFFFFFFFFFFFFFFFFFFFFFFFFFFFFFFFFFFFFF
310
FFFFFFFFFFFFFFFFFFFFFFFFFFFFFFFFFFFFFFFFFFFFFFFFFFFFFFFFFFFFFFFF
310
52006F006F007400200045006E00740072007900000000000000000000000000
310
0000000000000000000000000000000000000000000000000000000000000000
310
16000500FFFFFFFFFFFFFFFF020000000A00030000000000C000000000000046
310
0000000000000000000000002021927003C1CD0103000000C000000000000000
310
01004F006C006500000000000000000000000000000000000000000000000000
310
0000000000000000000000000000000000000000000000000000000000000000
310
0A000200FFFFFFFFFFFFFFFFFFFFFFFF00000000000000000000000000000000
310
0000000000000000000000000000000000000000000000001400000000000000
310
010043006F006D0070004F0062006A0000000000000000000000000000000000
310
0000000000000000000000000000000000000000000000000000000000000000
310
120002010100000003000000FFFFFFFF00000000000000000000000000000000
310
0000000000000000000000000000000000000000010000004D00000000000000
310
01004F006C006500310030004E00610074006900760065000000000000000000
310
0000000000000000000000000000000000000000000000000000000000000000
310
1A000200FFFFFFFFFFFFFFFFFFFFFFFF00000000000000000000000000000000
310
000000000000000000000000000000000000000004000000E411000000000000
310
FEFFFFFF02000000FEFFFFFFFFFFFFFFFFFFFFFFFFFFFFFFFFFFFFFFFFFFFFFF
310
FFFFFFFFFFFFFFFFFFFFFFFFFFFFFFFFFFFFFFFFFFFFFFFFFFFFFFFFFFFFFFFF
310
FFFFFFFFFFFFFFFFFFFFFFFFFFFFFFFFFFFFFFFFFFFFFFFFFFFFFFFFFFFFFFFF
310
FFFFFFFFFFFFFFFFFFFFFFFFFFFFFFFFFFFFFFFFFFFFFFFFFFFFFFFFFFFFFFFF
310
FFFFFFFFFFFFFFFFFFFFFFFFFFFFFFFFFFFFFFFFFFFFFFFFFFFFFFFFFFFFFFFF
310
FFFFFFFFFFFFFFFFFFFFFFFFFFFFFFFFFFFFFFFFFFFFFFFFFFFFFFFFFFFFFFFF
310
FFFFFFFFFFFFFFFFFFFFFFFFFFFFFFFFFFFFFFFFFFFFFFFFFFFFFFFFFFFFFFFF
310
FFFFFFFFFFFFFFFFFFFFFFFFFFFFFFFFFFFFFFFFFFFFFFFFFFFFFFFFFFFFFFFF
310
FFFFFFFFFFFFFFFFFFFFFFFFFFFFFFFFFFFFFFFFFFFFFFFFFFFFFFFFFFFFFFFF
310
FFFFFFFFFFFFFFFFFFFFFFFFFFFFFFFFFFFFFFFFFFFFFFFFFFFFFFFFFFFFFFFF
310
FFFFFFFFFFFFFFFFFFFFFFFFFFFFFFFFFFFFFFFFFFFFFFFFFFFFFFFFFFFFFFFF
310
FFFFFFFFFFFFFFFFFFFFFFFFFFFFFFFFFFFFFFFFFFFFFFFFFFFFFFFFFFFFFFFF
310
FFFFFFFFFFFFFFFFFFFFFFFFFFFFFFFFFFFFFFFFFFFFFFFFFFFFFFFFFFFFFFFF
310
FFFFFFFFFFFFFFFFFFFFFFFFFFFFFFFFFFFFFFFFFFFFFFFFFFFFFFFFFFFFFFFF
310
FFFFFFFFFFFFFFFFFFFFFFFFFFFFFFFFFFFFFFFFFFFFFFFFFFFFFFFFFFFFFFFF
310
FFFFFFFFFFFFFFFFFFFFFFFFFFFFFFFFFFFFFFFFFFFFFFFFFFFFFFFFFFFFFFFF
310
0100000200000000000000000000000000000000000000000000000000000000
310
0000000000000000000000000000000000000000000000000000000000000000
310
0100FEFF030A0000FFFFFFFF0A00030000000000C00000000000004607000000
310
5042727573680007000000504272757368000700000050427275736800F439B2
310
7100000000000000000000000000000000000000000000000000000000000000
310
0000000000000000000000000000000000000000000000000000000000000000
310
0000000000000000000000000000000000000000000000000000000000000000
310
0000000000000000000000000000000000000000000000000000000000000000
310
0000000000000000000000000000000000000000000000000000000000000000
310
0000000000000000000000000000000000000000000000000000000000000000
310
0000000000000000000000000000000000000000000000000000000000000000
310
0000000000000000000000000000000000000000000000000000000000000000
310
0000000000000000000000000000000000000000000000000000000000000000
310
0000000000000000000000000000000000000000000000000000000000000000
310
0000000000000000000000000000000000000000000000000000000000000000
310
0000000000000000000000000000000000000000000000000000000000000000
310
E0110000424DDE11000000000000360400002800000096000000170000000100
310
08000000000000000000E7240000E72400000001000000010000000000FF0101
310
01FF020202FF030303FF040404FF050505FF060606FF070707FF080808FF0909
310
09FF0A0A0AFF0B0B0BFF0C0C0CFF0D0D0DFF0E0E0EFF0F0F0FFF101010FF1111
310
11FF121212FF131313FF141414FF151515FF161616FF171717FF181818FF1919
310
19FF1A1A1AFF1B1B1BFF1C1C1CFF1D1D1DFF1E1E1EFF1F1F1FFF202020FF2121
310
21FF222222FF232323FF242424FF252525FF262626FF272727FF282828FF2929
310
29FF2A2A2AFF2B2B2BFF2C2C2CFF2D2D2DFF2E2E2EFF2F2F2FFF303030FF3131
310
31FF323232FF333333FF343434FF353535FF363636FF373737FF383838FF3939
310
39FF3A3A3AFF3B3B3BFF3C3C3CFF3D3D3DFF3E3E3EFF3F3F3FFF404040FF4141
310
41FF424242FF434343FF444444FF454545FF464646FF474747FF484848FF4949
310
49FF4A4A4AFF4B4B4BFF4C4C4CFF4D4D4DFF4E4E4EFF4F4F4FFF505050FF5151
310
51FF525252FF535353FF545454FF555555FF565656FF575757FF585858FF5959
310
59FF5A5A5AFF5B5B5BFF5C5C5CFF5D5D5DFF5E5E5EFF5F5F5FFF606060FF6161
310
61FF626262FF636363FF646464FF656565FF666666FF676767FF686868FF6969
310
69FF6A6A6AFF6B6B6BFF6C6C6CFF6D6D6DFF6E6E6EFF6F6F6FFF707070FF7171
310
71FF727272FF737373FF747474FF757575FF767676FF777777FF787878FF7979
310
79FF7A7A7AFF7B7B7BFF7C7C7CFF7D7D7DFF7E7E7EFF7F7F7FFF808080FF8181
310
81FF828282FF838383FF848484FF858585FF868686FF878787FF888888FF8989
310
89FF8A8A8AFF8B8B8BFF8C8C8CFF8D8D8DFF8E8E8EFF8F8F8FFF909090FF9191
310
91FF929292FF939393FF949494FF959595FF969696FF979797FF989898FF9999
310
99FF9A9A9AFF9B9B9BFF9C9C9CFF9D9D9DFF9E9E9EFF9F9F9FFFA0A0A0FFA1A1
310
A1FFA2A2A2FFA3A3A3FFA4A4A4FFA5A5A5FFA6A6A6FFA7A7A7FFA8A8A8FFA9A9
310
A9FFAAAAAAFFABABABFFACACACFFADADADFFAEAEAEFFAFAFAFFFB0B0B0FFB1B1
310
B1FFB2B2B2FFB3B3B3FFB4B4B4FFB5B5B5FFB6B6B6FFB7B7B7FFB8B8B8FFB9B9
310
B9FFBABABAFFBBBBBBFFBCBCBCFFBDBDBDFFBEBEBEFFBFBFBFFFC0C0C0FFC1C1
310
C1FFC2C2C2FFC3C3C3FFC4C4C4FFC5C5C5FFC6C6C6FFC7C7C7FFC8C8C8FFC9C9
310
C9FFCACACAFFCBCBCBFFCCCCCCFFCDCDCDFFCECECEFFCFCFCFFFD0D0D0FFD1D1
310
D1FFD2D2D2FFD3D3D3FFD4D4D4FFD5D5D5FFD6D6D6FFD7D7D7FFD8D8D8FFD9D9
310
D9FFDADADAFFDBDBDBFFDCDCDCFFDDDDDDFFDEDEDEFFDFDFDFFFE0E0E0FFE1E1
310
E1FFE2E2E2FFE3E3E3FFE4E4E4FFE5E5E5FFE6E6E6FFE7E7E7FFE8E8E8FFE9E9
310
E9FFEAEAEAFFEBEBEBFFECECECFFEDEDEDFFEEEEEEFFEFEFEFFFF0F0F0FFF1F1
310
F1FFF2F2F2FFF3F3F3FFF4F4F4FFF5F5F5FFF6F6F6FFF7F7F7FFF8F8F8FFF9F9
310
F9FFFAFAFAFFFBFBFBFFFCFCFCFFFDFDFDFFFEFEFEFFFFFFFFFFFFFFFFFFFFFF
310
C94E4E4E4F4E4EFFFFFFFFFFC94E4E4E4E4E72FFFFFFFFFFFFFF734E4D4E4E4E
310
C9FFFFFFFFFFAA683516171616265B9BE9FFFFFFFFFF4E4E4E4D4E4EFFFFFFFF
310
FFFFFFFF4E4E4F4E4D4E4E4E4F4E4E4F4D4E4E4E4E4E4D4E4F4E4D4E4E4EAAFF
310
FFFFFFFFFFEA4E4F4F4E4E4E4E4E4D4D4F4F4E4E4E4E4E5B7FAAFFFFFFFFFFFF
310
C9744E1716171616164D8DEAFFFFFFFF0000FFFFFFFFFFFFBA161617161716FF
310
FFFFFFFFB917171616174FFFFFFFFFFFFFFF4E1716161616B9FFFFFFB9341717
310
1716171617171616268CFFFFFFFF161617161617FFFFFFFFFFFFFFB917161717
310
1617167F807F7F7F7F7F7F807F7F807F7F807F7F7F414EFFFFFFFFFFFF8C167F
310
7F807F7F7F7E7F7F807F807F7F807F4E3417258EFFFFEA4E162674AABAEAEBBA
310
AA74341680FFFFFF0000FFFFFFFFFFFFB9171717171617FFFFFFFFFFBB161616
310
16164EFFFFFFFFFFFFFF4E1717171717B9FFFF9C171617171716161616171616
310
171766FFFFFF161717161617FFFFFFFFFFFFFF8E16171717161616FFFFFFFFFF
310
FFFFFFFFFFFFFFFFFFFFFFFFFFAA16D9FFFFFFFFFF3467FFFFFFFFEAFFFFFFFF
310
FFFFFFFFFFFFFFFFFFCA671667EB26278DFFFFFFFFFFFFFFFFFFFF8C2541EAFF
310
0000FFFFFFFFFFFFB9171717171716FFFFFFFFFFBA16171617174EFFFFFFFFFF
310
FFFF4E1717161616BAFF9B1617161616171716171617161616161667FFFF1616
310
16161716FFFFFFFFFFFFFF7F16161617174017FFFFFFFFFFFFFFFFFFFFFFFFFF
310
FFFFFFFFFFFF344E7F7F7F7E7417DAFFFFFFFF80FFFFFFFFFFFFFFFFFFFFFFFF
310
FFFFFF9B163425CAFFFFFFFFFFFFFFFFFFFFFFFFCA2667FF0000FFFFFFFFFFFF
310
BA171717171617FFFFFFFFFFB916171716164EFFFFFFFFFFFFFF4F1716161717
310
B9C91716171616161716161617171616161617168DFF161716161717FFFFFFFF
310
FFFFFF7F17171716164F16FFFFFFFFFFFFFFFFFFFFFFFFFFFFFFFFFFFFFF9B16
310
17161617174EFFFFFFFFFF34FFFFFFFFD9BABABABABADAFFFFFFFFFF7F16AAFF
310
FFFFFFFFFFFFFFFFFFFFFFFFFF9C16BA0000FFFFFFFFFFFFB9161717161717FF
310
FFFFFFFFB917161716174DFFFFFFFFFFFFFF4E1616161616BA4E161617171716
310
419BEAEAAA4E16161617161726E9171717161616FFFFFFFFFFFFFF4F16161717
310
164E16FFFFFFFFFFBAB9B9B9B9B9BABABACAFFFFFFFFFFFFFFFFFFFFFFFFFFFF
310
FFFFBA16FFFFFFFF7F1617161617174DEAFFFFFFEA41FFFFFFFFFFAA4D16174E
310
9BFFFFFFFFFF34730000FFFFFFFFFFFFB9161617171617FFFFFFFFFFBA161616
310
16164EFFFFFFFFFFFFFF4F16161717169B1617161716175BFFFFFFFFFFFF7417
310
16171616168D171717161617FFFFFFFFFFFFEA2616171717167416FFFFFFFFFF
310
16171616171717171717EAFFFFFFFFFFFFFFFFFFFFFFFFFFFFFF6716FFFFFFFF
310
7F4EFFFFFFFFBA2573FFFFFFFFBAFFFFFFFFAA167FB9BB9B269BFFFFFFFF664F
310
0000FFFFFFFFFFFFB9171616161616FFFFFFFFFFBA16161717164EFFFFFFFFFF
310
FFFF4E16161616174E161617171626EAFFFFFFFFFFFFFF4E16161616164E1716
310
16161617FFFFFFFFFFFF671616161716347F16FFFFFFFFFF16B9FFFFFFFFFFFF
310
D9168DFFFFFFFFFFFFFFFFFFFFFFFFFFFFEA1716FFFFFFFF7F4EFFFFFFFFFF7F
310
4EFFFFFFFFFFFFFFFFFF5B66FFFFFFEA347FFFFFFFFF7F4D0000FFFFFFFFFFFF
310
B9171616171617FFFFFFFFFFBA17161716174EFFFFFFFFFFFFFF4D1716161617
310
17161716161673FFFFFFFFFFFFFFFF9B1617161717161616171616174F4E4E4E
310
4E341616171616167E7F16FFFFFFFFFF16BAFFFFFFFFFFFFFF5B41FFFFFFFF34
310
1616171616BAFFFFFF9B1716FFFFFFFF7F4EFFFFFFFFFF4E4EFFFFFFFF734E4E
310
4E4E267EDA9B67164EEAFFFFFFFF744D0000FFFFFFFFFFFFBA171717161617FF
310
FFFFFFFFBA1616171616347F7F7F7F80807F331616161717161717161716B9FF
310
FFFFFFFFFFFFFFE9161616161616171716161716171616161616171616171734
310
EA7F16FFFFFFFFFF16BAFFFFFFFFFFFFFFAA17C9FFFFFF7326BABA5B25FFFFFF
310
FF401716FFFFFFFF7F264F4E4E4E4217AAFFFFFFEA16677F73261616164173CA
310
FFFFFFFFFFFF417F0000FFFFFFFFFFFFBA171616171617FFFFFFFFFFBA161616
310
17171616161616161616161717161616161616161617EAFFFFFFFFFFFFFFFFFF
310
261717161716161617161616161617161617161616174EEAFF8016FFFFFFFFFF
310
17BAFFFFFFFFFFFFFFFF3467FFFFFFC916C9FF3467FFFFFFDA166716FFFFFFFF
310
9C4D4E4E4E4E67AAFFFFFFFF6834FF7F262567AAEAFFFFFFFFFFFFFFFF9B17D9
310
0000FFFFFFFFFFFFB9161616161616FFFFFFFFFFBA1617161717171616161616
310
1716171716161716161617171716FFFFFFFFFFFFFFFFFFFF4E17161716171616
310
1617171616161716171717161616169BFF7F17FFFFFFFFFF17B9FFFFFFFFFFFF
310
FFFF7326FFFFFFFF3473DA16AAFFFFFF7317AA16FFFFFFFFFFFFFFFFFFFFFFFF
310
FFFFEA6725BA4E167FEAFFFFFFFFFFFFFFFFFFFF9C167FFF0000FFFFFFFFFFFF
310
B9161717171716FFFFFFFFFFBA16161716171616171717161617161716161616
310
171617171617EAFFFFFFFFFFFFFFFFFF26161717161616161616161617171616
310
1616161616171616AA8016FFFFFFFFFF16BAFFFFFFFFFFFFFFFFDA179BFFFFFF
310
74348D26FFFFFFFF2566B917FFFFFFFFD8BAB9BAB9BADAFFFFEA41169B7425C9
310
FFFFFFFFFFFFFFFFFFFFAB4F1680FFFF0000FFFFFFFFFFFFBA161717171617FF
310
FFFFFFFFBA17161717161617171617161616161617171616171716171617BBFF
310
FFFFFFFFFFFFFFE9171616161617161617161716FFFFFFFFFFD9671616161617
310
348017FFFFFFFFFF16BAFFFFFFFFFFFFFFFFFF4E5AFFFFFFC916265AFFFFFFAA
310
16AABA16FFFFFFFF7F1617161616179BFFFFEB4127168DFFFFFFFFFFFFFFD99B
310
6734175AC9FFFFFF0000FFFFFFFFFFFFB9161617171617FFFFFFFFFFBB161616
310
1616347F807F7F7F7F8033171716171617171616161672FFFFFFFFFFFFFFFF9C
310
171617171617161716161617FFFFFFFFFFFFFF4117161616174E17FFFFFFFFFF
310
16BAFFFFFFFFFFFFFFFFFF9B16DAFFFFFF34169BFFFFFF5A26FFB917FFFFFFFF
310
7F4EFFFFFFEA5B26FFFFFFEA2616EAFFFFFFFFDA743416331617414E4E4E4ECA
310
0000FFFFFFFFFFFFBA161716161616FFFFFFFFFFBA17171616164EFFFFFFFFFF
310
FFFF4E16161717174E161717171626EBFFFFFFFFFFFFFF4E16161617165B1616
310
16171617FFFFFFFFFFFFFF6716161616161617FFFFFFFFFF16BAFFFFFFFFFFFF
310
FFFFFFEA268CFFFFFF7316EAFFFFEB1774FFB916FFFFFFFF7F4EFFFFFFFF7316
310
FFFFFFFF6826FFFFFFFFEB264D9CEABA257F807F7F6616BA0000FFFFFFFFFFFF
310
BA161716161616FFFFFFFFFFBA16171616164DFFFFFFFFFFFFFF4E1617161617
310
9B1617171717165BEBFFFFFFFFFF671616161617179B171616161616FFFFFFFF
310
FFFFFF3417161617171617FFFFFFFFFF17BAFFFFFFFFFFFFFFFFFFFF6734FFFF
310
FFEBCAFFFFFF8D17C9FFBA17FFFFFFFF7F357F808066174FFFFFFFFF7F16FFFF
310
FFFFD91673B99B415BFFFFFFFFBA16DA00009B7F7F7F807F671617161616167F
310
80807F7E6617161616164EFFFFFFFFFFFFFF4E1616161617B94E171716161616
310
349BC9D9AA4E16171616161634FF161617161717B9B9BAB9BA9B411716171716
310
163416FFFFFFFFFF16B9FFFFFFFFFFFFFFFFFFFFC917CAFFFFFFFFFFFFFF3342
310
FFFFBA17FFFFFFFF9B4E4E4F4E4E66EAFFFFFFFF5B16C9FFFFFFFFAA4E164E73
310
EAFFFFFFFF8D26FF00004E161716161616171617171616171717171617161616
310
17174EFFFFFFFFFFFFFF4E1717171616B9D92616171716171716171717171716
310
16171716AAFF161717171617161617171616161617161716166717FFFFFFFFFF
310
17B9FFFFFFFFFFFFFFFFFFFFFF3467FFFFFFFFFFFFCA168CFFFFBB17FFFFFFFF
310
FFFFFFFFFFFFFFFFFFFFFFEA26265BFFFFFFFFFFFFFFFFFFFFFFFFFFEA3467FF
310
00004D16161616161617161717161617161616171617171616164EFFFFFFFFFF
310
FFFF4D1617161616BAFF9B1616161616161716161616171717161766FFFF1616
310
16171617161617161716171616171717667F16FFFFFFFFFF17BAFFFFFFFFFFFF
310
FFFFFFFFFF8C26EAFFFFFFFFFF6617EAFFFFBA17FFFFFFFFFFFFFFFFFFFFFFFF
310
FFFFEA5A25BA269BFFFFFFFFFFFFFFFFFFFFFFFF6616DAFF00004E1616171616
310
1616161616161716161617171616171616174EFFFFFFFFFFFFFF4D1717171716
310
B9FFFF9C161616161616161716161717171667FFFFFF17161717171716161617
310
1716161616161641E97E16FFFFFFFFFF16B9FFFFFFFFFFFFFFFFFFFFFFEA169B
310
FFFFFFFFEA265BFFFFFFB916FFFFFFFFFFFFFFFFFFFFFFFFFF9B3416AAFF9B17
310
67EAFFFFFFFFFFFFFFFFEA5B169BFFFF00004D17161716161616161717171616
310
161717161716171716174EFFFFFFFFFFFFFF4D1616161616BAFFFFFFBB411616
310
161716161616171634ABFFFFFFFF161716161617171716171617171617267FFF
310
FF7F164E4E4E4E4F17BAFFFFFFFFFFFFFFFFFFFFFFFF66344D4E4E4F4117AAFF
310
FFFFBA174E4E4E4D4E4D4D4E4E4E4E4116174EBBFFFFFFCA342666ABEAFFFFEA
310
AA6725269CFFFFFF0000724F4E4D4D4D4E4D4D4E4E4E4D4E4E4E4E4E4E4E4E4D
310
4E4E74FFFFFFFFFFFFFF734E4E4E4D4ECAFFFFFFFFFFAA663416171717265B9B
310
FFFFFFFFFFFF7F8080807F80807F7F7F7F7F807FBAFFFFFFFF9B4E4E4F4D4D4E
310
4DC9FFFFFFFFFFFFFFFFFFFFFFFFBA4E4E4E4E4D4E4EFFFFFFFFC94E4E4E4F4E
310
4E4E4D4E4E5A807F9CD9FFFFFFFFFFFFFF9B5B2617171716174E8DEAFFFFFFFF
310
0000000000000000000000000000000000000000000000000000000000000000
  1
OLE
  0
ENDSEC
  0
SECTION
  2
OBJECTS
  0
DICTIONARY
  5
C
330
0
100
AcDbDictionary
281
     1
  3
ACAD_GROUP
350
D
  3
ACAD_LAYOUT
350
1A
  3
ACAD_MLINESTYLE
350
17
  3
ACAD_PLOTSETTINGS
350
19
  3
ACAD_PLOTSTYLENAME
350
E
  0
DICTIONARY
  5
D
102
{ACAD_REACTORS
330
C
102
}
330
C
100
AcDbDictionary
281
     1
  0
DICTIONARY
  5
1A
102
{ACAD_REACTORS
330
C
102
}
330
C
100
AcDbDictionary
281
     1
  3
Layout1
350
1E
  3
Layout2
350
26
  3
Model
350
22
  0
DICTIONARY
  5
17
102
{ACAD_REACTORS
330
C
102
}
330
C
100
AcDbDictionary
281
     1
  3
Standard
350
18
  0
DICTIONARY
  5
19
102
{ACAD_REACTORS
330
C
102
}
330
C
100
AcDbDictionary
281
     1
  0
ACDBDICTIONARYWDFLT
  5
E
102
{ACAD_REACTORS
330
C
102
}
330
C
100
AcDbDictionary
281
     1
  3
Normal
350
F
100
AcDbDictionaryWithDefault
340
F
  0
LAYOUT
  5
1E
102
{ACAD_REACTORS
330
1A
102
}
330
1A
100
AcDbPlotSettings
  1

  2
none_device
  4

  6

 40
0.0
 41
0.0
 42
0.0
 43
0.0
 44
0.0
 45
0.0
 46
0.0
 47
0.0
 48
0.0
 49
0.0
140
0.0
141
0.0
142
1.0
143
1.0
 70
   688
 72
     0
 73
     0
 74
     5
  7

 75
    16
147
1.0
148
0.0
149
0.0
100
AcDbLayout
  1
Layout1
 70
     1
 71
     1
 10
0.0
 20
0.0
 11
420.0
 21
297.0
 12
0.0
 22
0.0
 32
0.0
 14
1.0000000000E+20
 24
1.0000000000E+20
 34
1.0000000000E+20
 15
-1.0000000000E+20
 25
-1.0000000000E+20
 35
-1.0000000000E+20
146
0.0
 13
0.0
 23
0.0
 33
0.0
 16
1.0
 26
0.0
 36
0.0
 17
0.0
 27
1.0
 37
0.0
 76
     0
330
1B
  0
LAYOUT
  5
26
102
{ACAD_REACTORS
330
1A
102
}
330
1A
100
AcDbPlotSettings
  1

  2
none_device
  4

  6

 40
0.0
 41
0.0
 42
0.0
 43
0.0
 44
0.0
 45
0.0
 46
0.0
 47
0.0
 48
0.0
 49
0.0
140
0.0
141
0.0
142
1.0
143
1.0
 70
   688
 72
     0
 73
     0
 74
     5
  7

 75
    16
147
1.0
148
0.0
149
0.0
100
AcDbLayout
  1
Layout2
 70
     1
 71
     2
 10
0.0
 20
0.0
 11
0.0
 21
0.0
 12
0.0
 22
0.0
 32
0.0
 14
0.0
 24
0.0
 34
0.0
 15
0.0
 25
0.0
 35
0.0
146
0.0
 13
0.0
 23
0.0
 33
0.0
 16
1.0
 26
0.0
 36
0.0
 17
0.0
 27
1.0
 37
0.0
 76
     0
330
23
  0
LAYOUT
  5
22
102
{ACAD_REACTORS
330
1A
102
}
330
1A
100
AcDbPlotSettings
  1

  2
none_device
  4

  6

 40
0.0
 41
0.0
 42
0.0
 43
0.0
 44
0.0
 45
0.0
 46
0.0
 47
0.0
 48
0.0
 49
0.0
140
0.0
141
0.0
142
1.0
143
1.0
 70
  1712
 72
     0
 73
     0
 74
     0
  7

 75
     0
147
1.0
148
0.0
149
0.0
100
AcDbLayout
  1
Model
 70
     1
 71
     0
 10
0.0
 20
0.0
 11
279.4
 21
215.9
 12
0.0
 22
0.0
 32
0.0
 14
0.0
 24
0.0
 34
0.0
 15
279.4
 25
215.9
 35
0.0
146
0.0
 13
0.0
 23
0.0
 33
0.0
 16
1.0
 26
0.0
 36
0.0
 17
0.0
 27
1.0
 37
0.0
 76
     0
330
1F
331
29
  0
MLINESTYLE
  5
18
102
{ACAD_REACTORS
330
17
102
}
330
17
100
AcDbMlineStyle
  2
Standard
 70
     0
  3

 62
   256
 51
90.0
 52
90.0
 71
     2
 49
0.5
 62
   256
  6
BYLAYER
 49
-0.5
 62
   256
  6
BYLAYER
  0
ACDBPLACEHOLDER
  5
F
102
{ACAD_REACTORS
330
E
102
}
330
E
  0
ENDSEC
  0
EOF
