  0
SECTION
  2
HEADER
  9
$ACADVER
  1
AC1015
  9
$ACADMAINTVER
 70
     6
  9
$DWGCODEPAGE
  3
ANSI_1252
  9
$INSBASE
 10
0.0
 20
0.0
 30
0.0
  9
$EXTMIN
 10
0.0
 20
0.0
 30
0.0
  9
$EXTMAX
 10
279.4
 20
215.9
 30
0.0
  9
$LIMMIN
 10
0.0
 20
0.0
  9
$LIMMAX
 10
279.4
 20
215.9
  9
$ORTHOMODE
 70
     0
  9
$REGENMODE
 70
     1
  9
$FILLMODE
 70
     1
  9
$QTEXTMODE
 70
     0
  9
$MIRRTEXT
 70
     1
  9
$LTSCALE
 40
1.0
  9
$ATTMODE
 70
     1
  9
$TEXTSIZE
 40
2.8222222222
  9
$TRACEWID
 40
1.0
  9
$TEXTSTYLE
  7
Standard
  9
$CLAYER
  8
0
  9
$CELTYPE
  6
ByLayer
  9
$CECOLOR
 62
   256
  9
$CELTSCALE
 40
1.0
  9
$DISPSILH
 70
     0
  9
$DIMSCALE
 40
1.0
  9
$DIMASZ
 40
3.175
  9
$DIMEXO
 40
1.27
  9
$DIMDLI
 40
3.75
  9
$DIMRND
 40
0.0
  9
$DIMDLE
 40
0.0
  9
$DIMEXE
 40
1.778
  9
$DIMTP
 40
0.0
  9
$DIMTM
 40
0.0
  9
$DIMTXT
 40
2.8222222222
  9
$DIMCEN
 40
2.5
  9
$DIMTSZ
 40
0.0
  9
$DIMTOL
 70
     0
  9
$DIMLIM
 70
     0
  9
$DIMTIH
 70
     1
  9
$DIMTOH
 70
     1
  9
$DIMSE1
 70
     0
  9
$DIMSE2
 70
     0
  9
$DIMTAD
 70
     0
  9
$DIMZIN
 70
     1
  9
$DIMBLK
  1

  9
$DIMASO
 70
     1
  9
$DIMSHO
 70
     1
  9
$DIMPOST
  1

  9
$DIMAPOST
  1

  9
$DIMALT
 70
     0
  9
$DIMALTD
 70
     3
  9
$DIMALTF
 40
0.0393700787
  9
$DIMLFAC
 40
0.5
  9
$DIMTOFL
 70
     1
  9
$DIMTVP
 40
0.0
  9
$DIMTIX
 70
     0
  9
$DIMSOXD
 70
     0
  9
$DIMSAH
 70
     0
  9
$DIMBLK1
  1

  9
$DIMBLK2
  1

  9
$DIMSTYLE
  2
ISO-25
  9
$DIMCLRD
 70
     0
  9
$DIMCLRE
 70
     0
  9
$DIMCLRT
 70
     0
  9
$DIMTFAC
 40
1.0
  9
$DIMGAP
 40
2.54
  9
$DIMJUST
 70
     0
  9
$DIMSD1
 70
     0
  9
$DIMSD2
 70
     0
  9
$DIMTOLJ
 70
     0
  9
$DIMTZIN
 70
     1
  9
$DIMALTZ
 70
     0
  9
$DIMALTTZ
 70
     0
  9
$DIMUPT
 70
     0
  9
$DIMDEC
 70
     1
  9
$DIMTDEC
 70
     1
  9
$DIMALTU
 70
     2
  9
$DIMALTTD
 70
     3
  9
$DIMTXSTY
  7
Standard
  9
$DIMAUNIT
 70
     0
  9
$DIMADEC
 70
     0
  9
$DIMALTRND
 40
0.0
  9
$DIMAZIN
 70
     0
  9
$DIMDSEP
 70
    44
  9
$DIMATFIT
 70
     3
  9
$DIMFRAC
 70
     0
  9
$DIMLDRBLK
  1

  9
$DIMLUNIT
 70
     2
  9
$DIMLWD
 70
    -2
  9
$DIMLWE
 70
    -2
  9
$DIMTMOVE
 70
     0
  9
$LUNITS
 70
     2
  9
$LUPREC
 70
     1
  9
$SKETCHINC
 40
1.0
  9
$FILLETRAD
 40
10.0
  9
$AUNITS
 70
     0
  9
$AUPREC
 70
     0
  9
$MENU
  1
.
  9
$ELEVATION
 40
0.0
  9
$PELEVATION
 40
0.0
  9
$THICKNESS
 40
0.0
  9
$LIMCHECK
 70
     0
  9
$CHAMFERA
 40
10.0
  9
$CHAMFERB
 40
10.0
  9
$CHAMFERC
 40
20.0
  9
$CHAMFERD
 40
0.0
  9
$SKPOLY
 70
     0
  9
$TDCREATE
 40
2456349.376797465
  9
$TDUCREATE
 40
2456349.585130799
  9
$TDUPDATE
 40
2456349.376803055
  9
$TDUUPDATE
 40
2456349.585136389
  9
$TDINDWG
 40
0.0000000116
  9
$TDUSRTIMER
 40
0.0000000116
  9
$USRTIMER
 70
     1
  9
$ANGBASE
 50
0.0
  9
$ANGDIR
 70
     0
  9
$PDMODE
 70
     0
  9
$PDSIZE
 40
-1.0
  9
$PLINEWID
 40
0.0
  9
$SPLFRAME
 70
     0
  9
$SPLINETYPE
 70
     6
  9
$SPLINESEGS
 70
     8
  9
$HANDSEED
  5
2BE
  9
$SURFTAB1
 70
     6
  9
$SURFTAB2
 70
     6
  9
$SURFTYPE
 70
     6
  9
$SURFU
 70
     6
  9
$SURFV
 70
     6
  9
$UCSBASE
  2

  9
$UCSNAME
  2

  9
$UCSORG
 10
0.0
 20
0.0
 30
0.0
  9
$UCSXDIR
 10
1.0
 20
0.0
 30
0.0
  9
$UCSYDIR
 10
0.0
 20
1.0
 30
0.0
  9
$UCSORTHOREF
  2

  9
$UCSORTHOVIEW
 70
     0
  9
$UCSORGTOP
 10
0.0
 20
0.0
 30
0.0
  9
$UCSORGBOTTOM
 10
0.0
 20
0.0
 30
0.0
  9
$UCSORGLEFT
 10
0.0
 20
0.0
 30
0.0
  9
$UCSORGRIGHT
 10
0.0
 20
0.0
 30
0.0
  9
$UCSORGFRONT
 10
0.0
 20
0.0
 30
0.0
  9
$UCSORGBACK
 10
0.0
 20
0.0
 30
0.0
  9
$PUCSBASE
  2

  9
$PUCSNAME
  2

  9
$PUCSORG
 10
0.0
 20
0.0
 30
0.0
  9
$PUCSXDIR
 10
1.0
 20
0.0
 30
0.0
  9
$PUCSYDIR
 10
0.0
 20
1.0
 30
0.0
  9
$PUCSORTHOREF
  2

  9
$PUCSORTHOVIEW
 70
     0
  9
$PUCSORGTOP
 10
0.0
 20
0.0
 30
0.0
  9
$PUCSORGBOTTOM
 10
0.0
 20
0.0
 30
0.0
  9
$PUCSORGLEFT
 10
0.0
 20
0.0
 30
0.0
  9
$PUCSORGRIGHT
 10
0.0
 20
0.0
 30
0.0
  9
$PUCSORGFRONT
 10
0.0
 20
0.0
 30
0.0
  9
$PUCSORGBACK
 10
0.0
 20
0.0
 30
0.0
  9
$USERI1
 70
     0
  9
$USERI2
 70
     0
  9
$USERI3
 70
     0
  9
$USERI4
 70
     0
  9
$USERI5
 70
     0
  9
$USERR1
 40
0.0
  9
$USERR2
 40
0.0
  9
$USERR3
 40
0.0
  9
$USERR4
 40
0.0
  9
$USERR5
 40
0.0
  9
$WORLDVIEW
 70
     1
  9
$SHADEDGE
 70
     3
  9
$SHADEDIF
 70
    70
  9
$TILEMODE
 70
     1
  9
$MAXACTVP
 70
    64
  9
$PINSBASE
 10
0.0
 20
0.0
 30
0.0
  9
$PLIMCHECK
 70
     0
  9
$PEXTMIN
 10
1.0000000000E+20
 20
1.0000000000E+20
 30
1.0000000000E+20
  9
$PEXTMAX
 10
-1.0000000000E+20
 20
-1.0000000000E+20
 30
-1.0000000000E+20
  9
$PLIMMIN
 10
0.0
 20
0.0
  9
$PLIMMAX
 10
420.0
 20
297.0
  9
$UNITMODE
 70
     0
  9
$VISRETAIN
 70
     1
  9
$PLINEGEN
 70
     0
  9
$PSLTSCALE
 70
     1
  9
$TREEDEPTH
 70
  3020
  9
$CMLSTYLE
  2
Standard
  9
$CMLJUST
 70
     0
  9
$CMLSCALE
 40
20.0
  9
$PROXYGRAPHICS
 70
     1
  9
$MEASUREMENT
 70
     1
  9
$CELWEIGHT
370
    -1
  9
$ENDCAPS
280
     0
  9
$JOINSTYLE
280
     0
  9
$LWDISPLAY
290
     1
  9
$INSUNITS
 70
     4
  9
$HYPERLINKBASE
  1

  9
$STYLESHEET
  1

  9
$XEDIT
290
     1
  9
$CEPSNTYPE
380
     0
  9
$PSTYLEMODE
290
     1
  9
$FINGERPRINTGUID
  2
{C10D6543-3BCD-49F5-B8CF-4FA1506F9CDA}
  9
$VERSIONGUID
  2
{FAEB1C32-E019-11D5-929B-00C0DF256EC4}
  9
$EXTNAMES
290
     1
  9
$PSVPSCALE
 40
0.0
  9
$OLESTARTUP
290
     0
  0
ENDSEC
  0
SECTION
  2
CLASSES
  0
CLASS
  1
ACDBDICTIONARYWDFLT
  2
AcDbDictionaryWithDefault
  3
ObjectDBX Classes
 90
        0
280
     0
281
     0
  0
CLASS
  1
VISUALSTYLE
  2
AcDbVisualStyle
  3
ObjectDBX Classes
 90
     4095
280
     0
281
     0
  0
CLASS
  1
MATERIAL
  2
AcDbMaterial
  3
ObjectDBX Classes
 90
     1153
280
     0
281
     0
  0
CLASS
  1
ACDBPLACEHOLDER
  2
AcDbPlaceHolder
  3
ObjectDBX Classes
 90
        0
280
     0
281
     0
  0
CLASS
  1
LAYOUT
  2
AcDbLayout
  3
ObjectDBX Classes
 90
        0
280
     0
281
     0
  0
ENDSEC
  0
SECTION
  2
TABLES
  0
TABLE
  2
VPORT
  5
8
330
0
100
AcDbSymbolTable
 70
     1
  0
VPORT
  5
29
330
8
100
AcDbSymbolTableRecord
100
AcDbViewportTableRecord
  2
*Active
 70
     0
 10
0.0
 20
0.0
 11
1.0
 21
1.0
 12
139.7
 22
107.95
 13
0.0
 23
0.0
 14
10.0
 24
10.0
 15
10.0
 25
10.0
 16
0.0
 26
0.0
 36
1.0
 17
0.0
 27
0.0
 37
0.0
 40
215.9
 41
1.2941176471
 42
50.0
 43
0.0
 44
0.0
 50
0.0
 51
0.0
 71
     0
 72
  2000
 73
     1
 74
     3
 75
     0
 76
     0
 77
     0
 78
     0
281
     0
 65
     1
110
0.0
120
0.0
130
0.0
111
1.0
121
0.0
131
0.0
112
0.0
122
1.0
132
0.0
 79
     0
146
0.0
  0
ENDTAB
  0
TABLE
  2
LTYPE
  5
5
330
0
100
AcDbSymbolTable
 70
     6
  0
LTYPE
  5
14
330
5
100
AcDbSymbolTableRecord
100
AcDbLinetypeTableRecord
  2
ByBlock
 70
     0
  3

 72
    65
 73
     0
 40
0.0
  0
LTYPE
  5
15
330
5
100
AcDbSymbolTableRecord
100
AcDbLinetypeTableRecord
  2
ByLayer
 70
     0
  3

 72
    65
 73
     0
 40
0.0
  0
LTYPE
  5
16
330
5
100
AcDbSymbolTableRecord
100
AcDbLinetypeTableRecord
  2
Continuous
 70
     0
  3
Solid line
 72
    65
 73
     0
 40
0.0
  0
LTYPE
  5
3F
330
5
100
AcDbSymbolTableRecord
100
AcDbLinetypeTableRecord
  2
HIDDEN
 70
     0
  3
Hidden __ __ __ __ __ __ __ __ __ __ __ __ __ __
 72
    65
 73
     2
 40
1.905
 49
1.27
 74
     0
 49
-0.635
 74
     0
  0
LTYPE
  5
40
330
5
100
AcDbSymbolTableRecord
100
AcDbLinetypeTableRecord
  2
PHANTOM
 70
     0
  3
Phantom ______  __  __  ______  __  __  ______
 72
    65
 73
     6
 40
12.7
 49
6.35
 74
     0
 49
-1.27
 74
     0
 49
1.27
 74
     0
 49
-1.27
 74
     0
 49
1.27
 74
     0
 49
-1.27
 74
     0
  0
LTYPE
  5
41
330
5
100
AcDbSymbolTableRecord
100
AcDbLinetypeTableRecord
  2
CENTER
 70
     0
  3
Center ____ _ ____ _ ____ _ ____ _ ____ _ ____
 72
    65
 73
     4
 40
10.16
 49
6.35
 74
     0
 49
-1.27
 74
     0
 49
1.27
 74
     0
 49
-1.27
 74
     0
  0
LTYPE
  5
42
330
5
100
AcDbSymbolTableRecord
100
AcDbLinetypeTableRecord
  2
CENTERX2
 70
     0
  3
Center (2x) ________  __  ________  __  _____
 72
    65
 73
     4
 40
20.32
 49
12.7
 74
     0
 49
-2.54
 74
     0
 49
2.54
 74
     0
 49
-2.54
 74
     0
  0
LTYPE
  5
43
330
5
100
AcDbSymbolTableRecord
100
AcDbLinetypeTableRecord
  2
DOT2
 70
     0
  3
Dot (.5x) ........................................
 72
    65
 73
     2
 40
0.635
 49
0.0
 74
     0
 49
-0.635
 74
     0
  0
ENDTAB
  0
TABLE
  2
LAYER
  5
2
330
0
100
AcDbSymbolTable
 70
     2
  0
LAYER
  5
10
330
2
100
AcDbSymbolTableRecord
100
AcDbLayerTableRecord
  2
0
 70
     0
 62
     7
  6
Continuous
370
    -3
390
F
  0
LAYER
  5
44
330
2
100
AcDbSymbolTableRecord
100
AcDbLayerTableRecord
  2
FORMAT
 70
     0
 62
     7
  6
Continuous
370
    -3
390
F
  0
ENDTAB
  0
TABLE
  2
STYLE
  5
3
330
0
100
AcDbSymbolTable
 70
     6
  0
STYLE
  5
11
330
3
100
AcDbSymbolTableRecord
100
AcDbTextStyleTableRecord
  2
Standard
 70
     0
 40
0.0
 41
1.0
 50
0.0
 71
     0
 42
2.8222222222
  3
txt
  4

  0
STYLE
  5
6C
330
3
100
AcDbSymbolTableRecord
100
AcDbTextStyleTableRecord
  2
SLDTEXTSTYLE0
 70
     0
 40
0.0
 41
0.75
 50
0.0
 71
     0
 42
0.2
  3
TXT
  4

  0
STYLE
  5
78
330
3
100
AcDbSymbolTableRecord
100
AcDbTextStyleTableRecord
  2
SLDTEXTSTYLE1
 70
     0
 40
0.0
 41
0.6
 50
0.0
 71
     0
 42
0.2
  3
TXT
  4

  0
STYLE
  5
A9
330
3
100
AcDbSymbolTableRecord
100
AcDbTextStyleTableRecord
  2
SLDTEXTSTYLE2
 70
     0
 40
0.0
 41
0.7
 50
0.0
 71
     0
 42
0.2
  3
TXT
  4

  0
STYLE
  5
B5
330
3
100
AcDbSymbolTableRecord
100
AcDbTextStyleTableRecord
  2
SLDTEXTSTYLE3
 70
     0
 40
0.0
 41
0.6911764706
 50
0.0
 71
     0
 42
0.2
  3
TXT
  4
bigfont
  0
STYLE
  5
B8
330
3
100
AcDbSymbolTableRecord
100
AcDbTextStyleTableRecord
  2
SLDTEXTSTYLE4
 70
     0
 40
0.0
 41
0.75
 50
0.0
 71
     0
 42
0.2
  3
TXT
  4
bigfont
  0
ENDTAB
  0
TABLE
  2
VIEW
  5
6
330
0
100
AcDbSymbolTable
 70
     0
  0
ENDTAB
  0
TABLE
  2
UCS
  5
7
330
0
100
AcDbSymbolTable
 70
     0
  0
ENDTAB
  0
TABLE
  2
APPID
  5
9
330
0
100
AcDbSymbolTable
 70
     1
  0
APPID
  5
12
330
9
100
AcDbSymbolTableRecord
100
AcDbRegAppTableRecord
  2
ACAD
 70
     0
  0
ENDTAB
  0
TABLE
  2
DIMSTYLE
  5
A
330
0
100
AcDbSymbolTable
 70
     8
100
AcDbDimStyleTable
  0
DIMSTYLE
105
27
330
A
100
AcDbSymbolTableRecord
100
AcDbDimStyleTableRecord
  2
ISO-25
 70
     0
 41
2.5
 42
0.625
 43
3.75
 44
1.25
 73
     0
 74
     0
 77
     1
 78
     8
140
2.5
141
2.5
143
0.0393700787
147
0.625
171
     3
172
     1
178
     0
271
     2
272
     2
274
     3
278
    44
283
     0
284
     8
340
11
  0
DIMSTYLE
105
182
102
{ACAD_REACTORS
330
181
330
195
330
1A7
102
}
330
A
100
AcDbSymbolTableRecord
100
AcDbDimStyleTableRecord
  2
SLDDIMSTYLE0
 70
     0
 41
3.175
 44
0.0
 45
0.000000001
 78
    12
 79
     3
140
2.1166666667
143
0.0393700787
147
0.5291666667
148
0.000000001
170
     1
173
     1
178
     0
271
     1
272
     1
276
     2
284
    12
340
6C
  0
DIMSTYLE
105
1BC
102
{ACAD_REACTORS
330
1BB
330
1CF
330
1E2
330
1F6
330
237
102
}
330
A
100
AcDbSymbolTableRecord
100
AcDbDimStyleTableRecord
  2
SLDDIMSTYLE1
 70
     0
 41
3.175
 44
0.0
 45
0.000000001
 78
    12
 79
     3
140
2.1166666667
143
0.0393700787
147
0.5291666667
148
0.000000001
170
     1
172
     1
173
     1
178
     0
271
     1
272
     1
276
     2
284
    12
289
     0
340
6C
  0
DIMSTYLE
105
20B
330
A
100
AcDbSymbolTableRecord
100
AcDbDimStyleTableRecord
  2
SLDDIMSTYLE2
 70
     0
 41
3.175
 44
0.0
 45
0.000000001
140
0.0
146
3.175
147
0.0
173
     1
178
     0
271
     0
272
     0
276
     2
340
11
  0
DIMSTYLE
105
21A
102
{ACAD_REACTORS
330
219
102
}
330
A
100
AcDbSymbolTableRecord
100
AcDbDimStyleTableRecord
  2
SLDDIMSTYLE3
 70
     0
 41
3.175
 44
0.0
 78
    12
 79
     3
140
2.1166666667
143
0.0393700787
147
0.5291666667
148
0.000000001
170
     1
173
     1
178
     0
272
     0
276
     2
284
    12
340
6C
  0
DIMSTYLE
105
227
102
{ACAD_REACTORS
330
226
330
249
102
}
330
A
100
AcDbSymbolTableRecord
100
AcDbDimStyleTableRecord
  2
SLDDIMSTYLE4
 70
     0
 41
3.175
 44
0.0
 45
0.000000001
 78
    12
 79
     3
140
2.1166666667
141
0.0
143
0.0393700787
147
0.5291666667
148
0.000000001
170
     1
173
     1
178
     0
271
     1
272
     1
276
     2
284
    12
340
6C
  0
DIMSTYLE
105
255
102
{ACAD_REACTORS
330
254
102
}
330
A
100
AcDbSymbolTableRecord
100
AcDbDimStyleTableRecord
  2
SLDDIMSTYLE5
 70
     0
  3
<>
  4
<>
 41
3.175
 44
0.0
 45
0.000000001
 78
    12
 79
     3
140
2.1166666667
141
0.0
143
0.0393700787
147
0.5291666667
148
0.000000001
170
     1
173
     1
178
     0
271
     1
272
     1
276
     2
284
    12
340
6C
  0
DIMSTYLE
105
294
330
A
100
AcDbSymbolTableRecord
100
AcDbDimStyleTableRecord
  2
SLDDIMSTYLE6
 70
     0
 41
1.016
 44
0.0
 45
0.000000001
140
0.0
146
1.016
147
0.0
173
     1
178
     0
271
     0
272
     0
276
     2
340
11
341
295
343
295
344
295
  0
ENDTAB
  0
TABLE
  2
BLOCK_RECORD
  5
1
330
0
100
AcDbSymbolTable
 70
    25
  0
BLOCK_RECORD
  5
1F
330
1
100
AcDbSymbolTableRecord
100
AcDbBlockTableRecord
  2
*Model_Space
340
22
  0
BLOCK_RECORD
  5
1B
330
1
100
AcDbSymbolTableRecord
100
AcDbBlockTableRecord
  2
*Paper_Space
340
1E
  0
BLOCK_RECORD
  5
23
330
1
100
AcDbSymbolTableRecord
100
AcDbBlockTableRecord
  2
*Paper_Space0
340
26
  0
BLOCK_RECORD
  5
45
330
1
100
AcDbSymbolTableRecord
100
AcDbBlockTableRecord
  2
Third Angle Projection Block
340
0
102
{BLKREFS
331
6A
102
}
  0
BLOCK_RECORD
  5
7E
330
1
100
AcDbSymbolTableRecord
100
AcDbBlockTableRecord
  2
SW_NOTE_0
340
0
102
{BLKREFS
331
83
102
}
  0
BLOCK_RECORD
  5
84
330
1
100
AcDbSymbolTableRecord
100
AcDbBlockTableRecord
  2
SW_NOTE_1
340
0
102
{BLKREFS
331
89
102
}
  0
BLOCK_RECORD
  5
8B
330
1
100
AcDbSymbolTableRecord
100
AcDbBlockTableRecord
  2
SW_NOTE_2
340
0
102
{BLKREFS
331
90
102
}
  0
BLOCK_RECORD
  5
92
330
1
100
AcDbSymbolTableRecord
100
AcDbBlockTableRecord
  2
SW_NOTE_3
340
0
102
{BLKREFS
331
99
102
}
  0
BLOCK_RECORD
  5
9A
330
1
100
AcDbSymbolTableRecord
100
AcDbBlockTableRecord
  2
SW_NOTE_4
340
0
102
{BLKREFS
331
BC
102
}
  0
BLOCK_RECORD
  5
183
330
1
100
AcDbSymbolTableRecord
100
AcDbBlockTableRecord
  2
_D
340
0
  0
BLOCK_RECORD
  5
196
330
1
100
AcDbSymbolTableRecord
100
AcDbBlockTableRecord
  2
_D_1
340
0
  0
BLOCK_RECORD
  5
1A8
330
1
100
AcDbSymbolTableRecord
100
AcDbBlockTableRecord
  2
_D_2
340
0
  0
BLOCK_RECORD
  5
1BD
330
1
100
AcDbSymbolTableRecord
100
AcDbBlockTableRecord
  2
_D_3
340
0
  0
BLOCK_RECORD
  5
1D0
330
1
100
AcDbSymbolTableRecord
100
AcDbBlockTableRecord
  2
_D_4
340
0
  0
BLOCK_RECORD
  5
1E3
330
1
100
AcDbSymbolTableRecord
100
AcDbBlockTableRecord
  2
_D_5
340
0
  0
BLOCK_RECORD
  5
1F7
330
1
100
AcDbSymbolTableRecord
100
AcDbBlockTableRecord
  2
_D_6
340
0
  0
BLOCK_RECORD
  5
21B
330
1
100
AcDbSymbolTableRecord
100
AcDbBlockTableRecord
  2
_D_7
340
0
  0
BLOCK_RECORD
  5
228
330
1
100
AcDbSymbolTableRecord
100
AcDbBlockTableRecord
  2
_D_8
340
0
  0
BLOCK_RECORD
  5
238
330
1
100
AcDbSymbolTableRecord
100
AcDbBlockTableRecord
  2
_D_9
340
0
  0
BLOCK_RECORD
  5
24A
330
1
100
AcDbSymbolTableRecord
100
AcDbBlockTableRecord
  2
_D_10
340
0
  0
BLOCK_RECORD
  5
256
330
1
100
AcDbSymbolTableRecord
100
AcDbBlockTableRecord
  2
_D_11
340
0
  0
BLOCK_RECORD
  5
25F
330
1
100
AcDbSymbolTableRecord
100
AcDbBlockTableRecord
  2
SW_SYMBOL_HOLE_DEPTH
340
0
102
{BLKREFS
331
266
331
2A2
102
}
  0
BLOCK_RECORD
  5
268
330
1
100
AcDbSymbolTableRecord
100
AcDbBlockTableRecord
  2
SW_CENTERMARKSYMBOL_0
340
0
102
{BLKREFS
331
26F
102
}
  0
BLOCK_RECORD
  5
270
330
1
100
AcDbSymbolTableRecord
100
AcDbBlockTableRecord
  2
SW_CENTERMARKSYMBOL_1
340
0
102
{BLKREFS
331
277
102
}
  0
BLOCK_RECORD
  5
28E
330
1
100
AcDbSymbolTableRecord
100
AcDbBlockTableRecord
  2
SW_NOTE_5
340
0
102
{BLKREFS
331
293
102
}
  0
BLOCK_RECORD
  5
295
330
1
100
AcDbSymbolTableRecord
100
AcDbBlockTableRecord
  2
_DOT
340
0
  0
BLOCK_RECORD
  5
29E
330
1
100
AcDbSymbolTableRecord
100
AcDbBlockTableRecord
  2
SW_NOTE_6
340
0
102
{BLKREFS
331
2A5
102
}
  0
ENDTAB
  0
ENDSEC
  0
SECTION
  2
BLOCKS
  0
BLOCK
  5
20
330
1F
100
AcDbEntity
  8
0
100
AcDbBlockBegin
  2
*Model_Space
 70
     0
 10
0.0
 20
0.0
 30
0.0
  3
*Model_Space
  1

  0
ENDBLK
  5
21
330
1F
100
AcDbEntity
  8
0
100
AcDbBlockEnd
  0
BLOCK
  5
1C
330
1B
100
AcDbEntity
 67
     1
  8
0
100
AcDbBlockBegin
  2
*Paper_Space
 70
     0
 10
0.0
 20
0.0
 30
0.0
  3
*Paper_Space
  1

  0
ENDBLK
  5
1D
330
1B
100
AcDbEntity
 67
     1
  8
0
100
AcDbBlockEnd
  0
BLOCK
  5
24
330
23
100
AcDbEntity
  8
0
100
AcDbBlockBegin
  2
*Paper_Space0
 70
     0
 10
0.0
 20
0.0
 30
0.0
  3
*Paper_Space0
  1

  0
ENDBLK
  5
25
330
23
100
AcDbEntity
  8
0
100
AcDbBlockEnd
  0
BLOCK
  5
46
330
45
100
AcDbEntity
  8
0
100
AcDbBlockBegin
  2
Third Angle Projection Block
 70
     0
 10
0.0
 20
0.0
 30
0.0
  3
Third Angle Projection Block
  1

  0
CIRCLE
  5
48
330
45
100
AcDbEntity
  8
0
  6
Continuous
 62
     7
370
    30
100
AcDbCircle
 10
101.4766388944
 20
18.9404083667
 30
0.0
 40
1.768227153674871
  0
CIRCLE
  5
49
330
45
100
AcDbEntity
  8
0
  6
Continuous
 62
     7
370
    30
100
AcDbCircle
 10
101.4766388944
 20
18.9404083667
 30
0.0
 40
3.901228248531818
  0
LINE
  5
4A
330
45
100
AcDbEntity
  8
0
  6
CENTERX2
 62
     7
370
     0
100
AcDbLine
 10
110.1367822585
 20
18.9404083667
 30
0.0
 11
119.4527334874
 21
18.9404083667
 31
0.0
  0
LINE
  5
4B
330
45
100
AcDbEntity
  8
0
  6
Continuous
 62
     7
370
    30
100
AcDbLine
 10
111.0016388944
 20
20.7086355204
 30
0.0
 11
111.0016388944
 21
17.172181213
 31
0.0
  0
LINE
  5
4C
330
45
100
AcDbEntity
  8
0
  6
Continuous
 62
     7
370
    30
100
AcDbLine
 10
111.0016388944
 20
17.172181213
 30
0.0
 11
118.6216388944
 21
15.1304083667
 31
0.0
  0
LINE
  5
4D
330
45
100
AcDbEntity
  8
0
  6
Continuous
 62
     7
370
    30
100
AcDbLine
 10
118.6216388944
 20
15.1304083667
 30
0.0
 11
118.6216388944
 21
22.7504083667
 31
0.0
  0
LINE
  5
4E
330
45
100
AcDbEntity
  8
0
  6
Continuous
 62
     7
370
    30
100
AcDbLine
 10
118.6216388944
 20
22.7504083667
 30
0.0
 11
111.0016388944
 21
20.7086355204
 31
0.0
  0
LINE
  5
4F
330
45
100
AcDbEntity
  8
0
  6
CENTERX2
 62
     7
370
     0
100
AcDbLine
 10
96.6025854619
 20
18.9404083667
 30
0.0
 11
106.3506923269
 21
18.9404083667
 31
0.0
  0
LINE
  5
50
330
45
100
AcDbEntity
  8
0
  6
CENTERX2
 62
     7
370
     0
100
AcDbLine
 10
101.4766388944
 20
23.8144617992
 30
0.0
 11
101.4766388944
 21
14.0663549342
 31
0.0
  0
POINT
  5
51
330
45
100
AcDbEntity
  8
0
  6
Continuous
 62
     7
370
     0
100
AcDbPoint
 10
101.4766388944
 20
18.9404083667
 30
0.0
  0
ENDBLK
  5
47
330
45
100
AcDbEntity
  8
0
100
AcDbBlockEnd
  0
BLOCK
  5
7F
330
7E
100
AcDbEntity
  8
0
100
AcDbBlockBegin
  2
SW_NOTE_0
 70
     0
 10
0.0
 20
0.0
 30
0.0
  3
SW_NOTE_0
  1

  0
MTEXT
  5
81
330
7E
100
AcDbEntity
  8
0
  6
Continuous
 62
     0
370
     0
100
AcDbMText
 10
19.90725
 20
1.9645392354
 30
0.0
 40
1.524
 41
0.0
 71
     2
 72
     1
  1
VALUES IN PARENTHESIS ARE CALCULATED
  7
SLDTEXTSTYLE0
 73
     1
 44
1.0
  0
MTEXT
  5
82
330
7E
100
AcDbEntity
  8
0
  6
Continuous
 62
     0
370
     0
100
AcDbMText
 10
19.8778795174
 20
-0.5594606586
 30
0.0
 40
1.524
 41
0.0
 71
     2
 72
     1
  1
AND MAY CONTAIN ROUNDOFF ERRORS
  7
SLDTEXTSTYLE0
 73
     1
 44
1.0
  0
ENDBLK
  5
80
330
7E
100
AcDbEntity
  8
0
100
AcDbBlockEnd
  0
BLOCK
  5
85
330
84
100
AcDbEntity
  8
0
100
AcDbBlockBegin
  2
SW_NOTE_1
 70
     0
 10
0.0
 20
0.0
 30
0.0
  3
SW_NOTE_1
  1

  0
MTEXT
  5
87
330
84
100
AcDbEntity
  8
0
  6
Continuous
 62
     0
370
     0
100
AcDbMText
 10
0.0
 20
2.7285267159
 30
0.0
 40
2.1166666667
 41
0.0
 71
     1
 72
     1
  1
DRAWING
  7
SLDTEXTSTYLE0
 73
     1
 44
1.0
  0
MTEXT
  5
88
330
84
100
AcDbEntity
  8
0
  6
Continuous
 62
     0
370
     0
100
AcDbMText
 10
0.0
 20
-0.0936954723
 30
0.0
 40
2.1166666667
 41
0.0
 71
     1
 72
     1
  1
PROJECTION
  7
SLDTEXTSTYLE0
 73
     1
 44
1.0
  0
ENDBLK
  5
86
330
84
100
AcDbEntity
  8
0
100
AcDbBlockEnd
  0
BLOCK
  5
8C
330
8B
100
AcDbEntity
  8
0
100
AcDbBlockBegin
  2
SW_NOTE_2
 70
     0
 10
0.0
 20
0.0
 30
0.0
  3
SW_NOTE_2
  1

  0
MTEXT
  5
8E
330
8B
100
AcDbEntity
  8
0
  6
Continuous
 62
     0
370
     0
100
AcDbMText
 10
25.052734375
 20
4.0927900738
 30
0.0
 40
3.175
 41
0.0
 71
     2
 72
     1
  1
FOR INFORMATION ONLY
  7
SLDTEXTSTYLE0
 73
     1
 44
1.0
  0
MTEXT
  5
8F
330
8B
100
AcDbEntity
  8
0
  6
Continuous
 62
     0
370
     0
100
AcDbMText
 10
25.3768468589
 20
-0.1405432084
 30
0.0
 40
3.175
 41
0.0
 71
     2
 72
     1
  1
NOT FOR MANUFACTURING PURPOSES
  7
SLDTEXTSTYLE0
 73
     1
 44
1.0
  0
ENDBLK
  5
8D
330
8B
100
AcDbEntity
  8
0
100
AcDbBlockEnd
  0
BLOCK
  5
93
330
92
100
AcDbEntity
  8
0
100
AcDbBlockBegin
  2
SW_NOTE_3
 70
     0
 10
0.0
 20
0.0
 30
0.0
  3
SW_NOTE_3
  1

  0
MTEXT
  5
95
330
92
100
AcDbEntity
  8
0
  6
Continuous
 62
     0
370
     0
100
AcDbMText
 10
9.82265625
 20
3.0695925553
 30
0.0
 40
2.38125
 41
0.0
 71
     2
 72
     1
  1
Ø 25.4mm 90
  7
SLDTEXTSTYLE0
 73
     1
 44
1.0
  0
MTEXT
  5
96
330
92
100
AcDbEntity
  8
0
  6
Continuous
 62
     0
370
     0
100
AcDbMText
 10
20.8461360693
 20
3.0695925553
 30
0.0
 40
2.38125
 41
0.0
 71
     2
 72
     1
  1
%%d
  7
SLDTEXTSTYLE0
 73
     1
 44
1.0
  0
MTEXT
  5
97
330
92
100
AcDbEntity
  8
0
  6
Continuous
 62
     0
370
     0
100
AcDbMText
 10
37.6144348294
 20
3.0695925553
 30
0.0
 40
2.38125
 41
0.0
 71
     2
 72
     1
  1
OFF AXIS PARABOLA
  7
SLDTEXTSTYLE0
 73
     1
 44
1.0
  0
MTEXT
  5
98
330
92
100
AcDbEntity
  8
0
  6
Continuous
 62
     0
370
     0
100
AcDbMText
 10
25.7267623782
 20
-0.1054074063
 30
0.0
 40
2.38125
 41
0.0
 71
     2
 72
     1
  1
PFL=50.8mm, PROTECTED ALUMINUM
  7
SLDTEXTSTYLE0
 73
     1
 44
1.0
  0
ENDBLK
  5
94
330
92
100
AcDbEntity
  8
0
100
AcDbBlockEnd
  0
BLOCK
  5
9B
330
9A
100
AcDbEntity
  8
0
100
AcDbBlockBegin
  2
SW_NOTE_4
 70
     0
 10
0.0
 20
0.0
 30
0.0
  3
SW_NOTE_4
  1

  0
MTEXT
  5
9D
330
9A
100
AcDbEntity
  8
0
  6
Continuous
 62
     0
370
     0
100
AcDbMText
 10
0.0
 20
2.9468088531
 30
0.0
 40
2.286
 41
0.0
 71
     1
 72
     1
  1
NOTES/SPECIFICATIONS:
  7
SLDTEXTSTYLE0
 73
     1
 44
1.0
  0
MTEXT
  5
9E
330
9A
100
AcDbEntity
  8
0
  6
Continuous
 62
     0
370
     0
100
AcDbMText
 10
9.9999997765
 20
-3.6251913636
 30
0.0
 40
2.286
 41
0.0
 71
     1
 72
     1
  1
PFL(PARENT FOCAL LENGTH): 50.8mm
  7
SLDTEXTSTYLE0
 73
     1
 44
1.0
  0
MTEXT
  5
9F
330
9A
100
AcDbEntity
  8
0
  6
Continuous
 62
     0
370
     0
100
AcDbMText
 10
65.476777032
 20
-3.5336285044
 30
0.0
 40
2.38125
 41
0.0
 71
     1
 72
     1
  1
±
  7
SLDTEXTSTYLE0
 73
     1
 44
1.0
  0
MTEXT
  5
A0
330
9A
100
AcDbEntity
  8
0
  6
Continuous
 62
     0
370
     0
100
AcDbMText
 10
67.2186147422
 20
-3.6251913636
 30
0.0
 40
2.286
 41
0.0
 71
     1
 72
     1
  1
1%
  7
SLDTEXTSTYLE0
 73
     1
 44
1.0
  0
MTEXT
  5
A1
330
9A
100
AcDbEntity
  8
0
  6
Continuous
 62
     0
370
     0
100
AcDbMText
 10
0.0
 20
-3.6251913636
 30
0.0
 40
2.286
 41
0.0
 71
     1
 72
     1
  1
1.
  7
SLDTEXTSTYLE0
 73
     1
 44
1.0
  0
MTEXT
  5
A2
330
9A
100
AcDbEntity
  8
0
  6
Continuous
 62
     0
370
     0
100
AcDbMText
 10
9.9999997765
 20
-6.9424121986
 30
0.0
 40
2.286
 41
0.0
 71
     1
 72
     1
  1
REFLECTED FOCAL LENGTH: 101.6mm
  7
SLDTEXTSTYLE0
 73
     1
 44
1.0
  0
MTEXT
  5
A3
330
9A
100
AcDbEntity
  8
0
  6
Continuous
 62
     0
370
     0
100
AcDbMText
 10
64.8163761944
 20
-6.8508493395
 30
0.0
 40
2.38125
 41
0.0
 71
     1
 72
     1
  1
±
  7
SLDTEXTSTYLE0
 73
     1
 44
1.0
  0
MTEXT
  5
A4
330
9A
100
AcDbEntity
  8
0
  6
Continuous
 62
     0
370
     0
100
AcDbMText
 10
66.5582176298
 20
-6.9424121986
 30
0.0
 40
2.286
 41
0.0
 71
     1
 72
     1
  1
1%
  7
SLDTEXTSTYLE0
 73
     1
 44
1.0
  0
MTEXT
  5
A5
330
9A
100
AcDbEntity
  8
0
  6
Continuous
 62
     0
370
     0
100
AcDbMText
 10
0.0
 20
-6.9424121986
 30
0.0
 40
2.286
 41
0.0
 71
     1
 72
     1
  1
2.
  7
SLDTEXTSTYLE0
 73
     1
 44
1.0
  0
MTEXT
  5
A6
330
9A
100
AcDbEntity
  8
0
  6
Continuous
 62
     0
370
     0
100
AcDbMText
 10
9.9999997765
 20
-10.2596330336
 30
0.0
 40
2.286
 41
0.0
 71
     1
 72
     1
  1
CLEAR APERTURE: >90% OF DIAMETER
  7
SLDTEXTSTYLE0
 73
     1
 44
1.0
  0
MTEXT
  5
A7
330
9A
100
AcDbEntity
  8
0
  6
Continuous
 62
     0
370
     0
100
AcDbMText
 10
0.0
 20
-10.2596330336
 30
0.0
 40
2.286
 41
0.0
 71
     1
 72
     1
  1
3.
  7
SLDTEXTSTYLE0
 73
     1
 44
1.0
  0
MTEXT
  5
A8
330
9A
100
AcDbEntity
  8
0
  6
Continuous
 62
     0
370
     0
100
AcDbMText
 10
9.9999997765
 20
-13.545633142
 30
0.0
 40
2.286
 41
0.0
 71
     1
 72
     1
  1
SURFACE IRREGULARITY: 0.25
  7
SLDTEXTSTYLE0
 73
     1
 44
1.0
  0
MTEXT
  5
AA
330
9A
100
AcDbEntity
  8
0
  6
Continuous
 62
     0
370
     0
100
AcDbMText
 10
51.6369510442
 20
-13.5996081164
 30
0.0
 40
2.286
 41
0.0
 71
     1
 72
     1
  1
l
  7
SLDTEXTSTYLE2
 73
     1
 44
1.0
  0
MTEXT
  5
AB
330
9A
100
AcDbEntity
  8
0
  6
Continuous
 62
     0
370
     0
100
AcDbMText
 10
54.3039507965
 20
-13.545633142
 30
0.0
 40
2.286
 41
0.0
 71
     1
 72
     1
  1
@ 633nm
  7
SLDTEXTSTYLE0
 73
     1
 44
1.0
  0
MTEXT
  5
AC
330
9A
100
AcDbEntity
  8
0
  6
Continuous
 62
     0
370
     0
100
AcDbMText
 10
0.0
 20
-13.545633142
 30
0.0
 40
2.286
 41
0.0
 71
     1
 72
     1
  1
4.
  7
SLDTEXTSTYLE0
 73
     1
 44
1.0
  0
MTEXT
  5
AD
330
9A
100
AcDbEntity
  8
0
  6
Continuous
 62
     0
370
     0
100
AcDbMText
 10
9.9999997765
 20
-16.8856082829
 30
0.0
 40
2.286
 41
0.0
 71
     1
 72
     1
  1
SURFACE QUALITY: 40-20 SCRATCH-DIG
  7
SLDTEXTSTYLE0
 73
     1
 44
1.0
  0
MTEXT
  5
AE
330
9A
100
AcDbEntity
  8
0
  6
Continuous
 62
     0
370
     0
100
AcDbMText
 10
0.0
 20
-16.8856082829
 30
0.0
 40
2.286
 41
0.0
 71
     1
 72
     1
  1
5.
  7
SLDTEXTSTYLE0
 73
     1
 44
1.0
  0
MTEXT
  5
AF
330
9A
100
AcDbEntity
  8
0
  6
Continuous
 62
     0
370
     0
100
AcDbMText
 10
9.9999997765
 20
-20.1716083913
 30
0.0
 40
2.286
 41
0.0
 71
     1
 72
     1
  1
SURFACE ROUGHNESS: <100A RMS
  7
SLDTEXTSTYLE0
 73
     1
 44
1.0
  0
MTEXT
  5
B0
330
9A
100
AcDbEntity
  8
0
  6
Continuous
 62
     0
370
     0
100
AcDbMText
 10
0.0
 20
-20.1716083913
 30
0.0
 40
2.286
 41
0.0
 71
     1
 72
     1
  1
6.
  7
SLDTEXTSTYLE0
 73
     1
 44
1.0
  0
MTEXT
  5
B1
330
9A
100
AcDbEntity
  8
0
  6
Continuous
 62
     0
370
     0
100
AcDbMText
 10
9.9999997765
 20
-23.4576084996
 30
0.0
 40
2.286
 41
0.0
 71
     1
 72
     1
  1
COATING (PARABOLIC SURFACE): PROTECTED
  7
SLDTEXTSTYLE0
 73
     1
 44
1.0
  0
MTEXT
  5
B2
330
9A
100
AcDbEntity
  8
0
  6
Continuous
 62
     0
370
     0
100
AcDbMText
 10
0.0
 20
-23.4576084996
 30
0.0
 40
2.286
 41
0.0
 71
     1
 72
     1
  1
7.
  7
SLDTEXTSTYLE0
 73
     1
 44
1.0
  0
MTEXT
  5
B3
330
9A
100
AcDbEntity
  8
0
  6
Continuous
 62
     0
370
     0
100
AcDbMText
 10
9.9999997765
 20
-26.743608608
 30
0.0
 40
2.286
 41
0.0
 71
     1
 72
     1
  1
ALUMINUM
  7
SLDTEXTSTYLE0
 73
     1
 44
1.0
  0
MTEXT
  5
B4
330
9A
100
AcDbEntity
  8
0
  6
Continuous
 62
     0
370
     0
100
AcDbMText
 10
10.0
 20
-30.0255616999
 30
0.0
 40
2.3
 41
0.0
 71
     1
 72
     1
  1
Ravg>90% FROM 450nm - 2
  7
SLDTEXTSTYLE0
 73
     1
 44
1.0
  0
MTEXT
  5
B6
330
9A
100
AcDbEntity
  8
0
  6
Continuous
 62
     0
370
     0
100
AcDbMText
 10
50.144585073
 20
-29.9479430222
 30
0.0
 40
2.38125
 41
0.0
 71
     1
 72
     1
  1
\M+183CAm, Ravg >95% 2 -
  7
SLDTEXTSTYLE3
 73
     1
 44
1.0
  0
MTEXT
  5
B7
330
9A
100
AcDbEntity
  8
0
  6
Continuous
 62
     0
370
     0
100
AcDbMText
 10
79.0282657743
 20
-30.0255616999
 30
0.0
 40
2.3
 41
0.0
 71
     1
 72
     1
  1
20
  7
SLDTEXTSTYLE0
 73
     1
 44
1.0
  0
MTEXT
  5
B9
330
9A
100
AcDbEntity
  8
0
  6
Continuous
 62
     0
370
     0
100
AcDbMText
 10
82.4271535873
 20
-29.9479430222
 30
0.0
 40
2.38125
 41
0.0
 71
     1
 72
     1
  1
\M+183CAm
  7
SLDTEXTSTYLE4
 73
     1
 44
1.0
  0
MTEXT
  5
BA
330
9A
100
AcDbEntity
  8
0
  6
Continuous
 62
     0
370
     0
100
AcDbMText
 10
9.9999997765
 20
-33.3567267163
 30
0.0
 40
2.286
 41
0.0
 71
     1
 72
     1
  1
BLACK ANODIZED FINISH (NON-OPTICAL SURFACES)
  7
SLDTEXTSTYLE0
 73
     1
 44
1.0
  0
MTEXT
  5
BB
330
9A
100
AcDbEntity
  8
0
  6
Continuous
 62
     0
370
     0
100
AcDbMText
 10
0.0
 20
-33.3567267163
 30
0.0
 40
2.286
 41
0.0
 71
     1
 72
     1
  1
8.
  7
SLDTEXTSTYLE0
 73
     1
 44
1.0
  0
ENDBLK
  5
9C
330
9A
100
AcDbEntity
  8
0
100
AcDbBlockEnd
  0
BLOCK
  5
184
330
183
100
AcDbEntity
  8
0
100
AcDbBlockBegin
  2
_D
 70
     0
 10
0.0
 20
0.0
 30
0.0
  3
_D
  1

  0
SOLID
  5
186
330
183
100
AcDbEntity
  8
0
  6
Continuous
 62
     7
370
     0
100
AcDbTrace
 10
84.5634123546
 20
203.4786350119
 30
0.0
 11
87.7384123546
 21
202.9706350119
 31
0.0
 12
87.7384123546
 22
203.9866350119
 32
0.0
 13
87.7384123546
 23
203.9866350119
 33
0.0
  0
SOLID
  5
187
330
183
100
AcDbEntity
  8
0
  6
Continuous
 62
     7
370
     0
100
AcDbTrace
 10
186.1634123546
 20
203.4786350119
 30
0.0
 11
182.9884123546
 21
203.9866350119
 31
0.0
 12
182.9884123546
 22
202.9706350119
 32
0.0
 13
182.9884123546
 23
202.9706350119
 33
0.0
  0
LINE
  5
188
330
183
100
AcDbEntity
  8
0
  6
Continuous
 62
     7
370
     0
100
AcDbLine
 10
127.455380566
 20
204.907518677
 30
0.0
 11
127.455380566
 21
202.0497513467
 31
0.0
  0
LINE
  5
189
330
183
100
AcDbEntity
  8
0
  6
Continuous
 62
     7
370
     0
100
AcDbLine
 10
127.455380566
 20
202.0497513467
 30
0.0
 11
127.8841636792
 21
202.0497513467
 31
0.0
  0
LINE
  5
18A
330
183
100
AcDbEntity
  8
0
  6
Continuous
 62
     7
370
     0
100
AcDbLine
 10
127.455380566
 20
204.907518677
 30
0.0
 11
127.8841636792
 21
204.907518677
 31
0.0
  0
LINE
  5
18B
330
183
100
AcDbEntity
  8
0
  6
Continuous
 62
     7
370
     0
100
AcDbLine
 10
136.9253244311
 20
204.907518677
 30
0.0
 11
136.9253244311
 21
202.0497513467
 31
0.0
  0
LINE
  5
18C
330
183
100
AcDbEntity
  8
0
  6
Continuous
 62
     7
370
     0
100
AcDbLine
 10
136.9253244311
 20
202.0497513467
 30
0.0
 11
136.4965413179
 21
202.0497513467
 31
0.0
  0
LINE
  5
18D
330
183
100
AcDbEntity
  8
0
  6
Continuous
 62
     7
370
     0
100
AcDbLine
 10
136.9253244311
 20
204.907518677
 30
0.0
 11
136.4965413179
 21
204.907518677
 31
0.0
  0
LINE
  5
18E
330
183
100
AcDbEntity
  8
0
  6
Continuous
 62
     7
370
     0
100
AcDbLine
 10
84.5634123546
 20
200.2046852727
 30
0.0
 11
84.5634123546
 21
205.2566350119
 31
0.0
  0
LINE
  5
18F
330
183
100
AcDbEntity
  8
0
  6
Continuous
 62
     7
370
     0
100
AcDbLine
 10
186.1634123546
 20
200.2046852727
 30
0.0
 11
186.1634123546
 21
205.2566350119
 31
0.0
  0
LINE
  5
190
330
183
100
AcDbEntity
  8
0
  6
Continuous
 62
     7
370
     0
100
AcDbLine
 10
84.5634123546
 20
203.4786350119
 30
0.0
 11
112.1278076234
 21
203.4786350119
 31
0.0
  0
LINE
  5
191
330
183
100
AcDbEntity
  8
0
  6
Continuous
 62
     7
370
     0
100
AcDbLine
 10
186.1634123546
 20
203.4786350119
 30
0.0
 11
152.2528973737
 21
203.4786350119
 31
0.0
  0
MTEXT
  5
192
330
183
100
AcDbEntity
  8
0
  6
Continuous
 62
     7
370
     0
100
AcDbMText
 10
126.0274147851
 20
207.8882012174
 30
0.0
 40
2.1166666667
 41
0.0
 71
     1
 72
     1
  1
101.6mm
  7
SLDTEXTSTYLE0
 73
     1
 44
1.0
  0
MTEXT
  5
193
330
183
100
AcDbEntity
  8
0
  6
Continuous
 62
     7
370
     0
100
AcDbMText
 10
114.5416213683
 20
201.164042793
 30
0.0
 40
2.1166666667
 41
0.0
 71
     1
 72
     1
  1
REFLECTED FOCAL LENGTH
  7
SLDTEXTSTYLE0
 73
     1
 44
1.0
  0
MTEXT
  5
194
330
183
100
AcDbEntity
  8
0
  6
Continuous
 62
     7
370
     0
100
AcDbMText
 10
128.3129467925
 20
204.5261220052
 30
0.0
 40
2.1166666667
 41
0.0
 71
     1
 72
     1
  1
4.00in
  7
SLDTEXTSTYLE0
 73
     1
 44
1.0
  0
ENDBLK
  5
185
330
183
100
AcDbEntity
  8
0
100
AcDbBlockEnd
  0
BLOCK
  5
197
330
196
100
AcDbEntity
  8
0
100
AcDbBlockBegin
  2
_D_1
 70
     0
 10
0.0
 20
0.0
 30
0.0
  3
_D_1
  1

  0
SOLID
  5
199
330
196
100
AcDbEntity
  8
0
  6
Continuous
 62
     7
370
     0
100
AcDbTrace
 10
55.7106527541
 20
193.9984352727
 30
0.0
 11
55.2026527541
 21
190.8234352727
 31
0.0
 12
56.2186527541
 22
190.8234352727
 32
0.0
 13
56.2186527541
 23
190.8234352727
 33
0.0
  0
SOLID
  5
19A
330
196
100
AcDbEntity
  8
0
  6
Continuous
 62
     7
370
     0
100
AcDbTrace
 10
55.7106527541
 20
162.2446852727
 30
0.0
 11
56.2186527541
 21
165.4196852727
 31
0.0
 12
55.2026527541
 22
165.4196852727
 32
0.0
 13
55.2026527541
 23
165.4196852727
 33
0.0
  0
LINE
  5
19B
330
196
100
AcDbEntity
  8
0
  6
Continuous
 62
     7
370
     0
100
AcDbLine
 10
50.9756808215
 20
177.8079846207
 30
0.0
 11
50.9756808215
 21
174.9502172904
 31
0.0
  0
LINE
  5
19C
330
196
100
AcDbEntity
  8
0
  6
Continuous
 62
     7
370
     0
100
AcDbLine
 10
50.9756808215
 20
174.9502172904
 30
0.0
 11
51.4044639347
 21
174.9502172904
 31
0.0
  0
LINE
  5
19D
330
196
100
AcDbEntity
  8
0
  6
Continuous
 62
     7
370
     0
100
AcDbLine
 10
50.9756808215
 20
177.8079846207
 30
0.0
 11
51.4044639347
 21
177.8079846207
 31
0.0
  0
LINE
  5
19E
330
196
100
AcDbEntity
  8
0
  6
Continuous
 62
     7
370
     0
100
AcDbLine
 10
60.4456246867
 20
177.8079846207
 30
0.0
 11
60.4456246867
 21
174.9502172904
 31
0.0
  0
LINE
  5
19F
330
196
100
AcDbEntity
  8
0
  6
Continuous
 62
     7
370
     0
100
AcDbLine
 10
60.4456246867
 20
174.9502172904
 30
0.0
 11
60.0168415734
 21
174.9502172904
 31
0.0
  0
LINE
  5
1A0
330
196
100
AcDbEntity
  8
0
  6
Continuous
 62
     7
370
     0
100
AcDbLine
 10
60.4456246867
 20
177.8079846207
 30
0.0
 11
60.0168415734
 21
177.8079846207
 31
0.0
  0
LINE
  5
1A1
330
196
100
AcDbEntity
  8
0
  6
Continuous
 62
     7
370
     0
100
AcDbLine
 10
70.5934123546
 20
193.9984352727
 30
0.0
 11
53.9326527541
 21
193.9984352727
 31
0.0
  0
LINE
  5
1A2
330
196
100
AcDbEntity
  8
0
  6
Continuous
 62
     7
370
     0
100
AcDbLine
 10
70.5934123546
 20
162.2446852727
 30
0.0
 11
53.9326527541
 21
162.2446852727
 31
0.0
  0
LINE
  5
1A3
330
196
100
AcDbEntity
  8
0
  6
Continuous
 62
     7
370
     0
100
AcDbLine
 10
55.7106527541
 20
193.9984352727
 30
0.0
 11
55.7106527541
 21
181.4222197738
 31
0.0
  0
LINE
  5
1A4
330
196
100
AcDbEntity
  8
0
  6
Continuous
 62
     7
370
     0
100
AcDbLine
 10
55.7106527541
 20
162.2446852727
 30
0.0
 11
55.7106527541
 21
174.6980613494
 31
0.0
  0
MTEXT
  5
1A5
330
196
100
AcDbEntity
  8
0
  6
Continuous
 62
     7
370
     0
100
AcDbMText
 10
50.3292279933
 20
180.788667161
 30
0.0
 40
2.1166666667
 41
0.0
 71
     1
 72
     1
  1
31.8mm
  7
SLDTEXTSTYLE0
 73
     1
 44
1.0
  0
MTEXT
  5
1A6
330
196
100
AcDbEntity
  8
0
  6
Continuous
 62
     7
370
     0
100
AcDbMText
 10
51.833247048
 20
177.4265879489
 30
0.0
 40
2.1166666667
 41
0.0
 71
     1
 72
     1
  1
1.25in
  7
SLDTEXTSTYLE0
 73
     1
 44
1.0
  0
ENDBLK
  5
198
330
196
100
AcDbEntity
  8
0
100
AcDbBlockEnd
  0
BLOCK
  5
1A9
330
1A8
100
AcDbEntity
  8
0
100
AcDbBlockBegin
  2
_D_2
 70
     0
 10
0.0
 20
0.0
 30
0.0
  3
_D_2
  1

  0
SOLID
  5
1AB
330
1A8
100
AcDbEntity
  8
0
  6
Continuous
 62
     7
370
     0
100
AcDbTrace
 10
207.8486703878
 20
129.7046852727
 30
0.0
 11
208.3566703878
 21
132.8796852727
 31
0.0
 12
207.3406703878
 22
132.8796852727
 32
0.0
 13
207.3406703878
 23
132.8796852727
 33
0.0
  0
SOLID
  5
1AC
330
1A8
100
AcDbEntity
  8
0
  6
Continuous
 62
     7
370
     0
100
AcDbTrace
 10
207.8486703878
 20
180.5046852727
 30
0.0
 11
207.3406703878
 21
177.3296852727
 31
0.0
 12
208.3566703878
 22
177.3296852727
 32
0.0
 13
208.3566703878
 23
177.3296852727
 33
0.0
  0
LINE
  5
1AD
330
1A8
100
AcDbEntity
  8
0
  6
Continuous
 62
     7
370
     0
100
AcDbLine
 10
203.1136984552
 20
158.242460985
 30
0.0
 11
203.1136984552
 21
155.3846936546
 31
0.0
  0
LINE
  5
1AE
330
1A8
100
AcDbEntity
  8
0
  6
Continuous
 62
     7
370
     0
100
AcDbLine
 10
203.1136984552
 20
155.3846936546
 30
0.0
 11
203.5424815684
 21
155.3846936546
 31
0.0
  0
LINE
  5
1AF
330
1A8
100
AcDbEntity
  8
0
  6
Continuous
 62
     7
370
     0
100
AcDbLine
 10
203.1136984552
 20
158.242460985
 30
0.0
 11
203.5424815684
 21
158.242460985
 31
0.0
  0
LINE
  5
1B0
330
1A8
100
AcDbEntity
  8
0
  6
Continuous
 62
     7
370
     0
100
AcDbLine
 10
212.5836423204
 20
158.242460985
 30
0.0
 11
212.5836423204
 21
155.3846936546
 31
0.0
  0
LINE
  5
1B1
330
1A8
100
AcDbEntity
  8
0
  6
Continuous
 62
     7
370
     0
100
AcDbLine
 10
212.5836423204
 20
155.3846936546
 30
0.0
 11
212.1548592071
 21
155.3846936546
 31
0.0
  0
LINE
  5
1B2
330
1A8
100
AcDbEntity
  8
0
  6
Continuous
 62
     7
370
     0
100
AcDbLine
 10
212.5836423204
 20
158.242460985
 30
0.0
 11
212.1548592071
 21
158.242460985
 31
0.0
  0
LINE
  5
1B3
330
1A8
100
AcDbEntity
  8
0
  6
Continuous
 62
     7
370
     0
100
AcDbLine
 10
187.4334123546
 20
129.7046852727
 30
0.0
 11
209.6266703878
 21
129.7046852727
 31
0.0
  0
LINE
  5
1B4
330
1A8
100
AcDbEntity
  8
0
  6
Continuous
 62
     7
370
     0
100
AcDbLine
 10
187.4334123546
 20
180.5046852727
 30
0.0
 11
209.6266703878
 21
180.5046852727
 31
0.0
  0
LINE
  5
1B5
330
1A8
100
AcDbEntity
  8
0
  6
Continuous
 62
     7
370
     0
100
AcDbLine
 10
207.8486703878
 20
129.7046852727
 30
0.0
 11
207.8486703878
 21
148.4083792894
 31
0.0
  0
LINE
  5
1B6
330
1A8
100
AcDbEntity
  8
0
  6
Continuous
 62
     7
370
     0
100
AcDbLine
 10
207.8486703878
 20
180.5046852727
 30
0.0
 11
207.8486703878
 21
161.8566961381
 31
0.0
  0
MTEXT
  5
1B7
330
1A8
100
AcDbEntity
  8
0
  6
Continuous
 62
     7
370
     0
100
AcDbMText
 10
202.4672456269
 20
161.2231435253
 30
0.0
 40
2.1166666667
 41
0.0
 71
     1
 72
     1
  1
50.8mm
  7
SLDTEXTSTYLE0
 73
     1
 44
1.0
  0
MTEXT
  5
1B8
330
1A8
100
AcDbEntity
  8
0
  6
Continuous
 62
     7
370
     0
100
AcDbMText
 10
195.1604484852
 20
154.498985101
 30
0.0
 40
2.1166666667
 41
0.0
 71
     1
 72
     1
  1
FOCAL LENGTH OF
  7
SLDTEXTSTYLE0
 73
     1
 44
1.0
  0
MTEXT
  5
1B9
330
1A8
100
AcDbEntity
  8
0
  6
Continuous
 62
     7
370
     0
100
AcDbMText
 10
195.2037201755
 20
151.1369058888
 30
0.0
 40
2.1166666667
 41
0.0
 71
     1
 72
     1
  1
PARENT PARABOLA
  7
SLDTEXTSTYLE0
 73
     1
 44
1.0
  0
MTEXT
  5
1BA
330
1A8
100
AcDbEntity
  8
0
  6
Continuous
 62
     7
370
     0
100
AcDbMText
 10
203.9712646817
 20
157.8610643132
 30
0.0
 40
2.1166666667
 41
0.0
 71
     1
 72
     1
  1
2.00in
  7
SLDTEXTSTYLE0
 73
     1
 44
1.0
  0
ENDBLK
  5
1AA
330
1A8
100
AcDbEntity
  8
0
100
AcDbBlockEnd
  0
BLOCK
  5
1BE
330
1BD
100
AcDbEntity
  8
0
100
AcDbBlockBegin
  2
_D_3
 70
     0
 10
0.0
 20
0.0
 30
0.0
  3
_D_3
  1

  0
SOLID
  5
1C0
330
1BD
100
AcDbEntity
  8
0
  6
Continuous
 62
     7
370
     0
100
AcDbTrace
 10
99.8363039549
 20
162.2446852727
 30
0.0
 11
99.3283039549
 21
159.0696852727
 31
0.0
 12
100.3443039549
 22
159.0696852727
 32
0.0
 13
100.3443039549
 23
159.0696852727
 33
0.0
  0
SOLID
  5
1C1
330
1BD
100
AcDbEntity
  8
0
  6
Continuous
 62
     7
370
     0
100
AcDbTrace
 10
99.8363039549
 20
168.5984352727
 30
0.0
 11
100.3443039549
 21
171.7734352727
 31
0.0
 12
99.3283039549
 22
171.7734352727
 32
0.0
 13
99.3283039549
 23
171.7734352727
 33
0.0
  0
LINE
  5
1C2
330
1BD
100
AcDbEntity
  8
0
  6
Continuous
 62
     7
370
     0
100
AcDbLine
 10
107.3796864162
 20
177.8079846207
 30
0.0
 11
107.3796864162
 21
174.9502172904
 31
0.0
  0
LINE
  5
1C3
330
1BD
100
AcDbEntity
  8
0
  6
Continuous
 62
     7
370
     0
100
AcDbLine
 10
107.3796864162
 20
174.9502172904
 30
0.0
 11
107.8084695294
 21
174.9502172904
 31
0.0
  0
LINE
  5
1C4
330
1BD
100
AcDbEntity
  8
0
  6
Continuous
 62
     7
370
     0
100
AcDbLine
 10
107.3796864162
 20
177.8079846207
 30
0.0
 11
107.8084695294
 21
177.8079846207
 31
0.0
  0
LINE
  5
1C5
330
1BD
100
AcDbEntity
  8
0
  6
Continuous
 62
     7
370
     0
100
AcDbLine
 10
116.8496302814
 20
177.8079846207
 30
0.0
 11
116.8496302814
 21
174.9502172904
 31
0.0
  0
LINE
  5
1C6
330
1BD
100
AcDbEntity
  8
0
  6
Continuous
 62
     7
370
     0
100
AcDbLine
 10
116.8496302814
 20
174.9502172904
 30
0.0
 11
116.4208471681
 21
174.9502172904
 31
0.0
  0
LINE
  5
1C7
330
1BD
100
AcDbEntity
  8
0
  6
Continuous
 62
     7
370
     0
100
AcDbLine
 10
116.8496302814
 20
177.8079846207
 30
0.0
 11
116.4208471681
 21
177.8079846207
 31
0.0
  0
LINE
  5
1C8
330
1BD
100
AcDbEntity
  8
0
  6
Continuous
 62
     7
370
     0
100
AcDbLine
 10
98.5334123546
 20
162.2446852727
 30
0.0
 11
101.6143039549
 21
162.2446852727
 31
0.0
  0
LINE
  5
1C9
330
1BD
100
AcDbEntity
  8
0
  6
Continuous
 62
     7
370
     0
100
AcDbLine
 10
98.5334123546
 20
168.5984352727
 30
0.0
 11
101.6143039549
 21
168.5984352727
 31
0.0
  0
LINE
  5
1CA
330
1BD
100
AcDbEntity
  8
0
  6
Continuous
 62
     7
370
     0
100
AcDbLine
 10
103.6463039549
 20
178.0601405616
 30
0.0
 11
99.8363039549
 21
178.0601405616
 31
0.0
  0
LINE
  5
1CB
330
1BD
100
AcDbEntity
  8
0
  6
Continuous
 62
     7
370
     0
100
AcDbLine
 10
99.8363039549
 20
178.0601405616
 30
0.0
 11
99.8363039549
 21
168.5984352727
 31
0.0
  0
LINE
  5
1CC
330
1BD
100
AcDbEntity
  8
0
  6
Continuous
 62
     7
370
     0
100
AcDbLine
 10
99.8363039549
 20
162.2446852727
 30
0.0
 11
99.8363039549
 21
155.8946852727
 31
0.0
  0
MTEXT
  5
1CD
330
1BD
100
AcDbEntity
  8
0
  6
Continuous
 62
     7
370
     0
100
AcDbMText
 10
107.5160578039
 20
180.788667161
 30
0.0
 40
2.1166666667
 41
0.0
 71
     1
 72
     1
  1
6.4mm
  7
SLDTEXTSTYLE0
 73
     1
 44
1.0
  0
MTEXT
  5
1CE
330
1BD
100
AcDbEntity
  8
0
  6
Continuous
 62
     7
370
     0
100
AcDbMText
 10
108.2372526427
 20
177.4265879489
 30
0.0
 40
2.1166666667
 41
0.0
 71
     1
 72
     1
  1
0.25in
  7
SLDTEXTSTYLE0
 73
     1
 44
1.0
  0
ENDBLK
  5
1BF
330
1BD
100
AcDbEntity
  8
0
100
AcDbBlockEnd
  0
BLOCK
  5
1D1
330
1D0
100
AcDbEntity
  8
0
100
AcDbBlockBegin
  2
_D_4
 70
     0
 10
0.0
 20
0.0
 30
0.0
  3
_D_4
  1

  0
SOLID
  5
1D3
330
1D0
100
AcDbEntity
  8
0
  6
Continuous
 62
     7
370
     0
100
AcDbTrace
 10
78.2134123546
 20
152.2446852727
 30
0.0
 11
75.0384123546
 21
152.7526852727
 31
0.0
 12
75.0384123546
 22
151.7366852727
 32
0.0
 13
75.0384123546
 23
151.7366852727
 33
0.0
  0
SOLID
  5
1D4
330
1D0
100
AcDbEntity
  8
0
  6
Continuous
 62
     7
370
     0
100
AcDbTrace
 10
90.9134123546
 20
152.2446852727
 30
0.0
 11
94.0884123546
 21
151.7366852727
 31
0.0
 12
94.0884123546
 22
152.7526852727
 32
0.0
 13
94.0884123546
 23
152.7526852727
 33
0.0
  0
LINE
  5
1D5
330
1D0
100
AcDbEntity
  8
0
  6
Continuous
 62
     7
370
     0
100
AcDbLine
 10
57.2999535983
 20
151.9925293317
 30
0.0
 11
57.2999535983
 21
149.1347620014
 31
0.0
  0
LINE
  5
1D6
330
1D0
100
AcDbEntity
  8
0
  6
Continuous
 62
     7
370
     0
100
AcDbLine
 10
57.2999535983
 20
149.1347620014
 30
0.0
 11
57.7287367116
 21
149.1347620014
 31
0.0
  0
LINE
  5
1D7
330
1D0
100
AcDbEntity
  8
0
  6
Continuous
 62
     7
370
     0
100
AcDbLine
 10
57.2999535983
 20
151.9925293317
 30
0.0
 11
57.7287367116
 21
151.9925293317
 31
0.0
  0
LINE
  5
1D8
330
1D0
100
AcDbEntity
  8
0
  6
Continuous
 62
     7
370
     0
100
AcDbLine
 10
66.7698974635
 20
151.9925293317
 30
0.0
 11
66.7698974635
 21
149.1347620014
 31
0.0
  0
LINE
  5
1D9
330
1D0
100
AcDbEntity
  8
0
  6
Continuous
 62
     7
370
     0
100
AcDbLine
 10
66.7698974635
 20
149.1347620014
 30
0.0
 11
66.3411143502
 21
149.1347620014
 31
0.0
  0
LINE
  5
1DA
330
1D0
100
AcDbEntity
  8
0
  6
Continuous
 62
     7
370
     0
100
AcDbLine
 10
66.7698974635
 20
151.9925293317
 30
0.0
 11
66.3411143502
 21
151.9925293317
 31
0.0
  0
LINE
  5
1DB
330
1D0
100
AcDbEntity
  8
0
  6
Continuous
 62
     7
370
     0
100
AcDbLine
 10
78.2134123546
 20
160.9746852727
 30
0.0
 11
78.2134123546
 21
150.4666852727
 31
0.0
  0
LINE
  5
1DC
330
1D0
100
AcDbEntity
  8
0
  6
Continuous
 62
     7
370
     0
100
AcDbLine
 10
90.9134123546
 20
160.9746852727
 30
0.0
 11
90.9134123546
 21
150.4666852727
 31
0.0
  0
LINE
  5
1DD
330
1D0
100
AcDbEntity
  8
0
  6
Continuous
 62
     7
370
     0
100
AcDbLine
 10
78.2134123546
 20
152.2446852727
 30
0.0
 11
70.7736624262
 21
152.2446852727
 31
0.0
  0
LINE
  5
1DE
330
1D0
100
AcDbEntity
  8
0
  6
Continuous
 62
     7
370
     0
100
AcDbLine
 10
90.9134123546
 20
152.2446852727
 30
0.0
 11
97.2634123546
 21
152.2446852727
 31
0.0
  0
MTEXT
  5
1DF
330
1D0
100
AcDbEntity
  8
0
  6
Continuous
 62
     7
370
     0
100
AcDbMText
 10
55.1405651246
 20
154.9732118721
 30
0.0
 40
2.1166666667
 41
0.0
 71
     1
 72
     1
  1
%%c
  7
SLDTEXTSTYLE0
 73
     1
 44
1.0
  0
MTEXT
  5
1E0
330
1D0
100
AcDbEntity
  8
0
  6
Continuous
 62
     7
370
     0
100
AcDbMText
 10
58.1664364155
 20
154.9732118721
 30
0.0
 40
2.1166666667
 41
0.0
 71
     1
 72
     1
  1
12.7mm
  7
SLDTEXTSTYLE0
 73
     1
 44
1.0
  0
MTEXT
  5
1E1
330
1D0
100
AcDbEntity
  8
0
  6
Continuous
 62
     7
370
     0
100
AcDbMText
 10
58.1575198248
 20
151.6111326599
 30
0.0
 40
2.1166666667
 41
0.0
 71
     1
 72
     1
  1
0.50in
  7
SLDTEXTSTYLE0
 73
     1
 44
1.0
  0
ENDBLK
  5
1D2
330
1D0
100
AcDbEntity
  8
0
100
AcDbBlockEnd
  0
BLOCK
  5
1E4
330
1E3
100
AcDbEntity
  8
0
100
AcDbBlockBegin
  2
_D_5
 70
     0
 10
0.0
 20
0.0
 30
0.0
  3
_D_5
  1

  0
SOLID
  5
1E6
330
1E3
100
AcDbEntity
  8
0
  6
Continuous
 62
     7
370
     0
100
AcDbTrace
 10
43.7107234427
 20
162.8796852727
 30
0.0
 11
44.2187234427
 21
166.0546852727
 31
0.0
 12
43.2027234427
 22
166.0546852727
 32
0.0
 13
43.2027234427
 23
166.0546852727
 33
0.0
  0
SOLID
  5
1E7
330
1E3
100
AcDbEntity
  8
0
  6
Continuous
 62
     7
370
     0
100
AcDbTrace
 10
43.7107234427
 20
162.2446852727
 30
0.0
 11
43.2027234427
 21
159.0696852727
 31
0.0
 12
44.2187234427
 22
159.0696852727
 32
0.0
 13
44.2187234427
 23
159.0696852727
 33
0.0
  0
LINE
  5
1E8
330
1E3
100
AcDbEntity
  8
0
  6
Continuous
 62
     7
370
     0
100
AcDbLine
 10
23.3650565038
 20
170.5086107229
 30
0.0
 11
22.935843544
 21
170.5086107229
 31
0.0
  0
LINE
  5
1E9
330
1E3
100
AcDbEntity
  8
0
  6
Continuous
 62
     7
370
     0
100
AcDbLine
 10
22.935843544
 20
170.5086107229
 30
0.0
 11
22.935843544
 21
167.1454626464
 31
0.0
  0
LINE
  5
1EA
330
1E3
100
AcDbEntity
  8
0
  6
Continuous
 62
     7
370
     0
100
AcDbLine
 10
22.935843544
 20
167.1454626464
 30
0.0
 11
23.3650565038
 21
167.1454626464
 31
0.0
  0
LINE
  5
1EB
330
1E3
100
AcDbEntity
  8
0
  6
Continuous
 62
     7
370
     0
100
AcDbLine
 10
32.195280493
 20
170.5086107229
 30
0.0
 11
32.6244934527
 21
170.5086107229
 31
0.0
  0
LINE
  5
1EC
330
1E3
100
AcDbEntity
  8
0
  6
Continuous
 62
     7
370
     0
100
AcDbLine
 10
32.6244934527
 20
170.5086107229
 30
0.0
 11
32.6244934527
 21
167.1454626464
 31
0.0
  0
LINE
  5
1ED
330
1E3
100
AcDbEntity
  8
0
  6
Continuous
 62
     7
370
     0
100
AcDbLine
 10
32.6244934527
 20
167.1454626464
 30
0.0
 11
32.195280493
 21
167.1454626464
 31
0.0
  0
LINE
  5
1EE
330
1E3
100
AcDbEntity
  8
0
  6
Continuous
 62
     7
370
     0
100
AcDbLine
 10
76.9434123546
 20
162.8796852727
 30
0.0
 11
41.9327234427
 21
162.8796852727
 31
0.0
  0
LINE
  5
1EF
330
1E3
100
AcDbEntity
  8
0
  6
Continuous
 62
     7
370
     0
100
AcDbLine
 10
76.9434123546
 20
162.2446852727
 30
0.0
 11
41.9327234427
 21
162.2446852727
 31
0.0
  0
LINE
  5
1F0
330
1E3
100
AcDbEntity
  8
0
  6
Continuous
 62
     7
370
     0
100
AcDbLine
 10
39.9007234427
 20
170.5086109557
 30
0.0
 11
43.7107234427
 21
170.5086109557
 31
0.0
  0
LINE
  5
1F1
330
1E3
100
AcDbEntity
  8
0
  6
Continuous
 62
     7
370
     0
100
AcDbLine
 10
43.7107234427
 20
170.5086109557
 30
0.0
 11
43.7107234427
 21
162.8796852727
 31
0.0
  0
LINE
  5
1F2
330
1E3
100
AcDbEntity
  8
0
  6
Continuous
 62
     7
370
     0
100
AcDbLine
 10
43.7107234427
 20
162.2446852727
 30
0.0
 11
43.7107234427
 21
155.8946852727
 31
0.0
  0
MTEXT
  5
1F3
330
1E3
100
AcDbEntity
  8
0
  6
Continuous
 62
     7
370
     0
100
AcDbMText
 10
22.3219120358
 20
173.6663503694
 30
-1.3661624879
 40
2.1166666667
 41
0.0
 71
     1
 72
     1
  1
0.6mm
  7
SLDTEXTSTYLE0
 73
     1
 44
1.0
  0
MTEXT
  5
1F4
330
1E3
100
AcDbEntity
  8
0
  6
Continuous
 62
     7
370
     0
100
AcDbMText
 10
23.9015727252
 20
169.8739892459
 30
-1.3661624879
 40
2.1166666667
 41
0.0
 71
     1
 72
     1
  1
0.03in
  7
SLDTEXTSTYLE0
 73
     1
 44
1.0
  0
MTEXT
  5
1F5
330
1E3
100
AcDbEntity
  8
0
  6
Continuous
 62
     7
370
     0
100
AcDbMText
 10
34.0321744953
 20
173.6663503694
 30
-1.3661624879
 40
2.1166666667
 41
0.0
 71
     1
 72
     1
  1
REF
  7
SLDTEXTSTYLE0
 73
     1
 44
1.0
  0
ENDBLK
  5
1E5
330
1E3
100
AcDbEntity
  8
0
100
AcDbBlockEnd
  0
BLOCK
  5
1F8
330
1F7
100
AcDbEntity
  8
0
100
AcDbBlockBegin
  2
_D_6
 70
     0
 10
0.0
 20
0.0
 30
0.0
  3
_D_6
  1

  0
SOLID
  5
1FA
330
1F7
100
AcDbEntity
  8
0
  6
Continuous
 62
     7
370
     0
100
AcDbTrace
 10
145.5159786633
 20
162.2446852727
 30
0.0
 11
145.0079786633
 21
159.0696852727
 31
0.0
 12
146.0239786633
 22
159.0696852727
 32
0.0
 13
146.0239786633
 23
159.0696852727
 33
0.0
  0
SOLID
  5
1FB
330
1F7
100
AcDbEntity
  8
0
  6
Continuous
 62
     7
370
     0
100
AcDbTrace
 10
145.5159786633
 20
180.5046852727
 30
0.0
 11
146.0239786633
 21
183.6796852727
 31
0.0
 12
145.0079786633
 22
183.6796852727
 32
0.0
 13
145.0079786633
 23
183.6796852727
 33
0.0
  0
LINE
  5
1FC
330
1F7
100
AcDbEntity
  8
0
  6
Continuous
 62
     7
370
     0
100
AcDbLine
 10
141.1008669015
 20
172.426125928
 30
0.0
 11
140.6716539418
 21
172.426125928
 31
0.0
  0
LINE
  5
1FD
330
1F7
100
AcDbEntity
  8
0
  6
Continuous
 62
     7
370
     0
100
AcDbLine
 10
140.6716539418
 20
172.426125928
 30
0.0
 11
140.6716539418
 21
169.0629778515
 31
0.0
  0
LINE
  5
1FE
330
1F7
100
AcDbEntity
  8
0
  6
Continuous
 62
     7
370
     0
100
AcDbLine
 10
140.6716539418
 20
169.0629778515
 30
0.0
 11
141.1008669015
 21
169.0629778515
 31
0.0
  0
LINE
  5
1FF
330
1F7
100
AcDbEntity
  8
0
  6
Continuous
 62
     7
370
     0
100
AcDbLine
 10
149.9310908907
 20
172.426125928
 30
0.0
 11
150.3603038504
 21
172.426125928
 31
0.0
  0
LINE
  5
200
330
1F7
100
AcDbEntity
  8
0
  6
Continuous
 62
     7
370
     0
100
AcDbLine
 10
150.3603038504
 20
172.426125928
 30
0.0
 11
150.3603038504
 21
169.0629778515
 31
0.0
  0
LINE
  5
201
330
1F7
100
AcDbEntity
  8
0
  6
Continuous
 62
     7
370
     0
100
AcDbLine
 10
150.3603038504
 20
169.0629778515
 30
0.0
 11
149.9310908907
 21
169.0629778515
 31
0.0
  0
LINE
  5
202
330
1F7
100
AcDbEntity
  8
0
  6
Continuous
 62
     7
370
     0
100
AcDbLine
 10
98.5334123546
 20
162.2446852727
 30
0.0
 11
147.2939786633
 21
162.2446852727
 31
0.0
  0
LINE
  5
203
330
1F7
100
AcDbEntity
  8
0
  6
Continuous
 62
     7
370
     0
100
AcDbLine
 10
184.8934123546
 20
180.5046852727
 30
0.0
 11
143.7379786633
 21
180.5046852727
 31
0.0
  0
LINE
  5
204
330
1F7
100
AcDbEntity
  8
0
  6
Continuous
 62
     7
370
     0
100
AcDbLine
 10
145.5159786633
 20
162.2446852727
 30
0.0
 11
145.5159786633
 21
155.8946852727
 31
0.0
  0
LINE
  5
205
330
1F7
100
AcDbEntity
  8
0
  6
Continuous
 62
     7
370
     0
100
AcDbLine
 10
145.5159786633
 20
180.5046852727
 30
0.0
 11
145.5159786633
 21
186.8546852727
 31
0.0
  0
MTEXT
  5
206
330
1F7
100
AcDbEntity
  8
0
  6
Continuous
 62
     7
370
     0
100
AcDbMText
 10
139.3031696758
 20
175.5838655744
 30
-1.3661624879
 40
2.1166666667
 41
0.0
 71
     1
 72
     1
  1

  7
SLDTEXTSTYLE0
 73
     1
 44
1.0
  0
MTEXT
  5
207
330
1F7
100
AcDbEntity
  8
0
  6
Continuous
 62
     7
370
     0
100
AcDbMText
 10
139.2757313801
 20
175.5838655744
 30
-1.3661624879
 40
2.1166666667
 41
0.0
 71
     1
 72
     1
  1
18.3mm
  7
SLDTEXTSTYLE0
 73
     1
 44
1.0
  0
MTEXT
  5
208
330
1F7
100
AcDbEntity
  8
0
  6
Continuous
 62
     7
370
     0
100
AcDbMText
 10
141.637383123
 20
171.7915044509
 30
-1.3661624879
 40
2.1166666667
 41
0.0
 71
     1
 72
     1
  1
0.72in
  7
SLDTEXTSTYLE0
 73
     1
 44
1.0
  0
MTEXT
  5
209
330
1F7
100
AcDbEntity
  8
0
  6
Continuous
 62
     7
370
     0
100
AcDbMText
 10
153.3437254807
 20
175.5838655744
 30
-1.3661624879
 40
2.1166666667
 41
0.0
 71
     1
 72
     1
  1

  7
SLDTEXTSTYLE0
 73
     1
 44
1.0
  0
ENDBLK
  5
1F9
330
1F7
100
AcDbEntity
  8
0
100
AcDbBlockEnd
  0
BLOCK
  5
21C
330
21B
100
AcDbEntity
  8
0
100
AcDbBlockBegin
  2
_D_7
 70
     0
 10
0.0
 20
0.0
 30
0.0
  3
_D_7
  1

  0
ARC
  5
21E
330
21B
100
AcDbEntity
  8
0
  6
Continuous
 62
     7
370
     0
100
AcDbCircle
 10
84.5634123546
 20
98.8783685744
 30
0.0
 40
21.33117771250026
100
AcDbArc
 50
60.0
 51
111.783303839
  0
ARC
  5
21F
330
21B
100
AcDbEntity
  8
0
  6
Continuous
 62
     7
370
     0
100
AcDbCircle
 10
84.5634123546
 20
98.8783685744
 30
0.0
 40
21.33117771250026
100
AcDbArc
 50
139.0326062725
 51
180.0
  0
SOLID
  5
220
330
21B
100
AcDbEntity
  8
0
  6
Continuous
 62
     7
370
     0
100
AcDbTrace
 10
95.2290012109
 20
117.351710366
 30
0.0
 11
92.590528733
 21
119.1894132755
 31
0.0
 12
92.1488603046
 22
118.274435134
 32
0.0
 13
92.1488603046
 23
118.274435134
 33
0.0
  0
SOLID
  5
221
330
21B
100
AcDbEntity
  8
0
  6
Continuous
 62
     7
370
     0
100
AcDbTrace
 10
63.2322346421
 20
98.8783685744
 30
0.0
 11
63.9732020055
 21
102.0072112304
 31
0.0
 12
62.9599734769
 22
102.0822042221
 32
0.0
 13
62.9599734769
 23
102.0822042221
 33
0.0
  0
LINE
  5
222
330
21B
100
AcDbEntity
  8
0
  6
Continuous
 62
     7
370
     0
100
AcDbLine
 10
87.1827873546
 20
103.4152591584
 30
0.0
 11
96.1180012109
 21
118.891503534
 31
0.0
  0
LINE
  5
223
330
21B
100
AcDbEntity
  8
0
  6
Continuous
 62
     7
370
     0
100
AcDbLine
 10
79.3246623546
 20
98.8783685744
 30
0.0
 11
61.4542346421
 21
98.8783685744
 31
0.0
  0
MTEXT
  5
224
330
21B
100
AcDbEntity
  8
0
  6
Continuous
 62
     7
370
     0
100
AcDbMText
 10
69.2405841155
 20
118.9543222177
 30
0.0
 40
2.1166666667
 41
0.0
 71
     1
 72
     1
  1
120°
  7
SLDTEXTSTYLE0
 73
     1
 44
1.0
  0
MTEXT
  5
225
330
21B
100
AcDbEntity
  8
0
  6
Continuous
 62
     7
370
     0
100
AcDbMText
 10
69.8865991507
 20
115.5922430055
 30
0.0
 40
2.1166666667
 41
0.0
 71
     1
 72
     1
  1
TYP.
  7
SLDTEXTSTYLE0
 73
     1
 44
1.0
  0
ENDBLK
  5
21D
330
21B
100
AcDbEntity
  8
0
100
AcDbBlockEnd
  0
BLOCK
  5
229
330
228
100
AcDbEntity
  8
0
100
AcDbBlockBegin
  2
_D_8
 70
     0
 10
0.0
 20
0.0
 30
0.0
  3
_D_8
  1

  0
SOLID
  5
22B
330
228
100
AcDbEntity
  8
0
  6
Continuous
 62
     7
370
     0
100
AcDbTrace
 10
96.8297272482
 20
95.5878490211
 30
0.0
 11
99.7646851895
 21
94.274566537
 31
0.0
 12
100.0279267538
 22
95.2558717285
 32
0.0
 13
100.0279267538
 23
95.2558717285
 33
0.0
  0
LINE
  5
22C
330
228
100
AcDbEntity
  8
0
  6
Continuous
 62
     7
370
     0
100
AcDbLine
 10
113.7145555511
 20
90.8488781161
 30
0.0
 11
113.7145555511
 21
87.9911107857
 31
0.0
  0
LINE
  5
22D
330
228
100
AcDbEntity
  8
0
  6
Continuous
 62
     7
370
     0
100
AcDbLine
 10
113.7145555511
 20
87.9911107857
 30
0.0
 11
114.1433386643
 21
87.9911107857
 31
0.0
  0
LINE
  5
22E
330
228
100
AcDbEntity
  8
0
  6
Continuous
 62
     7
370
     0
100
AcDbLine
 10
113.7145555511
 20
90.8488781161
 30
0.0
 11
114.1433386643
 21
90.8488781161
 31
0.0
  0
LINE
  5
22F
330
228
100
AcDbEntity
  8
0
  6
Continuous
 62
     7
370
     0
100
AcDbLine
 10
123.1844994162
 20
90.8488781161
 30
0.0
 11
123.1844994162
 21
87.9911107857
 31
0.0
  0
LINE
  5
230
330
228
100
AcDbEntity
  8
0
  6
Continuous
 62
     7
370
     0
100
AcDbLine
 10
123.1844994162
 20
87.9911107857
 30
0.0
 11
122.755716303
 21
87.9911107857
 31
0.0
  0
LINE
  5
231
330
228
100
AcDbEntity
  8
0
  6
Continuous
 62
     7
370
     0
100
AcDbLine
 10
123.1844994162
 20
90.8488781161
 30
0.0
 11
122.755716303
 21
90.8488781161
 31
0.0
  0
LINE
  5
232
330
228
100
AcDbEntity
  8
0
  6
Continuous
 62
     7
370
     0
100
AcDbLine
 10
96.8297272482
 20
95.5878490211
 30
0.0
 11
107.2890250899
 21
92.7820736631
 31
0.0
  0
LINE
  5
233
330
228
100
AcDbEntity
  8
0
  6
Continuous
 62
     7
370
     0
100
AcDbLine
 10
107.2890250899
 20
92.7820736631
 30
0.0
 11
111.0990250899
 21
92.7820736631
 31
0.0
  0
MTEXT
  5
234
330
228
100
AcDbEntity
  8
0
  6
Continuous
 62
     7
370
     0
100
AcDbMText
 10
112.8569893246
 20
93.8295606564
 30
0.0
 40
2.1166666667
 41
0.0
 71
     1
 72
     1
  1
%%c
  7
SLDTEXTSTYLE0
 73
     1
 44
1.0
  0
MTEXT
  5
235
330
228
100
AcDbEntity
  8
0
  6
Continuous
 62
     7
370
     0
100
AcDbMText
 10
115.8828606155
 20
93.8295606564
 30
0.0
 40
2.1166666667
 41
0.0
 71
     1
 72
     1
  1
25.4mm
  7
SLDTEXTSTYLE0
 73
     1
 44
1.0
  0
MTEXT
  5
236
330
228
100
AcDbEntity
  8
0
  6
Continuous
 62
     7
370
     0
100
AcDbMText
 10
114.5721217776
 20
90.4674814442
 30
0.0
 40
2.1166666667
 41
0.0
 71
     1
 72
     1
  1
1.00in
  7
SLDTEXTSTYLE0
 73
     1
 44
1.0
  0
ENDBLK
  5
22A
330
228
100
AcDbEntity
  8
0
100
AcDbBlockEnd
  0
BLOCK
  5
239
330
238
100
AcDbEntity
  8
0
100
AcDbBlockBegin
  2
_D_9
 70
     0
 10
0.0
 20
0.0
 30
0.0
  3
_D_9
  1

  0
SOLID
  5
23B
330
238
100
AcDbEntity
  8
0
  6
Continuous
 62
     7
370
     0
100
AcDbTrace
 10
84.5634123546
 20
77.2361770555
 30
0.0
 11
81.3884123546
 21
77.7441770555
 31
0.0
 12
81.3884123546
 22
76.7281770555
 32
0.0
 13
81.3884123546
 23
76.7281770555
 33
0.0
  0
SOLID
  5
23C
330
238
100
AcDbEntity
  8
0
  6
Continuous
 62
     7
370
     0
100
AcDbTrace
 10
94.0884123546
 20
77.2361770555
 30
0.0
 11
97.2634123546
 21
76.7281770555
 31
0.0
 12
97.2634123546
 22
77.7441770555
 32
0.0
 13
97.2634123546
 23
77.7441770555
 33
0.0
  0
LINE
  5
23D
330
238
100
AcDbEntity
  8
0
  6
Continuous
 62
     7
370
     0
100
AcDbLine
 10
105.3278310526
 20
76.9840211146
 30
0.0
 11
105.3278310526
 21
74.1262537842
 31
0.0
  0
LINE
  5
23E
330
238
100
AcDbEntity
  8
0
  6
Continuous
 62
     7
370
     0
100
AcDbLine
 10
105.3278310526
 20
74.1262537842
 30
0.0
 11
105.7566141658
 21
74.1262537842
 31
0.0
  0
LINE
  5
23F
330
238
100
AcDbEntity
  8
0
  6
Continuous
 62
     7
370
     0
100
AcDbLine
 10
105.3278310526
 20
76.9840211146
 30
0.0
 11
105.7566141658
 21
76.9840211146
 31
0.0
  0
LINE
  5
240
330
238
100
AcDbEntity
  8
0
  6
Continuous
 62
     7
370
     0
100
AcDbLine
 10
114.7977749178
 20
76.9840211146
 30
0.0
 11
114.7977749178
 21
74.1262537842
 31
0.0
  0
LINE
  5
241
330
238
100
AcDbEntity
  8
0
  6
Continuous
 62
     7
370
     0
100
AcDbLine
 10
114.7977749178
 20
74.1262537842
 30
0.0
 11
114.3689918045
 21
74.1262537842
 31
0.0
  0
LINE
  5
242
330
238
100
AcDbEntity
  8
0
  6
Continuous
 62
     7
370
     0
100
AcDbLine
 10
114.7977749178
 20
76.9840211146
 30
0.0
 11
114.3689918045
 21
76.9840211146
 31
0.0
  0
LINE
  5
243
330
238
100
AcDbEntity
  8
0
  6
Continuous
 62
     7
370
     0
100
AcDbLine
 10
84.5634123546
 20
96.3383685744
 30
0.0
 11
84.5634123546
 21
75.4581770555
 31
0.0
  0
LINE
  5
244
330
238
100
AcDbEntity
  8
0
  6
Continuous
 62
     7
370
     0
100
AcDbLine
 10
94.0884123546
 20
96.3383685744
 30
0.0
 11
94.0884123546
 21
75.4581770555
 31
0.0
  0
LINE
  5
245
330
238
100
AcDbEntity
  8
0
  6
Continuous
 62
     7
370
     0
100
AcDbLine
 10
84.5634123546
 20
77.2361770555
 30
0.0
 11
78.2134123546
 21
77.2361770555
 31
0.0
  0
LINE
  5
246
330
238
100
AcDbEntity
  8
0
  6
Continuous
 62
     7
370
     0
100
AcDbLine
 10
94.0884123546
 20
77.2361770555
 30
0.0
 11
102.4533260812
 21
77.2361770555
 31
0.0
  0
MTEXT
  5
247
330
238
100
AcDbEntity
  8
0
  6
Continuous
 62
     7
370
     0
100
AcDbMText
 10
105.4642024403
 20
79.9647036549
 30
0.0
 40
2.1166666667
 41
0.0
 71
     1
 72
     1
  1
9.5mm
  7
SLDTEXTSTYLE0
 73
     1
 44
1.0
  0
MTEXT
  5
248
330
238
100
AcDbEntity
  8
0
  6
Continuous
 62
     7
370
     0
100
AcDbMText
 10
106.1853972791
 20
76.6026244428
 30
0.0
 40
2.1166666667
 41
0.0
 71
     1
 72
     1
  1
0.38in
  7
SLDTEXTSTYLE0
 73
     1
 44
1.0
  0
ENDBLK
  5
23A
330
238
100
AcDbEntity
  8
0
100
AcDbBlockEnd
  0
BLOCK
  5
24B
330
24A
100
AcDbEntity
  8
0
100
AcDbBlockBegin
  2
_D_10
 70
     0
 10
0.0
 20
0.0
 30
0.0
  3
_D_10
  1

  0
SOLID
  5
24D
330
24A
100
AcDbEntity
  8
0
  6
Continuous
 62
     7
370
     0
100
AcDbTrace
 10
74.4736777393
 20
97.8992603555
 30
0.0
 11
72.4472959124
 21
95.4027696802
 31
0.0
 12
73.3273931878
 22
94.8951430597
 32
0.0
 13
73.3273931878
 23
94.8951430597
 33
0.0
  0
LINE
  5
24E
330
24A
100
AcDbEntity
  8
0
  6
Continuous
 62
     7
370
     0
100
AcDbLine
 10
74.4736777393
 20
97.8992603555
 30
0.0
 11
69.9371719815
 21
90.0340968756
 31
0.0
  0
LINE
  5
24F
330
24A
100
AcDbEntity
  8
0
  6
Continuous
 62
     7
370
     0
100
AcDbLine
 10
69.9371719815
 20
90.0340968756
 30
0.0
 11
66.1271719815
 21
90.0340968756
 31
0.0
  0
MTEXT
  5
250
330
24A
100
AcDbEntity
  8
0
  6
Continuous
 62
     7
370
     0
100
AcDbMText
 10
18.1314397361
 20
87.7195046568
 30
0.0
 40
2.1166666667
 41
0.0
 71
     1
 72
     1
  1
LOCATED ON A
  7
SLDTEXTSTYLE0
 73
     1
 44
1.0
  0
MTEXT
  5
251
330
24A
100
AcDbEntity
  8
0
  6
Continuous
 62
     7
370
     0
100
AcDbMText
 10
40.0624584164
 20
87.7195046568
 30
0.0
 40
2.1166666667
 41
0.0
 71
     1
 72
     1
  1
%%c
  7
SLDTEXTSTYLE0
 73
     1
 44
1.0
  0
MTEXT
  5
252
330
24A
100
AcDbEntity
  8
0
  6
Continuous
 62
     7
370
     0
100
AcDbMText
 10
43.2574499156
 20
87.7195046568
 30
0.0
 40
2.1166666667
 41
0.0
 71
     1
 72
     1
  1
19.1mm [0.75in]
  7
SLDTEXTSTYLE0
 73
     1
 44
1.0
  0
MTEXT
  5
253
330
24A
100
AcDbEntity
  8
0
  6
Continuous
 62
     7
370
     0
100
AcDbMText
 10
38.4979819839
 20
91.081583869
 30
0.0
 40
2.1166666667
 41
0.0
 71
     1
 72
     1
  1
4-40 TAPPED HOLES
  7
SLDTEXTSTYLE0
 73
     1
 44
1.0
  0
ENDBLK
  5
24C
330
24A
100
AcDbEntity
  8
0
100
AcDbBlockEnd
  0
BLOCK
  5
257
330
256
100
AcDbEntity
  8
0
100
AcDbBlockBegin
  2
_D_11
 70
     0
 10
0.0
 20
0.0
 30
0.0
  3
_D_11
  1

  0
SOLID
  5
259
330
256
100
AcDbEntity
  8
0
  6
Continuous
 62
     7
370
     0
100
AcDbTrace
 10
94.8851534566
 20
100.2587893214
 30
0.0
 11
96.9122618661
 21
102.7546900599
 31
0.0
 12
96.0323123859
 22
103.2625728341
 32
0.0
 13
96.0323123859
 23
103.2625728341
 33
0.0
  0
LINE
  5
25A
330
256
100
AcDbEntity
  8
0
  6
Continuous
 62
     7
370
     0
100
AcDbLine
 10
94.8851534566
 20
100.2587893214
 30
0.0
 11
102.7258286553
 21
113.8434163569
 31
0.0
  0
LINE
  5
25B
330
256
100
AcDbEntity
  8
0
  6
Continuous
 62
     7
370
     0
100
AcDbLine
 10
102.7258286553
 20
113.8434163569
 30
0.0
 11
106.5358286553
 21
113.8434163569
 31
0.0
  0
MTEXT
  5
25C
330
256
100
AcDbEntity
  8
0
  6
Continuous
 62
     7
370
     0
100
AcDbMText
 10
108.1233286553
 20
108.1667449259
 30
0.0
 40
2.1166666667
 41
0.0
 71
     1
 72
     1
  1
2 PLACES
  7
SLDTEXTSTYLE0
 73
     1
 44
1.0
  0
MTEXT
  5
25D
330
256
100
AcDbEntity
  8
0
  6
Continuous
 62
     7
370
     0
100
AcDbMText
 10
108.1233286553
 20
114.8909033503
 30
0.0
 40
2.1166666667
 41
0.0
 71
     1
 72
     1
  1
%%c
  7
SLDTEXTSTYLE0
 73
     1
 44
1.0
  0
MTEXT
  5
25E
330
256
100
AcDbEntity
  8
0
  6
Continuous
 62
     7
370
     0
100
AcDbMText
 10
111.318319456
 20
114.8909033503
 30
0.0
 40
2.1166666667
 41
0.0
 71
     1
 72
     1
  1
3.2mm [0.13in]
  7
SLDTEXTSTYLE0
 73
     1
 44
1.0
  0
INSERT
  5
266
330
256
100
AcDbEntity
  8
0
  6
Continuous
 62
     7
370
     0
100
AcDbBlockReference
  2
SW_SYMBOL_HOLE_DEPTH
 10
108.1233286553
 20
109.0938195577
 30
0.0
 41
0.0027037109
 42
0.0027037109
 43
0.0027037109
  0
MTEXT
  5
267
330
256
100
AcDbEntity
  8
0
  6
Continuous
 62
     7
370
     0
100
AcDbMText
 10
111.1501619474
 20
111.5288241381
 30
0.0
 40
2.1166666667
 41
0.0
 71
     1
 72
     1
  1
3.2mm [0.13in]
  7
SLDTEXTSTYLE0
 73
     1
 44
1.0
  0
ENDBLK
  5
258
330
256
100
AcDbEntity
  8
0
100
AcDbBlockEnd
  0
BLOCK
  5
260
330
25F
100
AcDbEntity
  8
0
100
AcDbBlockBegin
  2
SW_SYMBOL_HOLE_DEPTH
 70
     0
 10
0.0
 20
0.0
 30
0.0
  3
SW_SYMBOL_HOLE_DEPTH
  1

  0
LINE
  5
262
330
25F
100
AcDbEntity
  8
0
  6
Continuous
 62
     0
370
     0
100
AcDbLine
 10
0.0
 20
875.0
 30
0.0
 11
800.0
 21
875.0
 31
0.0
  0
LINE
  5
263
330
25F
100
AcDbEntity
  8
0
  6
Continuous
 62
     0
370
     0
100
AcDbLine
 10
400.0
 20
875.0
 30
0.0
 11
400.0
 21
75.0
 31
0.0
  0
LINE
  5
264
330
25F
100
AcDbEntity
  8
0
  6
Continuous
 62
     0
370
     0
100
AcDbLine
 10
100.0
 20
555.0
 30
0.0
 11
400.0
 21
75.0
 31
0.0
  0
LINE
  5
265
330
25F
100
AcDbEntity
  8
0
  6
Continuous
 62
     0
370
     0
100
AcDbLine
 10
700.0
 20
555.0
 30
0.0
 11
400.0
 21
75.0
 31
0.0
  0
ENDBLK
  5
261
330
25F
100
AcDbEntity
  8
0
100
AcDbBlockEnd
  0
BLOCK
  5
269
330
268
100
AcDbEntity
  8
0
100
AcDbBlockBegin
  2
SW_CENTERMARKSYMBOL_0
 70
     0
 10
0.0
 20
0.0
 30
0.0
  3
SW_CENTERMARKSYMBOL_0
  1

  0
LINE
  5
26B
330
268
100
AcDbEntity
  8
0
  6
Continuous
 62
     0
370
     0
100
AcDbLine
 10
0.0
 20
0.0
 30
0.0
 11
0.0
 21
1.27
 31
0.0
  0
LINE
  5
26C
330
268
100
AcDbEntity
  8
0
  6
Continuous
 62
     0
370
     0
100
AcDbLine
 10
0.0
 20
0.0
 30
0.0
 11
-1.27
 21
0.0
 31
0.0
  0
LINE
  5
26D
330
268
100
AcDbEntity
  8
0
  6
Continuous
 62
     0
370
     0
100
AcDbLine
 10
0.0
 20
0.0
 30
0.0
 11
0.0
 21
-1.27
 31
0.0
  0
LINE
  5
26E
330
268
100
AcDbEntity
  8
0
  6
Continuous
 62
     0
370
     0
100
AcDbLine
 10
0.0
 20
0.0
 30
0.0
 11
1.27
 21
0.0
 31
0.0
  0
ENDBLK
  5
26A
330
268
100
AcDbEntity
  8
0
100
AcDbBlockEnd
  0
BLOCK
  5
271
330
270
100
AcDbEntity
  8
0
100
AcDbBlockBegin
  2
SW_CENTERMARKSYMBOL_1
 70
     0
 10
0.0
 20
0.0
 30
0.0
  3
SW_CENTERMARKSYMBOL_1
  1

  0
LINE
  5
273
330
270
100
AcDbEntity
  8
0
  6
Continuous
 62
     0
370
     0
100
AcDbLine
 10
0.0
 20
0.0
 30
0.0
 11
0.0
 21
1.27
 31
0.0
  0
LINE
  5
274
330
270
100
AcDbEntity
  8
0
  6
Continuous
 62
     0
370
     0
100
AcDbLine
 10
0.0
 20
0.0
 30
0.0
 11
-1.27
 21
0.0
 31
0.0
  0
LINE
  5
275
330
270
100
AcDbEntity
  8
0
  6
Continuous
 62
     0
370
     0
100
AcDbLine
 10
0.0
 20
0.0
 30
0.0
 11
0.0
 21
-1.27
 31
0.0
  0
LINE
  5
276
330
270
100
AcDbEntity
  8
0
  6
Continuous
 62
     0
370
     0
100
AcDbLine
 10
0.0
 20
0.0
 30
0.0
 11
1.27
 21
0.0
 31
0.0
  0
ENDBLK
  5
272
330
270
100
AcDbEntity
  8
0
100
AcDbBlockEnd
  0
BLOCK
  5
28F
330
28E
100
AcDbEntity
  8
0
100
AcDbBlockBegin
  2
SW_NOTE_5
 70
     0
 10
0.0
 20
0.0
 30
0.0
  3
SW_NOTE_5
  1

  0
MTEXT
  5
291
330
28E
100
AcDbEntity
  8
0
  6
Continuous
 62
     0
370
     0
100
AcDbMText
 10
0.5454554665
 20
0.8868189808
 30
0.0
 40
2.1166666667
 41
0.0
 71
     1
 72
     1
  1
PARABOLIC SURFACE
  7
SLDTEXTSTYLE0
 73
     1
 44
1.0
  0
MTEXT
  5
292
330
28E
100
AcDbEntity
  8
0
  6
Continuous
 62
     0
370
     0
100
AcDbMText
 10
0.5454554665
 20
-1.9354032073
 30
0.0
 40
2.1166666667
 41
0.0
 71
     1
 72
     1
  1
PROTECTED ALUMINUM COATED
  7
SLDTEXTSTYLE0
 73
     1
 44
1.0
  0
ENDBLK
  5
290
330
28E
100
AcDbEntity
  8
0
100
AcDbBlockEnd
  0
BLOCK
  5
296
330
295
100
AcDbEntity
  8
0
100
AcDbBlockBegin
  2
_DOT
 70
     0
 10
0.0
 20
0.0
 30
0.0
  3
_DOT
  1

  0
POLYLINE
  5
298
330
295
100
AcDbEntity
  8
0
  6
ByBlock
 62
     0
100
AcDb2dPolyline
 66
     1
 10
0.0
 20
0.0
 30
0.0
 70
     1
 40
0.5
 41
0.5
  0
VERTEX
  5
29A
330
298
100
AcDbEntity
  8
0
  6
ByBlock
 62
     0
100
AcDbVertex
100
AcDb2dVertex
 10
-0.25
 20
0.0
 30
0.0
 42
1.0
  0
VERTEX
  5
29B
330
298
100
AcDbEntity
  8
0
  6
ByBlock
 62
     0
100
AcDbVertex
100
AcDb2dVertex
 10
0.25
 20
0.0
 30
0.0
 42
1.0
  0
SEQEND
  5
29C
330
298
100
AcDbEntity
  8
0
  6
ByBlock
 62
     0
  0
LINE
  5
299
330
295
100
AcDbEntity
  8
0
  6
ByBlock
 62
     0
370
    -2
100
AcDbLine
 10
-0.5
 20
0.0
 30
0.0
 11
-1.0
 21
0.0
 31
0.0
  0
ENDBLK
  5
297
330
295
100
AcDbEntity
  8
0
100
AcDbBlockEnd
  0
BLOCK
  5
29F
330
29E
100
AcDbEntity
  8
0
100
AcDbBlockBegin
  2
SW_NOTE_6
 70
     0
 10
0.0
 20
0.0
 30
0.0
  3
SW_NOTE_6
  1

  0
MTEXT
  5
2A1
330
29E
100
AcDbEntity
  8
0
  6
Continuous
 62
     0
370
     0
100
AcDbMText
 10
0.5175861636
 20
1.0392557479
 30
0.0
 40
2.1166666667
 41
0.0
 71
     1
 72
     1
  1
4-40 TAP
  7
SLDTEXTSTYLE0
 73
     1
 44
1.0
  0
INSERT
  5
2A2
330
29E
100
AcDbEntity
  8
0
  6
Continuous
 62
     0
370
     0
100
AcDbBlockReference
  2
SW_SYMBOL_HOLE_DEPTH
 10
12.6688209468
 20
-1.3957488325
 30
0.0
 41
0.0027037109
 42
0.0027037109
 43
0.0027037109
  0
MTEXT
  5
2A3
330
29E
100
AcDbEntity
  8
0
  6
Continuous
 62
     0
370
     0
100
AcDbMText
 10
15.6956537733
 20
1.0392557479
 30
0.0
 40
2.1166666667
 41
0.0
 71
     1
 72
     1
  1
6.4mm [0.25in]
  7
SLDTEXTSTYLE0
 73
     1
 44
1.0
  0
MTEXT
  5
2A4
330
29E
100
AcDbEntity
  8
0
  6
Continuous
 62
     0
370
     0
100
AcDbMText
 10
0.5175861636
 20
-1.7829664402
 30
0.0
 40
2.1166666667
 41
0.0
 71
     1
 72
     1
  1
3 PLACES IN RADIAL PATTERN
  7
SLDTEXTSTYLE0
 73
     1
 44
1.0
  0
ENDBLK
  5
2A0
330
29E
100
AcDbEntity
  8
0
100
AcDbBlockEnd
  0
ENDSEC
  0
SECTION
  2
ENTITIES
  0
LINE
  5
52
330
1F
100
AcDbEntity
  8
0
  6
Continuous
 62
     7
370
     0
100
AcDbLine
 10
1.5793501011
 20
214.6453799966
 30
0.0
 11
277.9892068491
 21
214.6453799966
 31
0.0
  0
LINE
  5
53
330
1F
100
AcDbEntity
  8
0
  6
Continuous
 62
     7
370
     0
100
AcDbLine
 10
1.5793501011
 20
214.6453799966
 30
0.0
 11
1.5793501011
 21
0.9031642596
 31
0.0
  0
LINE
  5
54
330
1F
100
AcDbEntity
  8
0
  6
Continuous
 62
     7
370
     0
100
AcDbLine
 10
277.9892068491
 20
0.9031642596
 30
0.0
 11
1.5793501011
 21
0.9031642596
 31
0.0
  0
LINE
  5
55
330
1F
100
AcDbEntity
  8
0
  6
Continuous
 62
     7
370
     0
100
AcDbLine
 10
277.9892068491
 20
0.9031642596
 30
0.0
 11
277.9892068491
 21
214.6453799966
 31
0.0
  0
LINE
  5
56
330
1F
100
AcDbEntity
  8
0
  6
Continuous
 62
     7
370
     0
100
AcDbLine
 10
215.7427640041
 20
12.2958890132
 30
0.0
 11
171.6327596684
 21
12.2958890132
 31
0.0
  0
LINE
  5
57
330
1F
100
AcDbEntity
  8
0
  6
Continuous
 62
     7
370
     0
100
AcDbLine
 10
171.6327596684
 20
12.2958890132
 30
0.0
 11
171.6327596684
 21
26.1661402506
 31
0.0
  0
LINE
  5
58
330
1F
100
AcDbEntity
  8
0
  6
Continuous
 62
     7
370
     0
100
AcDbLine
 10
171.6327596684
 20
0.9031642596
 30
0.0
 11
171.6327596684
 21
26.1661402506
 31
0.0
  0
LINE
  5
59
330
1F
100
AcDbEntity
  8
0
  6
Continuous
 62
     7
370
     0
100
AcDbLine
 10
215.7427640041
 20
17.1604579552
 30
0.0
 11
277.9892068491
 21
17.1604579552
 31
0.0
  0
LINE
  5
5A
330
1F
100
AcDbEntity
  8
0
  6
Continuous
 62
     7
370
     0
100
AcDbLine
 10
215.7427640041
 20
35.2394508358
 30
0.0
 11
215.7427640041
 21
0.9031642596
 31
0.0
  0
LINE
  5
5B
330
1F
100
AcDbEntity
  8
0
  6
Continuous
 62
     7
370
     0
100
AcDbLine
 10
215.7427640041
 20
26.1661402506
 30
0.0
 11
171.6327596684
 21
26.1661402506
 31
0.0
  0
LINE
  5
5C
330
1F
100
AcDbEntity
  8
0
  6
Continuous
 62
     7
370
     0
100
AcDbLine
 10
215.7427640041
 20
9.1409200612
 30
0.0
 11
277.9892068491
 21
9.1409200612
 31
0.0
  0
LINE
  5
5D
330
1F
100
AcDbEntity
  8
0
  6
Continuous
 62
     7
370
     0
100
AcDbLine
 10
215.7427640041
 20
16.9216824031
 30
0.0
 11
171.6327596684
 21
16.9216824031
 31
0.0
  0
LINE
  5
5E
330
1F
100
AcDbEntity
  8
0
  6
Continuous
 62
     7
370
     0
100
AcDbLine
 10
215.7427640041
 20
21.4874005542
 30
0.0
 11
171.6327596684
 21
21.4874005542
 31
0.0
  0
LINE
  5
5F
330
1F
100
AcDbEntity
  8
0
  6
Continuous
 62
     7
370
     0
100
AcDbLine
 10
186.1338100705
 20
26.1661402506
 30
0.0
 11
186.1338100705
 21
12.2958890132
 31
0.0
  0
LINE
  5
60
330
1F
100
AcDbEntity
  8
0
  6
Continuous
 62
     7
370
     0
100
AcDbLine
 10
198.2145906188
 20
26.1661402506
 30
0.0
 11
198.2145906188
 21
12.2958890132
 31
0.0
  0
LINE
  5
61
330
1F
100
AcDbEntity
  8
0
  6
Continuous
 62
     7
370
     0
100
AcDbLine
 10
253.7490408369
 20
9.1409200612
 30
0.0
 11
253.7490408369
 21
0.9031642596
 31
0.0
  0
LINE
  5
62
330
1F
100
AcDbEntity
  8
0
  6
Continuous
 62
     7
370
     0
100
AcDbLine
 10
171.6327596684
 20
12.2958890132
 30
0.0
 11
171.6327596684
 21
7.5627342528
 31
0.0
  0
LINE
  5
63
330
1F
100
AcDbEntity
  8
0
  6
Continuous
 62
     7
370
     0
100
AcDbLine
 10
171.6327596684
 20
7.5627342528
 30
0.0
 11
215.7427640041
 21
7.5627342528
 31
0.0
  0
LINE
  5
64
330
1F
100
AcDbEntity
  8
0
  6
Continuous
 62
     7
370
     0
100
AcDbLine
 10
171.6327596684
 20
7.5627342528
 30
0.0
 11
171.6327596684
 21
35.2394508358
 31
0.0
  0
LINE
  5
65
330
1F
100
AcDbEntity
  8
0
  6
Continuous
 62
     7
370
     0
100
AcDbLine
 10
171.6327596684
 20
35.2394508358
 30
0.0
 11
215.7427640041
 21
35.2394508358
 31
0.0
  0
LINE
  5
66
330
1F
100
AcDbEntity
  8
0
  6
Continuous
 62
     7
370
     0
100
AcDbLine
 10
270.1683598194
 20
17.1604579552
 30
0.0
 11
270.1683598194
 21
9.1409200612
 31
0.0
  0
LINE
  5
67
330
1F
100
AcDbEntity
  8
0
  6
Continuous
 62
     7
370
     0
100
AcDbLine
 10
215.7427640041
 20
35.2394508358
 30
0.0
 11
277.9892068491
 21
35.2394508358
 31
0.0
  0
LINE
  5
68
330
1F
100
AcDbEntity
  8
0
  6
Continuous
 62
     7
370
     0
100
AcDbLine
 10
277.9892068491
 20
35.2394508358
 30
0.0
 11
277.9892068491
 21
50.0331356147
 31
0.0
  0
LINE
  5
69
330
1F
100
AcDbEntity
  8
0
  6
Continuous
 62
     7
370
     0
100
AcDbLine
 10
215.7427640041
 20
24.8927335446
 30
0.0
 11
277.9892068491
 21
24.8927335446
 31
0.0
  0
INSERT
  5
6A
330
1F
100
AcDbEntity
  8
0
  6
Continuous
 62
     7
100
AcDbBlockReference
  2
Third Angle Projection Block
 10
117.7262204235
 20
15.5162339489
 30
0.0
 41
0.8
 42
0.8
 43
0.8
  0
POINT
  5
6B
330
1F
100
AcDbEntity
  8
0
  6
Continuous
 62
     7
370
     0
100
AcDbPoint
 10
186.1634123546
 20
180.5046852727
 30
0.0
  0
MTEXT
  5
6D
330
1F
100
AcDbEntity
  8
0
  6
Continuous
 62
     7
370
     0
100
AcDbMText
 10
242.3743488307
 20
161.8795552182
 30
0.0
 40
2.1166666667
 41
0.0
 71
     1
 72
     1
  1
1:1 ISOMETRIC VIEW
  7
SLDTEXTSTYLE0
 73
     1
 44
1.0
  0
MTEXT
  5
6E
330
1F
100
AcDbEntity
  8
0
  6
Continuous
 62
     7
370
     0
100
AcDbMText
 10
172.3627544876
 20
113.2328971615
 30
0.0
 40
2.1166666667
 41
0.0
 71
     1
 72
     1
  1
SCALE: 1:1
  7
SLDTEXTSTYLE0
 73
     1
 44
1.0
  0
MTEXT
  5
6F
330
1F
100
AcDbEntity
  8
0
  6
Continuous
 62
     7
370
     0
100
AcDbMText
 10
273.7514466724
 20
13.1125292762
 30
0.0
 40
3.175
 41
0.0
 71
     2
 72
     1
  1
A
  7
SLDTEXTSTYLE0
 73
     1
 44
1.0
  0
MTEXT
  5
70
330
1F
100
AcDbEntity
  8
0
  6
Continuous
 62
     7
370
     0
100
AcDbMText
 10
234.6016196734
 20
5.1657920755
 30
0.0
 40
2.38125
 41
0.0
 71
     2
 72
     1
  1
MPD254508-90-G01
  7
SLDTEXTSTYLE0
 73
     1
 44
1.0
  0
MTEXT
  5
71
330
1F
100
AcDbEntity
  8
0
  6
Continuous
 62
     7
370
     0
100
AcDbMText
 10
216.4199766059
 20
16.8243178599
 30
0.0
 40
2.1166666667
 41
0.0
 71
     1
 72
     1
  1
MATERIAL
  7
SLDTEXTSTYLE0
 73
     1
 44
1.0
  0
MTEXT
  5
72
330
1F
100
AcDbEntity
  8
0
  6
Continuous
 62
     7
370
     0
100
AcDbMText
 10
174.230946566
 20
20.054553926
 30
0.0
 40
1.8520833333
 41
0.0
 71
     1
 72
     1
  1
DRAWN
  7
SLDTEXTSTYLE0
 73
     1
 44
1.0
  0
MTEXT
  5
73
330
1F
100
AcDbEntity
  8
0
  6
Continuous
 62
     7
370
     0
100
AcDbMText
 10
172.3960124543
 20
15.5787169747
 30
0.0
 40
1.8520833333
 41
0.0
 71
     1
 72
     1
  1
APPROVAL
  7
SLDTEXTSTYLE0
 73
     1
 44
1.0
  0
MTEXT
  5
74
330
1F
100
AcDbEntity
  8
0
  6
Continuous
 62
     7
370
     0
100
AcDbMText
 10
271.321689486
 20
16.0237652193
 30
0.0
 40
2.1166666667
 41
0.0
 71
     1
 72
     1
  1
REV
  7
SLDTEXTSTYLE0
 73
     1
 44
1.0
  0
MTEXT
  5
75
330
1F
100
AcDbEntity
  8
0
  6
Continuous
 62
     7
370
     0
100
AcDbMText
 10
190.2958696448
 20
20.3177146903
 30
0.0
 40
2.1166666667
 41
0.0
 71
     1
 72
     1
  1
MG
  7
SLDTEXTSTYLE0
 73
     1
 44
1.0
  0
MTEXT
  5
76
330
1F
100
AcDbEntity
  8
0
  6
Continuous
 62
     7
370
     0
100
AcDbMText
 10
199.8662436873
 20
20.3177146903
 30
0.0
 40
2.1166666667
 41
0.0
 71
     1
 72
     1
  1
25/JULY/12
  7
SLDTEXTSTYLE0
 73
     1
 44
1.0
  0
MTEXT
  5
77
330
1F
100
AcDbEntity
  8
0
  6
Continuous
 62
     7
370
     0
100
AcDbMText
 10
203.6145073853
 20
24.8221395769
 30
0.0
 40
2.1166666667
 41
0.0
 71
     1
 72
     1
  1
DATE
  7
SLDTEXTSTYLE0
 73
     1
 44
1.0
  0
MTEXT
  5
79
330
1F
100
AcDbEntity
  8
0
  6
Continuous
 62
     7
370
     0
100
AcDbMText
 10
229.402906477
 20
27.7957480569
 30
0.0
 40
2.1166666667
 41
0.0
 71
     1
 72
     1
  1
w w w . t h o r  l a b s . c o m
  7
SLDTEXTSTYLE1
 73
     1
 44
1.0
  0
MTEXT
  5
7A
330
1F
100
AcDbEntity
  8
0
  6
Continuous
 62
     7
370
     0
100
AcDbMText
 10
216.7004035316
 20
8.3494791871
 30
0.0
 40
2.1166666667
 41
0.0
 71
     1
 72
     1
  1
ITEM #
  7
SLDTEXTSTYLE0
 73
     1
 44
1.0
  0
MTEXT
  5
7B
330
1F
100
AcDbEntity
  8
0
  6
Continuous
 62
     7
370
     0
100
AcDbMText
 10
254.5318000914
 20
8.3494791871
 30
0.0
 40
2.1166666667
 41
0.0
 71
     1
 72
     1
  1
APPROX WEIGHT
  7
SLDTEXTSTYLE0
 73
     1
 44
1.0
  0
MTEXT
  5
7C
330
1F
100
AcDbEntity
  8
0
  6
Continuous
 62
     7
370
     0
100
AcDbMText
 10
243.4275635722
 20
13.1476649618
 30
0.0
 40
2.38125
 41
0.0
 71
     2
 72
     1
  1
6061-T6 ALUMINUM
  7
SLDTEXTSTYLE0
 73
     1
 44
1.0
  0
MTEXT
  5
7D
330
1F
100
AcDbEntity
  8
0
  6
Continuous
 62
     7
370
     0
100
AcDbMText
 10
266.1678480997
 20
5.1306563898
 30
0.0
 40
3.175
 41
0.0
 71
     2
 72
     1
  1
0.01 kg
  7
SLDTEXTSTYLE0
 73
     1
 44
1.0
  0
INSERT
  5
83
330
1F
100
AcDbEntity
  8
0
  6
Continuous
 62
     7
370
     0
100
AcDbBlockReference
  2
SW_NOTE_0
 10
174.8430140051
 20
4.4558554801
 30
0.0
  0
INSERT
  5
89
330
1F
100
AcDbEntity
  8
0
  6
Continuous
 62
     7
370
     0
100
AcDbBlockReference
  2
SW_NOTE_1
 10
174.5483650337
 20
30.4835322715
 30
0.0
  0
MTEXT
  5
8A
330
1F
100
AcDbEntity
  8
0
  6
Continuous
 62
     7
370
     0
100
AcDbMText
 10
187.9273588276
 20
24.8221395769
 30
0.0
 40
2.1166666667
 41
0.0
 71
     1
 72
     1
  1
NAME
  7
SLDTEXTSTYLE0
 73
     1
 44
1.0
  0
INSERT
  5
90
330
1F
100
AcDbEntity
  8
0
  6
Continuous
 62
     7
370
     0
100
AcDbBlockReference
  2
SW_NOTE_2
 10
58.6204667508
 20
8.1776609732
 30
0.0
  0
MTEXT
  5
91
330
1F
100
AcDbEntity
  8
0
  6
Continuous
 62
     7
370
     0
100
AcDbMText
 10
179.1174811218
 20
10.6680638482
 30
0.0
 40
1.5875
 41
0.0
 71
     1
 72
     1
  1
COPYRIGHT © 2012 BY THORLABS
  7
SLDTEXTSTYLE0
 73
     1
 44
1.0
  0
INSERT
  5
99
330
1F
100
AcDbEntity
  8
0
  6
Continuous
 62
     7
370
     0
100
AcDbBlockReference
  2
SW_NOTE_3
 10
220.3914404209
 20
20.6862828027
 30
0.0
  0
INSERT
  5
BC
330
1F
100
AcDbEntity
  8
0
  6
Continuous
 62
     7
370
     0
100
AcDbBlockReference
  2
SW_NOTE_4
 10
8.6190902456
 20
62.1918079206
 30
0.0
  0
MTEXT
  5
BD
330
1F
100
AcDbEntity
  8
0
  6
Continuous
 62
     7
370
     0
100
AcDbMText
 10
200.0683547231
 20
15.4831058933
 30
0.0
 40
2.1166666667
 41
0.0
 71
     1
 72
     1
  1
30/JULY/12
  7
SLDTEXTSTYLE0
 73
     1
 44
1.0
  0
MTEXT
  5
BE
330
1F
100
AcDbEntity
  8
0
  6
Continuous
 62
     7
370
     0
100
AcDbMText
 10
190.4979806805
 20
15.4831058933
 30
0.0
 40
2.1166666667
 41
0.0
 71
     1
 72
     1
  1
DD
  7
SLDTEXTSTYLE0
 73
     1
 44
1.0
  0
LINE
  5
BF
330
1F
100
AcDbEntity
  8
0
  6
CENTERX2
 62
     7
100
AcDbLine
 10
84.5634123546
 20
198.9346852727
 30
0.0
 11
84.5634123546
 21
162.2446852727
 31
0.0
  0
LINE
  5
C0
330
1F
100
AcDbEntity
  8
0
  6
CENTERX2
 62
     7
100
AcDbLine
 10
186.1634123546
 20
198.9346852727
 30
0.0
 11
186.1634123546
 21
129.7046852727
 31
0.0
  0
LWPOLYLINE
  5
C1
330
1F
100
AcDbEntity
  8
0
  6
Continuous
 62
     7
100
AcDbPolyline
 90
       28
 70
   128
 43
0.0
 10
186.1634123546
 20
129.7046852727
 10
182.0812694975
 20
129.7866926068
 10
177.9991266403
 20
130.0327146094
 10
173.9169837832
 20
130.4427512803
 10
169.834840926
 20
131.0168026196
 10
165.7526980689
 20
131.7548686272
 10
161.6705552118
 20
132.6569493033
 10
157.5884123546
 20
133.7230446477
 10
153.5062694975
 20
134.9531546604
 10
149.4241266403
 20
136.3472793415
 10
145.3419837832
 20
137.905418691
 10
141.2598409261
 20
139.6275727089
 10
137.1776980689
 20
141.5137413951
 10
133.0955552118
 20
143.5639247497
 10
129.0134123546
 20
145.7781227726
 10
124.9312694975
 20
148.156335464
 10
120.8491266403
 20
150.6985628237
 10
116.7669837832
 20
153.4048048517
 10
112.6848409261
 20
156.2750615482
 10
108.6026980689
 20
159.3093329129
 10
104.5205552118
 20
162.5076189461
 10
100.4384123546
 20
165.8699196476
 10
96.3562694975
 20
169.3962350175
 10
92.2741266404
 20
173.0865650558
 10
88.1919837832
 20
176.9409097624
 10
84.1098409261
 20
180.9592691374
 10
80.0276980689
 20
185.1416431808
 10
75.9455552118
 20
189.4880318925
  0
LINE
  5
C2
330
1F
100
AcDbEntity
  8
0
  6
Continuous
 62
     7
370
     0
100
AcDbLine
 10
97.2634122011
 20
162.2446852727
 30
0.0
 11
97.2634122011
 21
168.6038652425
 31
0.0
  0
LINE
  5
C3
330
1F
100
AcDbEntity
  8
0
  6
Continuous
 62
     7
370
     0
100
AcDbLine
 10
71.8634125081
 20
168.7572391694
 30
0.0
 11
71.8634125081
 21
162.2446852727
 31
0.0
  0
LINE
  5
C4
330
1F
100
AcDbEntity
  8
0
  6
Continuous
 62
     7
370
     0
100
AcDbLine
 10
71.8634125081
 20
169.8453214941
 30
0.0
 11
71.8634125081
 21
169.3158376021
 31
0.0
  0
LINE
  5
C5
330
1F
100
AcDbEntity
  8
0
  6
Continuous
 62
     7
370
     0
100
AcDbLine
 10
71.8634125081
 20
172.2927664397
 30
0.0
 11
71.8634125081
 21
170.6603572694
 31
0.0
  0
LINE
  5
C6
330
1F
100
AcDbEntity
  8
0
  6
Continuous
 62
     7
370
     0
100
AcDbLine
 10
71.8634125081
 20
193.998433928
 30
0.0
 11
71.8634125081
 21
174.2258940814
 31
0.0
  0
LINE
  5
C7
330
1F
100
AcDbEntity
  8
0
  6
Continuous
 62
     7
370
     0
100
AcDbLine
 10
71.8634125081
 20
172.6437353519
 30
0.0
 11
71.8634125081
 21
172.2927664397
 31
0.0
  0
LINE
  5
C8
330
1F
100
AcDbEntity
  8
0
  6
Continuous
 62
     7
370
     0
100
AcDbLine
 10
71.8634125081
 20
174.2258940814
 30
0.0
 11
71.8634125081
 21
173.8588915197
 31
0.0
  0
LINE
  5
C9
330
1F
100
AcDbEntity
  8
0
  6
Continuous
 62
     7
370
     0
100
AcDbLine
 10
71.8634125081
 20
173.8588915197
 30
0.0
 11
71.8634125081
 21
172.6437353519
 31
0.0
  0
LINE
  5
CA
330
1F
100
AcDbEntity
  8
0
  6
Continuous
 62
     7
370
     0
100
AcDbLine
 10
71.8634125081
 20
169.3158376021
 30
0.0
 11
71.8634125081
 21
168.7572391694
 31
0.0
  0
LINE
  5
CB
330
1F
100
AcDbEntity
  8
0
  6
Continuous
 62
     7
370
     0
100
AcDbLine
 10
71.8634125081
 20
170.6603572694
 30
0.0
 11
71.8634125081
 21
169.8453214941
 31
0.0
  0
SPLINE
  5
CC
330
1F
100
AcDbEntity
  8
0
  6
Continuous
 62
     7
370
     0
100
AcDbSpline
210
0.0
220
0.0
230
1.0
 70
     8
 71
     3
 72
    63
 73
    59
 74
     0
 42
0.00000001
 43
0.00000001
 12
1.0
 22
0.0
 32
0.0
 13
1.0
 23
0.0
 33
0.0
 40
0.0
 40
0.0
 40
0.0
 40
0.0
 40
0.0114779832519052
 40
0.0229670681405362
 40
0.0344454780085247
 40
0.0463245665925007
 40
0.0582151977402606
 40
0.0700955481686749
 40
0.0872926889811123
 40
0.1044917318952878
 40
0.1221138773951657
 40
0.1397379564238835
 40
0.1558845047673265
 40
0.1720465174958155
 40
0.1881966734840686
 40
0.204799369013493
 40
0.2214140169777123
 40
0.2380193481127889
 40
0.260435863612018
 40
0.2828735443070979
 40
0.3052950861420542
 40
0.3283404357237459
 40
0.3514022267418831
 40
0.3744504871910601
 40
0.3956391700366155
 40
0.4168469985805745
 40
0.438056178045327
 40
0.4592467159670173
 40
0.4810495254289272
 40
0.5028714394851902
 40
0.5246932719319456
 40
0.5464960535261633
 40
0.567762885050667
 40
0.5890487665043963
 40
0.6103331798054497
 40
0.6315979911891039
 40
0.6535802893055183
 40
0.6755894948954758
 40
0.6975943077880473
 40
0.7195705947363426
 40
0.7368042124125735
 40
0.7540460589860197
 40
0.7712776133626897
 40
0.7888999300495954
 40
0.8065340435468313
 40
0.8241526836885673
 40
0.8375104496277779
 40
0.8508754755658559
 40
0.8642314530434876
 40
0.8779296571102823
 40
0.8916382920760542
 40
0.9053339651100913
 40
0.9218111576512799
 40
0.9382867780581828
 40
0.9552197926387902
 40
0.9721514784620835
 40
0.9886464036340904
 40
1.0
 40
1.0
 40
1.0
 40
1.0
 10
71.86341250809284
 20
193.9984339279756
 30
0.0
 10
71.8657904893363
 20
193.9960561028365
 30
0.0
 10
71.87054875183394
 20
193.9912981526988
 30
0.0
 10
71.90851091947896
 20
193.9533336413436
 30
0.0
 10
71.96926700258686
 20
193.8925809148472
 30
0.0
 10
72.05585672177502
 20
193.8059913949987
 30
0.0
 10
72.1674433760146
 20
193.6944060353252
 30
0.0
 10
72.32234081619752
 20
193.5395024166549
 30
0.0
 10
72.53276473849701
 20
193.3290855303078
 30
0.0
 10
72.81200545166737
 20
193.0498408088113
 30
0.0
 10
73.1335776454218
 20
192.728271206234
 30
0.0
 10
73.48402535208342
 20
192.3778228139555
 30
0.0
 10
73.85405354133263
 20
192.0077947858546
 30
0.0
 10
74.23760263308989
 20
191.6242456797972
 30
0.0
 10
74.64681862802158
 20
191.2150295846897
 30
0.0
 10
75.08003716257491
 20
190.7818114764347
 30
0.0
 10
75.53553561923579
 20
190.3263114075125
 30
0.0
 10
76.06229052238723
 20
189.7995569867235
 30
0.0
 10
76.66509472961415
 20
189.1967525179227
 30
0.0
 10
77.3471085583429
 20
188.5147391220693
 30
0.0
 10
78.05443949776264
 20
187.8074067249919
 30
0.0
 10
78.78460075876166
 20
187.0772481180879
 30
0.0
 10
79.53533335399383
 20
186.3265147340216
 30
0.0
 10
80.27705010012134
 20
185.584798450493
 30
0.0
 10
81.00672481070181
 20
184.8551227472863
 30
0.0
 10
81.72220401841346
 20
184.1396442252584
 30
0.0
 10
82.44259547267963
 20
183.4192537869612
 30
0.0
 10
83.17332309089628
 20
182.6885227862941
 30
0.0
 10
83.91342380479783
 20
181.9484255379656
 30
0.0
 10
84.66185735610824
 20
181.1999885222151
 30
0.0
 10
85.41012333850134
 20
180.4517256504618
 30
0.0
 10
86.15058027030986
 20
179.7112659639754
 30
0.0
 10
86.88219698446208
 20
178.9796498635315
 30
0.0
 10
87.60397157582231
 20
178.2578762047733
 30
0.0
 10
88.3204102647934
 20
177.5414373664211
 30
0.0
 10
89.03781937155745
 20
176.8240279210779
 30
0.0
 10
89.7546063365756
 20
176.1072410567358
 30
0.0
 10
90.46864530362238
 20
175.3932020360215
 30
0.0
 10
91.16954306249555
 20
174.6923043898787
 30
0.0
 10
91.80531140122599
 20
174.0565356829296
 30
0.0
 10
92.37753525679268
 20
173.4843129166547
 30
0.0
 10
92.8888155234934
 20
172.9730316055424
 30
0.0
 10
93.38922741920251
 20
172.4726200987622
 30
0.0
 10
93.8763799434179
 20
171.9854670566701
 30
0.0
 10
94.34743900809414
 20
171.514409674493
 30
0.0
 10
94.75998316735014
 20
171.1018649438658
 30
0.0
 10
95.11751770312765
 20
170.7443309381464
 30
0.0
 10
95.4246964010496
 20
170.437150663645
 30
0.0
 10
95.71682259942227
 20
170.1450247076937
 30
0.0
 10
95.99156674933909
 20
169.8702811875841
 30
0.0
 10
96.24659456140806
 20
169.6152533879554
 30
0.0
 10
96.49330629526898
 20
169.3685409230755
 30
0.0
 10
96.72296221202835
 20
169.1388849999231
 30
0.0
 10
96.92730904914964
 20
168.9345390971289
 30
0.0
 10
97.08815685349518
 20
168.7736903480398
 30
0.0
 10
97.19835572635135
 20
168.6634915167153
 30
0.0
 10
97.25732540099882
 20
168.6045225262512
 30
0.0
 10
97.2577915957231
 20
168.6040562646104
 30
0.0
 10
97.25798165919633
 20
168.6038661738559
 30
0.0
  0
SPLINE
  5
CD
330
1F
100
AcDbEntity
  8
0
  6
Continuous
 62
     7
370
     0
100
AcDbSpline
210
0.0
220
0.0
230
1.0
 70
     8
 71
     3
 72
    14
 73
    10
 74
     0
 42
0.00000001
 43
0.00000001
 12
1.0
 22
0.0
 32
0.0
 13
1.0
 23
0.0
 33
0.0
 40
0.0
 40
0.0
 40
0.0
 40
0.0
 40
0.1337513677888549
 40
0.2504640037618258
 40
0.5001315782704874
 40
0.7495519040627692
 40
0.8497292700247969
 40
0.918779413198226
 40
1.0
 40
1.0
 40
1.0
 40
1.0
 10
73.83105236532471
 20
169.8246962068176
 30
0.0
 10
73.84504219704607
 20
169.812067088857
 30
0.0
 10
73.87123968065178
 20
169.788417689971
 30
0.0
 10
73.92102374216303
 20
169.7306650583576
 30
0.0
 10
73.97540548677475
 20
169.6381951552281
 30
0.0
 10
74.00917949622325
 20
169.5202065649524
 30
0.0
 10
74.02106519100612
 20
169.431908942931
 30
0.0
 10
74.0249960722744
 20
169.3780418391396
 30
0.0
 10
74.0255348634104
 20
169.345497626668
 30
0.0
 10
74.0258260773563
 20
169.3279076406847
 30
0.0
  0
SPLINE
  5
CE
330
1F
100
AcDbEntity
  8
0
  6
Continuous
 62
     7
370
     0
100
AcDbSpline
210
0.0
220
0.0
230
1.0
 70
     8
 71
     3
 72
    16
 73
    12
 74
     0
 42
0.00000001
 43
0.00000001
 12
1.0
 22
0.0
 32
0.0
 13
1.0
 23
0.0
 33
0.0
 40
0.0
 40
0.0
 40
0.0
 40
0.0
 40
0.0624101665906384
 40
0.1248967125771873
 40
0.2498787543055656
 40
0.3748952116312222
 40
0.4999251056351537
 40
0.6398105160121551
 40
0.7499861779030769
 40
0.881202834756436
 40
1.0
 40
1.0
 40
1.0
 40
1.0
 10
73.42107662298122
 20
170.1004611938177
 30
0.0
 10
73.42782454014869
 20
170.0893531885029
 30
0.0
 10
73.44132863278294
 20
170.06712358357
 30
0.0
 10
73.47280310505501
 20
170.0364821984233
 30
0.0
 10
73.51387346871843
 20
170.0058661162028
 30
0.0
 10
73.56494163088834
 20
169.9752713303683
 30
0.0
 10
73.61945957664688
 20
169.9486430852409
 30
0.0
 10
73.67257282616579
 20
169.9221623572758
 30
0.0
 10
73.72707432644324
 20
169.8935535958821
 30
0.0
 10
73.7787502960717
 20
169.8633246475309
 30
0.0
 10
73.8142054226443
 20
169.8371387570996
 30
0.0
 10
73.83105236532471
 20
169.8246962068176
 30
0.0
  0
SPLINE
  5
CF
330
1F
100
AcDbEntity
  8
0
  6
Continuous
 62
     7
370
     0
100
AcDbSpline
210
0.0
220
0.0
230
1.0
 70
     8
 71
     3
 72
    11
 73
     7
 74
     0
 42
0.00000001
 43
0.00000001
 12
1.0
 22
0.0
 32
0.0
 13
1.0
 23
0.0
 33
0.0
 40
0.0
 40
0.0
 40
0.0
 40
0.0
 40
0.2501932676829366
 40
0.5000551820616771
 40
0.7498736249915013
 40
1.0
 40
1.0
 40
1.0
 40
1.0
 10
73.38591141565621
 20
170.2819721777983
 30
0.0
 10
73.38623917240444
 20
170.2651463034742
 30
0.0
 10
73.38689425182336
 20
170.2315168388349
 30
0.0
 10
73.39366847644672
 20
170.1828513216412
 30
0.0
 10
73.40459912497573
 20
170.1374919109691
 30
0.0
 10
73.41558186877111
 20
170.1128098336963
 30
0.0
 10
73.42107662298122
 20
170.1004611938177
 30
0.0
  0
SPLINE
  5
D0
330
1F
100
AcDbEntity
  8
0
  6
Continuous
 62
     7
370
     0
100
AcDbSpline
210
0.0
220
0.0
230
1.0
 70
     8
 71
     3
 72
    15
 73
    11
 74
     0
 42
0.00000001
 43
0.00000001
 12
1.0
 22
0.0
 32
0.0
 13
1.0
 23
0.0
 33
0.0
 40
0.0
 40
0.0
 40
0.0
 40
0.0
 40
0.1635147289340674
 40
0.2861646913272631
 40
0.5000355399745618
 40
0.6000916548547134
 40
0.749980125868436
 40
0.8748041901132104
 40
0.9373995216984701
 40
1.0
 40
1.0
 40
1.0
 40
1.0
 10
73.59897067742386
 20
170.588606379761
 30
0.0
 10
73.58258336427603
 20
170.5877888515039
 30
0.0
 10
73.55390417164791
 20
170.5863581074794
 30
0.0
 10
73.50518237874066
 20
170.5711919606837
 30
0.0
 10
73.46394692321392
 20
170.5434032136378
 30
0.0
 10
73.42791594190801
 20
170.4881318260807
 30
0.0
 10
73.40413204685966
 20
170.4308773685079
 30
0.0
 10
73.39132132070684
 20
170.3683513847873
 30
0.0
 10
73.38653795712095
 20
170.3193977692167
 30
0.0
 10
73.38612026853477
 20
170.2944477168311
 30
0.0
 10
73.38591141565621
 20
170.2819721777983
 30
0.0
  0
SPLINE
  5
D1
330
1F
100
AcDbEntity
  8
0
  6
Continuous
 62
     7
370
     0
100
AcDbSpline
210
0.0
220
0.0
230
1.0
 70
     8
 71
     3
 72
    14
 73
    10
 74
     0
 42
0.00000001
 43
0.00000001
 12
1.0
 22
0.0
 32
0.0
 13
1.0
 23
0.0
 33
0.0
 40
0.0
 40
0.0
 40
0.0
 40
0.0
 40
0.1252374663807693
 40
0.2504120111316574
 40
0.3769583298682836
 40
0.5005277051032828
 40
0.7494493238949633
 40
0.8746887143862877
 40
1.0
 40
1.0
 40
1.0
 40
1.0
 10
73.83854092494292
 20
170.2198221583401
 30
0.0
 10
73.83651799853314
 20
170.2471995373885
 30
0.0
 10
73.83247316206939
 20
170.3019405405816
 30
0.0
 10
73.81734324327635
 20
170.3806510573744
 30
0.0
 10
73.79433710838863
 20
170.4519222511776
 30
0.0
 10
73.75174705559634
 20
170.5286494950791
 30
0.0
 10
73.69673928859662
 20
170.5699887246024
 30
0.0
 10
73.64091885888882
 20
170.5866790201074
 30
0.0
 10
73.61295607920407
 20
170.5879638036543
 30
0.0
 10
73.59897067742386
 20
170.588606379761
 30
0.0
  0
LINE
  5
D2
330
1F
100
AcDbEntity
  8
0
  6
Continuous
 62
     7
370
     0
100
AcDbLine
 10
73.996510939
 20
170.2198221339
 30
0.0
 11
73.8385409352
 21
170.2198221339
 31
0.0
  0
SPLINE
  5
D3
330
1F
100
AcDbEntity
  8
0
  6
Continuous
 62
     7
370
     0
100
AcDbSpline
210
0.0
220
0.0
230
1.0
 70
     8
 71
     3
 72
    14
 73
    10
 74
     0
 42
0.00000001
 43
0.00000001
 12
1.0
 22
0.0
 32
0.0
 13
1.0
 23
0.0
 33
0.0
 40
0.0
 40
0.0
 40
0.0
 40
0.0
 40
0.1255055557520072
 40
0.2509460799149094
 40
0.5006404521539535
 40
0.7492166145835422
 40
0.8745048573331566
 40
0.9372351209519852
 40
1.0
 40
1.0
 40
1.0
 40
1.0
 10
73.59315970180305
 20
170.8256819506745
 30
0.0
 10
73.61621326883608
 20
170.8245154026311
 30
0.0
 10
73.66230845753374
 20
170.8221829109995
 30
0.0
 10
73.75483464010748
 20
170.7897548035587
 30
0.0
 10
73.86958303633881
 20
170.7056426898739
 30
0.0
 10
73.95407763058066
 20
170.5267072198979
 30
0.0
 10
73.98449487606534
 20
170.3773089965473
 30
0.0
 10
73.99395795629177
 20
170.2878857983173
 30
0.0
 10
73.99565973678806
 20
170.2425142099601
 30
0.0
 10
73.99651086173795
 20
170.2198221583401
 30
0.0
  0
SPLINE
  5
D4
330
1F
100
AcDbEntity
  8
0
  6
Continuous
 62
     7
370
     0
100
AcDbSpline
210
0.0
220
0.0
230
1.0
 70
     8
 71
     3
 72
    15
 73
    11
 74
     0
 42
0.00000001
 43
0.00000001
 12
1.0
 22
0.0
 32
0.0
 13
1.0
 23
0.0
 33
0.0
 40
0.0
 40
0.0
 40
0.0
 40
0.0
 40
0.062651101384566
 40
0.1252584965520679
 40
0.250306332136846
 40
0.4166460947544269
 40
0.5001078090843741
 40
0.749487348619546
 40
0.8747153905286494
 40
1.0
 40
1.0
 40
1.0
 40
1.0
 10
73.2512680267502
 20
170.2630390592878
 30
0.0
 10
73.2516166959882
 20
170.284257131167
 30
0.0
 10
73.25231379122806
 20
170.3266784729246
 30
0.0
 10
73.2593073017724
 20
170.4103307728725
 30
0.0
 10
73.27934479225739
 20
170.5229209568488
 30
0.0
 10
73.314784698836
 20
170.6270823994209
 30
0.0
 10
73.37701058558966
 20
170.7324278885228
 30
0.0
 10
73.44757742898891
 20
170.7909536181625
 30
0.0
 10
73.52930891151665
 20
170.8217511333332
 30
0.0
 10
73.57187290128903
 20
170.8243714809962
 30
0.0
 10
73.59315970180305
 20
170.8256819506745
 30
0.0
  0
SPLINE
  5
D5
330
1F
100
AcDbEntity
  8
0
  6
Continuous
 62
     7
370
     0
100
AcDbSpline
210
0.0
220
0.0
230
1.0
 70
     8
 71
     3
 72
    13
 73
     9
 74
     0
 42
0.00000001
 43
0.00000001
 12
1.0
 22
0.0
 32
0.0
 13
1.0
 23
0.0
 33
0.0
 40
0.0
 40
0.0
 40
0.0
 40
0.0
 40
0.1252751749067504
 40
0.250491537221231
 40
0.5001990111867026
 40
0.7496191367255391
 40
0.8747757515173119
 40
1.0
 40
1.0
 40
1.0
 40
1.0
 10
73.39236614035626
 20
169.8189339533579
 30
0.0
 10
73.3824538254787
 20
169.8302009085261
 30
0.0
 10
73.3626338492308
 20
169.8527295293958
 30
0.0
 10
73.32585725015602
 20
169.9060914850007
 30
0.0
 10
73.28657594226729
 20
169.9911698915857
 30
0.0
 10
73.26255643886667
 20
170.0993125686955
 30
0.0
 10
73.25237618035118
 20
170.1917783974265
 30
0.0
 10
73.25163747779743
 20
170.2392812281278
 30
0.0
 10
73.2512680267502
 20
170.2630390592878
 30
0.0
  0
SPLINE
  5
D6
330
1F
100
AcDbEntity
  8
0
  6
Continuous
 62
     7
370
     0
100
AcDbSpline
210
0.0
220
0.0
230
1.0
 70
     8
 71
     3
 72
    12
 73
     8
 74
     0
 42
0.00000001
 43
0.00000001
 12
1.0
 22
0.0
 32
0.0
 13
1.0
 23
0.0
 33
0.0
 40
0.0
 40
0.0
 40
0.0
 40
0.0
 40
0.1023773544567198
 40
0.2500285226377124
 40
0.5001090627863747
 40
0.7873244436081454
 40
1.0
 40
1.0
 40
1.0
 40
1.0
 10
73.75040364131797
 20
169.5913249416997
 30
0.0
 10
73.7377973443925
 20
169.6001426939062
 30
0.0
 10
73.70700993234288
 20
169.6216776277682
 30
0.0
 10
73.64472275838239
 20
169.6556205808662
 30
0.0
 10
73.56074742729257
 20
169.6992668307966
 30
0.0
 10
73.47106795921266
 20
169.7488581786371
 30
0.0
 10
73.41585581221783
 20
169.7980188464703
 30
0.0
 10
73.39236614035626
 20
169.8189339533579
 30
0.0
  0
SPLINE
  5
D7
330
1F
100
AcDbEntity
  8
0
  6
Continuous
 62
     7
370
     0
100
AcDbSpline
210
0.0
220
0.0
230
1.0
 70
     8
 71
     3
 72
    12
 73
     8
 74
     0
 42
0.00000001
 43
0.00000001
 12
1.0
 22
0.0
 32
0.0
 13
1.0
 23
0.0
 33
0.0
 40
0.0
 40
0.0
 40
0.0
 40
0.0
 40
0.125299271625629
 40
0.2504266042119616
 40
0.4997820719171098
 40
0.7495611375362357
 40
1.0
 40
1.0
 40
1.0
 40
1.0
 10
73.8668498647418
 20
169.3139135965683
 30
0.0
 10
73.86646025919889
 20
169.3297020892166
 30
0.0
 10
73.86568158274034
 20
169.3612574091179
 30
0.0
 10
73.85771648809552
 20
169.4228362771795
 30
0.0
 10
73.8358898985238
 20
169.4925805909141
 30
0.0
 10
73.7959100338192
 20
169.5527071861619
 30
0.0
 10
73.76558577157559
 20
169.5784410420407
 30
0.0
 10
73.75040364131797
 20
169.5913249416997
 30
0.0
  0
SPLINE
  5
D8
330
1F
100
AcDbEntity
  8
0
  6
Continuous
 62
     7
370
     0
100
AcDbSpline
210
0.0
220
0.0
230
1.0
 70
     8
 71
     3
 72
    15
 73
    11
 74
     0
 42
0.00000001
 43
0.00000001
 12
1.0
 22
0.0
 32
0.0
 13
1.0
 23
0.0
 33
0.0
 40
0.0
 40
0.0
 40
0.0
 40
0.0
 40
0.1252347300335
 40
0.250450592521568
 40
0.4998104181213201
 40
0.6248337430338524
 40
0.7497939259513577
 40
0.8747887439180624
 40
0.9373726807993273
 40
1.0
 40
1.0
 40
1.0
 40
1.0
 10
73.62126003960392
 20
168.9554191134683
 30
0.0
 10
73.63527067715987
 20
168.9561126401506
 30
0.0
 10
73.66328984146479
 20
168.9574995890304
 30
0.0
 10
73.71914763407534
 20
168.9768514116891
 30
0.0
 10
73.77373130722509
 20
169.0178406787233
 30
0.0
 10
73.81958320502522
 20
169.087215210294
 30
0.0
 10
73.84529623339179
 20
169.1550473436743
 30
0.0
 10
73.85998934330438
 20
169.2186428101828
 30
0.0
 10
73.86591687945041
 20
169.2726818692965
 30
0.0
 10
73.86653879781868
 20
169.3001665132487
 30
0.0
 10
73.8668498647418
 20
169.3139135965683
 30
0.0
  0
SPLINE
  5
D9
330
1F
100
AcDbEntity
  8
0
  6
Continuous
 62
     7
370
     0
100
AcDbSpline
210
0.0
220
0.0
230
1.0
 70
     8
 71
     3
 72
    14
 73
    10
 74
     0
 42
0.00000001
 43
0.00000001
 12
1.0
 22
0.0
 32
0.0
 13
1.0
 23
0.0
 33
0.0
 40
0.0
 40
0.0
 40
0.0
 40
0.0
 40
0.125269340222887
 40
0.250475354704463
 40
0.3931796899930411
 40
0.5003858073600834
 40
0.7495639495851886
 40
0.8747432320133751
 40
0.9999999999999999
 40
0.9999999999999999
 40
0.9999999999999999
 40
0.9999999999999999
 10
73.34861047074449
 20
169.4559119853967
 30
0.0
 10
73.35073171474657
 20
169.4212457310853
 30
0.0
 10
73.35497313042649
 20
169.3519307468324
 30
0.0
 10
73.36993051157305
 20
169.2465736985365
 30
0.0
 10
73.39360574419311
 20
169.153083694809
 30
0.0
 10
73.4408093928572
 20
169.0534284365068
 30
0.0
 10
73.50065515197967
 20
168.991123311469
 30
0.0
 10
73.56824180479909
 20
168.9592444022739
 30
0.0
 10
73.6035836497164
 20
168.9566944727217
 30
0.0
 10
73.62126003960392
 20
168.9554191134683
 30
0.0
  0
LINE
  5
DA
330
1F
100
AcDbEntity
  8
0
  6
Continuous
 62
     7
370
     0
100
AcDbLine
 10
73.348610313
 20
169.455911777
 30
0.0
 11
73.2155662266
 21
169.455911777
 31
0.0
  0
SPLINE
  5
DB
330
1F
100
AcDbEntity
  8
0
  6
Continuous
 62
     7
370
     0
100
AcDbSpline
210
0.0
220
0.0
230
1.0
 70
     8
 71
     3
 72
    15
 73
    11
 74
     0
 42
0.00000001
 43
0.00000001
 12
1.0
 22
0.0
 32
0.0
 13
1.0
 23
0.0
 33
0.0
 40
0.0
 40
0.0
 40
0.0
 40
0.0
 40
0.1253466878244326
 40
0.2506295514077055
 40
0.3811471272955117
 40
0.5009146342170124
 40
0.7494639004670852
 40
0.8746414613335408
 40
0.9247926052646752
 40
1.0
 40
1.0
 40
1.0
 40
1.0
 10
73.62774230014583
 20
168.7183435425548
 30
0.0
 10
73.60081592082402
 20
168.7196920878268
 30
0.0
 10
73.54697687260035
 20
168.722388491716
 30
0.0
 10
73.46828880825971
 20
168.7506018870983
 30
0.0
 10
73.39532679748739
 20
168.8037148665268
 30
0.0
 10
73.310246711314
 20
168.917612555581
 30
0.0
 10
73.25073579270097
 20
169.0934137000842
 30
0.0
 10
73.22589479887293
 20
169.2657513232614
 30
0.0
 10
73.21765347287575
 20
169.3707566964563
 30
0.0
 10
73.21634885792803
 20
169.4239808028647
 30
0.0
 10
73.21556616939003
 20
169.4559119853967
 30
0.0
  0
SPLINE
  5
DC
330
1F
100
AcDbEntity
  8
0
  6
Continuous
 62
     7
370
     0
100
AcDbSpline
210
0.0
220
0.0
230
1.0
 70
     8
 71
     3
 72
    15
 73
    11
 74
     0
 42
0.00000001
 43
0.00000001
 12
1.0
 22
0.0
 32
0.0
 13
1.0
 23
0.0
 33
0.0
 40
0.0
 40
0.0
 40
0.0
 40
0.0
 40
0.0626377556146458
 40
0.1252329915457511
 40
0.2502503669557045
 40
0.3754516770102389
 40
0.5002816482321539
 40
0.7495655360820843
 40
0.8747642521766511
 40
1.0
 40
1.0
 40
1.0
 40
1.0
 10
74.0258260773563
 20
169.3279076406847
 30
0.0
 10
74.02535366818817
 20
169.3054863547648
 30
0.0
 10
74.02440917053212
 20
169.2606590029145
 30
0.0
 10
74.01525616777565
 20
169.1723182128528
 30
0.0
 10
73.99247660488119
 20
169.0669996585868
 30
0.0
 10
73.95065880601871
 20
168.9547832384515
 30
0.0
 10
73.8779144790462
 20
168.8332525757541
 30
0.0
 10
73.78829783403532
 20
168.758911270411
 30
0.0
 10
73.69654873523459
 20
168.7226355035428
 30
0.0
 10
73.65068003937581
 20
168.7197743372443
 30
0.0
 10
73.62774230014583
 20
168.7183435425548
 30
0.0
  0
LINE
  5
DD
330
1F
100
AcDbEntity
  8
0
  6
Continuous
 62
     7
370
     0
100
AcDbLine
 10
72.3057860744
 20
169.3768867282
 30
0.0
 11
72.1059512583
 21
169.3768867282
 31
0.0
  0
SPLINE
  5
DE
330
1F
100
AcDbEntity
  8
0
  6
Continuous
 62
     7
370
     0
100
AcDbSpline
210
0.0
220
0.0
230
1.0
 70
     8
 71
     3
 72
     8
 73
     4
 74
     0
 42
0.00000001
 43
0.00000001
 12
1.0
 22
0.0
 32
0.0
 13
1.0
 23
0.0
 33
0.0
 40
0.0
 40
0.0
 40
0.0
 40
0.0
 40
1.0
 40
1.0
 40
1.0
 40
1.0
 10
72.36902418276776
 20
168.7446852726563
 30
0.0
 10
72.34725475452255
 20
168.9554191134683
 30
0.0
 10
72.32617404030253
 20
169.1661529542802
 30
0.0
 10
72.30578561161154
 20
169.3768867950922
 30
0.0
  0
LINE
  5
DF
330
1F
100
AcDbEntity
  8
0
  6
Continuous
 62
     7
370
     0
100
AcDbLine
 10
72.4584782732
 20
168.7446854068
 30
0.0
 11
72.3690238086
 21
168.7446854068
 31
0.0
  0
SPLINE
  5
E0
330
1F
100
AcDbEntity
  8
0
  6
Continuous
 62
     7
370
     0
100
AcDbSpline
210
0.0
220
0.0
230
1.0
 70
     8
 71
     3
 72
     8
 73
     4
 74
     0
 42
0.00000001
 43
0.00000001
 12
1.0
 22
0.0
 32
0.0
 13
1.0
 23
0.0
 33
0.0
 40
0.0
 40
0.0
 40
0.0
 40
0.0
 40
1.0
 40
1.0
 40
1.0
 40
1.0
 10
72.23682880013743
 20
170.799340220573
 30
0.0
 10
72.30228344938503
 20
170.1144552379341
 30
0.0
 10
72.37621755991715
 20
169.4295702552952
 30
0.0
 10
72.4584787002567
 20
168.7446852726563
 30
0.0
  0
LINE
  5
E1
330
1F
100
AcDbEntity
  8
0
  6
Continuous
 62
     7
370
     0
100
AcDbLine
 10
72.2368290884
 20
170.7993403999
 30
0.0
 11
72.1622534332
 21
170.7993403999
 31
0.0
  0
SPLINE
  5
E2
330
1F
100
AcDbEntity
  8
0
  6
Continuous
 62
     7
370
     0
100
AcDbSpline
210
0.0
220
0.0
230
1.0
 70
     8
 71
     3
 72
     8
 73
     4
 74
     0
 42
0.00000001
 43
0.00000001
 12
1.0
 22
0.0
 32
0.0
 13
1.0
 23
0.0
 33
0.0
 40
0.0
 40
0.0
 40
0.0
 40
0.0
 40
1.0
 40
1.0
 40
1.0
 40
1.0
 10
72.01202293760295
 20
168.7446852726563
 30
0.0
 10
72.05350024017608
 20
169.4295702552952
 30
0.0
 10
72.10361165520825
 20
170.1144552379341
 30
0.0
 10
72.16225386696392
 20
170.799340220573
 30
0.0
  0
LINE
  5
E3
330
1F
100
AcDbEntity
  8
0
  6
Continuous
 62
     7
370
     0
100
AcDbLine
 10
72.0625935358
 20
168.7446854068
 30
0.0
 11
72.01202272
 21
168.7446854068
 31
0.0
  0
SPLINE
  5
E4
330
1F
100
AcDbEntity
  8
0
  6
Continuous
 62
     7
370
     0
100
AcDbSpline
210
0.0
220
0.0
230
1.0
 70
     8
 71
     3
 72
     8
 73
     4
 74
     0
 42
0.00000001
 43
0.00000001
 12
1.0
 22
0.0
 32
0.0
 13
1.0
 23
0.0
 33
0.0
 40
0.0
 40
0.0
 40
0.0
 40
0.0
 40
1.0
 40
1.0
 40
1.0
 40
1.0
 10
72.10595137043586
 20
169.3768867950922
 30
0.0
 10
72.09079441788367
 20
169.1661529542802
 30
0.0
 10
72.0763410371558
 20
168.9554191134683
 30
0.0
 10
72.06259367695036
 20
168.7446852726563
 30
0.0
  0
LINE
  5
E5
330
1F
100
AcDbEntity
  8
0
  6
Continuous
 62
     7
370
     0
100
AcDbLine
 10
71.8679517743
 20
168.7446854068
 30
0.0
 11
71.8634143707
 21
168.7446854068
 31
0.0
  0
SPLINE
  5
E6
330
1F
100
AcDbEntity
  8
0
  6
Continuous
 62
     7
370
     0
100
AcDbSpline
210
0.0
220
0.0
230
1.0
 70
     8
 71
     3
 72
     8
 73
     4
 74
     0
 42
0.00000001
 43
0.00000001
 12
1.0
 22
0.0
 32
0.0
 13
1.0
 23
0.0
 33
0.0
 40
0.0
 40
0.0
 40
0.0
 40
0.0
 40
1.0
 40
1.0
 40
1.0
 40
1.0
 10
71.86341259471378
 20
169.3118556489041
 30
0.0
 10
71.86343444407864
 20
169.1227988568216
 30
0.0
 10
71.86494760011891
 20
168.9337420647389
 30
0.0
 10
71.86795152987189
 20
168.7446852726563
 30
0.0
  0
SPLINE
  5
E7
330
1F
100
AcDbEntity
  8
0
  6
Continuous
 62
     7
370
     0
100
AcDbSpline
210
0.0
220
0.0
230
1.0
 70
     8
 71
     3
 72
    13
 73
     9
 74
     0
 42
0.00000001
 43
0.00000001
 12
1.0
 22
0.0
 32
0.0
 13
1.0
 23
0.0
 33
0.0
 40
0.0
 40
0.0
 40
0.0
 40
0.0
 40
0.1250710948757012
 40
0.2501214874970398
 40
0.5000711849036265
 40
0.7499674618706436
 40
0.8749904195716297
 40
1.0
 40
1.0
 40
1.0
 40
1.0
 10
76.99467549792428
 20
173.7856764835938
 30
0.0
 10
77.01788085674977
 20
173.8005114014466
 30
0.0
 10
77.06428773335944
 20
173.830178781619
 30
0.0
 10
77.15403387019647
 20
173.8976108190446
 30
0.0
 10
77.25972164300859
 20
173.9956981432949
 30
0.0
 10
77.35375690090214
 20
174.1111071677022
 30
0.0
 10
77.42003036725993
 20
174.2134826963645
 30
0.0
 10
77.44547534496837
 20
174.2707220666462
 30
0.0
 10
77.45819715314236
 20
174.299340220573
 30
0.0
  0
LINE
  5
E8
330
1F
100
AcDbEntity
  8
0
  6
Continuous
 62
     7
370
     0
100
AcDbLine
 10
76.9946753283
 20
173.5428388221
 30
0.0
 11
76.9946753283
 21
173.7856765268
 31
0.0
  0
SPLINE
  5
E9
330
1F
100
AcDbEntity
  8
0
  6
Continuous
 62
     7
370
     0
100
AcDbSpline
210
0.0
220
0.0
230
1.0
 70
     8
 71
     3
 72
    13
 73
     9
 74
     0
 42
0.00000001
 43
0.00000001
 12
1.0
 22
0.0
 32
0.0
 13
1.0
 23
0.0
 33
0.0
 40
0.0
 40
0.0
 40
0.0
 40
0.0
 40
0.1250146390038013
 40
0.2500229927051582
 40
0.4999840770001182
 40
0.7500009713535993
 40
0.8675848207702225
 40
1.0
 40
1.0
 40
1.0
 40
1.0
 10
77.3806102224996
 20
173.8457685553878
 30
0.0
 10
77.3665903003957
 20
173.8294301691129
 30
0.0
 10
77.3385511610609
 20
173.7967542180003
 30
0.0
 10
77.27787837742088
 20
173.7380004293391
 30
0.0
 10
77.1979616049806
 20
173.6719545376685
 30
0.0
 10
77.11627110670737
 20
173.6130996540841
 30
0.0
 10
77.04809634750738
 20
173.5709156700972
 30
0.0
 10
77.01317306215297
 20
173.5525606369895
 30
0.0
 10
76.99467549792428
 20
173.5428386592206
 30
0.0
  0
LINE
  5
EA
330
1F
100
AcDbEntity
  8
0
  6
Continuous
 62
     7
370
     0
100
AcDbLine
 10
77.380610281
 20
172.2446850491
 30
0.0
 11
77.380610281
 21
173.8457682533
 31
0.0
  0
LINE
  5
EB
330
1F
100
AcDbEntity
  8
0
  6
Continuous
 62
     7
370
     0
100
AcDbLine
 10
77.5993788851
 20
172.2446850491
 30
0.0
 11
77.380610281
 21
172.2446850491
 31
0.0
  0
LINE
  5
EC
330
1F
100
AcDbEntity
  8
0
  6
Continuous
 62
     7
370
     0
100
AcDbLine
 10
77.5993788851
 20
174.2993400423
 30
0.0
 11
77.5993788851
 21
172.2446850491
 31
0.0
  0
LINE
  5
ED
330
1F
100
AcDbEntity
  8
0
  6
Continuous
 62
     7
370
     0
100
AcDbLine
 10
77.5993788851
 20
174.2993400423
 30
0.0
 11
77.4581973677
 21
174.2993400423
 31
0.0
  0
SPLINE
  5
EE
330
1F
100
AcDbEntity
  8
0
  6
Continuous
 62
     7
370
     0
100
AcDbSpline
210
0.0
220
0.0
230
1.0
 70
     8
 71
     3
 72
    13
 73
     9
 74
     0
 42
0.00000001
 43
0.00000001
 12
1.0
 22
0.0
 32
0.0
 13
1.0
 23
0.0
 33
0.0
 40
0.0
 40
0.0
 40
0.0
 40
0.0
 40
0.1250728776773209
 40
0.2501024647509341
 40
0.4999473657612427
 40
0.699982921512092
 40
0.8500379816784007
 40
1.0
 40
1.0
 40
1.0
 40
1.0
 10
74.84748058451537
 20
172.4554191134683
 30
0.0
 10
74.8645484780838
 20
172.4562737160142
 30
0.0
 10
74.89867835762963
 20
172.4579826253086
 30
0.0
 10
74.9670163170347
 20
172.4725810630863
 30
0.0
 10
75.04413335535531
 20
172.5077188118238
 30
0.0
 10
75.12105397892375
 20
172.5603289855571
 30
0.0
 10
75.1835281039143
 20
172.6114550646521
 30
0.0
 10
75.21681975209013
 20
172.6517659938103
 30
0.0
 10
75.23346041394466
 20
172.6719152077399
 30
0.0
  0
SPLINE
  5
EF
330
1F
100
AcDbEntity
  8
0
  6
Continuous
 62
     7
370
     0
100
AcDbSpline
210
0.0
220
0.0
230
1.0
 70
     8
 71
     3
 72
    17
 73
    13
 74
     0
 42
0.00000001
 43
0.00000001
 12
1.0
 22
0.0
 32
0.0
 13
1.0
 23
0.0
 33
0.0
 40
0.0
 40
0.0
 40
0.0
 40
0.0
 40
0.0417273573270215
 40
0.1251631210589949
 40
0.2502330425939864
 40
0.3790790756169675
 40
0.5001257584201703
 40
0.6249169221490954
 40
0.7498494208328401
 40
0.8748509664218179
 40
0.9374131904090399
 40
1.0
 40
1.0
 40
1.0
 40
1.0
 10
74.39160541177914
 20
173.2728359256803
 30
0.0
 10
74.39166901218894
 20
173.2555290585574
 30
0.0
 10
74.39185978453355
 20
173.2036163172858
 30
0.0
 10
74.39648770870464
 20
173.1000062530861
 30
0.0
 10
74.41104649353713
 20
172.961795099249
 30
0.0
 10
74.44317746046211
 20
172.8144398217573
 30
0.0
 10
74.49548630982069
 20
172.6835114450149
 30
0.0
 10
74.56599501342963
 20
172.5785066235493
 30
0.0
 10
74.65319202048758
 20
172.5090093008594
 30
0.0
 10
74.73183425013916
 20
172.4716771445833
 30
0.0
 10
74.79745828845172
 20
172.4580923330666
 30
0.0
 10
74.83080430221258
 20
172.4563103033613
 30
0.0
 10
74.84748058451537
 20
172.4554191134683
 30
0.0
  0
SPLINE
  5
F0
330
1F
100
AcDbEntity
  8
0
  6
Continuous
 62
     7
370
     0
100
AcDbSpline
210
0.0
220
0.0
230
1.0
 70
     8
 71
     3
 72
    11
 73
     7
 74
     0
 42
0.00000001
 43
0.00000001
 12
1.0
 22
0.0
 32
0.0
 13
1.0
 23
0.0
 33
0.0
 40
0.0
 40
0.0
 40
0.0
 40
0.0
 40
0.2500253379858065
 40
0.4999844062395398
 40
0.7499569140437392
 40
1.0
 40
1.0
 40
1.0
 40
1.0
 10
74.43762828122956
 20
173.6827791003848
 30
0.0
 10
74.43031478630309
 20
173.6499574006336
 30
0.0
 10
74.41568973490706
 20
173.5843227005902
 30
0.0
 10
74.40183160670105
 20
173.4817881373763
 30
0.0
 10
74.39319626379664
 20
173.3777475677712
 30
0.0
 10
74.39213574568302
 20
173.307809763662
 30
0.0
 10
74.39160541177914
 20
173.2728359256803
 30
0.0
  0
SPLINE
  5
F1
330
1F
100
AcDbEntity
  8
0
  6
Continuous
 62
     7
370
     0
100
AcDbSpline
210
0.0
220
0.0
230
1.0
 70
     8
 71
     3
 72
    14
 73
    10
 74
     0
 42
0.00000001
 43
0.00000001
 12
1.0
 22
0.0
 32
0.0
 13
1.0
 23
0.0
 33
0.0
 40
0.0
 40
0.0
 40
0.0
 40
0.0
 40
0.1251877178136495
 40
0.2503152696116177
 40
0.4997614246258951
 40
0.6425855231395627
 40
0.7854713031188266
 40
0.892731411460058
 40
1.0
 40
1.0
 40
1.0
 40
1.0
 10
74.84509546235132
 20
174.088606379761
 30
0.0
 10
74.82311520005928
 20
174.0876642466998
 30
0.0
 10
74.7791652393294
 20
174.0857804333724
 30
0.0
 10
74.69329367126272
 20
174.0648791077988
 30
0.0
 10
74.60959354364032
 20
174.0122574580697
 30
0.0
 10
74.53571057297015
 20
173.9265042083204
 30
0.0
 10
74.49261600840723
 20
173.8445527403641
 30
0.0
 10
74.45940705422957
 20
173.7632059014266
 30
0.0
 10
74.44488806353874
 20
173.7095887405508
 30
0.0
 10
74.43762828122956
 20
173.6827791003848
 30
0.0
  0
SPLINE
  5
F2
330
1F
100
AcDbEntity
  8
0
  6
Continuous
 62
     7
370
     0
100
AcDbSpline
210
0.0
220
0.0
230
1.0
 70
     8
 71
     3
 72
    14
 73
    10
 74
     0
 42
0.00000001
 43
0.00000001
 12
1.0
 22
0.0
 32
0.0
 13
1.0
 23
0.0
 33
0.0
 40
0.0
 40
0.0
 40
0.0
 40
0.0
 40
0.125225805942501
 40
0.2503490333353236
 40
0.3753478258346932
 40
0.5003083519717292
 40
0.749667529633141
 40
0.8748118792625205
 40
1.0
 40
1.0
 40
1.0
 40
1.0
 10
75.22731939568463
 20
173.6535562435535
 30
0.0
 10
75.22066151977117
 20
173.6850005180078
 30
0.0
 10
75.20735122173429
 20
173.7478633093816
 30
0.0
 10
75.17919412160389
 20
173.8375919312267
 30
0.0
 10
75.14192354106852
 20
173.9201350642191
 30
0.0
 10
75.07479294372274
 20
174.0067922703822
 30
0.0
 10
74.99316948947195
 20
174.0593228053023
 30
0.0
 10
74.90889625103496
 20
174.0855185649317
 30
0.0
 10
74.86636487081009
 20
174.0875769881782
 30
0.0
 10
74.84509546235132
 20
174.088606379761
 30
0.0
  0
SPLINE
  5
F3
330
1F
100
AcDbEntity
  8
0
  6
Continuous
 62
     7
370
     0
100
AcDbSpline
210
0.0
220
0.0
230
1.0
 70
     8
 71
     3
 72
     8
 73
     4
 74
     0
 42
0.00000001
 43
0.00000001
 12
1.0
 22
0.0
 32
0.0
 13
1.0
 23
0.0
 33
0.0
 40
0.0
 40
0.0
 40
0.0
 40
0.0
 40
1.0
 40
1.0
 40
1.0
 40
1.0
 10
75.40903460402473
 20
173.7202337478729
 30
0.0
 10
75.34779383042581
 20
173.6980079130998
 30
0.0
 10
75.28721769672119
 20
173.6757820783266
 30
0.0
 10
75.22731939568462
 20
173.6535562435535
 30
0.0
  0
SPLINE
  5
F4
330
1F
100
AcDbEntity
  8
0
  6
Continuous
 62
     7
370
     0
100
AcDbSpline
210
0.0
220
0.0
230
1.0
 70
     8
 71
     3
 72
    15
 73
    11
 74
     0
 42
0.00000001
 43
0.00000001
 12
1.0
 22
0.0
 32
0.0
 13
1.0
 23
0.0
 33
0.0
 40
0.0
 40
0.0
 40
0.0
 40
0.0
 40
0.1251003541251032
 40
0.2501434381969746
 40
0.3778244282515414
 40
0.5001422580597842
 40
0.6232206709649738
 40
0.7499104428312182
 40
0.8749191054925903
 40
1.0
 40
1.0
 40
1.0
 40
1.0
 10
74.84854090414805
 20
174.3256819506745
 30
0.0
 10
74.8790039056196
 20
174.3243588868835
 30
0.0
 10
74.93991596281705
 20
174.3217133649908
 30
0.0
 10
75.03225485373588
 20
174.2961751180724
 30
0.0
 10
75.12168963573902
 20
174.2519138998567
 30
0.0
 10
75.20617843600668
 20
174.1875498291014
 30
0.0
 10
75.28092253278395
 20
174.0986785930332
 30
0.0
 10
75.33913568930495
 20
173.9845030330756
 30
0.0
 10
75.38169757208777
 20
173.855977799939
 30
0.0
 10
75.39992050563937
 20
173.7654904768627
 30
0.0
 10
75.40903460402473
 20
173.7202337478729
 30
0.0
  0
SPLINE
  5
F5
330
1F
100
AcDbEntity
  8
0
  6
Continuous
 62
     7
370
     0
100
AcDbSpline
210
0.0
220
0.0
230
1.0
 70
     8
 71
     3
 72
    19
 73
    15
 74
     0
 42
0.00000001
 43
0.00000001
 12
1.0
 22
0.0
 32
0.0
 13
1.0
 23
0.0
 33
0.0
 40
0.0
 40
0.0
 40
0.0
 40
0.0
 40
0.0625528800193323
 40
0.1250982015387539
 40
0.2500780430792413
 40
0.3215519116883153
 40
0.3930114946490748
 40
0.5000672623451493
 40
0.5714977402831899
 40
0.6250976717823409
 40
0.7499679397690449
 40
0.8749029975720289
 40
0.9374462658298438
 40
1.0
 40
1.0
 40
1.0
 40
1.0
 10
74.22077218076409
 20
173.2621345978266
 30
0.0
 10
74.22120382795889
 20
173.2969143306063
 30
0.0
 10
74.2220670701909
 20
173.3664695935998
 30
0.0
 10
74.23179420496824
 20
173.5046063337803
 30
0.0
 10
74.25117935650822
 20
173.6454512283513
 30
0.0
 10
74.28338023200578
 20
173.7840515439981
 30
0.0
 10
74.32016000242251
 20
173.9084225314479
 30
0.0
 10
74.36931660604252
 20
174.0212947367981
 30
0.0
 10
74.4254520649409
 20
174.1107500396544
 30
0.0
 10
74.49386322138402
 20
174.1918745132545
 30
0.0
 10
74.58795705496756
 20
174.2652713267551
 30
0.0
 10
74.69387930975016
 20
174.3072204173629
 30
0.0
 10
74.78153307621409
 20
174.3235914289633
 30
0.0
 10
74.8262037157528
 20
174.324985071239
 30
0.0
 10
74.84854090414805
 20
174.3256819506745
 30
0.0
  0
SPLINE
  5
F6
330
1F
100
AcDbEntity
  8
0
  6
Continuous
 62
     7
370
     0
100
AcDbSpline
210
0.0
220
0.0
230
1.0
 70
     8
 71
     3
 72
    16
 73
    12
 74
     0
 42
0.00000001
 43
0.00000001
 12
1.0
 22
0.0
 32
0.0
 13
1.0
 23
0.0
 33
0.0
 40
0.0
 40
0.0
 40
0.0
 40
0.0
 40
0.0626702233289006
 40
0.1253384589665967
 40
0.2505269092316148
 40
0.4992294251852603
 40
0.6212889487610563
 40
0.7494532400935239
 40
0.8746634692943812
 40
0.9373267537351289
 40
1.0
 40
1.0
 40
1.0
 40
1.0
 10
74.8631368469388
 20
172.2183435425548
 30
0.0
 10
74.84077684155424
 20
172.2191194205104
 30
0.0
 10
74.7960575399702
 20
172.2206711518133
 30
0.0
 10
74.70826208949471
 20
172.2373005018192
 30
0.0
 10
74.56086411440731
 20
172.2963449493177
 30
0.0
 10
74.41083857351158
 20
172.4394581558372
 30
0.0
 10
74.30858448047853
 20
172.6589973526972
 30
0.0
 10
74.25676046239386
 20
172.8491226329959
 30
0.0
 10
74.23170605675224
 20
173.0198334378872
 30
0.0
 10
74.22204680568618
 20
173.1579011062172
 30
0.0
 10
74.2211970782504
 20
173.227388259663
 30
0.0
 10
74.22077218076409
 20
173.2621345978266
 30
0.0
  0
SPLINE
  5
F7
330
1F
100
AcDbEntity
  8
0
  6
Continuous
 62
     7
370
     0
100
AcDbSpline
210
0.0
220
0.0
230
1.0
 70
     8
 71
     3
 72
    13
 73
     9
 74
     0
 42
0.00000001
 43
0.00000001
 12
1.0
 22
0.0
 32
0.0
 13
1.0
 23
0.0
 33
0.0
 40
0.0
 40
0.0
 40
0.0
 40
0.0
 40
0.1250842231916182
 40
0.2501438518412711
 40
0.5000595695695007
 40
0.7498948710232857
 40
0.8749312709191558
 40
1.0
 40
1.0
 40
1.0
 40
1.0
 10
75.43246011691562
 20
172.5381486095683
 30
0.0
 10
75.41119241273277
 20
172.5147661206774
 30
0.0
 10
75.36866118610504
 20
172.4680057404507
 30
0.0
 10
75.27966089453673
 20
172.3843353820351
 30
0.0
 10
75.16207459251741
 20
172.2980768757292
 30
0.0
 10
75.03821763843233
 20
172.2442847764196
 30
0.0
 10
74.93804139293799
 20
172.2212714980212
 30
0.0
 10
74.88810718047695
 20
172.2193196118121
 30
0.0
 10
74.8631368469388
 20
172.2183435425548
 30
0.0
  0
LINE
  5
F8
330
1F
100
AcDbEntity
  8
0
  6
Continuous
 62
     7
370
     0
100
AcDbLine
 10
75.4324604061
 20
173.2983545391
 30
0.0
 11
75.4324604061
 21
172.5381485177
 31
0.0
  0
LINE
  5
F9
330
1F
100
AcDbEntity
  8
0
  6
Continuous
 62
     7
370
     0
100
AcDbLine
 10
75.4324604061
 20
173.2983545391
 30
0.0
 11
74.8671224576
 21
173.2983545391
 31
0.0
  0
LINE
  5
FA
330
1F
100
AcDbEntity
  8
0
  6
Continuous
 62
     7
370
     0
100
AcDbLine
 10
74.8671224576
 20
173.0612789271
 30
0.0
 11
74.8671224576
 21
173.2983545391
 31
0.0
  0
LINE
  5
FB
330
1F
100
AcDbEntity
  8
0
  6
Continuous
 62
     7
370
     0
100
AcDbLine
 10
75.233460055
 20
173.0612789271
 30
0.0
 11
74.8671224576
 21
173.0612789271
 31
0.0
  0
LINE
  5
FC
330
1F
100
AcDbEntity
  8
0
  6
Continuous
 62
     7
370
     0
100
AcDbLine
 10
75.233460055
 20
172.6719153104
 30
0.0
 11
75.233460055
 21
173.0612789271
 31
0.0
  0
SPLINE
  5
FD
330
1F
100
AcDbEntity
  8
0
  6
Continuous
 62
     7
370
     0
100
AcDbSpline
210
0.0
220
0.0
230
1.0
 70
     8
 71
     3
 72
    16
 73
    12
 74
     0
 42
0.00000001
 43
0.00000001
 12
1.0
 22
0.0
 32
0.0
 13
1.0
 23
0.0
 33
0.0
 40
0.0
 40
0.0
 40
0.0
 40
0.0
 40
0.1252037281425968
 40
0.2503884232617758
 40
0.3755474586374103
 40
0.5006311301699856
 40
0.6432480406832858
 40
0.7502093923383388
 40
0.8748537122524724
 40
0.9374211602822526
 40
1.0
 40
1.0
 40
1.0
 40
1.0
 10
73.5656810121858
 20
173.2580187024982
 30
0.0
 10
73.56527989534244
 20
173.1999000603009
 30
0.0
 10
73.56447772263203
 20
173.0836716108946
 30
0.0
 10
73.55639055745647
 20
172.9099329049379
 30
0.0
 10
73.54075423775137
 20
172.7381709360521
 30
0.0
 10
73.51225784291799
 20
172.5644459484778
 30
0.0
 10
73.46827688735765
 20
172.412487684389
 30
0.0
 10
73.40500784319802
 20
172.2945992540464
 30
0.0
 10
73.34412356848262
 20
172.2415992257718
 30
0.0
 10
73.29107115209894
 20
172.2205946057481
 30
0.0
 10
73.26453654032157
 20
172.2190939424862
 30
0.0
 10
73.25126802675018
 20
172.2183435425548
 30
0.0
  0
SPLINE
  5
FE
330
1F
100
AcDbEntity
  8
0
  6
Continuous
 62
     7
370
     0
100
AcDbSpline
210
0.0
220
0.0
230
1.0
 70
     8
 71
     3
 72
    15
 73
    11
 74
     0
 42
0.00000001
 43
0.00000001
 12
1.0
 22
0.0
 32
0.0
 13
1.0
 23
0.0
 33
0.0
 40
0.0
 40
0.0
 40
0.0
 40
0.0
 40
0.0626253064539653
 40
0.1252128026006776
 40
0.2500411401690645
 40
0.3746316374763755
 40
0.4996312845618947
 40
0.7494694892746674
 40
0.8496821103872493
 40
0.9999999999999999
 40
0.9999999999999999
 40
0.9999999999999999
 40
0.9999999999999999
 10
73.25126802675018
 20
174.299340220573
 30
0.0
 10
73.26454451572812
 20
174.2984550278104
 30
0.0
 10
73.29108947794471
 20
174.2966851767243
 30
0.0
 10
73.34414462790403
 20
174.2747851628382
 30
0.0
 10
73.4084798542615
 20
174.2189028503657
 30
0.0
 10
73.4722157411425
 20
174.0990961650555
 30
0.0
 10
73.5245890516699
 20
173.8906988763853
 30
0.0
 10
73.55378064999631
 20
173.6755943943811
 30
0.0
 10
73.56412190665243
 20
173.4440807537755
 30
0.0
 10
73.56509634862407
 20
173.3277918508042
 30
0.0
 10
73.5656810121858
 20
173.2580187024982
 30
0.0
  0
SPLINE
  5
FF
330
1F
100
AcDbEntity
  8
0
  6
Continuous
 62
     7
370
     0
100
AcDbSpline
210
0.0
220
0.0
230
1.0
 70
     8
 71
     3
 72
    17
 73
    13
 74
     0
 42
0.00000001
 43
0.00000001
 12
1.0
 22
0.0
 32
0.0
 13
1.0
 23
0.0
 33
0.0
 40
0.0
 40
0.0
 40
0.0
 40
0.0
 40
0.1251492432292101
 40
0.2502781713674593
 40
0.383726297284406
 40
0.5004108843262777
 40
0.6316207721752758
 40
0.7498824272034624
 40
0.8124001134506156
 40
0.8749148898800253
 40
0.93744917043959
 40
0.9999999999999999
 40
0.9999999999999999
 40
0.9999999999999999
 40
0.9999999999999999
 10
72.9672645070808
 20
173.2580187024982
 30
0.0
 10
72.96757162693434
 20
173.3161921649285
 30
0.0
 10
72.96818581678764
 20
173.43252964667
 30
0.0
 10
72.97507296201701
 20
173.6102327889858
 30
0.0
 10
72.98795207513488
 20
173.782217085558
 30
0.0
 10
73.01147953448115
 20
173.9506747999702
 30
0.0
 10
73.04739675141886
 20
174.0998353484024
 30
0.0
 10
73.09358157283599
 20
174.1997205121624
 30
0.0
 10
73.1368694469389
 20
174.2540470589803
 30
0.0
 10
73.17349953749216
 20
174.2806394774287
 30
0.0
 10
73.21173997246858
 20
174.2971732851859
 30
0.0
 10
73.23809084656585
 20
174.2986178450713
 30
0.0
 10
73.25126802675018
 20
174.299340220573
 30
0.0
  0
SPLINE
  5
100
330
1F
100
AcDbEntity
  8
0
  6
Continuous
 62
     7
370
     0
100
AcDbSpline
210
0.0
220
0.0
230
1.0
 70
     8
 71
     3
 72
    12
 73
     8
 74
     0
 42
0.00000001
 43
0.00000001
 12
1.0
 22
0.0
 32
0.0
 13
1.0
 23
0.0
 33
0.0
 40
0.0
 40
0.0
 40
0.0
 40
0.0
 40
0.1249981802678252
 40
0.2500181699043179
 40
0.4998430409763966
 40
0.7498766444740009
 40
1.0
 40
1.0
 40
1.0
 40
1.0
 10
73.05009399889798
 20
172.4163181078489
 30
0.0
 10
73.0414431308256
 20
172.4466889332099
 30
0.0
 10
73.0241398852991
 20
172.5074358829573
 30
0.0
 10
73.00002106003207
 20
172.6424959179643
 30
0.0
 10
72.98031067078264
 20
172.8198213351719
 30
0.0
 10
72.96894437599822
 20
173.0382649224178
 30
0.0
 10
72.96782453037119
 20
173.1847586798143
 30
0.0
 10
72.9672645070808
 20
173.2580187024982
 30
0.0
  0
SPLINE
  5
101
330
1F
100
AcDbEntity
  8
0
  6
Continuous
 62
     7
370
     0
100
AcDbSpline
210
0.0
220
0.0
230
1.0
 70
     8
 71
     3
 72
    12
 73
     8
 74
     0
 42
0.00000001
 43
0.00000001
 12
1.0
 22
0.0
 32
0.0
 13
1.0
 23
0.0
 33
0.0
 40
0.0
 40
0.0
 40
0.0
 40
0.0
 40
0.2501118399281567
 40
0.5000203913628534
 40
0.7497554808353035
 40
0.8748530671024585
 40
1.0
 40
1.0
 40
1.0
 40
1.0
 10
73.25126802675018
 20
172.2183435425548
 30
0.0
 10
73.23178839896383
 20
172.2202154915867
 30
0.0
 10
73.1928449762449
 20
172.2239578681485
 30
0.0
 10
73.13752944104203
 20
172.2594202043237
 30
0.0
 10
73.09685133122704
 20
172.3134192519708
 30
0.0
 10
73.06829651848264
 20
172.368002880295
 30
0.0
 10
73.05616230302294
 20
172.4002109149243
 30
0.0
 10
73.05009399889798
 20
172.4163181078489
 30
0.0
  0
LINE
  5
102
330
1F
100
AcDbEntity
  8
0
  6
Continuous
 62
     7
370
     0
100
AcDbLine
 10
72.3471842942
 20
173.0876204548
 30
0.0
 11
72.160569602
 21
173.0876204548
 31
0.0
  0
LINE
  5
103
330
1F
100
AcDbEntity
  8
0
  6
Continuous
 62
     7
370
     0
100
AcDbLine
 10
72.160569602
 20
172.8505448429
 30
0.0
 11
72.160569602
 21
173.0876204548
 31
0.0
  0
LINE
  5
104
330
1F
100
AcDbEntity
  8
0
  6
Continuous
 62
     7
370
     0
100
AcDbLine
 10
72.3471842942
 20
172.8505448429
 30
0.0
 11
72.160569602
 21
172.8505448429
 31
0.0
  0
LINE
  5
105
330
1F
100
AcDbEntity
  8
0
  6
Continuous
 62
     7
370
     0
100
AcDbLine
 10
72.3471842942
 20
173.0876204548
 30
0.0
 11
72.3471842942
 21
172.8505448429
 31
0.0
  0
SPLINE
  5
106
330
1F
100
AcDbEntity
  8
0
  6
Continuous
 62
     7
370
     0
100
AcDbSpline
210
0.0
220
0.0
230
1.0
 70
     8
 71
     3
 72
    16
 73
    12
 74
     0
 42
0.00000001
 43
0.00000001
 12
1.0
 22
0.0
 32
0.0
 13
1.0
 23
0.0
 33
0.0
 40
0.0
 40
0.0
 40
0.0
 40
0.0
 40
0.1252037281425978
 40
0.2503884232617747
 40
0.3755474586374117
 40
0.5006311301699832
 40
0.6432480406832864
 40
0.7502093923383365
 40
0.8748537122524792
 40
0.9374211602822603
 40
1.0
 40
1.0
 40
1.0
 40
1.0
 10
71.8997898810004
 20
173.2580187024982
 30
0.0
 10
71.89972906030332
 20
173.1999000603009
 30
0.0
 10
71.89960742815485
 20
173.0836716108946
 30
0.0
 10
71.89839124317054
 20
172.9099329049379
 30
0.0
 10
71.89608617446709
 20
172.7381709360521
 30
0.0
 10
71.89204603192927
 20
172.5644459484778
 30
0.0
 10
71.88623915271161
 20
172.412487684389
 30
0.0
 10
71.87894412045607
 20
172.2945992540464
 30
0.0
 10
71.87322129820171
 20
172.2415992257718
 30
0.0
 10
71.86928042179359
 20
172.2205946057481
 30
0.0
 10
71.86777687856224
 20
172.2190939424862
 30
0.0
 10
71.86702503851507
 20
172.2183435425548
 30
0.0
  0
SPLINE
  5
107
330
1F
100
AcDbEntity
  8
0
  6
Continuous
 62
     7
370
     0
100
AcDbSpline
210
0.0
220
0.0
230
1.0
 70
     8
 71
     3
 72
    15
 73
    11
 74
     0
 42
0.00000001
 43
0.00000001
 12
1.0
 22
0.0
 32
0.0
 13
1.0
 23
0.0
 33
0.0
 40
0.0
 40
0.0
 40
0.0
 40
0.0
 40
0.0626253064539659
 40
0.125212802600688
 40
0.250041140169062
 40
0.3746316374763742
 40
0.499631284561891
 40
0.7494694892746632
 40
0.8496821103872443
 40
1.0
 40
1.0
 40
1.0
 40
1.0
 10
71.86702503851507
 20
174.299340220573
 30
0.0
 10
71.86777730134656
 20
174.2984550278104
 30
0.0
 10
71.86928137282756
 20
174.2966851767243
 30
0.0
 10
71.87322451020178
 20
174.2747851628382
 30
0.0
 10
71.87926146796626
 20
174.2189028503657
 30
0.0
 10
71.88675227004943
 20
174.0990961650555
 30
0.0
 10
71.89369121382572
 20
173.8906988763854
 30
0.0
 10
71.89800204360179
 20
173.6755943943811
 30
0.0
 10
71.89955312608456
 20
173.4440807537755
 30
0.0
 10
71.89970109806082
 20
173.3277918508042
 30
0.0
 10
71.8997898810004
 20
173.2580187024982
 30
0.0
  0
LINE
  5
108
330
1F
100
AcDbEntity
  8
0
  6
Continuous
 62
     7
370
     0
100
AcDbLine
 10
84.5634123546
 20
162.2446852727
 30
0.0
 11
97.2634122011
 21
162.2446852727
 31
0.0
  0
LINE
  5
109
330
1F
100
AcDbEntity
  8
0
  6
Continuous
 62
     7
370
     0
100
AcDbLine
 10
71.8634125081
 20
162.2446852727
 30
0.0
 11
84.5634123546
 21
162.2446852727
 31
0.0
  0
SPLINE
  5
10A
330
1F
100
AcDbEntity
  8
0
  6
Continuous
 62
     7
370
     0
100
AcDbSpline
210
0.0
220
0.0
230
1.0
 70
     8
 71
     3
 72
    15
 73
    11
 74
     0
 42
0.00000001
 43
0.00000001
 12
1.0
 22
0.0
 32
0.0
 13
1.0
 23
0.0
 33
0.0
 40
0.0
 40
0.0
 40
0.0
 40
0.0
 40
0.0626668316750823
 40
0.1253165312796181
 40
0.2504237887293715
 40
0.4993422858954028
 40
0.6240097216606074
 40
0.7495744539353422
 40
0.8747423044984255
 40
1.0
 40
1.0
 40
1.0
 40
1.0
 10
72.11695972711635
 20
172.8427248638668
 30
0.0
 10
72.1168567408391
 20
172.8215214689286
 30
0.0
 10
72.11665079643932
 20
172.7791204757079
 30
0.0
 10
72.11428058301458
 20
172.6951220700716
 30
0.0
 10
72.10622754166029
 20
172.5521610677781
 30
0.0
 10
72.08658996405192
 20
172.4102009831524
 30
0.0
 10
72.06226739990281
 20
172.3068942669576
 30
0.0
 10
72.0422953736871
 20
172.2531597902942
 30
0.0
 10
72.02197716240053
 20
172.2230079500612
 30
0.0
 10
72.00920387816758
 20
172.2198987168892
 30
0.0
 10
72.00281494472151
 20
172.2183435425548
 30
0.0
  0
SPLINE
  5
10B
330
1F
100
AcDbEntity
  8
0
  6
Continuous
 62
     7
370
     0
100
AcDbSpline
210
0.0
220
0.0
230
1.0
 70
     8
 71
     3
 72
    14
 73
    10
 74
     0
 42
0.00000001
 43
0.00000001
 12
1.0
 22
0.0
 32
0.0
 13
1.0
 23
0.0
 33
0.0
 40
0.0
 40
0.0
 40
0.0
 40
0.0
 40
0.0802123015101632
 40
0.1604211916608675
 40
0.2806532995948706
 40
0.4008795060843166
 40
0.699538558292487
 40
0.8497013039966862
 40
1.0
 40
1.0
 40
1.0
 40
1.0
 10
72.04638017733916
 20
173.371617413561
 30
0.0
 10
72.04940674576817
 20
173.3655140828115
 30
0.0
 10
72.05545975390886
 20
173.353307680882
 30
0.0
 10
72.06580685150267
 20
173.3241940777941
 30
0.0
 10
72.07747972410209
 20
173.2858793790622
 30
0.0
 10
72.09513080661286
 20
173.2021220688137
 30
0.0
 10
72.10916686906113
 20
173.0850091559541
 30
0.0
 10
72.11608310690329
 20
172.9483274984919
 30
0.0
 10
72.11666743224842
 20
172.8779363587414
 30
0.0
 10
72.11695972711635
 20
172.8427248638668
 30
0.0
  0
SPLINE
  5
10C
330
1F
100
AcDbEntity
  8
0
  6
Continuous
 62
     7
370
     0
100
AcDbSpline
210
0.0
220
0.0
230
1.0
 70
     8
 71
     3
 72
    13
 73
     9
 74
     0
 42
0.00000001
 43
0.00000001
 12
1.0
 22
0.0
 32
0.0
 13
1.0
 23
0.0
 33
0.0
 40
0.0
 40
0.0
 40
0.0
 40
0.0
 40
0.1253010756993193
 40
0.2504995542168312
 40
0.4998325642670768
 40
0.7494027973204135
 40
0.87466232517452
 40
0.9999999999999999
 40
0.9999999999999999
 40
0.9999999999999999
 40
0.9999999999999999
 10
72.10148884678102
 20
173.7745635662072
 30
0.0
 10
72.10133950566254
 20
173.7519368640916
 30
0.0
 10
72.10104094570688
 20
173.7067019867233
 30
0.0
 10
72.09704156797318
 20
173.6185279953874
 30
0.0
 10
72.08689777286301
 20
173.5165225887619
 30
0.0
 10
72.07106705427682
 20
173.4408604621288
 30
0.0
 10
72.05711946985133
 20
173.396891930176
 30
0.0
 10
72.04996068564868
 20
173.380044003735
 30
0.0
 10
72.04638017733916
 20
173.371617413561
 30
0.0
  0
SPLINE
  5
10D
330
1F
100
AcDbEntity
  8
0
  6
Continuous
 62
     7
370
     0
100
AcDbSpline
210
0.0
220
0.0
230
1.0
 70
     8
 71
     3
 72
    15
 73
    11
 74
     0
 42
0.00000001
 43
0.00000001
 12
1.0
 22
0.0
 32
0.0
 13
1.0
 23
0.0
 33
0.0
 40
0.0
 40
0.0
 40
0.0
 40
0.0
 40
0.1252580288245897
 40
0.2504411376471803
 40
0.3771276107343623
 40
0.5006926130411052
 40
0.7496106378174798
 40
0.8747071549312984
 40
0.9373404137403419
 40
1.0
 40
1.0
 40
1.0
 40
1.0
 10
72.00232883891515
 20
174.299340220573
 30
0.0
 10
72.00781939475995
 20
174.2980904010448
 30
0.0
 10
72.01879722240892
 20
174.2955915095372
 30
0.0
 10
72.03617176462303
 20
174.2711397117704
 30
0.0
 10
72.05329309174347
 20
174.2279492430751
 30
0.0
 10
72.07428447386985
 20
174.1428911282269
 30
0.0
 10
72.09159823239382
 20
174.0242711103811
 30
0.0
 10
72.09909322865249
 20
173.9018828333371
 30
0.0
 10
72.10121930121494
 20
173.8294592081575
 30
0.0
 10
72.10139898567346
 20
173.7928646766943
 30
0.0
 10
72.10148884678102
 20
173.7745635662072
 30
0.0
  0
SPLINE
  5
10E
330
1F
100
AcDbEntity
  8
0
  6
Continuous
 62
     7
370
     0
100
AcDbSpline
210
0.0
220
0.0
230
1.0
 70
     8
 71
     3
 72
    14
 73
    10
 74
     0
 42
0.00000001
 43
0.00000001
 12
1.0
 22
0.0
 32
0.0
 13
1.0
 23
0.0
 33
0.0
 40
0.0
 40
0.0
 40
0.0
 40
0.0
 40
0.0627611066036627
 40
0.1255007539591332
 40
0.2507847239056475
 40
0.4998855572886423
 40
0.7491508865885909
 40
0.8745377927464117
 40
1.0
 40
1.0
 40
1.0
 40
1.0
 10
71.93029042575297
 20
173.7811489987326
 30
0.0
 10
71.9303375169372
 20
173.7992601454891
 30
0.0
 10
71.93043168320426
 20
173.8354762464473
 30
0.0
 10
71.93153916741639
 20
173.9071685964185
 30
0.0
 10
71.93550029502295
 20
174.028345934556
 30
0.0
 10
71.94771726070128
 20
174.176293149403
 30
0.0
 10
71.96752078337309
 20
174.2648708543084
 30
0.0
 10
71.98657415676472
 20
174.2953958350568
 30
0.0
 10
71.9970762273443
 20
174.2980251623062
 30
0.0
 10
72.00232883891515
 20
174.299340220573
 30
0.0
  0
SPLINE
  5
10F
330
1F
100
AcDbEntity
  8
0
  6
Continuous
 62
     7
370
     0
100
AcDbSpline
210
0.0
220
0.0
230
1.0
 70
     8
 71
     3
 72
    13
 73
     9
 74
     0
 42
0.00000001
 43
0.00000001
 12
1.0
 22
0.0
 32
0.0
 13
1.0
 23
0.0
 33
0.0
 40
0.0
 40
0.0
 40
0.0
 40
0.0
 40
0.1253406105761377
 40
0.2506037175682626
 40
0.5001204114684427
 40
0.7494804445249209
 40
0.8746806903649612
 40
1.0
 40
1.0
 40
1.0
 40
1.0
 10
71.96596988164251
 20
173.371617413561
 30
0.0
 10
71.9632737757528
 20
173.3800079003756
 30
0.0
 10
71.95788323109359
 20
173.3967836857998
 30
0.0
 10
71.94822942885294
 20
173.4406840506824
 30
0.0
 10
71.93824504858871
 20
173.5168640978656
 30
0.0
 10
71.93260188184338
 20
173.62161188047
 30
0.0
 10
71.93057960737892
 20
173.7119226370747
 30
0.0
 10
71.93038685016536
 20
173.758066234663
 30
0.0
 10
71.93029042575297
 20
173.7811489987326
 30
0.0
  0
SPLINE
  5
110
330
1F
100
AcDbEntity
  8
0
  6
Continuous
 62
     7
370
     0
100
AcDbSpline
210
0.0
220
0.0
230
1.0
 70
     8
 71
     3
 72
    14
 73
    10
 74
     0
 42
0.00000001
 43
0.00000001
 12
1.0
 22
0.0
 32
0.0
 13
1.0
 23
0.0
 33
0.0
 40
0.0
 40
0.0
 40
0.0
 40
0.0
 40
0.1430155837949401
 40
0.2859859627394625
 40
0.4290981023446642
 40
0.571679995181539
 40
0.7854381651819297
 40
0.8927142085112176
 40
1.0
 40
1.0
 40
1.0
 40
1.0
 10
71.92243573725827
 20
172.849721885925
 30
0.0
 10
71.92254303000765
 20
172.8834550265125
 30
0.0
 10
71.92275758159292
 20
172.9509106452018
 30
0.0
 10
71.92506832695805
 20
173.0498331734652
 30
0.0
 10
71.92911107870817
 20
173.1429663114901
 30
0.0
 10
71.93640800349797
 20
173.2383066578755
 30
0.0
 10
71.94607624183398
 20
173.3065398007532
 30
0.0
 10
71.95686157997388
 20
173.3500863083209
 30
0.0
 10
71.96293368912852
 20
173.364440161102
 30
0.0
 10
71.96596988164251
 20
173.371617413561
 30
0.0
  0
SPLINE
  5
111
330
1F
100
AcDbEntity
  8
0
  6
Continuous
 62
     7
370
     0
100
AcDbSpline
210
0.0
220
0.0
230
1.0
 70
     8
 71
     3
 72
    15
 73
    11
 74
     0
 42
0.00000001
 43
0.00000001
 12
1.0
 22
0.0
 32
0.0
 13
1.0
 23
0.0
 33
0.0
 40
0.0
 40
0.0
 40
0.0
 40
0.0
 40
0.1252647643002719
 40
0.2504479081602803
 40
0.3755765427712714
 40
0.500649809086389
 40
0.7495399527615296
 40
0.8746744095015171
 40
0.9373284349147425
 40
1.0
 40
1.0
 40
1.0
 40
1.0
 10
72.00281494472151
 20
172.2183435425548
 30
0.0
 10
71.99663073049246
 20
172.2198459930177
 30
0.0
 10
71.98426633156562
 20
172.2228499149718
 30
0.0
 10
71.96775944115144
 20
172.2542511210695
 30
0.0
 10
71.95335505791394
 20
172.3082492428598
 30
0.0
 10
71.93790072017545
 20
172.412858335927
 30
0.0
 10
71.92756946630877
 20
172.5569951741883
 30
0.0
 10
71.92370791043744
 20
172.7011616232579
 30
0.0
 10
71.92257694663739
 20
172.7857221059797
 30
0.0
 10
71.9224828114428
 20
172.8283866356026
 30
0.0
 10
71.92243573725827
 20
172.849721885925
 30
0.0
  0
SPLINE
  5
112
330
1F
100
AcDbEntity
  8
0
  6
Continuous
 62
     7
370
     0
100
AcDbSpline
210
0.0
220
0.0
230
1.0
 70
     8
 71
     3
 72
    17
 73
    13
 74
     0
 42
0.00000001
 43
0.00000001
 12
1.0
 22
0.0
 32
0.0
 13
1.0
 23
0.0
 33
0.0
 40
0.0
 40
0.0
 40
0.0
 40
0.0
 40
0.0625403099404381
 40
0.1250778739838926
 40
0.2498441509250175
 40
0.321291597644814
 40
0.3927532396738471
 40
0.4998211942582852
 40
0.624716912594759
 40
0.7497597156393038
 40
0.8498579354880792
 40
1.0
 40
1.0
 40
1.0
 40
1.0
 10
72.61240646494923
 20
174.299340220573
 30
0.0
 10
72.62204591720186
 20
174.2984164342354
 30
0.0
 10
72.641324398477
 20
174.2965689021201
 30
0.0
 10
72.68007492364804
 20
174.274179049964
 30
0.0
 10
72.71908356485234
 20
174.2281703630423
 30
0.0
 10
72.75589824069978
 20
174.1600981553416
 30
0.0
 10
72.78658147545511
 20
174.0820860624628
 30
0.0
 10
72.81685629744359
 20
173.9693055841068
 30
0.0
 10
72.84174689125629
 20
173.8198528673737
 30
0.0
 10
72.85398745228974
 20
173.6638999941859
 30
0.0
 10
72.86110319661387
 20
173.4949116441586
 30
0.0
 10
72.86188342791675
 20
173.3815808263105
 30
0.0
 10
72.8623515601318
 20
173.3135832894311
 30
0.0
  0
SPLINE
  5
113
330
1F
100
AcDbEntity
  8
0
  6
Continuous
 62
     7
370
     0
100
AcDbSpline
210
0.0
220
0.0
230
1.0
 70
     8
 71
     3
 72
    15
 73
    11
 74
     0
 42
0.00000001
 43
0.00000001
 12
1.0
 22
0.0
 32
0.0
 13
1.0
 23
0.0
 33
0.0
 40
0.0
 40
0.0
 40
0.0
 40
0.0
 40
0.1252887505647577
 40
0.2504882286803768
 40
0.3770365727798481
 40
0.5007435852619794
 40
0.7495387817026479
 40
0.8746650576214515
 40
0.9373212665593175
 40
1.0
 40
1.0
 40
1.0
 40
1.0
 10
72.41411941873059
 20
173.6173363646639
 30
0.0
 10
72.41455693189438
 20
173.6607679733249
 30
0.0
 10
72.41543164647912
 20
173.7476002441647
 30
0.0
 10
72.42406305586665
 20
173.8756604992341
 30
0.0
 10
72.43959148277375
 20
173.995582304826
 30
0.0
 10
72.47028553875232
 20
174.1360050853267
 30
0.0
 10
72.5147455297799
 20
174.2421097147384
 30
0.0
 10
72.56197651474041
 20
174.2860355513827
 30
0.0
 10
72.59046453345275
 20
174.2977615637431
 30
0.0
 10
72.6050916115512
 20
174.2988139385873
 30
0.0
 10
72.61240646494923
 20
174.299340220573
 30
0.0
  0
SPLINE
  5
114
330
1F
100
AcDbEntity
  8
0
  6
Continuous
 62
     7
370
     0
100
AcDbSpline
210
0.0
220
0.0
230
1.0
 70
     8
 71
     3
 72
    14
 73
    10
 74
     0
 42
0.00000001
 43
0.00000001
 12
1.0
 22
0.0
 32
0.0
 13
1.0
 23
0.0
 33
0.0
 40
0.0
 40
0.0
 40
0.0
 40
0.0
 40
0.0627517291583981
 40
0.1254851502985845
 40
0.2506939512229763
 40
0.4998334182028659
 40
0.7491751218864963
 40
0.8745705794196731
 40
1.0
 40
1.0
 40
1.0
 40
1.0
 10
72.59675059637371
 20
172.9559119853967
 30
0.0
 10
72.58988868033673
 20
172.9564738932396
 30
0.0
 10
72.57616685024874
 20
172.9575975449869
 30
0.0
 10
72.54950696155286
 20
172.9705306366821
 30
0.0
 10
72.50553102018156
 20
173.0164272336299
 30
0.0
 10
72.45457616596221
 20
173.1477799296697
 30
0.0
 10
72.42545813393723
 20
173.3328439730872
 30
0.0
 10
72.41536544508809
 20
173.4939386646862
 30
0.0
 10
72.41453479834111
 20
173.5762000851241
 30
0.0
 10
72.41411941873059
 20
173.6173363646639
 30
0.0
  0
SPLINE
  5
115
330
1F
100
AcDbEntity
  8
0
  6
Continuous
 62
     7
370
     0
100
AcDbSpline
210
0.0
220
0.0
230
1.0
 70
     8
 71
     3
 72
    13
 73
     9
 74
     0
 42
0.00000001
 43
0.00000001
 12
1.0
 22
0.0
 32
0.0
 13
1.0
 23
0.0
 33
0.0
 40
0.0
 40
0.0
 40
0.0
 40
0.0
 40
0.1430245461696614
 40
0.2859740178866036
 40
0.5712824636310048
 40
0.785461756466728
 40
0.8926986585742552
 40
1.0
 40
1.0
 40
1.0
 40
1.0
 10
72.76247235359318
 20
173.2242683608057
 30
0.0
 10
72.75697100949931
 20
173.2017827647838
 30
0.0
 10
72.74597120900049
 20
173.156823375566
 30
0.0
 10
72.71847601145384
 20
173.0794385846679
 30
0.0
 10
72.68212232140057
 20
173.0108417751555
 30
0.0
 10
72.64444244862649
 20
172.9711663936861
 30
0.0
 10
72.61713222602017
 20
172.9578527740336
 30
0.0
 10
72.60354583320509
 20
172.9565590444718
 30
0.0
 10
72.59675059637371
 20
172.9559119853967
 30
0.0
  0
LINE
  5
116
330
1F
100
AcDbEntity
  8
0
  6
Continuous
 62
     7
370
     0
100
AcDbLine
 10
72.7629285541
 20
173.1740546403
 30
0.0
 11
72.7624722061
 21
173.2242687596
 31
0.0
  0
SPLINE
  5
117
330
1F
100
AcDbEntity
  8
0
  6
Continuous
 62
     7
370
     0
100
AcDbSpline
210
0.0
220
0.0
230
1.0
 70
     8
 71
     3
 72
    16
 73
    12
 74
     0
 42
0.00000001
 43
0.00000001
 12
1.0
 22
0.0
 32
0.0
 13
1.0
 23
0.0
 33
0.0
 40
0.0
 40
0.0
 40
0.0
 40
0.0
 40
0.0625816197474827
 40
0.1251285240635734
 40
0.2498181409520641
 40
0.3744392268407874
 40
0.4993354886444107
 40
0.6423482163700223
 40
0.7853959263790812
 40
0.8926927347061658
 40
0.9999999999999999
 40
0.9999999999999999
 40
0.9999999999999999
 40
0.9999999999999999
 10
72.60490489058097
 20
172.4554191134683
 30
0.0
 10
72.61158553324677
 20
172.4561906100761
 30
0.0
 10
72.62494311267568
 20
172.4577331753252
 30
0.0
 10
72.65153814520954
 20
172.4745468591783
 30
0.0
 10
72.6831038664877
 20
172.517501684212
 30
0.0
 10
72.71431538414896
 20
172.6010542100475
 30
0.0
 10
72.73338707781299
 20
172.7149089528516
 30
0.0
 10
72.74753574562428
 20
172.8386068850553
 30
0.0
 10
72.75720305431332
 20
172.9601920282416
 30
0.0
 10
72.76222787858858
 20
173.0724217838123
 30
0.0
 10
72.76269510349627
 20
173.1401757859923
 30
0.0
 10
72.76292872733329
 20
173.1740544377997
 30
0.0
  0
SPLINE
  5
118
330
1F
100
AcDbEntity
  8
0
  6
Continuous
 62
     7
370
     0
100
AcDbSpline
210
0.0
220
0.0
230
1.0
 70
     8
 71
     3
 72
    13
 73
     9
 74
     0
 42
0.00000001
 43
0.00000001
 12
1.0
 22
0.0
 32
0.0
 13
1.0
 23
0.0
 33
0.0
 40
0.0
 40
0.0
 40
0.0
 40
0.0
 40
0.1917161088553152
 40
0.3567959472902585
 40
0.5009115742304965
 40
0.7493888557884738
 40
0.8746309851731243
 40
1.0
 40
1.0
 40
1.0
 40
1.0
 10
72.50167573078787
 20
172.7715198746862
 30
0.0
 10
72.5036936617407
 20
172.7405404077742
 30
0.0
 10
72.50744916037972
 20
172.6828856373461
 30
0.0
 10
72.51739859740886
 20
172.6060296777063
 30
0.0
 10
72.53386975459888
 20
172.5290914620516
 30
0.0
 10
72.55779859848164
 20
172.4801059046748
 30
0.0
 10
72.58407593393598
 20
172.4577241002139
 30
0.0
 10
72.59795956192019
 20
172.4561877016784
 30
0.0
 10
72.60490489058097
 20
172.4554191134683
 30
0.0
  0
SPLINE
  5
119
330
1F
100
AcDbEntity
  8
0
  6
Continuous
 62
     7
370
     0
100
AcDbSpline
210
0.0
220
0.0
230
1.0
 70
     8
 71
     3
 72
     8
 73
     4
 74
     0
 42
0.00000001
 43
0.00000001
 12
1.0
 22
0.0
 32
0.0
 13
1.0
 23
0.0
 33
0.0
 40
0.0
 40
0.0
 40
0.0
 40
0.0
 40
1.0
 40
1.0
 40
1.0
 40
1.0
 10
72.42181841834095
 20
172.7451781445847
 30
0.0
 10
72.44756882618982
 20
172.7539587212852
 30
0.0
 10
72.47418983898946
 20
172.7627392979857
 30
0.0
 10
72.50167573078787
 20
172.7715198746862
 30
0.0
  0
SPLINE
  5
11A
330
1F
100
AcDbEntity
  8
0
  6
Continuous
 62
     7
370
     0
100
AcDbSpline
210
0.0
220
0.0
230
1.0
 70
     8
 71
     3
 72
    13
 73
     9
 74
     0
 42
0.00000001
 43
0.00000001
 12
1.0
 22
0.0
 32
0.0
 13
1.0
 23
0.0
 33
0.0
 40
0.0
 40
0.0
 40
0.0
 40
0.0
 40
0.1254044199167789
 40
0.2507436796072392
 40
0.4998501634744808
 40
0.7491806965812905
 40
0.8745524567700782
 40
1.0
 40
1.0
 40
1.0
 40
1.0
 10
72.60033862390219
 20
172.2183435425548
 30
0.0
 10
72.588401516446
 20
172.2197045073296
 30
0.0
 10
72.56453350406318
 20
172.2224257297208
 30
0.0
 10
72.51949467713013
 20
172.2564103654188
 30
0.0
 10
72.47027722938978
 20
172.3505176729684
 30
0.0
 10
72.44011382496637
 20
172.5032948910067
 30
0.0
 10
72.42660962588356
 20
172.6389547247528
 30
0.0
 10
72.42341580918385
 20
172.7097632065691
 30
0.0
 10
72.42181841834095
 20
172.7451781445847
 30
0.0
  0
SPLINE
  5
11B
330
1F
100
AcDbEntity
  8
0
  6
Continuous
 62
     7
370
     0
100
AcDbSpline
210
0.0
220
0.0
230
1.0
 70
     8
 71
     3
 72
    16
 73
    12
 74
     0
 42
0.00000001
 43
0.00000001
 12
1.0
 22
0.0
 32
0.0
 13
1.0
 23
0.0
 33
0.0
 40
0.0
 40
0.0
 40
0.0
 40
0.0
 40
0.1430616341057152
 40
0.2503572317569615
 40
0.3754829729346257
 40
0.5005081395810799
 40
0.6281730483459157
 40
0.750151060823417
 40
0.8748803908926333
 40
0.9374219514180369
 40
1.0
 40
1.0
 40
1.0
 40
1.0
 10
72.8623515601318
 20
173.3135832894311
 30
0.0
 10
72.86187412253673
 20
173.2429250835756
 30
0.0
 10
72.86103860884099
 20
173.1192735334624
 30
0.0
 10
72.85365488759892
 20
172.9346865097087
 30
0.0
 10
72.84052069592691
 20
172.7610083908057
 30
0.0
 10
72.81536529274122
 20
172.5852503549812
 30
0.0
 10
72.7769038284869
 20
172.4284127058252
 30
0.0
 10
72.72449489755714
 20
172.3062828102579
 30
0.0
 10
72.67374315247741
 20
172.2451697569097
 30
0.0
 10
72.63166378184081
 20
172.2212775243177
 30
0.0
 10
72.61078237306482
 20
172.2193217265959
 30
0.0
 10
72.60033862390219
 20
172.2183435425548
 30
0.0
  0
LINE
  5
11C
330
1F
100
AcDbEntity
  8
0
  6
Continuous
 62
     7
370
     0
100
AcDbLine
 10
74.0849996221
 20
173.0876204548
 30
0.0
 11
73.6725801838
 21
173.0876204548
 31
0.0
  0
LINE
  5
11D
330
1F
100
AcDbEntity
  8
0
  6
Continuous
 62
     7
370
     0
100
AcDbLine
 10
73.6725801838
 20
172.8505448429
 30
0.0
 11
73.6725801838
 21
173.0876204548
 31
0.0
  0
LINE
  5
11E
330
1F
100
AcDbEntity
  8
0
  6
Continuous
 62
     7
370
     0
100
AcDbLine
 10
74.0849996221
 20
172.8505448429
 30
0.0
 11
73.6725801838
 21
172.8505448429
 31
0.0
  0
LINE
  5
11F
330
1F
100
AcDbEntity
  8
0
  6
Continuous
 62
     7
370
     0
100
AcDbLine
 10
74.0849996221
 20
173.0876204548
 30
0.0
 11
74.0849996221
 21
172.8505448429
 31
0.0
  0
SPLINE
  5
120
330
1F
100
AcDbEntity
  8
0
  6
Continuous
 62
     7
370
     0
100
AcDbSpline
210
0.0
220
0.0
230
1.0
 70
     8
 71
     3
 72
    16
 73
    12
 74
     0
 42
0.00000001
 43
0.00000001
 12
1.0
 22
0.0
 32
0.0
 13
1.0
 23
0.0
 33
0.0
 40
0.0
 40
0.0
 40
0.0
 40
0.0
 40
0.1252037281426007
 40
0.2503884232617768
 40
0.3755474586374129
 40
0.500631130169987
 40
0.6432480406832933
 40
0.7502093923383427
 40
0.8748537122524782
 40
0.9374211602822597
 40
1.0
 40
1.0
 40
1.0
 40
1.0
 10
76.63985855180388
 20
173.2580187024982
 30
0.0
 10
76.63923187185777
 20
173.1999000603009
 30
0.0
 10
76.63797860723115
 20
173.0836716108946
 30
0.0
 10
76.62533525517509
 20
172.9099329049379
 30
0.0
 10
76.60085060635133
 20
172.7381709360521
 30
0.0
 10
76.5560932514746
 20
172.5644459484778
 30
0.0
 10
76.48665444910577
 20
172.412487684389
 30
0.0
 10
76.38587164125757
 20
172.2945992540464
 30
0.0
 10
76.28779532060581
 20
172.2415992257718
 30
0.0
 10
76.20145451396179
 20
172.2205946057481
 30
0.0
 10
76.15787678557018
 20
172.2190939424862
 30
0.0
 10
76.136085938
 20
172.2183435425548
 30
0.0
  0
SPLINE
  5
121
330
1F
100
AcDbEntity
  8
0
  6
Continuous
 62
     7
370
     0
100
AcDbSpline
210
0.0
220
0.0
230
1.0
 70
     8
 71
     3
 72
    15
 73
    11
 74
     0
 42
0.00000001
 43
0.00000001
 12
1.0
 22
0.0
 32
0.0
 13
1.0
 23
0.0
 33
0.0
 40
0.0
 40
0.0
 40
0.0
 40
0.0
 40
0.0626253064539578
 40
0.1252128026006794
 40
0.2500411401690621
 40
0.3746316374763742
 40
0.4996312845618908
 40
0.7494694892746641
 40
0.8496821103872441
 40
1.0
 40
1.0
 40
1.0
 40
1.0
 10
76.136085938
 20
174.299340220573
 30
0.0
 10
76.15788990808814
 20
174.2984550278104
 30
0.0
 10
76.20148468402056
 20
174.2966851767243
 30
0.0
 10
76.2878282067082
 20
174.2747851628382
 30
0.0
 10
76.39147216253929
 20
174.2189028503657
 30
0.0
 10
76.49287910117656
 20
174.0990961650555
 30
0.0
 10
76.57554785768373
 20
173.8906988763853
 30
0.0
 10
76.62125219481727
 20
173.6755943943811
 30
0.0
 10
76.6374229974552
 20
173.4440807537755
 30
0.0
 10
76.63894522050602
 20
173.3277918508042
 30
0.0
 10
76.63985855180388
 20
173.2580187024982
 30
0.0
  0
SPLINE
  5
122
330
1F
100
AcDbEntity
  8
0
  6
Continuous
 62
     7
370
     0
100
AcDbSpline
210
0.0
220
0.0
230
1.0
 70
     8
 71
     3
 72
    17
 73
    13
 74
     0
 42
0.00000001
 43
0.00000001
 12
1.0
 22
0.0
 32
0.0
 13
1.0
 23
0.0
 33
0.0
 40
0.0
 40
0.0
 40
0.0
 40
0.0
 40
0.1251492432291847
 40
0.2502781713674079
 40
0.3837262972969515
 40
0.5004108843264096
 40
0.6316207721924947
 40
0.7498824272035137
 40
0.8124001134506454
 40
0.8749148898800526
 40
0.9374491704395997
 40
1.0
 40
1.0
 40
1.0
 40
1.0
 10
75.65496778180723
 20
173.2580187024982
 30
0.0
 10
75.65550480252418
 20
173.3161921649285
 30
0.0
 10
75.65657875678517
 20
173.4325296466701
 30
0.0
 10
75.66860805477683
 20
173.6102327889914
 30
0.0
 10
75.69105786171572
 20
173.7822170855648
 30
0.0
 10
75.73189181941687
 20
173.9506747999825
 30
0.0
 10
75.79384706631134
 20
174.0998353484092
 30
0.0
 10
75.87267223518349
 20
174.1997205121662
 30
0.0
 10
75.94579546424524
 20
174.2540470589803
 30
0.0
 10
76.00721482065906
 20
174.2806394774287
 30
0.0
 10
76.07088966499788
 20
174.2971732851859
 30
0.0
 10
76.1143519302855
 20
174.2986178450713
 30
0.0
 10
76.136085938
 20
174.299340220573
 30
0.0
  0
SPLINE
  5
123
330
1F
100
AcDbEntity
  8
0
  6
Continuous
 62
     7
370
     0
100
AcDbSpline
210
0.0
220
0.0
230
1.0
 70
     8
 71
     3
 72
    12
 73
     8
 74
     0
 42
0.00000001
 43
0.00000001
 12
1.0
 22
0.0
 32
0.0
 13
1.0
 23
0.0
 33
0.0
 40
0.0
 40
0.0
 40
0.0
 40
0.0
 40
0.1249981802678304
 40
0.2500181699043232
 40
0.499843040976401
 40
0.7498766444739992
 40
1.0
 40
1.0
 40
1.0
 40
1.0
 10
75.79833546755403
 20
172.4163181078489
 30
0.0
 10
75.78347527281511
 20
172.4466889332099
 30
0.0
 10
75.75375229056779
 20
172.5074358829573
 30
0.0
 10
75.71202719411725
 20
172.6424959179643
 30
0.0
 10
75.67775532355131
 20
172.8198213351719
 30
0.0
 10
75.65790414021755
 20
173.0382649224178
 30
0.0
 10
75.65594668503098
 20
173.1847586798143
 30
0.0
 10
75.65496778180723
 20
173.2580187024982
 30
0.0
  0
SPLINE
  5
124
330
1F
100
AcDbEntity
  8
0
  6
Continuous
 62
     7
370
     0
100
AcDbSpline
210
0.0
220
0.0
230
1.0
 70
     8
 71
     3
 72
    12
 73
     8
 74
     0
 42
0.00000001
 43
0.00000001
 12
1.0
 22
0.0
 32
0.0
 13
1.0
 23
0.0
 33
0.0
 40
0.0
 40
0.0
 40
0.0
 40
0.0
 40
0.2501118399281622
 40
0.5000203913628645
 40
0.7497554808353057
 40
0.8748530671024467
 40
1.0
 40
1.0
 40
1.0
 40
1.0
 10
76.136085938
 20
172.2183435425548
 30
0.0
 10
76.10392365001249
 20
172.2202154915867
 30
0.0
 10
76.03962521523528
 20
172.2239578681485
 30
0.0
 10
75.94697941933057
 20
172.2594202043237
 30
0.0
 10
75.87816066828096
 20
172.3134192519708
 30
0.0
 10
75.82951005698771
 20
172.368002880295
 30
0.0
 10
75.80872836337127
 20
172.4002109149243
 30
0.0
 10
75.79833546755403
 20
172.4163181078489
 30
0.0
  0
LINE
  5
125
330
1F
100
AcDbEntity
  8
0
  6
Continuous
 62
     7
370
     0
100
AcDbLine
 10
72.0067337391
 20
168.9817610187
 30
0.0
 11
71.8978248772
 21
168.9817610187
 31
0.0
  0
LINE
  5
126
330
1F
100
AcDbEntity
  8
0
  6
Continuous
 62
     7
370
     0
100
AcDbLine
 10
71.8978248772
 20
170.7993403999
 30
0.0
 11
71.8978248772
 21
168.9817610187
 31
0.0
  0
LINE
  5
127
330
1F
100
AcDbEntity
  8
0
  6
Continuous
 62
     7
370
     0
100
AcDbLine
 10
71.8978248772
 20
170.7993403999
 30
0.0
 11
71.8798065794
 21
170.7993403999
 31
0.0
  0
LINE
  5
128
330
1F
100
AcDbEntity
  8
0
  6
Continuous
 62
     7
370
     0
100
AcDbLine
 10
71.8798065794
 20
168.7446854068
 30
0.0
 11
71.8798065794
 21
170.7993403999
 31
0.0
  0
LINE
  5
129
330
1F
100
AcDbEntity
  8
0
  6
Continuous
 62
     7
370
     0
100
AcDbLine
 10
72.0067337391
 20
168.7446854068
 30
0.0
 11
71.8798065794
 21
168.7446854068
 31
0.0
  0
LINE
  5
12A
330
1F
100
AcDbEntity
  8
0
  6
Continuous
 62
     7
370
     0
100
AcDbLine
 10
72.0067337391
 20
168.9817610187
 30
0.0
 11
72.0067337391
 21
168.7446854068
 31
0.0
  0
SPLINE
  5
12B
330
1F
100
AcDbEntity
  8
0
  6
Continuous
 62
     7
370
     0
100
AcDbSpline
210
0.0
220
0.0
230
1.0
 70
     8
 71
     3
 72
    13
 73
     9
 74
     0
 42
0.00000001
 43
0.00000001
 12
1.0
 22
0.0
 32
0.0
 13
1.0
 23
0.0
 33
0.0
 40
0.0
 40
0.0
 40
0.0
 40
0.0
 40
0.1253186234496431
 40
0.2505910238134536
 40
0.5000704273050903
 40
0.7494867868263316
 40
0.874715313907132
 40
1.0
 40
1.0
 40
1.0
 40
1.0
 10
72.93841131685981
 20
169.8246962068176
 30
0.0
 10
72.94925278575073
 20
169.8159647025678
 30
0.0
 10
72.97093172471634
 20
169.7985049146355
 30
0.0
 10
73.01235368453706
 20
169.7475182213116
 30
0.0
 10
73.05779426784372
 20
169.6537715484438
 30
0.0
 10
73.0870130215664
 20
169.5277098428813
 30
0.0
 10
73.09836635819855
 20
169.4178277962928
 30
0.0
 10
73.09928263901007
 20
169.3614523478433
 30
0.0
 10
73.09974088211983
 20
169.3332583046116
 30
0.0
  0
SPLINE
  5
12C
330
1F
100
AcDbEntity
  8
0
  6
Continuous
 62
     7
370
     0
100
AcDbSpline
210
0.0
220
0.0
230
1.0
 70
     8
 71
     3
 72
    13
 73
     9
 74
     0
 42
0.00000001
 43
0.00000001
 12
1.0
 22
0.0
 32
0.0
 13
1.0
 23
0.0
 33
0.0
 40
0.0
 40
0.0
 40
0.0
 40
0.0
 40
0.1252061738134367
 40
0.2503351135328766
 40
0.4999252578982683
 40
0.7495649115786374
 40
0.8747464467681102
 40
1.0
 40
1.0
 40
1.0
 40
1.0
 10
73.06595274935576
 20
170.2667433650834
 30
0.0
 10
73.06548813004613
 20
170.2429527192521
 30
0.0
 10
73.06455917802981
 20
170.1953861029757
 30
0.0
 10
73.05451736139116
 20
170.1029873479604
 30
0.0
 10
73.03161492232846
 20
169.9955956999032
 30
0.0
 10
72.99650679377707
 20
169.9098482861235
 30
0.0
 10
72.96413567109913
 20
169.856882518863
 30
0.0
 10
72.94698774535894
 20
169.8354270341628
 30
0.0
 10
72.93841131685981
 20
169.8246962068176
 30
0.0
  0
SPLINE
  5
12D
330
1F
100
AcDbEntity
  8
0
  6
Continuous
 62
     7
370
     0
100
AcDbSpline
210
0.0
220
0.0
230
1.0
 70
     8
 71
     3
 72
    14
 73
    10
 74
     0
 42
0.00000001
 43
0.00000001
 12
1.0
 22
0.0
 32
0.0
 13
1.0
 23
0.0
 33
0.0
 40
0.0
 40
0.0
 40
0.0
 40
0.0
 40
0.136146650747592
 40
0.2510781391734752
 40
0.5004260964969107
 40
0.7491549946763698
 40
0.8744769730917459
 40
0.937218148644604
 40
1.0
 40
1.0
 40
1.0
 40
1.0
 10
72.79391429551863
 20
170.799340220573
 30
0.0
 10
72.81059712085383
 20
170.7983660717411
 30
0.0
 10
72.84136315672998
 20
170.7965695716095
 30
0.0
 10
72.90382021519711
 20
170.7746461269762
 30
0.0
 10
72.98135332835759
 20
170.7036135434888
 30
0.0
 10
73.0371129233865
 20
170.5402781422266
 30
0.0
 10
73.0585996516821
 20
170.4076956954153
 30
0.0
 10
73.0650111416281
 20
170.3276637104101
 30
0.0
 10
73.0656388123142
 20
170.287054533334
 30
0.0
 10
73.06595274935576
 20
170.2667433650834
 30
0.0
  0
LINE
  5
12E
330
1F
100
AcDbEntity
  8
0
  6
Continuous
 62
     7
370
     0
100
AcDbLine
 10
72.7939145875
 20
170.7993403999
 30
0.0
 11
72.526646429
 21
170.7993403999
 31
0.0
  0
LINE
  5
12F
330
1F
100
AcDbEntity
  8
0
  6
Continuous
 62
     7
370
     0
100
AcDbLine
 10
72.526646429
 20
168.7446854068
 30
0.0
 11
72.526646429
 21
170.7993403999
 31
0.0
  0
LINE
  5
130
330
1F
100
AcDbEntity
  8
0
  6
Continuous
 62
     7
370
     0
100
AcDbLine
 10
72.7946875853
 20
168.7446854068
 30
0.0
 11
72.526646429
 21
168.7446854068
 31
0.0
  0
SPLINE
  5
131
330
1F
100
AcDbEntity
  8
0
  6
Continuous
 62
     7
370
     0
100
AcDbSpline
210
0.0
220
0.0
230
1.0
 70
     8
 71
     3
 72
    16
 73
    12
 74
     0
 42
0.00000001
 43
0.00000001
 12
1.0
 22
0.0
 32
0.0
 13
1.0
 23
0.0
 33
0.0
 40
0.0
 40
0.0
 40
0.0
 40
0.0
 40
0.0625870036469715
 40
0.1251447828607021
 40
0.2500628880183388
 40
0.3800112864287626
 40
0.4996715219971214
 40
0.6171428121950017
 40
0.7497005418904292
 40
0.8498234508633088
 40
1.0
 40
1.0
 40
1.0
 40
1.0
 10
73.09974088211983
 20
169.3332583046116
 30
0.0
 10
73.099444796604
 20
169.3105287276984
 30
0.0
 10
73.0988527638268
 20
169.2650801872416
 30
0.0
 10
73.09266092529427
 20
169.1751513557551
 30
0.0
 10
73.07583980055587
 20
169.0657949448321
 30
0.0
 10
73.045311949876
 20
168.9488071013611
 30
0.0
 10
73.00348236967457
 20
168.8577425964754
 30
0.0
 10
72.95348598643602
 20
168.7985026714854
 30
0.0
 10
72.9040116764849
 20
168.7659097948782
 30
0.0
 10
72.8498545456991
 20
168.7479545125055
 30
0.0
 10
72.8153749778495
 20
168.7459112216519
 30
0.0
 10
72.79468766771912
 20
168.7446852726563
 30
0.0
  0
SPLINE
  5
132
330
1F
100
AcDbEntity
  8
0
  6
Continuous
 62
     7
370
     0
100
AcDbSpline
210
0.0
220
0.0
230
1.0
 70
     8
 71
     3
 72
    14
 73
    10
 74
     0
 42
0.00000001
 43
0.00000001
 12
1.0
 22
0.0
 32
0.0
 13
1.0
 23
0.0
 33
0.0
 40
0.0
 40
0.0
 40
0.0
 40
0.0
 40
0.2504465544088783
 40
0.5006271577129477
 40
0.6256173980224403
 40
0.7503619177354576
 40
0.8749139347612949
 40
0.9374334541801445
 40
1.0
 40
1.0
 40
1.0
 40
1.0
 10
75.84461232961611
 20
173.2588418815639
 30
0.0
 10
75.84557841425857
 20
173.1753806396528
 30
0.0
 10
75.84750955765081
 20
173.0085467839594
 30
0.0
 10
75.86736406399055
 20
172.8011472809114
 30
0.0
 10
75.90635710709404
 20
172.6412862402509
 30
0.0
 10
75.96502520609806
 20
172.5426558562056
 30
0.0
 10
76.02947311791779
 20
172.4826064884963
 30
0.0
 10
76.08930101785315
 20
172.4585043855533
 30
0.0
 10
76.1204870564628
 20
172.4564477952233
 30
0.0
 10
76.136085938
 20
172.4554191134683
 30
0.0
  0
SPLINE
  5
133
330
1F
100
AcDbEntity
  8
0
  6
Continuous
 62
     7
370
     0
100
AcDbSpline
210
0.0
220
0.0
230
1.0
 70
     8
 71
     3
 72
    14
 73
    10
 74
     0
 42
0.00000001
 43
0.00000001
 12
1.0
 22
0.0
 32
0.0
 13
1.0
 23
0.0
 33
0.0
 40
0.0
 40
0.0
 40
0.0
 40
0.0
 40
0.0625718350622497
 40
0.1250837859443777
 40
0.2496290621893408
 40
0.3743665145366748
 40
0.4993488336595853
 40
0.7495426014132969
 40
1.0
 40
1.0
 40
1.0
 40
1.0
 10
76.136085938
 20
172.4554191134683
 30
0.0
 10
76.15173530232985
 20
172.4563818427411
 30
0.0
 10
76.1830190538141
 20
172.4583063799095
 30
0.0
 10
76.24340184153301
 20
172.4833859391801
 30
0.0
 10
76.30997091895073
 20
172.5423427544921
 30
0.0
 10
76.37040697826905
 20
172.641694622565
 30
0.0
 10
76.41171304848368
 20
172.8011454237403
 30
0.0
 10
76.43261543784786
 20
173.0086395229735
 30
0.0
 10
76.43468233034805
 20
173.1754118226098
 30
0.0
 10
76.43571632078604
 20
173.2588418815639
 30
0.0
  0
SPLINE
  5
134
330
1F
100
AcDbEntity
  8
0
  6
Continuous
 62
     7
370
     0
100
AcDbSpline
210
0.0
220
0.0
230
1.0
 70
     8
 71
     3
 72
    15
 73
    11
 74
     0
 42
0.00000001
 43
0.00000001
 12
1.0
 22
0.0
 32
0.0
 13
1.0
 23
0.0
 33
0.0
 40
0.0
 40
0.0
 40
0.0
 40
0.0
 40
0.1252519376079484
 40
0.2504961104472915
 40
0.5006645979650165
 40
0.6256249858635119
 40
0.7503965025560777
 40
0.8749083495139796
 40
0.9374337014579469
 40
1.0
 40
1.0
 40
1.0
 40
1.0
 10
76.43571632078604
 20
173.2588418815639
 30
0.0
 10
76.43549891881165
 20
173.3006940507864
 30
0.0
 10
76.4350641283403
 20
173.3843957946815
 30
0.0
 10
76.4274662436601
 20
173.5513269879431
 30
0.0
 10
76.41161663844977
 20
173.7180227470732
 30
0.0
 10
76.36904388712944
 20
173.8773265557947
 30
0.0
 10
76.30922459791547
 20
173.9776010029265
 30
0.0
 10
76.24192531699138
 20
174.0364252499503
 30
0.0
 10
76.1809580987824
 20
174.0594707495225
 30
0.0
 10
76.14960994703927
 20
174.061333146406
 30
0.0
 10
76.13393074052884
 20
174.0622646496595
 30
0.0
  0
SPLINE
  5
135
330
1F
100
AcDbEntity
  8
0
  6
Continuous
 62
     7
370
     0
100
AcDbSpline
210
0.0
220
0.0
230
1.0
 70
     8
 71
     3
 72
    11
 73
     7
 74
     0
 42
0.00000001
 43
0.00000001
 12
1.0
 22
0.0
 32
0.0
 13
1.0
 23
0.0
 33
0.0
 40
0.0
 40
0.0
 40
0.0
 40
0.0
 40
0.2499762991228603
 40
0.4998291777062613
 40
0.7498121573677247
 40
1.0
 40
1.0
 40
1.0
 40
1.0
 10
76.13393074052884
 20
174.0622646496595
 30
0.0
 10
76.11400413272683
 20
174.0607873832434
 30
0.0
 10
76.0741607554663
 20
174.0578335797804
 30
0.0
 10
76.01813030929804
 20
174.0289033620237
 30
0.0
 10
75.96903091236805
 20
173.983192100057
 30
0.0
 10
75.94400232760961
 20
173.9420703339388
 30
0.0
 10
75.93148290955132
 20
173.9215010294297
 30
0.0
  0
SPLINE
  5
136
330
1F
100
AcDbEntity
  8
0
  6
Continuous
 62
     7
370
     0
100
AcDbSpline
210
0.0
220
0.0
230
1.0
 70
     8
 71
     3
 72
    12
 73
     8
 74
     0
 42
0.00000001
 43
0.00000001
 12
1.0
 22
0.0
 32
0.0
 13
1.0
 23
0.0
 33
0.0
 40
0.0
 40
0.0
 40
0.0
 40
0.0
 40
0.1249202996239259
 40
0.2499253403448441
 40
0.4998213365461334
 40
0.749885759924727
 40
1.0
 40
1.0
 40
1.0
 40
1.0
 10
75.93148290955132
 20
173.9215010294297
 30
0.0
 10
75.92116949040575
 20
173.8968021005849
 30
0.0
 10
75.90053565589012
 20
173.847387488098
 30
0.0
 10
75.8757167202899
 20
173.7385692359238
 30
0.0
 10
75.85661170203608
 20
173.5989685140269
 30
0.0
 10
75.8461810498597
 20
173.429110070415
 30
0.0
 10
75.84513527108307
 20
173.3156017129087
 30
0.0
 10
75.84461232961611
 20
173.2588418815639
 30
0.0
  0
SPLINE
  5
137
330
1F
100
AcDbEntity
  8
0
  6
Continuous
 62
     7
370
     0
100
AcDbSpline
210
0.0
220
0.0
230
1.0
 70
     8
 71
     3
 72
    14
 73
    10
 74
     0
 42
0.00000001
 43
0.00000001
 12
1.0
 22
0.0
 32
0.0
 13
1.0
 23
0.0
 33
0.0
 40
0.0
 40
0.0
 40
0.0
 40
0.0
 40
0.2504465544088805
 40
0.5006271577129463
 40
0.6256173980224362
 40
0.7503619177354603
 40
0.8749139347613031
 40
0.9374334541801466
 40
1.0
 40
1.0
 40
1.0
 40
1.0
 10
73.07716606139203
 20
173.2588418815639
 30
0.0
 10
73.0777329323605
 20
173.1753806396528
 30
0.0
 10
73.07886607233281
 20
173.0085467839594
 30
0.0
 10
73.09052270704855
 20
172.8011472809114
 30
0.0
 10
73.1135132875349
 20
172.6412862402509
 30
0.0
 10
73.14829392819772
 20
172.5426558562056
 30
0.0
 10
73.18683622238889
 20
172.4826064884963
 30
0.0
 10
73.22288559224187
 20
172.4585043855533
 30
0.0
 10
73.24180484433494
 20
172.4564477952233
 30
0.0
 10
73.25126802675018
 20
172.4554191134683
 30
0.0
  0
SPLINE
  5
138
330
1F
100
AcDbEntity
  8
0
  6
Continuous
 62
     7
370
     0
100
AcDbSpline
210
0.0
220
0.0
230
1.0
 70
     8
 71
     3
 72
    14
 73
    10
 74
     0
 42
0.00000001
 43
0.00000001
 12
1.0
 22
0.0
 32
0.0
 13
1.0
 23
0.0
 33
0.0
 40
0.0
 40
0.0
 40
0.0
 40
0.0
 40
0.0625718350622616
 40
0.1250837859443798
 40
0.2496290621893442
 40
0.3743665145366782
 40
0.4993488336595869
 40
0.7495426014133003
 40
1.0
 40
1.0
 40
1.0
 40
1.0
 10
73.25126802675018
 20
172.4554191134683
 30
0.0
 10
73.26079126285214
 20
172.4563818427411
 30
0.0
 10
73.27982862087254
 20
172.4583063799095
 30
0.0
 10
73.31681700299647
 20
172.4833859391801
 30
0.0
 10
73.35788416249862
 20
172.5423427544921
 30
0.0
 10
73.39546297183264
 20
172.6416946225649
 30
0.0
 10
73.42126712975768
 20
172.8011454237403
 30
0.0
 10
73.43437400312713
 20
173.0086395229735
 30
0.0
 10
73.43567042004956
 20
173.1754118226098
 30
0.0
 10
73.43631896984171
 20
173.2588418815639
 30
0.0
  0
SPLINE
  5
139
330
1F
100
AcDbEntity
  8
0
  6
Continuous
 62
     7
370
     0
100
AcDbSpline
210
0.0
220
0.0
230
1.0
 70
     8
 71
     3
 72
    15
 73
    11
 74
     0
 42
0.00000001
 43
0.00000001
 12
1.0
 22
0.0
 32
0.0
 13
1.0
 23
0.0
 33
0.0
 40
0.0
 40
0.0
 40
0.0
 40
0.0
 40
0.1252519376079525
 40
0.2504961104472855
 40
0.5006645979650164
 40
0.6256249858635139
 40
0.7503965025560794
 40
0.8749083495139721
 40
0.9374337014579365
 40
1.0
 40
1.0
 40
1.0
 40
1.0
 10
73.43631896984171
 20
173.2588418815639
 30
0.0
 10
73.43618249569447
 20
173.3006940507864
 30
0.0
 10
73.43590955586045
 20
173.3843957946815
 30
0.0
 10
73.43114551763516
 20
173.5513269879431
 30
0.0
 10
73.42120563084826
 20
173.7180227470732
 30
0.0
 10
73.394613625297
 20
173.8773265557947
 30
0.0
 10
73.35742211351048
 20
173.9776010029265
 30
0.0
 10
73.31590793761302
 20
174.0364252499503
 30
0.0
 10
73.27856965085616
 20
174.0594707495225
 30
0.0
 10
73.25949776119658
 20
174.061333146406
 30
0.0
 10
73.24995869493942
 20
174.0622646496595
 30
0.0
  0
SPLINE
  5
13A
330
1F
100
AcDbEntity
  8
0
  6
Continuous
 62
     7
370
     0
100
AcDbSpline
210
0.0
220
0.0
230
1.0
 70
     8
 71
     3
 72
    11
 73
     7
 74
     0
 42
0.00000001
 43
0.00000001
 12
1.0
 22
0.0
 32
0.0
 13
1.0
 23
0.0
 33
0.0
 40
0.0
 40
0.0
 40
0.0
 40
0.0
 40
0.2499762991228595
 40
0.4998291777062565
 40
0.7498121573677318
 40
1.0
 40
1.0
 40
1.0
 40
1.0
 10
73.24995869493942
 20
174.0622646496595
 30
0.0
 10
73.23787836501194
 20
174.0607873832434
 30
0.0
 10
73.21372366956575
 20
174.0578335797804
 30
0.0
 10
73.18005144485123
 20
174.0289033620237
 30
0.0
 10
73.1507116191729
 20
173.983192100057
 30
0.0
 10
73.13584979688905
 20
173.9420703339388
 30
0.0
 10
73.12841584214988
 20
173.9215010294297
 30
0.0
  0
SPLINE
  5
13B
330
1F
100
AcDbEntity
  8
0
  6
Continuous
 62
     7
370
     0
100
AcDbSpline
210
0.0
220
0.0
230
1.0
 70
     8
 71
     3
 72
    12
 73
     8
 74
     0
 42
0.00000001
 43
0.00000001
 12
1.0
 22
0.0
 32
0.0
 13
1.0
 23
0.0
 33
0.0
 40
0.0
 40
0.0
 40
0.0
 40
0.0
 40
0.1249202996239311
 40
0.2499253403448424
 40
0.4998213365461312
 40
0.7498857599247376
 40
1.0
 40
1.0
 40
1.0
 40
1.0
 10
73.12841584214988
 20
173.9215010294297
 30
0.0
 10
73.12230639856772
 20
173.8968021005849
 30
0.0
 10
73.11008336699328
 20
173.847387488098
 30
0.0
 10
73.09544779036544
 20
173.7385692359238
 30
0.0
 10
73.08420824486505
 20
173.5989685140269
 30
0.0
 10
73.07808658952065
 20
173.429110070415
 30
0.0
 10
73.0774729244748
 20
173.3156017129087
 30
0.0
 10
73.07716606139203
 20
173.2588418815639
 30
0.0
  0
LINE
  5
13C
330
1F
100
AcDbEntity
  8
0
  6
Continuous
 62
     7
370
     0
100
AcDbLine
 10
72.7729970825
 20
169.9300630009
 30
0.0
 11
72.622185224
 21
169.9300630009
 31
0.0
  0
SPLINE
  5
13D
330
1F
100
AcDbEntity
  8
0
  6
Continuous
 62
     7
370
     0
100
AcDbSpline
210
0.0
220
0.0
230
1.0
 70
     8
 71
     3
 72
    11
 73
     7
 74
     0
 42
0.00000001
 43
0.00000001
 12
1.0
 22
0.0
 32
0.0
 13
1.0
 23
0.0
 33
0.0
 40
0.0
 40
0.0
 40
0.0
 40
0.0
 40
0.5000385172520717
 40
0.7000835348038064
 40
0.8538625669759329
 40
1.0
 40
1.0
 40
1.0
 40
1.0
 10
72.7729971637208
 20
169.9300631272236
 30
0.0
 10
72.78853071384331
 20
169.9304911804751
 30
0.0
 10
72.81027860386105
 20
169.931090480375
 30
0.0
 10
72.83727269177355
 20
169.9382687102725
 30
0.0
 10
72.85310263038699
 20
169.9445822244874
 30
0.0
 10
72.86244480836987
 20
169.9511477760333
 30
0.0
 10
72.86699688225612
 20
169.9543469096609
 30
0.0
  0
SPLINE
  5
13E
330
1F
100
AcDbEntity
  8
0
  6
Continuous
 62
     7
370
     0
100
AcDbSpline
210
0.0
220
0.0
230
1.0
 70
     8
 71
     3
 72
    12
 73
     8
 74
     0
 42
0.00000001
 43
0.00000001
 12
1.0
 22
0.0
 32
0.0
 13
1.0
 23
0.0
 33
0.0
 40
0.0
 40
0.0
 40
0.0
 40
0.0
 40
0.1253736807326057
 40
0.2506251700065261
 40
0.499984228559935
 40
0.74966675687502
 40
1.0
 40
1.0
 40
1.0
 40
1.0
 10
72.86699688225612
 20
169.9543469096609
 30
0.0
 10
72.87280264838276
 20
169.9595458665825
 30
0.0
 10
72.88440852223128
 20
169.9699387134281
 30
0.0
 10
72.905954221577
 20
170.001441775678
 30
0.0
 10
72.92847266316053
 20
170.0582314964244
 30
0.0
 10
72.94386411809899
 20
170.1467733178103
 30
0.0
 10
72.94520835878333
 20
170.2097136786797
 30
0.0
 10
72.94588135381522
 20
170.2412248140475
 30
0.0
  0
SPLINE
  5
13F
330
1F
100
AcDbEntity
  8
0
  6
Continuous
 62
     7
370
     0
100
AcDbSpline
210
0.0
220
0.0
230
1.0
 70
     8
 71
     3
 72
    14
 73
    10
 74
     0
 42
0.00000001
 43
0.00000001
 12
1.0
 22
0.0
 32
0.0
 13
1.0
 23
0.0
 33
0.0
 40
0.0
 40
0.0
 40
0.0
 40
0.0
 40
0.1251021859846648
 40
0.250070063423144
 40
0.3784065021126542
 40
0.4993789957172051
 40
0.6242625680628628
 40
0.749509842144001
 40
1.0
 40
1.0
 40
1.0
 40
1.0
 10
72.94588135381522
 20
170.2412248140475
 30
0.0
 10
72.94534987986934
 20
170.2690922133503
 30
0.0
 10
72.94428750256303
 20
170.3247970937744
 30
0.0
 10
72.93279851944433
 20
170.4049953690941
 30
0.0
 10
72.91416819900938
 20
170.4753078046987
 30
0.0
 10
72.88682072864584
 20
170.5250810023525
 30
0.0
 10
72.85547196386368
 20
170.547492994386
 30
0.0
 10
72.81295028948928
 20
170.5601954976905
 30
0.0
 10
72.78184238412359
 20
170.5614369917732
 30
0.0
 10
72.76110390170665
 20
170.5622646496595
 30
0.0
  0
LINE
  5
140
330
1F
100
AcDbEntity
  8
0
  6
Continuous
 62
     7
370
     0
100
AcDbLine
 10
72.7611040932
 20
170.5622647879
 30
0.0
 11
72.622185224
 21
170.5622647879
 31
0.0
  0
LINE
  5
141
330
1F
100
AcDbEntity
  8
0
  6
Continuous
 62
     7
370
     0
100
AcDbLine
 10
72.622185224
 20
170.5622647879
 30
0.0
 11
72.622185224
 21
169.9300630009
 31
0.0
  0
LINE
  5
142
330
1F
100
AcDbEntity
  8
0
  6
Continuous
 62
     7
370
     0
100
AcDbLine
 10
72.7963900429
 20
168.9817610187
 30
0.0
 11
72.622185224
 21
168.9817610187
 31
0.0
  0
SPLINE
  5
143
330
1F
100
AcDbEntity
  8
0
  6
Continuous
 62
     7
370
     0
100
AcDbSpline
210
0.0
220
0.0
230
1.0
 70
     8
 71
     3
 72
    10
 73
     6
 74
     0
 42
0.00000001
 43
0.00000001
 12
1.0
 22
0.0
 32
0.0
 13
1.0
 23
0.0
 33
0.0
 40
0.0
 40
0.0
 40
0.0
 40
0.0
 40
0.5000649138273806
 40
0.7438622150386596
 40
1.0
 40
1.0
 40
1.0
 40
1.0
 10
72.79639017429206
 20
168.9817608435698
 30
0.0
 10
72.80749280791777
 20
168.9819503723785
 30
0.0
 10
72.82400832303033
 20
168.9822323024151
 30
0.0
 10
72.84655012015365
 20
168.9857516255788
 30
0.0
 10
72.85784510171541
 20
168.9896445059219
 30
0.0
 10
72.86363199613118
 20
168.9916389923578
 30
0.0
  0
SPLINE
  5
144
330
1F
100
AcDbEntity
  8
0
  6
Continuous
 62
     7
370
     0
100
AcDbSpline
210
0.0
220
0.0
230
1.0
 70
     8
 71
     3
 72
    14
 73
    10
 74
     0
 42
0.00000001
 43
0.00000001
 12
1.0
 22
0.0
 32
0.0
 13
1.0
 23
0.0
 33
0.0
 40
0.0
 40
0.0
 40
0.0
 40
0.0
 40
0.1430922649552996
 40
0.2504176231409879
 40
0.4169163683940548
 40
0.5003920208688027
 40
0.7496250923183507
 40
0.8747493348582986
 40
1.0
 40
1.0
 40
1.0
 40
1.0
 10
72.86363199613118
 20
168.9916389923578
 30
0.0
 10
72.87259826620812
 20
168.9968559764749
 30
0.0
 10
72.8882896247998
 20
169.0059859232472
 30
0.0
 10
72.91349471967808
 20
169.0318022240664
 30
0.0
 10
72.93336929550287
 20
169.0650473662711
 30
0.0
 10
72.95530879687445
 20
169.126734371864
 30
0.0
 10
72.96983289534586
 20
169.1950740252794
 30
0.0
 10
72.97717834678842
 20
169.2755886825752
 30
0.0
 10
72.97774664563302
 20
169.3167720958609
 30
0.0
 10
72.97803093853177
 20
169.33737419994
 30
0.0
  0
SPLINE
  5
145
330
1F
100
AcDbEntity
  8
0
  6
Continuous
 62
     7
370
     0
100
AcDbSpline
210
0.0
220
0.0
230
1.0
 70
     8
 71
     3
 72
    15
 73
    11
 74
     0
 42
0.00000001
 43
0.00000001
 12
1.0
 22
0.0
 32
0.0
 13
1.0
 23
0.0
 33
0.0
 40
0.0
 40
0.0
 40
0.0
 40
0.0
 40
0.071665808245723
 40
0.1432828771087773
 40
0.2861015597592857
 40
0.4987034456032666
 40
0.5822269887803014
 40
0.7491627774275499
 40
0.874568751537157
 40
1.0
 40
1.0
 40
1.0
 40
1.0
 10
72.97803093853177
 20
169.33737419994
 30
0.0
 10
72.97783207209213
 20
169.3540504553292
 30
0.0
 10
72.97743447446042
 20
169.3873916247104
 30
0.0
 10
72.972758129131
 20
169.4531881704189
 30
0.0
 10
72.95736384405292
 20
169.5464484592795
 30
0.0
 10
72.9269535599955
 20
169.6227968338383
 30
0.0
 10
72.88775346382559
 20
169.6670234718717
 30
0.0
 10
72.85389876419976
 20
169.6835463067676
 30
0.0
 10
72.81677535576671
 20
169.6920930304928
 30
0.0
 10
72.7948515797497
 20
169.6926893610089
 30
0.0
 10
72.7838885872216
 20
169.6929875563102
 30
0.0
  0
LINE
  5
146
330
1F
100
AcDbEntity
  8
0
  6
Continuous
 62
     7
370
     0
100
AcDbLine
 10
72.7838889
 20
169.6929873889
 30
0.0
 11
72.622185224
 21
169.6929873889
 31
0.0
  0
LINE
  5
147
330
1F
100
AcDbEntity
  8
0
  6
Continuous
 62
     7
370
     0
100
AcDbLine
 10
72.622185224
 20
169.6929873889
 30
0.0
 11
72.622185224
 21
168.9817610187
 31
0.0
  0
SPLINE
  5
148
330
1F
100
AcDbEntity
  8
0
  6
Continuous
 62
     7
370
     0
100
AcDbSpline
210
0.0
220
0.0
230
1.0
 70
     8
 71
     3
 72
    13
 73
     9
 74
     0
 42
0.00000001
 43
0.00000001
 12
1.0
 22
0.0
 32
0.0
 13
1.0
 23
0.0
 33
0.0
 40
0.0
 40
0.0
 40
0.0
 40
0.0
 40
0.1255310813075879
 40
0.2510110657283697
 40
0.5005061337007803
 40
0.749309156896517
 40
0.8746101741559524
 40
1.0
 40
1.0
 40
1.0
 40
1.0
 10
72.76247235359318
 20
173.6230986181236
 30
0.0
 10
72.76216198299731
 20
173.6504903518567
 30
0.0
 10
72.76154136814061
 20
173.7052626696354
 30
0.0
 10
72.75387064732867
 20
173.8128207612263
 30
0.0
 10
72.73109280995331
 20
173.938174341682
 30
0.0
 10
72.69117784278954
 20
174.0255887786148
 30
0.0
 10
72.65430443678316
 20
174.0583668215065
 30
0.0
 10
72.63551296941874
 20
174.0609650667944
 30
0.0
 10
72.62611390724715
 20
174.0622646496595
 30
0.0
  0
SPLINE
  5
149
330
1F
100
AcDbEntity
  8
0
  6
Continuous
 62
     7
370
     0
100
AcDbSpline
210
0.0
220
0.0
230
1.0
 70
     8
 71
     3
 72
    14
 73
    10
 74
     0
 42
0.00000001
 43
0.00000001
 12
1.0
 22
0.0
 32
0.0
 13
1.0
 23
0.0
 33
0.0
 40
0.0
 40
0.0
 40
0.0
 40
0.0
 40
0.1251829179251813
 40
0.2503028730775865
 40
0.3712219923705067
 40
0.5005239778404678
 40
0.7495343333076209
 40
0.8747344041221243
 40
1.0
 40
1.0
 40
1.0
 40
1.0
 10
72.62611390724715
 20
174.0622646496595
 30
0.0
 10
72.61637329193768
 20
174.060934823033
 30
0.0
 10
72.59689696051875
 20
174.0582758386378
 30
0.0
 10
72.56992348074733
 20
174.0308096330002
 30
0.0
 10
72.54573875643058
 20
173.9864665114519
 30
0.0
 10
72.51948409465241
 20
173.9056532429926
 30
0.0
 10
72.50201947049567
 20
173.8013655297248
 30
0.0
 10
72.49427770230335
 20
173.6893354978282
 30
0.0
 10
72.49372989159838
 20
173.6320117118561
 30
0.0
 10
72.4934559145887
 20
173.6033423205475
 30
0.0
  0
SPLINE
  5
14A
330
1F
100
AcDbEntity
  8
0
  6
Continuous
 62
     7
370
     0
100
AcDbSpline
210
0.0
220
0.0
230
1.0
 70
     8
 71
     3
 72
    14
 73
    10
 74
     0
 42
0.00000001
 43
0.00000001
 12
1.0
 22
0.0
 32
0.0
 13
1.0
 23
0.0
 33
0.0
 40
0.0
 40
0.0
 40
0.0
 40
0.0
 40
0.0717443965839392
 40
0.1434798238951341
 40
0.2509745611906166
 40
0.5002162242785723
 40
0.7491627706355841
 40
0.8745517969464742
 40
1.0
 40
1.0
 40
1.0
 40
1.0
 10
72.4934559145887
 20
173.6033423205475
 30
0.0
 10
72.49354531485173
 20
173.5879556808386
 30
0.0
 10
72.49372410420125
 20
173.5571843250131
 30
0.0
 10
72.49603114947622
 20
173.5037971172817
 30
0.0
 10
72.5028396764992
 20
173.4143609302163
 30
0.0
 10
72.52451677976565
 20
173.2991034167191
 30
0.0
 10
72.56181672326696
 20
173.2230470997072
 30
0.0
 10
72.59647626564374
 20
173.1960040271964
 30
0.0
 10
72.61473580524014
 20
173.1939932047346
 30
0.0
 10
72.62386772890535
 20
173.1929875563102
 30
0.0
  0
SPLINE
  5
14B
330
1F
100
AcDbEntity
  8
0
  6
Continuous
 62
     7
370
     0
100
AcDbSpline
210
0.0
220
0.0
230
1.0
 70
     8
 71
     3
 72
    13
 73
     9
 74
     0
 42
0.00000001
 43
0.00000001
 12
1.0
 22
0.0
 32
0.0
 13
1.0
 23
0.0
 33
0.0
 40
0.0
 40
0.0
 40
0.0
 40
0.0
 40
0.1254170497574843
 40
0.2507818791335674
 40
0.4998973322105334
 40
0.7490309258202877
 40
0.8744945763186099
 40
1.0
 40
1.0
 40
1.0
 40
1.0
 10
72.62386772890535
 20
173.1929875563102
 30
0.0
 10
72.63322412475188
 20
173.1941951635055
 30
0.0
 10
72.65193302068623
 20
173.1966098750802
 30
0.0
 10
72.68868014614125
 20
173.2282225845728
 30
0.0
 10
72.72965515660107
 20
173.3103246299276
 30
0.0
 10
72.75335153062763
 20
173.4344059547527
 30
0.0
 10
72.76149020260652
 20
173.5412277871242
 30
0.0
 10
72.76214493360484
 20
173.5958053130257
 30
0.0
 10
72.76247235359318
 20
173.6230986181236
 30
0.0
  0
LINE
  5
14C
330
1F
100
AcDbEntity
  8
0
  6
Continuous
 62
     7
370
     0
100
AcDbLine
 10
72.2832462055
 20
169.6139623401
 30
0.0
 11
72.1232170475
 21
169.6139623401
 31
0.0
  0
SPLINE
  5
14D
330
1F
100
AcDbEntity
  8
0
  6
Continuous
 62
     7
370
     0
100
AcDbSpline
210
0.0
220
0.0
230
1.0
 70
     8
 71
     3
 72
     8
 73
     4
 74
     0
 42
0.00000001
 43
0.00000001
 12
1.0
 22
0.0
 32
0.0
 13
1.0
 23
0.0
 33
0.0
 40
0.0
 40
0.0
 40
0.0
 40
0.0
 40
1.0
 40
1.0
 40
1.0
 40
1.0
 10
72.28324580708356
 20
169.6139623660057
 30
0.0
 10
72.26627833006857
 20
169.7939641883659
 30
0.0
 10
72.24981652241567
 20
169.9739660107261
 30
0.0
 10
72.23386241758715
 20
170.1539678330863
 30
0.0
  0
SPLINE
  5
14E
330
1F
100
AcDbEntity
  8
0
  6
Continuous
 62
     7
370
     0
100
AcDbSpline
210
0.0
220
0.0
230
1.0
 70
     8
 71
     3
 72
     8
 73
     4
 74
     0
 42
0.00000001
 43
0.00000001
 12
1.0
 22
0.0
 32
0.0
 13
1.0
 23
0.0
 33
0.0
 40
0.0
 40
0.0
 40
0.0
 40
0.0
 40
1.0
 40
1.0
 40
1.0
 40
1.0
 10
72.23386241758715
 20
170.1539678330863
 30
0.0
 10
72.22178993001586
 20
170.2900667719441
 30
0.0
 10
72.21000814873493
 20
170.4261657108018
 30
0.0
 10
72.1985179070898
 20
170.5622646496595
 30
0.0
  0
SPLINE
  5
14F
330
1F
100
AcDbEntity
  8
0
  6
Continuous
 62
     7
370
     0
100
AcDbSpline
210
0.0
220
0.0
230
1.0
 70
     8
 71
     3
 72
    11
 73
     7
 74
     0
 42
0.00000001
 43
0.00000001
 12
1.0
 22
0.0
 32
0.0
 13
1.0
 23
0.0
 33
0.0
 40
0.0
 40
0.0
 40
0.0
 40
0.0
 40
0.2500100509549102
 40
0.4999938043210293
 40
0.7499834612580794
 40
0.9999999999999999
 40
0.9999999999999999
 40
0.9999999999999999
 40
0.9999999999999999
 10
72.1985179070898
 20
170.5622646496595
 30
0.0
 10
72.19670660787585
 20
170.5293834633353
 30
0.0
 10
72.19308419997155
 20
170.4636245493313
 30
0.0
 10
72.18560130622573
 20
170.3676902288363
 30
0.0
 10
72.17720316404143
 20
170.2734446130393
 30
0.0
 10
72.17056448673456
 20
170.2130020211269
 30
0.0
 10
72.16724496962371
 20
170.1827791003848
 30
0.0
  0
SPLINE
  5
150
330
1F
100
AcDbEntity
  8
0
  6
Continuous
 62
     7
370
     0
100
AcDbSpline
210
0.0
220
0.0
230
1.0
 70
     8
 71
     3
 72
     8
 73
     4
 74
     0
 42
0.00000001
 43
0.00000001
 12
1.0
 22
0.0
 32
0.0
 13
1.0
 23
0.0
 33
0.0
 40
0.0
 40
0.0
 40
0.0
 40
0.0
 40
1.0
 40
1.0
 40
1.0
 40
1.0
 10
72.16724496962371
 20
170.1827791003848
 30
0.0
 10
72.15200159429861
 20
169.9931735222584
 30
0.0
 10
72.13732486144525
 20
169.8035679441321
 30
0.0
 10
72.12321678360368
 20
169.6139623660057
 30
0.0
  0
SPLINE
  5
151
330
1F
100
AcDbEntity
  8
0
  6
Continuous
 62
     7
370
     0
100
AcDbSpline
210
0.0
220
0.0
230
1.0
 70
     8
 71
     3
 72
    13
 73
     9
 74
     0
 42
0.00000001
 43
0.00000001
 12
1.0
 22
0.0
 32
0.0
 13
1.0
 23
0.0
 33
0.0
 40
0.0
 40
0.0
 40
0.0
 40
0.0
 40
0.1255328300285561
 40
0.2508979652558224
 40
0.4999230989422666
 40
0.7490329449436659
 40
0.861967607730946
 40
1.0
 40
1.0
 40
1.0
 40
1.0
 10
71.9600035464352
 20
173.7799142301341
 30
0.0
 10
71.96009829109519
 20
173.7593293581937
 30
0.0
 10
71.96028765384918
 20
173.7181871129044
 30
0.0
 10
71.96306709784939
 20
173.6389512394507
 30
0.0
 10
71.970363921574
 20
173.5504644702895
 30
0.0
 10
71.98258393486375
 20
173.5017380552722
 30
0.0
 10
71.99385191870661
 20
173.4850243478394
 30
0.0
 10
71.99987007818058
 20
173.4835548269266
 30
0.0
 10
72.00318007816867
 20
173.4827465874266
 30
0.0
  0
SPLINE
  5
152
330
1F
100
AcDbEntity
  8
0
  6
Continuous
 62
     7
370
     0
100
AcDbSpline
210
0.0
220
0.0
230
1.0
 70
     8
 71
     3
 72
    13
 73
     9
 74
     0
 42
0.00000001
 43
0.00000001
 12
1.0
 22
0.0
 32
0.0
 13
1.0
 23
0.0
 33
0.0
 40
0.0
 40
0.0
 40
0.0
 40
0.0
 40
0.1348461971756763
 40
0.2508980266672147
 40
0.499982626343479
 40
0.7492245354827402
 40
0.8745261640659757
 40
1.0
 40
1.0
 40
1.0
 40
1.0
 10
72.00318007816867
 20
173.4827465874266
 30
0.0
 10
72.0063729593658
 20
173.4836123659994
 30
0.0
 10
72.01231370970599
 20
173.4852232541075
 30
0.0
 10
72.02442508410623
 20
173.5005278587557
 30
0.0
 10
72.03882616407175
 20
173.5481006393284
 30
0.0
 10
72.0488219796512
 20
173.631554516829
 30
0.0
 10
72.05294391640342
 20
173.7077978740085
 30
0.0
 10
72.0532527502148
 20
173.7476345354989
 30
0.0
 10
72.05340727315848
 20
173.767566544149
 30
0.0
  0
SPLINE
  5
153
330
1F
100
AcDbEntity
  8
0
  6
Continuous
 62
     7
370
     0
100
AcDbSpline
210
0.0
220
0.0
230
1.0
 70
     8
 71
     3
 72
    13
 73
     9
 74
     0
 42
0.00000001
 43
0.00000001
 12
1.0
 22
0.0
 32
0.0
 13
1.0
 23
0.0
 33
0.0
 40
0.0
 40
0.0
 40
0.0
 40
0.0
 40
0.1253940828574013
 40
0.2505988143623828
 40
0.4997856712580639
 40
0.699373549946475
 40
0.81964841819121
 40
0.9999999999999999
 40
0.9999999999999999
 40
0.9999999999999999
 40
0.9999999999999999
 10
72.05340727315848
 20
173.767566544149
 30
0.0
 10
72.05322915495847
 20
173.7878408852573
 30
0.0
 10
72.05287318752586
 20
173.8283589522021
 30
0.0
 10
72.04889932496066
 20
173.9063542872779
 30
0.0
 10
72.03959142402518
 20
173.9849963633624
 30
0.0
 10
72.02669557646335
 20
174.0348036811753
 30
0.0
 10
72.01447570611934
 20
174.0585949866206
 30
0.0
 10
72.0071873622206
 20
174.0608886418381
 30
0.0
 10
72.00281494472151
 20
174.0622646496595
 30
0.0
  0
SPLINE
  5
154
330
1F
100
AcDbEntity
  8
0
  6
Continuous
 62
     7
370
     0
100
AcDbSpline
210
0.0
220
0.0
230
1.0
 70
     8
 71
     3
 72
    13
 73
     9
 74
     0
 42
0.00000001
 43
0.00000001
 12
1.0
 22
0.0
 32
0.0
 13
1.0
 23
0.0
 33
0.0
 40
0.0
 40
0.0
 40
0.0
 40
0.0
 40
0.135248251846739
 40
0.2508332115747683
 40
0.5000751427035022
 40
0.7493342722714141
 40
0.874578322716872
 40
1.0
 40
1.0
 40
1.0
 40
1.0
 10
72.00281494472151
 20
174.0622646496595
 30
0.0
 10
71.99968793808392
 20
174.0614147772411
 30
0.0
 10
71.99388854987141
 20
174.0598385925198
 30
0.0
 10
71.98297034249765
 20
174.0443475430328
 30
0.0
 10
71.97116489594079
 20
173.9968436682203
 30
0.0
 10
71.96356462486081
 20
173.9150234685639
 30
0.0
 10
71.96040771146166
 20
173.8394618848732
 30
0.0
 10
71.96013833174
 20
173.7997728232062
 30
0.0
 10
71.9600035464352
 20
173.7799142301341
 30
0.0
  0
SPLINE
  5
155
330
1F
100
AcDbEntity
  8
0
  6
Continuous
 62
     7
370
     0
100
AcDbSpline
210
0.0
220
0.0
230
1.0
 70
     8
 71
     3
 72
    14
 73
    10
 74
     0
 42
0.00000001
 43
0.00000001
 12
1.0
 22
0.0
 32
0.0
 13
1.0
 23
0.0
 33
0.0
 40
0.0
 40
0.0
 40
0.0
 40
0.0
 40
0.1252576291452975
 40
0.2505080008906701
 40
0.3824154181283859
 40
0.5004813835414939
 40
0.749516963004509
 40
0.8747601283946658
 40
1.0
 40
1.0
 40
1.0
 40
1.0
 10
71.95051968121976
 20
172.8546609603191
 30
0.0
 10
71.95064638196423
 20
172.8281550277539
 30
0.0
 10
71.95089977611217
 20
172.7751446983714
 30
0.0
 10
71.95336256002322
 20
172.6966758715078
 30
0.0
 10
71.9570330101217
 20
172.6230273298302
 30
0.0
 10
71.96514784302812
 20
172.5391725732904
 30
0.0
 10
71.97739747387757
 20
172.4879691821389
 30
0.0
 10
71.99150394597315
 20
172.4594999402129
 30
0.0
 10
71.99924747567492
 20
172.4567793771249
 30
0.0
 10
72.00311918961314
 20
172.4554191134683
 30
0.0
  0
SPLINE
  5
156
330
1F
100
AcDbEntity
  8
0
  6
Continuous
 62
     7
370
     0
100
AcDbSpline
210
0.0
220
0.0
230
1.0
 70
     8
 71
     3
 72
    14
 73
    10
 74
     0
 42
0.00000001
 43
0.00000001
 12
1.0
 22
0.0
 32
0.0
 13
1.0
 23
0.0
 33
0.0
 40
0.0
 40
0.0
 40
0.0
 40
0.0
 40
0.1252859137506932
 40
0.2505373887745778
 40
0.4991474387674211
 40
0.6243066061091378
 40
0.7494653206727508
 40
0.8747205438389881
 40
1.0
 40
1.0
 40
1.0
 40
1.0
 10
72.00311918961314
 20
172.4554191134683
 30
0.0
 10
72.00701933217947
 20
172.4564309098103
 30
0.0
 10
72.01481854523674
 20
172.4584542243706
 30
0.0
 10
72.03079401021058
 20
172.4822812426885
 30
0.0
 10
72.04602284280003
 20
172.5393258402983
 30
0.0
 10
72.05704523862408
 20
172.6217719332718
 30
0.0
 10
72.06323830828181
 20
172.6919584441675
 30
0.0
 10
72.06666235544574
 20
172.7683111539775
 30
0.0
 10
72.06706581116309
 20
172.8203881520496
 30
0.0
 10
72.0672675585339
 20
172.8464291696624
 30
0.0
  0
SPLINE
  5
157
330
1F
100
AcDbEntity
  8
0
  6
Continuous
 62
     7
370
     0
100
AcDbSpline
210
0.0
220
0.0
230
1.0
 70
     8
 71
     3
 72
    14
 73
    10
 74
     0
 42
0.00000001
 43
0.00000001
 12
1.0
 22
0.0
 32
0.0
 13
1.0
 23
0.0
 33
0.0
 40
0.0
 40
0.0
 40
0.0
 40
0.0
 40
0.1252464831929456
 40
0.250455915395263
 40
0.4993451042512247
 40
0.6238945042098103
 40
0.7495550692616116
 40
0.8747513244282568
 40
1.0
 40
1.0
 40
1.0
 40
1.0
 10
72.0672675585339
 20
172.8464291696624
 30
0.0
 10
72.06707996784385
 20
172.8729930485177
 30
0.0
 10
72.06670484195766
 20
172.9261129479796
 30
0.0
 10
72.06190816804725
 20
173.0291595345389
 30
0.0
 10
72.05163788071853
 20
173.1211270856052
 30
0.0
 10
72.03783168954716
 20
173.1888425730637
 30
0.0
 10
72.02605453985323
 20
173.2230761649428
 30
0.0
 10
72.01384750582233
 20
173.2428979794515
 30
0.0
 10
72.00592626371724
 20
173.2447465418523
 30
0.0
 10
72.00196481367064
 20
173.2456710165131
 30
0.0
  0
SPLINE
  5
158
330
1F
100
AcDbEntity
  8
0
  6
Continuous
 62
     7
370
     0
100
AcDbSpline
210
0.0
220
0.0
230
1.0
 70
     8
 71
     3
 72
    14
 73
    10
 74
     0
 42
0.00000001
 43
0.00000001
 12
1.0
 22
0.0
 32
0.0
 13
1.0
 23
0.0
 33
0.0
 40
0.0
 40
0.0
 40
0.0
 40
0.0
 40
0.1252624412502988
 40
0.2504472294726021
 40
0.3765524147514516
 40
0.5006168833123695
 40
0.7495903114996093
 40
0.8747478307175521
 40
1.0
 40
1.0
 40
1.0
 40
1.0
 10
72.00196481367064
 20
173.2456710165131
 30
0.0
 10
71.99819494261688
 20
173.2447116320944
 30
0.0
 10
71.99065753753791
 20
173.242793458001
 30
0.0
 10
71.98017734288165
 20
173.2237316207708
 30
0.0
 10
71.97085425410015
 20
173.1896426224323
 30
0.0
 10
71.96072555262123
 20
173.1229962706072
 30
0.0
 10
71.95397639686345
 20
173.0328382517177
 30
0.0
 10
71.95091800820953
 20
172.9323347038641
 30
0.0
 10
71.95065249033658
 20
172.8805587316092
 30
0.0
 10
71.95051968121976
 20
172.8546609603191
 30
0.0
  0
SPLINE
  5
159
330
1F
100
AcDbEntity
  8
0
  6
Continuous
 62
     7
370
     0
100
AcDbSpline
210
0.0
220
0.0
230
1.0
 70
     8
 71
     3
 72
    14
 73
    10
 74
     0
 42
0.00000001
 43
0.00000001
 12
1.0
 22
0.0
 32
0.0
 13
1.0
 23
0.0
 33
0.0
 40
0.0
 40
0.0
 40
0.0
 40
0.0
 40
0.0625718350622503
 40
0.1250837859443793
 40
0.2496290621893467
 40
0.3743665145366794
 40
0.4993488336595912
 40
0.7495426014132994
 40
1.0
 40
1.0
 40
1.0
 40
1.0
 10
71.86702503851507
 20
172.4554191134683
 30
0.0
 10
71.867553521674
 20
172.4563818427411
 30
0.0
 10
71.86860998220868
 20
172.4583063799095
 30
0.0
 10
71.87113716062132
 20
172.4833859391801
 30
0.0
 10
71.87450386514034
 20
172.5423427544921
 30
0.0
 10
71.87815285038052
 20
172.6416946225649
 30
0.0
 10
71.88088821347169
 20
172.8011454237403
 30
0.0
 10
71.8823708006621
 20
173.0086395229735
 30
0.0
 10
71.8825181440817
 20
173.1754118226098
 30
0.0
 10
71.88259185458524
 20
173.2588418815639
 30
0.0
  0
SPLINE
  5
15A
330
1F
100
AcDbEntity
  8
0
  6
Continuous
 62
     7
370
     0
100
AcDbSpline
210
0.0
220
0.0
230
1.0
 70
     8
 71
     3
 72
    15
 73
    11
 74
     0
 42
0.00000001
 43
0.00000001
 12
1.0
 22
0.0
 32
0.0
 13
1.0
 23
0.0
 33
0.0
 40
0.0
 40
0.0
 40
0.0
 40
0.0
 40
0.1252519376079523
 40
0.2504961104472887
 40
0.5006645979650196
 40
0.6256249858635129
 40
0.7503965025560795
 40
0.8749083495139744
 40
0.9374337014579478
 40
1.0
 40
1.0
 40
1.0
 40
1.0
 10
71.88259185458524
 20
173.2588418815639
 30
0.0
 10
71.88257612952586
 20
173.3006940507864
 30
0.0
 10
71.88254468038195
 20
173.3843957946815
 30
0.0
 10
71.88200622367287
 20
173.5513269879431
 30
0.0
 10
71.88087927801017
 20
173.7180227470732
 30
0.0
 10
71.878066969511
 20
173.8773265557947
 30
0.0
 10
71.87446283707355
 20
173.9776010029265
 30
0.0
 10
71.87106613505024
 20
174.0364252499503
 30
0.0
 10
71.86853074862395
 20
174.0594707495225
 30
0.0
 10
71.86748146333439
 20
174.061333146406
 30
0.0
 10
71.86695664895687
 20
174.0622646496595
 30
0.0
  0
SPLINE
  5
15B
330
1F
100
AcDbEntity
  8
0
  6
Continuous
 62
     7
370
     0
100
AcDbSpline
210
0.0
220
0.0
230
1.0
 70
     8
 71
     3
 72
    11
 73
     7
 74
     0
 42
0.00000001
 43
0.00000001
 12
1.0
 22
0.0
 32
0.0
 13
1.0
 23
0.0
 33
0.0
 40
0.0
 40
0.0
 40
0.0
 40
0.0
 40
0.2499762991228562
 40
0.4998291777062652
 40
0.749812157367722
 40
1.0
 40
1.0
 40
1.0
 40
1.0
 10
71.86695664895687
 20
174.0622646496595
 30
0.0
 10
71.86637559385986
 20
174.0607873832434
 30
0.0
 10
71.86521377054956
 20
174.0578335797804
 30
0.0
 10
71.86417352681676
 20
174.0289033620238
 30
0.0
 10
71.86359734714145
 20
173.983192100057
 30
0.0
 10
71.86349281888158
 20
173.9420703339388
 30
0.0
 10
71.863440533345
 20
173.9215010294297
 30
0.0
  0
LINE
  5
15C
330
1F
100
AcDbEntity
  8
0
  6
Continuous
 62
     8
370
     0
100
AcDbLine
 10
71.8634143707
 20
168.7446854068
 30
0.0
 11
71.8634851513
 21
168.7572391694
 31
0.0
  0
SPLINE
  5
15D
330
1F
100
AcDbEntity
  8
0
  6
Continuous
 62
     8
370
     0
100
AcDbSpline
210
0.0
220
0.0
230
1.0
 70
     8
 71
     3
 72
    14
 73
    10
 74
     0
 42
0.00000001
 43
0.00000001
 12
1.0
 22
0.0
 32
0.0
 13
1.0
 23
0.0
 33
0.0
 40
0.0
 40
0.0
 40
0.0
 40
0.0
 40
0.171800741128555
 40
0.3217008455161318
 40
0.4779766473038384
 40
0.7178261228481688
 40
0.8364055926828368
 40
0.9557882413255662
 40
1.0
 40
1.0
 40
1.0
 40
1.0
 10
71.86456641676278
 20
170.2453403724059
 30
0.0
 10
71.86455496456325
 20
170.219619960557
 30
0.0
 10
71.86453352005584
 20
170.171457896852
 30
0.0
 10
71.86436527280517
 20
170.1008372741064
 30
0.0
 10
71.86407999280812
 20
170.0227647663991
 30
0.0
 10
71.86373650867391
 20
169.9537377710175
 30
0.0
 10
71.8635119217258
 20
169.8968178852631
 30
0.0
 10
71.86340530840472
 20
169.8648243700296
 30
0.0
 10
71.86342783944693
 20
169.8494708245301
 30
0.0
 10
71.86343392851205
 20
169.8453214941248
 30
0.0
  0
SPLINE
  5
15E
330
1F
100
AcDbEntity
  8
0
  6
Continuous
 62
     8
370
     0
100
AcDbSpline
210
0.0
220
0.0
230
1.0
 70
     8
 71
     3
 72
    13
 73
     9
 74
     0
 42
0.00000001
 43
0.00000001
 12
1.0
 22
0.0
 32
0.0
 13
1.0
 23
0.0
 33
0.0
 40
0.0
 40
0.0
 40
0.0
 40
0.0
 40
0.1779909030221545
 40
0.4517214521647633
 40
0.5864329727413484
 40
0.7258556180637493
 40
0.8628928426401883
 40
1.0
 40
1.0
 40
1.0
 40
1.0
 10
71.86348235728593
 20
170.6603572694286
 30
0.0
 10
71.86348627277725
 20
170.6415209853666
 30
0.0
 10
71.86349620986618
 20
170.593716555784
 30
0.0
 10
71.86391707245001
 20
170.5122101523942
 30
0.0
 10
71.86422431704398
 20
170.4334619313032
 30
0.0
 10
71.86442114211901
 20
170.3719373056675
 30
0.0
 10
71.86454111665036
 20
170.3087276710349
 30
0.0
 10
71.86455798195789
 20
170.2664730649245
 30
0.0
 10
71.86456641676278
 20
170.2453403724059
 30
0.0
  0
SPLINE
  5
15F
330
1F
100
AcDbEntity
  8
0
  6
Continuous
 62
     8
370
     0
100
AcDbSpline
210
0.0
220
0.0
230
1.0
 70
     8
 71
     3
 72
    11
 73
     7
 74
     0
 42
0.00000001
 43
0.00000001
 12
1.0
 22
0.0
 32
0.0
 13
1.0
 23
0.0
 33
0.0
 40
0.0
 40
0.0
 40
0.0
 40
0.0
 40
0.1708004457145822
 40
0.4471178788287858
 40
0.7235224225578734
 40
1.0
 40
1.0
 40
1.0
 40
1.0
 10
71.86346745612474
 20
174.2258940813764
 30
0.0
 10
71.86346119709486
 20
174.2349272268585
 30
0.0
 10
71.86344481233576
 20
174.2585740085178
 30
0.0
 10
71.86399831037123
 20
174.2802757696996
 30
0.0
 10
71.8651138312145
 20
174.2972642019041
 30
0.0
 10
71.86638795987542
 20
174.2986480345388
 30
0.0
 10
71.86702510835977
 20
174.2993400422557
 30
0.0
  0
SPLINE
  5
160
330
1F
100
AcDbEntity
  8
0
  6
Continuous
 62
     8
370
     0
100
AcDbSpline
210
0.0
220
0.0
230
1.0
 70
     8
 71
     3
 72
    11
 73
     7
 74
     0
 42
0.00000001
 43
0.00000001
 12
1.0
 22
0.0
 32
0.0
 13
1.0
 23
0.0
 33
0.0
 40
0.0
 40
0.0
 40
0.0
 40
0.0
 40
0.2958172672587612
 40
0.5475337152865714
 40
0.8176429137427261
 40
1.0
 40
1.0
 40
1.0
 40
1.0
 10
71.86702510835977
 20
172.2183435214385
 30
0.0
 10
71.86634523644655
 20
172.219431554498
 30
0.0
 10
71.86508684880067
 20
172.2214454152472
 30
0.0
 10
71.86400822739961
 20
172.2371180485231
 30
0.0
 10
71.86342116733732
 20
172.2574837602002
 30
0.0
 10
71.86350195255523
 20
172.2826312636435
 30
0.0
 10
71.86353451135011
 20
172.2927664396986
 30
0.0
  0
SPLINE
  5
161
330
1F
100
AcDbEntity
  8
0
  6
Continuous
 62
     8
370
     0
100
AcDbSpline
210
0.0
220
0.0
230
1.0
 70
     8
 71
     3
 72
    12
 73
     8
 74
     0
 42
0.00000001
 43
0.00000001
 12
1.0
 22
0.0
 32
0.0
 13
1.0
 23
0.0
 33
0.0
 40
0.0
 40
0.0
 40
0.0
 40
0.0
 40
0.3304688816636226
 40
0.5034220809561971
 40
0.665226417552482
 40
0.8325505147944006
 40
1.0
 40
1.0
 40
1.0
 40
1.0
 10
71.86341437073798
 20
172.6437353519424
 30
0.0
 10
71.86344102404357
 20
172.6096642636875
 30
0.0
 10
71.86348162654296
 20
172.5577618332275
 30
0.0
 10
71.86399263104042
 20
172.5060776494348
 30
0.0
 10
71.86465514745187
 20
172.4764981788176
 30
0.0
 10
71.86562172081219
 20
172.4584835491257
 30
0.0
 10
71.86655719571792
 20
172.4564408603269
 30
0.0
 10
71.86702510835977
 20
172.4554191333874
 30
0.0
  0
LINE
  5
162
330
1F
100
AcDbEntity
  8
0
  6
Continuous
 62
     8
370
     0
100
AcDbLine
 10
71.8634404478
 20
173.9215006111
 30
0.0
 11
71.8634544176
 21
173.8588915197
 31
0.0
  0
LINE
  5
163
330
1F
100
AcDbEntity
  8
0
  6
HIDDEN
 62
     7
370
     0
100
AcDbLine
 10
88.1956123051
 20
168.5946851959
 30
0.0
 11
90.4562125218
 21
168.5946851959
 31
0.0
  0
LINE
  5
164
330
1F
100
AcDbEntity
  8
0
  6
HIDDEN
 62
     7
370
     0
100
AcDbLine
 10
88.1956123051
 20
162.2446852727
 30
0.0
 11
90.4562125218
 21
162.2446852727
 31
0.0
  0
LINE
  5
165
330
1F
100
AcDbEntity
  8
0
  6
HIDDEN
 62
     7
370
     0
100
AcDbLine
 10
78.2134124314
 20
162.8796852766
 30
0.0
 11
90.9134122779
 21
162.8796852766
 31
0.0
  0
LINE
  5
166
330
1F
100
AcDbEntity
  8
0
  6
HIDDEN
 62
     7
370
     0
100
AcDbLine
 10
78.2140047525
 20
162.2446852727
 30
0.0
 11
90.9128199567
 21
162.2446852727
 31
0.0
  0
LINE
  5
167
330
1F
100
AcDbEntity
  8
0
  6
HIDDEN
 62
     7
370
     0
100
AcDbLine
 10
92.4945619193
 20
165.4196852343
 30
0.0
 11
95.682262094
 21
165.4196852343
 31
0.0
  0
LINE
  5
168
330
1F
100
AcDbEntity
  8
0
  6
HIDDEN
 62
     7
370
     0
100
AcDbLine
 10
92.495167279
 20
162.2446852727
 30
0.0
 11
95.6816567344
 21
162.2446852727
 31
0.0
  0
LINE
  5
169
330
1F
100
AcDbEntity
  8
0
  6
HIDDEN
 62
     7
370
     0
100
AcDbLine
 10
82.9695623837
 20
165.4196852343
 30
0.0
 11
86.1572623256
 21
165.4196852343
 31
0.0
  0
LINE
  5
16A
330
1F
100
AcDbEntity
  8
0
  6
HIDDEN
 62
     7
370
     0
100
AcDbLine
 10
82.9701675105
 20
162.8796852766
 30
0.0
 11
86.1566571987
 21
162.8796852766
 31
0.0
  0
LINE
  5
16B
330
1F
100
AcDbEntity
  8
0
  6
HIDDEN
 62
     7
370
     0
100
AcDbLine
 10
73.9081125942
 20
168.5946851959
 30
0.0
 11
76.1687128109
 21
168.5946851959
 31
0.0
  0
LINE
  5
16C
330
1F
100
AcDbEntity
  8
0
  6
HIDDEN
 62
     7
370
     0
100
AcDbLine
 10
73.9081125942
 20
162.2446852727
 30
0.0
 11
76.1687128109
 21
162.2446852727
 31
0.0
  0
LINE
  5
16D
330
1F
100
AcDbEntity
  8
0
  6
HIDDEN
 62
     7
370
     0
100
AcDbLine
 10
88.1956123051
 20
168.5946851959
 30
0.0
 11
90.4562125218
 21
168.5946851959
 31
0.0
  0
LINE
  5
16E
330
1F
100
AcDbEntity
  8
0
  6
HIDDEN
 62
     7
370
     0
100
AcDbLine
 10
88.1956123051
 20
162.2446852727
 30
0.0
 11
90.4562125218
 21
162.2446852727
 31
0.0
  0
LINE
  5
16F
330
1F
100
AcDbEntity
  8
0
  6
HIDDEN
 62
     7
370
     0
100
AcDbLine
 10
90.4562125218
 20
168.5946851959
 30
0.0
 11
89.3259124135
 21
169.2738382136
 31
0.0
  0
LINE
  5
170
330
1F
100
AcDbEntity
  8
0
  6
HIDDEN
 62
     7
370
     0
100
AcDbLine
 10
89.3259124135
 20
169.2738382136
 30
0.0
 11
88.1956123051
 21
168.5946851959
 31
0.0
  0
LINE
  5
171
330
1F
100
AcDbEntity
  8
0
  6
HIDDEN
 62
     7
370
     0
100
AcDbLine
 10
90.4562125218
 20
162.2446852727
 30
0.0
 11
90.4562125218
 21
168.5946851959
 31
0.0
  0
LINE
  5
172
330
1F
100
AcDbEntity
  8
0
  6
HIDDEN
 62
     7
370
     0
100
AcDbLine
 10
88.1956123051
 20
168.5946851959
 30
0.0
 11
88.1956123051
 21
162.2446852727
 31
0.0
  0
LINE
  5
173
330
1F
100
AcDbEntity
  8
0
  6
HIDDEN
 62
     7
370
     0
100
AcDbLine
 10
90.9134122779
 20
162.2446852727
 30
0.0
 11
90.9134122779
 21
162.8796852766
 31
0.0
  0
LINE
  5
174
330
1F
100
AcDbEntity
  8
0
  6
HIDDEN
 62
     7
370
     0
100
AcDbLine
 10
78.2134124314
 20
162.8796852766
 30
0.0
 11
78.2134124314
 21
162.2446852727
 31
0.0
  0
LINE
  5
175
330
1F
100
AcDbEntity
  8
0
  6
HIDDEN
 62
     7
370
     0
100
AcDbLine
 10
95.682262094
 20
162.2446852727
 30
0.0
 11
95.682262094
 21
165.4196852343
 31
0.0
  0
LINE
  5
176
330
1F
100
AcDbEntity
  8
0
  6
HIDDEN
 62
     7
370
     0
100
AcDbLine
 10
92.4945619193
 20
165.4196852343
 30
0.0
 11
92.4945619193
 21
162.2446852727
 31
0.0
  0
LINE
  5
177
330
1F
100
AcDbEntity
  8
0
  6
HIDDEN
 62
     7
370
     0
100
AcDbLine
 10
86.1572623256
 20
162.8796852766
 30
0.0
 11
86.1572623256
 21
165.4196852343
 31
0.0
  0
LINE
  5
178
330
1F
100
AcDbEntity
  8
0
  6
HIDDEN
 62
     7
370
     0
100
AcDbLine
 10
82.9695623837
 20
165.4196852343
 30
0.0
 11
82.9695623837
 21
162.8796852766
 31
0.0
  0
LINE
  5
179
330
1F
100
AcDbEntity
  8
0
  6
HIDDEN
 62
     7
370
     0
100
AcDbLine
 10
76.1687128109
 20
162.2446852727
 30
0.0
 11
76.1687128109
 21
168.5946851959
 31
0.0
  0
LINE
  5
17A
330
1F
100
AcDbEntity
  8
0
  6
HIDDEN
 62
     7
370
     0
100
AcDbLine
 10
73.9081125942
 20
168.5946851959
 30
0.0
 11
73.9081125942
 21
162.2446852727
 31
0.0
  0
LINE
  5
17B
330
1F
100
AcDbEntity
  8
0
  6
HIDDEN
 62
     7
370
     0
100
AcDbLine
 10
76.1687128109
 20
168.5946851959
 30
0.0
 11
75.0384122369
 21
169.2738382136
 31
0.0
  0
LINE
  5
17C
330
1F
100
AcDbEntity
  8
0
  6
HIDDEN
 62
     7
370
     0
100
AcDbLine
 10
75.0384122369
 20
169.2738382136
 30
0.0
 11
73.9081125942
 21
168.5946851959
 31
0.0
  0
LINE
  5
17D
330
1F
100
AcDbEntity
  8
0
  6
HIDDEN
 62
     7
370
     0
100
AcDbLine
 10
90.4562125218
 20
162.2446852727
 30
0.0
 11
90.4562125218
 21
168.5946851959
 31
0.0
  0
LINE
  5
17E
330
1F
100
AcDbEntity
  8
0
  6
HIDDEN
 62
     7
370
     0
100
AcDbLine
 10
88.1956123051
 20
168.5946851959
 30
0.0
 11
88.1956123051
 21
162.2446852727
 31
0.0
  0
LINE
  5
17F
330
1F
100
AcDbEntity
  8
0
  6
HIDDEN
 62
     7
370
     0
100
AcDbLine
 10
90.4562125218
 20
168.5946851959
 30
0.0
 11
89.3259124135
 21
169.2738382136
 31
0.0
  0
LINE
  5
180
330
1F
100
AcDbEntity
  8
0
  6
HIDDEN
 62
     7
370
     0
100
AcDbLine
 10
89.3259124135
 20
169.2738382136
 30
0.0
 11
88.1956123051
 21
168.5946851959
 31
0.0
  0
DIMENSION
  5
181
330
1F
100
AcDbEntity
  8
0
  6
Continuous
 62
     7
370
     0
100
AcDbDimension
  2
_D
 10
186.1634123546
 20
203.4786350119
 30
0.0
 11
132.1903524986
 21
203.4786350119
 31
0.0
 70
   160
  1
<>\PREFLECTED FOCAL LENGTH
 71
     2
 42
-1.0
  3
SLDDIMSTYLE0
100
AcDbAlignedDimension
 13
84.5634123546
 23
198.9346852727
 33
0.0
 14
186.1634123546
 24
198.9346852727
 34
0.0
100
AcDbRotatedDimension
  0
DIMENSION
  5
195
330
1F
100
AcDbEntity
  8
0
  6
Continuous
 62
     7
370
     0
100
AcDbDimension
  2
_D_1
 10
55.7106527541
 20
162.2446852727
 30
0.0
 11
55.7106527541
 21
178.0601405616
 31
0.0
 70
   160
  1
<>
 71
     2
 42
-1.0
  3
SLDDIMSTYLE0
100
AcDbAlignedDimension
 13
71.8634123546
 23
193.9984352727
 33
0.0
 14
71.8634123546
 24
162.2446852727
 34
0.0
 50
90.0
100
AcDbRotatedDimension
  0
DIMENSION
  5
1A7
330
1F
100
AcDbEntity
  8
0
  6
Continuous
 62
     7
370
     0
100
AcDbDimension
  2
_D_2
 10
207.8486703878
 20
180.5046852727
 30
0.0
 11
207.8486703878
 21
155.1325377137
 31
0.0
 70
   160
  1
<>\PFOCAL LENGTH OF \PPARENT PARABOLA
 71
     2
 42
-1.0
  3
SLDDIMSTYLE0
100
AcDbAlignedDimension
 13
186.1634123546
 23
129.7046852727
 33
0.0
 14
186.1634123546
 24
180.5046852727
 34
0.0
 50
90.0
100
AcDbRotatedDimension
  0
DIMENSION
  5
1BB
330
1F
100
AcDbEntity
  8
0
  6
Continuous
 62
     7
370
     0
100
AcDbDimension
  2
_D_3
 10
99.8363039549
 20
168.5984352727
 30
0.0
 11
99.8363039549
 21
178.0601405616
 31
0.0
 70
   160
  1
<>
 71
     2
 42
-1.0
  3
SLDDIMSTYLE1
100
AcDbAlignedDimension
 13
97.2634123546
 23
162.2446852727
 33
0.0
 14
97.2634123546
 24
168.5984352727
 34
0.0
 50
90.0
100
AcDbRotatedDimension
  0
DIMENSION
  5
1CF
330
1F
100
AcDbEntity
  8
0
  6
Continuous
 62
     7
370
     0
100
AcDbDimension
  2
_D_4
 10
90.9134123546
 20
152.2446852727
 30
0.0
 11
61.8634122856
 21
152.2446852727
 31
0.0
 70
   160
  1
%%c<>
 71
     2
 42
-1.0
  3
SLDDIMSTYLE1
100
AcDbAlignedDimension
 13
78.2134123546
 23
162.2446852727
 33
0.0
 14
90.9134123546
 24
162.2446852727
 34
0.0
100
AcDbRotatedDimension
  0
DIMENSION
  5
1E2
330
1F
100
AcDbEntity
  8
0
  6
Continuous
 62
     7
370
     0
100
AcDbDimension
  2
_D_5
 10
43.7107234427
 20
162.2446852727
 30
0.0
 11
43.7107234427
 21
170.5086109557
 31
0.0
 70
   160
  1
<> REF
 71
     2
 42
-1.0
  3
SLDDIMSTYLE1
100
AcDbAlignedDimension
 13
78.2134123546
 23
162.8796852727
 33
0.0
 14
78.2134123546
 24
162.2446852727
 34
0.0
 50
90.0
100
AcDbRotatedDimension
  0
DIMENSION
  5
1F6
330
1F
100
AcDbEntity
  8
0
  6
Continuous
 62
     7
370
     0
100
AcDbDimension
  2
_D_6
 10
145.5159786633
 20
180.5046852727
 30
0.0
 11
145.5159786633
 21
172.4261261608
 31
0.0
 70
   160
  1
<>
 71
     2
 42
-1.0
  3
SLDDIMSTYLE1
100
AcDbAlignedDimension
 13
97.2634123546
 23
162.2446852727
 33
0.0
 14
186.1634123546
 24
180.5046852727
 34
0.0
 50
90.0
100
AcDbRotatedDimension
  0
MTEXT
  5
20A
330
1F
100
AcDbEntity
  8
0
  6
Continuous
 62
     7
370
     0
100
AcDbMText
 10
29.1033092354
 20
200.0884473095
 30
0.0
 40
2.1166666667
 41
0.0
 71
     1
 72
     1
  1
MIRROR MECHANICAL AXIS
  7
SLDTEXTSTYLE0
 73
     1
 44
1.0
  0
LEADER
  5
20C
330
1F
100
AcDbEntity
  8
0
  6
Continuous
 62
     7
370
     0
100
AcDbLeader
  3
SLDDIMSTYLE2
 76
     3
 10
84.5634123546
 20
194.9473785904
 30
0.0
 10
72.9526837806
 20
198.9498249708
 30
0.0
 10
66.6026837806
 20
198.9498249708
 30
0.0
  0
MTEXT
  5
20D
330
1F
100
AcDbEntity
  8
0
  6
Continuous
 62
     7
370
     0
100
AcDbMText
 10
151.9295689144
 20
156.6722101801
 30
0.0
 40
2.1166666667
 41
0.0
 71
     1
 72
     1
  1
OPTICAL AXIS
  7
SLDTEXTSTYLE0
 73
     1
 44
1.0
  0
LEADER
  5
20E
330
1F
100
AcDbEntity
  8
0
  6
Continuous
 62
     7
370
     0
100
AcDbLeader
  3
SLDDIMSTYLE2
 76
     3
 10
186.1634123546
 20
160.1711021017
 30
0.0
 10
177.036697783
 20
155.5425904317
 30
0.0
 10
170.686697783
 20
155.5425904317
 30
0.0
  0
CIRCLE
  5
20F
330
1F
100
AcDbEntity
  8
0
  6
Continuous
 62
     7
370
     0
100
AcDbCircle
 10
84.5634123546
 20
98.8783685744
 30
0.0
 40
6.350000000000009
  0
CIRCLE
  5
210
330
1F
100
AcDbEntity
  8
0
  6
Continuous
 62
     7
370
     0
100
AcDbCircle
 10
75.0384123546
 20
98.8783685744
 30
0.0
 40
1.130300000000005
  0
CIRCLE
  5
211
330
1F
100
AcDbEntity
  8
0
  6
Continuous
 62
     7
370
     0
100
AcDbCircle
 10
89.3259123546
 20
107.1272605454
 30
0.0
 40
1.130300000000005
  0
CIRCLE
  5
212
330
1F
100
AcDbEntity
  8
0
  6
Continuous
 62
     7
370
     0
100
AcDbCircle
 10
89.3259123546
 20
90.6294766033
 30
0.0
 40
1.130300000000005
  0
CIRCLE
  5
213
330
1F
100
AcDbEntity
  8
0
  6
Continuous
 62
     7
370
     0
100
AcDbCircle
 10
84.5634123546
 20
98.8783685744
 30
0.0
 40
12.7
  0
CIRCLE
  5
214
330
1F
100
AcDbEntity
  8
0
  6
Continuous
 62
     7
370
     0
100
AcDbCircle
 10
94.0884123546
 20
98.8783685744
 30
0.0
 40
1.593850000000003
  0
CIRCLE
  5
215
330
1F
100
AcDbEntity
  8
0
  6
Continuous
 62
     7
370
     0
100
AcDbCircle
 10
84.5634123546
 20
98.8783685744
 30
0.0
 40
1.593850000000003
  0
LINE
  5
216
330
1F
100
AcDbEntity
  8
0
  6
CENTERX2
 62
     7
370
     0
100
AcDbLine
 10
84.5634123546
 20
98.8783685744
 30
0.0
 11
86.5477873546
 21
102.3154068956
 31
0.0
  0
LINE
  5
217
330
1F
100
AcDbEntity
  8
0
  6
CENTERX2
 62
     7
370
     0
100
AcDbLine
 10
84.5634123546
 20
98.8783685744
 30
0.0
 11
80.5946623546
 21
98.8783685744
 31
0.0
  0
CIRCLE
  5
218
330
1F
100
AcDbEntity
  8
0
  6
CENTERX2
 62
     7
370
     0
100
AcDbCircle
 10
84.5634123546
 20
98.8783685744
 30
0.0
 40
9.524999999999995
  0
DIMENSION
  5
219
330
1F
100
AcDbEntity
  8
0
  6
Continuous
 62
     7
370
     0
100
AcDbDimension
  2
_D_7
 10
84.5634123546
 20
98.8783685744
 30
0.0
 11
72.1502774742
 21
116.2257956183
 31
0.0
 70
   162
  1
<>\PTYP.
 71
     1
 42
-1.0
  3
SLDDIMSTYLE3
100
AcDb2LineAngularDimension
 13
86.5477873546
 23
102.3154068956
 33
0.0
 14
84.5634123546
 24
98.8783685744
 34
0.0
 15
80.5946623546
 25
98.8783685744
 35
0.0
 16
86.0916370599
 26
120.154732734
 36
0.0
  0
DIMENSION
  5
226
330
1F
100
AcDbEntity
  8
0
  6
Continuous
 62
     7
370
     0
100
AcDbDimension
  2
_D_8
 10
72.297097461
 20
102.1688881277
 30
0.0
 11
119.5798364856
 21
92.7820736631
 31
0.0
 70
   163
  1
<>
 71
     1
 42
-1.0
  3
SLDDIMSTYLE4
100
AcDbDiametricDimension
 15
96.8297272482
 25
95.5878490211
 35
0.0
 40
0.0
  0
DIMENSION
  5
237
330
1F
100
AcDbEntity
  8
0
  6
Continuous
 62
     7
370
     0
100
AcDbDimension
  2
_D_9
 10
94.0884123546
 20
77.2361770555
 30
0.0
 11
110.0628029852
 21
77.2361770555
 31
0.0
 70
   160
  1
<>
 71
     2
 42
-1.0
  3
SLDDIMSTYLE1
100
AcDbAlignedDimension
 13
84.5634123546
 23
97.6083685744
 33
0.0
 14
94.0884123546
 24
97.6083685744
 34
0.0
100
AcDbRotatedDimension
  0
DIMENSION
  5
249
330
1F
100
AcDbEntity
  8
0
  6
Continuous
 62
     7
370
     0
100
AcDbDimension
  2
_D_10
 10
75.6031469699
 20
99.8574767932
 30
0.0
 11
41.3355558588
 21
90.0340968756
 31
0.0
 70
   163
  1
4-40 TAPPED HOLES\PLOCATED ON A %%c19.1mm [0.75in]
 71
     1
 42
-1.0
  3
SLDDIMSTYLE4
100
AcDbDiametricDimension
 15
74.4736777393
 25
97.8992603555
 35
0.0
 40
0.0
  0
DIMENSION
  5
254
330
1F
100
AcDbEntity
  8
0
  6
Continuous
 62
     7
370
     0
100
AcDbDimension
  2
_D_11
 10
93.2916712526
 20
97.4979478273
 30
0.0
 11
119.5798364856
 21
113.8434163569
 31
0.0
 70
   163
  1
%%c3.2mm [0.13in]\P{\fGDT;x}3.2mm [0.13in]\P2 PLACES
 71
     1
 42
-1.0
  3
SLDDIMSTYLE5
100
AcDbDiametricDimension
 15
94.8851534566
 25
100.2587893214
 35
0.0
 40
0.0
  0
INSERT
  5
26F
330
1F
100
AcDbEntity
  8
0
  6
Continuous
 62
     7
370
     0
100
AcDbBlockReference
  2
SW_CENTERMARKSYMBOL_0
 10
84.5634123546
 20
98.8783685744
 30
0.0
  0
INSERT
  5
277
330
1F
100
AcDbEntity
  8
0
  6
Continuous
 62
     7
370
     0
100
AcDbBlockReference
  2
SW_CENTERMARKSYMBOL_1
 10
94.0884123546
 20
98.8783685744
 30
0.0
  0
LINE
  5
278
330
1F
100
AcDbEntity
  8
0
  6
Continuous
 62
     7
370
     0
100
AcDbLine
 10
193.2127874227
 20
108.6460434452
 30
0.0
 11
174.1590730729
 21
108.6460434452
 31
0.0
  0
LINE
  5
279
330
1F
100
AcDbEntity
  8
0
  6
Continuous
 62
     7
370
     0
100
AcDbLine
 10
174.1590916993
 20
83.2460437521
 30
0.0
 11
193.2127874227
 21
83.2460437521
 31
0.0
  0
SPLINE
  5
27A
330
1F
100
AcDbEntity
  8
0
  6
Continuous
 62
     7
370
     0
100
AcDbSpline
210
0.0
220
0.0
230
1.0
 70
     8
 71
     3
 72
   110
 73
   106
 74
     0
 42
0.00000001
 43
0.00000001
 12
1.0
 22
0.0
 32
0.0
 13
1.0
 23
0.0
 33
0.0
 40
-0.0312500000000001
 40
-0.0312500000000001
 40
0.0
 40
0.0
 40
0.03125
 40
0.03125
 40
0.0390625
 40
0.0390625
 40
0.046875
 40
0.046875
 40
0.0625
 40
0.0625
 40
0.078125
 40
0.078125
 40
0.09375
 40
0.09375
 40
0.109375
 40
0.109375
 40
0.1250000000000001
 40
0.1250000000000001
 40
0.1562500000000001
 40
0.1562500000000001
 40
0.1875000000000001
 40
0.1875000000000001
 40
0.2187500000000001
 40
0.2187500000000001
 40
0.2500000000000002
 40
0.2500000000000002
 40
0.2656250000000002
 40
0.2656250000000002
 40
0.2812500000000002
 40
0.2812500000000002
 40
0.3125000000000003
 40
0.3125000000000003
 40
0.3437500000000004
 40
0.3437500000000004
 40
0.3593750000000004
 40
0.3593750000000004
 40
0.3750000000000005
 40
0.3750000000000005
 40
0.4062500000000004
 40
0.4062500000000004
 40
0.4218750000000004
 40
0.4218750000000004
 40
0.4375000000000004
 40
0.4375000000000004
 40
0.4531250000000004
 40
0.4531250000000004
 40
0.4687500000000004
 40
0.4687500000000004
 40
0.4843750000000004
 40
0.4843750000000004
 40
0.4921875000000004
 40
0.4921875000000004
 40
0.5000000000000003
 40
0.5000000000000003
 40
0.5156250000000003
 40
0.5156250000000003
 40
0.5234375000000003
 40
0.5234375000000003
 40
0.5312500000000003
 40
0.5312500000000003
 40
0.5468750000000003
 40
0.5468750000000003
 40
0.5546875000000003
 40
0.5546875000000003
 40
0.5625000000000002
 40
0.5625000000000002
 40
0.5937500000000002
 40
0.5937500000000002
 40
0.6250000000000002
 40
0.6250000000000002
 40
0.6406250000000002
 40
0.6406250000000002
 40
0.6562500000000002
 40
0.6562500000000002
 40
0.6875000000000001
 40
0.6875000000000001
 40
0.7187500000000001
 40
0.7187500000000001
 40
0.7343750000000001
 40
0.7343750000000001
 40
0.7500000000000001
 40
0.7500000000000001
 40
0.7812500000000001
 40
0.7812500000000001
 40
0.8125
 40
0.8125
 40
0.84375
 40
0.84375
 40
0.875
 40
0.875
 40
0.890625
 40
0.890625
 40
0.90625
 40
0.90625
 40
0.921875
 40
0.921875
 40
0.9374999999999999
 40
0.9374999999999999
 40
0.9531249999999999
 40
0.9531249999999999
 40
0.9609374999999999
 40
0.9609374999999999
 40
0.9687499999999999
 40
0.9687499999999999
 40
1.0
 40
1.0
 40
1.03125
 40
1.03125
 10
161.4590373450868
 20
96.9714821435623
 30
0.0
 10
161.4590373450868
 20
94.92060505376969
 30
0.0
 10
161.5813252824957
 20
93.92773461027157
 30
0.0
 10
161.8722146390489
 20
92.72340698425826
 30
0.0
 10
161.9376502782555
 20
92.48375079999157
 30
0.0
 10
162.0799624198745
 20
92.01593899010025
 30
0.0
 10
162.1570168296449
 20
91.78686824260689
 30
0.0
 10
162.4047601618219
 20
91.11324752283518
 30
0.0
 10
162.5919649589434
 20
90.68223642230473
 30
0.0
 10
163.0064422748261
 20
89.85305969590136
 30
0.0
 10
163.2348273482993
 20
89.45372434753307
 30
0.0
 10
163.7167380544486
 20
88.70401633331332
 30
0.0
 10
163.9714041905121
 20
88.35100002167789
 30
0.0
 10
164.5049044936223
 20
87.68346075807375
 30
0.0
 10
164.7837558716378
 20
87.36896521868199
 30
0.0
 10
165.3636253917858
 20
86.77528000425608
 30
0.0
 10
165.6660847563378
 20
86.49501466411108
 30
0.0
 10
166.5898867324524
 20
85.71634519210792
 30
0.0
 10
167.2294571425147
 20
85.27619092561866
 30
0.0
 10
168.5481174273775
 20
84.52753162335928
 30
0.0
 10
169.2277247408825
 20
84.21919219294118
 30
0.0
 10
170.6221438314604
 20
83.72608973696416
 30
0.0
 10
171.3229768880573
 20
83.54616903291247
 30
0.0
 10
172.7311712113125
 20
83.30637087010903
 30
0.0
 10
173.4385383855225
 20
83.24660204168212
 30
0.0
 10
174.5044194446476
 20
83.24577017879851
 30
0.0
 10
174.8605224036758
 20
83.26037410895975
 30
0.0
 10
175.5743866086979
 20
83.3200751897744
 30
0.0
 10
175.9330843963687
 20
83.36541096749818
 30
0.0
 10
176.997638360336
 20
83.5464232424861
 30
0.0
 10
177.6958211658982
 20
83.72676787001224
 30
0.0
 10
179.0683895087112
 20
84.21072082190929
 30
0.0
 10
179.7428053447988
 20
84.51417220614374
 30
0.0
 10
180.7342221483299
 20
85.07401606191536
 30
0.0
 10
181.0613058333313
 20
85.2781826634778
 30
0.0
 10
181.7079388316139
 20
85.72554196403762
 30
0.0
 10
182.024211093429
 20
85.96656004555594
 30
0.0
 10
182.9457596234381
 20
86.74127807226712
 30
0.0
 10
183.5262522239586
 20
87.32709601452899
 30
0.0
 10
184.3342690345027
 20
88.33421699171451
 30
0.0
 10
184.5935034392665
 20
88.69273910709715
 30
0.0
 10
185.0761458677869
 20
89.44179496438635
 30
0.0
 10
185.301081586541
 20
89.83399350639537
 30
0.0
 10
185.7147039231312
 20
90.65748271594532
 30
0.0
 10
185.9034623321766
 20
91.08883170398443
 30
0.0
 10
186.2389299109148
 20
91.99633205003869
 30
0.0
 10
186.3816419374295
 20
92.46182094091775
 30
0.0
 10
186.6144847283848
 20
93.41746671283188
 30
0.0
 10
186.7046437341141
 20
93.90761034474026
 30
0.0
 10
186.7966192584669
 20
94.66312220290664
 30
0.0
 10
186.8198707069854
 20
94.9176615858132
 30
0.0
 10
186.8508249480047
 20
95.42374250796313
 30
0.0
 10
186.8586839314961
 20
95.67645448201507
 30
0.0
 10
186.8597094582522
 20
96.43361800763556
 30
0.0
 10
186.8304039038387
 20
96.93710058313421
 30
0.0
 10
186.7412169343266
 20
97.6903742293435
 30
0.0
 10
186.7037134133585
 20
97.94207793181313
 30
0.0
 10
186.6150123094249
 20
98.43637257110711
 30
0.0
 10
186.5637766462
 20
98.67977995789686
 30
0.0
 10
186.3904760606853
 20
99.39935904655137
 30
0.0
 10
186.2488892744086
 20
99.86492664082401
 30
0.0
 10
186.0001231434747
 20
100.5435134982216
 30
0.0
 10
185.9108043139263
 20
100.7670421970233
 30
0.0
 10
185.7229547776331
 20
101.2016946486646
 30
0.0
 10
185.6242359846862
 20
101.4134510455678
 30
0.0
 10
185.1084024465845
 20
102.4463944864719
 30
0.0
 10
184.6251928486729
 20
103.1917288390636
 30
0.0
 10
183.5444177435491
 20
104.545752909829
 30
0.0
 10
182.9644485554487
 20
105.1326934387136
 30
0.0
 10
182.0477965244743
 20
105.9068382436501
 30
0.0
 10
181.7343430020471
 20
106.1469028893948
 30
0.0
 10
181.0926807009758
 20
106.5934552925625
 30
0.0
 10
180.7631423510246
 20
106.8006465937107
 30
0.0
 10
179.7642699238407
 20
107.3678561056429
 30
0.0
 10
179.0863126252948
 20
107.674012857225
 30
0.0
 10
177.7095154988246
 20
108.1615013994485
 30
0.0
 10
177.0106431566438
 20
108.3426388366872
 30
0.0
 10
175.9473290400001
 20
108.5246492559257
 30
0.0
 10
175.5893676013676
 20
108.5703549919506
 30
0.0
 10
174.8733723603361
 20
108.6310271686774
 30
0.0
 10
174.5162679736007
 20
108.6460155976291
 30
0.0
 10
173.4475669109553
 20
108.6460994833694
 30
0.0
 10
172.7385641447387
 20
108.5866260452735
 30
0.0
 10
171.3275793372908
 20
108.3470481560954
 30
0.0
 10
170.6248229026916
 20
108.1667752159729
 30
0.0
 10
169.2302146959205
 20
107.6739445218318
 30
0.0
 10
168.5509639045221
 20
107.3659810035554
 30
0.0
 10
167.2314293212711
 20
106.6172059022687
 30
0.0
 10
166.5910494428262
 20
106.1767219020315
 30
0.0
 10
165.6655054398814
 20
105.3965843032566
 30
0.0
 10
165.3635008282069
 20
105.1166775863081
 30
0.0
 10
164.7839424910306
 20
104.523315119524
 30
0.0
 10
164.5049981133217
 20
104.2087617064451
 30
0.0
 10
163.9708909073825
 20
103.540426792714
 30
0.0
 10
163.7157098213253
 20
103.186675408669
 30
0.0
 10
163.2324525051085
 20
102.4344627001344
 30
0.0
 10
163.0045188231954
 20
102.035409538545
 30
0.0
 10
162.5913549002944
 20
101.2083989455867
 30
0.0
 10
162.4044850137191
 20
100.7781409856158
 30
0.0
 10
162.1569196095268
 20
100.1049298523873
 30
0.0
 10
162.0798707674477
 20
99.87587484781022
 30
0.0
 10
161.9374961514008
 20
99.40780177711125
 30
0.0
 10
161.8720581910204
 20
99.16807188261106
 30
0.0
 10
161.5813938198584
 20
97.96447859772091
 30
0.0
 10
161.4590373450868
 20
96.9714821435623
 30
0.0
 10
161.4590373450868
 20
94.92060505376969
 30
0.0
  0
LINE
  5
27B
330
1F
100
AcDbEntity
  8
0
  6
Continuous
 62
     7
370
     0
100
AcDbLine
 10
193.2127874227
 20
83.2460437521
 30
0.0
 11
193.2127874227
 21
108.6460434452
 31
0.0
  0
LINE
  5
27C
330
1F
100
AcDbEntity
  8
0
  6
HIDDEN
 62
     7
370
     0
100
AcDbLine
 10
186.8627874995
 20
86.5668513432
 30
0.0
 11
186.8627874995
 21
88.8274515599
 31
0.0
  0
LINE
  5
27D
330
1F
100
AcDbEntity
  8
0
  6
HIDDEN
 62
     7
370
     0
100
AcDbLine
 10
193.2127874227
 20
88.8274515599
 30
0.0
 11
193.2127874227
 21
86.5668513432
 31
0.0
  0
LINE
  5
27E
330
1F
100
AcDbEntity
  8
0
  6
HIDDEN
 62
     7
370
     0
100
AcDbLine
 10
186.8627874995
 20
103.0646356374
 30
0.0
 11
186.8627874995
 21
105.3252358541
 31
0.0
  0
LINE
  5
27F
330
1F
100
AcDbEntity
  8
0
  6
HIDDEN
 62
     7
370
     0
100
AcDbLine
 10
193.2127874227
 20
105.3252358541
 30
0.0
 11
193.2127874227
 21
103.0646356374
 31
0.0
  0
LINE
  5
280
330
1F
100
AcDbEntity
  8
0
  6
HIDDEN
 62
     7
370
     0
100
AcDbLine
 10
186.8627874995
 20
94.8157436067
 30
0.0
 11
186.8627874995
 21
97.0763435906
 31
0.0
  0
LINE
  5
281
330
1F
100
AcDbEntity
  8
0
  6
HIDDEN
 62
     7
370
     0
100
AcDbLine
 10
193.2127874227
 20
97.0763435906
 30
0.0
 11
193.2127874227
 21
94.8157436067
 31
0.0
  0
LINE
  5
282
330
1F
100
AcDbEntity
  8
0
  6
HIDDEN
 62
     7
370
     0
100
AcDbLine
 10
193.2127874227
 20
88.8274515599
 30
0.0
 11
186.8627874995
 21
88.8274515599
 31
0.0
  0
LINE
  5
283
330
1F
100
AcDbEntity
  8
0
  6
HIDDEN
 62
     7
370
     0
100
AcDbLine
 10
186.8627874995
 20
86.5668513432
 30
0.0
 11
193.2127874227
 21
86.5668513432
 31
0.0
  0
LINE
  5
284
330
1F
100
AcDbEntity
  8
0
  6
HIDDEN
 62
     7
370
     0
100
AcDbLine
 10
193.2127874227
 20
105.3252358541
 30
0.0
 11
186.8627874995
 21
105.3252358541
 31
0.0
  0
LINE
  5
285
330
1F
100
AcDbEntity
  8
0
  6
HIDDEN
 62
     7
370
     0
100
AcDbLine
 10
186.8627874995
 20
103.0646356374
 30
0.0
 11
193.2127874227
 21
103.0646356374
 31
0.0
  0
LINE
  5
286
330
1F
100
AcDbEntity
  8
0
  6
HIDDEN
 62
     7
370
     0
100
AcDbLine
 10
186.8627874995
 20
88.8274515599
 30
0.0
 11
186.1836344818
 21
87.6971519172
 31
0.0
  0
LINE
  5
287
330
1F
100
AcDbEntity
  8
0
  6
HIDDEN
 62
     7
370
     0
100
AcDbLine
 10
186.1836344818
 20
87.6971519172
 30
0.0
 11
186.8627874995
 21
86.5668513432
 31
0.0
  0
LINE
  5
288
330
1F
100
AcDbEntity
  8
0
  6
HIDDEN
 62
     7
370
     0
100
AcDbLine
 10
186.8627874995
 20
105.3252358541
 30
0.0
 11
186.1836344818
 21
104.1949352801
 31
0.0
  0
LINE
  5
289
330
1F
100
AcDbEntity
  8
0
  6
HIDDEN
 62
     7
370
     0
100
AcDbLine
 10
186.1836344818
 20
104.1949352801
 30
0.0
 11
186.8627874995
 21
103.0646356374
 31
0.0
  0
LINE
  5
28A
330
1F
100
AcDbEntity
  8
0
  6
HIDDEN
 62
     7
370
     0
100
AcDbLine
 10
186.8627874995
 20
97.0763435906
 30
0.0
 11
186.1836344818
 21
95.9460435987
 31
0.0
  0
LINE
  5
28B
330
1F
100
AcDbEntity
  8
0
  6
HIDDEN
 62
     7
370
     0
100
AcDbLine
 10
186.1836344818
 20
95.9460435987
 30
0.0
 11
186.8627874995
 21
94.8157436067
 31
0.0
  0
LINE
  5
28C
330
1F
100
AcDbEntity
  8
0
  6
HIDDEN
 62
     7
370
     0
100
AcDbLine
 10
193.2127874227
 20
97.0763435906
 30
0.0
 11
186.8627874995
 21
97.0763435906
 31
0.0
  0
LINE
  5
28D
330
1F
100
AcDbEntity
  8
0
  6
HIDDEN
 62
     7
370
     0
100
AcDbLine
 10
186.8627874995
 20
94.8157436067
 30
0.0
 11
193.2127874227
 21
94.8157436067
 31
0.0
  0
INSERT
  5
293
102
{ACAD_REACTORS
330
29D
102
}
330
1F
100
AcDbEntity
  8
0
  6
Continuous
 62
     7
370
     0
100
AcDbBlockReference
  2
SW_NOTE_5
 10
179.955075846
 20
68.6114352392
 30
0.0
  0
LEADER
  5
29D
330
1F
100
AcDbEntity
  8
0
  6
Continuous
 62
     7
370
     0
100
AcDbLeader
  3
SLDDIMSTYLE6
 73
     2
 76
     3
 10
173.6347978758
 20
93.5875100775
 30
0.0
 10
173.605075846
 20
68.6114352392
 30
0.0
 10
179.955075846
 20
68.6114352392
 30
0.0
340
293
  0
INSERT
  5
2A5
102
{ACAD_REACTORS
330
2A6
102
}
330
1F
100
AcDbEntity
  8
0
  6
Continuous
 62
     7
370
     0
100
AcDbBlockReference
  2
SW_NOTE_6
 10
207.1429404901
 20
109.1015169195
 30
0.0
  0
LEADER
  5
2A6
330
1F
100
AcDbEntity
  8
0
  6
Continuous
 62
     7
370
     0
100
AcDbLeader
  3
SLDDIMSTYLE2
 73
     2
 76
     3
 10
193.2127874227
 20
104.1456154928
 30
0.0
 10
200.7929404901
 20
109.1015169195
 30
0.0
 10
207.1429404901
 20
109.1015169195
 30
0.0
340
2A5
  0
LINE
  5
2A7
330
1F
100
AcDbEntity
  8
0
  6
Continuous
 62
     7
370
     0
100
AcDbLine
 10
267.991573186
 20
177.5741266215
 30
0.0
 11
267.991573186
 21
185.8011021452
 31
0.0
  0
LINE
  5
2A8
330
1F
100
AcDbEntity
  8
0
  6
Continuous
 62
     7
370
     0
100
AcDbLine
 10
242.591573186
 20
200.4597817811
 30
0.0
 11
242.591573186
 21
177.5741266215
 31
0.0
  0
SPLINE
  5
2A9
330
1F
100
AcDbEntity
  8
0
  6
Continuous
 62
     7
370
     0
100
AcDbSpline
210
0.0
220
0.0
230
1.0
 70
     8
 71
     3
 72
   110
 73
   106
 74
     0
 42
0.00000001
 43
0.00000001
 12
1.0
 22
0.0
 32
0.0
 13
1.0
 23
0.0
 33
0.0
 40
-0.0312500000000001
 40
-0.0312500000000001
 40
0.0
 40
0.0
 40
0.03125
 40
0.03125
 40
0.0390625
 40
0.0390625
 40
0.046875
 40
0.046875
 40
0.0625
 40
0.0625
 40
0.078125
 40
0.078125
 40
0.09375
 40
0.09375
 40
0.109375
 40
0.109375
 40
0.1250000000000001
 40
0.1250000000000001
 40
0.1562500000000001
 40
0.1562500000000001
 40
0.1875000000000001
 40
0.1875000000000001
 40
0.2187500000000001
 40
0.2187500000000001
 40
0.2500000000000002
 40
0.2500000000000002
 40
0.2656250000000002
 40
0.2656250000000002
 40
0.2812500000000002
 40
0.2812500000000002
 40
0.3125000000000003
 40
0.3125000000000003
 40
0.3437500000000004
 40
0.3437500000000004
 40
0.3593750000000004
 40
0.3593750000000004
 40
0.3750000000000005
 40
0.3750000000000005
 40
0.4062500000000004
 40
0.4062500000000004
 40
0.4218750000000004
 40
0.4218750000000004
 40
0.4375000000000004
 40
0.4375000000000004
 40
0.4531250000000004
 40
0.4531250000000004
 40
0.4687500000000004
 40
0.4687500000000004
 40
0.4843750000000004
 40
0.4843750000000004
 40
0.4921875000000004
 40
0.4921875000000004
 40
0.5000000000000003
 40
0.5000000000000003
 40
0.5156250000000003
 40
0.5156250000000003
 40
0.5234375000000003
 40
0.5234375000000003
 40
0.5312500000000003
 40
0.5312500000000003
 40
0.5468750000000003
 40
0.5468750000000003
 40
0.5546875000000003
 40
0.5546875000000003
 40
0.5625000000000002
 40
0.5625000000000002
 40
0.5937500000000002
 40
0.5937500000000002
 40
0.6250000000000002
 40
0.6250000000000002
 40
0.6406250000000002
 40
0.6406250000000002
 40
0.6562500000000002
 40
0.6562500000000002
 40
0.6875000000000001
 40
0.6875000000000001
 40
0.7187500000000001
 40
0.7187500000000001
 40
0.7343750000000001
 40
0.7343750000000001
 40
0.7500000000000001
 40
0.7500000000000001
 40
0.7812500000000001
 40
0.7812500000000001
 40
0.8125
 40
0.8125
 40
0.84375
 40
0.84375
 40
0.875
 40
0.875
 40
0.890625
 40
0.890625
 40
0.90625
 40
0.90625
 40
0.921875
 40
0.921875
 40
0.9374999999999999
 40
0.9374999999999999
 40
0.9531249999999999
 40
0.9531249999999999
 40
0.9609374999999999
 40
0.9609374999999999
 40
0.9687499999999999
 40
0.9687499999999999
 40
1.0
 40
1.0
 40
1.03125
 40
1.03125
 10
247.0364115648933
 20
209.1051392017264
 30
0.0
 10
245.5862224673209
 20
208.2679628554974
 30
0.0
 10
244.970627667583
 20
207.7128975932532
 30
0.0
 10
244.3247292730525
 20
206.8650209251331
 30
0.0
 10
244.2015367442185
 20
206.6870503354019
 30
0.0
 10
243.9713737215092
 20
206.321791592128
 30
0.0
 10
243.8638819382541
 20
206.1339119910031
 30
0.0
 10
243.5627411495319
 20
205.5555149064317
 30
0.0
 10
243.3903440590948
 20
205.150296312551
 30
0.0
 10
243.0971072937616
 20
204.3041940443202
 30
0.0
 10
242.9762271951378
 20
203.8614702888297
 30
0.0
 10
242.7868659026178
 20
202.965218772583
 30
0.0
 10
242.7173218265404
 20
202.5092150392248
 30
0.0
 10
242.6225419686319
 20
201.5833210461392
 30
0.0
 10
242.5973377404126
 20
201.113420897291
 30
0.0
 10
242.5875685693019
 20
200.1608839660345
 30
0.0
 10
242.6032621144616
 20
199.6760429630039
 30
0.0
 10
242.7058862922894
 20
198.2267651972106
 30
0.0
 10
242.8468947996887
 20
197.2637818630839
 30
0.0
 10
243.2499463597705
 20
195.3431536831523
 30
0.0
 10
243.5124723975377
 20
194.3849427077258
 30
0.0
 10
244.1497995018602
 20
192.4758486604726
 30
0.0
 10
244.5181401587488
 20
191.5440626100865
 30
0.0
 10
245.3443210069166
 20
189.7214972571622
 30
0.0
 10
245.8022421887048
 20
188.8307550627197
 30
0.0
 10
246.5553456976644
 20
187.524983136071
 30
0.0
 10
246.8174750528432
 20
187.0948092481177
 30
0.0
 10
247.3644683121488
 20
186.2448779500437
 30
0.0
 10
247.6501631860662
 20
185.8240709238485
 30
0.0
 10
248.5309115200484
 20
184.5941538648064
 30
0.0
 10
249.1521242254433
 20
183.812675465328
 30
0.0
 10
250.4648830223501
 20
182.3291809896017
 30
0.0
 10
251.1563395649403
 20
181.6270637414084
 30
0.0
 10
252.2532464965211
 20
180.6413616320389
 30
0.0
 10
252.6288971766577
 20
180.3241092023327
 30
0.0
 10
253.402466549735
 20
179.714762637276
 30
0.0
 10
253.7965303305963
 20
179.4257943662148
 30
0.0
 10
254.9959719155532
 20
178.6133755743514
 30
0.0
 10
255.8206780093231
 20
178.1415535011272
 30
0.0
 10
257.1041742478147
 20
177.5630499270001
 30
0.0
 10
257.5409940723326
 20
177.3919041018422
 30
0.0
 10
258.4119362826045
 20
177.1065579035802
 30
0.0
 10
258.8483161032925
 20
176.9911660720225
 30
0.0
 10
259.7230860666523
 20
176.8207358734151
 30
0.0
 10
260.1615682121948
 20
176.7656333871139
 30
0.0
 10
261.0404792606129
 20
176.7252165137423
 30
0.0
 10
261.4705422536259
 20
176.740445144934
 30
0.0
 10
262.3109305757935
 20
176.8453706118179
 30
0.0
 10
262.7212665060077
 20
176.9350274507892
 30
0.0
 10
263.3205305811572
 20
177.1307839041677
 30
0.0
 10
263.5169583618091
 20
177.2062108204175
 30
0.0
 10
263.8966995674218
 20
177.3748840576336
 30
0.0
 10
264.0809510584804
 20
177.4684168607221
 30
0.0
 10
264.6170716788373
 20
177.7762380742372
 30
0.0
 10
264.9523654659305
 20
178.0176535310017
 30
0.0
 10
265.4219456583187
 20
178.4343741717798
 30
0.0
 10
265.5734080591898
 20
178.5830528888458
 30
0.0
 10
265.8602059984486
 20
178.8934621872314
 30
0.0
 10
265.9960919273333
 20
179.0555726853408
 30
0.0
 10
266.3823691613198
 20
179.561556790574
 30
0.0
 10
266.6114581876289
 20
179.9250110606968
 30
0.0
 10
266.9153873380059
 20
180.5066880103177
 30
0.0
 10
267.0102880466561
 20
180.7073261098687
 30
0.0
 10
267.1848040617154
 20
181.1148207590336
 30
0.0
 10
267.2647337180012
 20
181.322165914132
 30
0.0
 10
267.6303856368914
 20
182.3755820946638
 30
0.0
 10
267.8157358284436
 20
183.2716390755137
 30
0.0
 10
268.008952025001
 20
185.148030956245
 30
0.0
 10
268.0138815073435
 20
186.0979367473209
 30
0.0
 10
267.913113681444
 20
187.5366106670504
 30
0.0
 10
267.8612199090777
 20
188.0185066220102
 30
0.0
 10
267.7232563771934
 20
188.9866637342562
 30
0.0
 10
267.636743949327
 20
189.4748404665792
 30
0.0
 10
267.3315121747657
 20
190.929741568679
 30
0.0
 10
267.0686094867581
 20
191.8850407183996
 30
0.0
 10
266.4397733562699
 20
193.7702607331876
 30
0.0
 10
266.0736794941289
 20
194.7001420840769
 30
0.0
 10
265.4505036734088
 20
196.0767279826437
 30
0.0
 10
265.2297055486307
 20
196.533796684302
 30
0.0
 10
264.7663221659929
 20
197.4354748097434
 30
0.0
 10
264.5244096522924
 20
197.8789549121549
 30
0.0
 10
263.7687832000104
 20
199.1878752963386
 30
0.0
 10
263.2253884647602
 20
200.0319454968668
 30
0.0
 10
262.0582643892024
 20
201.662245232259
 30
0.0
 10
261.4338683303498
 20
202.4493544235167
 30
0.0
 10
260.0992474844396
 20
203.9562181791214
 30
0.0
 10
259.4011815515842
 20
204.6624151426005
 30
0.0
 10
257.9386657480537
 20
205.9728553180073
 30
0.0
 10
257.1743795698981
 20
206.5773499321123
 30
0.0
 10
255.9682805427771
 20
207.3924498676504
 30
0.0
 10
255.556807096258
 20
207.6480694087149
 30
0.0
 10
254.7274268419827
 20
208.1156675421937
 30
0.0
 10
254.3077605294973
 20
208.3289012581742
 30
0.0
 10
253.4575055526941
 20
208.7102292950095
 30
0.0
 10
253.0269252738004
 20
208.8783582707653
 30
0.0
 10
252.1533160413461
 20
209.1631689100953
 30
0.0
 10
251.7099693925908
 20
209.2794343981313
 30
0.0
 10
250.833033582572
 20
209.447865713936
 30
0.0
 10
250.39665829742
 20
209.5011006041167
 30
0.0
 10
249.7455709638523
 20
209.5294975472768
 30
0.0
 10
249.5291228581353
 20
209.5303615392872
 30
0.0
 10
249.0974711592777
 20
209.513664793673
 30
0.0
 10
248.8816848996909
 20
209.4959508845502
 30
0.0
 10
247.8250851782566
 20
209.3606289208224
 30
0.0
 10
247.0364115648933
 20
209.1051392017264
 30
0.0
 10
245.5862224673209
 20
208.2679628554974
 30
0.0
  0
SPLINE
  5
2AA
330
1F
100
AcDbEntity
  8
0
  6
Continuous
 62
     7
370
     0
100
AcDbSpline
210
0.0
220
0.0
230
1.0
 70
     8
 71
     3
 72
    13
 73
     9
 74
     0
 42
0.00000001
 43
0.00000001
 12
1.0
 22
0.0
 32
0.0
 13
1.0
 23
0.0
 33
0.0
 40
0.0
 40
0.0
 40
0.0
 40
0.0
 40
0.1250710948757012
 40
0.2501214874970398
 40
0.5000711849036265
 40
0.7499674618706436
 40
0.8749904195716297
 40
1.0
 40
1.0
 40
1.0
 40
1.0
 10
242.7284190949709
 20
185.9244406391639
 30
0.0
 10
242.7327008969037
 20
185.9200807434901
 30
0.0
 10
242.7412637920288
 20
185.9113616738097
 30
0.0
 10
242.7586572507387
 20
185.9031942402617
 30
0.0
 10
242.7801985880531
 20
185.9094377379299
 30
0.0
 10
242.8005441681396
 20
185.9386480224559
 30
0.0
 10
242.8153738953104
 20
185.9766966434832
 30
0.0
 10
242.8211987175508
 20
186.006024037463
 30
0.0
 10
242.8241109728508
 20
186.020686949914
 30
0.0
  0
LINE
  5
2AB
330
1F
100
AcDbEntity
  8
0
  6
Continuous
 62
     7
370
     0
100
AcDbLine
 10
242.728419095
 20
185.7261536449
 30
0.0
 11
242.728419095
 21
185.9244406392
 31
0.0
  0
SPLINE
  5
2AC
330
1F
100
AcDbEntity
  8
0
  6
Continuous
 62
     7
370
     0
100
AcDbSpline
210
0.0
220
0.0
230
1.0
 70
     8
 71
     3
 72
    13
 73
     9
 74
     0
 42
0.00000001
 43
0.00000001
 12
1.0
 22
0.0
 32
0.0
 13
1.0
 23
0.0
 33
0.0
 40
0.0
 40
0.0
 40
0.0
 40
0.0
 40
0.1250146390038013
 40
0.2500229927051582
 40
0.4999840770001182
 40
0.7500009713535993
 40
0.8675848207702225
 40
1.0
 40
1.0
 40
1.0
 40
1.0
 10
242.8065758408188
 20
185.7035469574716
 30
0.0
 10
242.8034772309366
 20
185.699863187001
 30
0.0
 10
242.7972801669596
 20
185.692495831267
 30
0.0
 10
242.7841986498923
 20
185.6865029186443
 30
0.0
 10
242.7675040637505
 20
185.6881808744909
 30
0.0
 10
242.7512825324265
 20
185.6974517548099
 30
0.0
 10
242.738251275504
 20
185.7111424522147
 30
0.0
 10
242.7318235970022
 20
185.7209558522173
 30
0.0
 10
242.7284190949709
 20
185.7261536448936
 30
0.0
  0
LINE
  5
2AD
330
1F
100
AcDbEntity
  8
0
  6
Continuous
 62
     7
370
     0
100
AcDbLine
 10
242.8065758408
 20
184.3961971139
 30
0.0
 11
242.8065758408
 21
185.7035469575
 31
0.0
  0
ARC
  5
2AE
330
1F
100
AcDbEntity
  8
0
  6
Continuous
 62
     7
370
     0
100
AcDbCircle
 10
247.2949111311
 20
185.8455951875
 30
0.0
 40
4.716556843044613
100
AcDbArc
 50
197.8965930459
 51
199.811813021
  0
LINE
  5
2AF
330
1F
100
AcDbEntity
  8
0
  6
Continuous
 62
     7
370
     0
100
AcDbLine
 10
242.8575229989
 20
185.9247132336
 30
0.0
 11
242.8575229989
 21
184.2470036143
 31
0.0
  0
ARC
  5
2B0
330
1F
100
AcDbEntity
  8
0
  6
Continuous
 62
     7
370
     0
100
AcDbCircle
 10
247.3123839416
 20
187.5294191325
 30
0.0
 40
4.735067796803397
100
AcDbArc
 50
198.5800617863
 51
199.8097599793
  0
LWPOLYLINE
  5
2B1
330
1F
100
AcDbEntity
  8
0
  6
Continuous
 62
     7
370
     0
100
AcDbPolyline
 90
       50
 70
   128
 43
0.0
 10
246.3113170649
 20
172.3899351115
 10
246.7591943313
 20
172.1436773985
 10
247.2273094577
 20
171.9103001112
 10
247.7145521268
 20
171.6903567946
 10
248.2197666526
 20
171.48436913
 10
248.7417547223
 20
171.2928256973
 10
249.2792782377
 20
171.1161808165
 10
249.8310622524
 20
170.9548534696
 10
250.3957979958
 20
170.8092263073
 10
250.9721459771
 20
170.6796447412
 10
251.5587391625
 20
170.5664161244
 10
252.1541862178
 20
170.4698090227
 10
252.7570748084
 20
170.3900525774
 10
253.3659749491
 20
170.327335962
 10
253.979442396
 20
170.2818079335
 10
254.5960220723
 20
170.2535764792
 10
255.2142515189
 20
170.242708561
 10
255.832664364
 20
170.2492299565
 10
256.4497938006
 20
170.2731251977
 10
257.0641760658
 20
170.3143376076
 10
257.6743539129
 20
170.3727694349
 10
258.2788800673
 20
170.4482820859
 10
258.8763206599
 20
170.5406964528
 10
259.4652586275
 20
170.6497933391
 10
260.0442970743
 20
170.7753139788
 10
260.6120625852
 20
170.9169606511
 10
261.167208483
 20
171.0743973855
 10
261.7084180231
 20
171.2472507595
 10
262.2344075161
 20
171.4351107841
 10
262.7439293732
 20
171.637531876
 10
263.2357750647
 20
171.8540339148
 10
263.7087779871
 20
172.0841033815
 10
264.1618162296
 20
172.3271945768
 10
264.5938152357
 20
172.5827309151
 10
265.0037503513
 20
172.8501062927
 10
265.3906492557
 20
173.1286865246
 10
265.7535942674
 20
173.4178108492
 10
266.091724521
 20
173.7167934956
 10
266.4042380088
 20
174.0249253101
 10
266.6903934834
 20
174.3414754379
 10
266.9495122157
 20
174.6656930572
 10
267.1809796045
 20
174.9968091596
 10
267.3842466349
 20
175.3340383743
 10
267.5588311798
 20
175.6765808308
 10
267.7043191442
 20
176.0236240562
 10
267.8203654465
 20
176.3743449025
 10
267.9066948377
 20
176.7279114984
 10
267.9631025541
 20
177.0834852231
 10
267.9894548029
 20
177.440222695
 10
267.991573186
 20
177.5741266215
  0
ARC
  5
2B2
330
1F
100
AcDbEntity
  8
0
  6
Continuous
 62
     7
370
     0
100
AcDbCircle
 10
248.9209317335
 20
178.1889620572
 30
0.0
 40
6.359151062529028
100
AcDbArc
 50
185.5483179893
 51
245.7718229683
  0
SPLINE
  5
2B3
330
1F
100
AcDbEntity
  8
0
  6
Continuous
 62
     7
370
     0
100
AcDbSpline
210
0.0
220
0.0
230
1.0
 70
     8
 71
     3
 72
    16
 73
    12
 74
     0
 42
0.00000001
 43
0.00000001
 12
1.0
 22
0.0
 32
0.0
 13
1.0
 23
0.0
 33
0.0
 40
0.0
 40
0.0
 40
0.0
 40
0.0
 40
0.1252037281426007
 40
0.2503884232617768
 40
0.3755474586374129
 40
0.500631130169987
 40
0.6432480406832933
 40
0.7502093923383427
 40
0.8748537122524782
 40
0.9374211602822597
 40
1.0
 40
1.0
 40
1.0
 40
1.0
 10
242.6706802635267
 20
185.7499300413121
 30
0.0
 10
242.6705907358449
 20
185.7029337413875
 30
0.0
 10
242.6704116940908
 20
185.6089482857479
 30
0.0
 10
242.6686159707228
 20
185.4763690278747
 30
0.0
 10
242.6651868788977
 20
185.3541282636901
 30
0.0
 10
242.6590861323559
 20
185.2452931028633
 30
0.0
 10
242.6500665986236
 20
185.1726965140683
 30
0.0
 10
242.6380701066108
 20
185.1517902738769
 30
0.0
 10
242.6277251387988
 20
185.1826118687176
 30
0.0
 10
242.6196777673143
 20
185.231304425483
 30
0.0
 10
242.6160850449888
 20
185.263582249187
 30
0.0
 10
242.6142885203087
 20
185.2797226301153
 30
0.0
  0
SPLINE
  5
2B4
330
1F
100
AcDbEntity
  8
0
  6
Continuous
 62
     7
370
     0
100
AcDbSpline
210
0.0
220
0.0
230
1.0
 70
     8
 71
     3
 72
    15
 73
    11
 74
     0
 42
0.00000001
 43
0.00000001
 12
1.0
 22
0.0
 32
0.0
 13
1.0
 23
0.0
 33
0.0
 40
0.0
 40
0.0
 40
0.0
 40
0.0
 40
0.0626253064539578
 40
0.1252128026006794
 40
0.2500411401690621
 40
0.3746316374763742
 40
0.4996312845618908
 40
0.7494694892746641
 40
0.8496821103872441
 40
1.0
 40
1.0
 40
1.0
 40
1.0
 10
242.6142885203087
 20
186.9789413471158
 30
0.0
 10
242.616086097908
 20
186.9614553325085
 30
0.0
 10
242.619680167811
 20
186.9264938605527
 30
0.0
 10
242.6277298565536
 20
186.8427670395056
 30
0.0
 10
242.6386517179626
 20
186.7188261408118
 30
0.0
 10
242.6508679588433
 20
186.545261931169
 30
0.0
 10
242.6616307774822
 20
186.3138188394244
 30
0.0
 10
242.6680394929723
 20
186.1045635321698
 30
0.0
 10
242.6703319535444
 20
185.9036446309775
 30
0.0
 10
242.6705496475097
 20
185.8075729125365
 30
0.0
 10
242.6706802635267
 20
185.7499300413121
 30
0.0
  0
SPLINE
  5
2B5
330
1F
100
AcDbEntity
  8
0
  6
Continuous
 62
     7
370
     0
100
AcDbSpline
210
0.0
220
0.0
230
1.0
 70
     8
 71
     3
 72
    17
 73
    13
 74
     0
 42
0.00000001
 43
0.00000001
 12
1.0
 22
0.0
 32
0.0
 13
1.0
 23
0.0
 33
0.0
 40
0.0
 40
0.0
 40
0.0
 40
0.0
 40
0.1251492432291847
 40
0.2502781713674079
 40
0.3837262972969515
 40
0.5004108843264096
 40
0.6316207721924947
 40
0.7498824272035137
 40
0.8124001134506454
 40
0.8749148898800526
 40
0.9374491704395997
 40
1.0
 40
1.0
 40
1.0
 40
1.0
 10
242.5919760323475
 20
186.5085678696478
 30
0.0
 10
242.5919817775325
 20
186.555633764446
 30
0.0
 10
242.59199326697
 20
186.6497579139807
 30
0.0
 10
242.5921367732165
 20
186.7851218100192
 30
0.0
 10
242.5924548134284
 20
186.9074094033874
 30
0.0
 10
242.5932303420059
 20
187.0120725310995
 30
0.0
 10
242.594833954955
 20
187.084213186329
 30
0.0
 10
242.5978195853162
 20
187.1031435594758
 30
0.0
 10
242.6014498355742
 20
187.0899007036155
 30
0.0
 10
242.60502391393
 20
187.0635345092829
 30
0.0
 10
242.6092433570488
 20
187.0274862113197
 30
0.0
 10
242.6126066508987
 20
186.9951243956939
 30
0.0
 10
242.6142885203087
 20
186.9789413471158
 30
0.0
  0
SPLINE
  5
2B6
330
1F
100
AcDbEntity
  8
0
  6
Continuous
 62
     7
370
     0
100
AcDbSpline
210
0.0
220
0.0
230
1.0
 70
     8
 71
     3
 72
    12
 73
     8
 74
     0
 42
0.00000001
 43
0.00000001
 12
1.0
 22
0.0
 32
0.0
 13
1.0
 23
0.0
 33
0.0
 40
0.0
 40
0.0
 40
0.0
 40
0.0
 40
0.1249981802678304
 40
0.2500181699043232
 40
0.499843040976401
 40
0.7498766444739992
 40
1.0
 40
1.0
 40
1.0
 40
1.0
 10
242.5951346812918
 20
185.7060618903335
 30
0.0
 10
242.594680273464
 20
185.7427305682043
 30
0.0
 10
242.5937713785243
 20
185.8160743218046
 30
0.0
 10
242.5928278720411
 20
185.9598763849523
 30
0.0
 10
242.5922470888067
 20
186.1323143791998
 30
0.0
 10
242.592008566996
 20
186.3267514546734
 30
0.0
 10
242.5919868785276
 20
186.4479551480807
 30
0.0
 10
242.5919760323475
 20
186.5085678696478
 30
0.0
  0
SPLINE
  5
2B7
330
1F
100
AcDbEntity
  8
0
  6
Continuous
 62
     7
370
     0
100
AcDbSpline
210
0.0
220
0.0
230
1.0
 70
     8
 71
     3
 72
    12
 73
     8
 74
     0
 42
0.00000001
 43
0.00000001
 12
1.0
 22
0.0
 32
0.0
 13
1.0
 23
0.0
 33
0.0
 40
0.0
 40
0.0
 40
0.0
 40
0.0
 40
0.2501118399281622
 40
0.5000203913628645
 40
0.7497554808353057
 40
0.8748530671024467
 40
1.0
 40
1.0
 40
1.0
 40
1.0
 10
242.6142885203087
 20
185.2797226301153
 30
0.0
 10
242.6118387260182
 20
185.3060944695644
 30
0.0
 10
242.6069411286063
 20
185.3588167136855
 30
0.0
 10
242.6014293410097
 20
185.4602280505091
 30
0.0
 10
242.5981321675821
 20
185.5586012456139
 30
0.0
 10
242.5961930812549
 20
185.641770348797
 30
0.0
 10
242.5954875276564
 20
185.6846285593657
 30
0.0
 10
242.5951346812918
 20
185.7060618903335
 30
0.0
  0
SPLINE
  5
2B8
330
1F
100
AcDbEntity
  8
0
  6
Continuous
 62
     7
370
     0
100
AcDbSpline
210
0.0
220
0.0
230
1.0
 70
     8
 71
     3
 72
    14
 73
    10
 74
     0
 42
0.00000001
 43
0.00000001
 12
1.0
 22
0.0
 32
0.0
 13
1.0
 23
0.0
 33
0.0
 40
0.0
 40
0.0
 40
0.0
 40
0.0
 40
0.2504465544088783
 40
0.5006271577129477
 40
0.6256173980224403
 40
0.7503619177354576
 40
0.8749139347612949
 40
0.9374334541801445
 40
1.0
 40
1.0
 40
1.0
 40
1.0
 10
242.59680562299
 20
186.3572007450886
 30
0.0
 10
242.5968438198921
 20
186.288284566121
 30
0.0
 10
242.5969201731349
 20
186.1505253908014
 30
0.0
 10
242.5977179254434
 20
185.9654263847708
 30
0.0
 10
242.5994739925389
 20
185.8040728401025
 30
0.0
 10
242.6024835246764
 20
185.6773773602276
 30
0.0
 10
242.6064393276733
 20
185.5780124392268
 30
0.0
 10
242.6106350361611
 20
185.5119102366546
 30
0.0
 10
242.6130703870676
 20
185.4861763099732
 30
0.0
 10
242.6142885203087
 20
185.4733045092673
 30
0.0
  0
SPLINE
  5
2B9
330
1F
100
AcDbEntity
  8
0
  6
Continuous
 62
     7
370
     0
100
AcDbSpline
210
0.0
220
0.0
230
1.0
 70
     8
 71
     3
 72
    14
 73
    10
 74
     0
 42
0.00000001
 43
0.00000001
 12
1.0
 22
0.0
 32
0.0
 13
1.0
 23
0.0
 33
0.0
 40
0.0
 40
0.0
 40
0.0
 40
0.0
 40
0.0625718350622497
 40
0.1250837859443777
 40
0.2496290621893408
 40
0.3743665145366748
 40
0.4993488336595853
 40
0.7495426014132969
 40
1.0
 40
1.0
 40
1.0
 40
1.0
 10
242.6142885203087
 20
185.4733045092673
 30
0.0
 10
242.6155676474121
 20
185.4620527733845
 30
0.0
 10
242.6181246774342
 20
185.4395600700578
 30
0.0
 10
242.6235315563341
 20
185.4138628807878
 30
0.0
 10
242.6300531870479
 20
185.4114208491023
 30
0.0
 10
242.6365462277139
 20
185.4469535676373
 30
0.0
 10
242.6412171761769
 20
185.5461255246456
 30
0.0
 10
242.6436758847845
 20
185.6999074269283
 30
0.0
 10
242.6439197248285
 20
185.8345371539311
 30
0.0
 10
242.6440417090507
 20
185.9018874638166
 30
0.0
  0
SPLINE
  5
2BA
330
1F
100
AcDbEntity
  8
0
  6
Continuous
 62
     7
370
     0
100
AcDbSpline
210
0.0
220
0.0
230
1.0
 70
     8
 71
     3
 72
    15
 73
    11
 74
     0
 42
0.00000001
 43
0.00000001
 12
1.0
 22
0.0
 32
0.0
 13
1.0
 23
0.0
 33
0.0
 40
0.0
 40
0.0
 40
0.0
 40
0.0
 40
0.1252519376079484
 40
0.2504961104472915
 40
0.5006645979650165
 40
0.6256249858635119
 40
0.7503965025560777
 40
0.8749083495139796
 40
0.9374337014579469
 40
1.0
 40
1.0
 40
1.0
 40
1.0
 10
242.6440417090507
 20
185.9018874638166
 30
0.0
 10
242.6440158419295
 20
185.9362240240169
 30
0.0
 10
242.6439641092905
 20
186.0048950157842
 30
0.0
 10
242.6430708232043
 20
186.1468884394637
 30
0.0
 10
242.641203809989
 20
186.2948642724372
 30
0.0
 10
242.6363963233799
 20
186.4569237703222
 30
0.0
 10
242.6299769003675
 20
186.5839330477286
 30
0.0
 10
242.6233904289788
 20
186.6831068360196
 30
0.0
 10
242.6179469158285
 20
186.7485560851994
 30
0.0
 10
242.6153936530977
 20
186.7741957264362
 30
0.0
 10
242.614116603849
 20
186.7870197434021
 30
0.0
  0
SPLINE
  5
2BB
330
1F
100
AcDbEntity
  8
0
  6
Continuous
 62
     7
370
     0
100
AcDbSpline
210
0.0
220
0.0
230
1.0
 70
     8
 71
     3
 72
    11
 73
     7
 74
     0
 42
0.00000001
 43
0.00000001
 12
1.0
 22
0.0
 32
0.0
 13
1.0
 23
0.0
 33
0.0
 40
0.0
 40
0.0
 40
0.0
 40
0.0
 40
0.2499762991228603
 40
0.4998291777062613
 40
0.7498121573677247
 40
1.0
 40
1.0
 40
1.0
 40
1.0
 10
242.614116603849
 20
186.7870197434021
 30
0.0
 10
242.6125766072763
 20
186.801192718236
 30
0.0
 10
242.6094973744719
 20
186.8295316702954
 30
0.0
 10
242.6057404943984
 20
186.849483876859
 30
0.0
 10
242.6027722913092
 20
186.8505304046691
 30
0.0
 10
242.6014419685292
 20
186.8366183650071
 30
0.0
 10
242.6007765346985
 20
186.8296594960877
 30
0.0
  0
SPLINE
  5
2BC
330
1F
100
AcDbEntity
  8
0
  6
Continuous
 62
     7
370
     0
100
AcDbSpline
210
0.0
220
0.0
230
1.0
 70
     8
 71
     3
 72
    12
 73
     8
 74
     0
 42
0.00000001
 43
0.00000001
 12
1.0
 22
0.0
 32
0.0
 13
1.0
 23
0.0
 33
0.0
 40
0.0
 40
0.0
 40
0.0
 40
0.0
 40
0.1249202996239259
 40
0.2499253403448441
 40
0.4998213365461334
 40
0.749885759924727
 40
1.0
 40
1.0
 40
1.0
 40
1.0
 10
242.6007765346985
 20
186.8296594960877
 30
0.0
 10
242.600256663847
 20
186.8176116566728
 30
0.0
 10
242.5992165694837
 20
186.7935078050549
 30
0.0
 10
242.5980946658232
 20
186.72426798023
 30
0.0
 10
242.5972825595934
 20
186.6254069663641
 30
0.0
 10
242.5968677393634
 20
186.4949868133385
 30
0.0
 10
242.5968263298225
 20
186.4031324840018
 30
0.0
 10
242.59680562299
 20
186.3572007450886
 30
0.0
  0
OLE2FRAME
  5
2BD
330
1F
100
AcDbEntity
  8
0
100
AcDbOle2Frame
 70
     2
  3
Paintbrush Picture
 10
229.0524258301
 20
33.6996297921
 30
0.0
 11
265.1686469208
 21
28.555479607
 31
0.0
 71
     2
 72
     0
 73
     1
 90
     7296
310
80557333EF78ADA16C40002412788DD94040000000000000000041161DC7B292
310
7040002412788DD94040000000000000000041161DC7B2927040F6DD59E9338E
310
3C4000000000000000007333EF78ADA16C40F6DD59E9338E3C40000000000000
310
00000000000001000000000100000100000001000000000001000000001C0000
310
D0CF11E0A1B11AE1000000000000000000000000000000003E000300FEFF0900
310
0600000000000000000000000100000001000000000000000010000002000000
310
01000000FEFFFFFF0000000000000000FFFFFFFFFFFFFFFFFFFFFFFFFFFFFFFF
310
FFFFFFFFFFFFFFFFFFFFFFFFFFFFFFFFFFFFFFFFFFFFFFFFFFFFFFFFFFFFFFFF
310
FFFFFFFFFFFFFFFFFFFFFFFFFFFFFFFFFFFFFFFFFFFFFFFFFFFFFFFFFFFFFFFF
310
FFFFFFFFFFFFFFFFFFFFFFFFFFFFFFFFFFFFFFFFFFFFFFFFFFFFFFFFFFFFFFFF
310
FFFFFFFFFFFFFFFFFFFFFFFFFFFFFFFFFFFFFFFFFFFFFFFFFFFFFFFFFFFFFFFF
310
FFFFFFFFFFFFFFFFFFFFFFFFFFFFFFFFFFFFFFFFFFFFFFFFFFFFFFFFFFFFFFFF
310
FFFFFFFFFFFFFFFFFFFFFFFFFFFFFFFFFFFFFFFFFFFFFFFFFFFFFFFFFFFFFFFF
310
FFFFFFFFFFFFFFFFFFFFFFFFFFFFFFFFFFFFFFFFFFFFFFFFFFFFFFFFFFFFFFFF
310
FFFFFFFFFFFFFFFFFFFFFFFFFFFFFFFFFFFFFFFFFFFFFFFFFFFFFFFFFFFFFFFF
310
FFFFFFFFFFFFFFFFFFFFFFFFFFFFFFFFFFFFFFFFFFFFFFFFFFFFFFFFFFFFFFFF
310
FFFFFFFFFFFFFFFFFFFFFFFFFFFFFFFFFFFFFFFFFFFFFFFFFFFFFFFFFFFFFFFF
310
FFFFFFFFFFFFFFFFFFFFFFFFFFFFFFFFFFFFFFFFFFFFFFFFFFFFFFFFFFFFFFFF
310
FFFFFFFFFFFFFFFFFFFFFFFFFFFFFFFFFFFFFFFFFFFFFFFFFFFFFFFFFFFFFFFF
310
FFFFFFFFFFFFFFFFFFFFFFFFFFFFFFFFFFFFFFFFFFFFFFFFFFFFFFFFFFFFFFFF
310
FDFFFFFFFEFFFFFFFEFFFFFFFEFFFFFF05000000060000000700000008000000
310
090000000A0000000B0000000C000000FEFFFFFFFFFFFFFFFFFFFFFFFFFFFFFF
310
FFFFFFFFFFFFFFFFFFFFFFFFFFFFFFFFFFFFFFFFFFFFFFFFFFFFFFFFFFFFFFFF
310
FFFFFFFFFFFFFFFFFFFFFFFFFFFFFFFFFFFFFFFFFFFFFFFFFFFFFFFFFFFFFFFF
310
FFFFFFFFFFFFFFFFFFFFFFFFFFFFFFFFFFFFFFFFFFFFFFFFFFFFFFFFFFFFFFFF
310
FFFFFFFFFFFFFFFFFFFFFFFFFFFFFFFFFFFFFFFFFFFFFFFFFFFFFFFFFFFFFFFF
310
FFFFFFFFFFFFFFFFFFFFFFFFFFFFFFFFFFFFFFFFFFFFFFFFFFFFFFFFFFFFFFFF
310
FFFFFFFFFFFFFFFFFFFFFFFFFFFFFFFFFFFFFFFFFFFFFFFFFFFFFFFFFFFFFFFF
310
FFFFFFFFFFFFFFFFFFFFFFFFFFFFFFFFFFFFFFFFFFFFFFFFFFFFFFFFFFFFFFFF
310
FFFFFFFFFFFFFFFFFFFFFFFFFFFFFFFFFFFFFFFFFFFFFFFFFFFFFFFFFFFFFFFF
310
FFFFFFFFFFFFFFFFFFFFFFFFFFFFFFFFFFFFFFFFFFFFFFFFFFFFFFFFFFFFFFFF
310
FFFFFFFFFFFFFFFFFFFFFFFFFFFFFFFFFFFFFFFFFFFFFFFFFFFFFFFFFFFFFFFF
310
FFFFFFFFFFFFFFFFFFFFFFFFFFFFFFFFFFFFFFFFFFFFFFFFFFFFFFFFFFFFFFFF
310
FFFFFFFFFFFFFFFFFFFFFFFFFFFFFFFFFFFFFFFFFFFFFFFFFFFFFFFFFFFFFFFF
310
FFFFFFFFFFFFFFFFFFFFFFFFFFFFFFFFFFFFFFFFFFFFFFFFFFFFFFFFFFFFFFFF
310
FFFFFFFFFFFFFFFFFFFFFFFFFFFFFFFFFFFFFFFFFFFFFFFFFFFFFFFFFFFFFFFF
310
52006F006F007400200045006E00740072007900000000000000000000000000
310
0000000000000000000000000000000000000000000000000000000000000000
310
16000500FFFFFFFFFFFFFFFF020000000A00030000000000C000000000000046
310
00000000000000000000000080B07CC36013CE0103000000C000000000000000
310
01004F006C006500000000000000000000000000000000000000000000000000
310
0000000000000000000000000000000000000000000000000000000000000000
310
0A000200FFFFFFFFFFFFFFFFFFFFFFFF00000000000000000000000000000000
310
0000000000000000000000000000000000000000000000001400000000000000
310
010043006F006D0070004F0062006A0000000000000000000000000000000000
310
0000000000000000000000000000000000000000000000000000000000000000
310
120002010100000003000000FFFFFFFF00000000000000000000000000000000
310
0000000000000000000000000000000000000000010000004D00000000000000
310
01004F006C006500310030004E00610074006900760065000000000000000000
310
0000000000000000000000000000000000000000000000000000000000000000
310
1A000200FFFFFFFFFFFFFFFFFFFFFFFF00000000000000000000000000000000
310
000000000000000000000000000000000000000004000000E411000000000000
310
FEFFFFFF02000000FEFFFFFFFFFFFFFFFFFFFFFFFFFFFFFFFFFFFFFFFFFFFFFF
310
FFFFFFFFFFFFFFFFFFFFFFFFFFFFFFFFFFFFFFFFFFFFFFFFFFFFFFFFFFFFFFFF
310
FFFFFFFFFFFFFFFFFFFFFFFFFFFFFFFFFFFFFFFFFFFFFFFFFFFFFFFFFFFFFFFF
310
FFFFFFFFFFFFFFFFFFFFFFFFFFFFFFFFFFFFFFFFFFFFFFFFFFFFFFFFFFFFFFFF
310
FFFFFFFFFFFFFFFFFFFFFFFFFFFFFFFFFFFFFFFFFFFFFFFFFFFFFFFFFFFFFFFF
310
FFFFFFFFFFFFFFFFFFFFFFFFFFFFFFFFFFFFFFFFFFFFFFFFFFFFFFFFFFFFFFFF
310
FFFFFFFFFFFFFFFFFFFFFFFFFFFFFFFFFFFFFFFFFFFFFFFFFFFFFFFFFFFFFFFF
310
FFFFFFFFFFFFFFFFFFFFFFFFFFFFFFFFFFFFFFFFFFFFFFFFFFFFFFFFFFFFFFFF
310
FFFFFFFFFFFFFFFFFFFFFFFFFFFFFFFFFFFFFFFFFFFFFFFFFFFFFFFFFFFFFFFF
310
FFFFFFFFFFFFFFFFFFFFFFFFFFFFFFFFFFFFFFFFFFFFFFFFFFFFFFFFFFFFFFFF
310
FFFFFFFFFFFFFFFFFFFFFFFFFFFFFFFFFFFFFFFFFFFFFFFFFFFFFFFFFFFFFFFF
310
FFFFFFFFFFFFFFFFFFFFFFFFFFFFFFFFFFFFFFFFFFFFFFFFFFFFFFFFFFFFFFFF
310
FFFFFFFFFFFFFFFFFFFFFFFFFFFFFFFFFFFFFFFFFFFFFFFFFFFFFFFFFFFFFFFF
310
FFFFFFFFFFFFFFFFFFFFFFFFFFFFFFFFFFFFFFFFFFFFFFFFFFFFFFFFFFFFFFFF
310
FFFFFFFFFFFFFFFFFFFFFFFFFFFFFFFFFFFFFFFFFFFFFFFFFFFFFFFFFFFFFFFF
310
FFFFFFFFFFFFFFFFFFFFFFFFFFFFFFFFFFFFFFFFFFFFFFFFFFFFFFFFFFFFFFFF
310
0100000200000000000000000000000000000000000000000000000000000000
310
0000000000000000000000000000000000000000000000000000000000000000
310
0100FEFF030A0000FFFFFFFF0A00030000000000C00000000000004607000000
310
5042727573680007000000504272757368000700000050427275736800F439B2
310
7100000000000000000000000000000000000000000000000000000000000000
310
0000000000000000000000000000000000000000000000000000000000000000
310
0000000000000000000000000000000000000000000000000000000000000000
310
0000000000000000000000000000000000000000000000000000000000000000
310
0000000000000000000000000000000000000000000000000000000000000000
310
0000000000000000000000000000000000000000000000000000000000000000
310
0000000000000000000000000000000000000000000000000000000000000000
310
0000000000000000000000000000000000000000000000000000000000000000
310
0000000000000000000000000000000000000000000000000000000000000000
310
0000000000000000000000000000000000000000000000000000000000000000
310
0000000000000000000000000000000000000000000000000000000000000000
310
0000000000000000000000000000000000000000000000000000000000000000
310
E0110000424DDE11000000000000360400002800000096000000170000000100
310
08000000000000000000E7240000E72400000001000000010000000000FF0101
310
01FF020202FF030303FF040404FF050505FF060606FF070707FF080808FF0909
310
09FF0A0A0AFF0B0B0BFF0C0C0CFF0D0D0DFF0E0E0EFF0F0F0FFF101010FF1111
310
11FF121212FF131313FF141414FF151515FF161616FF171717FF181818FF1919
310
19FF1A1A1AFF1B1B1BFF1C1C1CFF1D1D1DFF1E1E1EFF1F1F1FFF202020FF2121
310
21FF222222FF232323FF242424FF252525FF262626FF272727FF282828FF2929
310
29FF2A2A2AFF2B2B2BFF2C2C2CFF2D2D2DFF2E2E2EFF2F2F2FFF303030FF3131
310
31FF323232FF333333FF343434FF353535FF363636FF373737FF383838FF3939
310
39FF3A3A3AFF3B3B3BFF3C3C3CFF3D3D3DFF3E3E3EFF3F3F3FFF404040FF4141
310
41FF424242FF434343FF444444FF454545FF464646FF474747FF484848FF4949
310
49FF4A4A4AFF4B4B4BFF4C4C4CFF4D4D4DFF4E4E4EFF4F4F4FFF505050FF5151
310
51FF525252FF535353FF545454FF555555FF565656FF575757FF585858FF5959
310
59FF5A5A5AFF5B5B5BFF5C5C5CFF5D5D5DFF5E5E5EFF5F5F5FFF606060FF6161
310
61FF626262FF636363FF646464FF656565FF666666FF676767FF686868FF6969
310
69FF6A6A6AFF6B6B6BFF6C6C6CFF6D6D6DFF6E6E6EFF6F6F6FFF707070FF7171
310
71FF727272FF737373FF747474FF757575FF767676FF777777FF787878FF7979
310
79FF7A7A7AFF7B7B7BFF7C7C7CFF7D7D7DFF7E7E7EFF7F7F7FFF808080FF8181
310
81FF828282FF838383FF848484FF858585FF868686FF878787FF888888FF8989
310
89FF8A8A8AFF8B8B8BFF8C8C8CFF8D8D8DFF8E8E8EFF8F8F8FFF909090FF9191
310
91FF929292FF939393FF949494FF959595FF969696FF979797FF989898FF9999
310
99FF9A9A9AFF9B9B9BFF9C9C9CFF9D9D9DFF9E9E9EFF9F9F9FFFA0A0A0FFA1A1
310
A1FFA2A2A2FFA3A3A3FFA4A4A4FFA5A5A5FFA6A6A6FFA7A7A7FFA8A8A8FFA9A9
310
A9FFAAAAAAFFABABABFFACACACFFADADADFFAEAEAEFFAFAFAFFFB0B0B0FFB1B1
310
B1FFB2B2B2FFB3B3B3FFB4B4B4FFB5B5B5FFB6B6B6FFB7B7B7FFB8B8B8FFB9B9
310
B9FFBABABAFFBBBBBBFFBCBCBCFFBDBDBDFFBEBEBEFFBFBFBFFFC0C0C0FFC1C1
310
C1FFC2C2C2FFC3C3C3FFC4C4C4FFC5C5C5FFC6C6C6FFC7C7C7FFC8C8C8FFC9C9
310
C9FFCACACAFFCBCBCBFFCCCCCCFFCDCDCDFFCECECEFFCFCFCFFFD0D0D0FFD1D1
310
D1FFD2D2D2FFD3D3D3FFD4D4D4FFD5D5D5FFD6D6D6FFD7D7D7FFD8D8D8FFD9D9
310
D9FFDADADAFFDBDBDBFFDCDCDCFFDDDDDDFFDEDEDEFFDFDFDFFFE0E0E0FFE1E1
310
E1FFE2E2E2FFE3E3E3FFE4E4E4FFE5E5E5FFE6E6E6FFE7E7E7FFE8E8E8FFE9E9
310
E9FFEAEAEAFFEBEBEBFFECECECFFEDEDEDFFEEEEEEFFEFEFEFFFF0F0F0FFF1F1
310
F1FFF2F2F2FFF3F3F3FFF4F4F4FFF5F5F5FFF6F6F6FFF7F7F7FFF8F8F8FFF9F9
310
F9FFFAFAFAFFFBFBFBFFFCFCFCFFFDFDFDFFFEFEFEFFFFFFFFFFFFFFFFFFFFFF
310
C94E4E4E4F4E4EFFFFFFFFFFC94E4E4E4E4E72FFFFFFFFFFFFFF734E4D4E4E4E
310
C9FFFFFFFFFFAA683516171616265B9BE9FFFFFFFFFF4E4E4E4D4E4EFFFFFFFF
310
FFFFFFFF4E4E4F4E4D4E4E4E4F4E4E4F4D4E4E4E4E4E4D4E4F4E4D4E4E4EAAFF
310
FFFFFFFFFFEA4E4F4F4E4E4E4E4E4D4D4F4F4E4E4E4E4E5B7FAAFFFFFFFFFFFF
310
C9744E1716171616164D8DEAFFFFFFFF0000FFFFFFFFFFFFBA161617161716FF
310
FFFFFFFFB917171616174FFFFFFFFFFFFFFF4E1716161616B9FFFFFFB9341717
310
1716171617171616268CFFFFFFFF161617161617FFFFFFFFFFFFFFB917161717
310
1617167F807F7F7F7F7F7F807F7F807F7F807F7F7F414EFFFFFFFFFFFF8C167F
310
7F807F7F7F7E7F7F807F807F7F807F4E3417258EFFFFEA4E162674AABAEAEBBA
310
AA74341680FFFFFF0000FFFFFFFFFFFFB9171717171617FFFFFFFFFFBB161616
310
16164EFFFFFFFFFFFFFF4E1717171717B9FFFF9C171617171716161616171616
310
171766FFFFFF161717161617FFFFFFFFFFFFFF8E16171717161616FFFFFFFFFF
310
FFFFFFFFFFFFFFFFFFFFFFFFFFAA16D9FFFFFFFFFF3467FFFFFFFFEAFFFFFFFF
310
FFFFFFFFFFFFFFFFFFCA671667EB26278DFFFFFFFFFFFFFFFFFFFF8C2541EAFF
310
0000FFFFFFFFFFFFB9171717171716FFFFFFFFFFBA16171617174EFFFFFFFFFF
310
FFFF4E1717161616BAFF9B1617161616171716171617161616161667FFFF1616
310
16161716FFFFFFFFFFFFFF7F16161617174017FFFFFFFFFFFFFFFFFFFFFFFFFF
310
FFFFFFFFFFFF344E7F7F7F7E7417DAFFFFFFFF80FFFFFFFFFFFFFFFFFFFFFFFF
310
FFFFFF9B163425CAFFFFFFFFFFFFFFFFFFFFFFFFCA2667FF0000FFFFFFFFFFFF
310
BA171717171617FFFFFFFFFFB916171716164EFFFFFFFFFFFFFF4F1716161717
310
B9C91716171616161716161617171616161617168DFF161716161717FFFFFFFF
310
FFFFFF7F17171716164F16FFFFFFFFFFFFFFFFFFFFFFFFFFFFFFFFFFFFFF9B16
310
17161617174EFFFFFFFFFF34FFFFFFFFD9BABABABABADAFFFFFFFFFF7F16AAFF
310
FFFFFFFFFFFFFFFFFFFFFFFFFF9C16BA0000FFFFFFFFFFFFB9161717161717FF
310
FFFFFFFFB917161716174DFFFFFFFFFFFFFF4E1616161616BA4E161617171716
310
419BEAEAAA4E16161617161726E9171717161616FFFFFFFFFFFFFF4F16161717
310
164E16FFFFFFFFFFBAB9B9B9B9B9BABABACAFFFFFFFFFFFFFFFFFFFFFFFFFFFF
310
FFFFBA16FFFFFFFF7F1617161617174DEAFFFFFFEA41FFFFFFFFFFAA4D16174E
310
9BFFFFFFFFFF34730000FFFFFFFFFFFFB9161617171617FFFFFFFFFFBA161616
310
16164EFFFFFFFFFFFFFF4F16161717169B1617161716175BFFFFFFFFFFFF7417
310
16171616168D171717161617FFFFFFFFFFFFEA2616171717167416FFFFFFFFFF
310
16171616171717171717EAFFFFFFFFFFFFFFFFFFFFFFFFFFFFFF6716FFFFFFFF
310
7F4EFFFFFFFFBA2573FFFFFFFFBAFFFFFFFFAA167FB9BB9B269BFFFFFFFF664F
310
0000FFFFFFFFFFFFB9171616161616FFFFFFFFFFBA16161717164EFFFFFFFFFF
310
FFFF4E16161616174E161617171626EAFFFFFFFFFFFFFF4E16161616164E1716
310
16161617FFFFFFFFFFFF671616161716347F16FFFFFFFFFF16B9FFFFFFFFFFFF
310
D9168DFFFFFFFFFFFFFFFFFFFFFFFFFFFFEA1716FFFFFFFF7F4EFFFFFFFFFF7F
310
4EFFFFFFFFFFFFFFFFFF5B66FFFFFFEA347FFFFFFFFF7F4D0000FFFFFFFFFFFF
310
B9171616171617FFFFFFFFFFBA17161716174EFFFFFFFFFFFFFF4D1716161617
310
17161716161673FFFFFFFFFFFFFFFF9B1617161717161616171616174F4E4E4E
310
4E341616171616167E7F16FFFFFFFFFF16BAFFFFFFFFFFFFFF5B41FFFFFFFF34
310
1616171616BAFFFFFF9B1716FFFFFFFF7F4EFFFFFFFFFF4E4EFFFFFFFF734E4E
310
4E4E267EDA9B67164EEAFFFFFFFF744D0000FFFFFFFFFFFFBA171717161617FF
310
FFFFFFFFBA1616171616347F7F7F7F80807F331616161717161717161716B9FF
310
FFFFFFFFFFFFFFE9161616161616171716161716171616161616171616171734
310
EA7F16FFFFFFFFFF16BAFFFFFFFFFFFFFFAA17C9FFFFFF7326BABA5B25FFFFFF
310
FF401716FFFFFFFF7F264F4E4E4E4217AAFFFFFFEA16677F73261616164173CA
310
FFFFFFFFFFFF417F0000FFFFFFFFFFFFBA171616171617FFFFFFFFFFBA161616
310
17171616161616161616161717161616161616161617EAFFFFFFFFFFFFFFFFFF
310
261717161716161617161616161617161617161616174EEAFF8016FFFFFFFFFF
310
17BAFFFFFFFFFFFFFFFF3467FFFFFFC916C9FF3467FFFFFFDA166716FFFFFFFF
310
9C4D4E4E4E4E67AAFFFFFFFF6834FF7F262567AAEAFFFFFFFFFFFFFFFF9B17D9
310
0000FFFFFFFFFFFFB9161616161616FFFFFFFFFFBA1617161717171616161616
310
1716171716161716161617171716FFFFFFFFFFFFFFFFFFFF4E17161716171616
310
1617171616161716171717161616169BFF7F17FFFFFFFFFF17B9FFFFFFFFFFFF
310
FFFF7326FFFFFFFF3473DA16AAFFFFFF7317AA16FFFFFFFFFFFFFFFFFFFFFFFF
310
FFFFEA6725BA4E167FEAFFFFFFFFFFFFFFFFFFFF9C167FFF0000FFFFFFFFFFFF
310
B9161717171716FFFFFFFFFFBA16161716171616171717161617161716161616
310
171617171617EAFFFFFFFFFFFFFFFFFF26161717161616161616161617171616
310
1616161616171616AA8016FFFFFFFFFF16BAFFFFFFFFFFFFFFFFDA179BFFFFFF
310
74348D26FFFFFFFF2566B917FFFFFFFFD8BAB9BAB9BADAFFFFEA41169B7425C9
310
FFFFFFFFFFFFFFFFFFFFAB4F1680FFFF0000FFFFFFFFFFFFBA161717171617FF
310
FFFFFFFFBA17161717161617171617161616161617171616171716171617BBFF
310
FFFFFFFFFFFFFFE9171616161617161617161716FFFFFFFFFFD9671616161617
310
348017FFFFFFFFFF16BAFFFFFFFFFFFFFFFFFF4E5AFFFFFFC916265AFFFFFFAA
310
16AABA16FFFFFFFF7F1617161616179BFFFFEB4127168DFFFFFFFFFFFFFFD99B
310
6734175AC9FFFFFF0000FFFFFFFFFFFFB9161617171617FFFFFFFFFFBB161616
310
1616347F807F7F7F7F8033171716171617171616161672FFFFFFFFFFFFFFFF9C
310
171617171617161716161617FFFFFFFFFFFFFF4117161616174E17FFFFFFFFFF
310
16BAFFFFFFFFFFFFFFFFFF9B16DAFFFFFF34169BFFFFFF5A26FFB917FFFFFFFF
310
7F4EFFFFFFEA5B26FFFFFFEA2616EAFFFFFFFFDA743416331617414E4E4E4ECA
310
0000FFFFFFFFFFFFBA161716161616FFFFFFFFFFBA17171616164EFFFFFFFFFF
310
FFFF4E16161717174E161717171626EBFFFFFFFFFFFFFF4E16161617165B1616
310
16171617FFFFFFFFFFFFFF6716161616161617FFFFFFFFFF16BAFFFFFFFFFFFF
310
FFFFFFEA268CFFFFFF7316EAFFFFEB1774FFB916FFFFFFFF7F4EFFFFFFFF7316
310
FFFFFFFF6826FFFFFFFFEB264D9CEABA257F807F7F6616BA0000FFFFFFFFFFFF
310
BA161716161616FFFFFFFFFFBA16171616164DFFFFFFFFFFFFFF4E1617161617
310
9B1617171717165BEBFFFFFFFFFF671616161617179B171616161616FFFFFFFF
310
FFFFFF3417161617171617FFFFFFFFFF17BAFFFFFFFFFFFFFFFFFFFF6734FFFF
310
FFEBCAFFFFFF8D17C9FFBA17FFFFFFFF7F357F808066174FFFFFFFFF7F16FFFF
310
FFFFD91673B99B415BFFFFFFFFBA16DA00009B7F7F7F807F671617161616167F
310
80807F7E6617161616164EFFFFFFFFFFFFFF4E1616161617B94E171716161616
310
349BC9D9AA4E16171616161634FF161617161717B9B9BAB9BA9B411716171716
310
163416FFFFFFFFFF16B9FFFFFFFFFFFFFFFFFFFFC917CAFFFFFFFFFFFFFF3342
310
FFFFBA17FFFFFFFF9B4E4E4F4E4E66EAFFFFFFFF5B16C9FFFFFFFFAA4E164E73
310
EAFFFFFFFF8D26FF00004E161716161616171617171616171717171617161616
310
17174EFFFFFFFFFFFFFF4E1717171616B9D92616171716171716171717171716
310
16171716AAFF161717171617161617171616161617161716166717FFFFFFFFFF
310
17B9FFFFFFFFFFFFFFFFFFFFFF3467FFFFFFFFFFFFCA168CFFFFBB17FFFFFFFF
310
FFFFFFFFFFFFFFFFFFFFFFEA26265BFFFFFFFFFFFFFFFFFFFFFFFFFFEA3467FF
310
00004D16161616161617161717161617161616171617171616164EFFFFFFFFFF
310
FFFF4D1617161616BAFF9B1616161616161716161616171717161766FFFF1616
310
16171617161617161716171616171717667F16FFFFFFFFFF17BAFFFFFFFFFFFF
310
FFFFFFFFFF8C26EAFFFFFFFFFF6617EAFFFFBA17FFFFFFFFFFFFFFFFFFFFFFFF
310
FFFFEA5A25BA269BFFFFFFFFFFFFFFFFFFFFFFFF6616DAFF00004E1616171616
310
1616161616161716161617171616171616174EFFFFFFFFFFFFFF4D1717171716
310
B9FFFF9C161616161616161716161717171667FFFFFF17161717171716161617
310
1716161616161641E97E16FFFFFFFFFF16B9FFFFFFFFFFFFFFFFFFFFFFEA169B
310
FFFFFFFFEA265BFFFFFFB916FFFFFFFFFFFFFFFFFFFFFFFFFF9B3416AAFF9B17
310
67EAFFFFFFFFFFFFFFFFEA5B169BFFFF00004D17161716161616161717171616
310
161717161716171716174EFFFFFFFFFFFFFF4D1616161616BAFFFFFFBB411616
310
161716161616171634ABFFFFFFFF161716161617171716171617171617267FFF
310
FF7F164E4E4E4E4F17BAFFFFFFFFFFFFFFFFFFFFFFFF66344D4E4E4F4117AAFF
310
FFFFBA174E4E4E4D4E4D4D4E4E4E4E4116174EBBFFFFFFCA342666ABEAFFFFEA
310
AA6725269CFFFFFF0000724F4E4D4D4D4E4D4D4E4E4E4D4E4E4E4E4E4E4E4E4D
310
4E4E74FFFFFFFFFFFFFF734E4E4E4D4ECAFFFFFFFFFFAA663416171717265B9B
310
FFFFFFFFFFFF7F8080807F80807F7F7F7F7F807FBAFFFFFFFF9B4E4E4F4D4D4E
310
4DC9FFFFFFFFFFFFFFFFFFFFFFFFBA4E4E4E4E4D4E4EFFFFFFFFC94E4E4E4F4E
310
4E4E4D4E4E5A807F9CD9FFFFFFFFFFFFFF9B5B2617171716174E8DEAFFFFFFFF
310
0000000000000000000000000000000000000000000000000000000000000000
  1
OLE
  0
ENDSEC
  0
SECTION
  2
OBJECTS
  0
DICTIONARY
  5
C
330
0
100
AcDbDictionary
281
     1
  3
ACAD_GROUP
350
D
  3
ACAD_LAYOUT
350
1A
  3
ACAD_MLINESTYLE
350
17
  3
ACAD_PLOTSETTINGS
350
19
  3
ACAD_PLOTSTYLENAME
350
E
  0
DICTIONARY
  5
D
102
{ACAD_REACTORS
330
C
102
}
330
C
100
AcDbDictionary
281
     1
  0
DICTIONARY
  5
1A
102
{ACAD_REACTORS
330
C
102
}
330
C
100
AcDbDictionary
281
     1
  3
Layout1
350
1E
  3
Layout2
350
26
  3
Model
350
22
  0
DICTIONARY
  5
17
102
{ACAD_REACTORS
330
C
102
}
330
C
100
AcDbDictionary
281
     1
  3
Standard
350
18
  0
DICTIONARY
  5
19
102
{ACAD_REACTORS
330
C
102
}
330
C
100
AcDbDictionary
281
     1
  0
ACDBDICTIONARYWDFLT
  5
E
102
{ACAD_REACTORS
330
C
102
}
330
C
100
AcDbDictionary
281
     1
  3
Normal
350
F
100
AcDbDictionaryWithDefault
340
F
  0
LAYOUT
  5
1E
102
{ACAD_REACTORS
330
1A
102
}
330
1A
100
AcDbPlotSettings
  1

  2
none_device
  4

  6

 40
0.0
 41
0.0
 42
0.0
 43
0.0
 44
0.0
 45
0.0
 46
0.0
 47
0.0
 48
0.0
 49
0.0
140
0.0
141
0.0
142
1.0
143
1.0
 70
   688
 72
     0
 73
     0
 74
     5
  7

 75
    16
147
1.0
148
0.0
149
0.0
100
AcDbLayout
  1
Layout1
 70
     1
 71
     1
 10
0.0
 20
0.0
 11
420.0
 21
297.0
 12
0.0
 22
0.0
 32
0.0
 14
1.0000000000E+20
 24
1.0000000000E+20
 34
1.0000000000E+20
 15
-1.0000000000E+20
 25
-1.0000000000E+20
 35
-1.0000000000E+20
146
0.0
 13
0.0
 23
0.0
 33
0.0
 16
1.0
 26
0.0
 36
0.0
 17
0.0
 27
1.0
 37
0.0
 76
     0
330
1B
  0
LAYOUT
  5
26
102
{ACAD_REACTORS
330
1A
102
}
330
1A
100
AcDbPlotSettings
  1

  2
none_device
  4

  6

 40
0.0
 41
0.0
 42
0.0
 43
0.0
 44
0.0
 45
0.0
 46
0.0
 47
0.0
 48
0.0
 49
0.0
140
0.0
141
0.0
142
1.0
143
1.0
 70
   688
 72
     0
 73
     0
 74
     5
  7

 75
    16
147
1.0
148
0.0
149
0.0
100
AcDbLayout
  1
Layout2
 70
     1
 71
     2
 10
0.0
 20
0.0
 11
0.0
 21
0.0
 12
0.0
 22
0.0
 32
0.0
 14
0.0
 24
0.0
 34
0.0
 15
0.0
 25
0.0
 35
0.0
146
0.0
 13
0.0
 23
0.0
 33
0.0
 16
1.0
 26
0.0
 36
0.0
 17
0.0
 27
1.0
 37
0.0
 76
     0
330
23
  0
LAYOUT
  5
22
102
{ACAD_REACTORS
330
1A
102
}
330
1A
100
AcDbPlotSettings
  1

  2
none_device
  4

  6

 40
0.0
 41
0.0
 42
0.0
 43
0.0
 44
0.0
 45
0.0
 46
0.0
 47
0.0
 48
0.0
 49
0.0
140
0.0
141
0.0
142
1.0
143
1.0
 70
  1712
 72
     0
 73
     0
 74
     0
  7

 75
     0
147
1.0
148
0.0
149
0.0
100
AcDbLayout
  1
Model
 70
     1
 71
     0
 10
0.0
 20
0.0
 11
279.4
 21
215.9
 12
0.0
 22
0.0
 32
0.0
 14
0.0
 24
0.0
 34
0.0
 15
279.4
 25
215.9
 35
0.0
146
0.0
 13
0.0
 23
0.0
 33
0.0
 16
1.0
 26
0.0
 36
0.0
 17
0.0
 27
1.0
 37
0.0
 76
     0
330
1F
331
29
  0
MLINESTYLE
  5
18
102
{ACAD_REACTORS
330
17
102
}
330
17
100
AcDbMlineStyle
  2
Standard
 70
     0
  3

 62
   256
 51
90.0
 52
90.0
 71
     2
 49
0.5
 62
   256
  6
BYLAYER
 49
-0.5
 62
   256
  6
BYLAYER
  0
ACDBPLACEHOLDER
  5
F
102
{ACAD_REACTORS
330
E
102
}
330
E
  0
ENDSEC
  0
EOF
