  0
SECTION
  2
HEADER
  9
$ACADVER
  1
AC1015
  9
$ACADMAINTVER
 70
     6
  9
$DWGCODEPAGE
  3
ANSI_1252
  9
$INSBASE
 10
0.0
 20
0.0
 30
0.0
  9
$EXTMIN
 10
0.0
 20
0.0
 30
0.0
  9
$EXTMAX
 10
11.0
 20
8.5
 30
0.0
  9
$LIMMIN
 10
0.0
 20
0.0
  9
$LIMMAX
 10
0.0
 20
0.0
  9
$ORTHOMODE
 70
     0
  9
$REGENMODE
 70
     1
  9
$FILLMODE
 70
     1
  9
$QTEXTMODE
 70
     0
  9
$MIRRTEXT
 70
     1
  9
$LTSCALE
 40
1.0
  9
$ATTMODE
 70
     1
  9
$TEXTSIZE
 40
0.1388888889
  9
$TRACEWID
 40
0.05
  9
$TEXTSTYLE
  7
Standard
  9
$CLAYER
  8
0
  9
$CELTYPE
  6
ByLayer
  9
$CECOLOR
 62
   256
  9
$CELTSCALE
 40
1.0
  9
$DISPSILH
 70
     0
  9
$DIMSCALE
 40
1.0
  9
$DIMASZ
 40
0.156
  9
$DIMEXO
 40
0.05
  9
$DIMDLI
 40
0.38
  9
$DIMRND
 40
0.0
  9
$DIMDLE
 40
0.0
  9
$DIMEXE
 40
0.125
  9
$DIMTP
 40
0.0
  9
$DIMTM
 40
0.0
  9
$DIMTXT
 40
0.1388888889
  9
$DIMCEN
 40
0.09
  9
$DIMTSZ
 40
0.0
  9
$DIMTOL
 70
     0
  9
$DIMLIM
 70
     0
  9
$DIMTIH
 70
     1
  9
$DIMTOH
 70
     1
  9
$DIMSE1
 70
     0
  9
$DIMSE2
 70
     0
  9
$DIMTAD
 70
     0
  9
$DIMZIN
 70
     0
  9
$DIMBLK
  1

  9
$DIMASO
 70
     1
  9
$DIMSHO
 70
     1
  9
$DIMPOST
  1

  9
$DIMAPOST
  1

  9
$DIMALT
 70
     0
  9
$DIMALTD
 70
     2
  9
$DIMALTF
 40
25.4
  9
$DIMLFAC
 40
0.5
  9
$DIMTOFL
 70
     0
  9
$DIMTVP
 40
0.0
  9
$DIMTIX
 70
     0
  9
$DIMSOXD
 70
     0
  9
$DIMSAH
 70
     0
  9
$DIMBLK1
  1

  9
$DIMBLK2
  1

  9
$DIMSTYLE
  2
Standard
  9
$DIMCLRD
 70
     0
  9
$DIMCLRE
 70
     0
  9
$DIMCLRT
 70
     0
  9
$DIMTFAC
 40
1.0
  9
$DIMGAP
 40
0.06
  9
$DIMJUST
 70
     0
  9
$DIMSD1
 70
     0
  9
$DIMSD2
 70
     0
  9
$DIMTOLJ
 70
     1
  9
$DIMTZIN
 70
     0
  9
$DIMALTZ
 70
     0
  9
$DIMALTTZ
 70
     0
  9
$DIMUPT
 70
     0
  9
$DIMDEC
 70
     4
  9
$DIMTDEC
 70
     4
  9
$DIMALTU
 70
     2
  9
$DIMALTTD
 70
     2
  9
$DIMTXSTY
  7
Standard
  9
$DIMAUNIT
 70
     0
  9
$DIMADEC
 70
     0
  9
$DIMALTRND
 40
0.0
  9
$DIMAZIN
 70
     0
  9
$DIMDSEP
 70
    46
  9
$DIMATFIT
 70
     3
  9
$DIMFRAC
 70
     0
  9
$DIMLDRBLK
  1

  9
$DIMLUNIT
 70
     2
  9
$DIMLWD
 70
    -2
  9
$DIMLWE
 70
    -2
  9
$DIMTMOVE
 70
     0
  9
$LUNITS
 70
     2
  9
$LUPREC
 70
     2
  9
$SKETCHINC
 40
0.1
  9
$FILLETRAD
 40
0.5
  9
$AUNITS
 70
     0
  9
$AUPREC
 70
     0
  9
$MENU
  1
.
  9
$ELEVATION
 40
0.0
  9
$PELEVATION
 40
0.0
  9
$THICKNESS
 40
0.0
  9
$LIMCHECK
 70
     0
  9
$CHAMFERA
 40
0.5
  9
$CHAMFERB
 40
0.5
  9
$CHAMFERC
 40
1.0
  9
$CHAMFERD
 40
0.0
  9
$SKPOLY
 70
     0
  9
$TDCREATE
 40
2454805.319765208
  9
$TDUCREATE
 40
2454805.528098542
  9
$TDUPDATE
 40
2454805.31976522
  9
$TDUUPDATE
 40
2454805.528098553
  9
$TDINDWG
 40
0.0000000116
  9
$TDUSRTIMER
 40
0.0000000116
  9
$USRTIMER
 70
     1
  9
$ANGBASE
 50
0.0
  9
$ANGDIR
 70
     0
  9
$PDMODE
 70
     0
  9
$PDSIZE
 40
-1.0
  9
$PLINEWID
 40
0.0
  9
$SPLFRAME
 70
     0
  9
$SPLINETYPE
 70
     6
  9
$SPLINESEGS
 70
     8
  9
$HANDSEED
  5
468
  9
$SURFTAB1
 70
     6
  9
$SURFTAB2
 70
     6
  9
$SURFTYPE
 70
     6
  9
$SURFU
 70
     6
  9
$SURFV
 70
     6
  9
$UCSBASE
  2

  9
$UCSNAME
  2

  9
$UCSORG
 10
0.0
 20
0.0
 30
0.0
  9
$UCSXDIR
 10
1.0
 20
0.0
 30
0.0
  9
$UCSYDIR
 10
0.0
 20
1.0
 30
0.0
  9
$UCSORTHOREF
  2

  9
$UCSORTHOVIEW
 70
     0
  9
$UCSORGTOP
 10
0.0
 20
0.0
 30
0.0
  9
$UCSORGBOTTOM
 10
0.0
 20
0.0
 30
0.0
  9
$UCSORGLEFT
 10
0.0
 20
0.0
 30
0.0
  9
$UCSORGRIGHT
 10
0.0
 20
0.0
 30
0.0
  9
$UCSORGFRONT
 10
0.0
 20
0.0
 30
0.0
  9
$UCSORGBACK
 10
0.0
 20
0.0
 30
0.0
  9
$PUCSBASE
  2

  9
$PUCSNAME
  2

  9
$PUCSORG
 10
0.0
 20
0.0
 30
0.0
  9
$PUCSXDIR
 10
1.0
 20
0.0
 30
0.0
  9
$PUCSYDIR
 10
0.0
 20
1.0
 30
0.0
  9
$PUCSORTHOREF
  2

  9
$PUCSORTHOVIEW
 70
     0
  9
$PUCSORGTOP
 10
0.0
 20
0.0
 30
0.0
  9
$PUCSORGBOTTOM
 10
0.0
 20
0.0
 30
0.0
  9
$PUCSORGLEFT
 10
0.0
 20
0.0
 30
0.0
  9
$PUCSORGRIGHT
 10
0.0
 20
0.0
 30
0.0
  9
$PUCSORGFRONT
 10
0.0
 20
0.0
 30
0.0
  9
$PUCSORGBACK
 10
0.0
 20
0.0
 30
0.0
  9
$USERI1
 70
     0
  9
$USERI2
 70
     0
  9
$USERI3
 70
     0
  9
$USERI4
 70
     0
  9
$USERI5
 70
     0
  9
$USERR1
 40
0.0
  9
$USERR2
 40
0.0
  9
$USERR3
 40
0.0
  9
$USERR4
 40
0.0
  9
$USERR5
 40
0.0
  9
$WORLDVIEW
 70
     1
  9
$SHADEDGE
 70
     3
  9
$SHADEDIF
 70
    70
  9
$TILEMODE
 70
     1
  9
$MAXACTVP
 70
    64
  9
$PINSBASE
 10
0.0
 20
0.0
 30
0.0
  9
$PLIMCHECK
 70
     0
  9
$PEXTMIN
 10
1.0000000000E+20
 20
1.0000000000E+20
 30
1.0000000000E+20
  9
$PEXTMAX
 10
-1.0000000000E+20
 20
-1.0000000000E+20
 30
-1.0000000000E+20
  9
$PLIMMIN
 10
0.0
 20
0.0
  9
$PLIMMAX
 10
12.0
 20
9.0
  9
$UNITMODE
 70
     0
  9
$VISRETAIN
 70
     1
  9
$PLINEGEN
 70
     0
  9
$PSLTSCALE
 70
     1
  9
$TREEDEPTH
 70
  3020
  9
$CMLSTYLE
  2
Standard
  9
$CMLJUST
 70
     0
  9
$CMLSCALE
 40
1.0
  9
$PROXYGRAPHICS
 70
     1
  9
$MEASUREMENT
 70
     0
  9
$CELWEIGHT
370
    -1
  9
$ENDCAPS
280
     0
  9
$JOINSTYLE
280
     0
  9
$LWDISPLAY
290
     1
  9
$INSUNITS
 70
     1
  9
$HYPERLINKBASE
  1

  9
$STYLESHEET
  1

  9
$XEDIT
290
     1
  9
$CEPSNTYPE
380
     0
  9
$PSTYLEMODE
290
     1
  9
$FINGERPRINTGUID
  2
{A44866BB-B2EA-4783-968F-3A5C9B9A000B}
  9
$VERSIONGUID
  2
{FAEB1C32-E019-11D5-929B-00C0DF256EC4}
  9
$EXTNAMES
290
     1
  9
$PSVPSCALE
 40
0.0
  9
$OLESTARTUP
290
     0
  0
ENDSEC
  0
SECTION
  2
CLASSES
  0
CLASS
  1
ACDBDICTIONARYWDFLT
  2
AcDbDictionaryWithDefault
  3
ObjectDBX Classes
 90
        0
280
     0
281
     0
  0
CLASS
  1
ACDBPLACEHOLDER
  2
AcDbPlaceHolder
  3
ObjectDBX Classes
 90
        0
280
     0
281
     0
  0
CLASS
  1
LAYOUT
  2
AcDbLayout
  3
ObjectDBX Classes
 90
        0
280
     0
281
     0
  0
ENDSEC
  0
SECTION
  2
TABLES
  0
TABLE
  2
VPORT
  5
8
330
0
100
AcDbSymbolTable
 70
     1
  0
VPORT
  5
29
330
8
100
AcDbSymbolTableRecord
100
AcDbViewportTableRecord
  2
*Active
 70
     0
 10
0.0
 20
0.0
 11
1.0
 21
1.0
 12
5.5
 22
4.25
 13
0.0
 23
0.0
 14
0.5
 24
0.5
 15
0.5
 25
0.5
 16
0.0
 26
0.0
 36
1.0
 17
0.0
 27
0.0
 37
0.0
 40
8.5
 41
1.2941176471
 42
50.0
 43
0.0
 44
0.0
 50
0.0
 51
0.0
 71
     0
 72
  2000
 73
     1
 74
     3
 75
     0
 76
     0
 77
     0
 78
     0
281
     0
 65
     1
110
0.0
120
0.0
130
0.0
111
1.0
121
0.0
131
0.0
112
0.0
122
1.0
132
0.0
 79
     0
146
0.0
  0
ENDTAB
  0
TABLE
  2
LTYPE
  5
5
330
0
100
AcDbSymbolTable
 70
     6
  0
LTYPE
  5
14
330
5
100
AcDbSymbolTableRecord
100
AcDbLinetypeTableRecord
  2
ByBlock
 70
     0
  3

 72
    65
 73
     0
 40
0.0
  0
LTYPE
  5
15
330
5
100
AcDbSymbolTableRecord
100
AcDbLinetypeTableRecord
  2
ByLayer
 70
     0
  3

 72
    65
 73
     0
 40
0.0
  0
LTYPE
  5
16
330
5
100
AcDbSymbolTableRecord
100
AcDbLinetypeTableRecord
  2
Continuous
 70
     0
  3
Solid line
 72
    65
 73
     0
 40
0.0
  0
LTYPE
  5
2A
330
5
100
AcDbSymbolTableRecord
100
AcDbLinetypeTableRecord
  2
HIDDEN
 70
     0
  3
Hidden __ __ __ __ __ __ __ __ __ __ __ __ __ __
 72
    65
 73
     2
 40
0.075
 49
0.05
 74
     0
 49
-0.025
 74
     0
  0
LTYPE
  5
2B
330
5
100
AcDbSymbolTableRecord
100
AcDbLinetypeTableRecord
  2
PHANTOM
 70
     0
  3
Phantom ______  __  __  ______  __  __  ______
 72
    65
 73
     6
 40
0.5
 49
0.25
 74
     0
 49
-0.05
 74
     0
 49
0.05
 74
     0
 49
-0.05
 74
     0
 49
0.05
 74
     0
 49
-0.05
 74
     0
  0
LTYPE
  5
2C
330
5
100
AcDbSymbolTableRecord
100
AcDbLinetypeTableRecord
  2
CENTER
 70
     0
  3
Center ____ _ ____ _ ____ _ ____ _ ____ _ ____
 72
    65
 73
     4
 40
0.4
 49
0.25
 74
     0
 49
-0.05
 74
     0
 49
0.05
 74
     0
 49
-0.05
 74
     0
  0
LTYPE
  5
2D
330
5
100
AcDbSymbolTableRecord
100
AcDbLinetypeTableRecord
  2
CENTERX2
 70
     0
  3
Center (2x) ________  __  ________  __  _____
 72
    65
 73
     4
 40
0.8
 49
0.5
 74
     0
 49
-0.1
 74
     0
 49
0.1
 74
     0
 49
-0.1
 74
     0
  0
LTYPE
  5
2E
330
5
100
AcDbSymbolTableRecord
100
AcDbLinetypeTableRecord
  2
DOT2
 70
     0
  3
Dot (.5x) ........................................
 72
    65
 73
     2
 40
0.025
 49
0.0
 74
     0
 49
-0.025
 74
     0
  0
ENDTAB
  0
TABLE
  2
LAYER
  5
2
330
0
100
AcDbSymbolTable
 70
     2
  0
LAYER
  5
10
330
2
100
AcDbSymbolTableRecord
100
AcDbLayerTableRecord
  2
0
 70
     0
 62
     7
  6
Continuous
370
    -3
390
F
  0
LAYER
  5
2F
330
2
100
AcDbSymbolTableRecord
100
AcDbLayerTableRecord
  2
FORMAT
 70
     0
 62
     7
  6
Continuous
370
    -3
390
F
  0
ENDTAB
  0
TABLE
  2
STYLE
  5
3
330
0
100
AcDbSymbolTable
 70
    21
  0
STYLE
  5
11
330
3
100
AcDbSymbolTableRecord
100
AcDbTextStyleTableRecord
  2
Standard
 70
     0
 40
0.0
 41
1.0
 50
0.0
 71
     0
 42
0.2
  3
txt
  4

  0
STYLE
  5
4D
330
3
100
AcDbSymbolTableRecord
100
AcDbTextStyleTableRecord
  2
SLDTEXTSTYLE0
 70
     0
 40
0.0
 41
0.75
 50
0.0
 71
     0
 42
0.2
  3
TXT
  4

  0
STYLE
  5
56
330
3
100
AcDbSymbolTableRecord
100
AcDbTextStyleTableRecord
  2
SLDTEXTSTYLE1
 70
     0
 40
0.0
 41
0.6428571429
 50
0.0
 71
     0
 42
0.2
  3
TXT
  4

  0
STYLE
  5
58
330
3
100
AcDbSymbolTableRecord
100
AcDbTextStyleTableRecord
  2
SLDTEXTSTYLE2
 70
     0
 40
0.0
 41
0.7211538462
 50
0.0
 71
     0
 42
0.2
  3
TXT
  4

  0
STYLE
  5
63
330
3
100
AcDbSymbolTableRecord
100
AcDbTextStyleTableRecord
  2
SLDTEXTSTYLE3
 70
     0
 40
0.0
 41
0.6375
 50
0.0
 71
     0
 42
0.2
  3
TXT
  4

  0
STYLE
  5
69
330
3
100
AcDbSymbolTableRecord
100
AcDbTextStyleTableRecord
  2
SLDTEXTSTYLE4
 70
     0
 40
0.0
 41
0.7016129032
 50
0.0
 71
     0
 42
0.2
  3
TXT
  4

  0
STYLE
  5
6B
330
3
100
AcDbSymbolTableRecord
100
AcDbTextStyleTableRecord
  2
SLDTEXTSTYLE5
 70
     0
 40
0.0
 41
0.6853448276
 50
0.0
 71
     0
 42
0.2
  3
TXT
  4

  0
STYLE
  5
6D
330
3
100
AcDbSymbolTableRecord
100
AcDbTextStyleTableRecord
  2
SLDTEXTSTYLE6
 70
     0
 40
0.0
 41
0.689516129
 50
0.0
 71
     0
 42
0.2
  3
TXT
  4

  0
STYLE
  5
6F
330
3
100
AcDbSymbolTableRecord
100
AcDbTextStyleTableRecord
  2
SLDTEXTSTYLE7
 70
     0
 40
0.0
 41
0.6666666667
 50
0.0
 71
     0
 42
0.2
  3
TXT
  4

  0
STYLE
  5
71
330
3
100
AcDbSymbolTableRecord
100
AcDbTextStyleTableRecord
  2
SLDTEXTSTYLE8
 70
     0
 40
0.0
 41
0.7010869565
 50
0.0
 71
     0
 42
0.2
  3
TXT
  4

  0
STYLE
  5
73
330
3
100
AcDbSymbolTableRecord
100
AcDbTextStyleTableRecord
  2
SLDTEXTSTYLE9
 70
     0
 40
0.0
 41
0.7083333333
 50
0.0
 71
     0
 42
0.2
  3
TXT
  4

  0
STYLE
  5
82
330
3
100
AcDbSymbolTableRecord
100
AcDbTextStyleTableRecord
  2
SLDTEXTSTYLE10
 70
     0
 40
0.0
 41
0.65625
 50
0.0
 71
     0
 42
0.2
  3
TXT
  4

  0
STYLE
  5
89
330
3
100
AcDbSymbolTableRecord
100
AcDbTextStyleTableRecord
  2
SLDTEXTSTYLE11
 70
     0
 40
0.0
 41
0.7125
 50
0.0
 71
     0
 42
0.2
  3
TXT
  4

  0
STYLE
  5
92
330
3
100
AcDbSymbolTableRecord
100
AcDbTextStyleTableRecord
  2
SLDTEXTSTYLE12
 70
     0
 40
0.0
 41
0.69375
 50
0.0
 71
     0
 42
0.2
  3
TXT
  4

  0
STYLE
  5
94
330
3
100
AcDbSymbolTableRecord
100
AcDbTextStyleTableRecord
  2
SLDTEXTSTYLE13
 70
     0
 40
0.0
 41
0.6988636364
 50
0.0
 71
     0
 42
0.2
  3
TXT
  4

  0
STYLE
  5
96
330
3
100
AcDbSymbolTableRecord
100
AcDbTextStyleTableRecord
  2
SLDTEXTSTYLE14
 70
     0
 40
0.0
 41
0.7115384615
 50
0.0
 71
     0
 42
0.2
  3
TXT
  4

  0
STYLE
  5
99
330
3
100
AcDbSymbolTableRecord
100
AcDbTextStyleTableRecord
  2
SLDTEXTSTYLE15
 70
     0
 40
0.0
 41
0.6796875
 50
0.0
 71
     0
 42
0.2
  3
TXT
  4

  0
STYLE
  5
A3
330
3
100
AcDbSymbolTableRecord
100
AcDbTextStyleTableRecord
  2
SLDTEXTSTYLE16
 70
     0
 40
0.0
 41
0.6995192308
 50
0.0
 71
     0
 42
0.2
  3
TXT
  4

  0
STYLE
  5
430
330
3
100
AcDbSymbolTableRecord
100
AcDbTextStyleTableRecord
  2
SLDTEXTSTYLE17
 70
     0
 40
0.0
 41
0.675
 50
0.0
 71
     0
 42
0.2
  3
TXT
  4

  0
STYLE
  5
432
330
3
100
AcDbSymbolTableRecord
100
AcDbTextStyleTableRecord
  2
SLDTEXTSTYLE18
 70
     0
 40
0.0
 41
0.625
 50
0.0
 71
     0
 42
0.2
  3
TXT
  4

  0
STYLE
  5
438
330
3
100
AcDbSymbolTableRecord
100
AcDbTextStyleTableRecord
  2
SLDTEXTSTYLE19
 70
     0
 40
0.0
 41
0.6875
 50
0.0
 71
     0
 42
0.2
  3
TXT
  4

  0
ENDTAB
  0
TABLE
  2
VIEW
  5
6
330
0
100
AcDbSymbolTable
 70
     0
  0
ENDTAB
  0
TABLE
  2
UCS
  5
7
330
0
100
AcDbSymbolTable
 70
     0
  0
ENDTAB
  0
TABLE
  2
APPID
  5
9
330
0
100
AcDbSymbolTable
 70
     1
  0
APPID
  5
12
330
9
100
AcDbSymbolTableRecord
100
AcDbRegAppTableRecord
  2
ACAD
 70
     0
  0
ENDTAB
  0
TABLE
  2
DIMSTYLE
  5
A
330
0
100
AcDbSymbolTable
 70
     7
100
AcDbDimStyleTable
  0
DIMSTYLE
105
27
330
A
100
AcDbSymbolTableRecord
100
AcDbDimStyleTableRecord
  2
Standard
 70
     0
340
11
  0
DIMSTYLE
105
D2
102
{ACAD_REACTORS
330
D1
102
}
330
A
100
AcDbSymbolTableRecord
100
AcDbDimStyleTableRecord
  2
SLDDIMSTYLE0
 70
     0
 41
0.156
 44
0.0
 78
     4
140
0.1041666667
147
0.0260416667
170
     1
172
     1
173
     1
271
     3
272
     3
284
    12
340
4D
  0
DIMSTYLE
105
3AC
102
{ACAD_REACTORS
330
3AB
330
3BE
330
3D0
330
3E2
102
}
330
A
100
AcDbSymbolTableRecord
100
AcDbDimStyleTableRecord
  2
SLDDIMSTYLE1
 70
     0
 41
0.156
 44
0.0
140
0.1041666667
147
0.0260416667
170
     1
173
     1
271
     2
272
     2
284
    12
340
4D
  0
DIMSTYLE
105
3F5
102
{ACAD_REACTORS
330
3F4
102
}
330
A
100
AcDbSymbolTableRecord
100
AcDbDimStyleTableRecord
  2
SLDDIMSTYLE2
 70
     0
 41
0.156
 44
0.0
 78
     4
140
0.1041666667
147
0.0260416667
170
     1
173
     1
271
     3
272
     3
284
    12
340
4D
  0
DIMSTYLE
105
408
102
{ACAD_REACTORS
330
407
102
}
330
A
100
AcDbSymbolTableRecord
100
AcDbDimStyleTableRecord
  2
SLDDIMSTYLE3
 70
     0
 41
0.156
 44
0.0
 78
    12
140
0.1041666667
147
0.0260416667
170
     1
173
     1
271
     2
272
     2
284
    12
340
4D
  0
DIMSTYLE
105
41B
102
{ACAD_REACTORS
330
41A
102
}
330
A
100
AcDbSymbolTableRecord
100
AcDbDimStyleTableRecord
  2
SLDDIMSTYLE4
 70
     0
 41
0.156
 44
0.0
 78
     8
140
0.1041666667
147
0.0260416667
170
     1
173
     1
271
     2
272
     2
284
    12
340
4D
  0
DIMSTYLE
105
43C
330
A
100
AcDbSymbolTableRecord
100
AcDbDimStyleTableRecord
  2
SLDDIMSTYLE5
 70
     0
 41
0.156
 44
0.0
140
0.156
147
0.039
173
     1
271
     0
272
     0
340
11
  0
ENDTAB
  0
TABLE
  2
BLOCK_RECORD
  5
1
330
0
100
AcDbSymbolTable
 70
    22
  0
BLOCK_RECORD
  5
1F
330
1
100
AcDbSymbolTableRecord
100
AcDbBlockTableRecord
  2
*Model_Space
340
22
  0
BLOCK_RECORD
  5
1B
330
1
100
AcDbSymbolTableRecord
100
AcDbBlockTableRecord
  2
*Paper_Space
340
1E
  0
BLOCK_RECORD
  5
23
330
1
100
AcDbSymbolTableRecord
100
AcDbBlockTableRecord
  2
*Paper_Space0
340
26
  0
BLOCK_RECORD
  5
66
330
1
100
AcDbSymbolTableRecord
100
AcDbBlockTableRecord
  2
SW_NOTE_0
340
0
102
{BLKREFS
331
75
102
}
1001
ACAD
1000
DesignCenter Data
1002
{
1070
     1
1070
     0
1002
}
  0
BLOCK_RECORD
  5
7F
330
1
100
AcDbSymbolTableRecord
100
AcDbBlockTableRecord
  2
SW_NOTE_1
340
0
102
{BLKREFS
331
85
102
}
1001
ACAD
1000
DesignCenter Data
1002
{
1070
     1
1070
     0
1002
}
  0
BLOCK_RECORD
  5
86
330
1
100
AcDbSymbolTableRecord
100
AcDbBlockTableRecord
  2
SW_NOTE_2
340
0
102
{BLKREFS
331
8C
102
}
1001
ACAD
1000
DesignCenter Data
1002
{
1070
     1
1070
     0
1002
}
  0
BLOCK_RECORD
  5
8E
330
1
100
AcDbSymbolTableRecord
100
AcDbBlockTableRecord
  2
SW_NOTE_3
340
0
102
{BLKREFS
331
9D
102
}
1001
ACAD
1000
DesignCenter Data
1002
{
1070
     1
1070
     0
1002
}
  0
BLOCK_RECORD
  5
9F
330
1
100
AcDbSymbolTableRecord
100
AcDbBlockTableRecord
  2
SW_NOTE_4
340
0
102
{BLKREFS
331
A5
102
}
1001
ACAD
1000
DesignCenter Data
1002
{
1070
     1
1070
     0
1002
}
  0
BLOCK_RECORD
  5
A6
330
1
100
AcDbSymbolTableRecord
100
AcDbBlockTableRecord
  2
SW_TABLEANNOTATION_0
340
0
102
{BLKREFS
331
BE
102
}
1001
ACAD
1000
DesignCenter Data
1002
{
1070
     1
1070
     0
1002
}
  0
BLOCK_RECORD
  5
D3
330
1
100
AcDbSymbolTableRecord
100
AcDbBlockTableRecord
  2
*D7
340
0
  0
BLOCK_RECORD
  5
3AD
330
1
100
AcDbSymbolTableRecord
100
AcDbBlockTableRecord
  2
*D8
340
0
  0
BLOCK_RECORD
  5
3BF
330
1
100
AcDbSymbolTableRecord
100
AcDbBlockTableRecord
  2
*D9
340
0
  0
BLOCK_RECORD
  5
3D1
330
1
100
AcDbSymbolTableRecord
100
AcDbBlockTableRecord
  2
*D10
340
0
  0
BLOCK_RECORD
  5
3E3
330
1
100
AcDbSymbolTableRecord
100
AcDbBlockTableRecord
  2
*D11
340
0
  0
BLOCK_RECORD
  5
3F6
330
1
100
AcDbSymbolTableRecord
100
AcDbBlockTableRecord
  2
*D12
340
0
  0
BLOCK_RECORD
  5
409
330
1
100
AcDbSymbolTableRecord
100
AcDbBlockTableRecord
  2
*D13
340
0
  0
BLOCK_RECORD
  5
41C
330
1
100
AcDbSymbolTableRecord
100
AcDbBlockTableRecord
  2
*D14
340
0
  0
BLOCK_RECORD
  5
42D
330
1
100
AcDbSymbolTableRecord
100
AcDbBlockTableRecord
  2
SW_NOTE_5
340
0
102
{BLKREFS
331
434
102
}
1001
ACAD
1000
DesignCenter Data
1002
{
1070
     1
1070
     0
1002
}
  0
BLOCK_RECORD
  5
435
330
1
100
AcDbSymbolTableRecord
100
AcDbBlockTableRecord
  2
SW_NOTE_6
340
0
102
{BLKREFS
331
43B
102
}
1001
ACAD
1000
DesignCenter Data
1002
{
1070
     1
1070
     0
1002
}
  0
BLOCK_RECORD
  5
43F
330
1
100
AcDbSymbolTableRecord
100
AcDbBlockTableRecord
  2
SW_NOTE_7
340
0
102
{BLKREFS
331
444
102
}
1001
ACAD
1000
DesignCenter Data
1002
{
1070
     1
1070
     0
1002
}
  0
BLOCK_RECORD
  5
446
330
1
100
AcDbSymbolTableRecord
100
AcDbBlockTableRecord
  2
SW_NOTE_8
340
0
102
{BLKREFS
331
44B
102
}
1001
ACAD
1000
DesignCenter Data
1002
{
1070
     1
1070
     0
1002
}
  0
BLOCK_RECORD
  5
44D
330
1
100
AcDbSymbolTableRecord
100
AcDbBlockTableRecord
  2
SW_NOTE_9
340
0
102
{BLKREFS
331
452
102
}
1001
ACAD
1000
DesignCenter Data
1002
{
1070
     1
1070
     0
1002
}
  0
BLOCK_RECORD
  5
454
330
1
100
AcDbSymbolTableRecord
100
AcDbBlockTableRecord
  2
SW_NOTE_10
340
0
102
{BLKREFS
331
459
102
}
1001
ACAD
1000
DesignCenter Data
1002
{
1070
     1
1070
     0
1002
}
  0
BLOCK_RECORD
  5
45B
330
1
100
AcDbSymbolTableRecord
100
AcDbBlockTableRecord
  2
SW_NOTE_11
340
0
102
{BLKREFS
331
460
102
}
1001
ACAD
1000
DesignCenter Data
1002
{
1070
     1
1070
     0
1002
}
  0
ENDTAB
  0
ENDSEC
  0
SECTION
  2
BLOCKS
  0
BLOCK
  5
20
330
1F
100
AcDbEntity
  8
0
100
AcDbBlockBegin
  2
*Model_Space
 70
     0
 71
     0
 10
0.0
 20
0.0
 30
0.0
  3
*Model_Space
  1

  0
ENDBLK
  5
21
330
1F
100
AcDbEntity
  8
0
100
AcDbBlockEnd
  0
BLOCK
  5
1C
330
1B
100
AcDbEntity
 67
     1
  8
0
100
AcDbBlockBegin
  2
*Paper_Space
 70
     0
 71
     0
 10
0.0
 20
0.0
 30
0.0
  3
*Paper_Space
  1

  0
ENDBLK
  5
1D
330
1B
100
AcDbEntity
 67
     1
  8
0
100
AcDbBlockEnd
  0
BLOCK
  5
24
330
23
100
AcDbEntity
  8
0
100
AcDbBlockBegin
  2
*Paper_Space0
 70
     0
 71
     0
 10
0.0
 20
0.0
 30
0.0
  3
*Paper_Space0
  1

  0
ENDBLK
  5
25
330
23
100
AcDbEntity
  8
0
100
AcDbBlockEnd
  0
BLOCK
  5
67
330
66
100
AcDbEntity
  8
0
100
AcDbBlockBegin
  2
SW_NOTE_0
 70
     0
 71
     0
 10
0.0
 20
0.0
 30
0.0
  3
SW_NOTE_0
  1

  0
MTEXT
  5
6A
330
66
100
AcDbEntity
  8
0
  6
Continuous
 62
     0
370
     0
100
AcDbMText
 10
0.0
 20
0.076640625
 30
0.0
 40
0.06
 41
0.0
 71
     1
 72
     1
  1
THE INFORMATION CONTAINED IN THIS
  7
SLDTEXTSTYLE4
 73
     1
 44
1.0
  0
MTEXT
  5
6C
330
66
100
AcDbEntity
  8
0
  6
Continuous
 62
     0
370
     0
100
AcDbMText
 10
0.0
 20
-0.0227294496
 30
0.0
 40
0.06
 41
0.0
 71
     1
 72
     1
  1
DRAWING IS THE SOLE PROPERTY OF
  7
SLDTEXTSTYLE5
 73
     1
 44
1.0
  0
MTEXT
  5
6E
330
66
100
AcDbEntity
  8
0
  6
Continuous
 62
     0
370
     0
100
AcDbMText
 10
0.0
 20
-0.1220995241
 30
0.0
 40
0.06
 41
0.0
 71
     1
 72
     1
  1
THORLABS, INC.  ANY REPRODUCTION 
  7
SLDTEXTSTYLE6
 73
     1
 44
1.0
  0
MTEXT
  5
70
330
66
100
AcDbEntity
  8
0
  6
Continuous
 62
     0
370
     0
100
AcDbMText
 10
0.0
 20
-0.2214695987
 30
0.0
 40
0.06
 41
0.0
 71
     1
 72
     1
  1
IN PART OR AS A WHOLE WITHOUT
  7
SLDTEXTSTYLE7
 73
     1
 44
1.0
  0
MTEXT
  5
72
330
66
100
AcDbEntity
  8
0
  6
Continuous
 62
     0
370
     0
100
AcDbMText
 10
0.0
 20
-0.3208396733
 30
0.0
 40
0.06
 41
0.0
 71
     1
 72
     1
  1
THE WRITTEN PERMISSION OF
  7
SLDTEXTSTYLE8
 73
     1
 44
1.0
  0
MTEXT
  5
74
330
66
100
AcDbEntity
  8
0
  6
Continuous
 62
     0
370
     0
100
AcDbMText
 10
0.0
 20
-0.4202097478
 30
0.0
 40
0.06
 41
0.0
 71
     1
 72
     1
  1
THORLABS, INC. IS PROHIBITED.
  7
SLDTEXTSTYLE9
 73
     1
 44
1.0
  0
ENDBLK
  5
68
330
66
100
AcDbEntity
  8
0
100
AcDbBlockEnd
  0
BLOCK
  5
80
330
7F
100
AcDbEntity
  8
0
100
AcDbBlockBegin
  2
SW_NOTE_1
 70
     0
 71
     0
 10
0.0
 20
0.0
 30
0.0
  3
SW_NOTE_1
  1

  0
MTEXT
  5
83
330
7F
100
AcDbEntity
  8
0
  6
Continuous
 62
     0
370
     0
100
AcDbMText
 10
0.0
 20
0.1330566406
 30
0.0
 40
0.1041666667
 41
0.0
 71
     1
 72
     1
  1
PO BOX 366
  7
SLDTEXTSTYLE10
 73
     1
 44
1.0
  0
MTEXT
  5
84
330
7F
100
AcDbEntity
  8
0
  6
Continuous
 62
     0
370
     0
100
AcDbMText
 10
0.0
 20
-0.0058322466
 30
0.0
 40
0.1041666667
 41
0.0
 71
     1
 72
     1
  1
NEWTON NJ
  7
SLDTEXTSTYLE0
 73
     1
 44
1.0
  0
ENDBLK
  5
81
330
7F
100
AcDbEntity
  8
0
100
AcDbBlockEnd
  0
BLOCK
  5
87
330
86
100
AcDbEntity
  8
0
100
AcDbBlockBegin
  2
SW_NOTE_2
 70
     0
 71
     0
 10
0.0
 20
0.0
 30
0.0
  3
SW_NOTE_2
  1

  0
MTEXT
  5
8A
330
86
100
AcDbEntity
  8
0
  6
Continuous
 62
     0
370
     0
100
AcDbMText
 10
0.0
 20
0.1330566406
 30
0.0
 40
0.1041666667
 41
0.0
 71
     1
 72
     1
  1
MATCHED ACHROMAT PAIRS
  7
SLDTEXTSTYLE11
 73
     1
 44
1.0
  0
MTEXT
  5
8B
330
86
100
AcDbEntity
  8
0
  6
Continuous
 62
     0
370
     0
100
AcDbMText
 10
0.0
 20
-0.0058322466
 30
0.0
 40
0.1041666667
 41
0.0
 71
     1
 72
     1
  1
F1=30mm, F2=30mm
  7
SLDTEXTSTYLE0
 73
     1
 44
1.0
  0
ENDBLK
  5
88
330
86
100
AcDbEntity
  8
0
100
AcDbBlockEnd
  0
BLOCK
  5
8F
330
8E
100
AcDbEntity
  8
0
100
AcDbBlockBegin
  2
SW_NOTE_3
 70
     0
 71
     0
 10
0.0
 20
0.0
 30
0.0
  3
SW_NOTE_3
  1

  0
LINE
  5
91
330
8E
100
AcDbEntity
  8
0
  6
Continuous
 62
     0
370
     0
100
AcDbLine
 10
1.0817708433
 20
-0.6526041506
 30
0.0
 11
1.4039930543
 21
-0.6526041506
 31
0.0
  0
MTEXT
  5
93
330
8E
100
AcDbEntity
  8
0
  6
Continuous
 62
     0
370
     0
100
AcDbMText
 10
0.0
 20
0.1197509766
 30
0.0
 40
0.09375
 41
0.0
 71
     1
 72
     1
  1
DESIGN WAVELENGTH:  486.1, 587.6 & 656.3nm
  7
SLDTEXTSTYLE12
 73
     1
 44
1.0
  0
MTEXT
  5
95
330
8E
100
AcDbEntity
  8
0
  6
Continuous
 62
     0
370
     0
100
AcDbMText
 10
0.0
 20
-0.0052490219
 30
0.0
 40
0.09375
 41
0.0
 71
     1
 72
     1
  1
COATING:  BBAR 400-700nm
  7
SLDTEXTSTYLE13
 73
     1
 44
1.0
  0
MTEXT
  5
97
330
8E
100
AcDbEntity
  8
0
  6
Continuous
 62
     0
370
     0
100
AcDbMText
 10
0.0
 20
-0.1302490204
 30
0.0
 40
0.09375
 41
0.0
 71
     1
 72
     1
  1
COATING RANGE: R(AVG)<0.5% FROM 400-700nm
  7
SLDTEXTSTYLE14
 73
     1
 44
1.0
  0
MTEXT
  5
98
330
8E
100
AcDbEntity
  8
0
  6
Continuous
 62
     0
370
     0
100
AcDbMText
 10
0.0
 20
-0.2552490189
 30
0.0
 40
0.09375
 41
0.0
 71
     1
 72
     1
  1
MAGNIFICATION: 1:1
  7
SLDTEXTSTYLE0
 73
     1
 44
1.0
  0
MTEXT
  5
9A
330
8E
100
AcDbEntity
  8
0
  6
Continuous
 62
     0
370
     0
100
AcDbMText
 10
0.0
 20
-0.6091552547
 30
0.0
 40
0.09375
 41
0.0
 71
     1
 72
     1
  1
Dimensions are in 
  7
SLDTEXTSTYLE15
 73
     1
 44
1.0
  0
MTEXT
  5
9B
330
8E
100
AcDbEntity
  8
0
  6
Continuous
 62
     0
370
     0
100
AcDbMText
 10
1.0817708433
 20
-0.5052490159
 30
0.0
 40
0.09375
 41
0.0
 71
     1
 72
     1
  1
[mm]
  7
SLDTEXTSTYLE0
 73
     1
 44
1.0
  0
MTEXT
  5
9C
330
8E
100
AcDbEntity
  8
0
  6
Continuous
 62
     0
370
     0
100
AcDbMText
 10
1.1922743109
 20
-0.6854573399
 30
0.0
 40
0.09375
 41
0.0
 71
     1
 72
     1
  1
in
  7
SLDTEXTSTYLE0
 73
     1
 44
1.0
  0
ENDBLK
  5
90
330
8E
100
AcDbEntity
  8
0
100
AcDbBlockEnd
  0
BLOCK
  5
A0
330
9F
100
AcDbEntity
  8
0
100
AcDbBlockBegin
  2
SW_NOTE_4
 70
     0
 71
     0
 10
0.0
 20
0.0
 30
0.0
  3
SW_NOTE_4
  1

  0
MTEXT
  5
A2
330
9F
100
AcDbEntity
  8
0
  6
Continuous
 62
     0
370
     0
100
AcDbMText
 10
0.0
 20
0.1149609375
 30
0.0
 40
0.09
 41
0.0
 71
     1
 72
     1
  1
NOTE:
  7
SLDTEXTSTYLE0
 73
     1
 44
1.0
  0
MTEXT
  5
A4
330
9F
100
AcDbEntity
  8
0
  6
Continuous
 62
     0
370
     0
100
AcDbMText
 10
0.0
 20
-0.0144091455
 30
0.0
 40
0.09
 41
0.0
 71
     1
 72
     1
  1
FOR INFORMATION ONLY.  NOT INTENDED FOR MANUFACTURING.
  7
SLDTEXTSTYLE16
 73
     1
 44
1.0
  0
ENDBLK
  5
A1
330
9F
100
AcDbEntity
  8
0
100
AcDbBlockEnd
  0
BLOCK
  5
A7
330
A6
100
AcDbEntity
  8
0
100
AcDbBlockBegin
  2
SW_TABLEANNOTATION_0
 70
     0
 71
     0
 10
0.0
 20
0.0
 30
0.0
  3
SW_TABLEANNOTATION_0
  1

  0
LINE
  5
A9
330
A6
100
AcDbEntity
  8
0
  6
Continuous
 62
     0
370
     0
100
AcDbLine
 10
0.0
 20
0.0
 30
0.0
 11
0.0
 21
-0.870188115
 31
0.0
  0
LINE
  5
AA
330
A6
100
AcDbEntity
  8
0
  6
Continuous
 62
     0
370
     0
100
AcDbLine
 10
0.0
 20
-0.870188115
 30
0.0
 11
5.3007222216
 21
-0.870188115
 31
0.0
  0
LINE
  5
AB
330
A6
100
AcDbEntity
  8
0
  6
Continuous
 62
     0
370
     0
100
AcDbLine
 10
5.3007222216
 20
-0.870188115
 30
0.0
 11
5.3007222216
 21
0.0
 31
0.0
  0
LINE
  5
AC
330
A6
100
AcDbEntity
  8
0
  6
Continuous
 62
     0
370
     0
100
AcDbLine
 10
5.3007222216
 20
0.0
 30
0.0
 11
0.0
 21
0.0
 31
0.0
  0
LINE
  5
AD
330
A6
100
AcDbEntity
  8
0
  6
Continuous
 62
     0
370
     0
100
AcDbLine
 10
1.7669074072
 20
0.0
 30
0.0
 11
1.7669074072
 21
-0.870188115
 31
0.0
  0
LINE
  5
AE
330
A6
100
AcDbEntity
  8
0
  6
Continuous
 62
     0
370
     0
100
AcDbLine
 10
3.5338148144
 20
0.0
 30
0.0
 11
3.5338148144
 21
-0.870188115
 31
0.0
  0
LINE
  5
AF
330
A6
100
AcDbEntity
  8
0
  6
Continuous
 62
     0
370
     0
100
AcDbLine
 10
0.0
 20
-0.2175470288
 30
0.0
 11
5.3007222216
 21
-0.2175470288
 31
0.0
  0
LINE
  5
B0
330
A6
100
AcDbEntity
  8
0
  6
Continuous
 62
     0
370
     0
100
AcDbLine
 10
0.0
 20
-0.4350940575
 30
0.0
 11
5.3007222216
 21
-0.4350940575
 31
0.0
  0
LINE
  5
B1
330
A6
100
AcDbEntity
  8
0
  6
Continuous
 62
     0
370
     0
100
AcDbLine
 10
0.0
 20
-0.6526410863
 30
0.0
 11
5.3007222216
 21
-0.6526410863
 31
0.0
  0
MTEXT
  5
B2
330
A6
100
AcDbEntity
  8
0
  6
Continuous
 62
     0
370
     0
100
AcDbMText
 10
0.6662347763
 20
-0.0391846857
 30
0.0
 40
0.1377952756
 41
0.0
 71
     1
 72
     1
  1
PART
  7
SLDTEXTSTYLE0
 73
     1
 44
1.0
  0
MTEXT
  5
B3
330
A6
100
AcDbEntity
  8
0
  6
Continuous
 62
     0
370
     0
100
AcDbMText
 10
2.2344873384
 20
-0.0391846857
 30
0.0
 40
0.1377952756
 41
0.0
 71
     1
 72
     1
  1
PART NO.
  7
SLDTEXTSTYLE0
 73
     1
 44
1.0
  0
MTEXT
  5
B4
330
A6
100
AcDbEntity
  8
0
  6
Continuous
 62
     0
370
     0
100
AcDbMText
 10
3.9896246982
 20
-0.0391846857
 30
0.0
 40
0.1377952756
 41
0.0
 71
     1
 72
     1
  1
MATERIAL
  7
SLDTEXTSTYLE0
 73
     1
 44
1.0
  0
MTEXT
  5
B5
330
A6
100
AcDbEntity
  8
0
  6
Continuous
 62
     0
370
     0
100
AcDbMText
 10
0.8155129793
 20
-0.2567317144
 30
0.0
 40
0.1377952756
 41
0.0
 71
     1
 72
     1
  1
A
  7
SLDTEXTSTYLE0
 73
     1
 44
1.0
  0
MTEXT
  5
B6
330
A6
100
AcDbEntity
  8
0
  6
Continuous
 62
     0
370
     0
100
AcDbMText
 10
2.0224357113
 20
-0.2567317144
 30
0.0
 40
0.1377952756
 41
0.0
 71
     1
 72
     1
  1
AC254-030-A1
  7
SLDTEXTSTYLE0
 73
     1
 44
1.0
  0
MTEXT
  5
B7
330
A6
100
AcDbEntity
  8
0
  6
Continuous
 62
     0
370
     0
100
AcDbMText
 10
3.8682882899
 20
-0.2567317144
 30
0.0
 40
0.1377952756
 41
0.0
 71
     1
 72
     1
  1
BAFN10-SFL6
  7
SLDTEXTSTYLE0
 73
     1
 44
1.0
  0
MTEXT
  5
B8
330
A6
100
AcDbEntity
  8
0
  6
Continuous
 62
     0
370
     0
100
AcDbMText
 10
0.8307278706
 20
-0.4742787432
 30
0.0
 40
0.1377952756
 41
0.0
 71
     1
 72
     1
  1
B
  7
SLDTEXTSTYLE0
 73
     1
 44
1.0
  0
MTEXT
  5
B9
330
A6
100
AcDbEntity
  8
0
  6
Continuous
 62
     0
370
     0
100
AcDbMText
 10
2.088079873
 20
-0.4742787432
 30
0.0
 40
0.1377952756
 41
0.0
 71
     1
 72
     1
  1
LENS MOUNT
  7
SLDTEXTSTYLE0
 73
     1
 44
1.0
  0
MTEXT
  5
BA
330
A6
100
AcDbEntity
  8
0
  6
Continuous
 62
     0
370
     0
100
AcDbMText
 10
3.5937345782
 20
-0.4778643228
 30
0.0
 40
0.1354166667
 41
0.0
 71
     1
 72
     1
  1
6061-T6 ALUMINUM
  7
SLDTEXTSTYLE0
 73
     1
 44
1.0
  0
MTEXT
  5
BB
330
A6
100
AcDbEntity
  8
0
  6
Continuous
 62
     0
370
     0
100
AcDbMText
 10
0.8088145975
 20
-0.691825772
 30
0.0
 40
0.1377952756
 41
0.0
 71
     1
 72
     1
  1
C
  7
SLDTEXTSTYLE0
 73
     1
 44
1.0
  0
MTEXT
  5
BC
330
A6
100
AcDbEntity
  8
0
  6
Continuous
 62
     0
370
     0
100
AcDbMText
 10
2.3577375412
 20
-0.691825772
 30
0.0
 40
0.1377952756
 41
0.0
 71
     1
 72
     1
  1
SM1RR
  7
SLDTEXTSTYLE0
 73
     1
 44
1.0
  0
MTEXT
  5
BD
330
A6
100
AcDbEntity
  8
0
  6
Continuous
 62
     0
370
     0
100
AcDbMText
 10
3.5937345782
 20
-0.6960533749
 30
0.0
 40
0.1354166667
 41
0.0
 71
     1
 72
     1
  1
6061-T6 ALUMINUM
  7
SLDTEXTSTYLE0
 73
     1
 44
1.0
  0
ENDBLK
  5
A8
330
A6
100
AcDbEntity
  8
0
100
AcDbBlockEnd
  0
BLOCK
  5
D4
330
D3
100
AcDbEntity
  8
0
100
AcDbBlockBegin
  2
*D7
 70
     1
 71
     0
 10
0.0
 20
0.0
 30
0.0
  3
*D7
  1

  0
SOLID
  5
D6
330
D3
100
AcDbEntity
  8
0
  6
Continuous
 62
     7
370
     0
100
AcDbTrace
 10
2.6952082629
 20
4.9123496949
 30
0.0
 11
2.7941809154
 21
5.0357045248
 31
0.0
 12
2.7488240704
 22
5.0611359348
 32
0.0
 13
2.7488240704
 23
5.0611359348
 33
0.0
  0
LINE
  5
D7
330
D3
100
AcDbEntity
  8
0
  6
Continuous
 62
     7
370
     0
100
AcDbLine
 10
3.2624298124
 20
5.4296356736
 30
0.0
 11
3.2624298124
 21
5.2889927553
 31
0.0
  0
LINE
  5
D8
330
D3
100
AcDbEntity
  8
0
  6
Continuous
 62
     7
370
     0
100
AcDbLine
 10
3.2624298124
 20
5.2889927553
 30
0.0
 11
3.2835309797
 21
5.2889927553
 31
0.0
  0
LINE
  5
D9
330
D3
100
AcDbEntity
  8
0
  6
Continuous
 62
     7
370
     0
100
AcDbLine
 10
3.2624298124
 20
5.4296356736
 30
0.0
 11
3.2835309797
 21
5.4296356736
 31
0.0
  0
LINE
  5
DA
330
D3
100
AcDbEntity
  8
0
  6
Continuous
 62
     7
370
     0
100
AcDbLine
 10
3.693039151
 20
5.4296356736
 30
0.0
 11
3.693039151
 21
5.2889927553
 31
0.0
  0
LINE
  5
DB
330
D3
100
AcDbEntity
  8
0
  6
Continuous
 62
     7
370
     0
100
AcDbLine
 10
3.693039151
 20
5.2889927553
 30
0.0
 11
3.6719379836
 21
5.2889927553
 31
0.0
  0
LINE
  5
DC
330
D3
100
AcDbEntity
  8
0
  6
Continuous
 62
     7
370
     0
100
AcDbLine
 10
3.693039151
 20
5.4296356736
 30
0.0
 11
3.6719379836
 21
5.4296356736
 31
0.0
  0
LINE
  5
DD
330
D3
100
AcDbEntity
  8
0
  6
Continuous
 62
     7
370
     0
100
AcDbLine
 10
2.6952082629
 20
4.9123496949
 30
0.0
 11
2.8994325362
 21
5.2765830861
 31
0.0
  0
LINE
  5
DE
330
D3
100
AcDbEntity
  8
0
  6
Continuous
 62
     7
370
     0
100
AcDbLine
 10
2.8994325362
 20
5.2765830861
 30
0.0
 11
3.1494325362
 21
5.2765830861
 31
0.0
  0
MTEXT
  5
DF
330
D3
100
AcDbEntity
  8
0
  6
Continuous
 62
     7
370
     0
100
AcDbMText
 10
3.2301741315
 20
5.2441774676
 30
0.0
 40
0.1041666667
 41
0.0
 71
     1
 72
     1
  1
%%c
  7
SLDTEXTSTYLE0
 73
     1
 44
1.0
  0
MTEXT
  5
E0
330
D3
100
AcDbEntity
  8
0
  6
Continuous
 62
     7
370
     0
100
AcDbMText
 10
3.3790901626
 20
5.2441774676
 30
0.0
 40
0.1041666667
 41
0.0
 71
     1
 72
     1
  1
1.200
  7
SLDTEXTSTYLE0
 73
     1
 44
1.0
  0
MTEXT
  5
E1
330
D3
100
AcDbEntity
  8
0
  6
Continuous
 62
     7
370
     0
100
AcDbMText
 10
3.3046321471
 20
5.4096397244
 30
0.0
 40
0.1041666667
 41
0.0
 71
     1
 72
     1
  1
30.48
  7
SLDTEXTSTYLE0
 73
     1
 44
1.0
  0
ENDBLK
  5
D5
330
D3
100
AcDbEntity
  8
0
100
AcDbBlockEnd
  0
BLOCK
  5
3AE
330
3AD
100
AcDbEntity
  8
0
100
AcDbBlockBegin
  2
*D8
 70
     1
 71
     0
 10
0.0
 20
0.0
 30
0.0
  3
*D8
  1

  0
SOLID
  5
3B0
330
3AD
100
AcDbEntity
  8
0
  6
Continuous
 62
     7
370
     0
100
AcDbTrace
 10
5.9780834226
 20
3.003433257
 30
0.0
 11
6.1340834226
 21
2.977433257
 31
0.0
 12
6.1340834226
 22
3.029433257
 32
0.0
 13
6.1340834226
 23
3.029433257
 33
0.0
  0
SOLID
  5
3B1
330
3AD
100
AcDbEntity
  8
0
  6
Continuous
 62
     7
370
     0
100
AcDbTrace
 10
6.6769519659
 20
3.003433257
 30
0.0
 11
6.5209519659
 21
3.029433257
 31
0.0
 12
6.5209519659
 22
2.977433257
 32
0.0
 13
6.5209519659
 23
2.977433257
 33
0.0
  0
LINE
  5
3B2
330
3AD
100
AcDbEntity
  8
0
  6
Continuous
 62
     7
370
     0
100
AcDbLine
 10
5.2646451066
 20
3.1564858446
 30
0.0
 11
5.2646451066
 21
3.0158429263
 31
0.0
  0
LINE
  5
3B3
330
3AD
100
AcDbEntity
  8
0
  6
Continuous
 62
     7
370
     0
100
AcDbLine
 10
5.2646451066
 20
3.0158429263
 30
0.0
 11
5.2857462739
 21
3.0158429263
 31
0.0
  0
LINE
  5
3B4
330
3AD
100
AcDbEntity
  8
0
  6
Continuous
 62
     7
370
     0
100
AcDbLine
 10
5.2646451066
 20
3.1564858446
 30
0.0
 11
5.2857462739
 21
3.1564858446
 31
0.0
  0
LINE
  5
3B5
330
3AD
100
AcDbEntity
  8
0
  6
Continuous
 62
     7
370
     0
100
AcDbLine
 10
5.6952544451
 20
3.1564858446
 30
0.0
 11
5.6952544451
 21
3.0158429263
 31
0.0
  0
LINE
  5
3B6
330
3AD
100
AcDbEntity
  8
0
  6
Continuous
 62
     7
370
     0
100
AcDbLine
 10
5.6952544451
 20
3.0158429263
 30
0.0
 11
5.6741532778
 21
3.0158429263
 31
0.0
  0
LINE
  5
3B7
330
3AD
100
AcDbEntity
  8
0
  6
Continuous
 62
     7
370
     0
100
AcDbLine
 10
5.6952544451
 20
3.1564858446
 30
0.0
 11
5.6741532778
 21
3.1564858446
 31
0.0
  0
LINE
  5
3B8
330
3AD
100
AcDbEntity
  8
0
  6
Continuous
 62
     7
370
     0
100
AcDbLine
 10
5.9780834226
 20
4.3390014837
 30
0.0
 11
5.9780834226
 21
2.878433257
 31
0.0
  0
LINE
  5
3B9
330
3AD
100
AcDbEntity
  8
0
  6
Continuous
 62
     7
370
     0
100
AcDbLine
 10
6.6769519659
 20
3.7490014837
 30
0.0
 11
6.6769519659
 21
2.878433257
 31
0.0
  0
LINE
  5
3BA
330
3AD
100
AcDbEntity
  8
0
  6
Continuous
 62
     7
370
     0
100
AcDbLine
 10
5.9780834226
 20
3.003433257
 30
0.0
 11
5.8210943284
 21
3.003433257
 31
0.0
  0
LINE
  5
3BB
330
3AD
100
AcDbEntity
  8
0
  6
Continuous
 62
     7
370
     0
100
AcDbLine
 10
6.6769519659
 20
3.003433257
 30
0.0
 11
5.9780834226
 21
3.003433257
 31
0.0
  0
MTEXT
  5
3BC
330
3AD
100
AcDbEntity
  8
0
  6
Continuous
 62
     7
370
     0
100
AcDbMText
 10
5.3453388809
 20
2.9710276385
 30
0.0
 40
0.1041666667
 41
0.0
 71
     1
 72
     1
  1
0.70
  7
SLDTEXTSTYLE0
 73
     1
 44
1.0
  0
MTEXT
  5
3BD
330
3AD
100
AcDbEntity
  8
0
  6
Continuous
 62
     7
370
     0
100
AcDbMText
 10
5.3068474412
 20
3.1364898954
 30
0.0
 40
0.1041666667
 41
0.0
 71
     1
 72
     1
  1
17.75
  7
SLDTEXTSTYLE0
 73
     1
 44
1.0
  0
ENDBLK
  5
3AF
330
3AD
100
AcDbEntity
  8
0
100
AcDbBlockEnd
  0
BLOCK
  5
3C0
330
3BF
100
AcDbEntity
  8
0
100
AcDbBlockBegin
  2
*D9
 70
     1
 71
     0
 10
0.0
 20
0.0
 30
0.0
  3
*D9
  1

  0
SOLID
  5
3C2
330
3BF
100
AcDbEntity
  8
0
  6
Continuous
 62
     7
370
     0
100
AcDbTrace
 10
5.9780834226
 20
5.3693943941
 30
0.0
 11
6.1340834226
 21
5.3433943941
 31
0.0
 12
6.1340834226
 22
5.3953943941
 32
0.0
 13
6.1340834226
 23
5.3953943941
 33
0.0
  0
SOLID
  5
3C3
330
3BF
100
AcDbEntity
  8
0
  6
Continuous
 62
     7
370
     0
100
AcDbTrace
 10
6.8780405496
 20
5.3693943941
 30
0.0
 11
6.7220405496
 21
5.3953943941
 31
0.0
 12
6.7220405496
 22
5.3433943941
 32
0.0
 13
6.7220405496
 23
5.3433943941
 33
0.0
  0
LINE
  5
3C4
330
3BF
100
AcDbEntity
  8
0
  6
Continuous
 62
     7
370
     0
100
AcDbLine
 10
6.1253134446
 20
5.5224469817
 30
0.0
 11
6.1253134446
 21
5.3818040634
 31
0.0
  0
LINE
  5
3C5
330
3BF
100
AcDbEntity
  8
0
  6
Continuous
 62
     7
370
     0
100
AcDbLine
 10
6.1253134446
 20
5.3818040634
 30
0.0
 11
6.1464146119
 21
5.3818040634
 31
0.0
  0
LINE
  5
3C6
330
3BF
100
AcDbEntity
  8
0
  6
Continuous
 62
     7
370
     0
100
AcDbLine
 10
6.1253134446
 20
5.5224469817
 30
0.0
 11
6.1464146119
 21
5.5224469817
 31
0.0
  0
LINE
  5
3C7
330
3BF
100
AcDbEntity
  8
0
  6
Continuous
 62
     7
370
     0
100
AcDbLine
 10
6.5559227831
 20
5.5224469817
 30
0.0
 11
6.5559227831
 21
5.3818040634
 31
0.0
  0
LINE
  5
3C8
330
3BF
100
AcDbEntity
  8
0
  6
Continuous
 62
     7
370
     0
100
AcDbLine
 10
6.5559227831
 20
5.3818040634
 30
0.0
 11
6.5348216158
 21
5.3818040634
 31
0.0
  0
LINE
  5
3C9
330
3BF
100
AcDbEntity
  8
0
  6
Continuous
 62
     7
370
     0
100
AcDbLine
 10
6.5559227831
 20
5.5224469817
 30
0.0
 11
6.5348216158
 21
5.5224469817
 31
0.0
  0
LINE
  5
3CA
330
3BF
100
AcDbEntity
  8
0
  6
Continuous
 62
     7
370
     0
100
AcDbLine
 10
5.9780834226
 20
4.4390014837
 30
0.0
 11
5.9780834226
 21
5.4943943941
 31
0.0
  0
LINE
  5
3CB
330
3BF
100
AcDbEntity
  8
0
  6
Continuous
 62
     7
370
     0
100
AcDbLine
 10
6.8780405496
 20
4.4390014837
 30
0.0
 11
6.8780405496
 21
5.4943943941
 31
0.0
  0
LINE
  5
3CC
330
3BF
100
AcDbEntity
  8
0
  6
Continuous
 62
     7
370
     0
100
AcDbLine
 10
5.9780834226
 20
5.3693943941
 30
0.0
 11
5.9994735613
 21
5.3693943941
 31
0.0
  0
LINE
  5
3CD
330
3BF
100
AcDbEntity
  8
0
  6
Continuous
 62
     7
370
     0
100
AcDbLine
 10
6.8780405496
 20
5.3693943941
 30
0.0
 11
6.6817626664
 21
5.3693943941
 31
0.0
  0
MTEXT
  5
3CE
330
3BF
100
AcDbEntity
  8
0
  6
Continuous
 62
     7
370
     0
100
AcDbMText
 10
6.2060072189
 20
5.3369887756
 30
0.0
 40
0.1041666667
 41
0.0
 71
     1
 72
     1
  1
0.90
  7
SLDTEXTSTYLE0
 73
     1
 44
1.0
  0
MTEXT
  5
3CF
330
3BF
100
AcDbEntity
  8
0
  6
Continuous
 62
     7
370
     0
100
AcDbMText
 10
6.1675157792
 20
5.5024510325
 30
0.0
 40
0.1041666667
 41
0.0
 71
     1
 72
     1
  1
22.86
  7
SLDTEXTSTYLE0
 73
     1
 44
1.0
  0
ENDBLK
  5
3C1
330
3BF
100
AcDbEntity
  8
0
100
AcDbBlockEnd
  0
BLOCK
  5
3D2
330
3D1
100
AcDbEntity
  8
0
100
AcDbBlockBegin
  2
*D10
 70
     1
 71
     0
 10
0.0
 20
0.0
 30
0.0
  3
*D10
  1

  0
SOLID
  5
3D4
330
3D1
100
AcDbEntity
  8
0
  6
Continuous
 62
     7
370
     0
100
AcDbTrace
 10
9.1158205092
 20
3.003433257
 30
0.0
 11
8.9598205092
 21
3.029433257
 31
0.0
 12
8.9598205092
 22
2.977433257
 32
0.0
 13
8.9598205092
 23
2.977433257
 33
0.0
  0
SOLID
  5
3D5
330
3D1
100
AcDbEntity
  8
0
  6
Continuous
 62
     7
370
     0
100
AcDbTrace
 10
8.4169519659
 20
3.003433257
 30
0.0
 11
8.5729519659
 21
2.977433257
 31
0.0
 12
8.5729519659
 22
3.029433257
 32
0.0
 13
8.5729519659
 23
3.029433257
 33
0.0
  0
LINE
  5
3D6
330
3D1
100
AcDbEntity
  8
0
  6
Continuous
 62
     7
370
     0
100
AcDbLine
 10
9.4042147451
 20
3.1564858446
 30
0.0
 11
9.4042147451
 21
3.0158429263
 31
0.0
  0
LINE
  5
3D7
330
3D1
100
AcDbEntity
  8
0
  6
Continuous
 62
     7
370
     0
100
AcDbLine
 10
9.4042147451
 20
3.0158429263
 30
0.0
 11
9.4253159124
 21
3.0158429263
 31
0.0
  0
LINE
  5
3D8
330
3D1
100
AcDbEntity
  8
0
  6
Continuous
 62
     7
370
     0
100
AcDbLine
 10
9.4042147451
 20
3.1564858446
 30
0.0
 11
9.4253159124
 21
3.1564858446
 31
0.0
  0
LINE
  5
3D9
330
3D1
100
AcDbEntity
  8
0
  6
Continuous
 62
     7
370
     0
100
AcDbLine
 10
9.8348240836
 20
3.1564858446
 30
0.0
 11
9.8348240836
 21
3.0158429263
 31
0.0
  0
LINE
  5
3DA
330
3D1
100
AcDbEntity
  8
0
  6
Continuous
 62
     7
370
     0
100
AcDbLine
 10
9.8348240836
 20
3.0158429263
 30
0.0
 11
9.8137229163
 21
3.0158429263
 31
0.0
  0
LINE
  5
3DB
330
3D1
100
AcDbEntity
  8
0
  6
Continuous
 62
     7
370
     0
100
AcDbLine
 10
9.8348240836
 20
3.1564858446
 30
0.0
 11
9.8137229163
 21
3.1564858446
 31
0.0
  0
LINE
  5
3DC
330
3D1
100
AcDbEntity
  8
0
  6
Continuous
 62
     7
370
     0
100
AcDbLine
 10
9.1158205092
 20
4.3390014837
 30
0.0
 11
9.1158205092
 21
2.878433257
 31
0.0
  0
LINE
  5
3DD
330
3D1
100
AcDbEntity
  8
0
  6
Continuous
 62
     7
370
     0
100
AcDbLine
 10
8.4169519659
 20
3.7490014837
 30
0.0
 11
8.4169519659
 21
2.878433257
 31
0.0
  0
LINE
  5
3DE
330
3D1
100
AcDbEntity
  8
0
  6
Continuous
 62
     7
370
     0
100
AcDbLine
 10
9.1158205092
 20
3.003433257
 30
0.0
 11
9.2783748618
 21
3.003433257
 31
0.0
  0
LINE
  5
3DF
330
3D1
100
AcDbEntity
  8
0
  6
Continuous
 62
     7
370
     0
100
AcDbLine
 10
8.4169519659
 20
3.003433257
 30
0.0
 11
9.1158205092
 21
3.003433257
 31
0.0
  0
MTEXT
  5
3E0
330
3D1
100
AcDbEntity
  8
0
  6
Continuous
 62
     7
370
     0
100
AcDbMText
 10
9.4849085194
 20
2.9710276385
 30
0.0
 40
0.1041666667
 41
0.0
 71
     1
 72
     1
  1
0.70
  7
SLDTEXTSTYLE0
 73
     1
 44
1.0
  0
MTEXT
  5
3E1
330
3D1
100
AcDbEntity
  8
0
  6
Continuous
 62
     7
370
     0
100
AcDbMText
 10
9.4464170797
 20
3.1364898954
 30
0.0
 40
0.1041666667
 41
0.0
 71
     1
 72
     1
  1
17.75
  7
SLDTEXTSTYLE0
 73
     1
 44
1.0
  0
ENDBLK
  5
3D3
330
3D1
100
AcDbEntity
  8
0
100
AcDbBlockEnd
  0
BLOCK
  5
3E4
330
3E3
100
AcDbEntity
  8
0
100
AcDbBlockBegin
  2
*D11
 70
     1
 71
     0
 10
0.0
 20
0.0
 30
0.0
  3
*D11
  1

  0
SOLID
  5
3E6
330
3E3
100
AcDbEntity
  8
0
  6
Continuous
 62
     7
370
     0
100
AcDbTrace
 10
9.1158205092
 20
5.3693943941
 30
0.0
 11
8.9598205092
 21
5.3953943941
 31
0.0
 12
8.9598205092
 22
5.3433943941
 32
0.0
 13
8.9598205092
 23
5.3433943941
 33
0.0
  0
SOLID
  5
3E7
330
3E3
100
AcDbEntity
  8
0
  6
Continuous
 62
     7
370
     0
100
AcDbTrace
 10
8.2166162106
 20
5.3693943941
 30
0.0
 11
8.3726162106
 21
5.3433943941
 31
0.0
 12
8.3726162106
 22
5.3953943941
 32
0.0
 13
8.3726162106
 23
5.3953943941
 33
0.0
  0
LINE
  5
3E8
330
3E3
100
AcDbEntity
  8
0
  6
Continuous
 62
     7
370
     0
100
AcDbLine
 10
8.5309464149
 20
5.5224469817
 30
0.0
 11
8.5309464149
 21
5.3818040634
 31
0.0
  0
LINE
  5
3E9
330
3E3
100
AcDbEntity
  8
0
  6
Continuous
 62
     7
370
     0
100
AcDbLine
 10
8.5309464149
 20
5.3818040634
 30
0.0
 11
8.5520475822
 21
5.3818040634
 31
0.0
  0
LINE
  5
3EA
330
3E3
100
AcDbEntity
  8
0
  6
Continuous
 62
     7
370
     0
100
AcDbLine
 10
8.5309464149
 20
5.5224469817
 30
0.0
 11
8.5520475822
 21
5.5224469817
 31
0.0
  0
LINE
  5
3EB
330
3E3
100
AcDbEntity
  8
0
  6
Continuous
 62
     7
370
     0
100
AcDbLine
 10
8.9615557534
 20
5.5224469817
 30
0.0
 11
8.9615557534
 21
5.3818040634
 31
0.0
  0
LINE
  5
3EC
330
3E3
100
AcDbEntity
  8
0
  6
Continuous
 62
     7
370
     0
100
AcDbLine
 10
8.9615557534
 20
5.3818040634
 30
0.0
 11
8.9404545861
 21
5.3818040634
 31
0.0
  0
LINE
  5
3ED
330
3E3
100
AcDbEntity
  8
0
  6
Continuous
 62
     7
370
     0
100
AcDbLine
 10
8.9615557534
 20
5.5224469817
 30
0.0
 11
8.9404545861
 21
5.5224469817
 31
0.0
  0
LINE
  5
3EE
330
3E3
100
AcDbEntity
  8
0
  6
Continuous
 62
     7
370
     0
100
AcDbLine
 10
9.1158205092
 20
4.4390014837
 30
0.0
 11
9.1158205092
 21
5.4943943941
 31
0.0
  0
LINE
  5
3EF
330
3E3
100
AcDbEntity
  8
0
  6
Continuous
 62
     7
370
     0
100
AcDbLine
 10
8.2166162106
 20
4.4390014837
 30
0.0
 11
8.2166162106
 21
5.4943943941
 31
0.0
  0
LINE
  5
3F0
330
3E3
100
AcDbEntity
  8
0
  6
Continuous
 62
     7
370
     0
100
AcDbLine
 10
9.1158205092
 20
5.3693943941
 30
0.0
 11
9.0873956367
 21
5.3693943941
 31
0.0
  0
LINE
  5
3F1
330
3E3
100
AcDbEntity
  8
0
  6
Continuous
 62
     7
370
     0
100
AcDbLine
 10
8.2166162106
 20
5.3693943941
 30
0.0
 11
8.4051065316
 21
5.3693943941
 31
0.0
  0
MTEXT
  5
3F2
330
3E3
100
AcDbEntity
  8
0
  6
Continuous
 62
     7
370
     0
100
AcDbMText
 10
8.6116401892
 20
5.3369887756
 30
0.0
 40
0.1041666667
 41
0.0
 71
     1
 72
     1
  1
0.90
  7
SLDTEXTSTYLE0
 73
     1
 44
1.0
  0
MTEXT
  5
3F3
330
3E3
100
AcDbEntity
  8
0
  6
Continuous
 62
     7
370
     0
100
AcDbMText
 10
8.5731487495
 20
5.5024510325
 30
0.0
 40
0.1041666667
 41
0.0
 71
     1
 72
     1
  1
22.84
  7
SLDTEXTSTYLE0
 73
     1
 44
1.0
  0
ENDBLK
  5
3E5
330
3E3
100
AcDbEntity
  8
0
100
AcDbBlockEnd
  0
BLOCK
  5
3F7
330
3F6
100
AcDbEntity
  8
0
100
AcDbBlockBegin
  2
*D12
 70
     1
 71
     0
 10
0.0
 20
0.0
 30
0.0
  3
*D12
  1

  0
SOLID
  5
3F9
330
3F6
100
AcDbEntity
  8
0
  6
Continuous
 62
     7
370
     0
100
AcDbTrace
 10
6.6769519659
 20
2.6990271545
 30
0.0
 11
6.8329519659
 21
2.6730271545
 31
0.0
 12
6.8329519659
 22
2.7250271545
 32
0.0
 13
6.8329519659
 23
2.7250271545
 33
0.0
  0
SOLID
  5
3FA
330
3F6
100
AcDbEntity
  8
0
  6
Continuous
 62
     7
370
     0
100
AcDbTrace
 10
8.4169519659
 20
2.6990271545
 30
0.0
 11
8.2609519659
 21
2.7250271545
 31
0.0
 12
8.2609519659
 22
2.6730271545
 32
0.0
 13
8.2609519659
 23
2.6730271545
 33
0.0
  0
LINE
  5
3FB
330
3F6
100
AcDbEntity
  8
0
  6
Continuous
 62
     7
370
     0
100
AcDbLine
 10
7.3316472966
 20
2.852079742
 30
0.0
 11
7.3316472966
 21
2.7114368238
 31
0.0
  0
LINE
  5
3FC
330
3F6
100
AcDbEntity
  8
0
  6
Continuous
 62
     7
370
     0
100
AcDbLine
 10
7.3316472966
 20
2.7114368238
 30
0.0
 11
7.3527484639
 21
2.7114368238
 31
0.0
  0
LINE
  5
3FD
330
3F6
100
AcDbEntity
  8
0
  6
Continuous
 62
     7
370
     0
100
AcDbLine
 10
7.3316472966
 20
2.852079742
 30
0.0
 11
7.3527484639
 21
2.852079742
 31
0.0
  0
LINE
  5
3FE
330
3F6
100
AcDbEntity
  8
0
  6
Continuous
 62
     7
370
     0
100
AcDbLine
 10
7.7622566351
 20
2.852079742
 30
0.0
 11
7.7622566351
 21
2.7114368238
 31
0.0
  0
LINE
  5
3FF
330
3F6
100
AcDbEntity
  8
0
  6
Continuous
 62
     7
370
     0
100
AcDbLine
 10
7.7622566351
 20
2.7114368238
 30
0.0
 11
7.7411554678
 21
2.7114368238
 31
0.0
  0
LINE
  5
400
330
3F6
100
AcDbEntity
  8
0
  6
Continuous
 62
     7
370
     0
100
AcDbLine
 10
7.7622566351
 20
2.852079742
 30
0.0
 11
7.7411554678
 21
2.852079742
 31
0.0
  0
LINE
  5
401
330
3F6
100
AcDbEntity
  8
0
  6
Continuous
 62
     7
370
     0
100
AcDbLine
 10
6.6769519659
 20
3.7490014837
 30
0.0
 11
6.6769519659
 21
2.5740271545
 31
0.0
  0
LINE
  5
402
330
3F6
100
AcDbEntity
  8
0
  6
Continuous
 62
     7
370
     0
100
AcDbLine
 10
8.4169519659
 20
3.7490014837
 30
0.0
 11
8.4169519659
 21
2.5740271545
 31
0.0
  0
LINE
  5
403
330
3F6
100
AcDbEntity
  8
0
  6
Continuous
 62
     7
370
     0
100
AcDbLine
 10
6.6769519659
 20
2.6990271545
 30
0.0
 11
7.2058074133
 21
2.6990271545
 31
0.0
  0
LINE
  5
404
330
3F6
100
AcDbEntity
  8
0
  6
Continuous
 62
     7
370
     0
100
AcDbLine
 10
8.4169519659
 20
2.6990271545
 30
0.0
 11
7.8880965184
 21
2.6990271545
 31
0.0
  0
MTEXT
  5
405
330
3F6
100
AcDbEntity
  8
0
  6
Continuous
 62
     7
370
     0
100
AcDbMText
 10
7.3738496312
 20
2.666621536
 30
0.0
 40
0.1041666667
 41
0.0
 71
     1
 72
     1
  1
1.740
  7
SLDTEXTSTYLE0
 73
     1
 44
1.0
  0
MTEXT
  5
406
330
3F6
100
AcDbEntity
  8
0
  6
Continuous
 62
     7
370
     0
100
AcDbMText
 10
7.3738496312
 20
2.8320837928
 30
0.0
 40
0.1041666667
 41
0.0
 71
     1
 72
     1
  1
44.20
  7
SLDTEXTSTYLE0
 73
     1
 44
1.0
  0
ENDBLK
  5
3F8
330
3F6
100
AcDbEntity
  8
0
100
AcDbBlockEnd
  0
BLOCK
  5
40A
330
409
100
AcDbEntity
  8
0
100
AcDbBlockBegin
  2
*D13
 70
     1
 71
     0
 10
0.0
 20
0.0
 30
0.0
  3
*D13
  1

  0
SOLID
  5
40C
330
409
100
AcDbEntity
  8
0
  6
Continuous
 62
     7
370
     0
100
AcDbTrace
 10
8.2166162106
 20
5.6842352711
 30
0.0
 11
8.0606162106
 21
5.7102352711
 31
0.0
 12
8.0606162106
 22
5.6582352711
 32
0.0
 13
8.0606162106
 23
5.6582352711
 33
0.0
  0
SOLID
  5
40D
330
409
100
AcDbEntity
  8
0
  6
Continuous
 62
     7
370
     0
100
AcDbTrace
 10
6.8780405496
 20
5.6842352711
 30
0.0
 11
7.0340405496
 21
5.6582352711
 31
0.0
 12
7.0340405496
 22
5.7102352711
 32
0.0
 13
7.0340405496
 23
5.7102352711
 33
0.0
  0
LINE
  5
40E
330
409
100
AcDbEntity
  8
0
  6
Continuous
 62
     7
370
     0
100
AcDbLine
 10
7.4278395145
 20
5.8372878586
 30
0.0
 11
7.4278395145
 21
5.6966449404
 31
0.0
  0
LINE
  5
40F
330
409
100
AcDbEntity
  8
0
  6
Continuous
 62
     7
370
     0
100
AcDbLine
 10
7.4278395145
 20
5.6966449404
 30
0.0
 11
7.4489406818
 21
5.6966449404
 31
0.0
  0
LINE
  5
410
330
409
100
AcDbEntity
  8
0
  6
Continuous
 62
     7
370
     0
100
AcDbLine
 10
7.4278395145
 20
5.8372878586
 30
0.0
 11
7.4489406818
 21
5.8372878586
 31
0.0
  0
LINE
  5
411
330
409
100
AcDbEntity
  8
0
  6
Continuous
 62
     7
370
     0
100
AcDbLine
 10
7.6660644172
 20
5.8372878586
 30
0.0
 11
7.6660644172
 21
5.6966449404
 31
0.0
  0
LINE
  5
412
330
409
100
AcDbEntity
  8
0
  6
Continuous
 62
     7
370
     0
100
AcDbLine
 10
7.6660644172
 20
5.6966449404
 30
0.0
 11
7.6449632499
 21
5.6966449404
 31
0.0
  0
LINE
  5
413
330
409
100
AcDbEntity
  8
0
  6
Continuous
 62
     7
370
     0
100
AcDbLine
 10
7.6660644172
 20
5.8372878586
 30
0.0
 11
7.6449632499
 21
5.8372878586
 31
0.0
  0
LINE
  5
414
330
409
100
AcDbEntity
  8
0
  6
Continuous
 62
     7
370
     0
100
AcDbLine
 10
8.2166162106
 20
4.4390014837
 30
0.0
 11
8.2166162106
 21
5.8092352711
 31
0.0
  0
LINE
  5
415
330
409
100
AcDbEntity
  8
0
  6
Continuous
 62
     7
370
     0
100
AcDbLine
 10
6.8780405496
 20
4.4390014837
 30
0.0
 11
6.8780405496
 21
5.8092352711
 31
0.0
  0
LINE
  5
416
330
409
100
AcDbEntity
  8
0
  6
Continuous
 62
     7
370
     0
100
AcDbLine
 10
8.2166162106
 20
5.6842352711
 30
0.0
 11
7.7919043005
 21
5.6842352711
 31
0.0
  0
LINE
  5
417
330
409
100
AcDbEntity
  8
0
  6
Continuous
 62
     7
370
     0
100
AcDbLine
 10
6.8780405496
 20
5.6842352711
 30
0.0
 11
7.3019996312
 21
5.6842352711
 31
0.0
  0
MTEXT
  5
418
330
409
100
AcDbEntity
  8
0
  6
Continuous
 62
     7
370
     0
100
AcDbMText
 10
7.4123410709
 20
5.6518296526
 30
0.0
 40
0.1041666667
 41
0.0
 71
     1
 72
     1
  1
1.34
  7
SLDTEXTSTYLE0
 73
     1
 44
1.0
  0
MTEXT
  5
419
330
409
100
AcDbEntity
  8
0
  6
Continuous
 62
     7
370
     0
100
AcDbMText
 10
7.4700418491
 20
5.8172919094
 30
0.0
 40
0.1041666667
 41
0.0
 71
     1
 72
     1
  1
34
  7
SLDTEXTSTYLE0
 73
     1
 44
1.0
  0
ENDBLK
  5
40B
330
409
100
AcDbEntity
  8
0
100
AcDbBlockEnd
  0
BLOCK
  5
41D
330
41C
100
AcDbEntity
  8
0
100
AcDbBlockBegin
  2
*D14
 70
     1
 71
     0
 10
0.0
 20
0.0
 30
0.0
  3
*D14
  1

  0
SOLID
  5
41F
330
41C
100
AcDbEntity
  8
0
  6
Continuous
 62
     7
370
     0
100
AcDbTrace
 10
7.429221652
 20
3.5173901289
 30
0.0
 11
7.273221652
 21
3.5433901289
 31
0.0
 12
7.273221652
 22
3.4913901289
 32
0.0
 13
7.273221652
 23
3.4913901289
 33
0.0
  0
SOLID
  5
420
330
41C
100
AcDbEntity
  8
0
  6
Continuous
 62
     7
370
     0
100
AcDbTrace
 10
7.6654351082
 20
3.5173901289
 30
0.0
 11
7.8214351082
 21
3.4913901289
 31
0.0
 12
7.8214351082
 22
3.5433901289
 32
0.0
 13
7.8214351082
 23
3.5433901289
 33
0.0
  0
LINE
  5
421
330
41C
100
AcDbEntity
  8
0
  6
Continuous
 62
     7
370
     0
100
AcDbLine
 10
7.9995727118
 20
3.6704427165
 30
0.0
 11
7.9995727118
 21
3.5297997982
 31
0.0
  0
LINE
  5
422
330
41C
100
AcDbEntity
  8
0
  6
Continuous
 62
     7
370
     0
100
AcDbLine
 10
7.9995727118
 20
3.5297997982
 30
0.0
 11
8.0206738791
 21
3.5297997982
 31
0.0
  0
LINE
  5
423
330
41C
100
AcDbEntity
  8
0
  6
Continuous
 62
     7
370
     0
100
AcDbLine
 10
7.9995727118
 20
3.6704427165
 30
0.0
 11
8.0206738791
 21
3.6704427165
 31
0.0
  0
LINE
  5
424
330
41C
100
AcDbEntity
  8
0
  6
Continuous
 62
     7
370
     0
100
AcDbLine
 10
8.1608147352
 20
3.6704427165
 30
0.0
 11
8.1608147352
 21
3.5297997982
 31
0.0
  0
LINE
  5
425
330
41C
100
AcDbEntity
  8
0
  6
Continuous
 62
     7
370
     0
100
AcDbLine
 10
8.1608147352
 20
3.5297997982
 30
0.0
 11
8.1397135678
 21
3.5297997982
 31
0.0
  0
LINE
  5
426
330
41C
100
AcDbEntity
  8
0
  6
Continuous
 62
     7
370
     0
100
AcDbLine
 10
8.1608147352
 20
3.6704427165
 30
0.0
 11
8.1397135678
 21
3.6704427165
 31
0.0
  0
LINE
  5
427
330
41C
100
AcDbEntity
  8
0
  6
Continuous
 62
     7
370
     0
100
AcDbLine
 10
7.429221652
 20
4.3390014837
 30
0.0
 11
7.429221652
 21
3.3923901289
 31
0.0
  0
LINE
  5
428
330
41C
100
AcDbEntity
  8
0
  6
Continuous
 62
     7
370
     0
100
AcDbLine
 10
7.6654351082
 20
4.3390014837
 30
0.0
 11
7.6654351082
 21
3.3923901289
 31
0.0
  0
LINE
  5
429
330
41C
100
AcDbEntity
  8
0
  6
Continuous
 62
     7
370
     0
100
AcDbLine
 10
7.429221652
 20
3.5173901289
 30
0.0
 11
6.929221652
 21
3.5173901289
 31
0.0
  0
LINE
  5
42A
330
41C
100
AcDbEntity
  8
0
  6
Continuous
 62
     7
370
     0
100
AcDbLine
 10
7.6654351082
 20
3.5173901289
 30
0.0
 11
7.8619452799
 21
3.5173901289
 31
0.0
  0
MTEXT
  5
42B
330
41C
100
AcDbEntity
  8
0
  6
Continuous
 62
     7
370
     0
100
AcDbMText
 10
7.9455828285
 20
3.4849845104
 30
0.0
 40
0.1041666667
 41
0.0
 71
     1
 72
     1
  1
0.24
  7
SLDTEXTSTYLE0
 73
     1
 44
1.0
  0
MTEXT
  5
42C
330
41C
100
AcDbEntity
  8
0
  6
Continuous
 62
     7
370
     0
100
AcDbMText
 10
8.0417750464
 20
3.6504467673
 30
0.0
 40
0.1041666667
 41
0.0
 71
     1
 72
     1
  1
6
  7
SLDTEXTSTYLE0
 73
     1
 44
1.0
  0
ENDBLK
  5
41E
330
41C
100
AcDbEntity
  8
0
100
AcDbBlockEnd
  0
BLOCK
  5
42E
330
42D
100
AcDbEntity
  8
0
100
AcDbBlockBegin
  2
SW_NOTE_5
 70
     0
 71
     0
 10
0.0
 20
0.0
 30
0.0
  3
SW_NOTE_5
  1

  0
MTEXT
  5
431
330
42D
100
AcDbEntity
  8
0
  6
Continuous
 62
     0
370
     0
100
AcDbMText
 10
0.0
 20
0.1330566406
 30
0.0
 40
0.1041666667
 41
0.0
 71
     1
 72
     1
  1
SECTION A-A 
  7
SLDTEXTSTYLE17
 73
     1
 44
1.0
  0
MTEXT
  5
433
330
42D
100
AcDbEntity
  8
0
  6
Continuous
 62
     0
370
     0
100
AcDbMText
 10
0.0841049551
 20
-0.0058322466
 30
0.0
 40
0.1041666667
 41
0.0
 71
     1
 72
     1
  1
SCALE 1 : 1
  7
SLDTEXTSTYLE18
 73
     1
 44
1.0
  0
ENDBLK
  5
42F
330
42D
100
AcDbEntity
  8
0
100
AcDbBlockEnd
  0
BLOCK
  5
436
330
435
100
AcDbEntity
  8
0
100
AcDbBlockBegin
  2
SW_NOTE_6
 70
     0
 71
     0
 10
0.0
 20
0.0
 30
0.0
  3
SW_NOTE_6
  1

  0
MTEXT
  5
439
330
435
100
AcDbEntity
  8
0
  6
Continuous
 62
     0
370
     0
100
AcDbMText
 10
-1.3413788434
 20
0.1665222826
 30
0.0
 40
0.09
 41
0.0
 71
     1
 72
     1
  1
INTERNAL  SM1 THREAD
  7
SLDTEXTSTYLE19
 73
     1
 44
1.0
  0
MTEXT
  5
43A
330
435
100
AcDbEntity
  8
0
  6
Continuous
 62
     0
370
     0
100
AcDbMText
 10
-0.9608163313
 20
0.0371521996
 30
0.0
 40
0.09
 41
0.0
 71
     1
 72
     1
  1
(1.035-40)
  7
SLDTEXTSTYLE0
 73
     1
 44
1.0
  0
ENDBLK
  5
437
330
435
100
AcDbEntity
  8
0
100
AcDbBlockEnd
  0
BLOCK
  5
440
330
43F
100
AcDbEntity
  8
0
100
AcDbBlockBegin
  2
SW_NOTE_7
 70
     0
 71
     0
 10
0.0
 20
0.0
 30
0.0
  3
SW_NOTE_7
  1

  0
CIRCLE
  5
442
330
43F
100
AcDbEntity
  8
0
  6
Continuous
 62
     0
370
     0
100
AcDbCircle
 10
0.1894377836
 20
0.0538207019
 30
0.0
 40
0.1969348668812028
  0
MTEXT
  5
443
330
43F
100
AcDbEntity
  8
0
  6
Continuous
 62
     0
370
     0
100
AcDbMText
 10
0.1214970592
 20
0.1246806121
 30
0.0
 40
0.1377952756
 41
0.0
 71
     1
 72
     1
  1
A
  7
SLDTEXTSTYLE0
 73
     1
 44
1.0
  0
ENDBLK
  5
441
330
43F
100
AcDbEntity
  8
0
100
AcDbBlockEnd
  0
BLOCK
  5
447
330
446
100
AcDbEntity
  8
0
100
AcDbBlockBegin
  2
SW_NOTE_8
 70
     0
 71
     0
 10
0.0
 20
0.0
 30
0.0
  3
SW_NOTE_8
  1

  0
CIRCLE
  5
449
330
446
100
AcDbEntity
  8
0
  6
Continuous
 62
     0
370
     0
100
AcDbCircle
 10
-0.1936656237
 20
0.035734689
 30
0.0
 40
0.1969348668812028
  0
MTEXT
  5
44A
330
446
100
AcDbEntity
  8
0
  6
Continuous
 62
     0
370
     0
100
AcDbMText
 10
-0.261606348
 20
0.1065945992
 30
0.0
 40
0.1377952756
 41
0.0
 71
     1
 72
     1
  1
A
  7
SLDTEXTSTYLE0
 73
     1
 44
1.0
  0
ENDBLK
  5
448
330
446
100
AcDbEntity
  8
0
100
AcDbBlockEnd
  0
BLOCK
  5
44E
330
44D
100
AcDbEntity
  8
0
100
AcDbBlockBegin
  2
SW_NOTE_9
 70
     0
 71
     0
 10
0.0
 20
0.0
 30
0.0
  3
SW_NOTE_9
  1

  0
CIRCLE
  5
450
330
44D
100
AcDbEntity
  8
0
  6
Continuous
 62
     0
370
     0
100
AcDbCircle
 10
0.1476541926
 20
-0.1303133961
 30
0.0
 40
0.1969348668812023
  0
MTEXT
  5
451
330
44D
100
AcDbEntity
  8
0
  6
Continuous
 62
     0
370
     0
100
AcDbMText
 10
0.0949283596
 20
-0.0594534859
 30
0.0
 40
0.1377952756
 41
0.0
 71
     1
 72
     1
  1
B
  7
SLDTEXTSTYLE0
 73
     1
 44
1.0
  0
ENDBLK
  5
44F
330
44D
100
AcDbEntity
  8
0
100
AcDbBlockEnd
  0
BLOCK
  5
455
330
454
100
AcDbEntity
  8
0
100
AcDbBlockBegin
  2
SW_NOTE_10
 70
     0
 71
     0
 10
0.0
 20
0.0
 30
0.0
  3
SW_NOTE_10
  1

  0
CIRCLE
  5
457
330
454
100
AcDbEntity
  8
0
  6
Continuous
 62
     0
370
     0
100
AcDbCircle
 10
0.1968398198
 20
0.0061177732
 30
0.0
 40
0.1969348668812025
  0
MTEXT
  5
458
330
454
100
AcDbEntity
  8
0
  6
Continuous
 62
     0
370
     0
100
AcDbMText
 10
0.1222007137
 20
0.0769776834
 30
0.0
 40
0.1377952756
 41
0.0
 71
     1
 72
     1
  1
C
  7
SLDTEXTSTYLE0
 73
     1
 44
1.0
  0
ENDBLK
  5
456
330
454
100
AcDbEntity
  8
0
100
AcDbBlockEnd
  0
BLOCK
  5
45C
330
45B
100
AcDbEntity
  8
0
100
AcDbBlockBegin
  2
SW_NOTE_11
 70
     0
 71
     0
 10
0.0
 20
0.0
 30
0.0
  3
SW_NOTE_11
  1

  0
CIRCLE
  5
45E
330
45B
100
AcDbEntity
  8
0
  6
Continuous
 62
     0
370
     0
100
AcDbCircle
 10
-0.1950500483
 20
0.0271812522
 30
0.0
 40
0.1969348668812025
  0
MTEXT
  5
45F
330
45B
100
AcDbEntity
  8
0
  6
Continuous
 62
     0
370
     0
100
AcDbMText
 10
-0.2696891544
 20
0.0980411623
 30
0.0
 40
0.1377952756
 41
0.0
 71
     1
 72
     1
  1
C
  7
SLDTEXTSTYLE0
 73
     1
 44
1.0
  0
ENDBLK
  5
45D
330
45B
100
AcDbEntity
  8
0
100
AcDbBlockEnd
  0
ENDSEC
  0
SECTION
  2
ENTITIES
  0
LINE
  5
30
330
1F
100
AcDbEntity
  8
0
  6
Continuous
 62
     7
370
     0
100
AcDbLine
 10
0.329927
 20
8.1920731707
 30
0.0
 11
10.629927
 21
8.1920731707
 31
0.0
  0
LINE
  5
31
330
1F
100
AcDbEntity
  8
0
  6
Continuous
 62
     7
370
     0
100
AcDbLine
 10
0.329927
 20
8.1920731707
 30
0.0
 11
0.329927
 21
0.3920731707
 31
0.0
  0
LINE
  5
32
330
1F
100
AcDbEntity
  8
0
  6
Continuous
 62
     7
370
     0
100
AcDbLine
 10
10.629927
 20
0.3920731707
 30
0.0
 11
0.329927
 21
0.3920731707
 31
0.0
  0
LINE
  5
33
330
1F
100
AcDbEntity
  8
0
  6
Continuous
 62
     7
370
     0
100
AcDbLine
 10
10.629927
 20
0.3920731707
 30
0.0
 11
10.629927
 21
8.1920731707
 31
0.0
  0
LINE
  5
34
330
1F
100
AcDbEntity
  8
0
  6
Continuous
 62
     7
370
     0
100
AcDbLine
 10
7.8832069922
 20
1.2010186622
 30
0.0
 11
6.3491817542
 21
1.2010186622
 31
0.0
  0
LINE
  5
35
330
1F
100
AcDbEntity
  8
0
  6
Continuous
 62
     7
370
     0
100
AcDbLine
 10
6.3491817542
 20
0.3920731707
 30
0.0
 11
6.3491817542
 21
1.6988536355
 31
0.0
  0
LINE
  5
36
330
1F
100
AcDbEntity
  8
0
  6
Continuous
 62
     7
370
     0
100
AcDbLine
 10
7.8832069922
 20
1.270166923
 30
0.0
 11
10.629927
 21
1.270166923
 31
0.0
  0
LINE
  5
37
330
1F
100
AcDbEntity
  8
0
  6
Continuous
 62
     7
370
     0
100
AcDbLine
 10
7.8832069922
 20
1.9437769943
 30
0.0
 11
7.8832069922
 21
0.3920731707
 31
0.0
  0
LINE
  5
38
330
1F
100
AcDbEntity
  8
0
  6
Continuous
 62
     7
370
     0
100
AcDbLine
 10
7.8832069922
 20
1.323339557
 30
0.0
 11
6.3491817542
 21
1.323339557
 31
0.0
  0
LINE
  5
39
330
1F
100
AcDbEntity
  8
0
  6
Continuous
 62
     7
370
     0
100
AcDbLine
 10
7.8832069922
 20
1.6988536355
 30
0.0
 11
6.3491817542
 21
1.6988536355
 31
0.0
  0
LINE
  5
3A
330
1F
100
AcDbEntity
  8
0
  6
Continuous
 62
     7
370
     0
100
AcDbLine
 10
7.8832069922
 20
0.7890359178
 30
0.0
 11
10.629927
 21
0.7890359178
 31
0.0
  0
LINE
  5
3B
330
1F
100
AcDbEntity
  8
0
  6
Continuous
 62
     7
370
     0
100
AcDbLine
 10
7.8832069922
 20
1.4456604517
 30
0.0
 11
6.3491817542
 21
1.4456604517
 31
0.0
  0
LINE
  5
3C
330
1F
100
AcDbEntity
  8
0
  6
Continuous
 62
     7
370
     0
100
AcDbLine
 10
7.8832069922
 20
1.5679813464
 30
0.0
 11
6.3491817542
 21
1.5679813464
 31
0.0
  0
LINE
  5
3D
330
1F
100
AcDbEntity
  8
0
  6
Continuous
 62
     7
370
     0
100
AcDbLine
 10
6.9294188505
 20
1.6988536355
 30
0.0
 11
6.9294188505
 21
1.2010186622
 31
0.0
  0
LINE
  5
3E
330
1F
100
AcDbEntity
  8
0
  6
Continuous
 62
     7
370
     0
100
AcDbLine
 10
7.2989435727
 20
1.6988536355
 30
0.0
 11
7.2989435727
 21
1.2010186622
 31
0.0
  0
LINE
  5
3F
330
1F
100
AcDbEntity
  8
0
  6
Continuous
 62
     7
370
     0
100
AcDbLine
 10
8.9000563418
 20
0.7890359178
 30
0.0
 11
8.9000563418
 21
0.3920731707
 31
0.0
  0
LINE
  5
40
330
1F
100
AcDbEntity
  8
0
  6
Continuous
 62
     7
370
     0
100
AcDbLine
 10
9.3113942988
 20
0.96139916
 30
0.0
 11
9.3113942988
 21
0.7890359178
 31
0.0
  0
LINE
  5
41
330
1F
100
AcDbEntity
  8
0
  6
Continuous
 62
     7
370
     0
100
AcDbLine
 10
10.0324602448
 20
1.270166923
 30
0.0
 11
10.0324602448
 21
0.96139916
 31
0.0
  0
LINE
  5
42
330
1F
100
AcDbEntity
  8
0
  6
Continuous
 62
     7
370
     0
100
AcDbLine
 10
6.3491817542
 20
1.0381709011
 30
0.0
 11
7.8832069922
 21
1.0381709011
 31
0.0
  0
LINE
  5
43
330
1F
100
AcDbEntity
  8
0
  6
Continuous
 62
     7
370
     0
100
AcDbLine
 10
7.8832069922
 20
1.9437769943
 30
0.0
 11
10.629927
 21
1.9437769943
 31
0.0
  0
LINE
  5
44
330
1F
100
AcDbEntity
  8
0
  6
Continuous
 62
     7
370
     0
100
AcDbLine
 10
10.315241862
 20
1.2693980507
 30
0.0
 11
10.315241862
 21
0.96139916
 31
0.0
  0
LINE
  5
45
330
1F
100
AcDbEntity
  8
0
  6
Continuous
 62
     7
370
     0
100
AcDbLine
 10
7.8832069922
 20
0.96139916
 30
0.0
 11
10.629927
 21
0.96139916
 31
0.0
  0
LINE
  5
46
330
1F
100
AcDbEntity
  8
0
  6
Continuous
 62
     7
370
     0
100
AcDbLine
 10
10.629927
 20
1.9437769943
 30
0.0
 11
10.629927
 21
1.9698084888
 31
0.0
  0
LINE
  5
47
330
1F
100
AcDbEntity
  8
0
  6
Continuous
 62
     7
370
     0
100
AcDbLine
 10
7.8832069922
 20
1.6268095213
 30
0.0
 11
10.629927
 21
1.6268095213
 31
0.0
  0
LINE
  5
48
330
1F
100
AcDbEntity
  8
0
  6
Continuous
 62
     7
370
     0
100
AcDbLine
 10
6.692177
 20
0.3920731707
 30
0.0
 11
6.692177
 21
0.3072739649
 31
0.0
  0
LINE
  5
49
330
1F
100
AcDbEntity
  8
0
  6
Continuous
 62
     7
370
     0
100
AcDbLine
 10
2.754677
 20
0.3920731707
 30
0.0
 11
2.754677
 21
0.3072739649
 31
0.0
  0
LINE
  5
4A
330
1F
100
AcDbEntity
  8
0
  6
Continuous
 62
     7
370
     0
100
AcDbLine
 10
2.754677
 20
0.3920731707
 30
0.0
 11
2.7672319738
 21
0.3575
 31
0.0
  0
LINE
  5
4B
330
1F
100
AcDbEntity
  8
0
  6
Continuous
 62
     7
370
     0
100
AcDbLine
 10
2.7672319738
 20
0.3575
 30
0.0
 11
2.7414258825
 21
0.3575
 31
0.0
  0
LINE
  5
4C
330
1F
100
AcDbEntity
  8
0
  6
Continuous
 62
     7
370
     0
100
AcDbLine
 10
2.7414258825
 20
0.3575
 30
0.0
 11
2.754677
 21
0.3920731707
 31
0.0
  0
MTEXT
  5
4E
330
1F
100
AcDbEntity
  8
0
  6
Continuous
 62
     7
370
     0
100
AcDbMText
 10
10.4043270877
 20
1.1203120088
 30
0.0
 40
0.1041666667
 41
0.0
 71
     1
 72
     1
  1
C
  7
SLDTEXTSTYLE0
 73
     1
 44
1.0
  0
MTEXT
  5
4F
330
1F
100
AcDbEntity
  8
0
  6
Continuous
 62
     7
370
     0
100
AcDbMText
 10
1.7387909509
 20
0.3094873007
 30
0.0
 40
0.09375
 41
0.0
 71
     1
 72
     1
  1
5
  7
SLDTEXTSTYLE0
 73
     1
 44
1.0
  0
MTEXT
  5
50
330
1F
100
AcDbEntity
  8
0
  6
Continuous
 62
     7
370
     0
100
AcDbMText
 10
3.723800327
 20
0.3126246278
 30
0.0
 40
0.09375
 41
0.0
 71
     1
 72
     1
  1
4
  7
SLDTEXTSTYLE0
 73
     1
 44
1.0
  0
MTEXT
  5
51
330
1F
100
AcDbEntity
  8
0
  6
Continuous
 62
     7
370
     0
100
AcDbMText
 10
5.6324457277
 20
0.3105200602
 30
0.0
 40
0.09375
 41
0.0
 71
     1
 72
     1
  1
3
  7
SLDTEXTSTYLE0
 73
     1
 44
1.0
  0
MTEXT
  5
52
330
1F
100
AcDbEntity
  8
0
  6
Continuous
 62
     7
370
     0
100
AcDbMText
 10
7.6059721724
 20
0.3113400111
 30
0.0
 40
0.09375
 41
0.0
 71
     1
 72
     1
  1
2
  7
SLDTEXTSTYLE0
 73
     1
 44
1.0
  0
MTEXT
  5
53
330
1F
100
AcDbEntity
  8
0
  6
Continuous
 62
     7
370
     0
100
AcDbMText
 10
9.6619921328
 20
0.300272888
 30
0.0
 40
0.09375
 41
0.0
 71
     1
 72
     1
  1
1
  7
SLDTEXTSTYLE0
 73
     1
 44
1.0
  0
MTEXT
  5
54
330
1F
100
AcDbEntity
  8
0
  6
Continuous
 62
     7
370
     0
100
AcDbMText
 10
9.2900726103
 20
0.5941666803
 30
0.0
 40
0.09375
 41
0.0
 71
     1
 72
     1
  1
MAP103030-A1
  7
SLDTEXTSTYLE0
 73
     1
 44
1.0
  0
MTEXT
  5
55
330
1F
100
AcDbEntity
  8
0
  6
Continuous
 62
     7
370
     0
100
AcDbMText
 10
7.9301743649
 20
1.2499730493
 30
0.0
 40
0.0833333333
 41
0.0
 71
     1
 72
     1
  1
MATERIAL:
  7
SLDTEXTSTYLE0
 73
     1
 44
1.0
  0
MTEXT
  5
57
330
1F
100
AcDbEntity
  8
0
  6
Continuous
 62
     7
370
     0
100
AcDbMText
 10
8.9438302275
 20
0.7457341193
 30
0.0
 40
0.0833333333
 41
0.0
 71
     1
 72
     1
  1
PART  NO.
  7
SLDTEXTSTYLE1
 73
     1
 44
1.0
  0
MTEXT
  5
59
330
1F
100
AcDbEntity
  8
0
  6
Continuous
 62
     7
370
     0
100
AcDbMText
 10
6.3927073562
 20
1.1440291591
 30
0.0
 40
0.06
 41
0.0
 71
     1
 72
     1
  1
PROPRIETARY AND CONFIDENTIAL
  7
SLDTEXTSTYLE2
 73
     1
 44
1.0
  0
MTEXT
  5
5A
330
1F
100
AcDbEntity
  8
0
  6
Continuous
 62
     7
370
     0
100
AcDbMText
 10
6.4985660702
 20
1.5406501707
 30
0.0
 40
0.065
 41
0.0
 71
     1
 72
     1
  1
DRAWN
  7
SLDTEXTSTYLE0
 73
     1
 44
1.0
  0
MTEXT
  5
5B
330
1F
100
AcDbEntity
  8
0
  6
Continuous
 62
     7
370
     0
100
AcDbMText
 10
6.4369653776
 20
1.4183941661
 30
0.0
 40
0.065
 41
0.0
 71
     1
 72
     1
  1
ENG APPR.
  7
SLDTEXTSTYLE0
 73
     1
 44
1.0
  0
MTEXT
  5
5C
330
1F
100
AcDbEntity
  8
0
  6
Continuous
 62
     7
370
     0
100
AcDbMText
 10
6.4273055419
 20
1.298296273
 30
0.0
 40
0.065
 41
0.0
 71
     1
 72
     1
  1
MFG APPR.
  7
SLDTEXTSTYLE0
 73
     1
 44
1.0
  0
MTEXT
  5
5D
330
1F
100
AcDbEntity
  8
0
  6
Continuous
 62
     7
370
     0
100
AcDbMText
 10
6.9752663896
 20
1.6608078346
 30
0.0
 40
0.065
 41
0.0
 71
     1
 72
     1
  1
NAME
  7
SLDTEXTSTYLE0
 73
     1
 44
1.0
  0
MTEXT
  5
5E
330
1F
100
AcDbEntity
  8
0
  6
Continuous
 62
     7
370
     0
100
AcDbMText
 10
7.9386050459
 20
1.5661804433
 30
0.0
 40
0.1
 41
0.0
 71
     1
 72
     1
  1
TITLE:
  7
SLDTEXTSTYLE0
 73
     1
 44
1.0
  0
MTEXT
  5
5F
330
1F
100
AcDbEntity
  8
0
  6
Continuous
 62
     7
370
     0
100
AcDbMText
 10
10.0657693915
 20
1.2262994671
 30
0.0
 40
0.0833333333
 41
0.0
 71
     1
 72
     1
  1
SIZE
  7
SLDTEXTSTYLE0
 73
     1
 44
1.0
  0
MTEXT
  5
60
330
1F
100
AcDbEntity
  8
0
  6
Continuous
 62
     7
370
     0
100
AcDbMText
 10
10.1162261111
 20
1.1164461388
 30
0.0
 40
0.1041666667
 41
0.0
 71
     1
 72
     1
  1
A
  7
SLDTEXTSTYLE0
 73
     1
 44
1.0
  0
MTEXT
  5
61
330
1F
100
AcDbEntity
  8
0
  6
Continuous
 62
     7
370
     0
100
AcDbMText
 10
10.335100974
 20
1.2278993505
 30
0.0
 40
0.0833333333
 41
0.0
 71
     1
 72
     1
  1
REV.
  7
SLDTEXTSTYLE0
 73
     1
 44
1.0
  0
MTEXT
  5
62
330
1F
100
AcDbEntity
  8
0
  6
Continuous
 62
     7
370
     0
100
AcDbMText
 10
8.3227727705
 20
0.9309786574
 30
0.0
 40
0.0833333333
 41
0.0
 71
     1
 72
     1
  1
SCALE: 1:1
  7
SLDTEXTSTYLE0
 73
     1
 44
1.0
  0
MTEXT
  5
64
330
1F
100
AcDbEntity
  8
0
  6
Continuous
 62
     7
370
     0
100
AcDbMText
 10
9.6378279873
 20
0.926579063
 30
0.0
 40
0.0833333333
 41
0.0
 71
     1
 72
     1
  1
SHEET 1 OF 1
  7
SLDTEXTSTYLE3
 73
     1
 44
1.0
  0
MTEXT
  5
65
330
1F
100
AcDbEntity
  8
0
  6
Continuous
 62
     7
370
     0
100
AcDbMText
 10
8.0631000148
 20
0.6044052155
 30
0.0
 40
0.1041666667
 41
0.0
 71
     1
 72
     1
  1
13317-E01
  7
SLDTEXTSTYLE0
 73
     1
 44
1.0
  0
INSERT
  5
75
330
1F
100
AcDbEntity
  8
0
  6
Continuous
 62
     7
370
     0
100
AcDbBlockReference
  2
SW_NOTE_0
 10
6.3891646717
 20
0.9312082413
 30
0.0
  0
MTEXT
  5
76
330
1F
100
AcDbEntity
  8
0
  6
Continuous
 62
     7
370
     0
100
AcDbMText
 10
7.9076399399
 20
0.7468305835
 30
0.0
 40
0.0833333333
 41
0.0
 71
     1
 72
     1
  1
DWG.  NO.
  7
SLDTEXTSTYLE1
 73
     1
 44
1.0
  0
MTEXT
  5
77
330
1F
100
AcDbEntity
  8
0
  6
Continuous
 62
     7
370
     0
100
AcDbMText
 10
7.0592138229
 20
1.5434434118
 30
0.0
 40
0.065
 41
0.0
 71
     1
 72
     1
  1
AP
  7
SLDTEXTSTYLE0
 73
     1
 44
1.0
  0
MTEXT
  5
78
330
1F
100
AcDbEntity
  8
0
  6
Continuous
 62
     7
370
     0
100
AcDbMText
 10
7.0628716471
 20
1.4267005168
 30
0.0
 40
0.065
 41
0.0
 71
     1
 72
     1
  1
TO
  7
SLDTEXTSTYLE0
 73
     1
 44
1.0
  0
MTEXT
  5
79
330
1F
100
AcDbEntity
  8
0
  6
Continuous
 62
     7
370
     0
100
AcDbMText
 10
7.0636219211
 20
1.3041261123
 30
0.0
 40
0.065
 41
0.0
 71
     1
 72
     1
  1
TO
  7
SLDTEXTSTYLE0
 73
     1
 44
1.0
  0
MTEXT
  5
7A
330
1F
100
AcDbEntity
  8
0
  6
Continuous
 62
     7
370
     0
100
AcDbMText
 10
7.3775562039
 20
1.5451308061
 30
0.0
 40
0.065
 41
0.0
 71
     1
 72
     1
  1
04/14/06
  7
SLDTEXTSTYLE0
 73
     1
 44
1.0
  0
MTEXT
  5
7B
330
1F
100
AcDbEntity
  8
0
  6
Continuous
 62
     7
370
     0
100
AcDbMText
 10
7.4731545031
 20
1.6582684693
 30
0.0
 40
0.065
 41
0.0
 71
     1
 72
     1
  1
DATE
  7
SLDTEXTSTYLE0
 73
     1
 44
1.0
  0
MTEXT
  5
7C
330
1F
100
AcDbEntity
  8
0
  6
Continuous
 62
     7
370
     0
100
AcDbMText
 10
7.3821011998
 20
1.4184142209
 30
0.0
 40
0.065
 41
0.0
 71
     1
 72
     1
  1
04/14/06
  7
SLDTEXTSTYLE0
 73
     1
 44
1.0
  0
MTEXT
  5
7D
330
1F
100
AcDbEntity
  8
0
  6
Continuous
 62
     7
370
     0
100
AcDbMText
 10
7.3821011998
 20
1.2979456571
 30
0.0
 40
0.065
 41
0.0
 71
     1
 72
     1
  1
04/14/06
  7
SLDTEXTSTYLE0
 73
     1
 44
1.0
  0
MTEXT
  5
7E
330
1F
100
AcDbEntity
  8
0
  6
Continuous
 62
     7
370
     0
100
AcDbMText
 10
7.9182509893
 20
1.8945248266
 30
0.0
 40
0.1875
 41
0.0
 71
     1
 72
     1
  1
THORLABS INC.
  7
SLDTEXTSTYLE0
 73
     1
 44
1.0
  0
INSERT
  5
85
330
1F
100
AcDbEntity
  8
0
  6
Continuous
 62
     7
370
     0
100
AcDbBlockReference
  2
SW_NOTE_1
 10
9.7899715108
 20
1.7786954532
 30
0.0
  0
INSERT
  5
8C
330
1F
100
AcDbEntity
  8
0
  6
Continuous
 62
     7
370
     0
100
AcDbBlockReference
  2
SW_NOTE_2
 10
8.3283125151
 20
1.4144561716
 30
0.0
  0
MTEXT
  5
8D
330
1F
100
AcDbEntity
  8
0
  6
Continuous
 62
     7
370
     0
100
AcDbMText
 10
8.3691642187
 20
1.131481397
 30
0.0
 40
0.1041666667
 41
0.0
 71
     1
 72
     1
  1
SEE TABLE
  7
SLDTEXTSTYLE0
 73
     1
 44
1.0
  0
INSERT
  5
9D
330
1F
100
AcDbEntity
  8
0
  6
Continuous
 62
     7
370
     0
100
AcDbBlockReference
  2
SW_NOTE_3
 10
0.8949463909
 20
1.9273752886
 30
0.0
  0
MTEXT
  5
9E
330
1F
100
AcDbEntity
  8
0
  6
Continuous
 62
     7
370
     0
100
AcDbMText
 10
0.9139544462
 20
2.2336939847
 30
0.0
 40
0.09
 41
0.0
 71
     1
 72
     1
  1
SPECIFICATIONS:
  7
SLDTEXTSTYLE0
 73
     1
 44
1.0
  0
INSERT
  5
A5
330
1F
100
AcDbEntity
  8
0
  6
Continuous
 62
     7
370
     0
100
AcDbBlockReference
  2
SW_NOTE_4
 10
0.5883605893
 20
0.6673857603
 30
0.0
  0
INSERT
  5
BE
330
1F
100
AcDbEntity
  8
0
  6
Continuous
 62
     7
370
     0
100
AcDbBlockReference
  2
SW_TABLEANNOTATION_0
 10
0.3174104478
 20
8.1967910448
 30
0.0
  0
ARC
  5
BF
330
1F
100
AcDbEntity
  8
0
  6
Continuous
 62
     7
370
     0
100
AcDbCircle
 10
2.4017689169
 20
4.3890014837
 30
0.0
 40
0.5001794919243131
100
AcDbArc
 50
268.3450393312
 51
86.6267183772
  0
SPLINE
  5
C0
330
1F
100
AcDbEntity
  8
0
  6
Continuous
 62
     7
370
     0
100
AcDbSpline
210
0.0
220
0.0
230
1.0
 70
    24
 71
     1
 72
     4
 73
     2
 74
     0
 42
0.00000001
 43
0.00000001
 40
0.0
 40
0.0
 40
1.0
 40
1.0
 10
2.43119991109126
 20
4.888314352241323
 30
0.0
 10
2.431420247712579
 20
4.893332494271317
 30
0.0
  0
SPLINE
  5
C1
330
1F
100
AcDbEntity
  8
0
  6
Continuous
 62
     7
370
     0
100
AcDbSpline
210
0.0
220
0.0
230
1.0
 70
    24
 71
     1
 72
     4
 73
     2
 74
     0
 42
0.00000001
 43
0.00000001
 40
0.0
 40
0.0
 40
1.0
 40
1.0
 10
2.387085136125572
 20
3.883602275427636
 30
0.0
 10
2.387323485038811
 20
3.889030639385379
 30
0.0
  0
ARC
  5
C2
330
1F
100
AcDbEntity
  8
0
  6
Continuous
 62
     7
370
     0
100
AcDbCircle
 10
2.4017689169
 20
4.3890014837
 30
0.0
 40
0.4500000000000012
100
AcDbArc
 50
88.440852728
 51
266.5309049804
  0
LINE
  5
C3
330
1F
100
AcDbEntity
  8
0
  6
Continuous
 62
     7
370
     0
100
AcDbLine
 10
2.3723379227
 20
3.8896886151
 30
0.0
 11
2.3745393525
 21
3.9398260726
 31
0.0
  0
ARC
  5
C4
330
1F
100
AcDbEntity
  8
0
  6
Continuous
 62
     7
370
     0
100
AcDbCircle
 10
2.4017689169
 20
4.3890014837
 30
0.0
 40
0.5001794919243131
100
AcDbArc
 50
88.3450393312
 51
266.6267183772
  0
LINE
  5
C5
330
1F
100
AcDbEntity
  8
0
  6
Continuous
 62
     7
370
     0
100
AcDbLine
 10
2.4162143488
 20
4.888972328
 30
0.0
 11
2.4140129202
 21
4.8388348705
 31
0.0
  0
ARC
  5
C6
330
1F
100
AcDbEntity
  8
0
  6
Continuous
 62
     7
370
     0
100
AcDbCircle
 10
2.4017689169
 20
4.3890014837
 30
0.0
 40
0.4500000000000016
100
AcDbArc
 50
268.440852728
 51
86.5309049804
  0
LINE
  5
C7
330
1F
100
AcDbEntity
  8
0
  6
Continuous
 62
     7
370
     0
100
AcDbLine
 10
2.4311999111
 20
4.8883143522
 30
0.0
 11
2.4289984813
 21
4.8381768948
 31
0.0
  0
LINE
  5
C8
330
1F
100
AcDbEntity
  8
0
  6
Continuous
 62
     7
370
     0
100
AcDbLine
 10
2.387323485
 20
3.8890306394
 30
0.0
 11
2.3895249137
 21
3.9391680969
 31
0.0
  0
SPLINE
  5
C9
330
1F
100
AcDbEntity
  8
0
  6
Continuous
 62
     7
370
     0
100
AcDbSpline
210
0.0
220
0.0
230
1.0
 70
    24
 71
     1
 72
     4
 73
     2
 74
     0
 42
0.00000001
 43
0.00000001
 40
0.0
 40
0.0
 40
1.0
 40
1.0
 10
2.372337922736639
 20
3.88968861511772
 30
0.0
 10
2.37210739748302
 20
3.884438412435176
 30
0.0
  0
SPLINE
  5
CA
330
1F
100
AcDbEntity
  8
0
  6
Continuous
 62
     7
370
     0
100
AcDbSpline
210
0.0
220
0.0
230
1.0
 70
    24
 71
     1
 72
     4
 73
     2
 74
     0
 42
0.00000001
 43
0.00000001
 40
0.0
 40
0.0
 40
1.0
 40
1.0
 10
2.416466214942009
 20
4.894708578374677
 30
0.0
 10
2.416214348789088
 20
4.888972327973664
 30
0.0
  0
ARC
  5
CB
330
1F
100
AcDbEntity
  8
0
  6
Continuous
 62
     7
370
     0
100
AcDbCircle
 10
2.4017689169
 20
4.3890014837
 30
0.0
 40
0.4500000000000012
100
AcDbArc
 50
266.5309049804
 51
268.440852728
  0
ARC
  5
CC
330
1F
100
AcDbEntity
  8
0
  6
Continuous
 62
     7
370
     0
100
AcDbCircle
 10
2.4017689169
 20
4.3890014837
 30
0.0
 40
0.4500000000000007
100
AcDbArc
 50
86.5309049804
 51
88.440852728
  0
CIRCLE
  5
CD
330
1F
100
AcDbEntity
  8
0
  6
Continuous
 62
     7
370
     0
100
AcDbCircle
 10
2.4017689169
 20
4.3890014837
 30
0.0
 40
0.5900000000000019
  0
CIRCLE
  5
CE
330
1F
100
AcDbEntity
  8
0
  6
Continuous
 62
     7
370
     0
100
AcDbCircle
 10
2.4017689169
 20
4.3890014837
 30
0.0
 40
0.6000000000000018
  0
CIRCLE
  5
CF
330
1F
100
AcDbEntity
  8
0
  6
Continuous
 62
     7
370
     0
100
AcDbCircle
 10
2.4017689169
 20
4.3890014837
 30
0.0
 40
0.5160000000000012
  0
CIRCLE
  5
D0
330
1F
100
AcDbEntity
  8
0
  6
Continuous
 62
     7
370
     0
100
AcDbCircle
 10
2.4017689169
 20
4.3890014837
 30
0.0
 40
0.5060000000000012
  0
DIMENSION
  5
D1
330
1F
100
AcDbEntity
  8
0
  6
Continuous
 62
     7
370
     0
100
AcDbDimension
  2
*D7
 10
2.1083295709
 20
3.8656532724
 30
0.0
 11
3.4694395401
 21
5.2765830861
 31
0.0
 70
   163
  1
<>
 71
     1
 42
-1.0
  3
SLDDIMSTYLE0
100
AcDbDiametricDimension
 15
2.6952082629
 25
4.9123496949
 35
0.0
 40
0.0
  0
LINE
  5
E2
330
1F
100
AcDbEntity
  8
0
  6
PHANTOM
 62
     7
370
    30
100
AcDbLine
 10
2.4017689169
 20
5.2637195846
 30
0.0
 11
2.4017689169
 21
3.5786008902
 31
0.0
  0
LINE
  5
E3
330
1F
100
AcDbEntity
  8
0
  6
Continuous
 62
     7
370
    30
100
AcDbLine
 10
2.4017689169
 20
5.2637195846
 30
0.0
 11
1.9317689169
 21
5.2637195846
 31
0.0
  0
SOLID
  5
E4
330
1F
100
AcDbEntity
  8
0
  6
Continuous
 62
     7
370
    30
100
AcDbTrace
 10
1.9317689169
 20
5.2637195846
 30
0.0
 11
2.1717689169
 21
5.2037195846
 31
0.0
 12
2.1717689169
 22
5.3237195846
 32
0.0
 13
2.1717689169
 23
5.3237195846
 33
0.0
  0
LINE
  5
E5
330
1F
100
AcDbEntity
  8
0
  6
Continuous
 62
     7
370
    30
100
AcDbLine
 10
2.4017689169
 20
3.5786008902
 30
0.0
 11
1.9317689169
 21
3.5786008902
 31
0.0
  0
SOLID
  5
E6
330
1F
100
AcDbEntity
  8
0
  6
Continuous
 62
     7
370
    30
100
AcDbTrace
 10
1.9317689169
 20
3.5786008902
 30
0.0
 11
2.1717689169
 21
3.5186008902
 31
0.0
 12
2.1717689169
 22
3.6386008902
 32
0.0
 13
2.1717689169
 23
3.6386008902
 33
0.0
  0
MTEXT
  5
E7
330
1F
100
AcDbEntity
  8
0
  6
Continuous
 62
     7
100
AcDbMText
 10
1.7440412905
 20
5.3795577169
 30
0.0
 40
0.1458333333
 41
0.0
 71
     1
 72
     1
  1
A
  7
SLDTEXTSTYLE0
 73
     1
 44
1.0
  0
MTEXT
  5
E8
330
1F
100
AcDbEntity
  8
0
  6
Continuous
 62
     7
100
AcDbMText
 10
1.7440412905
 20
3.6944390225
 30
0.0
 40
0.1458333333
 41
0.0
 71
     1
 72
     1
  1
A
  7
SLDTEXTSTYLE0
 73
     1
 44
1.0
  0
LINE
  5
E9
330
1F
100
AcDbEntity
  8
0
  6
Continuous
 62
     7
370
     0
100
AcDbLine
 10
6.5896897191
 20
6.94193592
 30
0.0
 11
6.5896897191
 21
6.9337718388
 31
0.0
  0
LINE
  5
EA
330
1F
100
AcDbEntity
  8
0
  6
Continuous
 62
     7
370
     0
100
AcDbLine
 10
7.0068149144
 20
6.2112115165
 30
0.0
 11
7.0138848329
 21
6.2071288125
 31
0.0
  0
LINE
  5
EB
330
1F
100
AcDbEntity
  8
0
  6
Continuous
 62
     7
370
     0
100
AcDbLine
 10
6.8937612168
 20
7.3204293488
 30
0.0
 11
6.713978168
 21
7.2166428038
 31
0.0
  0
LINE
  5
EC
330
1F
100
AcDbEntity
  8
0
  6
Continuous
 62
     7
370
     0
100
AcDbLine
 10
6.9095974309
 20
7.3295714006
 30
0.0
 11
6.9072199348
 21
7.3281989012
 31
0.0
  0
LINE
  5
ED
330
1F
100
AcDbEntity
  8
0
  6
Continuous
 62
     7
370
     0
100
AcDbLine
 10
7.0138306395
 20
7.3897439511
 30
0.0
 11
6.9308418662
 21
7.341835552
 31
0.0
  0
LINE
  5
EE
330
1F
100
AcDbEntity
  8
0
  6
Continuous
 62
     7
370
     0
100
AcDbLine
 10
7.9302018316
 20
7.91875378
 30
0.0
 11
7.0539863313
 21
7.4129253385
 31
0.0
  0
LINE
  5
EF
330
1F
100
AcDbEntity
  8
0
  6
Continuous
 62
     7
370
     0
100
AcDbLine
 10
7.5033770781
 20
6.2867499812
 30
0.0
 11
8.5301530712
 21
6.8794951451
 31
0.0
  0
LINE
  5
F0
330
1F
100
AcDbEntity
  8
0
  6
Continuous
 62
     7
370
     0
100
AcDbLine
 10
7.4088393341
 20
6.2321745033
 30
0.0
 11
7.4904039249
 21
6.2792607393
 31
0.0
  0
LINE
  5
F1
330
1F
100
AcDbEntity
  8
0
  6
Continuous
 62
     7
370
     0
100
AcDbLine
 10
7.3139294076
 20
6.177384169
 30
0.0
 11
7.3670807715
 21
6.2080677983
 31
0.0
  0
LINE
  5
F2
330
1F
100
AcDbEntity
  8
0
  6
Continuous
 62
     7
370
     0
100
AcDbLine
 10
7.3670807715
 20
6.2080677983
 30
0.0
 11
7.4088393341
 21
6.2321745033
 31
0.0
  0
LINE
  5
F3
330
1F
100
AcDbEntity
  8
0
  6
Continuous
 62
     7
370
     0
100
AcDbLine
 10
7.4904039249
 20
6.2792607393
 30
0.0
 11
7.5033770781
 21
6.2867499812
 31
0.0
  0
LINE
  5
F4
330
1F
100
AcDbEntity
  8
0
  6
Continuous
 62
     7
370
     0
100
AcDbLine
 10
6.9072199348
 20
7.3281989012
 30
0.0
 11
6.8933720767
 21
7.320204703
 31
0.0
  0
LINE
  5
F5
330
1F
100
AcDbEntity
  8
0
  6
Continuous
 62
     7
370
     0
100
AcDbLine
 10
6.917688177
 20
7.3342420889
 30
0.0
 11
6.9095974309
 21
7.3295714006
 31
0.0
  0
LINE
  5
F6
330
1F
100
AcDbEntity
  8
0
  6
Continuous
 62
     7
370
     0
100
AcDbLine
 10
6.9308418662
 20
7.341835552
 30
0.0
 11
6.9211488291
 21
7.3362398808
 31
0.0
  0
LINE
  5
F7
330
1F
100
AcDbEntity
  8
0
  6
Continuous
 62
     7
370
     0
100
AcDbLine
 10
6.9211488291
 20
7.3362398808
 30
0.0
 11
6.917688177
 21
7.3342420889
 31
0.0
  0
LINE
  5
F8
330
1F
100
AcDbEntity
  8
0
  6
Continuous
 62
     7
370
     0
100
AcDbLine
 10
7.0539863313
 20
7.4129253385
 30
0.0
 11
7.0138306395
 21
7.3897439511
 31
0.0
  0
LINE
  5
F9
330
1F
100
AcDbEntity
  8
0
  6
Continuous
 62
     7
370
     0
100
AcDbLine
 10
8.6544415201
 20
7.154202029
 30
0.0
 11
8.6544415201
 21
7.1623661101
 31
0.0
  0
LINE
  5
FA
330
1F
100
AcDbEntity
  8
0
  6
Continuous
 62
     7
370
     0
100
AcDbLine
 10
8.2373163248
 20
7.8849264324
 30
0.0
 11
8.2302464063
 21
7.8890091365
 31
0.0
  0
LWPOLYLINE
  5
FB
330
1F
100
AcDbEntity
  8
0
  6
Continuous
 62
     7
370
     0
100
AcDbPolyline
 90
       77
 70
   128
 43
0.0
 10
7.4212810824
 20
6.5093730138
 10
7.4158847289
 20
6.5518149796
 10
7.4076944769
 20
6.595220914
 10
7.3967662742
 20
6.6392943103
 10
7.3831747715
 20
6.6837341027
 10
7.3670128125
 20
6.7282367223
 10
7.3483907998
 20
6.772498171
 10
7.3274359407
 20
6.8162160983
 10
7.304291378
 20
6.8590918664
 10
7.2791152126
 20
6.9008325904
 10
7.2520794233
 20
6.9411531388
 10
7.2233686918
 20
6.9797780812
 10
7.1931791416
 20
7.0164435704
 10
7.161716998
 20
7.0508991436
 10
7.1291971793
 20
7.0829094345
 10
7.0958418287
 20
7.1122557803
 10
7.0618787973
 20
7.1387377158
 10
7.0275400869
 20
7.1621743423
 10
6.9930602657
 20
7.1824055641
 10
6.9586748659
 20
7.1992931813
 10
6.9246187746
 20
7.2127218344
 10
6.8911246295
 20
7.2225997921
 10
6.8584212295
 20
7.228859578
 10
6.8267319721
 20
7.2314584312
 10
6.7962733269
 20
7.2303785991
 10
6.7672533574
 20
7.225627458
 10
6.7398702995
 20
7.2172374629
 10
6.7143112071
 20
7.2052659262
 10
6.6907506748
 20
7.1897946254
 10
6.669349645
 20
7.1709292453
 10
6.6502543083
 20
7.1487986555
 10
6.6335951053
 20
7.1235540305
 10
6.6194858352
 20
7.0953678165
 10
6.6080228786
 20
7.0644325541
 10
6.5992845392
 20
7.0309595624
 10
6.5933305087
 20
6.995177496
 10
6.5902014591
 20
6.9573307825
 10
6.589918765
 20
6.9176779534
 10
6.5924843575
 20
6.8764898779
 10
6.5978807111
 20
6.8340479121
 10
6.606070963
 20
6.7906419777
 10
6.6169991657
 20
6.7465685814
 10
6.6305906685
 20
6.702128789
 10
6.6467526274
 20
6.6576261694
 10
6.6653746401
 20
6.6133647207
 10
6.6863294993
 20
6.5696467934
 10
6.7094740619
 20
6.5267710252
 10
6.7346502273
 20
6.4850303013
 10
6.7616860167
 20
6.4447097529
 10
6.7903967481
 20
6.4060848104
 10
6.8205862983
 20
6.3694193213
 10
6.8520484419
 20
6.3349637481
 10
6.8845682607
 20
6.3029534572
 10
6.9179236112
 20
6.2736071113
 10
6.9518866426
 20
6.2471251759
 10
6.9862253531
 20
6.2236885494
 10
7.0207051742
 20
6.2034573276
 10
7.055090574
 20
6.1865697104
 10
7.0891466653
 20
6.1731410573
 10
7.1226408104
 20
6.1632630996
 10
7.1553442104
 20
6.1570033137
 10
7.1870334679
 20
6.1544044605
 10
7.217492113
 20
6.1554842926
 10
7.2465120825
 20
6.1602354337
 10
7.2738951405
 20
6.1686254287
 10
7.2994542328
 20
6.1805969655
 10
7.3230147651
 20
6.1960682663
 10
7.3444157949
 20
6.2149336464
 10
7.3635111316
 20
6.2370642362
 10
7.3801703347
 20
6.2623088612
 10
7.3942796048
 20
6.2904950752
 10
7.4057425613
 20
6.3214303376
 10
7.4144809007
 20
6.3549033293
 10
7.4204349313
 20
6.3906853957
 10
7.4235639809
 20
6.4285321092
 10
7.423846675
 20
6.4681849383
 10
7.4212810824
 20
6.5093730138
  0
LWPOLYLINE
  5
FC
330
1F
100
AcDbEntity
  8
0
  6
Continuous
 62
     7
370
     0
100
AcDbPolyline
 90
       22
 70
   128
 43
0.0
 10
7.4353758513
 20
6.5103438945
 10
7.4379849284
 20
6.468457716
 10
7.4376974429
 20
6.4281328051
 10
7.4345153586
 20
6.3896446219
 10
7.4284604123
 20
6.3532560797
 10
7.4195739654
 20
6.3192157492
 10
7.4079167215
 20
6.2877561603
 10
7.3935683112
 20
6.2590922139
 10
7.3766267488
 20
6.2334197138
 10
7.3572077623
 20
6.2109140293
 10
7.3354440032
 20
6.191728897
 10
7.3114841398
 20
6.1759953708
 10
7.2854918425
 20
6.1638209266
 10
7.2576446649
 20
6.1552887283
 10
7.2281328316
 20
6.1504570593
 10
7.1971579382
 20
6.149358925
 10
7.1649315747
 20
6.1520018266
 10
7.1316738798
 20
6.1583677105
 10
7.0976120373
 20
6.1684130912
 10
7.0629787241
 20
6.1820693486
 10
7.0280105209
 20
6.1992431967
 10
7.0138848329
 20
6.2071288125
  0
LWPOLYLINE
  5
FD
330
1F
100
AcDbEntity
  8
0
  6
Continuous
 62
     7
370
     0
100
AcDbPolyline
 90
       38
 70
   128
 43
0.0
 10
6.5896897191
 20
6.94193592
 10
6.5902101326
 20
6.9658941677
 10
6.593392217
 20
7.0043823509
 10
6.5994471633
 20
7.0407708931
 10
6.6083336101
 20
7.0748112236
 10
6.6199908541
 20
7.1062708125
 10
6.6343392644
 20
7.1349347589
 10
6.6512808268
 20
7.160607259
 10
6.6706998132
 20
7.1831129435
 10
6.6924635724
 20
7.2022980758
 10
6.7164234357
 20
7.218031602
 10
6.742415733
 20
7.2302060462
 10
6.7702629106
 20
7.2387382445
 10
6.799774744
 20
7.2435699135
 10
6.8307496374
 20
7.2446680478
 10
6.8629760009
 20
7.2420251462
 10
6.8962336958
 20
7.2356592623
 10
6.9302955383
 20
7.2256138816
 10
6.9649288514
 20
7.2119576242
 10
6.9998970546
 20
7.1947837761
 10
7.0349612796
 20
7.1742096523
 10
7.069882002
 20
7.1503757948
 10
7.1044206781
 20
7.123445013
 10
7.1383413735
 20
7.0936012715
 10
7.1714123756
 20
7.0610484333
 10
7.2034077759
 20
7.0260088673
 10
7.2341090134
 20
6.9887219292
 10
7.2633063674
 20
6.9494423267
 10
7.2908003905
 20
6.9084383792
 10
7.3164032705
 20
6.8659901853
 10
7.3399401139
 20
6.8223877093
 10
7.3612501402
 20
6.7779288001
 10
7.3801877802
 20
6.7329171574
 10
7.3966236707
 20
6.6876602561
 10
7.4104455378
 20
6.6424672469
 10
7.4215589643
 20
6.5976468438
 10
7.4298880341
 20
6.5535052157
 10
7.4353758513
 20
6.5103438945
  0
SPLINE
  5
FE
330
1F
100
AcDbEntity
  8
0
  6
Continuous
 62
     7
370
     0
100
AcDbSpline
210
0.0
220
0.0
230
1.0
 70
     8
 71
     3
 72
     9
 73
     5
 74
     0
 42
0.00000001
 43
0.00000001
 40
0.0
 40
0.0
 40
0.0
 40
0.0
 40
0.4984905201624185
 40
0.9999999999999999
 40
0.9999999999999999
 40
0.9999999999999999
 40
0.9999999999999999
 10
7.386044996397647
 20
6.219336572477091
 30
0.0
 10
7.387243902798134
 20
6.219993107284161
 30
0.0
 10
7.389648976419387
 20
6.221310153006227
 30
0.0
 10
7.393421349636986
 20
6.223488020547634
 30
0.0
 10
7.395313230567098
 20
6.22458024176548
 30
0.0
  0
SPLINE
  5
FF
330
1F
100
AcDbEntity
  8
0
  6
Continuous
 62
     7
370
     0
100
AcDbSpline
210
0.0
220
0.0
230
1.0
 70
     8
 71
     3
 72
    12
 73
     8
 74
     0
 42
0.00000001
 43
0.00000001
 40
0.0
 40
0.0
 40
0.0
 40
0.0
 40
0.2500808187976291
 40
0.4998836754263801
 40
0.7495855296912383
 40
0.8747593581821795
 40
1.0
 40
1.0
 40
1.0
 40
1.0
 10
7.38747829576349
 20
6.220767998802319
 30
0.0
 10
7.38692622685647
 20
6.22037723125903
 30
0.0
 10
7.385822702661146
 20
6.219596130506416
 30
0.0
 10
7.385024632057294
 20
6.218962599570751
 30
0.0
 10
7.385040308223353
 20
6.218861770030212
 30
0.0
 10
7.385501552856747
 20
6.21906210191351
 30
0.0
 10
7.385863816332058
 20
6.219245066016953
 30
0.0
 10
7.386044996397647
 20
6.219336572477091
 30
0.0
  0
ARC
  5
100
330
1F
100
AcDbEntity
  8
0
  6
Continuous
 62
     7
370
     0
100
AcDbCircle
 10
7.5262457718
 20
6.0218527196
 30
0.0
 40
0.2425359781802483
100
AcDbArc
 50
122.1505279002
 51
124.9004369316
  0
SPLINE
  5
101
330
1F
100
AcDbEntity
  8
0
  6
Continuous
 62
     7
370
     0
100
AcDbSpline
210
0.0
220
0.0
230
1.0
 70
    24
 71
     1
 72
     4
 73
     2
 74
     0
 42
0.00000001
 43
0.00000001
 40
0.0
 40
0.0
 40
1.0
 40
1.0
 10
7.402122266908989
 20
6.230248747974736
 30
0.0
 10
7.397181359072066
 20
6.227196524160366
 30
0.0
  0
SPLINE
  5
102
330
1F
100
AcDbEntity
  8
0
  6
Continuous
 62
     7
370
     0
100
AcDbSpline
210
0.0
220
0.0
230
1.0
 70
    24
 71
     1
 72
     4
 73
     2
 74
     0
 42
0.00000001
 43
0.00000001
 40
0.0
 40
0.0
 40
1.0
 40
1.0
 10
7.408478786352252
 20
6.236264365900933
 30
0.0
 10
7.402122266908989
 20
6.230248747974736
 30
0.0
  0
ARC
  5
103
330
1F
100
AcDbEntity
  8
0
  6
Continuous
 62
     7
370
     0
100
AcDbCircle
 10
7.7762134042
 20
5.6551203748
 30
0.0
 40
0.687718756200798
100
AcDbArc
 50
122.3246922719
 51
125.7995516347
  0
SPLINE
  5
104
330
1F
100
AcDbEntity
  8
0
  6
Continuous
 62
     7
370
     0
100
AcDbSpline
210
0.0
220
0.0
230
1.0
 70
     8
 71
     3
 72
    12
 73
     8
 74
     0
 42
0.00000001
 43
0.00000001
 40
0.0
 40
0.0
 40
0.0
 40
0.0
 40
0.2500556402476556
 40
0.4992905034114747
 40
0.6221977203195659
 40
0.7497124650525797
 40
1.0
 40
1.0
 40
1.0
 40
1.0
 10
7.429553113871623
 20
6.248564769971765
 30
0.0
 10
7.43185005940922
 20
6.249731974913725
 30
0.0
 10
7.43643641104136
 20
6.252062553590047
 30
0.0
 10
7.439055553188999
 20
6.252746084076906
 30
0.0
 10
7.438872048279396
 20
6.251914484226378
 30
0.0
 10
7.437226689877989
 20
6.25023614459201
 30
0.0
 10
7.434434241514946
 20
6.248195914443897
 30
0.0
 10
7.43258429233559
 20
6.246844296939288
 30
0.0
  0
SPLINE
  5
105
330
1F
100
AcDbEntity
  8
0
  6
Continuous
 62
     7
370
     0
100
AcDbSpline
210
0.0
220
0.0
230
1.0
 70
    24
 71
     1
 72
     4
 73
     2
 74
     0
 42
0.00000001
 43
0.00000001
 40
0.0
 40
0.0
 40
1.0
 40
1.0
 10
7.415090037629134
 20
6.237825908073508
 30
0.0
 10
7.429553113871623
 20
6.248564769971765
 30
0.0
  0
SPLINE
  5
106
330
1F
100
AcDbEntity
  8
0
  6
Continuous
 62
     7
370
     0
100
AcDbSpline
210
0.0
220
0.0
230
1.0
 70
     8
 71
     3
 72
    12
 73
     8
 74
     0
 42
0.00000001
 43
0.00000001
 40
0.0
 40
0.0
 40
0.0
 40
0.0
 40
0.249605140086729
 40
0.3732159072110537
 40
0.4996200303287934
 40
0.7495073398936943
 40
1.0
 40
1.0
 40
1.0
 40
1.0
 10
7.418691559100555
 20
6.238740194171491
 30
0.0
 10
7.419572760874249
 20
6.239375839877796
 30
0.0
 10
7.420890356013881
 20
6.240326273385939
 30
0.0
 10
7.421285497151339
 20
6.240825201438674
 30
0.0
 10
7.420683677002954
 20
6.240710448746408
 30
0.0
 10
7.418600180833308
 20
6.239718921922135
 30
0.0
 10
7.416261028651711
 20
6.238457421403139
 30
0.0
 10
7.415090037629134
 20
6.237825908073508
 30
0.0
  0
ARC
  5
107
330
1F
100
AcDbEntity
  8
0
  6
Continuous
 62
     7
370
     0
100
AcDbCircle
 10
7.2113063258
 20
6.5547578431
 30
0.0
 40
0.3779891393257439
100
AcDbArc
 50
299.1307818874
 51
303.2747170509
  0
LINE
  5
108
330
1F
100
AcDbEntity
  8
0
  6
Continuous
 62
     7
370
     0
100
AcDbLine
 10
8.1649714073
 20
7.8405867246
 30
0.0
 11
8.177460566
 21
7.8477965625
 31
0.0
  0
ARC
  5
109
330
1F
100
AcDbEntity
  8
0
  6
Continuous
 62
     7
370
     0
100
AcDbCircle
 10
7.8410669046
 20
7.3041418134
 30
0.0
 40
0.6266476439730182
100
AcDbArc
 50
54.3020111033
 51
58.8764938353
  0
LINE
  5
10A
330
1F
100
AcDbEntity
  8
0
  6
Continuous
 62
     7
370
     0
100
AcDbLine
 10
8.2192129261
 20
7.8202547151
 30
0.0
 11
8.2067237674
 21
7.8130448772
 31
0.0
  0
ARC
  5
10B
330
1F
100
AcDbEntity
  8
0
  6
Continuous
 62
     7
370
     0
100
AcDbCircle
 10
7.8535560633
 20
7.3113516512
 30
0.0
 40
0.626647643974148
100
AcDbArc
 50
54.3020111033
 51
58.8764938353
  0
ARC
  5
10C
330
1F
100
AcDbEntity
  8
0
  6
Continuous
 62
     7
370
     0
100
AcDbCircle
 10
8.1168342488
 20
7.8385636849
 30
0.0
 40
0.0136930515852759
100
AcDbArc
 50
59.0652470622
 51
113.6106237006
  0
SPLINE
  5
10D
330
1F
100
AcDbEntity
  8
0
  6
Continuous
 62
     7
370
     0
100
AcDbSpline
210
0.0
220
0.0
230
1.0
 70
    24
 71
     1
 72
     4
 73
     2
 74
     0
 42
0.00000001
 43
0.00000001
 40
0.0
 40
0.0
 40
1.0
 40
1.0
 10
8.125811168305109
 20
7.849126168046263
 30
0.0
 10
8.123873321108245
 20
7.8503089444989
 30
0.0
  0
SPLINE
  5
10E
330
1F
100
AcDbEntity
  8
0
  6
Continuous
 62
     7
370
     0
100
AcDbSpline
210
0.0
220
0.0
230
1.0
 70
    24
 71
     1
 72
     4
 73
     2
 74
     0
 42
0.00000001
 43
0.00000001
 40
0.0
 40
0.0
 40
1.0
 40
1.0
 10
8.138643997150819
 20
7.85563321763185
 30
0.0
 10
8.125811168305109
 20
7.849126168046263
 30
0.0
  0
SPLINE
  5
10F
330
1F
100
AcDbEntity
  8
0
  6
Continuous
 62
     7
370
     0
100
AcDbSpline
210
0.0
220
0.0
230
1.0
 70
    24
 71
     1
 72
     4
 73
     2
 74
     0
 42
0.00000001
 43
0.00000001
 40
0.0
 40
0.0
 40
1.0
 40
1.0
 10
8.132462686760572
 20
7.857932640969056
 30
0.0
 10
8.138643997150819
 20
7.85563321763185
 30
0.0
  0
SPLINE
  5
110
330
1F
100
AcDbEntity
  8
0
  6
Continuous
 62
     7
370
     0
100
AcDbSpline
210
0.0
220
0.0
230
1.0
 70
     8
 71
     3
 72
    13
 73
     9
 74
     0
 42
0.00000001
 43
0.00000001
 40
0.0
 40
0.0
 40
0.0
 40
0.0
 40
0.2497052322949801
 40
0.3757637578435062
 40
0.4998603526084915
 40
0.6227837955320412
 40
0.7501230108900587
 40
1.0
 40
1.0
 40
1.0
 40
1.0
 10
8.132202633460896
 20
7.866302230659766
 30
0.0
 10
8.131231000122371
 20
7.865665358613996
 30
0.0
 10
8.129768857774874
 20
7.864706974878964
 30
0.0
 10
8.128805201077057
 20
7.863164473027572
 30
0.0
 10
8.128610054449405
 20
7.861978989483069
 30
0.0
 10
8.128944186208642
 20
7.860817078962213
 30
0.0
 10
8.130016890546921
 20
7.859366969029883
 30
0.0
 10
8.131488113602863
 20
7.858504175759905
 30
0.0
 10
8.132462686760572
 20
7.857932640969056
 30
0.0
  0
ARC
  5
111
330
1F
100
AcDbEntity
  8
0
  6
Continuous
 62
     7
370
     0
100
AcDbCircle
 10
8.1405627232
 20
7.8515332832
 30
0.0
 40
0.0169709430884529
100
AcDbArc
 50
64.5907947978
 51
119.5124038598
  0
SPLINE
  5
112
330
1F
100
AcDbEntity
  8
0
  6
Continuous
 62
     7
370
     0
100
AcDbSpline
210
0.0
220
0.0
230
1.0
 70
     8
 71
     3
 72
    13
 73
     9
 74
     0
 42
0.00000001
 43
0.00000001
 40
0.0
 40
0.0
 40
0.0
 40
0.0
 40
0.2501415719053088
 40
0.3843129849631256
 40
0.50028248926375
 40
0.6227694433903387
 40
0.7504075187779008
 40
0.9999999999999999
 40
0.9999999999999999
 40
0.9999999999999999
 40
0.9999999999999999
 10
8.148812376924848
 20
7.858238373279559
 30
0.0
 10
8.149523561624559
 20
7.858953619633833
 30
0.0
 10
8.150616212928874
 20
7.860052511190727
 30
0.0
 10
8.151443012387746
 20
7.861613882544881
 30
0.0
 10
8.151638373939798
 20
7.86281356590378
 30
0.0
 10
8.151286094677127
 20
7.863964095785582
 30
0.0
 10
8.150243951222695
 20
7.865433694731332
 30
0.0
 10
8.148800001233106
 20
7.866293608317659
 30
0.0
 10
8.147844619824184
 20
7.866862565317264
 30
0.0
  0
SPLINE
  5
113
330
1F
100
AcDbEntity
  8
0
  6
Continuous
 62
     7
370
     0
100
AcDbSpline
210
0.0
220
0.0
230
1.0
 70
    24
 71
     1
 72
     4
 73
     2
 74
     0
 42
0.00000001
 43
0.00000001
 40
0.0
 40
0.0
 40
1.0
 40
1.0
 10
8.166062648992545
 20
7.850661242580524
 30
0.0
 10
8.148812376924848
 20
7.858238373279559
 30
0.0
  0
SPLINE
  5
114
330
1F
100
AcDbEntity
  8
0
  6
Continuous
 62
     7
370
     0
100
AcDbSpline
210
0.0
220
0.0
230
1.0
 70
     8
 71
     3
 72
    12
 73
     8
 74
     0
 42
0.00000001
 43
0.00000001
 40
0.0
 40
0.0
 40
0.0
 40
0.0
 40
0.2504808463209312
 40
0.4996637882952233
 40
0.6228176769711564
 40
0.7500185303841506
 40
1.0
 40
1.0
 40
1.0
 40
1.0
 10
8.15854351441796
 20
7.873389600498935
 30
0.0
 10
8.161143720853506
 20
7.871960909398428
 30
0.0
 10
8.166330660362119
 20
7.869110930176191
 30
0.0
 10
8.17038136226657
 20
7.864226039292757
 30
0.0
 10
8.171111419879173
 20
7.859946182885765
 30
0.0
 10
8.170219183842496
 20
7.855610074453308
 30
0.0
 10
8.167719403898499
 20
7.852633799477062
 30
0.0
 10
8.166062648992545
 20
7.850661242580524
 30
0.0
  0
ARC
  5
115
330
1F
100
AcDbEntity
  8
0
  6
Continuous
 62
     7
370
     0
100
AcDbCircle
 10
8.1375364383
 20
7.8340648653
 30
0.0
 40
0.044583988635477
100
AcDbArc
 50
61.8890909428
 51
118.3305739071
  0
SPLINE
  5
116
330
1F
100
AcDbEntity
  8
0
  6
Continuous
 62
     7
370
     0
100
AcDbSpline
210
0.0
220
0.0
230
1.0
 70
     8
 71
     3
 72
    12
 73
     8
 74
     0
 42
0.00000001
 43
0.00000001
 40
0.0
 40
0.0
 40
0.0
 40
0.0
 40
0.2497954480615784
 40
0.4995321808026748
 40
0.7494846482107729
 40
0.8747133485809506
 40
1.0
 40
1.0
 40
1.0
 40
1.0
 10
8.110575114078214
 20
7.863975930069578
 30
0.0
 10
8.110366769098848
 20
7.864788927941216
 30
0.0
 10
8.109950128112352
 20
7.866414732586412
 30
0.0
 10
8.110959652075145
 20
7.868930850693578
 30
0.0
 10
8.112790662973449
 20
7.870885243679846
 30
0.0
 10
8.114726290627628
 20
7.872313751897936
 30
0.0
 10
8.115827845803818
 20
7.872977048277017
 30
0.0
 10
8.116378750801825
 20
7.873308773185848
 30
0.0
  0
SPLINE
  5
117
330
1F
100
AcDbEntity
  8
0
  6
Continuous
 62
     7
370
     0
100
AcDbSpline
210
0.0
220
0.0
230
1.0
 70
    24
 71
     1
 72
     4
 73
     2
 74
     0
 42
0.00000001
 43
0.00000001
 40
0.0
 40
0.0
 40
1.0
 40
1.0
 10
8.11351749292863
 20
7.860550378286998
 30
0.0
 10
8.110575114078214
 20
7.863975930069578
 30
0.0
  0
ARC
  5
118
330
1F
100
AcDbEntity
  8
0
  6
Continuous
 62
     7
370
     0
100
AcDbCircle
 10
8.108833441
 20
7.8274208823
 30
0.0
 40
0.0334589875601123
100
AcDbArc
 50
81.9525105652
 51
115.4397252695
  0
SPLINE
  5
119
330
1F
100
AcDbEntity
  8
0
  6
Continuous
 62
     7
370
     0
100
AcDbSpline
210
0.0
220
0.0
230
1.0
 70
     8
 71
     3
 72
    13
 73
     9
 74
     0
 42
0.00000001
 43
0.00000001
 40
0.0
 40
0.0
 40
0.0
 40
0.0
 40
0.2504883842035435
 40
0.5001800141162622
 40
0.6251581803520864
 40
0.7501586530200522
 40
0.8750261463238751
 40
1.0
 40
1.0
 40
1.0
 40
1.0
 10
8.101629045063092
 20
7.839304851553689
 30
0.0
 10
8.099336984089074
 20
7.840558612210447
 30
0.0
 10
8.094760152736262
 20
7.843062145557872
 30
0.0
 10
8.090440821833983
 20
7.846780466594704
 30
0.0
 10
8.089139588062842
 20
7.850196503536897
 30
0.0
 10
8.089476354107703
 20
7.852848275561855
 30
0.0
 10
8.091144439914354
 20
7.85546262729051
 30
0.0
 10
8.093355001790822
 20
7.856911076058368
 30
0.0
 10
8.09446075326003
 20
7.857635608753054
 30
0.0
  0
ARC
  5
11A
330
1F
100
AcDbEntity
  8
0
  6
Continuous
 62
     7
370
     0
100
AcDbCircle
 10
8.1240844071
 20
7.8792200745
 30
0.0
 40
0.0457981256234517
100
AcDbArc
 50
240.6389217693
 51
289.1828042859
  0
SPLINE
  5
11B
330
1F
100
AcDbEntity
  8
0
  6
Continuous
 62
     7
370
     0
100
AcDbSpline
210
0.0
220
0.0
230
1.0
 70
    24
 71
     1
 72
     4
 73
     2
 74
     0
 42
0.00000001
 43
0.00000001
 40
0.0
 40
0.0
 40
1.0
 40
1.0
 10
8.126038464043118
 20
7.845909786809722
 30
0.0
 10
8.139132901945727
 20
7.835964888579002
 30
0.0
  0
ARC
  5
11C
330
1F
100
AcDbEntity
  8
0
  6
Continuous
 62
     7
370
     0
100
AcDbCircle
 10
8.1190965161
 20
7.8593586968
 30
0.0
 40
0.0151348544703286
100
AcDbArc
 50
244.8332422786
 51
297.3015066576
  0
SPLINE
  5
11D
330
1F
100
AcDbEntity
  8
0
  6
Continuous
 62
     7
370
     0
100
AcDbSpline
210
0.0
220
0.0
230
1.0
 70
     8
 71
     3
 72
    13
 73
     9
 74
     0
 42
0.00000001
 43
0.00000001
 40
0.0
 40
0.0
 40
0.0
 40
0.0
 40
0.1251991584233637
 40
0.2501552769131941
 40
0.3738193147890019
 40
0.5002363381763468
 40
0.7496760703868752
 40
1.0
 40
1.0
 40
1.0
 40
1.0
 10
8.111349922377562
 20
7.851110470338727
 30
0.0
 10
8.111027096633913
 20
7.850906185567735
 30
0.0
 10
8.110382071824528
 20
7.850498012588774
 30
0.0
 10
8.10979289635278
 20
7.849760053029216
 30
0.0
 10
8.109552570584201
 20
7.848980074569644
 30
0.0
 10
8.109751039748073
 20
7.847951053309667
 30
0.0
 10
8.110723637164872
 20
7.846761084884513
 30
0.0
 10
8.112014021343628
 20
7.846027817081832
 30
0.0
 10
8.1126603549269
 20
7.845660534520399
 30
0.0
  0
LINE
  5
11E
330
1F
100
AcDbEntity
  8
0
  6
Continuous
 62
     7
370
     0
100
AcDbLine
 10
8.039422829
 20
7.8979187414
 30
0.0
 11
8.0601309561
 21
7.9098732887
 31
0.0
  0
ARC
  5
11F
330
1F
100
AcDbEntity
  8
0
  6
Continuous
 62
     7
370
     0
100
AcDbCircle
 10
8.027230417
 20
7.915717694
 30
0.0
 40
0.0215744669290234
100
AcDbArc
 50
262.7209331881
 51
304.4114268405
  0
SPLINE
  5
120
330
1F
100
AcDbEntity
  8
0
  6
Continuous
 62
     7
370
     0
100
AcDbSpline
210
0.0
220
0.0
230
1.0
 70
     8
 71
     3
 72
    11
 73
     7
 74
     0
 42
0.00000001
 43
0.00000001
 40
0.0
 40
0.0
 40
0.0
 40
0.0
 40
0.2500620333659355
 40
0.499913837696686
 40
0.7498401673007717
 40
0.9999999999999999
 40
0.9999999999999999
 40
0.9999999999999999
 40
0.9999999999999999
 10
8.023225720197388
 20
7.897251165867801
 30
0.0
 10
8.022951185676716
 20
7.896928329898554
 30
0.0
 10
8.02240234743861
 20
7.896282929370689
 30
0.0
 10
8.022407936416645
 20
7.895409191376444
 30
0.0
 10
8.023079964867968
 20
7.894706331506317
 30
0.0
 10
8.024024430915041
 20
7.894446884228913
 30
0.0
 10
8.024496884436328
 20
7.894317100018906
 30
0.0
  0
SPLINE
  5
121
330
1F
100
AcDbEntity
  8
0
  6
Continuous
 62
     7
370
     0
100
AcDbSpline
210
0.0
220
0.0
230
1.0
 70
    24
 71
     1
 72
     4
 73
     2
 74
     0
 42
0.00000001
 43
0.00000001
 40
0.0
 40
0.0
 40
1.0
 40
1.0
 10
8.026559010762703
 20
7.899413076522426
 30
0.0
 10
8.023225720197388
 20
7.897251165867801
 30
0.0
  0
LINE
  5
122
330
1F
100
AcDbEntity
  8
0
  6
Continuous
 62
     7
370
     0
100
AcDbLine
 10
8.0489086358
 20
7.9123152404
 30
0.0
 11
8.0265590108
 21
7.8994130765
 31
0.0
  0
ARC
  5
123
330
1F
100
AcDbEntity
  8
0
  6
Continuous
 62
     7
370
     0
100
AcDbCircle
 10
7.9852196038
 20
7.5942135766
 30
0.0
 40
0.3244147982584693
100
AcDbArc
 50
78.6781699836
 51
81.2922582539
  0
LINE
  5
124
330
1F
100
AcDbEntity
  8
0
  6
Continuous
 62
     7
370
     0
100
AcDbLine
 10
8.0133390797
 20
7.9027687735
 30
0.0
 11
8.0343341821
 21
7.9148889881
 31
0.0
  0
ARC
  5
125
330
1F
100
AcDbEntity
  8
0
  6
Continuous
 62
     7
370
     0
100
AcDbCircle
 10
8.0001992837
 20
7.922268161
 30
0.0
 40
0.0235134078902328
100
AcDbArc
 50
266.7779194495
 51
303.9743303221
  0
SPLINE
  5
126
330
1F
100
AcDbEntity
  8
0
  6
Continuous
 62
     7
370
     0
100
AcDbSpline
210
0.0
220
0.0
230
1.0
 70
     8
 71
     3
 72
    10
 73
     6
 74
     0
 42
0.00000001
 43
0.00000001
 40
0.0
 40
0.0
 40
0.0
 40
0.0
 40
0.4988226573032922
 40
0.749170001575221
 40
0.9999999999999999
 40
0.9999999999999999
 40
0.9999999999999999
 40
0.9999999999999999
 10
7.997140541579367
 20
7.900497385178666
 30
0.0
 10
7.99707467214059
 20
7.900096076879328
 30
0.0
 10
7.996975744381736
 20
7.899493361395487
 30
0.0
 10
7.997840953703431
 20
7.898987614835182
 30
0.0
 10
7.99853188448578
 20
7.89885719587162
 30
0.0
 10
7.998877682574167
 20
7.898791923590457
 30
0.0
  0
SPLINE
  5
127
330
1F
100
AcDbEntity
  8
0
  6
Continuous
 62
     7
370
     0
100
AcDbSpline
210
0.0
220
0.0
230
1.0
 70
     8
 71
     3
 72
     9
 73
     5
 74
     0
 42
0.00000001
 43
0.00000001
 40
0.0
 40
0.0
 40
0.0
 40
0.0
 40
0.5015771373280745
 40
1.0
 40
1.0
 40
1.0
 40
1.0
 10
8.000182578904376
 20
7.902987730448544
 30
0.0
 10
7.999462344236421
 20
7.902562618533666
 30
0.0
 10
7.998026404249621
 20
7.901715068110725
 30
0.0
 10
7.997435207537182
 20
7.900902425056222
 30
0.0
 10
7.997140541579367
 20
7.900497385178666
 30
0.0
  0
LINE
  5
128
330
1F
100
AcDbEntity
  8
0
  6
Continuous
 62
     7
370
     0
100
AcDbLine
 10
8.0233586924
 20
7.916367016
 30
0.0
 11
8.0001825789
 21
7.9029877304
 31
0.0
  0
ARC
  5
129
330
1F
100
AcDbEntity
  8
0
  6
Continuous
 62
     7
370
     0
100
AcDbCircle
 10
7.9896436709
 20
7.6268813126
 30
0.0
 40
0.2914424045443125
100
AcDbArc
 50
83.3569612218
 51
86.1646846866
  0
LINE
  5
12A
330
1F
100
AcDbEntity
  8
0
  6
Continuous
 62
     7
370
     0
100
AcDbLine
 10
7.9834134802
 20
7.9028206008
 30
0.0
 11
8.0091379331
 21
7.9176710113
 31
0.0
  0
SPLINE
  5
12B
330
1F
100
AcDbEntity
  8
0
  6
Continuous
 62
     7
370
     0
100
AcDbSpline
210
0.0
220
0.0
230
1.0
 70
     8
 71
     3
 72
    13
 73
     9
 74
     0
 42
0.00000001
 43
0.00000001
 40
0.0
 40
0.0
 40
0.0
 40
0.0
 40
0.2493551011003633
 40
0.3758643206382274
 40
0.4994912623309221
 40
0.6184449072830256
 40
0.749784392502059
 40
1.0
 40
1.0
 40
1.0
 40
1.0
 10
7.980268713506703
 20
7.892331501204795
 30
0.0
 10
7.978518178660101
 20
7.89262323610027
 30
0.0
 10
7.975879517618202
 20
7.893062981418532
 30
0.0
 10
7.974485985795949
 20
7.89448760370091
 30
0.0
 10
7.974526747541328
 20
7.895851483646259
 30
0.0
 10
7.975699088154155
 20
7.897479881188974
 30
0.0
 10
7.978449387688836
 20
7.899820630360061
 30
0.0
 10
7.98144742919673
 20
7.901632449094098
 30
0.0
 10
7.983413480211433
 20
7.902820600776166
 30
0.0
  0
ARC
  5
12C
330
1F
100
AcDbEntity
  8
0
  6
Continuous
 62
     7
370
     0
100
AcDbCircle
 10
7.9850605401
 20
7.9428181724
 30
0.0
 40
0.0507135640034076
100
AcDbArc
 50
264.5781443236
 51
288.0175292642
  0
SPLINE
  5
12D
330
1F
100
AcDbEntity
  8
0
  6
Continuous
 62
     7
370
     0
100
AcDbSpline
210
0.0
220
0.0
230
1.0
 70
     8
 71
     3
 72
    12
 73
     8
 74
     0
 42
0.00000001
 43
0.00000001
 40
0.0
 40
0.0
 40
0.0
 40
0.0
 40
0.2503533688407809
 40
0.4999961943216279
 40
0.7494886161542182
 40
0.8747044873187614
 40
0.9999999999999999
 40
0.9999999999999999
 40
0.9999999999999999
 40
0.9999999999999999
 10
8.005582873618756
 20
7.888427769740297
 30
0.0
 10
8.004422576575934
 20
7.888689145585809
 30
0.0
 10
8.002105275600993
 20
7.889211155449898
 30
0.0
 10
7.999739444827207
 20
7.890500573971488
 30
0.0
 10
7.999457825807975
 20
7.892092483526571
 30
0.0
 10
7.999967675443321
 20
7.893488659751549
 30
0.0
 10
8.000486935873942
 20
7.89422381116107
 30
0.0
 10
8.000746648629793
 20
7.894591503723939
 30
0.0
  0
ARC
  5
12E
330
1F
100
AcDbEntity
  8
0
  6
Continuous
 62
     7
370
     0
100
AcDbCircle
 10
8.0135402324
 20
7.9343752658
 30
0.0
 40
0.0466314480723686
100
AcDbArc
 50
260.1747577797
 51
285.901555643
  0
LINE
  5
12F
330
1F
100
AcDbEntity
  8
0
  6
Continuous
 62
     7
370
     0
100
AcDbLine
 10
8.0200031118
 20
7.8858835436
 30
0.0
 11
8.0263165652
 21
7.8895282227
 31
0.0
  0
ARC
  5
130
330
1F
100
AcDbEntity
  8
0
  6
Continuous
 62
     7
370
     0
100
AcDbCircle
 10
7.9358146375
 20
7.5327463137
 30
0.0
 40
0.3630338860043322
100
AcDbArc
 50
74.3316756744
 51
76.590892822
  0
LINE
  5
131
330
1F
100
AcDbEntity
  8
0
  6
Continuous
 62
     7
370
     0
100
AcDbLine
 10
8.0749992985
 20
7.90604035
 30
0.0
 11
8.0338585403
 21
7.8822902959
 31
0.0
  0
ARC
  5
132
330
1F
100
AcDbEntity
  8
0
  6
Continuous
 62
     7
370
     0
100
AcDbCircle
 10
7.9771560208
 20
7.5572510922
 30
0.0
 40
0.3622530239805595
100
AcDbArc
 50
74.3299901327
 51
76.7587092494
  0
SPLINE
  5
133
330
1F
100
AcDbEntity
  8
0
  6
Continuous
 62
     7
370
     0
100
AcDbSpline
210
0.0
220
0.0
230
1.0
 70
    24
 71
     1
 72
     4
 73
     2
 74
     0
 42
0.00000001
 43
0.00000001
 40
0.0
 40
0.0
 40
1.0
 40
1.0
 10
7.614660524066329
 20
7.127689532991283
 30
0.0
 10
7.621563738031023
 20
7.118989997100486
 30
0.0
  0
SPLINE
  5
134
330
1F
100
AcDbEntity
  8
0
  6
Continuous
 62
     7
370
     0
100
AcDbSpline
210
0.0
220
0.0
230
1.0
 70
    24
 71
     1
 72
     4
 73
     2
 74
     0
 42
0.00000001
 43
0.00000001
 40
0.0
 40
0.0
 40
1.0
 40
1.0
 10
7.607507567465528
 20
7.134285617339095
 30
0.0
 10
7.614660524066329
 20
7.127689532991283
 30
0.0
  0
ARC
  5
135
330
1F
100
AcDbEntity
  8
0
  6
Continuous
 62
     7
370
     0
100
AcDbCircle
 10
7.5968467231
 20
7.1175427617
 30
0.0
 40
0.0198488492854078
100
AcDbArc
 50
57.5134655877
 51
117.8228970324
  0
SPLINE
  5
136
330
1F
100
AcDbEntity
  8
0
  6
Continuous
 62
     7
370
     0
100
AcDbSpline
210
0.0
220
0.0
230
1.0
 70
     8
 71
     3
 72
    12
 73
     8
 74
     0
 42
0.00000001
 43
0.00000001
 40
0.0
 40
0.0
 40
0.0
 40
0.0
 40
0.2503638791653596
 40
0.4997444809982528
 40
0.6245272986098372
 40
0.7501926945850556
 40
0.9999999999999999
 40
0.9999999999999999
 40
0.9999999999999999
 40
0.9999999999999999
 10
7.583143423530023
 20
7.11243417892238
 30
0.0
 10
7.582299137830728
 20
7.114650316161661
 30
0.0
 10
7.580613882273834
 20
7.119073886998466
 30
0.0
 10
7.580267056176331
 20
7.124757534730656
 30
0.0
 10
7.581460537122168
 20
7.128719318894692
 30
0.0
 10
7.58347733150103
 20
7.132220139181288
 30
0.0
 10
7.585942414466458
 20
7.133947642714964
 30
0.0
 10
7.587582469072125
 20
7.135096975279607
 30
0.0
  0
SPLINE
  5
137
330
1F
100
AcDbEntity
  8
0
  6
Continuous
 62
     7
370
     0
100
AcDbSpline
210
0.0
220
0.0
230
1.0
 70
     8
 71
     3
 72
     9
 73
     5
 74
     0
 42
0.00000001
 43
0.00000001
 40
0.0
 40
0.0
 40
0.0
 40
0.0
 40
0.499331895696243
 40
1.0
 40
1.0
 40
1.0
 40
1.0
 10
7.574480739403436
 20
7.117595893004836
 30
0.0
 10
7.576033609345625
 20
7.116992472383023
 30
0.0
 10
7.579143504698942
 20
7.115784016390096
 30
0.0
 10
7.581808930064891
 20
7.113551785653593
 30
0.0
 10
7.583143423530023
 20
7.11243417892238
 30
0.0
  0
SPLINE
  5
138
330
1F
100
AcDbEntity
  8
0
  6
Continuous
 62
     7
370
     0
100
AcDbSpline
210
0.0
220
0.0
230
1.0
 70
     8
 71
     3
 72
     9
 73
     5
 74
     0
 42
0.00000001
 43
0.00000001
 40
0.0
 40
0.0
 40
0.0
 40
0.0
 40
0.5001300021535783
 40
1.0
 40
1.0
 40
1.0
 40
1.0
 10
7.563559824156908
 20
7.116485351326369
 30
0.0
 10
7.565211071343642
 20
7.117233305304469
 30
0.0
 10
7.568512707277548
 20
7.118728824419255
 30
0.0
 10
7.572491740216708
 20
7.117973471344625
 30
0.0
 10
7.574480739403436
 20
7.117595893004836
 30
0.0
  0
SPLINE
  5
139
330
1F
100
AcDbEntity
  8
0
  6
Continuous
 62
     7
370
     0
100
AcDbSpline
210
0.0
220
0.0
230
1.0
 70
     8
 71
     3
 72
    13
 73
     9
 74
     0
 42
0.00000001
 43
0.00000001
 40
0.0
 40
0.0
 40
0.0
 40
0.0
 40
0.2502329787225795
 40
0.4994066255425454
 40
0.625701360715376
 40
0.7496002874224745
 40
0.8740371171770318
 40
1.0
 40
1.0
 40
1.0
 40
1.0
 10
7.563182923405442
 20
7.08907138282066
 30
0.0
 10
7.561690352354703
 20
7.091507764225888
 30
0.0
 10
7.558711528877328
 20
7.096370212902039
 30
0.0
 10
7.557017662297069
 20
7.103154743983715
 30
0.0
 10
7.557430760055654
 20
7.108203212532059
 30
0.0
 10
7.558626168969341
 20
7.111620932082054
 30
0.0
 10
7.560647050583716
 20
7.114517567178314
 30
0.0
 10
7.562584962784461
 20
7.115826763658276
 30
0.0
 10
7.563559824156908
 20
7.116485351326369
 30
0.0
  0
ARC
  5
13A
330
1F
100
AcDbEntity
  8
0
  6
Continuous
 62
     7
370
     0
100
AcDbCircle
 10
6.7020595237
 20
6.5171105585
 30
0.0
 40
1.033766266633697
100
AcDbArc
 50
31.0550423772
 51
33.5922354521
  0
LINE
  5
13B
330
1F
100
AcDbEntity
  8
0
  6
Continuous
 62
     7
370
     0
100
AcDbLine
 10
7.6442268088
 20
7.0830468856
 30
0.0
 11
7.5876582663
 21
7.0503905611
 31
0.0
  0
ARC
  5
13C
330
1F
100
AcDbEntity
  8
0
  6
Continuous
 62
     7
370
     0
100
AcDbCircle
 10
6.7582613798
 20
6.5495389231
 30
0.0
 40
1.03419799240184
100
AcDbArc
 50
31.0553818499
 51
33.4096226995
  0
SPLINE
  5
13D
330
1F
100
AcDbEntity
  8
0
  6
Continuous
 62
     7
370
     0
100
AcDbSpline
210
0.0
220
0.0
230
1.0
 70
    24
 71
     1
 72
     4
 73
     2
 74
     0
 42
0.00000001
 43
0.00000001
 40
0.0
 40
0.0
 40
1.0
 40
1.0
 10
7.455015352362858
 20
7.224504900391271
 30
0.0
 10
7.491819656827569
 20
7.2770520723168
 30
0.0
  0
ARC
  5
13E
330
1F
100
AcDbEntity
  8
0
  6
Continuous
 62
     7
370
     0
100
AcDbCircle
 10
6.8074788265
 20
6.6016130552
 30
0.0
 40
0.8984975253489486
100
AcDbArc
 50
42.1796134581
 51
43.8886747633
  0
SPLINE
  5
13F
330
1F
100
AcDbEntity
  8
0
  6
Continuous
 62
     7
370
     0
100
AcDbSpline
210
0.0
220
0.0
230
1.0
 70
    24
 71
     1
 72
     4
 73
     2
 74
     0
 42
0.00000001
 43
0.00000001
 40
0.0
 40
0.0
 40
1.0
 40
1.0
 10
7.548520810937332
 20
7.216352603863493
 30
0.0
 10
7.473304627598504
 20
7.204915471673576
 30
0.0
  0
ARC
  5
140
330
1F
100
AcDbEntity
  8
0
  6
Continuous
 62
     7
370
     0
100
AcDbCircle
 10
6.8393407788
 20
6.611937389
 30
0.0
 40
0.9318015185183942
100
AcDbArc
 50
40.4400693253
 51
41.9416448743
  0
SPLINE
  5
141
330
1F
100
AcDbEntity
  8
0
  6
Continuous
 62
     7
370
     0
100
AcDbSpline
210
0.0
220
0.0
230
1.0
 70
    24
 71
     1
 72
     4
 73
     2
 74
     0
 42
0.00000001
 43
0.00000001
 40
0.0
 40
0.0
 40
1.0
 40
1.0
 10
7.520291298968402
 20
7.232092968570178
 30
0.0
 10
7.5324389212392
 20
7.234728714313406
 30
0.0
  0
ARC
  5
142
330
1F
100
AcDbEntity
  8
0
  6
Continuous
 62
     7
370
     0
100
AcDbCircle
 10
6.8544205968
 20
6.6286858733
 30
0.0
 40
0.8986010875725964
100
AcDbArc
 50
42.1826371659
 51
43.8748039366
  0
SPLINE
  5
143
330
1F
100
AcDbEntity
  8
0
  6
Continuous
 62
     7
370
     0
100
AcDbSpline
210
0.0
220
0.0
230
1.0
 70
    24
 71
     1
 72
     4
 73
     2
 74
     0
 42
0.00000001
 43
0.00000001
 40
0.0
 40
0.0
 40
1.0
 40
1.0
 10
7.509076236011019
 20
7.259756962169073
 30
0.0
 10
7.502182554035974
 20
7.251492714451152
 30
0.0
  0
ARC
  5
144
330
1F
100
AcDbEntity
  8
0
  6
Continuous
 62
     7
370
     0
100
AcDbCircle
 10
6.8904951898
 20
6.6598106457
 30
0.0
 40
0.8617297101318759
100
AcDbArc
 50
44.1238537765
 51
45.7483573506
  0
LINE
  5
145
330
1F
100
AcDbEntity
  8
0
  6
Continuous
 62
     7
370
     0
100
AcDbLine
 10
7.3525794144
 20
7.3729010163
 30
0.0
 11
7.3621299475
 21
7.3784144217
 31
0.0
  0
ARC
  5
146
330
1F
100
AcDbEntity
  8
0
  6
Continuous
 62
     7
370
     0
100
AcDbCircle
 10
7.0570992133
 20
6.8800779678
 30
0.0
 40
0.5746156161872052
100
AcDbArc
 50
59.0545090713
 51
59.9048128588
  0
LINE
  5
147
330
1F
100
AcDbEntity
  8
0
  6
Continuous
 62
     7
370
     0
100
AcDbLine
 10
7.3320095394
 20
7.3695977435
 30
0.0
 11
7.3452333545
 21
7.3772316895
 31
0.0
  0
ARC
  5
148
330
1F
100
AcDbEntity
  8
0
  6
Continuous
 62
     7
370
     0
100
AcDbCircle
 10
7.0438753982
 20
6.8724440218
 30
0.0
 40
0.5746156162037298
100
AcDbArc
 50
59.0545090713
 51
59.9048128588
  0
LINE
  5
149
330
1F
100
AcDbEntity
  8
0
  6
Continuous
 62
     7
370
     0
100
AcDbLine
 10
7.3048267486
 20
7.3453339891
 30
0.0
 11
7.3393555992
 21
7.3652670703
 31
0.0
  0
ARC
  5
14A
330
1F
100
AcDbEntity
  8
0
  6
Continuous
 62
     7
370
     0
100
AcDbCircle
 10
6.9982479722
 20
6.8340906666
 30
0.0
 40
0.5961210288268773
100
AcDbArc
 50
57.4735424304
 51
59.0500250569
  0
SPLINE
  5
14B
330
1F
100
AcDbEntity
  8
0
  6
Continuous
 62
     7
370
     0
100
AcDbSpline
210
0.0
220
0.0
230
1.0
 70
    24
 71
     1
 72
     4
 73
     2
 74
     0
 42
0.00000001
 43
0.00000001
 40
0.0
 40
0.0
 40
1.0
 40
1.0
 10
7.381925382585805
 20
7.337370786187393
 30
0.0
 10
7.31877569521074
 20
7.336706085934791
 30
0.0
  0
LINE
  5
14C
330
1F
100
AcDbEntity
  8
0
  6
Continuous
 62
     7
370
     0
100
AcDbLine
 10
7.3950688447
 20
7.3449583453
 30
0.0
 11
7.3819253826
 21
7.3373707862
 31
0.0
  0
ARC
  5
14D
330
1F
100
AcDbEntity
  8
0
  6
Continuous
 62
     7
370
     0
100
AcDbCircle
 10
7.0224714268
 20
6.8251332592
 30
0.0
 40
0.6395677884692679
100
AcDbArc
 50
54.3680072647
 51
57.4556515094
  0
LINE
  5
14E
330
1F
100
AcDbEntity
  8
0
  6
Continuous
 62
     7
370
     0
100
AcDbLine
 10
7.3760788941
 20
7.3697865185
 30
0.0
 11
7.366528361
 21
7.3642731131
 31
0.0
  0
ARC
  5
14F
330
1F
100
AcDbEntity
  8
0
  6
Continuous
 62
     7
370
     0
100
AcDbCircle
 10
7.055551171
 20
6.8671710992
 30
0.0
 40
0.5961210288181837
100
AcDbArc
 50
57.4735424304
 51
59.0500250569
  0
ARC
  5
150
330
1F
100
AcDbEntity
  8
0
  6
Continuous
 62
     7
370
     0
100
AcDbCircle
 10
7.2587297307
 20
7.3626601915
 30
0.0
 40
0.0604841866159759
100
AcDbArc
 50
74.185382364
 51
126.4707266061
  0
SPLINE
  5
151
330
1F
100
AcDbEntity
  8
0
  6
Continuous
 62
     7
370
     0
100
AcDbSpline
210
0.0
220
0.0
230
1.0
 70
    24
 71
     1
 72
     4
 73
     2
 74
     0
 42
0.00000001
 43
0.00000001
 40
0.0
 40
0.0
 40
1.0
 40
1.0
 10
7.211251346606144
 20
7.403288907237761
 30
0.0
 10
7.222777204112139
 20
7.41129919501793
 30
0.0
  0
SPLINE
  5
152
330
1F
100
AcDbEntity
  8
0
  6
Continuous
 62
     7
370
     0
100
AcDbSpline
210
0.0
220
0.0
230
1.0
 70
     8
 71
     3
 72
    12
 73
     8
 74
     0
 42
0.00000001
 43
0.00000001
 40
0.0
 40
0.0
 40
0.0
 40
0.0
 40
0.2503309494299805
 40
0.4997648043321521
 40
0.6249322238031052
 40
0.7501904501281078
 40
1.0
 40
1.0
 40
1.0
 40
1.0
 10
7.216758208930311
 20
7.387499118385112
 30
0.0
 10
7.214469612001088
 20
7.388381526147413
 30
0.0
 10
7.209900619636651
 20
7.390143179445462
 30
0.0
 10
7.20667650632873
 20
7.393344706070683
 30
0.0
 10
7.206390996733377
 20
7.396305684183928
 30
0.0
 10
7.207216468228377
 20
7.399404855402353
 30
0.0
 10
7.209638308159575
 20
7.401736165283133
 30
0.0
 10
7.211251346606142
 20
7.403288907237761
 30
0.0
  0
ARC
  5
153
330
1F
100
AcDbEntity
  8
0
  6
Continuous
 62
     7
370
     0
100
AcDbCircle
 10
7.2355210175
 20
7.4435181008
 30
0.0
 40
0.0590776554820379
100
AcDbArc
 50
251.4824156592
 51
304.6773645184
  0
SPLINE
  5
154
330
1F
100
AcDbEntity
  8
0
  6
Continuous
 62
     7
370
     0
100
AcDbSpline
210
0.0
220
0.0
230
1.0
 70
     8
 71
     3
 72
     9
 73
     5
 74
     0
 42
0.00000001
 43
0.00000001
 40
0.0
 40
0.0
 40
0.0
 40
0.0
 40
0.4986702672090086
 40
1.0
 40
1.0
 40
1.0
 40
1.0
 10
7.285142826830797
 20
7.408504059832505
 30
0.0
 10
7.283275749521088
 20
7.406061321497307
 30
0.0
 10
7.279531637564784
 20
7.40116281742393
 30
0.0
 10
7.272605702969378
 20
7.397014267138939
 30
0.0
 10
7.269133526029336
 20
7.394934475533094
 30
0.0
  0
SPLINE
  5
155
330
1F
100
AcDbEntity
  8
0
  6
Continuous
 62
     7
370
     0
100
AcDbSpline
210
0.0
220
0.0
230
1.0
 70
     8
 71
     3
 72
    10
 73
     6
 74
     0
 42
0.00000001
 43
0.00000001
 40
0.0
 40
0.0
 40
0.0
 40
0.0
 40
0.4992067981606222
 40
0.7495375815251012
 40
1.0
 40
1.0
 40
1.0
 40
1.0
 10
7.275213227545721
 20
7.420854960752728
 30
0.0
 10
7.278650962477365
 20
7.41938956074081
 30
0.0
 10
7.28381257392994
 20
7.417189325517759
 30
0.0
 10
7.286166510305685
 20
7.412390087048283
 30
0.0
 10
7.285484114445746
 20
7.409799629207834
 30
0.0
 10
7.285142826830797
 20
7.408504059832505
 30
0.0
  0
SPLINE
  5
156
330
1F
100
AcDbEntity
  8
0
  6
Continuous
 62
     7
370
     0
100
AcDbSpline
210
0.0
220
0.0
230
1.0
 70
     8
 71
     3
 72
     9
 73
     5
 74
     0
 42
0.00000001
 43
0.00000001
 40
0.0
 40
0.0
 40
0.0
 40
0.0
 40
0.5000993720193351
 40
1.0
 40
1.0
 40
1.0
 40
1.0
 10
7.210723617498813
 20
7.437143799278018
 30
0.0
 10
7.201531786743233
 20
7.432783883064097
 30
0.0
 10
7.183151778149214
 20
7.424065783306609
 30
0.0
 10
7.161337424500434
 20
7.417627706026323
 30
0.0
 10
7.150432415412416
 20
7.41440930715092
 30
0.0
  0
ARC
  5
157
330
1F
100
AcDbEntity
  8
0
  6
Continuous
 62
     7
370
     0
100
AcDbCircle
 10
7.1608940101
 20
7.1320903386
 30
0.0
 40
0.3090964309568806
100
AcDbArc
 50
80.7228318172
 51
83.4225948052
  0
SPLINE
  5
158
330
1F
100
AcDbEntity
  8
0
  6
Continuous
 62
     7
370
     0
100
AcDbSpline
210
0.0
220
0.0
230
1.0
 70
    24
 71
     1
 72
     4
 73
     2
 74
     0
 42
0.00000001
 43
0.00000001
 40
0.0
 40
0.0
 40
1.0
 40
1.0
 10
7.176257645838131
 20
7.429492185176786
 30
0.0
 10
7.196299584801313
 20
7.439152301281749
 30
0.0
  0
SPLINE
  5
159
330
1F
100
AcDbEntity
  8
0
  6
Continuous
 62
     7
370
     0
100
AcDbSpline
210
0.0
220
0.0
230
1.0
 70
    24
 71
     1
 72
     4
 73
     2
 74
     0
 42
0.00000001
 43
0.00000001
 40
0.0
 40
0.0
 40
1.0
 40
1.0
 10
7.152182477510251
 20
7.420315782792246
 30
0.0
 10
7.176257645838131
 20
7.429492185176786
 30
0.0
  0
SPLINE
  5
15A
330
1F
100
AcDbEntity
  8
0
  6
Continuous
 62
     7
370
     0
100
AcDbSpline
210
0.0
220
0.0
230
1.0
 70
    24
 71
     1
 72
     4
 73
     2
 74
     0
 42
0.00000001
 43
0.00000001
 40
0.0
 40
0.0
 40
1.0
 40
1.0
 10
7.131398685597487
 20
7.41415417259343
 30
0.0
 10
7.152182477510251
 20
7.420315782792246
 30
0.0
  0
LINE
  5
15B
330
1F
100
AcDbEntity
  8
0
  6
Continuous
 62
     7
370
     0
100
AcDbLine
 10
7.1208265209
 20
7.4080509918
 30
0.0
 11
7.1313986856
 21
7.4141541726
 31
0.0
  0
ARC
  5
15C
330
1F
100
AcDbEntity
  8
0
  6
Continuous
 62
     7
370
     0
100
AcDbCircle
 10
7.1054505298
 20
7.1058682279
 30
0.0
 40
0.3025736999927964
100
AcDbArc
 50
79.0007607745
 51
87.087126174
  0
LINE
  5
15D
330
1F
100
AcDbEntity
  8
0
  6
Continuous
 62
     7
370
     0
100
AcDbLine
 10
7.1764041849
 20
7.4105175093
 30
0.0
 11
7.1631803697
 21
7.4028835634
 31
0.0
  0
ARC
  5
15E
330
1F
100
AcDbEntity
  8
0
  6
Continuous
 62
     7
370
     0
100
AcDbCircle
 10
7.1170242209
 20
7.1028542286
 30
0.0
 40
0.3133411470241628
100
AcDbArc
 50
79.0760554836
 51
83.8795341538
  0
ARC
  5
15F
330
1F
100
AcDbEntity
  8
0
  6
Continuous
 62
     7
370
     0
100
AcDbCircle
 10
7.1719043759
 20
7.2333163208
 30
0.0
 40
0.2113985485472079
100
AcDbArc
 50
108.0160444044
 51
122.4822765276
  0
SPLINE
  5
160
330
1F
100
AcDbEntity
  8
0
  6
Continuous
 62
     7
370
     0
100
AcDbSpline
210
0.0
220
0.0
230
1.0
 70
    24
 71
     1
 72
     4
 73
     2
 74
     0
 42
0.00000001
 43
0.00000001
 40
0.0
 40
0.0
 40
1.0
 40
1.0
 10
7.04654030958163
 20
7.404531062105203
 30
0.0
 10
7.058375175470677
 20
7.411643175121672
 30
0.0
  0
SPLINE
  5
161
330
1F
100
AcDbEntity
  8
0
  6
Continuous
 62
     7
370
     0
100
AcDbSpline
210
0.0
220
0.0
230
1.0
 70
     8
 71
     3
 72
    12
 73
     8
 74
     0
 42
0.00000001
 43
0.00000001
 40
0.0
 40
0.0
 40
0.0
 40
0.0
 40
0.25033094942998
 40
0.4997648043321511
 40
0.6249322238031106
 40
0.7501904501281117
 40
1.0
 40
1.0
 40
1.0
 40
1.0
 10
7.048140124087097
 20
7.400757146423307
 30
0.0
 10
7.046271950532205
 20
7.400287611254353
 30
0.0
 10
7.042542298272886
 20
7.399350223558688
 30
0.0
 10
7.040368281560398
 20
7.399335126065522
 30
0.0
 10
7.040753006485857
 20
7.400281381131617
 30
0.0
 10
7.042154038781295
 20
7.401672789580944
 30
0.0
 10
7.044786793669728
 20
7.403388399789083
 30
0.0
 10
7.04654030958163
 20
7.404531062105203
 30
0.0
  0
ARC
  5
162
330
1F
100
AcDbEntity
  8
0
  6
Continuous
 62
     7
370
     0
100
AcDbCircle
 10
7.0010507577
 20
7.5781246699
 30
0.0
 40
0.1835119800330107
100
AcDbArc
 50
284.8684755043
 51
301.4077164288
  0
SPLINE
  5
163
330
1F
100
AcDbEntity
  8
0
  6
Continuous
 62
     7
370
     0
100
AcDbSpline
210
0.0
220
0.0
230
1.0
 70
     8
 71
     3
 72
     9
 73
     5
 74
     0
 42
0.00000001
 43
0.00000001
 40
0.0
 40
0.0
 40
0.0
 40
0.0
 40
0.4986702672090038
 40
1.0
 40
1.0
 40
1.0
 40
1.0
 10
7.113356877194343
 20
7.43262725837429
 30
0.0
 10
7.111279203858005
 20
7.430956503009886
 30
0.0
 10
7.10711277671574
 20
7.42760608195159
 30
0.0
 10
7.100165991381824
 20
7.423539466417744
 30
0.0
 10
7.096683361346616
 20
7.421500751138797
 30
0.0
  0
SPLINE
  5
164
330
1F
100
AcDbEntity
  8
0
  6
Continuous
 62
     7
370
     0
100
AcDbSpline
210
0.0
220
0.0
230
1.0
 70
     8
 71
     3
 72
    10
 73
     6
 74
     0
 42
0.00000001
 43
0.00000001
 40
0.0
 40
0.0
 40
0.0
 40
0.0
 40
0.4992067981606261
 40
0.7495375815250974
 40
0.9999999999999999
 40
0.9999999999999999
 40
0.9999999999999999
 40
0.9999999999999999
 10
7.106522334229273
 20
7.434349986998028
 30
0.0
 10
7.1093350567216
 20
7.43495760188148
 30
0.0
 10
7.11355823882202
 20
7.435869909550204
 30
0.0
 10
7.114901258963817
 20
7.43463346819401
 30
0.0
 10
7.113871761319762
 20
7.433296112156981
 30
0.0
 10
7.113356877194343
 20
7.43262725837429
 30
0.0
  0
ARC
  5
165
330
1F
100
AcDbEntity
  8
0
  6
Continuous
 62
     7
370
     0
100
AcDbCircle
 10
7.4444312546
 20
6.9745009877
 30
0.0
 40
0.0412187611163139
100
AcDbArc
 50
39.1725047901
 51
86.9248002298
  0
LINE
  5
166
330
1F
100
AcDbEntity
  8
0
  6
Continuous
 62
     7
370
     0
100
AcDbLine
 10
7.4896098195
 20
7.008171067
 30
0.0
 11
7.4763860043
 21
7.000537121
 31
0.0
  0
SPLINE
  5
167
330
1F
100
AcDbEntity
  8
0
  6
Continuous
 62
     7
370
     0
100
AcDbSpline
210
0.0
220
0.0
230
1.0
 70
    24
 71
     1
 72
     4
 73
     2
 74
     0
 42
0.00000001
 43
0.00000001
 40
0.0
 40
0.0
 40
1.0
 40
1.0
 10
7.468389926377463
 20
7.02343843806887
 30
0.0
 10
7.489609819463913
 20
7.008171066974644
 30
0.0
  0
LINE
  5
168
330
1F
100
AcDbEntity
  8
0
  6
Continuous
 62
     7
370
     0
100
AcDbLine
 10
7.5062132518
 20
7.045273379
 30
0.0
 11
7.4683899264
 21
7.0234384381
 31
0.0
  0
ARC
  5
169
330
1F
100
AcDbEntity
  8
0
  6
Continuous
 62
     7
370
     0
100
AcDbCircle
 10
6.646202629
 20
6.4853506714
 30
0.0
 40
1.026222056836505
100
AcDbArc
 50
33.0667379213
 51
34.3375472343
  0
LINE
  5
16A
330
1F
100
AcDbEntity
  8
0
  6
Continuous
 62
     7
370
     0
100
AcDbLine
 10
7.4362805639
 20
7.0311285323
 30
0.0
 11
7.4935837628
 21
7.0642089649
 31
0.0
  0
ARC
  5
16B
330
1F
100
AcDbEntity
  8
0
  6
Continuous
 62
     7
370
     0
100
AcDbCircle
 10
6.5895480347
 20
6.4527069448
 30
0.0
 40
1.025440153688928
100
AcDbArc
 50
33.2975536626
 51
34.3378409059
  0
LINE
  5
16C
330
1F
100
AcDbEntity
  8
0
  6
Continuous
 62
     7
370
     0
100
AcDbLine
 10
7.424229801
 20
7.0797138965
 30
0.0
 11
7.4403922418
 21
7.0890442749
 31
0.0
  0
ARC
  5
16D
330
1F
100
AcDbEntity
  8
0
  6
Continuous
 62
     7
370
     0
100
AcDbCircle
 10
6.6258699569
 20
6.4762769394
 30
0.0
 40
1.000757014417218
100
AcDbArc
 50
35.8501199063
 51
37.0836592367
  0
LINE
  5
16E
330
1F
100
AcDbEntity
  8
0
  6
Continuous
 62
     7
370
     0
100
AcDbLine
 10
7.4531978097
 20
7.0717176113
 30
0.0
 11
7.437035369
 21
7.0623872329
 31
0.0
  0
ARC
  5
16F
330
1F
100
AcDbEntity
  8
0
  6
Continuous
 62
     7
370
     0
100
AcDbCircle
 10
6.6420323976
 20
6.4856073178
 30
0.0
 40
1.000757014411988
100
AcDbArc
 50
35.8501199063
 51
37.0836592367
  0
ARC
  5
170
330
1F
100
AcDbEntity
  8
0
  6
Continuous
 62
     7
370
     0
100
AcDbCircle
 10
7.380782845
 20
7.0584234062
 30
0.0
 40
0.0462644762171135
100
AcDbArc
 50
46.2099181463
 51
89.8352497859
  0
LINE
  5
171
330
1F
100
AcDbEntity
  8
0
  6
Continuous
 62
     7
370
     0
100
AcDbLine
 10
7.4260225208
 20
7.0994547537
 30
0.0
 11
7.4127987056
 21
7.0918208077
 31
0.0
  0
SPLINE
  5
172
330
1F
100
AcDbEntity
  8
0
  6
Continuous
 62
     7
370
     0
100
AcDbSpline
210
0.0
220
0.0
230
1.0
 70
    24
 71
     1
 72
     4
 73
     2
 74
     0
 42
0.00000001
 43
0.00000001
 40
0.0
 40
0.0
 40
1.0
 40
1.0
 10
7.402971283618878
 20
7.112812416976277
 30
0.0
 10
7.426022520765701
 20
7.099454753686238
 30
0.0
  0
LINE
  5
173
330
1F
100
AcDbEntity
  8
0
  6
Continuous
 62
     7
370
     0
100
AcDbLine
 10
7.440794609
 20
7.134647358
 30
0.0
 11
7.4029712836
 21
7.112812417
 31
0.0
  0
ARC
  5
174
330
1F
100
AcDbEntity
  8
0
  6
Continuous
 62
     7
370
     0
100
AcDbCircle
 10
6.706457528
 20
6.5312580725
 30
0.0
 40
0.9504365198678342
100
AcDbArc
 50
39.4092237904
 51
40.746722322
  0
LINE
  5
175
330
1F
100
AcDbEntity
  8
0
  6
Continuous
 62
     7
370
     0
100
AcDbLine
 10
7.3692072465
 20
7.1185431568
 30
0.0
 11
7.4265104454
 21
7.1516235894
 31
0.0
  0
ARC
  5
176
330
1F
100
AcDbEntity
  8
0
  6
Continuous
 62
     7
370
     0
100
AcDbCircle
 10
6.6506424682
 20
6.4994415389
 30
0.0
 40
0.9484841347577153
100
AcDbArc
 50
39.6517323911
 51
40.7475559457
  0
SPLINE
  5
177
330
1F
100
AcDbEntity
  8
0
  6
Continuous
 62
     7
370
     0
100
AcDbSpline
210
0.0
220
0.0
230
1.0
 70
     8
 71
     3
 72
    13
 73
     9
 74
     0
 42
0.00000001
 43
0.00000001
 40
0.0
 40
0.0
 40
0.0
 40
0.0
 40
0.2502499937362989
 40
0.3875326883123448
 40
0.500055398928291
 40
0.6148522551810314
 40
0.7498927631185603
 40
1.0
 40
1.0
 40
1.0
 40
1.0
 10
7.259438087593848
 20
7.267603176144306
 30
0.0
 10
7.258763789476787
 20
7.267180614423912
 30
0.0
 10
7.257719583408579
 20
7.266526242861152
 30
0.0
 10
7.256773672259044
 20
7.26546376410338
 30
0.0
 10
7.256424922708801
 20
7.264569861381945
 30
0.0
 10
7.256661961459821
 20
7.263625675528878
 30
0.0
 10
7.25751705175791
 20
7.262407425715189
 30
0.0
 10
7.258547373218819
 20
7.261606568813653
 30
0.0
 10
7.259216443353991
 20
7.261086508370678
 30
0.0
  0
SPLINE
  5
178
330
1F
100
AcDbEntity
  8
0
  6
Continuous
 62
     7
370
     0
100
AcDbSpline
210
0.0
220
0.0
230
1.0
 70
    24
 71
     1
 72
     4
 73
     2
 74
     0
 42
0.00000001
 43
0.00000001
 40
0.0
 40
0.0
 40
1.0
 40
1.0
 10
7.280509518007706
 20
7.25741443905018
 30
0.0
 10
7.259438087593848
 20
7.267603176144306
 30
0.0
  0
ARC
  5
179
330
1F
100
AcDbEntity
  8
0
  6
Continuous
 62
     7
370
     0
100
AcDbCircle
 10
7.3009694893
 20
7.2900518308
 30
0.0
 40
0.0385202513460068
100
AcDbArc
 50
237.9169169854
 51
260.700516088
  0
SPLINE
  5
17A
330
1F
100
AcDbEntity
  8
0
  6
Continuous
 62
     7
370
     0
100
AcDbSpline
210
0.0
220
0.0
230
1.0
 70
     8
 71
     3
 72
     9
 73
     5
 74
     0
 42
0.00000001
 43
0.00000001
 40
0.0
 40
0.0
 40
0.0
 40
0.0
 40
0.500513882886922
 40
1.0
 40
1.0
 40
1.0
 40
1.0
 10
7.304638068834155
 20
7.254020152231676
 30
0.0
 10
7.303206513070622
 20
7.253322425818601
 30
0.0
 10
7.300346341130384
 20
7.251928405718598
 30
0.0
 10
7.296610708543022
 20
7.252001389875471
 30
0.0
 10
7.294744811927001
 20
7.252037844448599
 30
0.0
  0
SPLINE
  5
17B
330
1F
100
AcDbEntity
  8
0
  6
Continuous
 62
     7
370
     0
100
AcDbSpline
210
0.0
220
0.0
230
1.0
 70
     8
 71
     3
 72
    13
 73
     9
 74
     0
 42
0.00000001
 43
0.00000001
 40
0.0
 40
0.0
 40
0.0
 40
0.0
 40
0.2503342404082703
 40
0.4997600710237734
 40
0.624177714918457
 40
0.7517673256869344
 40
0.8742692938045203
 40
1.0
 40
1.0
 40
1.0
 40
1.0
 10
7.300806930615715
 20
7.271904540067523
 30
0.0
 10
7.302455031162045
 20
7.270554300781376
 30
0.0
 10
7.305745251647841
 20
7.26785872194069
 30
0.0
 10
7.308417559155169
 20
7.26376670746416
 30
0.0
 10
7.308891287652293
 20
7.260374820576362
 30
0.0
 10
7.308491114905612
 20
7.257904569705088
 30
0.0
 10
7.307066696902382
 20
7.255670348567869
 30
0.0
 10
7.305454600981472
 20
7.254574966851302
 30
0.0
 10
7.304638068834155
 20
7.254020152231676
 30
0.0
  0
SPLINE
  5
17C
330
1F
100
AcDbEntity
  8
0
  6
Continuous
 62
     7
370
     0
100
AcDbSpline
210
0.0
220
0.0
230
1.0
 70
    24
 71
     1
 72
     4
 73
     2
 74
     0
 42
0.00000001
 43
0.00000001
 40
0.0
 40
0.0
 40
1.0
 40
1.0
 10
7.289437856145453
 20
7.278102009418169
 30
0.0
 10
7.300806930615715
 20
7.271904540067523
 30
0.0
  0
SPLINE
  5
17D
330
1F
100
AcDbEntity
  8
0
  6
Continuous
 62
     7
370
     0
100
AcDbSpline
210
0.0
220
0.0
230
1.0
 70
    24
 71
     1
 72
     4
 73
     2
 74
     0
 42
0.00000001
 43
0.00000001
 40
0.0
 40
0.0
 40
1.0
 40
1.0
 10
7.279061820149849
 20
7.280079014652709
 30
0.0
 10
7.289437856145453
 20
7.278102009418169
 30
0.0
  0
SPLINE
  5
17E
330
1F
100
AcDbEntity
  8
0
  6
Continuous
 62
     7
370
     0
100
AcDbSpline
210
0.0
220
0.0
230
1.0
 70
     8
 71
     3
 72
     9
 73
     5
 74
     0
 42
0.00000001
 43
0.00000001
 40
0.0
 40
0.0
 40
0.0
 40
0.0
 40
0.4998712278477684
 40
1.0
 40
1.0
 40
1.0
 40
1.0
 10
7.28257391512409
 20
7.284278161115856
 30
0.0
 10
7.282185732304913
 20
7.283501888565667
 30
0.0
 10
7.2814091666665
 20
7.281948943513135
 30
0.0
 10
7.279844403320696
 20
7.280702431283559
 30
0.0
 10
7.279061820149849
 20
7.280079014652709
 30
0.0
  0
ARC
  5
17F
330
1F
100
AcDbEntity
  8
0
  6
Continuous
 62
     7
370
     0
100
AcDbCircle
 10
6.9090025607
 20
6.7559921265
 30
0.0
 40
0.6470252631572952
100
AcDbArc
 50
54.7344016366
 51
56.3179078815
  0
SPLINE
  5
180
330
1F
100
AcDbEntity
  8
0
  6
Continuous
 62
     7
370
     0
100
AcDbSpline
210
0.0
220
0.0
230
1.0
 70
     8
 71
     3
 72
     9
 73
     5
 74
     0
 42
0.00000001
 43
0.00000001
 40
0.0
 40
0.0
 40
0.0
 40
0.0
 40
0.5000538352470619
 40
1.0
 40
1.0
 40
1.0
 40
1.0
 10
7.261088282371618
 20
7.288053243411868
 30
0.0
 10
7.262595145448954
 20
7.288943808899319
 30
0.0
 10
7.26560854714918
 20
7.290724748119613
 30
0.0
 10
7.267091342192032
 20
7.293174764305399
 30
0.0
 10
7.26783265988682
 20
7.294399640501065
 30
0.0
  0
LINE
  5
181
330
1F
100
AcDbEntity
  8
0
  6
Continuous
 62
     7
370
     0
100
AcDbLine
 10
7.2429973686
 20
7.2776095812
 30
0.0
 11
7.2610882824
 21
7.2880532434
 31
0.0
  0
ARC
  5
182
330
1F
100
AcDbEntity
  8
0
  6
Continuous
 62
     7
370
     0
100
AcDbCircle
 10
7.2471138167
 20
7.267607779
 30
0.0
 40
0.0108157843996555
100
AcDbArc
 50
112.3706270602
 51
176.0847485655
  0
ARC
  5
183
330
1F
100
AcDbEntity
  8
0
  6
Continuous
 62
     7
370
     0
100
AcDbCircle
 10
7.262263821
 20
7.2780926779
 30
0.0
 40
0.0277110810299597
100
AcDbArc
 50
200.5922150053
 51
245.2058773783
  0
SPLINE
  5
184
330
1F
100
AcDbEntity
  8
0
  6
Continuous
 62
     7
370
     0
100
AcDbSpline
210
0.0
220
0.0
230
1.0
 70
     8
 71
     3
 72
     9
 73
     5
 74
     0
 42
0.00000001
 43
0.00000001
 40
0.0
 40
0.0
 40
0.0
 40
0.0
 40
0.4987757766930728
 40
1.0
 40
1.0
 40
1.0
 40
1.0
 10
7.267548075653298
 20
7.244066321621109
 30
0.0
 10
7.264393129739871
 20
7.245251669490595
 30
0.0
 10
7.258067750559784
 20
7.247628183998467
 30
0.0
 10
7.253121907319892
 20
7.251163836031699
 30
0.0
 10
7.250642930883378
 20
7.25293599047594
 30
0.0
  0
ARC
  5
185
330
1F
100
AcDbEntity
  8
0
  6
Continuous
 62
     7
370
     0
100
AcDbCircle
 10
7.274937129
 20
7.2723826732
 30
0.0
 40
0.0292645498440588
100
AcDbArc
 50
255.3749979641
 51
292.8175387638
  0
SPLINE
  5
186
330
1F
100
AcDbEntity
  8
0
  6
Continuous
 62
     7
370
     0
100
AcDbSpline
210
0.0
220
0.0
230
1.0
 70
    24
 71
     1
 72
     4
 73
     2
 74
     0
 42
0.00000001
 43
0.00000001
 40
0.0
 40
0.0
 40
1.0
 40
1.0
 10
7.27181704220743
 20
7.258549218811832
 30
0.0
 10
7.286285855849708
 20
7.245408235762507
 30
0.0
  0
SPLINE
  5
187
330
1F
100
AcDbEntity
  8
0
  6
Continuous
 62
     7
370
     0
100
AcDbSpline
210
0.0
220
0.0
230
1.0
 70
     8
 71
     3
 72
     9
 73
     5
 74
     0
 42
0.00000001
 43
0.00000001
 40
0.0
 40
0.0
 40
0.0
 40
0.0
 40
0.4983624828367161
 40
1.0
 40
1.0
 40
1.0
 40
1.0
 10
7.26577942427194
 20
7.257979013658346
 30
0.0
 10
7.266841687928277
 20
7.257918726953179
 30
0.0
 10
7.268973196003061
 20
7.257797757363283
 30
0.0
 10
7.270867026019869
 20
7.258298185356031
 30
0.0
 10
7.27181704220743
 20
7.258549218811832
 30
0.0
  0
SPLINE
  5
188
330
1F
100
AcDbEntity
  8
0
  6
Continuous
 62
     7
370
     0
100
AcDbSpline
210
0.0
220
0.0
230
1.0
 70
     8
 71
     3
 72
     9
 73
     5
 74
     0
 42
0.00000001
 43
0.00000001
 40
0.0
 40
0.0
 40
0.0
 40
0.0
 40
0.5014167496225646
 40
1.0
 40
1.0
 40
1.0
 40
1.0
 10
7.259216443353991
 20
7.261086508370678
 30
0.0
 10
7.260162303501755
 20
7.260419452363452
 30
0.0
 10
7.262048678754427
 20
7.259089109873441
 30
0.0
 10
7.264538193779084
 20
7.258348346078828
 30
0.0
 10
7.26577942427194
 20
7.257979013658346
 30
0.0
  0
ARC
  5
189
330
1F
100
AcDbEntity
  8
0
  6
Continuous
 62
     7
370
     0
100
AcDbCircle
 10
7.1795424413
 20
7.3325406152
 30
0.0
 40
0.0199328056570318
100
AcDbArc
 50
248.7597602394
 51
304.9759057488
  0
SPLINE
  5
18A
330
1F
100
AcDbEntity
  8
0
  6
Continuous
 62
     7
370
     0
100
AcDbSpline
210
0.0
220
0.0
230
1.0
 70
     8
 71
     3
 72
    12
 73
     8
 74
     0
 42
0.00000001
 43
0.00000001
 40
0.0
 40
0.0
 40
0.0
 40
0.0
 40
0.2500161658406946
 40
0.3794861107792905
 40
0.5003609948061195
 40
0.7497424986442527
 40
1.0
 40
1.0
 40
1.0
 40
1.0
 10
7.170714897815213
 20
7.320173713836331
 30
0.0
 10
7.170205650140042
 20
7.319634318762705
 30
0.0
 10
7.169432690443517
 20
7.31881559994916
 30
0.0
 10
7.169062275469932
 20
7.317651763395
 30
0.0
 10
7.169137520510348
 20
7.316501096150527
 30
0.0
 10
7.170111376621144
 20
7.315160205592703
 30
0.0
 10
7.171583731122598
 20
7.314361770527379
 30
0.0
 10
7.172321199084094
 20
7.313961853062238
 30
0.0
  0
SPLINE
  5
18B
330
1F
100
AcDbEntity
  8
0
  6
Continuous
 62
     7
370
     0
100
AcDbSpline
210
0.0
220
0.0
230
1.0
 70
    24
 71
     1
 72
     4
 73
     2
 74
     0
 42
0.00000001
 43
0.00000001
 40
0.0
 40
0.0
 40
1.0
 40
1.0
 10
7.152448240866388
 20
7.326113985565151
 30
0.0
 10
7.170714897815214
 20
7.320173713836331
 30
0.0
  0
SPLINE
  5
18C
330
1F
100
AcDbEntity
  8
0
  6
Continuous
 62
     7
370
     0
100
AcDbSpline
210
0.0
220
0.0
230
1.0
 70
     8
 71
     3
 72
    12
 73
     8
 74
     0
 42
0.00000001
 43
0.00000001
 40
0.0
 40
0.0
 40
0.0
 40
0.0
 40
0.2504615608200296
 40
0.5001568997101343
 40
0.6235742345091678
 40
0.7505262250101151
 40
1.0
 40
1.0
 40
1.0
 40
1.0
 10
7.161267014609199
 20
7.307617049287851
 30
0.0
 10
7.158939315723458
 20
7.308836391113239
 30
0.0
 10
7.15429103894063
 20
7.311271344505194
 30
0.0
 10
7.150084421159098
 20
7.314962523359895
 30
0.0
 10
7.148879714519151
 20
7.318339384340747
 30
0.0
 10
7.149060378801633
 20
7.321855646032327
 30
0.0
 10
7.151097891994442
 20
7.324416677978655
 30
0.0
 10
7.152448240866388
 20
7.326113985565151
 30
0.0
  0
SPLINE
  5
18D
330
1F
100
AcDbEntity
  8
0
  6
Continuous
 62
     7
370
     0
100
AcDbSpline
210
0.0
220
0.0
230
1.0
 70
    24
 71
     1
 72
     4
 73
     2
 74
     0
 42
0.00000001
 43
0.00000001
 40
0.0
 40
0.0
 40
1.0
 40
1.0
 10
7.175007358967026
 20
7.302704200064694
 30
0.0
 10
7.161267014609199
 20
7.307617049287851
 30
0.0
  0
SPLINE
  5
18E
330
1F
100
AcDbEntity
  8
0
  6
Continuous
 62
     7
370
     0
100
AcDbSpline
210
0.0
220
0.0
230
1.0
 70
     8
 71
     3
 72
     9
 73
     5
 74
     0
 42
0.00000001
 43
0.00000001
 40
0.0
 40
0.0
 40
0.0
 40
0.0
 40
0.4986120697360766
 40
1.0
 40
1.0
 40
1.0
 40
1.0
 10
7.194182087979373
 20
7.302587291773545
 30
0.0
 10
7.190955492521026
 20
7.302171802594319
 30
0.0
 10
7.184484338583549
 20
7.301338511134999
 30
0.0
 10
7.178172192718052
 20
7.302248128764238
 30
0.0
 10
7.175007358967026
 20
7.302704200064694
 30
0.0
  0
SPLINE
  5
18F
330
1F
100
AcDbEntity
  8
0
  6
Continuous
 62
     7
370
     0
100
AcDbSpline
210
0.0
220
0.0
230
1.0
 70
     8
 71
     3
 72
     9
 73
     5
 74
     0
 42
0.00000001
 43
0.00000001
 40
0.0
 40
0.0
 40
0.0
 40
0.0
 40
0.5005615848306236
 40
1.0
 40
1.0
 40
1.0
 40
1.0
 10
7.20683145043725
 20
7.307425975046507
 30
0.0
 10
7.204969436317081
 20
7.306407811977015
 30
0.0
 10
7.201249586099652
 20
7.304373770411806
 30
0.0
 10
7.196536156025579
 20
7.303182338592942
 30
0.0
 10
7.194182087979373
 20
7.302587291773546
 30
0.0
  0
SPLINE
  5
190
330
1F
100
AcDbEntity
  8
0
  6
Continuous
 62
     7
370
     0
100
AcDbSpline
210
0.0
220
0.0
230
1.0
 70
     8
 71
     3
 72
    14
 73
    10
 74
     0
 42
0.00000001
 43
0.00000001
 40
0.0
 40
0.0
 40
0.0
 40
0.0
 40
0.250057772599267
 40
0.3796673456308814
 40
0.4999755349868612
 40
0.6255852466915227
 40
0.7499501153975943
 40
0.8610382006675553
 40
1.0
 40
1.0
 40
1.0
 40
1.0
 10
7.202801253061314
 20
7.332740587033002
 30
0.0
 10
7.205845703543329
 20
7.331139149420607
 30
0.0
 10
7.2104681490742
 20
7.328707657045181
 30
0.0
 10
7.214655750882597
 20
7.324505723181249
 30
0.0
 10
7.216292338105191
 20
7.32094027417346
 30
0.0
 10
7.216281390402468
 20
7.31724441892598
 30
0.0
 10
7.214827808882179
 20
7.313677099262576
 30
0.0
 10
7.211549301276008
 20
7.310330375023292
 30
0.0
 10
7.208516749539078
 20
7.308463477680547
 30
0.0
 10
7.20683145043725
 20
7.307425975046507
 30
0.0
  0
ARC
  5
191
330
1F
100
AcDbEntity
  8
0
  6
Continuous
 62
     7
370
     0
100
AcDbCircle
 10
7.1823743471
 20
7.2903496255
 30
0.0
 40
0.0470558403398341
100
AcDbArc
 50
64.2720071158
 51
111.7418804032
  0
SPLINE
  5
192
330
1F
100
AcDbEntity
  8
0
  6
Continuous
 62
     7
370
     0
100
AcDbSpline
210
0.0
220
0.0
230
1.0
 70
    24
 71
     1
 72
     4
 73
     2
 74
     0
 42
0.00000001
 43
0.00000001
 40
0.0
 40
0.0
 40
1.0
 40
1.0
 10
7.179533910959289
 20
7.32603111082331
 30
0.0
 10
7.164943649396368
 20
7.334058010090124
 30
0.0
  0
ARC
  5
193
330
1F
100
AcDbEntity
  8
0
  6
Continuous
 62
     7
370
     0
100
AcDbCircle
 10
7.1859644735
 20
7.3095460227
 30
0.0
 40
0.0176949220026865
100
AcDbArc
 50
66.4695351696
 51
111.3099411221
  0
SPLINE
  5
194
330
1F
100
AcDbEntity
  8
0
  6
Continuous
 62
     7
370
     0
100
AcDbSpline
210
0.0
220
0.0
230
1.0
 70
     8
 71
     3
 72
    13
 73
     9
 74
     0
 42
0.00000001
 43
0.00000001
 40
0.0
 40
0.0
 40
0.0
 40
0.0
 40
0.2503406525416192
 40
0.4995871881509842
 40
0.6259062530577065
 40
0.7464326647500693
 40
0.8687151858281545
 40
1.0
 40
1.0
 40
1.0
 40
1.0
 10
7.190968561616983
 20
7.316207810283101
 30
0.0
 10
7.192095871162286
 20
7.316914707690363
 30
0.0
 10
7.194345563332517
 20
7.318325413000985
 30
0.0
 10
7.196026597816149
 20
7.320528989081978
 30
0.0
 10
7.196223477958029
 20
7.322332334190875
 30
0.0
 10
7.195770535974622
 20
7.323626109377638
 30
0.0
 10
7.194711377023673
 20
7.324810395544995
 30
0.0
 10
7.193602866941336
 20
7.325442369767766
 30
0.0
 10
7.193028934419531
 20
7.325769575234968
 30
0.0
  0
ARC
  5
195
330
1F
100
AcDbEntity
  8
0
  6
Continuous
 62
     7
370
     0
100
AcDbCircle
 10
7.0702577303
 20
7.4075253098
 30
0.0
 40
0.0656475996590129
100
AcDbArc
 50
259.8108077262
 51
299.2232138644
  0
SPLINE
  5
196
330
1F
100
AcDbEntity
  8
0
  6
Continuous
 62
     7
370
     0
100
AcDbSpline
210
0.0
220
0.0
230
1.0
 70
     8
 71
     3
 72
    13
 73
     9
 74
     0
 42
0.00000001
 43
0.00000001
 40
0.0
 40
0.0
 40
0.0
 40
0.0
 40
0.2502561190887607
 40
0.3753695374490987
 40
0.5004454107251671
 40
0.6243777276208111
 40
0.7509522925183801
 40
1.0
 40
1.0
 40
1.0
 40
1.0
 10
7.100732431097535
 20
7.367610462039501
 30
0.0
 10
7.103504412210707
 20
7.366979344439184
 30
0.0
 10
7.107662221706268
 20
7.36603270496212
 30
0.0
 10
7.111190998545082
 20
7.363649225127014
 30
0.0
 10
7.112195049180829
 20
7.361301000353474
 30
0.0
 10
7.111618113046193
 20
7.358611860082064
 30
0.0
 10
7.109289227216439
 20
7.354810266859614
 30
0.0
 10
7.105091179744965
 20
7.352057926995653
 30
0.0
 10
7.102307760934237
 20
7.350233051359317
 30
0.0
  0
ARC
  5
197
330
1F
100
AcDbEntity
  8
0
  6
Continuous
 62
     7
370
     0
100
AcDbCircle
 10
7.0900433211
 20
7.306898314
 30
0.0
 40
0.0616459406282432
100
AcDbArc
 50
80.0147180026
 51
111.7267649404
  0
SPLINE
  5
198
330
1F
100
AcDbEntity
  8
0
  6
Continuous
 62
     7
370
     0
100
AcDbSpline
210
0.0
220
0.0
230
1.0
 70
    24
 71
     1
 72
     4
 73
     2
 74
     0
 42
0.00000001
 43
0.00000001
 40
0.0
 40
0.0
 40
1.0
 40
1.0
 10
7.080879515499771
 20
7.361158650693954
 30
0.0
 10
7.067223180641569
 20
7.364164911443501
 30
0.0
  0
SPLINE
  5
199
330
1F
100
AcDbEntity
  8
0
  6
Continuous
 62
     7
370
     0
100
AcDbSpline
210
0.0
220
0.0
230
1.0
 70
    24
 71
     1
 72
     4
 73
     2
 74
     0
 42
0.00000001
 43
0.00000001
 40
0.0
 40
0.0
 40
1.0
 40
1.0
 10
7.08592901374026
 20
7.362191764660734
 30
0.0
 10
7.080879515499771
 20
7.361158650693954
 30
0.0
  0
ARC
  5
19A
330
1F
100
AcDbEntity
  8
0
  6
Continuous
 62
     7
370
     0
100
AcDbCircle
 10
7.0882226626
 20
7.3431580742
 30
0.0
 40
0.0191713900806495
100
AcDbArc
 50
81.3508039535
 51
96.8712776011
  0
SPLINE
  5
19B
330
1F
100
AcDbEntity
  8
0
  6
Continuous
 62
     7
370
     0
100
AcDbSpline
210
0.0
220
0.0
230
1.0
 70
     8
 71
     3
 72
    10
 73
     6
 74
     0
 42
0.00000001
 43
0.00000001
 40
0.0
 40
0.0
 40
0.0
 40
0.0
 40
0.2550650714525305
 40
0.5011546383380305
 40
0.9999999999999999
 40
0.9999999999999999
 40
0.9999999999999999
 40
0.9999999999999999
 10
7.093996299775474
 20
7.359530758607307
 30
0.0
 10
7.094029052192272
 20
7.359836680346086
 30
0.0
 10
7.094093404498534
 20
7.360437758719868
 30
0.0
 10
7.093440425712878
 20
7.361463335416611
 30
0.0
 10
7.092042115753934
 20
7.361851503421968
 30
0.0
 10
7.091105738077905
 20
7.362111439963535
 30
0.0
  0
SPLINE
  5
19C
330
1F
100
AcDbEntity
  8
0
  6
Continuous
 62
     7
370
     0
100
AcDbSpline
210
0.0
220
0.0
230
1.0
 70
     8
 71
     3
 72
     9
 73
     5
 74
     0
 42
0.00000001
 43
0.00000001
 40
0.0
 40
0.0
 40
0.0
 40
0.0
 40
0.5011160372996588
 40
0.9999999999999999
 40
0.9999999999999999
 40
0.9999999999999999
 40
0.9999999999999999
 10
7.090401371213591
 20
7.355967517174562
 30
0.0
 10
7.091268062094573
 20
7.356565341647181
 30
0.0
 10
7.092997583435886
 20
7.357758327758421
 30
0.0
 10
7.093663890077655
 20
7.358940828134029
 30
0.0
 10
7.093996299775474
 20
7.359530758607307
 30
0.0
  0
ARC
  5
19D
330
1F
100
AcDbEntity
  8
0
  6
Continuous
 62
     7
370
     0
100
AcDbCircle
 10
7.0238548998
 20
7.0437432219
 30
0.0
 40
0.319237283909906
100
AcDbArc
 50
77.9681984214
 51
83.3789466202
  0
LINE
  5
19E
330
1F
100
AcDbEntity
  8
0
  6
Continuous
 62
     7
370
     0
100
AcDbLine
 10
7.0589073597
 20
7.359837458
 30
0.0
 11
7.0606636477
 21
7.3608513415
 31
0.0
  0
SPLINE
  5
19F
330
1F
100
AcDbEntity
  8
0
  6
Continuous
 62
     7
370
     0
100
AcDbSpline
210
0.0
220
0.0
230
1.0
 70
     8
 71
     3
 72
    13
 73
     9
 74
     0
 42
0.00000001
 43
0.00000001
 40
0.0
 40
0.0
 40
0.0
 40
0.0
 40
0.2501213163499019
 40
0.3752087323567229
 40
0.5002154264236839
 40
0.6251773972836235
 40
0.7501819867111108
 40
1.0
 40
1.0
 40
1.0
 40
1.0
 10
7.058644729767644
 20
7.342913038813485
 30
0.0
 10
7.055691672977487
 20
7.343543562601241
 30
0.0
 10
7.051261771875968
 20
7.34448941573594
 30
0.0
 10
7.047735115244474
 20
7.346654352019224
 30
0.0
 10
7.046775897213926
 20
7.348797670293908
 30
0.0
 10
7.047660512263065
 20
7.351352688588881
 30
0.0
 10
7.051145111915581
 20
7.355097435999073
 30
0.0
 10
7.055802935720883
 20
7.357941739337015
 30
0.0
 10
7.058907359736023
 20
7.359837458015467
 30
0.0
  0
LINE
  5
1A0
330
1F
100
AcDbEntity
  8
0
  6
Continuous
 62
     7
370
     0
100
AcDbLine
 10
7.0088239292
 20
7.3509864177
 30
0.0
 11
6.9894932827
 21
7.3398270731
 31
0.0
  0
SPLINE
  5
1A1
330
1F
100
AcDbEntity
  8
0
  6
Continuous
 62
     7
370
     0
100
AcDbSpline
210
0.0
220
0.0
230
1.0
 70
     8
 71
     3
 72
    11
 73
     7
 74
     0
 42
0.00000001
 43
0.00000001
 40
0.0
 40
0.0
 40
0.0
 40
0.0
 40
0.4989693492838168
 40
0.7492892892637997
 40
0.8746232027899173
 40
0.9999999999999999
 40
0.9999999999999999
 40
0.9999999999999999
 40
0.9999999999999999
 10
7.015018689837878
 20
7.34806697398869
 30
0.0
 10
7.013183503401733
 20
7.34823948520912
 30
0.0
 10
7.01042765167982
 20
7.348498540820312
 30
0.0
 10
7.009102793649845
 20
7.349575350676648
 30
0.0
 10
7.008761676539291
 20
7.350325373331871
 30
0.0
 10
7.008803175925994
 20
7.350766044484416
 30
0.0
 10
7.008823929168548
 20
7.350986417748753
 30
0.0
  0
ARC
  5
1A2
330
1F
100
AcDbEntity
  8
0
  6
Continuous
 62
     7
370
     0
100
AcDbCircle
 10
7.0140083558
 20
7.4188417517
 30
0.0
 40
0.070781988741699
100
AcDbArc
 50
270.8178611763
 51
302.2733268326
  0
SPLINE
  5
1A3
330
1F
100
AcDbEntity
  8
0
  6
Continuous
 62
     7
370
     0
100
AcDbSpline
210
0.0
220
0.0
230
1.0
 70
     8
 71
     3
 72
    13
 73
     9
 74
     0
 42
0.00000001
 43
0.00000001
 40
0.0
 40
0.0
 40
0.0
 40
0.0
 40
0.1251834461242725
 40
0.2502299178031258
 40
0.3715684377576444
 40
0.5002574982632398
 40
0.7499110761102766
 40
1.0
 40
1.0
 40
1.0
 40
1.0
 10
7.057722507797341
 20
7.372661256951211
 30
0.0
 10
7.05884230767312
 20
7.372569866457487
 30
0.0
 10
7.061080682151117
 20
7.372387185468582
 30
0.0
 10
7.063167616991289
 20
7.371431200890881
 30
0.0
 10
7.063873252692848
 20
7.369911120173838
 30
0.0
 10
7.062799101584913
 20
7.367308868071693
 30
0.0
 10
7.059185402919881
 20
7.363546139808054
 30
0.0
 10
7.054265243752825
 20
7.360512818682929
 30
0.0
 10
7.051803021093797
 20
7.358994836895594
 30
0.0
  0
SPLINE
  5
1A4
330
1F
100
AcDbEntity
  8
0
  6
Continuous
 62
     7
370
     0
100
AcDbSpline
210
0.0
220
0.0
230
1.0
 70
    24
 71
     1
 72
     4
 73
     2
 74
     0
 42
0.00000001
 43
0.00000001
 40
0.0
 40
0.0
 40
1.0
 40
1.0
 10
7.049168051307048
 20
7.371893790456238
 30
0.0
 10
7.05772250779734
 20
7.372661256951211
 30
0.0
  0
SPLINE
  5
1A5
330
1F
100
AcDbEntity
  8
0
  6
Continuous
 62
     7
370
     0
100
AcDbSpline
210
0.0
220
0.0
230
1.0
 70
    24
 71
     1
 72
     4
 73
     2
 74
     0
 42
0.00000001
 43
0.00000001
 40
0.0
 40
0.0
 40
1.0
 40
1.0
 10
7.03916682058301
 20
7.369084087407591
 30
0.0
 10
7.049168051307048
 20
7.371893790456238
 30
0.0
  0
LINE
  5
1A6
330
1F
100
AcDbEntity
  8
0
  6
Continuous
 62
     7
370
     0
100
AcDbLine
 10
7.0450555508
 20
7.372483579
 30
0.0
 11
7.0391668206
 21
7.3690840874
 31
0.0
  0
ARC
  5
1A7
330
1F
100
AcDbEntity
  8
0
  6
Continuous
 62
     7
370
     0
100
AcDbCircle
 10
7.0454477559
 20
7.1164610617
 30
0.0
 40
0.2560228176785181
100
AcDbArc
 50
90.0877722816
 51
92.9256259576
  0
LINE
  5
1A8
330
1F
100
AcDbEntity
  8
0
  6
Continuous
 62
     7
370
     0
100
AcDbLine
 10
6.9758119062
 20
7.3394938623
 30
0.0
 11
7.0323804487
 21
7.3721501867
 31
0.0
  0
ARC
  5
1A9
330
1F
100
AcDbEntity
  8
0
  6
Continuous
 62
     7
370
     0
100
AcDbCircle
 10
6.988896084
 20
7.0833076693
 30
0.0
 40
0.2565200989355584
100
AcDbArc
 50
89.8666108574
 51
92.9237226177
  0
SPLINE
  5
1AA
330
1F
100
AcDbEntity
  8
0
  6
Continuous
 62
     7
370
     0
100
AcDbSpline
210
0.0
220
0.0
230
1.0
 70
    24
 71
     1
 72
     4
 73
     2
 74
     0
 42
0.00000001
 43
0.00000001
 40
0.0
 40
0.0
 40
1.0
 40
1.0
 10
6.925792597076113
 20
7.338371353213967
 30
0.0
 10
6.909347191462748
 20
7.329426805282443
 30
0.0
  0
ARC
  5
1AB
330
1F
100
AcDbEntity
  8
0
  6
Continuous
 62
     7
370
     0
100
AcDbCircle
 10
6.2488605273
 20
8.6962247993
 30
0.0
 40
1.517235317272332
100
AcDbArc
 50
296.4976787487
 51
296.9950598427
  0
SPLINE
  5
1AC
330
1F
100
AcDbEntity
  8
0
  6
Continuous
 62
     7
370
     0
100
AcDbSpline
210
0.0
220
0.0
230
1.0
 70
     8
 71
     3
 72
     9
 73
     5
 74
     0
 42
0.00000001
 43
0.00000001
 40
0.0
 40
0.0
 40
0.0
 40
0.0
 40
0.5005138828869168
 40
1.0
 40
1.0
 40
1.0
 40
1.0
 10
6.946811854070399
 20
7.349340128797142
 30
0.0
 10
6.945401427860882
 20
7.348537625627131
 30
0.0
 10
6.942583471640808
 20
7.346934267164062
 30
0.0
 10
6.939229597576789
 20
7.345176718439153
 30
0.0
 10
6.937554384043266
 20
7.344298847250911
 30
0.0
  0
SPLINE
  5
1AD
330
1F
100
AcDbEntity
  8
0
  6
Continuous
 62
     7
370
     0
100
AcDbSpline
210
0.0
220
0.0
230
1.0
 70
     8
 71
     3
 72
    13
 73
     9
 74
     0
 42
0.00000001
 43
0.00000001
 40
0.0
 40
0.0
 40
0.0
 40
0.0
 40
0.2503342404083107
 40
0.4997600710238447
 40
0.6241777149101309
 40
0.7517673256839265
 40
0.8742692938021273
 40
0.9999999999999999
 40
0.9999999999999999
 40
0.9999999999999999
 40
0.9999999999999999
 10
6.946625247081095
 20
7.350525872944261
 30
0.0
 10
6.947830878778429
 20
7.351112666452303
 30
0.0
 10
6.950237767191717
 20
7.352284124119368
 30
0.0
 10
6.951895970933496
 20
7.352866613384903
 30
0.0
 10
6.951728907026399
 20
7.352497028972479
 30
0.0
 10
6.950944989999144
 20
7.351865603785589
 30
0.0
 10
6.949282125322632
 20
7.350787392165397
 30
0.0
 10
6.947642387125845
 20
7.349826715064212
 30
0.0
 10
6.946811854070399
 20
7.349340128797142
 30
0.0
  0
SPLINE
  5
1AE
330
1F
100
AcDbEntity
  8
0
  6
Continuous
 62
     7
370
     0
100
AcDbSpline
210
0.0
220
0.0
230
1.0
 70
    24
 71
     1
 72
     4
 73
     2
 74
     0
 42
0.00000001
 43
0.00000001
 40
0.0
 40
0.0
 40
1.0
 40
1.0
 10
6.937859029954752
 20
7.345837845824819
 30
0.0
 10
6.946625247081095
 20
7.350525872944261
 30
0.0
  0
SPLINE
  5
1AF
330
1F
100
AcDbEntity
  8
0
  6
Continuous
 62
     7
370
     0
100
AcDbSpline
210
0.0
220
0.0
230
1.0
 70
    24
 71
     1
 72
     4
 73
     2
 74
     0
 42
0.00000001
 43
0.00000001
 40
0.0
 40
0.0
 40
1.0
 40
1.0
 10
6.929228071597588
 20
7.340901337147355
 30
0.0
 10
6.937859029954752
 20
7.345837845824819
 30
0.0
  0
SPLINE
  5
1B0
330
1F
100
AcDbEntity
  8
0
  6
Continuous
 62
     7
370
     0
100
AcDbSpline
210
0.0
220
0.0
230
1.0
 70
     8
 71
     3
 72
     9
 73
     5
 74
     0
 42
0.00000001
 43
0.00000001
 40
0.0
 40
0.0
 40
0.0
 40
0.0
 40
0.4987757766930748
 40
1.0
 40
1.0
 40
1.0
 40
1.0
 10
6.911733516343731
 20
7.329930341782564
 30
0.0
 10
6.909137673441277
 20
7.328603816250135
 30
0.0
 10
6.903933244870857
 20
7.325944253387591
 30
0.0
 10
6.900300207910774
 20
7.324019187296224
 30
0.0
 10
6.898479241782213
 20
7.323054297539763
 30
0.0
  0
ARC
  5
1B1
330
1F
100
AcDbEntity
  8
0
  6
Continuous
 62
     7
370
     0
100
AcDbCircle
 10
6.667085363
 20
7.8053988538
 30
0.0
 40
0.5347177057665239
100
AcDbArc
 50
297.2276881524
 51
299.3035145063
  0
SPLINE
  5
1B2
330
1F
100
AcDbEntity
  8
0
  6
Continuous
 62
     7
370
     0
100
AcDbSpline
210
0.0
220
0.0
230
1.0
 70
    24
 71
     1
 72
     4
 73
     2
 74
     0
 42
0.00000001
 43
0.00000001
 40
0.0
 40
0.0
 40
1.0
 40
1.0
 10
6.918302330102861
 20
7.33430908037361
 30
0.0
 10
6.928795427756206
 20
7.339104025540585
 30
0.0
  0
SPLINE
  5
1B3
330
1F
100
AcDbEntity
  8
0
  6
Continuous
 62
     7
370
     0
100
AcDbSpline
210
0.0
220
0.0
230
1.0
 70
     8
 71
     3
 72
     9
 73
     5
 74
     0
 42
0.00000001
 43
0.00000001
 40
0.0
 40
0.0
 40
0.0
 40
0.0
 40
0.4983624828367245
 40
0.9999999999999999
 40
0.9999999999999999
 40
0.9999999999999999
 40
0.9999999999999999
 10
6.912852850735155
 20
7.331258384225915
 30
0.0
 10
6.913778533927788
 20
7.33177185955555
 30
0.0
 10
6.915635983524244
 20
7.332802184564593
 30
0.0
 10
6.917411609497984
 20
7.33380568626976
 30
0.0
 10
6.918302330102861
 20
7.33430908037361
 30
0.0
  0
SPLINE
  5
1B4
330
1F
100
AcDbEntity
  8
0
  6
Continuous
 62
     7
370
     0
100
AcDbSpline
210
0.0
220
0.0
230
1.0
 70
     8
 71
     3
 72
     9
 73
     5
 74
     0
 42
0.00000001
 43
0.00000001
 40
0.0
 40
0.0
 40
0.0
 40
0.0
 40
0.5014167496225427
 40
1.0
 40
1.0
 40
1.0
 40
1.0
 10
6.907729608196043
 20
7.328450728185693
 30
0.0
 10
6.908417914114382
 20
7.328828382754019
 30
0.0
 10
6.909790636343659
 20
7.329581557769831
 30
0.0
 10
6.911834042601353
 20
7.330700498913515
 30
0.0
 10
6.912852850735155
 20
7.331258384225915
 30
0.0
  0
LINE
  5
1B5
330
1F
100
AcDbEntity
  8
0
  6
Continuous
 62
     7
370
     0
100
AcDbLine
 10
7.2298293633
 20
7.128500057
 30
0.0
 11
7.2526037115
 21
7.1416474084
 31
0.0
  0
ARC
  5
1B6
330
1F
100
AcDbEntity
  8
0
  6
Continuous
 62
     7
370
     0
100
AcDbCircle
 10
6.6580719551
 20
6.5382907441
 30
0.0
 40
0.8217381375766092
100
AcDbArc
 50
45.9097742558
 51
47.9194026911
  0
LINE
  5
1B7
330
1F
100
AcDbEntity
  8
0
  6
Continuous
 62
     7
370
     0
100
AcDbLine
 10
7.1970260698
 20
7.1414013874
 30
0.0
 11
7.2087805721
 21
7.1481871172
 31
0.0
  0
ARC
  5
1B8
330
1F
100
AcDbEntity
  8
0
  6
Continuous
 62
     7
370
     0
100
AcDbCircle
 10
6.6463174528
 20
6.5315050144
 30
0.0
 40
0.8217381375776445
100
AcDbArc
 50
45.9097742559
 51
47.9194026911
  0
LINE
  5
1B9
330
1F
100
AcDbEntity
  8
0
  6
Continuous
 62
     7
370
     0
100
AcDbLine
 10
7.2092589842
 20
7.1166250299
 30
0.0
 11
7.2180748609
 21
7.1217143272
 31
0.0
  0
ARC
  5
1BA
330
1F
100
AcDbEntity
  8
0
  6
Continuous
 62
     7
370
     0
100
AcDbCircle
 10
6.6398869097
 20
6.5289413136
 30
0.0
 40
0.8182644496822413
100
AcDbArc
 50
45.9066911204
 51
48.2578714861
  0
LINE
  5
1BB
330
1F
100
AcDbEntity
  8
0
  6
Continuous
 62
     7
370
     0
100
AcDbLine
 10
7.1714465157
 20
7.131854445
 30
0.0
 11
7.1846703308
 21
7.1394883909
 31
0.0
  0
ARC
  5
1BC
330
1F
100
AcDbEntity
  8
0
  6
Continuous
 62
     7
370
     0
100
AcDbCircle
 10
6.6157242442
 20
6.5094916857
 30
0.0
 40
0.8343636180142793
100
AcDbArc
 50
44.3255331477
 51
48.237588021
  0
LINE
  5
1BD
330
1F
100
AcDbEntity
  8
0
  6
Continuous
 62
     7
370
     0
100
AcDbLine
 10
7.2691810188
 20
7.1251463683
 30
0.0
 11
7.2126124763
 21
7.0924900438
 31
0.0
  0
ARC
  5
1BE
330
1F
100
AcDbEntity
  8
0
  6
Continuous
 62
     7
370
     0
100
AcDbCircle
 10
6.6557646842
 20
6.5254723319
 30
0.0
 40
0.8578394659459894
100
AcDbArc
 50
44.3509617859
 51
45.9132459239
  0
LINE
  5
1BF
330
1F
100
AcDbEntity
  8
0
  6
Continuous
 62
     7
370
     0
100
AcDbLine
 10
7.1007757016
 20
7.2262396205
 30
0.0
 11
7.1132648603
 21
7.2334494584
 31
0.0
  0
ARC
  5
1C0
330
1F
100
AcDbEntity
  8
0
  6
Continuous
 62
     7
370
     0
100
AcDbCircle
 10
6.7768711989
 20
6.6897947092
 30
0.0
 40
0.6266476439731377
100
AcDbArc
 50
54.3020111033
 51
58.8764938353
  0
LINE
  5
1C1
330
1F
100
AcDbEntity
  8
0
  6
Continuous
 62
     7
370
     0
100
AcDbLine
 10
7.1550172204
 20
7.2059076109
 30
0.0
 11
7.1425280617
 21
7.1986977731
 31
0.0
  0
ARC
  5
1C2
330
1F
100
AcDbEntity
  8
0
  6
Continuous
 62
     7
370
     0
100
AcDbCircle
 10
6.7893603576
 20
6.6970045471
 30
0.0
 40
0.6266476439727607
100
AcDbArc
 50
54.3020111033
 51
58.8764938353
  0
ARC
  5
1C3
330
1F
100
AcDbEntity
  8
0
  6
Continuous
 62
     7
370
     0
100
AcDbCircle
 10
7.0526385431
 20
7.2242165807
 30
0.0
 40
0.0136930515852783
100
AcDbArc
 50
59.0652470622
 51
113.6106237006
  0
SPLINE
  5
1C4
330
1F
100
AcDbEntity
  8
0
  6
Continuous
 62
     7
370
     0
100
AcDbSpline
210
0.0
220
0.0
230
1.0
 70
    24
 71
     1
 72
     4
 73
     2
 74
     0
 42
0.00000001
 43
0.00000001
 40
0.0
 40
0.0
 40
1.0
 40
1.0
 10
7.061615462619354
 20
7.234779063899676
 30
0.0
 10
7.05967761542249
 20
7.235961840352314
 30
0.0
  0
SPLINE
  5
1C5
330
1F
100
AcDbEntity
  8
0
  6
Continuous
 62
     7
370
     0
100
AcDbSpline
210
0.0
220
0.0
230
1.0
 70
    24
 71
     1
 72
     4
 73
     2
 74
     0
 42
0.00000001
 43
0.00000001
 40
0.0
 40
0.0
 40
1.0
 40
1.0
 10
7.074448291465064
 20
7.241286113485263
 30
0.0
 10
7.061615462619354
 20
7.234779063899676
 30
0.0
  0
SPLINE
  5
1C6
330
1F
100
AcDbEntity
  8
0
  6
Continuous
 62
     7
370
     0
100
AcDbSpline
210
0.0
220
0.0
230
1.0
 70
    24
 71
     1
 72
     4
 73
     2
 74
     0
 42
0.00000001
 43
0.00000001
 40
0.0
 40
0.0
 40
1.0
 40
1.0
 10
7.068266981074817
 20
7.243585536822468
 30
0.0
 10
7.074448291465064
 20
7.241286113485263
 30
0.0
  0
SPLINE
  5
1C7
330
1F
100
AcDbEntity
  8
0
  6
Continuous
 62
     7
370
     0
100
AcDbSpline
210
0.0
220
0.0
230
1.0
 70
     8
 71
     3
 72
    13
 73
     9
 74
     0
 42
0.00000001
 43
0.00000001
 40
0.0
 40
0.0
 40
0.0
 40
0.0
 40
0.2497052322949269
 40
0.3757637578604032
 40
0.4998603526091792
 40
0.6227837955515747
 40
0.750123010890104
 40
1.0
 40
1.0
 40
1.0
 40
1.0
 10
7.06800692777514
 20
7.251955126513178
 30
0.0
 10
7.067035294436634
 20
7.251318254467407
 30
0.0
 10
7.0655731520891
 20
7.250359870732328
 30
0.0
 10
7.064609495391194
 20
7.248817368880938
 30
0.0
 10
7.064414348763658
 20
7.247631885336368
 30
0.0
 10
7.064748480522987
 20
7.24646997481558
 30
0.0
 10
7.065821184861202
 20
7.245019864883242
 30
0.0
 10
7.06729240791709
 20
7.244157071613315
 30
0.0
 10
7.068266981074817
 20
7.243585536822468
 30
0.0
  0
ARC
  5
1C8
330
1F
100
AcDbEntity
  8
0
  6
Continuous
 62
     7
370
     0
100
AcDbCircle
 10
7.0763670175
 20
7.237186179
 30
0.0
 40
0.0169709430883588
100
AcDbArc
 50
64.5907947976
 51
119.51240386
  0
SPLINE
  5
1C9
330
1F
100
AcDbEntity
  8
0
  6
Continuous
 62
     7
370
     0
100
AcDbSpline
210
0.0
220
0.0
230
1.0
 70
     8
 71
     3
 72
    13
 73
     9
 74
     0
 42
0.00000001
 43
0.00000001
 40
0.0
 40
0.0
 40
0.0
 40
0.0
 40
0.2501415719053007
 40
0.3843129849639906
 40
0.5002824892637746
 40
0.6227694433912213
 40
0.7504075187779062
 40
0.9999999999999999
 40
0.9999999999999999
 40
0.9999999999999999
 40
0.9999999999999999
 10
7.084616671239093
 20
7.243891269132972
 30
0.0
 10
7.085327855938802
 20
7.244606515487246
 30
0.0
 10
7.086420507243118
 20
7.245705407044142
 30
0.0
 10
7.087247306701995
 20
7.247266778398296
 30
0.0
 10
7.087442668254043
 20
7.248466461757198
 30
0.0
 10
7.087090388991365
 20
7.249616991638996
 30
0.0
 10
7.086048245536938
 20
7.251086590584747
 30
0.0
 10
7.084604295547351
 20
7.251946504171072
 30
0.0
 10
7.083648914138427
 20
7.252515461170677
 30
0.0
  0
SPLINE
  5
1CA
330
1F
100
AcDbEntity
  8
0
  6
Continuous
 62
     7
370
     0
100
AcDbSpline
210
0.0
220
0.0
230
1.0
 70
    24
 71
     1
 72
     4
 73
     2
 74
     0
 42
0.00000001
 43
0.00000001
 40
0.0
 40
0.0
 40
1.0
 40
1.0
 10
7.101866943306789
 20
7.236314138433937
 30
0.0
 10
7.084616671239093
 20
7.243891269132972
 30
0.0
  0
SPLINE
  5
1CB
330
1F
100
AcDbEntity
  8
0
  6
Continuous
 62
     7
370
     0
100
AcDbSpline
210
0.0
220
0.0
230
1.0
 70
     8
 71
     3
 72
    12
 73
     8
 74
     0
 42
0.00000001
 43
0.00000001
 40
0.0
 40
0.0
 40
0.0
 40
0.0
 40
0.2504808463209916
 40
0.4996637882953472
 40
0.6228176769909493
 40
0.7500185303840924
 40
1.0
 40
1.0
 40
1.0
 40
1.0
 10
7.094347808732206
 20
7.259042496352348
 30
0.0
 10
7.096948015167745
 20
7.25761380525184
 30
0.0
 10
7.10213495467635
 20
7.254763826029603
 30
0.0
 10
7.106185656580987
 20
7.24987893514602
 30
0.0
 10
7.106915714193332
 20
7.245599078739
 30
0.0
 10
7.106023478156654
 20
7.241262970306564
 30
0.0
 10
7.103523698212761
 20
7.238286695330475
 30
0.0
 10
7.101866943306789
 20
7.236314138433937
 30
0.0
  0
ARC
  5
1CC
330
1F
100
AcDbEntity
  8
0
  6
Continuous
 62
     7
370
     0
100
AcDbCircle
 10
7.0733407326
 20
7.2197177612
 30
0.0
 40
0.0445839886354824
100
AcDbArc
 50
61.8890909429
 51
118.3305739071
  0
SPLINE
  5
1CD
330
1F
100
AcDbEntity
  8
0
  6
Continuous
 62
     7
370
     0
100
AcDbSpline
210
0.0
220
0.0
230
1.0
 70
     8
 71
     3
 72
    12
 73
     8
 74
     0
 42
0.00000001
 43
0.00000001
 40
0.0
 40
0.0
 40
0.0
 40
0.0
 40
0.2497954480615744
 40
0.4995321808026824
 40
0.7494846482107735
 40
0.8747133485809292
 40
1.0
 40
1.0
 40
1.0
 40
1.0
 10
7.046379408392458
 20
7.249628825922991
 30
0.0
 10
7.046171063413092
 20
7.250441823794628
 30
0.0
 10
7.045754422426596
 20
7.252067628439825
 30
0.0
 10
7.04676394638939
 20
7.254583746546992
 30
0.0
 10
7.048594957287693
 20
7.256538139533259
 30
0.0
 10
7.050530584941872
 20
7.257966647751349
 30
0.0
 10
7.051632140118063
 20
7.258629944130429
 30
0.0
 10
7.052183045116069
 20
7.258961669039262
 30
0.0
  0
SPLINE
  5
1CE
330
1F
100
AcDbEntity
  8
0
  6
Continuous
 62
     7
370
     0
100
AcDbSpline
210
0.0
220
0.0
230
1.0
 70
    24
 71
     1
 72
     4
 73
     2
 74
     0
 42
0.00000001
 43
0.00000001
 40
0.0
 40
0.0
 40
1.0
 40
1.0
 10
7.049321787242874
 20
7.24620327414041
 30
0.0
 10
7.046379408392458
 20
7.249628825922991
 30
0.0
  0
ARC
  5
1CF
330
1F
100
AcDbEntity
  8
0
  6
Continuous
 62
     7
370
     0
100
AcDbCircle
 10
7.0446377353
 20
7.2130737781
 30
0.0
 40
0.0334589875601632
100
AcDbArc
 50
81.9525105652
 51
115.4397252695
  0
SPLINE
  5
1D0
330
1F
100
AcDbEntity
  8
0
  6
Continuous
 62
     7
370
     0
100
AcDbSpline
210
0.0
220
0.0
230
1.0
 70
     8
 71
     3
 72
    13
 73
     9
 74
     0
 42
0.00000001
 43
0.00000001
 40
0.0
 40
0.0
 40
0.0
 40
0.0
 40
0.2504883842035422
 40
0.5001800141162577
 40
0.6251581803520775
 40
0.7501586530200468
 40
0.8750261463238828
 40
1.0
 40
1.0
 40
1.0
 40
1.0
 10
7.037433339377334
 20
7.224957747407102
 30
0.0
 10
7.035141278403319
 20
7.22621150806386
 30
0.0
 10
7.030564447050507
 20
7.228715041411285
 30
0.0
 10
7.026245116148226
 20
7.232433362448116
 30
0.0
 10
7.024943882377087
 20
7.235849399390308
 30
0.0
 10
7.025280648421945
 20
7.238501171415268
 30
0.0
 10
7.026948734228598
 20
7.241115523143923
 30
0.0
 10
7.029159296105068
 20
7.24256397191178
 30
0.0
 10
7.030265047574273
 20
7.243288504606467
 30
0.0
  0
ARC
  5
1D1
330
1F
100
AcDbEntity
  8
0
  6
Continuous
 62
     7
370
     0
100
AcDbCircle
 10
7.0598887014
 20
7.2648729704
 30
0.0
 40
0.0457981256234604
100
AcDbArc
 50
240.6389217693
 51
289.1828042859
  0
SPLINE
  5
1D2
330
1F
100
AcDbEntity
  8
0
  6
Continuous
 62
     7
370
     0
100
AcDbSpline
210
0.0
220
0.0
230
1.0
 70
    24
 71
     1
 72
     4
 73
     2
 74
     0
 42
0.00000001
 43
0.00000001
 40
0.0
 40
0.0
 40
1.0
 40
1.0
 10
7.061842758357361
 20
7.231562682663134
 30
0.0
 10
7.074937196259971
 20
7.221617784432414
 30
0.0
  0
ARC
  5
1D3
330
1F
100
AcDbEntity
  8
0
  6
Continuous
 62
     7
370
     0
100
AcDbCircle
 10
7.0549008104
 20
7.2450115926
 30
0.0
 40
0.0151348544703355
100
AcDbArc
 50
244.8332422786
 51
297.3015066576
  0
SPLINE
  5
1D4
330
1F
100
AcDbEntity
  8
0
  6
Continuous
 62
     7
370
     0
100
AcDbSpline
210
0.0
220
0.0
230
1.0
 70
     8
 71
     3
 72
    13
 73
     9
 74
     0
 42
0.00000001
 43
0.00000001
 40
0.0
 40
0.0
 40
0.0
 40
0.0
 40
0.1251991584233375
 40
0.2501552769131212
 40
0.3738193148083759
 40
0.5002363381765855
 40
0.7496760703869999
 40
1.0
 40
1.0
 40
1.0
 40
1.0
 10
7.047154216691806
 20
7.23676336619214
 30
0.0
 10
7.046831390948157
 20
7.236559081421147
 30
0.0
 10
7.04618636613877
 20
7.236150908442188
 30
0.0
 10
7.045597190667
 20
7.235412948882589
 30
0.0
 10
7.045356864898408
 20
7.234632970423013
 30
0.0
 10
7.045555334062367
 20
7.233603949163046
 30
0.0
 10
7.046527931479109
 20
7.232413980737925
 30
0.0
 10
7.047818315657868
 20
7.231680712935244
 30
0.0
 10
7.048464649241144
 20
7.231313430373811
 30
0.0
  0
LINE
  5
1D5
330
1F
100
AcDbEntity
  8
0
  6
Continuous
 62
     7
370
     0
100
AcDbLine
 10
6.9752271233
 20
7.2835716372
 30
0.0
 11
6.9959352504
 21
7.2955261846
 31
0.0
  0
ARC
  5
1D6
330
1F
100
AcDbEntity
  8
0
  6
Continuous
 62
     7
370
     0
100
AcDbCircle
 10
6.9630347114
 20
7.3013705899
 30
0.0
 40
0.0215744669289262
100
AcDbArc
 50
262.720933188
 51
304.4114268406
  0
SPLINE
  5
1D7
330
1F
100
AcDbEntity
  8
0
  6
Continuous
 62
     7
370
     0
100
AcDbSpline
210
0.0
220
0.0
230
1.0
 70
     8
 71
     3
 72
    11
 73
     7
 74
     0
 42
0.00000001
 43
0.00000001
 40
0.0
 40
0.0
 40
0.0
 40
0.0
 40
0.2500620333659077
 40
0.4999138376966744
 40
0.749840167300766
 40
0.9999999999999999
 40
0.9999999999999999
 40
0.9999999999999999
 40
0.9999999999999999
 10
6.959030014511632
 20
7.282904061721214
 30
0.0
 10
6.95875547999096
 20
7.282581225751966
 30
0.0
 10
6.958206641752855
 20
7.281935825224101
 30
0.0
 10
6.958212230730889
 20
7.281062087229857
 30
0.0
 10
6.958884259182213
 20
7.28035922735973
 30
0.0
 10
6.959828725229286
 20
7.280099780082326
 30
0.0
 10
6.960301178750572
 20
7.279969995872319
 30
0.0
  0
SPLINE
  5
1D8
330
1F
100
AcDbEntity
  8
0
  6
Continuous
 62
     7
370
     0
100
AcDbSpline
210
0.0
220
0.0
230
1.0
 70
    24
 71
     1
 72
     4
 73
     2
 74
     0
 42
0.00000001
 43
0.00000001
 40
0.0
 40
0.0
 40
1.0
 40
1.0
 10
6.962363305076948
 20
7.285065972375838
 30
0.0
 10
6.959030014511632
 20
7.282904061721214
 30
0.0
  0
LINE
  5
1D9
330
1F
100
AcDbEntity
  8
0
  6
Continuous
 62
     7
370
     0
100
AcDbLine
 10
6.9847129301
 20
7.2979681363
 30
0.0
 11
6.9623633051
 21
7.2850659724
 31
0.0
  0
ARC
  5
1DA
330
1F
100
AcDbEntity
  8
0
  6
Continuous
 62
     7
370
     0
100
AcDbCircle
 10
6.9210238981
 20
6.9798664725
 30
0.0
 40
0.3244147982620487
100
AcDbArc
 50
78.6781699836
 51
81.2922582539
  0
LINE
  5
1DB
330
1F
100
AcDbEntity
  8
0
  6
Continuous
 62
     7
370
     0
100
AcDbLine
 10
6.9491433741
 20
7.2884216694
 30
0.0
 11
6.9701384764
 21
7.3005418839
 31
0.0
  0
ARC
  5
1DC
330
1F
100
AcDbEntity
  8
0
  6
Continuous
 62
     7
370
     0
100
AcDbCircle
 10
6.936003578
 20
7.3079210568
 30
0.0
 40
0.0235134078900287
100
AcDbArc
 50
266.7779194493
 51
303.9743303223
  0
SPLINE
  5
1DD
330
1F
100
AcDbEntity
  8
0
  6
Continuous
 62
     7
370
     0
100
AcDbSpline
210
0.0
220
0.0
230
1.0
 70
     8
 71
     3
 72
    10
 73
     6
 74
     0
 42
0.00000001
 43
0.00000001
 40
0.0
 40
0.0
 40
0.0
 40
0.0
 40
0.4988226573032906
 40
0.7491700015752153
 40
1.0
 40
1.0
 40
1.0
 40
1.0
 10
6.932944835893611
 20
7.286150281032078
 30
0.0
 10
6.932878966454834
 20
7.28574897273274
 30
0.0
 10
6.932780038695982
 20
7.2851462572489
 30
0.0
 10
6.933645248017675
 20
7.284640510688594
 30
0.0
 10
6.934336178800023
 20
7.284510091725033
 30
0.0
 10
6.934681976888411
 20
7.28444481944387
 30
0.0
  0
SPLINE
  5
1DE
330
1F
100
AcDbEntity
  8
0
  6
Continuous
 62
     7
370
     0
100
AcDbSpline
210
0.0
220
0.0
230
1.0
 70
     8
 71
     3
 72
     9
 73
     5
 74
     0
 42
0.00000001
 43
0.00000001
 40
0.0
 40
0.0
 40
0.0
 40
0.0
 40
0.501577137328081
 40
0.9999999999999999
 40
0.9999999999999999
 40
0.9999999999999999
 40
0.9999999999999999
 10
6.93598687321862
 20
7.288640626301957
 30
0.0
 10
6.935266638550665
 20
7.288215514387078
 30
0.0
 10
6.933830698563865
 20
7.287367963964138
 30
0.0
 10
6.933239501851427
 20
7.286555320909635
 30
0.0
 10
6.932944835893611
 20
7.286150281032078
 30
0.0
  0
LINE
  5
1DF
330
1F
100
AcDbEntity
  8
0
  6
Continuous
 62
     7
370
     0
100
AcDbLine
 10
6.9591629867
 20
7.3020199118
 30
0.0
 11
6.9359868732
 21
7.2886406263
 31
0.0
  0
ARC
  5
1E0
330
1F
100
AcDbEntity
  8
0
  6
Continuous
 62
     7
370
     0
100
AcDbCircle
 10
6.9254479652
 20
7.0125342084
 30
0.0
 40
0.2914424045456688
100
AcDbArc
 50
83.3569612218
 51
86.1646846866
  0
LINE
  5
1E1
330
1F
100
AcDbEntity
  8
0
  6
Continuous
 62
     7
370
     0
100
AcDbLine
 10
6.9192177745
 20
7.2884734966
 30
0.0
 11
6.9449422274
 21
7.3033239072
 31
0.0
  0
SPLINE
  5
1E2
330
1F
100
AcDbEntity
  8
0
  6
Continuous
 62
     7
370
     0
100
AcDbSpline
210
0.0
220
0.0
230
1.0
 70
     8
 71
     3
 72
    13
 73
     9
 74
     0
 42
0.00000001
 43
0.00000001
 40
0.0
 40
0.0
 40
0.0
 40
0.0
 40
0.2493551011006047
 40
0.3758643206429884
 40
0.4994912623301919
 40
0.618444907274833
 40
0.7497843925018026
 40
1.0
 40
1.0
 40
1.0
 40
1.0
 10
6.916073007820948
 20
7.277984397058208
 30
0.0
 10
6.914322472974291
 20
7.278276131953663
 30
0.0
 10
6.911683811932281
 20
7.278715877271904
 30
0.0
 10
6.910290280110437
 20
7.280140499554418
 30
0.0
 10
6.910331041855538
 20
7.281504379499651
 30
0.0
 10
6.911503382468329
 20
7.283132777042347
 30
0.0
 10
6.914253682003036
 20
7.285473526213438
 30
0.0
 10
6.917251723510981
 20
7.287285344947511
 30
0.0
 10
6.919217774525678
 20
7.288473496629578
 30
0.0
  0
ARC
  5
1E3
330
1F
100
AcDbEntity
  8
0
  6
Continuous
 62
     7
370
     0
100
AcDbCircle
 10
6.9208648345
 20
7.3284710683
 30
0.0
 40
0.0507135640033245
100
AcDbArc
 50
264.5781443236
 51
288.0175292642
  0
SPLINE
  5
1E4
330
1F
100
AcDbEntity
  8
0
  6
Continuous
 62
     7
370
     0
100
AcDbSpline
210
0.0
220
0.0
230
1.0
 70
     8
 71
     3
 72
    12
 73
     8
 74
     0
 42
0.00000001
 43
0.00000001
 40
0.0
 40
0.0
 40
0.0
 40
0.0
 40
0.2503533688407822
 40
0.4999961943216224
 40
0.7494886161542416
 40
0.8747044873187698
 40
1.0
 40
1.0
 40
1.0
 40
1.0
 10
6.941387167933001
 20
7.27408066559371
 30
0.0
 10
6.940226870890177
 20
7.274342041439222
 30
0.0
 10
6.937909569915238
 20
7.274864051303311
 30
0.0
 10
6.93554373914145
 20
7.276153469824902
 30
0.0
 10
6.93526212012222
 20
7.277745379379984
 30
0.0
 10
6.935771969757564
 20
7.279141555604961
 30
0.0
 10
6.936291230188187
 20
7.279876707014481
 30
0.0
 10
6.936550942944036
 20
7.280244399577352
 30
0.0
  0
ARC
  5
1E5
330
1F
100
AcDbEntity
  8
0
  6
Continuous
 62
     7
370
     0
100
AcDbCircle
 10
6.9493445267
 20
7.3200281616
 30
0.0
 40
0.0466314480723754
100
AcDbArc
 50
260.1747577797
 51
285.901555643
  0
LINE
  5
1E6
330
1F
100
AcDbEntity
  8
0
  6
Continuous
 62
     7
370
     0
100
AcDbLine
 10
6.9558074061
 20
7.2715364395
 30
0.0
 11
6.9621208595
 21
7.2751811185
 31
0.0
  0
ARC
  5
1E7
330
1F
100
AcDbEntity
  8
0
  6
Continuous
 62
     7
370
     0
100
AcDbCircle
 10
6.8716189318
 20
6.9183992095
 30
0.0
 40
0.3630338860092222
100
AcDbArc
 50
74.3316756744
 51
76.590892822
  0
LINE
  5
1E8
330
1F
100
AcDbEntity
  8
0
  6
Continuous
 62
     7
370
     0
100
AcDbLine
 10
7.0108035928
 20
7.2916932459
 30
0.0
 11
6.9696628347
 21
7.2679431917
 31
0.0
  0
ARC
  5
1E9
330
1F
100
AcDbEntity
  8
0
  6
Continuous
 62
     7
370
     0
100
AcDbCircle
 10
6.9129603151
 20
6.942903988
 30
0.0
 40
0.3622530239819756
100
AcDbArc
 50
74.3299901327
 51
76.7587092494
  0
LWPOLYLINE
  5
1EA
330
1F
100
AcDbEntity
  8
0
  6
Continuous
 62
     7
370
     0
100
AcDbPolyline
 90
       40
 70
   128
 43
0.0
 10
8.5301530712
 20
6.8794951451
 10
8.5516676668
 20
6.8938398732
 10
8.573431426
 20
6.9130250055
 10
8.5928504124
 20
6.93553069
 10
8.6097919748
 20
6.9612031901
 10
8.6241403851
 20
6.9898671364
 10
8.6357976291
 20
7.0213267253
 10
8.6446840759
 20
7.0553670559
 10
8.6507390222
 20
7.0917555981
 10
8.6539211066
 20
7.1302437813
 10
8.6542085921
 20
7.1705686921
 10
8.6515995149
 20
7.2124548707
 10
8.6461116978
 20
7.2556161918
 10
8.637782628
 20
7.29975782
 10
8.6266692015
 20
7.3445782231
 10
8.6128473343
 20
7.3897712323
 10
8.5964114438
 20
7.4350281335
 10
8.5774738038
 20
7.4800397763
 10
8.5561637776
 20
7.5244986854
 10
8.5326269342
 20
7.5681011615
 10
8.5070240541
 20
7.6105493554
 10
8.479530031
 20
7.6515533028
 10
8.450332677
 20
7.6908329054
 10
8.4196314396
 20
7.7281198434
 10
8.3876360393
 20
7.7631594095
 10
8.3545650371
 20
7.7957122477
 10
8.3206443417
 20
7.8255559892
 10
8.2861056657
 20
7.852486771
 10
8.2511849432
 20
7.8763206285
 10
8.2161207183
 20
7.8968947523
 10
8.1811525151
 20
7.9140686003
 10
8.1465192019
 20
7.9277248577
 10
8.1124573594
 20
7.9377702385
 10
8.0791996645
 20
7.9441361224
 10
8.046973301
 20
7.946779024
 10
8.0159984076
 20
7.9456808896
 10
7.9864865743
 20
7.9408492207
 10
7.9586393967
 20
7.9323170223
 10
7.9326470994
 20
7.9201425782
 10
7.9302018316
 20
7.91875378
  0
LINE
  5
1EB
330
1F
100
AcDbEntity
  8
0
  6
Continuous
 62
     7
370
     0
100
AcDbLine
 10
6.9016989946
 20
7.2919465054
 30
0.0
 11
6.9224071218
 21
7.3039010527
 31
0.0
  0
ARC
  5
1EC
330
1F
100
AcDbEntity
  8
0
  6
Continuous
 62
     7
370
     0
100
AcDbCircle
 10
6.883583596
 20
7.3197965883
 30
0.0
 40
0.0332234072452047
100
AcDbArc
 50
276.3115233961
 51
303.042440363
  0
SPLINE
  5
1ED
330
1F
100
AcDbEntity
  8
0
  6
Continuous
 62
     7
370
     0
100
AcDbSpline
210
0.0
220
0.0
230
1.0
 70
     8
 71
     3
 72
    11
 73
     7
 74
     0
 42
0.00000001
 43
0.00000001
 40
0.0
 40
0.0
 40
0.0
 40
0.0
 40
0.2500620333659049
 40
0.4999138376966584
 40
0.7498401673007493
 40
0.9999999999999999
 40
0.9999999999999999
 40
0.9999999999999999
 40
0.9999999999999999
 10
6.886323605357546
 20
7.288529115436696
 30
0.0
 10
6.886032608177433
 20
7.288259723150825
 30
0.0
 10
6.885450858460728
 20
7.287721165059207
 30
0.0
 10
6.885369539138826
 20
7.287131164120646
 30
0.0
 10
6.885934815920981
 20
7.28677916086813
 30
0.0
 10
6.886802127119951
 20
7.286776089197976
 30
0.0
 10
6.887235985204393
 20
7.286774552645777
 30
0.0
  0
SPLINE
  5
1EE
330
1F
100
AcDbEntity
  8
0
  6
Continuous
 62
     7
370
     0
100
AcDbSpline
210
0.0
220
0.0
230
1.0
 70
    24
 71
     1
 72
     4
 73
     2
 74
     0
 42
0.00000001
 43
0.00000001
 40
0.0
 40
0.0
 40
1.0
 40
1.0
 10
6.889680762330739
 20
7.290613653684808
 30
0.0
 10
6.886323605357546
 20
7.288529115436696
 30
0.0
  0
LINE
  5
1EF
330
1F
100
AcDbEntity
  8
0
  6
Continuous
 62
     7
370
     0
100
AcDbLine
 10
6.9120303874
 20
7.3035158176
 30
0.0
 11
6.8896807623
 21
7.2906136537
 31
0.0
  0
ARC
  5
1F0
330
1F
100
AcDbEntity
  8
0
  6
Continuous
 62
     7
370
     0
100
AcDbCircle
 10
6.9259622482
 20
7.0615537304
 30
0.0
 40
0.2423628444681441
100
AcDbArc
 50
93.2953776113
 51
96.470419973
  0
LINE
  5
1F1
330
1F
100
AcDbEntity
  8
0
  6
Continuous
 62
     7
370
     0
100
AcDbLine
 10
6.8776552167
 20
7.2902525494
 30
0.0
 11
6.8986503191
 21
7.3023727639
 31
0.0
  0
ARC
  5
1F2
330
1F
100
AcDbEntity
  8
0
  6
Continuous
 62
     7
370
     0
100
AcDbCircle
 10
6.8560834531
 20
7.3242092343
 30
0.0
 40
0.0402293106795149
100
AcDbArc
 50
280.9487459564
 51
302.4266911974
  0
SPLINE
  5
1F3
330
1F
100
AcDbEntity
  8
0
  6
Continuous
 62
     7
370
     0
100
AcDbSpline
210
0.0
220
0.0
230
1.0
 70
     8
 71
     3
 72
    10
 73
     6
 74
     0
 42
0.00000001
 43
0.00000001
 40
0.0
 40
0.0
 40
0.0
 40
0.0
 40
0.4988226573032782
 40
0.7491700015752313
 40
1.0
 40
1.0
 40
1.0
 40
1.0
 10
6.862333719833993
 20
7.285421391400302
 30
0.0
 10
6.862220557966044
 20
7.285154943251252
 30
0.0
 10
6.862050602821569
 20
7.284754771051128
 30
0.0
 10
6.862787415893768
 20
7.284618408599191
 30
0.0
 10
6.863411763787584
 20
7.284680915107664
 30
0.0
 10
6.863724238370692
 20
7.284712198460054
 30
0.0
  0
SPLINE
  5
1F4
330
1F
100
AcDbEntity
  8
0
  6
Continuous
 62
     7
370
     0
100
AcDbSpline
210
0.0
220
0.0
230
1.0
 70
     8
 71
     3
 72
     9
 73
     5
 74
     0
 42
0.00000001
 43
0.00000001
 40
0.0
 40
0.0
 40
0.0
 40
0.0
 40
0.5015771373280717
 40
1.0
 40
1.0
 40
1.0
 40
1.0
 10
6.865472254163993
 20
7.287637770910678
 30
0.0
 10
6.864750750065637
 20
7.287216206557826
 30
0.0
 10
6.863312279201117
 20
7.286375728949341
 30
0.0
 10
6.862659219646633
 20
7.285738834269733
 30
0.0
 10
6.862333719833993
 20
7.285421391400302
 30
0.0
  0
LINE
  5
1F5
330
1F
100
AcDbEntity
  8
0
  6
Continuous
 62
     7
370
     0
100
AcDbLine
 10
6.8886483677
 20
7.3010170564
 30
0.0
 11
6.8654722542
 21
7.2876377709
 31
0.0
  0
ARC
  5
1F6
330
1F
100
AcDbEntity
  8
0
  6
Continuous
 62
     7
370
     0
100
AcDbCircle
 10
6.9235664046
 20
7.0794982351
 30
0.0
 40
0.2242540022376813
100
AcDbArc
 50
98.9578330138
 51
102.3015944177
  0
LINE
  5
1F7
330
1F
100
AcDbEntity
  8
0
  6
Continuous
 62
     7
370
     0
100
AcDbLine
 10
6.8500629378
 20
7.2837528755
 30
0.0
 11
6.8757873907
 21
7.298603286
 31
0.0
  0
SPLINE
  5
1F8
330
1F
100
AcDbEntity
  8
0
  6
Continuous
 62
     7
370
     0
100
AcDbSpline
210
0.0
220
0.0
230
1.0
 70
     8
 71
     3
 72
    13
 73
     9
 74
     0
 42
0.00000001
 43
0.00000001
 40
0.0
 40
0.0
 40
0.0
 40
0.0
 40
0.2493551011004036
 40
0.3758643206455167
 40
0.4994912623304469
 40
0.6184449072898868
 40
0.7497843925020145
 40
1.0
 40
1.0
 40
1.0
 40
1.0
 10
6.845670133200215
 20
7.276666074979935
 30
0.0
 10
6.844097220438987
 20
7.27646195414176
 30
0.0
 10
6.841726297270282
 20
7.276154273489422
 30
0.0
 10
6.840656095035683
 20
7.27670054776354
 30
0.0
 10
6.840895680292967
 20
7.277529518922734
 30
0.0
 10
6.842212110851706
 20
7.278773648106557
 30
0.0
 10
6.845077942428569
 20
7.280808000318634
 30
0.0
 10
6.848088608113007
 20
7.28258654452133
 30
0.0
 10
6.850062937790679
 20
7.283752875482815
 30
0.0
  0
ARC
  5
1F9
330
1F
100
AcDbEntity
  8
0
  6
Continuous
 62
     7
370
     0
100
AcDbCircle
 10
6.8306063526
 20
7.3627298759
 30
0.0
 40
0.0873721655672939
100
AcDbArc
 50
279.9279349824
 51
293.1507490068
  0
SPLINE
  5
1FA
330
1F
100
AcDbEntity
  8
0
  6
Continuous
 62
     7
370
     0
100
AcDbSpline
210
0.0
220
0.0
230
1.0
 70
     8
 71
     3
 72
    12
 73
     8
 74
     0
 42
0.00000001
 43
0.00000001
 40
0.0
 40
0.0
 40
0.0
 40
0.0
 40
0.2503533688407834
 40
0.4999961943216253
 40
0.7494886161542199
 40
0.8747044873187695
 40
1.0
 40
1.0
 40
1.0
 40
1.0
 10
6.868818560047025
 20
7.279260785249261
 30
0.0
 10
6.867754443072768
 20
7.279214897559985
 30
0.0
 10
6.865629229260367
 20
7.279123252418117
 30
0.0
 10
6.863551615637717
 20
7.279515115510278
 30
0.0
 10
6.863466703186257
 20
7.280504338018623
 30
0.0
 10
6.86410237399281
 20
7.281518509205143
 30
0.0
 10
6.864671975283438
 20
7.282101757096934
 30
0.0
 10
6.864956866471366
 20
7.282393473754677
 30
0.0
  0
ARC
  5
1FB
330
1F
100
AcDbEntity
  8
0
  6
Continuous
 62
     7
370
     0
100
AcDbCircle
 10
6.8630461003
 20
7.3491966884
 30
0.0
 40
0.070173726169458
100
AcDbArc
 50
274.7184571143
 51
291.2848586135
  0
LINE
  5
1FC
330
1F
100
AcDbEntity
  8
0
  6
Continuous
 62
     7
370
     0
100
AcDbLine
 10
6.8822060605
 20
7.2801650302
 30
0.0
 11
6.888519514
 21
7.2838097093
 31
0.0
  0
ARC
  5
1FD
330
1F
100
AcDbEntity
  8
0
  6
Continuous
 62
     7
370
     0
100
AcDbCircle
 10
6.8856410089
 20
7.014099661
 30
0.0
 40
0.2660875411829153
100
AcDbArc
 50
87.9605085595
 51
90.7396569998
  0
LINE
  5
1FE
330
1F
100
AcDbEntity
  8
0
  6
Continuous
 62
     7
370
     0
100
AcDbLine
 10
6.9362513768
 20
7.3037686992
 30
0.0
 11
6.8951106186
 21
7.280018645
 31
0.0
  0
ARC
  5
1FF
330
1F
100
AcDbEntity
  8
0
  6
Continuous
 62
     7
370
     0
100
AcDbCircle
 10
6.9267911535
 20
7.0383486958
 30
0.0
 40
0.2655885427023674
100
AcDbArc
 50
87.95870127
 51
90.9458160964
  0
ARC
  5
200
330
1F
100
AcDbEntity
  8
0
  6
Continuous
 62
     7
370
     0
100
AcDbCircle
 10
7.0254128877
 20
7.2249342147
 30
0.0
 40
0.059600959662756
100
AcDbArc
 50
73.4090160661
 51
126.5252179027
  0
SPLINE
  5
201
330
1F
100
AcDbEntity
  8
0
  6
Continuous
 62
     7
370
     0
100
AcDbSpline
210
0.0
220
0.0
230
1.0
 70
    24
 71
     1
 72
     4
 73
     2
 74
     0
 42
0.00000001
 43
0.00000001
 40
0.0
 40
0.0
 40
1.0
 40
1.0
 10
6.978418174337068
 20
7.264796206800955
 30
0.0
 10
6.989939795049568
 20
7.272829246741638
 30
0.0
  0
SPLINE
  5
202
330
1F
100
AcDbEntity
  8
0
  6
Continuous
 62
     7
370
     0
100
AcDbSpline
210
0.0
220
0.0
230
1.0
 70
     8
 71
     3
 72
    12
 73
     8
 74
     0
 42
0.00000001
 43
0.00000001
 40
0.0
 40
0.0
 40
0.0
 40
0.0
 40
0.2503309494299795
 40
0.4997648043321484
 40
0.6249322238031016
 40
0.7501904501281146
 40
1.0
 40
1.0
 40
1.0
 40
1.0
 10
6.983975310322127
 20
7.248703927023759
 30
0.0
 10
6.981681598242287
 20
7.249620209303941
 30
0.0
 10
6.97710239390744
 20
7.251449490243878
 30
0.0
 10
6.973864704193105
 20
7.254732027938599
 30
0.0
 10
6.973570337839229
 20
7.257743851286942
 30
0.0
 10
6.974388091842525
 20
7.260886183019285
 30
0.0
 10
6.976807053158704
 20
7.263233081944061
 30
0.0
 10
6.978418174337068
 20
7.264796206800955
 30
0.0
  0
ARC
  5
203
330
1F
100
AcDbEntity
  8
0
  6
Continuous
 62
     7
370
     0
100
AcDbCircle
 10
7.0032130131
 20
7.3036870891
 30
0.0
 40
0.0582515005515011
100
AcDbArc
 50
250.7158990673
 51
304.72144985
  0
SPLINE
  5
204
330
1F
100
AcDbEntity
  8
0
  6
Continuous
 62
     7
370
     0
100
AcDbSpline
210
0.0
220
0.0
230
1.0
 70
     8
 71
     3
 72
     9
 73
     5
 74
     0
 42
0.00000001
 43
0.00000001
 40
0.0
 40
0.0
 40
0.0
 40
0.0
 40
0.4986702672090068
 40
1.0
 40
1.0
 40
1.0
 40
1.0
 10
7.052395080751038
 20
7.269438385869493
 30
0.0
 10
7.050530092092341
 20
7.266976550069835
 30
0.0
 10
7.046790168577078
 20
7.26203974921857
 30
0.0
 10
7.03986441328097
 20
7.257889184517055
 30
0.0
 10
7.036392326228995
 20
7.255808383024313
 30
0.0
  0
SPLINE
  5
205
330
1F
100
AcDbEntity
  8
0
  6
Continuous
 62
     7
370
     0
100
AcDbSpline
210
0.0
220
0.0
230
1.0
 70
     8
 71
     3
 72
    10
 73
     6
 74
     0
 42
0.00000001
 43
0.00000001
 40
0.0
 40
0.0
 40
0.0
 40
0.0
 40
0.4992067981606242
 40
0.7495375815250955
 40
1.0
 40
1.0
 40
1.0
 40
1.0
 10
7.042431200431457
 20
7.282053838556897
 30
0.0
 10
7.045876223960507
 20
7.280536660365454
 30
0.0
 10
7.05104877892926
 20
7.278258682428158
 30
0.0
 10
7.053413455579233
 20
7.273370982056704
 30
0.0
 10
7.052734598507028
 20
7.27074948095524
 30
0.0
 10
7.052395080751038
 20
7.269438385869493
 30
0.0
  0
LINE
  5
206
330
1F
100
AcDbEntity
  8
0
  6
Continuous
 62
     7
370
     0
100
AcDbLine
 10
7.0816746353
 20
7.2152128096
 30
0.0
 11
7.094163794
 21
7.2224226475
 31
0.0
  0
ARC
  5
207
330
1F
100
AcDbEntity
  8
0
  6
Continuous
 62
     7
370
     0
100
AcDbCircle
 10
6.7577701326
 20
6.6787678984
 30
0.0
 40
0.6266476439726126
100
AcDbArc
 50
54.3020111033
 51
58.8764938353
  0
LINE
  5
208
330
1F
100
AcDbEntity
  8
0
  6
Continuous
 62
     7
370
     0
100
AcDbLine
 10
7.1359161541
 20
7.1948808001
 30
0.0
 11
7.1234269954
 21
7.1876709622
 31
0.0
  0
ARC
  5
209
330
1F
100
AcDbEntity
  8
0
  6
Continuous
 62
     7
370
     0
100
AcDbCircle
 10
6.7702592913
 20
6.6859777362
 30
0.0
 40
0.6266476439724371
100
AcDbArc
 50
54.3020111033
 51
58.8764938353
  0
SPLINE
  5
20A
330
1F
100
AcDbEntity
  8
0
  6
Continuous
 62
     7
370
     0
100
AcDbSpline
210
0.0
220
0.0
230
1.0
 70
    24
 71
     1
 72
     4
 73
     2
 74
     0
 42
0.00000001
 43
0.00000001
 40
0.0
 40
0.0
 40
1.0
 40
1.0
 10
7.169148340616452
 20
7.18398214514968
 30
0.0
 10
7.186959159550001
 20
7.1805470128416
 30
0.0
  0
ARC
  5
20B
330
1F
100
AcDbEntity
  8
0
  6
Continuous
 62
     7
370
     0
100
AcDbCircle
 10
7.1533162374
 20
7.1416434935
 30
0.0
 40
0.0452019569942304
100
AcDbArc
 50
69.4972336013
 51
113.535142555
  0
SPLINE
  5
20C
330
1F
100
AcDbEntity
  8
0
  6
Continuous
 62
     7
370
     0
100
AcDbSpline
210
0.0
220
0.0
230
1.0
 70
     8
 71
     3
 72
    13
 73
     9
 74
     0
 42
0.00000001
 43
0.00000001
 40
0.0
 40
0.0
 40
0.0
 40
0.0
 40
0.2505513334132572
 40
0.4997574289388789
 40
0.6245242525019257
 40
0.7498907040619183
 40
0.8749266421753777
 40
1.0
 40
1.0
 40
1.0
 40
1.0
 10
7.141393794768972
 20
7.156300487312798
 30
0.0
 10
7.138867922061015
 20
7.158410021989346
 30
0.0
 10
7.133829738335709
 20
7.162617765016879
 30
0.0
 10
7.129339386758256
 20
7.168667831549687
 30
0.0
 10
7.128540511990333
 20
7.173703253725569
 30
0.0
 10
7.129377846635948
 20
7.177315569799166
 30
0.0
 10
7.131560283587901
 20
7.180601092833791
 30
0.0
 10
7.134031022798815
 20
7.182257175369151
 30
0.0
 10
7.135266577232163
 20
7.183085340522931
 30
0.0
  0
ARC
  5
20D
330
1F
100
AcDbEntity
  8
0
  6
Continuous
 62
     7
370
     0
100
AcDbCircle
 10
7.1676191425
 20
7.1820578516
 30
0.0
 40
0.0367588177056519
100
AcDbArc
 50
224.4841987073
 51
292.1915274961
  0
SPLINE
  5
20E
330
1F
100
AcDbEntity
  8
0
  6
Continuous
 62
     7
370
     0
100
AcDbSpline
210
0.0
220
0.0
230
1.0
 70
    24
 71
     1
 72
     4
 73
     2
 74
     0
 42
0.00000001
 43
0.00000001
 40
0.0
 40
0.0
 40
1.0
 40
1.0
 10
7.167689489596824
 20
7.161458035938352
 30
0.0
 10
7.181503090242601
 20
7.148021890140014
 30
0.0
  0
ARC
  5
20F
330
1F
100
AcDbEntity
  8
0
  6
Continuous
 62
     7
370
     0
100
AcDbCircle
 10
7.1610500297
 20
7.1745333007
 30
0.0
 40
0.0146644119171923
100
AcDbArc
 50
231.98878195
 51
296.9209041764
  0
SPLINE
  5
210
330
1F
100
AcDbEntity
  8
0
  6
Continuous
 62
     7
370
     0
100
AcDbSpline
210
0.0
220
0.0
230
1.0
 70
     8
 71
     3
 72
    14
 73
    10
 74
     0
 42
0.00000001
 43
0.00000001
 40
0.0
 40
0.0
 40
0.0
 40
0.0
 40
0.1251988702827661
 40
0.2501891755465346
 40
0.3728829743600827
 40
0.5004529894619981
 40
0.7495671084742436
 40
0.8747153475525917
 40
1.0
 40
1.0
 40
1.0
 40
1.0
 10
7.151278235045258
 20
7.17191363375521
 30
0.0
 10
7.150873918928488
 20
7.171646129929503
 30
0.0
 10
7.15006596023296
 20
7.171111567904637
 30
0.0
 10
7.149291683332004
 20
7.170065450145288
 30
0.0
 10
7.148901236205261
 20
7.168895122911346
 30
0.0
 10
7.148871126307229
 20
7.167252136673727
 30
0.0
 10
7.149540279950281
 20
7.165555698123685
 30
0.0
 10
7.150813151260756
 20
7.164025073000314
 30
0.0
 10
7.151617207045608
 20
7.163328053791673
 30
0.0
 10
7.152019453926758
 20
7.162979354350592
 30
0.0
  0
ARC
  5
211
330
1F
100
AcDbEntity
  8
0
  6
Continuous
 62
     7
370
     0
100
AcDbCircle
 10
7.1610748077
 20
7.1416490759
 30
0.0
 40
0.0318106318022364
100
AcDbArc
 50
64.5714611506
 51
107.9366562614
  0
ARC
  5
212
330
1F
100
AcDbEntity
  8
0
  6
Continuous
 62
     7
370
     0
100
AcDbCircle
 10
7.199731221
 20
7.2370939376
 30
0.0
 40
0.0712453102403143
100
AcDbArc
 50
249.4598385171
 51
288.4968707538
  0
ARC
  5
213
330
1F
100
AcDbEntity
  8
0
  6
Continuous
 62
     7
370
     0
100
AcDbCircle
 10
6.7381228365
 20
6.6169838858
 30
0.0
 40
0.7346881332570441
100
AcDbArc
 50
48.7709893238
 51
53.4624333523
  0
LINE
  5
214
330
1F
100
AcDbEntity
  8
0
  6
Continuous
 62
     7
370
     0
100
AcDbLine
 10
7.1622953936
 20
7.199647379
 30
0.0
 11
7.1755192087
 21
7.207281325
 31
0.0
  0
ARC
  5
215
330
1F
100
AcDbEntity
  8
0
  6
Continuous
 62
     7
370
     0
100
AcDbCircle
 10
6.7388206291
 20
6.627352321
 30
0.0
 40
0.7119357481966498
100
AcDbArc
 50
50.9893486772
 51
53.5000842234
  0
LINE
  5
216
330
1F
100
AcDbEntity
  8
0
  6
Continuous
 62
     7
370
     0
100
AcDbLine
 10
6.9652603773
 20
7.3531893131
 30
0.0
 11
6.9858307564
 21
7.3650643402
 31
0.0
  0
ARC
  5
217
330
1F
100
AcDbEntity
  8
0
  6
Continuous
 62
     7
370
     0
100
AcDbCircle
 10
7.0191468414
 20
7.1472943926
 30
0.0
 40
0.2128296720660075
100
AcDbArc
 50
104.6663938162
 51
106.7916854738
  0
ARC
  5
218
330
1F
100
AcDbEntity
  8
0
  6
Continuous
 62
     7
370
     0
100
AcDbCircle
 10
7.0156795111
 20
7.1826920471
 30
0.0
 40
0.178073624463127
100
AcDbArc
 50
109.0144778954
 51
121.3184773221
  0
SPLINE
  5
219
330
1F
100
AcDbEntity
  8
0
  6
Continuous
 62
     7
370
     0
100
AcDbSpline
210
0.0
220
0.0
230
1.0
 70
     8
 71
     3
 72
    13
 73
     9
 74
     0
 42
0.00000001
 43
0.00000001
 40
0.0
 40
0.0
 40
0.0
 40
0.0
 40
0.2500373757116971
 40
0.380345664531941
 40
0.5001717611997298
 40
0.6231396697143646
 40
0.7503495306896206
 40
1.0
 40
1.0
 40
1.0
 40
1.0
 10
6.920232070163726
 20
7.329830362498939
 30
0.0
 10
6.918407444336376
 20
7.329280517125524
 30
0.0
 10
6.915631905196074
 20
7.328444116953964
 30
0.0
 10
6.913769722531193
 20
7.32818356849346
 30
0.0
 10
6.913456861124834
 20
7.328506876432079
 30
0.0
 10
6.91441364712558
 20
7.329424496951071
 30
0.0
 10
6.917232267358241
 20
7.331365727557919
 30
0.0
 10
6.920772544954545
 20
7.333442819575545
 30
0.0
 10
6.923117795681085
 20
7.334818785564346
 30
0.0
  0
ARC
  5
21A
330
1F
100
AcDbEntity
  8
0
  6
Continuous
 62
     7
370
     0
100
AcDbCircle
 10
6.9841244395
 20
7.1230422534
 30
0.0
 40
0.2164337240677854
100
AcDbArc
 50
100.7545828861
 51
107.1698448438
  0
LINE
  5
21B
330
1F
100
AcDbEntity
  8
0
  6
Continuous
 62
     7
370
     0
100
AcDbLine
 10
7.0003058825
 20
7.3683307465
 30
0.0
 11
6.94373734
 21
7.335674422
 31
0.0
  0
ARC
  5
21C
330
1F
100
AcDbEntity
  8
0
  6
Continuous
 62
     7
370
     0
100
AcDbCircle
 10
7.0412711802
 20
7.1530858782
 30
0.0
 40
0.219108441010281
100
AcDbArc
 50
100.7756347403
 51
104.6567265557
  0
LINE
  5
21D
330
1F
100
AcDbEntity
  8
0
  6
Continuous
 62
     7
370
     0
100
AcDbLine
 10
7.1383346117
 20
7.339837949
 30
0.0
 11
7.1578718802
 21
7.3511165741
 31
0.0
  0
ARC
  5
21E
330
1F
100
AcDbEntity
  8
0
  6
Continuous
 62
     7
370
     0
100
AcDbCircle
 10
7.1264568723
 20
7.3563458172
 30
0.0
 40
0.0203369222316194
100
AcDbArc
 50
255.7921862123
 51
305.7357663258
  0
SPLINE
  5
21F
330
1F
100
AcDbEntity
  8
0
  6
Continuous
 62
     7
370
     0
100
AcDbSpline
210
0.0
220
0.0
230
1.0
 70
     8
 71
     3
 72
    13
 73
     9
 74
     0
 42
0.00000001
 43
0.00000001
 40
0.0
 40
0.0
 40
0.0
 40
0.0
 40
0.2859863846140644
 40
0.400393158805273
 40
0.5002671077705276
 40
0.620434628185948
 40
0.7504392972666492
 40
1.0
 40
1.0
 40
1.0
 40
1.0
 10
7.122536795041323
 20
7.342666655399545
 30
0.0
 10
7.121563208516476
 20
7.34206259238355
 30
0.0
 10
7.120200145779838
 20
7.341216878349232
 30
0.0
 10
7.119056731527174
 20
7.340058050977694
 30
0.0
 10
7.118615484184956
 20
7.339266950284467
 30
0.0
 10
7.118677042833204
 20
7.338476311038434
 30
0.0
 10
7.119422490816271
 20
7.337479632000131
 30
0.0
 10
7.120655013906265
 20
7.336967611680389
 30
0.0
 10
7.12146538637782
 20
7.336630963080972
 30
0.0
  0
LINE
  5
220
330
1F
100
AcDbEntity
  8
0
  6
Continuous
 62
     7
370
     0
100
AcDbLine
 10
7.1449093781
 20
7.3555820727
 30
0.0
 11
7.122536795
 21
7.3426666554
 31
0.0
  0
ARC
  5
221
330
1F
100
AcDbEntity
  8
0
  6
Continuous
 62
     7
370
     0
100
AcDbCircle
 10
7.0251787826
 20
6.9882415294
 30
0.0
 40
0.3863605701976615
100
AcDbArc
 50
71.9471928603
 51
74.2737960019
  0
LINE
  5
222
330
1F
100
AcDbEntity
  8
0
  6
Continuous
 62
     7
370
     0
100
AcDbLine
 10
7.1038753154
 20
7.3451171029
 30
0.0
 11
7.1298982224
 21
7.3601398074
 31
0.0
  0
SPLINE
  5
223
330
1F
100
AcDbEntity
  8
0
  6
Continuous
 62
     7
370
     0
100
AcDbSpline
210
0.0
220
0.0
230
1.0
 70
     8
 71
     3
 72
    13
 73
     9
 74
     0
 42
0.00000001
 43
0.00000001
 40
0.0
 40
0.0
 40
0.0
 40
0.0
 40
0.2494533077504135
 40
0.3744959777606031
 40
0.4995513164958008
 40
0.619780795843973
 40
0.749805700624964
 40
1.0
 40
1.0
 40
1.0
 40
1.0
 10
7.101923913786054
 20
7.331767660767411
 30
0.0
 10
7.100083469461705
 20
7.332488148344588
 30
0.0
 10
7.097320471436235
 20
7.333569792449101
 30
0.0
 10
7.095698187057707
 20
7.335731683493702
 30
0.0
 10
7.095480749194639
 20
7.337533852882668
 30
0.0
 10
7.09645294047018
 20
7.339488372882841
 30
0.0
 10
7.098975991397767
 20
7.34208965639251
 30
0.0
 10
7.101930904397876
 20
7.343915590175583
 30
0.0
 10
7.10387531535791
 20
7.345117102930773
 30
0.0
  0
ARC
  5
224
330
1F
100
AcDbEntity
  8
0
  6
Continuous
 62
     7
370
     0
100
AcDbCircle
 10
7.1145283899
 20
7.3726579837
 30
0.0
 40
0.0427889159259062
100
AcDbArc
 50
252.8680421705
 51
280.4624014407
  0
LINE
  5
225
330
1F
100
AcDbEntity
  8
0
  6
Continuous
 62
     7
370
     0
100
AcDbLine
 10
7.1013033378
 20
7.3184602496
 30
0.0
 11
7.1222984401
 21
7.3305804642
 31
0.0
  0
ARC
  5
226
330
1F
100
AcDbEntity
  8
0
  6
Continuous
 62
     7
370
     0
100
AcDbCircle
 10
6.9531619351
 20
6.9107886227
 30
0.0
 40
0.4337534214328943
100
AcDbArc
 50
67.8757840748
 51
70.0296582275
  0
LINE
  5
227
330
1F
100
AcDbEntity
  8
0
  6
Continuous
 62
     7
370
     0
100
AcDbLine
 10
7.1730888801
 20
7.3452609037
 30
0.0
 11
7.1165203376
 21
7.3126045792
 31
0.0
  0
ARC
  5
228
330
1F
100
AcDbEntity
  8
0
  6
Continuous
 62
     7
370
     0
100
AcDbCircle
 10
7.0097304776
 20
6.9434449471
 30
0.0
 40
0.4337534214328946
100
AcDbArc
 50
67.8757840748
 51
70.0296582275
  0
ARC
  5
229
330
1F
100
AcDbEntity
  8
0
  6
Continuous
 62
     7
370
     0
100
AcDbCircle
 10
6.8848451297
 20
6.7577950544
 30
0.0
 40
0.6163427704643066
100
AcDbArc
 50
56.8294929247
 51
57.478676314
  0
LINE
  5
22A
330
1F
100
AcDbEntity
  8
0
  6
Continuous
 62
     7
370
     0
100
AcDbLine
 10
7.2338207483
 20
7.2804880718
 30
0.0
 11
7.222066246
 21
7.273702342
 31
0.0
  0
ARC
  5
22B
330
1F
100
AcDbEntity
  8
0
  6
Continuous
 62
     7
370
     0
100
AcDbCircle
 10
6.896599632
 20
6.7645807841
 30
0.0
 40
0.6163427704896913
100
AcDbArc
 50
56.8294929247
 51
57.4786763139
  0
LINE
  5
22C
330
1F
100
AcDbEntity
  8
0
  6
Continuous
 62
     7
370
     0
100
AcDbLine
 10
7.2422336819
 20
7.2925193222
 30
0.0
 11
7.2279537983
 21
7.2842757208
 31
0.0
  0
SPLINE
  5
22D
330
1F
100
AcDbEntity
  8
0
  6
Continuous
 62
     7
370
     0
100
AcDbSpline
210
0.0
220
0.0
230
1.0
 70
     8
 71
     3
 72
    13
 73
     9
 74
     0
 42
0.00000001
 43
0.00000001
 40
0.0
 40
0.0
 40
0.0
 40
0.0
 40
0.2500945475837631
 40
0.3790132877146008
 40
0.4995783988419009
 40
0.6244157670480149
 40
0.7495373859023448
 40
1.0
 40
1.0
 40
1.0
 40
1.0
 10
7.243988040925286
 20
7.310374598860513
 30
0.0
 10
7.246037837104566
 20
7.309079350229427
 30
0.0
 10
7.24914426224082
 20
7.307116426819788
 30
0.0
 10
7.25162447005631
 20
7.3037908860009
 30
0.0
 10
7.251869076131239
 20
7.301071866767696
 30
0.0
 10
7.250595058755187
 20
7.298529479522394
 30
0.0
 10
7.24735472920818
 20
7.295603476009389
 30
0.0
 10
7.244282459751046
 20
7.293753199882825
 30
0.0
 10
7.242233681948534
 20
7.292519322220231
 30
0.0
  0
SPLINE
  5
22E
330
1F
100
AcDbEntity
  8
0
  6
Continuous
 62
     7
370
     0
100
AcDbSpline
210
0.0
220
0.0
230
1.0
 70
    24
 71
     1
 72
     4
 73
     2
 74
     0
 42
0.00000001
 43
0.00000001
 40
0.0
 40
0.0
 40
1.0
 40
1.0
 10
7.231843753396697
 20
7.31600417686266
 30
0.0
 10
7.243988040925286
 20
7.310374598860513
 30
0.0
  0
SPLINE
  5
22F
330
1F
100
AcDbEntity
  8
0
  6
Continuous
 62
     7
370
     0
100
AcDbSpline
210
0.0
220
0.0
230
1.0
 70
    24
 71
     1
 72
     4
 73
     2
 74
     0
 42
0.00000001
 43
0.00000001
 40
0.0
 40
0.0
 40
1.0
 40
1.0
 10
7.222293203000084
 20
7.309119755410618
 30
0.0
 10
7.231843753396697
 20
7.31600417686266
 30
0.0
  0
SPLINE
  5
230
330
1F
100
AcDbEntity
  8
0
  6
Continuous
 62
     7
370
     0
100
AcDbSpline
210
0.0
220
0.0
230
1.0
 70
    24
 71
     1
 72
     4
 73
     2
 74
     0
 42
0.00000001
 43
0.00000001
 40
0.0
 40
0.0
 40
1.0
 40
1.0
 10
7.228319641222503
 20
7.306768732604779
 30
0.0
 10
7.222293203000084
 20
7.309119755410618
 30
0.0
  0
SPLINE
  5
231
330
1F
100
AcDbEntity
  8
0
  6
Continuous
 62
     7
370
     0
100
AcDbSpline
210
0.0
220
0.0
230
1.0
 70
     8
 71
     3
 72
    10
 73
     6
 74
     0
 42
0.00000001
 43
0.00000001
 40
0.0
 40
0.0
 40
0.0
 40
0.0
 40
0.2505976234532368
 40
0.5007350246834441
 40
1.0
 40
1.0
 40
1.0
 40
1.0
 10
7.229823208020376
 20
7.304366654290801
 30
0.0
 10
7.22987796996363
 20
7.304588335403563
 30
0.0
 10
7.229987393279893
 20
7.305031290512003
 30
0.0
 10
7.229582316054575
 20
7.305917413441126
 30
0.0
 10
7.228824506924266
 20
7.306428342635751
 30
0.0
 10
7.228319641222503
 20
7.306768732604779
 30
0.0
  0
SPLINE
  5
232
330
1F
100
AcDbEntity
  8
0
  6
Continuous
 62
     7
370
     0
100
AcDbSpline
210
0.0
220
0.0
230
1.0
 70
     8
 71
     3
 72
     9
 73
     5
 74
     0
 42
0.00000001
 43
0.00000001
 40
0.0
 40
0.0
 40
0.0
 40
0.0
 40
0.5017738075812659
 40
1.0
 40
1.0
 40
1.0
 40
1.0
 10
7.226907480891547
 20
7.302078052256538
 30
0.0
 10
7.227499582029111
 20
7.302414797672486
 30
0.0
 10
7.22867959806147
 20
7.303085907664399
 30
0.0
 10
7.229442907343268
 20
7.303940749632109
 30
0.0
 10
7.229823208020376
 20
7.304366654290801
 30
0.0
  0
LINE
  5
233
330
1F
100
AcDbEntity
  8
0
  6
Continuous
 62
     7
370
     0
100
AcDbLine
 10
7.2125357651
 20
7.2937814374
 30
0.0
 11
7.2269074809
 21
7.3020780523
 31
0.0
  0
ARC
  5
234
330
1F
100
AcDbEntity
  8
0
  6
Continuous
 62
     7
370
     0
100
AcDbCircle
 10
6.9207676743
 20
6.8038968913
 30
0.0
 40
0.570188992598315
100
AcDbArc
 50
59.222588875
 51
60.2482276607
  0
LINE
  5
235
330
1F
100
AcDbEntity
  8
0
  6
Continuous
 62
     7
370
     0
100
AcDbLine
 10
7.1919656732
 20
7.2921398166
 30
0.0
 11
7.2037201756
 21
7.2989255464
 31
0.0
  0
ARC
  5
236
330
1F
100
AcDbEntity
  8
0
  6
Continuous
 62
     7
370
     0
100
AcDbCircle
 10
6.9090131719
 20
6.7971111616
 30
0.0
 40
0.5701889926068603
100
AcDbArc
 50
59.222588875
 51
60.2482276607
  0
LINE
  5
237
330
1F
100
AcDbEntity
  8
0
  6
Continuous
 62
     7
370
     0
100
AcDbLine
 10
7.1853534785
 20
7.2780894373
 30
0.0
 11
7.2007812628
 21
7.2869957076
 31
0.0
  0
SPLINE
  5
238
330
1F
100
AcDbEntity
  8
0
  6
Continuous
 62
     7
370
     0
100
AcDbSpline
210
0.0
220
0.0
230
1.0
 70
    24
 71
     1
 72
     4
 73
     2
 74
     0
 42
0.00000001
 43
0.00000001
 40
0.0
 40
0.0
 40
1.0
 40
1.0
 10
7.208749420897865
 20
7.273189269767415
 30
0.0
 10
7.185353478490649
 20
7.278089437282527
 30
0.0
  0
LINE
  5
239
330
1F
100
AcDbEntity
  8
0
  6
Continuous
 62
     7
370
     0
100
AcDbLine
 10
7.2161992959
 20
7.2774899911
 30
0.0
 11
7.2087494209
 21
7.2731892698
 31
0.0
  0
LINE
  5
23A
330
1F
100
AcDbEntity
  8
0
  6
Continuous
 62
     7
370
     0
100
AcDbLine
 10
7.3269880755
 20
7.1862008876
 30
0.0
 11
7.3702983659
 21
7.2112033861
 31
0.0
  0
SPLINE
  5
23B
330
1F
100
AcDbEntity
  8
0
  6
Continuous
 62
     7
370
     0
100
AcDbSpline
210
0.0
220
0.0
230
1.0
 70
    24
 71
     1
 72
     4
 73
     2
 74
     0
 42
0.00000001
 43
0.00000001
 40
0.0
 40
0.0
 40
1.0
 40
1.0
 10
7.360114760164228
 20
7.22086744857659
 30
0.0
 10
7.326988075514874
 20
7.186200887627145
 30
0.0
  0
ARC
  5
23C
330
1F
100
AcDbEntity
  8
0
  6
Continuous
 62
     7
370
     0
100
AcDbCircle
 10
6.808901956
 20
6.6301214279
 30
0.0
 40
0.8079705541717704
100
AcDbArc
 50
46.982717926
 51
48.1926434173
  0
SPLINE
  5
23D
330
1F
100
AcDbEntity
  8
0
  6
Continuous
 62
     7
370
     0
100
AcDbSpline
210
0.0
220
0.0
230
1.0
 70
    24
 71
     1
 72
     4
 73
     2
 74
     0
 42
0.00000001
 43
0.00000001
 40
0.0
 40
0.0
 40
1.0
 40
1.0
 10
7.293844972740177
 20
7.216477208184252
 30
0.0
 10
7.347517897078744
 20
7.232374933026136
 30
0.0
  0
LINE
  5
23E
330
1F
100
AcDbEntity
  8
0
  6
Continuous
 62
     7
370
     0
100
AcDbLine
 10
7.3371552631
 20
7.2414797066
 30
0.0
 11
7.2938449727
 21
7.2164772082
 31
0.0
  0
ARC
  5
23F
330
1F
100
AcDbEntity
  8
0
  6
Continuous
 62
     7
370
     0
100
AcDbCircle
 10
6.8405023489
 20
6.6661403147
 30
0.0
 40
0.7600523225743306
100
AcDbArc
 50
49.1981012731
 51
50.6094149365
  0
LINE
  5
240
330
1F
100
AcDbEntity
  8
0
  6
Continuous
 62
     7
370
     0
100
AcDbLine
 10
7.2662656917
 20
7.220881203
 30
0.0
 11
7.3228342341
 21
7.2535375274
 31
0.0
  0
ARC
  5
241
330
1F
100
AcDbEntity
  8
0
  6
Continuous
 62
     7
370
     0
100
AcDbCircle
 10
6.7784065237
 20
6.6268970116
 30
0.0
 40
0.7686506276089398
100
AcDbArc
 50
48.3679517024
 51
50.6025889782
  0
SPLINE
  5
242
330
1F
100
AcDbEntity
  8
0
  6
Continuous
 62
     7
370
     0
100
AcDbSpline
210
0.0
220
0.0
230
1.0
 70
    24
 71
     1
 72
     4
 73
     2
 74
     0
 42
0.00000001
 43
0.00000001
 40
0.0
 40
0.0
 40
1.0
 40
1.0
 10
7.33155709736625
 20
7.213868577973147
 30
0.0
 10
7.289055254773962
 20
7.201406942577629
 30
0.0
  0
SPLINE
  5
243
330
1F
100
AcDbEntity
  8
0
  6
Continuous
 62
     7
370
     0
100
AcDbSpline
210
0.0
220
0.0
230
1.0
 70
    24
 71
     1
 72
     4
 73
     2
 74
     0
 42
0.00000001
 43
0.00000001
 40
0.0
 40
0.0
 40
1.0
 40
1.0
 10
7.305333169327868
 20
7.186538951272577
 30
0.0
 10
7.33155709736625
 20
7.213868577973147
 30
0.0
  0
ARC
  5
244
330
1F
100
AcDbEntity
  8
0
  6
Continuous
 62
     7
370
     0
100
AcDbCircle
 10
6.7267379487
 20
6.5702621459
 30
0.0
 40
0.8453221458127018
100
AcDbArc
 50
44.7017223517
 51
46.8062858812
  0
LINE
  5
245
330
1F
100
AcDbEntity
  8
0
  6
Continuous
 62
     7
370
     0
100
AcDbLine
 10
7.3841431534
 20
7.1975316518
 30
0.0
 11
7.3275746109
 21
7.1648753273
 31
0.0
  0
ARC
  5
246
330
1F
100
AcDbEntity
  8
0
  6
Continuous
 62
     7
370
     0
100
AcDbCircle
 10
6.7776900252
 20
6.5972480793
 30
0.0
 40
0.8533028560032556
100
AcDbArc
 50
44.7070724489
 51
46.0135921734
  0
LINE
  5
247
330
1F
100
AcDbEntity
  8
0
  6
Continuous
 62
     7
370
     0
100
AcDbLine
 10
7.4492081185
 20
7.0941335722
 30
0.0
 11
7.4653705592
 21
7.1034639507
 31
0.0
  0
ARC
  5
248
330
1F
100
AcDbEntity
  8
0
  6
Continuous
 62
     7
370
     0
100
AcDbCircle
 10
6.6508482744
 20
6.4906966151
 30
0.0
 40
1.000757014410692
100
AcDbArc
 50
35.8501199063
 51
37.0836592367
  0
LINE
  5
249
330
1F
100
AcDbEntity
  8
0
  6
Continuous
 62
     7
370
     0
100
AcDbLine
 10
7.4781761272
 20
7.086137287
 30
0.0
 11
7.4620136865
 21
7.0768069086
 31
0.0
  0
ARC
  5
24A
330
1F
100
AcDbEntity
  8
0
  6
Continuous
 62
     7
370
     0
100
AcDbCircle
 10
6.6670107151
 20
6.5000269936
 30
0.0
 40
1.000757014410269
100
AcDbArc
 50
35.8501199063
 51
37.0836592367
  0
LINE
  5
24B
330
1F
100
AcDbEntity
  8
0
  6
Continuous
 62
     7
370
     0
100
AcDbLine
 10
7.0502355973
 20
7.4098478317
 30
0.0
 11
7.0697728658
 21
7.4211264568
 31
0.0
  0
ARC
  5
24C
330
1F
100
AcDbEntity
  8
0
  6
Continuous
 62
     7
370
     0
100
AcDbCircle
 10
6.9082066618
 20
7.6528468088
 30
0.0
 40
0.2814617583063178
100
AcDbArc
 50
296.8013267994
 51
300.3055887677
  0
SPLINE
  5
24D
330
1F
100
AcDbEntity
  8
0
  6
Continuous
 62
     7
370
     0
100
AcDbSpline
210
0.0
220
0.0
230
1.0
 70
     8
 71
     3
 72
    13
 73
     9
 74
     0
 42
0.00000001
 43
0.00000001
 40
0.0
 40
0.0
 40
0.0
 40
0.0
 40
0.2859863846319396
 40
0.400393158818763
 40
0.5002671077722475
 40
0.6204346281946366
 40
0.7504392972668079
 40
1.0
 40
1.0
 40
1.0
 40
1.0
 10
7.037721151685195
 20
7.403394943433928
 30
0.0
 10
7.036735345880544
 20
7.402824345656421
 30
0.0
 10
7.03535517563008
 20
7.402025484385995
 30
0.0
 10
7.034067644643764
 20
7.401262725357282
 30
0.0
 10
7.033471995557774
 20
7.400896854079559
 30
0.0
 10
7.033297211804921
 20
7.400759381540431
 30
0.0
 10
7.033637644353105
 20
7.400886962880025
 30
0.0
 10
7.03453033140954
 20
7.401329807493851
 30
0.0
 10
7.035117264848872
 20
7.401620973709839
 30
0.0
  0
LINE
  5
24E
330
1F
100
AcDbEntity
  8
0
  6
Continuous
 62
     7
370
     0
100
AcDbLine
 10
7.0600937347
 20
7.4163103607
 30
0.0
 11
7.0377211517
 21
7.4033949434
 31
0.0
  0
ARC
  5
24F
330
1F
100
AcDbEntity
  8
0
  6
Continuous
 62
     7
370
     0
100
AcDbCircle
 10
6.7175055928
 20
7.9806385501
 30
0.0
 40
0.6608970437898475
100
AcDbArc
 50
296.9913357518
 51
298.8416419516
  0
LINE
  5
250
330
1F
100
AcDbEntity
  8
0
  6
Continuous
 62
     7
370
     0
100
AcDbLine
 10
7.0294171238
 20
7.3977389706
 30
0.0
 11
7.0363160066
 21
7.4017216108
 31
0.0
  0
ARC
  5
251
330
1F
100
AcDbEntity
  8
0
  6
Continuous
 62
     7
370
     0
100
AcDbCircle
 10
7.114152632
 20
7.2132036888
 30
0.0
 40
0.2030600319671305
100
AcDbArc
 50
111.3357879243
 51
114.6637940752
  0
LINE
  5
252
330
1F
100
AcDbEntity
  8
0
  6
Continuous
 62
     7
370
     0
100
AcDbLine
 10
7.0814134272
 20
7.4260968836
 30
0.0
 11
7.040272669
 21
7.4023468294
 31
0.0
  0
ARC
  5
253
330
1F
100
AcDbEntity
  8
0
  6
Continuous
 62
     7
370
     0
100
AcDbCircle
 10
7.1552551778
 20
7.2370460495
 30
0.0
 40
0.2029601488101259
100
AcDbArc
 50
111.3352207274
 51
114.9089702332
  0
ARC
  5
254
330
1F
100
AcDbEntity
  8
0
  6
Continuous
 62
     7
370
     0
100
AcDbCircle
 10
7.1669443384
 20
7.3249781012
 30
0.0
 40
0.1171676919900387
100
AcDbArc
 50
97.7030936569
 51
123.9795409262
  0
SPLINE
  5
255
330
1F
100
AcDbEntity
  8
0
  6
Continuous
 62
     7
370
     0
100
AcDbSpline
210
0.0
220
0.0
230
1.0
 70
    24
 71
     1
 72
     4
 73
     2
 74
     0
 42
0.00000001
 43
0.00000001
 40
0.0
 40
0.0
 40
1.0
 40
1.0
 10
7.089740521988957
 20
7.414770293884546
 30
0.0
 10
7.101459685999215
 20
7.422137909515659
 30
0.0
  0
SPLINE
  5
256
330
1F
100
AcDbEntity
  8
0
  6
Continuous
 62
     7
370
     0
100
AcDbSpline
210
0.0
220
0.0
230
1.0
 70
     8
 71
     3
 72
    12
 73
     8
 74
     0
 42
0.00000001
 43
0.00000001
 40
0.0
 40
0.0
 40
0.0
 40
0.0
 40
0.2503309494299803
 40
0.4997648043321507
 40
0.6249322238031105
 40
0.7501904501281099
 40
1.0
 40
1.0
 40
1.0
 40
1.0
 10
7.092828763714037
 20
7.407563608510281
 30
0.0
 10
7.090798145078638
 20
7.407481540913313
 30
0.0
 10
7.086744184802038
 20
7.407317699819616
 30
0.0
 10
7.084170622016758
 20
7.408221277558372
 30
0.0
 10
7.084301815079929
 20
7.409742135564315
 30
0.0
 10
7.085485993489441
 20
7.411620121427701
 30
0.0
 10
7.088039673190254
 20
7.413510937638715
 30
0.0
 10
7.089740521988957
 20
7.414770293884546
 30
0.0
  0
ARC
  5
257
330
1F
100
AcDbEntity
  8
0
  6
Continuous
 62
     7
370
     0
100
AcDbCircle
 10
7.0839219799
 20
7.5164930459
 30
0.0
 40
0.1092929692298064
100
AcDbArc
 50
274.6744789925
 51
302.6528744897
  0
SPLINE
  5
258
330
1F
100
AcDbEntity
  8
0
  6
Continuous
 62
     7
370
     0
100
AcDbSpline
210
0.0
220
0.0
230
1.0
 70
     8
 71
     3
 72
     9
 73
     5
 74
     0
 42
0.00000001
 43
0.00000001
 40
0.0
 40
0.0
 40
0.0
 40
0.0
 40
0.498670267209006
 40
1.0
 40
1.0
 40
1.0
 40
1.0
 10
7.15929577299012
 20
7.436306154908562
 30
0.0
 10
7.157303137068737
 20
7.434412248463538
 30
0.0
 10
7.153307238270648
 20
7.430614335153758
 30
0.0
 10
7.146369085187147
 20
7.426523938603903
 30
0.0
 10
7.142890782755733
 20
7.424473301194553
 30
0.0
  0
SPLINE
  5
259
330
1F
100
AcDbEntity
  8
0
  6
Continuous
 62
     7
370
     0
100
AcDbSpline
210
0.0
220
0.0
230
1.0
 70
     8
 71
     3
 72
    10
 73
     6
 74
     0
 42
0.00000001
 43
0.00000001
 40
0.0
 40
0.0
 40
0.0
 40
0.0
 40
0.499206798160624
 40
0.7495375815251
 40
0.9999999999999999
 40
0.9999999999999999
 40
0.9999999999999999
 40
0.9999999999999999
 10
7.151239216954378
 20
7.441088467721529
 30
0.0
 10
7.154295878715515
 20
7.441100688577625
 30
0.0
 10
7.1588853251582
 20
7.441119037668536
 30
0.0
 10
7.160631018246932
 20
7.438855240350614
 30
0.0
 10
7.159740932729675
 20
7.437155998939611
 30
0.0
 10
7.15929577299012
 20
7.436306154908562
 30
0.0
  0
LINE
  5
25A
330
1F
100
AcDbEntity
  8
0
  6
Continuous
 62
     7
370
     0
100
AcDbLine
 10
7.1974548615
 20
7.4188703783
 30
0.0
 11
7.2099440202
 21
7.4260802162
 31
0.0
  0
ARC
  5
25B
330
1F
100
AcDbEntity
  8
0
  6
Continuous
 62
     7
370
     0
100
AcDbCircle
 10
7.1251307933
 20
7.0715805797
 30
0.0
 40
0.3547407153098766
100
AcDbArc
 50
74.4830760208
 51
78.236134185
  0
LINE
  5
25C
330
1F
100
AcDbEntity
  8
0
  6
Continuous
 62
     7
370
     0
100
AcDbLine
 10
7.2325212527
 20
7.4206013568
 30
0.0
 11
7.220032094
 21
7.413391519
 31
0.0
  0
ARC
  5
25D
330
1F
100
AcDbEntity
  8
0
  6
Continuous
 62
     7
370
     0
100
AcDbCircle
 10
7.137619952
 20
7.0787904175
 30
0.0
 40
0.354740715309597
100
AcDbArc
 50
74.4830760208
 51
78.236134185
  0
ARC
  5
25E
330
1F
100
AcDbEntity
  8
0
  6
Continuous
 62
     7
370
     0
100
AcDbCircle
 10
7.3062541321
 20
7.3504604419
 30
0.0
 40
0.0523710318574747
100
AcDbArc
 50
65.8813461273
 51
126.9556445221
  0
SPLINE
  5
25F
330
1F
100
AcDbEntity
  8
0
  6
Continuous
 62
     7
370
     0
100
AcDbSpline
210
0.0
220
0.0
230
1.0
 70
    24
 71
     1
 72
     4
 73
     2
 74
     0
 42
0.00000001
 43
0.00000001
 40
0.0
 40
0.0
 40
1.0
 40
1.0
 10
7.263278781128764
 20
7.384051749246406
 30
0.0
 10
7.274768846820743
 20
7.39231019453188
 30
0.0
  0
SPLINE
  5
260
330
1F
100
AcDbEntity
  8
0
  6
Continuous
 62
     7
370
     0
100
AcDbSpline
210
0.0
220
0.0
230
1.0
 70
     8
 71
     3
 72
    12
 73
     8
 74
     0
 42
0.00000001
 43
0.00000001
 40
0.0
 40
0.0
 40
0.0
 40
0.0
 40
0.2503309494299794
 40
0.4997648043321499
 40
0.6249322238031072
 40
0.750190450128106
 40
1.0
 40
1.0
 40
1.0
 40
1.0
 10
7.269192681507242
 20
7.364968179178601
 30
0.0
 10
7.266864352889852
 20
7.366218975641591
 30
0.0
 10
7.262216039532913
 20
7.368716086170711
 30
0.0
 10
7.2588816379215
 20
7.372799832800403
 30
0.0
 10
7.258523091639787
 20
7.376314825523282
 30
0.0
 10
7.259284299552257
 20
7.379884458407846
 30
0.0
 10
7.26168189226279
 20
7.382385775774276
 30
0.0
 10
7.263278781128764
 20
7.384051749246406
 30
0.0
  0
ARC
  5
261
330
1F
100
AcDbEntity
  8
0
  6
Continuous
 62
     7
370
     0
100
AcDbCircle
 10
7.2923157971
 20
7.4108919847
 30
0.0
 40
0.0514166741654692
100
AcDbArc
 50
243.2742680907
 51
305.0747878675
  0
SPLINE
  5
262
330
1F
100
AcDbEntity
  8
0
  6
Continuous
 62
     7
370
     0
100
AcDbSpline
210
0.0
220
0.0
230
1.0
 70
     8
 71
     3
 72
     9
 73
     5
 74
     0
 42
0.00000001
 43
0.00000001
 40
0.0
 40
0.0
 40
0.0
 40
0.0
 40
0.4986702672090095
 40
0.9999999999999999
 40
0.9999999999999999
 40
0.9999999999999999
 40
0.9999999999999999
 10
7.337829867021135
 20
7.383036749779053
 30
0.0
 10
7.335976152181245
 20
7.380387044717065
 30
0.0
 10
7.332258836428162
 20
7.375073503412874
 30
0.0
 10
7.325333845172614
 20
7.370903159246557
 30
0.0
 10
7.32186214115689
 20
7.368812441720013
 30
0.0
  0
SPLINE
  5
263
330
1F
100
AcDbEntity
  8
0
  6
Continuous
 62
     7
370
     0
100
AcDbSpline
210
0.0
220
0.0
230
1.0
 70
     8
 71
     3
 72
    10
 73
     6
 74
     0
 42
0.00000001
 43
0.00000001
 40
0.0
 40
0.0
 40
0.0
 40
0.0
 40
0.4992067981606241
 40
0.7495375815250988
 40
0.9999999999999999
 40
0.9999999999999999
 40
0.9999999999999999
 40
0.9999999999999999
 10
7.327654382767238
 20
7.398259544946696
 30
0.0
 10
7.331146824262246
 20
7.39623153218571
 30
0.0
 10
7.336390575271707
 20
7.393186558067224
 30
0.0
 10
7.338818517030744
 20
7.387427658389996
 30
0.0
 10
7.338159474768134
 20
7.384500642441231
 30
0.0
 10
7.337829867021135
 20
7.383036749779053
 30
0.0
  0
ARC
  5
264
330
1F
100
AcDbEntity
  8
0
  6
Continuous
 62
     7
370
     0
100
AcDbCircle
 10
6.9100694702
 20
6.6912863666
 30
0.0
 40
0.8002043003839534
100
AcDbArc
 50
47.8938203034
 51
48.0376490213
  0
ARC
  5
265
330
1F
100
AcDbEntity
  8
0
  6
Continuous
 62
     7
370
     0
100
AcDbCircle
 10
7.4508185841
 20
7.2930836128
 30
0.0
 40
0.0088552555742991
100
AcDbArc
 50
195.2636042773
 51
229.9429808563
  0
SPLINE
  5
266
330
1F
100
AcDbEntity
  8
0
  6
Continuous
 62
     7
370
     0
100
AcDbSpline
210
0.0
220
0.0
230
1.0
 70
    24
 71
     1
 72
     4
 73
     2
 74
     0
 42
0.00000001
 43
0.00000001
 40
0.0
 40
0.0
 40
1.0
 40
1.0
 10
7.443539966640123
 20
7.295952602624522
 30
0.0
 10
7.442275699078775
 20
7.290752375721547
 30
0.0
  0
SPLINE
  5
267
330
1F
100
AcDbEntity
  8
0
  6
Continuous
 62
     7
370
     0
100
AcDbSpline
210
0.0
220
0.0
230
1.0
 70
    24
 71
     1
 72
     4
 73
     2
 74
     0
 42
0.00000001
 43
0.00000001
 40
0.0
 40
0.0
 40
1.0
 40
1.0
 10
7.451665704397048
 20
7.313649169246884
 30
0.0
 10
7.443539966640123
 20
7.295952602624522
 30
0.0
  0
ARC
  5
268
330
1F
100
AcDbEntity
  8
0
  6
Continuous
 62
     7
370
     0
100
AcDbCircle
 10
6.9681531971
 20
6.7453584252
 30
0.0
 40
0.7461492575473203
100
AcDbArc
 50
49.6082351472
 51
51.542673834
  0
SPLINE
  5
269
330
1F
100
AcDbEntity
  8
0
  6
Continuous
 62
     7
370
     0
100
AcDbSpline
210
0.0
220
0.0
230
1.0
 70
    24
 71
     1
 72
     4
 73
     2
 74
     0
 42
0.00000001
 43
0.00000001
 40
0.0
 40
0.0
 40
1.0
 40
1.0
 10
7.424647466327674
 20
7.313427412135486
 30
0.0
 10
7.432206982512751
 20
7.329646709118759
 30
0.0
  0
SPLINE
  5
26A
330
1F
100
AcDbEntity
  8
0
  6
Continuous
 62
     7
370
     0
100
AcDbSpline
210
0.0
220
0.0
230
1.0
 70
    24
 71
     1
 72
     4
 73
     2
 74
     0
 42
0.00000001
 43
0.00000001
 40
0.0
 40
0.0
 40
1.0
 40
1.0
 10
7.423141832984751
 20
7.305424465941194
 30
0.0
 10
7.424647466327674
 20
7.313427412135486
 30
0.0
  0
SPLINE
  5
26B
330
1F
100
AcDbEntity
  8
0
  6
Continuous
 62
     7
370
     0
100
AcDbSpline
210
0.0
220
0.0
230
1.0
 70
    24
 71
     1
 72
     4
 73
     2
 74
     0
 42
0.00000001
 43
0.00000001
 40
0.0
 40
0.0
 40
1.0
 40
1.0
 10
7.425417090243703
 20
7.300503719184515
 30
0.0
 10
7.423141832984751
 20
7.305424465941194
 30
0.0
  0
SPLINE
  5
26C
330
1F
100
AcDbEntity
  8
0
  6
Continuous
 62
     7
370
     0
100
AcDbSpline
210
0.0
220
0.0
230
1.0
 70
    24
 71
     1
 72
     4
 73
     2
 74
     0
 42
0.00000001
 43
0.00000001
 40
0.0
 40
0.0
 40
1.0
 40
1.0
 10
7.417019305471801
 20
7.304353032117811
 30
0.0
 10
7.425417090243703
 20
7.300503719184515
 30
0.0
  0
ARC
  5
26D
330
1F
100
AcDbEntity
  8
0
  6
Continuous
 62
     7
370
     0
100
AcDbCircle
 10
7.4084035462
 20
7.2784553083
 30
0.0
 40
0.0272932850435168
100
AcDbArc
 50
71.5985395244
 51
117.6475169506
  0
SPLINE
  5
26E
330
1F
100
AcDbEntity
  8
0
  6
Continuous
 62
     7
370
     0
100
AcDbSpline
210
0.0
220
0.0
230
1.0
 70
     8
 71
     3
 72
    14
 73
    10
 74
     0
 42
0.00000001
 43
0.00000001
 40
0.0
 40
0.0
 40
0.0
 40
0.0
 40
0.2503552942231859
 40
0.3755117362839636
 40
0.5003668258907505
 40
0.6248775190333378
 40
0.7504411376299863
 40
0.8747830016607738
 40
1.0
 40
1.0
 40
1.0
 40
1.0
 10
7.401496973933884
 20
7.275488687419442
 30
0.0
 10
7.399025555965134
 20
7.277696075529507
 30
0.0
 10
7.395318638340692
 20
7.281006970729206
 30
0.0
 10
7.391196484271234
 20
7.285716746042559
 30
0.0
 10
7.389036651963493
 20
7.28951071427708
 30
0.0
 10
7.388546613269921
 20
7.293408171916058
 30
0.0
 10
7.389567673712301
 20
7.297054624693645
 30
0.0
 10
7.392030434346791
 20
7.300233906397864
 30
0.0
 10
7.394499672151903
 20
7.30183091544969
 30
0.0
 10
7.395738620523463
 20
7.302632220111407
 30
0.0
  0
ARC
  5
26F
330
1F
100
AcDbEntity
  8
0
  6
Continuous
 62
     7
370
     0
100
AcDbCircle
 10
6.871686417
 20
6.666553855
 30
0.0
 40
0.8071560297974962
100
AcDbArc
 50
46.2662725675
 51
48.9747359435
  0
LINE
  5
270
330
1F
100
AcDbEntity
  8
0
  6
Continuous
 62
     7
370
     0
100
AcDbLine
 10
7.4862482747
 20
7.2824291063
 30
0.0
 11
7.4296797322
 21
7.2497727818
 31
0.0
  0
ARC
  5
271
330
1F
100
AcDbEntity
  8
0
  6
Continuous
 62
     7
370
     0
100
AcDbCircle
 10
6.9206285551
 20
6.6910339509
 30
0.0
 40
0.8183360538197607
100
AcDbArc
 50
46.2761974613
 51
47.8883651452
  0
LINE
  5
272
330
1F
100
AcDbEntity
  8
0
  6
Continuous
 62
     7
370
     0
100
AcDbLine
 10
7.4466117683
 20
7.2849607595
 30
0.0
 11
7.4693861166
 21
7.2981081109
 31
0.0
  0
SPLINE
  5
273
330
1F
100
AcDbEntity
  8
0
  6
Continuous
 62
     7
370
     0
100
AcDbSpline
210
0.0
220
0.0
230
1.0
 70
    24
 71
     1
 72
     4
 73
     2
 74
     0
 42
0.00000001
 43
0.00000001
 40
0.0
 40
0.0
 40
1.0
 40
1.0
 10
7.563474064073544
 20
7.196931486911111
 30
0.0
 10
7.571019263841475
 20
7.188943629810884
 30
0.0
  0
SPLINE
  5
274
330
1F
100
AcDbEntity
  8
0
  6
Continuous
 62
     7
370
     0
100
AcDbSpline
210
0.0
220
0.0
230
1.0
 70
    24
 71
     1
 72
     4
 73
     2
 74
     0
 42
0.00000001
 43
0.00000001
 40
0.0
 40
0.0
 40
1.0
 40
1.0
 10
7.555790753987589
 20
7.202906171939559
 30
0.0
 10
7.563474064073544
 20
7.196931486911111
 30
0.0
  0
ARC
  5
275
330
1F
100
AcDbEntity
  8
0
  6
Continuous
 62
     7
370
     0
100
AcDbCircle
 10
7.5454591039
 20
7.1834650187
 30
0.0
 40
0.0220159359016137
100
AcDbArc
 50
62.0123955394
 51
117.5655488414
  0
SPLINE
  5
276
330
1F
100
AcDbEntity
  8
0
  6
Continuous
 62
     7
370
     0
100
AcDbSpline
210
0.0
220
0.0
230
1.0
 70
     8
 71
     3
 72
    12
 73
     8
 74
     0
 42
0.00000001
 43
0.00000001
 40
0.0
 40
0.0
 40
0.0
 40
0.0
 40
0.250363879165363
 40
0.4997444809982612
 40
0.6245272986144618
 40
0.7501926945850659
 40
1.0
 40
1.0
 40
1.0
 40
1.0
 10
7.531810490956764
 20
7.181507646441237
 30
0.0
 10
7.530832516214568
 20
7.183567154493463
 30
0.0
 10
7.528880407621276
 20
7.187678082100525
 30
0.0
 10
7.528248765202372
 20
7.193011176133574
 30
0.0
 10
7.529284908152775
 20
7.196776259283114
 30
0.0
 10
7.531189926543259
 20
7.200135778970107
 30
0.0
 10
7.533640524097199
 20
7.201844748074372
 30
0.0
 10
7.535270941353493
 20
7.202981749420672
 30
0.0
  0
SPLINE
  5
277
330
1F
100
AcDbEntity
  8
0
  6
Continuous
 62
     7
370
     0
100
AcDbSpline
210
0.0
220
0.0
230
1.0
 70
     8
 71
     3
 72
     9
 73
     5
 74
     0
 42
0.00000001
 43
0.00000001
 40
0.0
 40
0.0
 40
0.0
 40
0.0
 40
0.4993318956962342
 40
1.0
 40
1.0
 40
1.0
 40
1.0
 10
7.522647977526835
 20
7.186076326312885
 30
0.0
 10
7.524273976285178
 20
7.185561438545499
 30
0.0
 10
7.527530324962999
 20
7.184530285174718
 30
0.0
 10
7.530382498592525
 20
7.182516089814123
 30
0.0
 10
7.531810490956764
 20
7.181507646441237
 30
0.0
  0
SPLINE
  5
278
330
1F
100
AcDbEntity
  8
0
  6
Continuous
 62
     7
370
     0
100
AcDbSpline
210
0.0
220
0.0
230
1.0
 70
     8
 71
     3
 72
     9
 73
     5
 74
     0
 42
0.00000001
 43
0.00000001
 40
0.0
 40
0.0
 40
0.0
 40
0.0
 40
0.5001300021535955
 40
1.0
 40
1.0
 40
1.0
 40
1.0
 10
7.511475594412286
 20
7.184656408185855
 30
0.0
 10
7.51313665538798
 20
7.185416787825781
 30
0.0
 10
7.516457913797876
 20
7.186937151804448
 30
0.0
 10
7.520584980635566
 20
7.186363218401688
 30
0.0
 10
7.522647977526835
 20
7.186076326312885
 30
0.0
  0
SPLINE
  5
279
330
1F
100
AcDbEntity
  8
0
  6
Continuous
 62
     7
370
     0
100
AcDbSpline
210
0.0
220
0.0
230
1.0
 70
     8
 71
     3
 72
    13
 73
     9
 74
     0
 42
0.00000001
 43
0.00000001
 40
0.0
 40
0.0
 40
0.0
 40
0.0
 40
0.2502329787228673
 40
0.4994066255431105
 40
0.6257013607079467
 40
0.7496002874193481
 40
0.8740371171717328
 40
1.0
 40
1.0
 40
1.0
 40
1.0
 10
7.512445273908524
 20
7.158815344113333
 30
0.0
 10
7.510785883303783
 20
7.161066535460249
 30
0.0
 10
7.507474126929384
 20
7.165559388000122
 30
0.0
 10
7.505397517498608
 20
7.171892464973777
 30
0.0
 10
7.505575927652122
 20
7.17665728001647
 30
0.0
 10
7.506639155721929
 20
7.1799127218513
 30
0.0
 10
7.508576596500044
 20
7.182705809020764
 30
0.0
 10
7.510505343545718
 20
7.184003572072292
 30
0.0
 10
7.511475594412286
 20
7.184656408185855
 30
0.0
  0
ARC
  5
27A
330
1F
100
AcDbEntity
  8
0
  6
Continuous
 62
     7
370
     0
100
AcDbCircle
 10
6.7364899003
 20
6.5413344766
 30
0.0
 40
0.9916599031707654
100
AcDbArc
 50
35.9031458519
 51
38.5116702893
  0
LINE
  5
27B
330
1F
100
AcDbEntity
  8
0
  6
Continuous
 62
     7
370
     0
100
AcDbLine
 10
7.5963123298
 20
7.1555168595
 30
0.0
 11
7.5397437873
 21
7.122860535
 31
0.0
  0
ARC
  5
27C
330
1F
100
AcDbEntity
  8
0
  6
Continuous
 62
     7
370
     0
100
AcDbCircle
 10
6.7920916334
 20
6.573269073
 30
0.0
 40
0.992866261577811
100
AcDbArc
 50
35.9041645703
 51
38.3233040831
  0
LINE
  5
27D
330
1F
100
AcDbEntity
  8
0
  6
Continuous
 62
     7
370
     0
100
AcDbLine
 10
7.9658947003
 20
7.9062936095
 30
0.0
 11
7.9866028275
 21
7.9182481569
 31
0.0
  0
ARC
  5
27E
330
1F
100
AcDbEntity
  8
0
  6
Continuous
 62
     7
370
     0
100
AcDbCircle
 10
7.9477793017
 20
7.9341436925
 30
0.0
 40
0.0332234072445761
100
AcDbArc
 50
276.3115233958
 51
303.0424403633
  0
SPLINE
  5
27F
330
1F
100
AcDbEntity
  8
0
  6
Continuous
 62
     7
370
     0
100
AcDbSpline
210
0.0
220
0.0
230
1.0
 70
     8
 71
     3
 72
    11
 73
     7
 74
     0
 42
0.00000001
 43
0.00000001
 40
0.0
 40
0.0
 40
0.0
 40
0.0
 40
0.2500620333659198
 40
0.4999138376966727
 40
0.7498401673007485
 40
1.0
 40
1.0
 40
1.0
 40
1.0
 10
7.950519311043302
 20
7.902876219583283
 30
0.0
 10
7.950228313863189
 20
7.902606827297411
 30
0.0
 10
7.949646564146485
 20
7.902068269205794
 30
0.0
 10
7.949565244824582
 20
7.901478268267233
 30
0.0
 10
7.950130521606737
 20
7.901126265014717
 30
0.0
 10
7.950997832805707
 20
7.901123193344563
 30
0.0
 10
7.951431690890148
 20
7.901121656792364
 30
0.0
  0
SPLINE
  5
280
330
1F
100
AcDbEntity
  8
0
  6
Continuous
 62
     7
370
     0
100
AcDbSpline
210
0.0
220
0.0
230
1.0
 70
    24
 71
     1
 72
     4
 73
     2
 74
     0
 42
0.00000001
 43
0.00000001
 40
0.0
 40
0.0
 40
1.0
 40
1.0
 10
7.953876468016494
 20
7.904960757831395
 30
0.0
 10
7.950519311043302
 20
7.902876219583283
 30
0.0
  0
LINE
  5
281
330
1F
100
AcDbEntity
  8
0
  6
Continuous
 62
     7
370
     0
100
AcDbLine
 10
7.9762260931
 20
7.9178629217
 30
0.0
 11
7.953876468
 21
7.9049607578
 31
0.0
  0
ARC
  5
282
330
1F
100
AcDbEntity
  8
0
  6
Continuous
 62
     7
370
     0
100
AcDbCircle
 10
7.9901579539
 20
7.6759008346
 30
0.0
 40
0.242362844468946
100
AcDbArc
 50
93.2953776113
 51
96.470419973
  0
LINE
  5
283
330
1F
100
AcDbEntity
  8
0
  6
Continuous
 62
     7
370
     0
100
AcDbLine
 10
7.9418509224
 20
7.9045996535
 30
0.0
 11
7.9628460247
 21
7.9167198681
 31
0.0
  0
ARC
  5
284
330
1F
100
AcDbEntity
  8
0
  6
Continuous
 62
     7
370
     0
100
AcDbCircle
 10
7.9202791588
 20
7.9385563384
 30
0.0
 40
0.0402293106792903
100
AcDbArc
 50
280.9487459563
 51
302.4266911975
  0
SPLINE
  5
285
330
1F
100
AcDbEntity
  8
0
  6
Continuous
 62
     7
370
     0
100
AcDbSpline
210
0.0
220
0.0
230
1.0
 70
     8
 71
     3
 72
    10
 73
     6
 74
     0
 42
0.00000001
 43
0.00000001
 40
0.0
 40
0.0
 40
0.0
 40
0.0
 40
0.4988226573032976
 40
0.7491700015752258
 40
1.0
 40
1.0
 40
1.0
 40
1.0
 10
7.926529425519748
 20
7.89976849554689
 30
0.0
 10
7.9264162636518
 20
7.899502047397839
 30
0.0
 10
7.926246308507324
 20
7.899101875197716
 30
0.0
 10
7.926983121579524
 20
7.898965512745779
 30
0.0
 10
7.927607469473339
 20
7.899028019254252
 30
0.0
 10
7.927919944056447
 20
7.899059302606642
 30
0.0
  0
SPLINE
  5
286
330
1F
100
AcDbEntity
  8
0
  6
Continuous
 62
     7
370
     0
100
AcDbSpline
210
0.0
220
0.0
230
1.0
 70
     8
 71
     3
 72
     9
 73
     5
 74
     0
 42
0.00000001
 43
0.00000001
 40
0.0
 40
0.0
 40
0.0
 40
0.0
 40
0.501577137328103
 40
1.0
 40
1.0
 40
1.0
 40
1.0
 10
7.929667959849749
 20
7.901984875057265
 30
0.0
 10
7.928946455751393
 20
7.901563310704413
 30
0.0
 10
7.927507984886873
 20
7.900722833095928
 30
0.0
 10
7.92685492533239
 20
7.90008593841632
 30
0.0
 10
7.926529425519748
 20
7.89976849554689
 30
0.0
  0
LINE
  5
287
330
1F
100
AcDbEntity
  8
0
  6
Continuous
 62
     7
370
     0
100
AcDbLine
 10
7.9528440733
 20
7.9153641606
 30
0.0
 11
7.9296679598
 21
7.9019848751
 31
0.0
  0
ARC
  5
288
330
1F
100
AcDbEntity
  8
0
  6
Continuous
 62
     7
370
     0
100
AcDbCircle
 10
7.9877621103
 20
7.6938453392
 30
0.0
 40
0.2242540022392974
100
AcDbArc
 50
98.9578330138
 51
102.3015944177
  0
LINE
  5
289
330
1F
100
AcDbEntity
  8
0
  6
Continuous
 62
     7
370
     0
100
AcDbLine
 10
7.9142586435
 20
7.8980999796
 30
0.0
 11
7.9399830963
 21
7.9129503902
 31
0.0
  0
SPLINE
  5
28A
330
1F
100
AcDbEntity
  8
0
  6
Continuous
 62
     7
370
     0
100
AcDbSpline
210
0.0
220
0.0
230
1.0
 70
     8
 71
     3
 72
    13
 73
     9
 74
     0
 42
0.00000001
 43
0.00000001
 40
0.0
 40
0.0
 40
0.0
 40
0.0
 40
0.2493551011004435
 40
0.3758643206396904
 40
0.4994912623305294
 40
0.6184449072810049
 40
0.7497843925019854
 40
1.0
 40
1.0
 40
1.0
 40
1.0
 10
7.90986583888597
 20
7.891013179126522
 30
0.0
 10
7.908292926124741
 20
7.890809058288347
 30
0.0
 10
7.905922002956072
 20
7.890501377636014
 30
0.0
 10
7.904851800721446
 20
7.891047651910118
 30
0.0
 10
7.905091385978686
 20
7.891876623069279
 30
0.0
 10
7.906407816537453
 20
7.893120752253123
 30
0.0
 10
7.909273648114236
 20
7.895155104465173
 30
0.0
 10
7.912284313798756
 20
7.896933648667916
 30
0.0
 10
7.914258643476436
 20
7.898099979629403
 30
0.0
  0
ARC
  5
28B
330
1F
100
AcDbEntity
  8
0
  6
Continuous
 62
     7
370
     0
100
AcDbCircle
 10
7.8948020582
 20
7.97707698
 30
0.0
 40
0.0873721655674906
100
AcDbArc
 50
279.9279349824
 51
293.1507490068
  0
SPLINE
  5
28C
330
1F
100
AcDbEntity
  8
0
  6
Continuous
 62
     7
370
     0
100
AcDbSpline
210
0.0
220
0.0
230
1.0
 70
     8
 71
     3
 72
    12
 73
     8
 74
     0
 42
0.00000001
 43
0.00000001
 40
0.0
 40
0.0
 40
0.0
 40
0.0
 40
0.2503533688407845
 40
0.4999961943216269
 40
0.7494886161542197
 40
0.8747044873187725
 40
1.0
 40
1.0
 40
1.0
 40
1.0
 10
7.93301426573278
 20
7.893607889395848
 30
0.0
 10
7.931950148758523
 20
7.893562001706572
 30
0.0
 10
7.929824934946122
 20
7.893470356564705
 30
0.0
 10
7.927747321323474
 20
7.893862219656866
 30
0.0
 10
7.927662408872011
 20
7.894851442165209
 30
0.0
 10
7.928298079678566
 20
7.895865613351732
 30
0.0
 10
7.928867680969195
 20
7.896448861243521
 30
0.0
 10
7.929152572157123
 20
7.896740577901264
 30
0.0
  0
ARC
  5
28D
330
1F
100
AcDbEntity
  8
0
  6
Continuous
 62
     7
370
     0
100
AcDbCircle
 10
7.927241806
 20
7.9635437926
 30
0.0
 40
0.0701737261694654
100
AcDbArc
 50
274.7184571143
 51
291.2848586135
  0
LINE
  5
28E
330
1F
100
AcDbEntity
  8
0
  6
Continuous
 62
     7
370
     0
100
AcDbLine
 10
7.9464017662
 20
7.8945121344
 30
0.0
 11
7.9527152196
 21
7.8981568134
 31
0.0
  0
ARC
  5
28F
330
1F
100
AcDbEntity
  8
0
  6
Continuous
 62
     7
370
     0
100
AcDbCircle
 10
7.9498367146
 20
7.6284467651
 30
0.0
 40
0.2660875411838893
100
AcDbArc
 50
87.9605085595
 51
90.7396569998
  0
LINE
  5
290
330
1F
100
AcDbEntity
  8
0
  6
Continuous
 62
     7
370
     0
100
AcDbLine
 10
8.0004470825
 20
7.9181158033
 30
0.0
 11
7.9593063243
 21
7.8943657492
 31
0.0
  0
ARC
  5
291
330
1F
100
AcDbEntity
  8
0
  6
Continuous
 62
     7
370
     0
100
AcDbCircle
 10
7.9909868591
 20
7.6526957999
 30
0.0
 40
0.2655885427043777
100
AcDbArc
 50
87.95870127
 51
90.9458160964
  0
ARC
  5
292
330
1F
100
AcDbEntity
  8
0
  6
Continuous
 62
     7
370
     0
100
AcDbCircle
 10
8.0896085934
 20
7.8392813189
 30
0.0
 40
0.0596009596627417
100
AcDbArc
 50
73.4090160661
 51
126.5252179027
  0
SPLINE
  5
293
330
1F
100
AcDbEntity
  8
0
  6
Continuous
 62
     7
370
     0
100
AcDbSpline
210
0.0
220
0.0
230
1.0
 70
    24
 71
     1
 72
     4
 73
     2
 74
     0
 42
0.00000001
 43
0.00000001
 40
0.0
 40
0.0
 40
1.0
 40
1.0
 10
8.042613880022824
 20
7.879143310947542
 30
0.0
 10
8.054135500735324
 20
7.887176350888225
 30
0.0
  0
SPLINE
  5
294
330
1F
100
AcDbEntity
  8
0
  6
Continuous
 62
     7
370
     0
100
AcDbSpline
210
0.0
220
0.0
230
1.0
 70
     8
 71
     3
 72
    12
 73
     8
 74
     0
 42
0.00000001
 43
0.00000001
 40
0.0
 40
0.0
 40
0.0
 40
0.0
 40
0.2503309494299805
 40
0.4997648043321481
 40
0.6249322238031035
 40
0.7501904501281038
 40
1.0
 40
1.0
 40
1.0
 40
1.0
 10
8.048171016007883
 20
7.863051031170347
 30
0.0
 10
8.045877303928043
 20
7.863967313450529
 30
0.0
 10
8.041298099593197
 20
7.865796594390464
 30
0.0
 10
8.03806040987886
 20
7.869079132085187
 30
0.0
 10
8.037766043524986
 20
7.872090955433529
 30
0.0
 10
8.03858379752828
 20
7.875233287165873
 30
0.0
 10
8.04100275884446
 20
7.877580186090649
 30
0.0
 10
8.042613880022824
 20
7.879143310947542
 30
0.0
  0
ARC
  5
295
330
1F
100
AcDbEntity
  8
0
  6
Continuous
 62
     7
370
     0
100
AcDbCircle
 10
8.0674087187
 20
7.9180341932
 30
0.0
 40
0.0582515005514958
100
AcDbArc
 50
250.7158990673
 51
304.72144985
  0
SPLINE
  5
296
330
1F
100
AcDbEntity
  8
0
  6
Continuous
 62
     7
370
     0
100
AcDbSpline
210
0.0
220
0.0
230
1.0
 70
     8
 71
     3
 72
     9
 73
     5
 74
     0
 42
0.00000001
 43
0.00000001
 40
0.0
 40
0.0
 40
0.0
 40
0.0
 40
0.498670267209001
 40
1.0
 40
1.0
 40
1.0
 40
1.0
 10
8.116590786436795
 20
7.88378549001608
 30
0.0
 10
8.114725797778098
 20
7.881323654216422
 30
0.0
 10
8.110985874262834
 20
7.876386853365157
 30
0.0
 10
8.104060118966725
 20
7.872236288663641
 30
0.0
 10
8.10058803191475
 20
7.8701554871709
 30
0.0
  0
SPLINE
  5
297
330
1F
100
AcDbEntity
  8
0
  6
Continuous
 62
     7
370
     0
100
AcDbSpline
210
0.0
220
0.0
230
1.0
 70
     8
 71
     3
 72
    10
 73
     6
 74
     0
 42
0.00000001
 43
0.00000001
 40
0.0
 40
0.0
 40
0.0
 40
0.0
 40
0.4992067981606217
 40
0.7495375815251002
 40
1.0
 40
1.0
 40
1.0
 40
1.0
 10
8.106626906117214
 20
7.896400942703485
 30
0.0
 10
8.110071929646264
 20
7.89488376451204
 30
0.0
 10
8.115244484615017
 20
7.892605786574746
 30
0.0
 10
8.117609161264987
 20
7.887718086203292
 30
0.0
 10
8.116930304192783
 20
7.885096585101827
 30
0.0
 10
8.116590786436795
 20
7.88378549001608
 30
0.0
  0
LINE
  5
298
330
1F
100
AcDbEntity
  8
0
  6
Continuous
 62
     7
370
     0
100
AcDbLine
 10
8.145870341
 20
7.8295599138
 30
0.0
 11
8.1583594997
 21
7.8367697516
 31
0.0
  0
ARC
  5
299
330
1F
100
AcDbEntity
  8
0
  6
Continuous
 62
     7
370
     0
100
AcDbCircle
 10
7.8219658383
 20
7.2931150025
 30
0.0
 40
0.6266476439715459
100
AcDbArc
 50
54.3020111033
 51
58.8764938353
  0
LINE
  5
29A
330
1F
100
AcDbEntity
  8
0
  6
Continuous
 62
     7
370
     0
100
AcDbLine
 10
8.2001118598
 20
7.8092279042
 30
0.0
 11
8.1876227011
 21
7.8020180663
 31
0.0
  0
ARC
  5
29B
330
1F
100
AcDbEntity
  8
0
  6
Continuous
 62
     7
370
     0
100
AcDbCircle
 10
7.834454997
 20
7.3003248404
 30
0.0
 40
0.6266476439721487
100
AcDbArc
 50
54.3020111033
 51
58.8764938353
  0
ARC
  5
29C
330
1F
100
AcDbEntity
  8
0
  6
Continuous
 62
     7
370
     0
100
AcDbCircle
 10
8.2118747989
 20
7.7154969976
 30
0.0
 40
0.0548524778002426
100
AcDbArc
 50
58.7160385122
 51
95.8225761978
  0
LINE
  5
29D
330
1F
100
AcDbEntity
  8
0
  6
Continuous
 62
     7
370
     0
100
AcDbLine
 10
8.2535824036
 20
7.7700081028
 30
0.0
 11
8.2403585885
 21
7.7623741568
 31
0.0
  0
SPLINE
  5
29E
330
1F
100
AcDbEntity
  8
0
  6
Continuous
 62
     7
370
     0
100
AcDbSpline
210
0.0
220
0.0
230
1.0
 70
    24
 71
     1
 72
     4
 73
     2
 74
     0
 42
0.00000001
 43
0.00000001
 40
0.0
 40
0.0
 40
1.0
 40
1.0
 10
8.228669904529786
 20
7.778974578205875
 30
0.0
 10
8.253582403632382
 20
7.770008102792
 30
0.0
  0
LINE
  5
29F
330
1F
100
AcDbEntity
  8
0
  6
Continuous
 62
     7
370
     0
100
AcDbLine
 10
8.2664932299
 20
7.8008095192
 30
0.0
 11
8.2286699045
 21
7.7789745782
 31
0.0
  0
ARC
  5
2A0
330
1F
100
AcDbEntity
  8
0
  6
Continuous
 62
     7
370
     0
100
AcDbCircle
 10
7.807903258
 20
7.2387825511
 30
0.0
 40
0.7253820201380079
100
AcDbArc
 50
50.7870256982
 51
52.3885514381
  0
LINE
  5
2A1
330
1F
100
AcDbEntity
  8
0
  6
Continuous
 62
     7
370
     0
100
AcDbLine
 10
8.1933032181
 20
7.7803263333
 30
0.0
 11
8.250606417
 21
7.8134067659
 31
0.0
  0
ARC
  5
2A2
330
1F
100
AcDbEntity
  8
0
  6
Continuous
 62
     7
370
     0
100
AcDbCircle
 10
7.7524291881
 20
7.2080352415
 30
0.0
 40
0.7224174721491626
100
AcDbArc
 50
51.0766142625
 51
52.3905392857
  0
LINE
  5
2A3
330
1F
100
AcDbEntity
  8
0
  6
Continuous
 62
     7
370
     0
100
AcDbLine
 10
8.2940250689
 20
7.7428471611
 30
0.0
 11
8.3167994172
 21
7.7559945125
 31
0.0
  0
ARC
  5
2A4
330
1F
100
AcDbEntity
  8
0
  6
Continuous
 62
     7
370
     0
100
AcDbCircle
 10
7.7222676608
 20
7.1526378483
 30
0.0
 40
0.8217381375703925
100
AcDbArc
 50
45.9097742558
 51
47.9194026912
  0
LINE
  5
2A5
330
1F
100
AcDbEntity
  8
0
  6
Continuous
 62
     7
370
     0
100
AcDbLine
 10
8.2612217755
 20
7.7557484916
 30
0.0
 11
8.2729762778
 21
7.7625342214
 31
0.0
  0
ARC
  5
2A6
330
1F
100
AcDbEntity
  8
0
  6
Continuous
 62
     7
370
     0
100
AcDbCircle
 10
7.7105131585
 20
7.1458521185
 30
0.0
 40
0.8217381375744705
100
AcDbArc
 50
45.9097742558
 51
47.9194026912
  0
LINE
  5
2A7
330
1F
100
AcDbEntity
  8
0
  6
Continuous
 62
     7
370
     0
100
AcDbLine
 10
8.2734546899
 20
7.730972134
 30
0.0
 11
8.2822705666
 21
7.7360614313
 31
0.0
  0
ARC
  5
2A8
330
1F
100
AcDbEntity
  8
0
  6
Continuous
 62
     7
370
     0
100
AcDbCircle
 10
7.7040826154
 20
7.1432884177
 30
0.0
 40
0.8182644496823214
100
AcDbArc
 50
45.9066911204
 51
48.2578714861
  0
LINE
  5
2A9
330
1F
100
AcDbEntity
  8
0
  6
Continuous
 62
     7
370
     0
100
AcDbLine
 10
8.2356422214
 20
7.7462015491
 30
0.0
 11
8.2488660365
 21
7.7538354951
 31
0.0
  0
ARC
  5
2AA
330
1F
100
AcDbEntity
  8
0
  6
Continuous
 62
     7
370
     0
100
AcDbCircle
 10
7.6799199499
 20
7.1238387899
 30
0.0
 40
0.8343636180139969
100
AcDbArc
 50
44.3255331477
 51
48.237588021
  0
LINE
  5
2AB
330
1F
100
AcDbEntity
  8
0
  6
Continuous
 62
     7
370
     0
100
AcDbLine
 10
8.3333767245
 20
7.7394934724
 30
0.0
 11
8.276808182
 21
7.7068371479
 31
0.0
  0
ARC
  5
2AC
330
1F
100
AcDbEntity
  8
0
  6
Continuous
 62
     7
370
     0
100
AcDbCircle
 10
7.7199603899
 20
7.1398194361
 30
0.0
 40
0.857839465944531
100
AcDbArc
 50
44.3509617859
 51
45.9132459239
  0
LINE
  5
2AD
330
1F
100
AcDbEntity
  8
0
  6
Continuous
 62
     7
370
     0
100
AcDbLine
 10
7.54357697
 20
6.3102348875
 30
0.0
 11
7.5057536446
 21
6.2883999465
 31
0.0
  0
ARC
  5
2AE
330
1F
100
AcDbEntity
  8
0
  6
Continuous
 62
     7
370
     0
100
AcDbCircle
 10
7.4344408938
 20
6.4795146098
 30
0.0
 40
0.2014107929381564
100
AcDbArc
 50
302.8102197841
 51
306.5733419006
  0
LINE
  5
2AF
330
1F
100
AcDbEntity
  8
0
  6
Continuous
 62
     7
370
     0
100
AcDbLine
 10
7.4971485742
 20
6.2846822178
 30
0.0
 11
7.5544517731
 21
6.3177626504
 31
0.0
  0
ARC
  5
2B0
330
1F
100
AcDbEntity
  8
0
  6
Continuous
 62
     7
370
     0
100
AcDbCircle
 10
7.3770273227
 20
6.4465893068
 30
0.0
 40
0.2016011421685888
100
AcDbArc
 50
303.4953345679
 51
306.5722633985
  0
LWPOLYLINE
  5
2B1
330
1F
100
AcDbEntity
  8
0
  6
Continuous
 62
     7
370
     0
100
AcDbPolyline
 90
       72
 70
   128
 43
0.0
 10
7.3693056946
 20
6.5323955968
 10
7.371613702
 20
6.4938844998
 10
7.3710671949
 20
6.4569312149
 10
7.3676704505
 20
6.4218249519
 10
7.3614500529
 20
6.3888404647
 10
7.3524546852
 20
6.3582359018
 10
7.3407547484
 20
6.3302507853
 10
7.3264418102
 20
6.3051041367
 10
7.3096278889
 20
6.2829927626
 10
7.2904445762
 20
6.2640897146
 10
7.2690420075
 20
6.2485429345
 10
7.2455876869
 20
6.2364740971
 10
7.2202651762
 20
6.2279776573
 10
7.1932726586
 20
6.2231201113
 10
7.164821387
 20
6.221939476
 10
7.1351340311
 20
6.2244449915
 10
7.1044429349
 20
6.2306170487
 10
7.0729882977
 20
6.2404073428
 10
7.0410162947
 20
6.2537392516
 10
7.0087771502
 20
6.2705084348
 10
6.9765231793
 20
6.2905836508
 10
6.9445068129
 20
6.3138077839
 10
6.9129786225
 20
6.3399990736
 10
6.882185359
 20
6.3689525376
 10
6.8523680215
 20
6.4004415759
 10
6.823759971
 20
6.434219744
 10
6.7965851042
 20
6.4700226819
 10
6.7710561015
 20
6.5075701832
 10
6.7473727617
 20
6.5465683876
 10
6.7257204393
 20
6.5867120814
 10
6.7062685929
 20
6.6276870858
 10
6.6891694597
 20
6.6691727157
 10
6.6745568634
 20
6.7108442899
 10
6.6625451676
 20
6.7523756719
 10
6.65322838
 20
6.7934418221
 10
6.6466794172
 20
6.8337213424
 10
6.6429495335
 20
6.8728989909
 10
6.6420679205
 20
6.9106681493
 10
6.6440414779
 20
6.9467332227
 10
6.64885476
 20
6.9808119532
 10
6.6564700963
 20
7.0126376284
 10
6.6668278865
 20
7.0419611692
 10
6.6798470668
 20
7.0685530792
 10
6.6954257445
 20
7.0922052406
 10
6.7134419954
 20
7.1127325433
 10
6.7337548178
 20
7.1299743331
 10
6.7562052363
 20
7.1437956698
 10
6.780617546
 20
7.1540883827
 10
6.8068006875
 20
7.1607719172
 10
6.8345497422
 20
7.1637939658
 10
6.8636475361
 20
7.1631308767
 10
6.8938663395
 20
7.1587878395
 10
6.9249696493
 20
7.1507988444
 10
6.95671404
 20
7.1392264162
 10
6.9888510686
 20
7.1241611246
 10
7.0211292193
 20
7.1057208762
 10
7.0532958718
 20
7.0840499908
 10
7.0850992785
 20
7.0593180725
 10
7.1162905346
 20
7.031718682
 10
7.1466255262
 20
7.0014678221
 10
7.1758668409
 20
6.9688022467
 10
7.2037856257
 20
6.9339776083
 10
7.2301633783
 20
6.8972664568
 10
7.254793657
 20
6.8589561068
 10
7.2774836965
 20
6.8193463888
 10
7.2980559164
 20
6.7787473024
 10
7.3163493113
 20
6.7374765905
 10
7.3322207106
 20
6.6958572526
 10
7.3455458989
 20
6.6542150162
 10
7.3562205887
 20
6.6128757884
 10
7.3641612361
 20
6.5721631046
 10
7.3693056946
 20
6.5323955968
  0
LWPOLYLINE
  5
2B2
330
1F
100
AcDbEntity
  8
0
  6
Continuous
 62
     7
370
     0
100
AcDbPolyline
 90
       46
 70
   128
 43
0.0
 10
6.8841820419
 20
7.1605611019
 10
6.8699849275
 20
7.161663543
 10
6.8414320679
 20
7.1611965086
 10
6.814309929
 20
7.1570162052
 10
6.7888368821
 20
7.14915629
 10
6.7652180214
 20
7.1376800466
 10
6.743643512
 20
7.1226798749
 10
6.7242870592
 20
7.1042765474
 10
6.7073045098
 20
7.082618237
 10
6.6928325971
 20
7.0578793235
 10
6.6809878407
 20
7.0302589903
 10
6.6718656075
 20
6.9999796199
 10
6.6655393443
 20
6.967285004
 10
6.6620599866
 20
6.9324383806
 10
6.661455548
 20
6.895720314
 10
6.6637308951
 20
6.8574264366
 10
6.6688677082
 20
6.8178650682
 10
6.6768246287
 20
6.7773547337
 10
6.6875375922
 20
6.7362215983
 10
6.700920344
 20
6.6947968421
 10
6.7168651343
 20
6.6534139926
 10
6.7352435849
 20
6.6124062404
 10
6.7559077234
 20
6.5721037557
 10
6.7786911742
 20
6.5328310304
 10
6.8034104985
 20
6.4949042655
 10
6.8298666706
 20
6.4586288248
 10
6.8578466812
 20
6.4242967771
 10
6.8871252516
 20
6.3921845436
 10
6.9174666479
 20
6.3625506732
 10
6.9486265792
 20
6.3356337605
 10
6.9803541639
 20
6.3116505246
 10
7.0123939502
 20
6.2907940644
 10
7.0444879725
 20
6.2732323038
 10
7.0763778288
 20
6.2591066399
 10
7.1078067605
 20
6.2485308041
 10
7.1385217204
 20
6.2415899469
 10
7.1682754098
 20
6.238339952
 10
7.1968282694
 20
6.2388069864
 10
7.2239504084
 20
6.2429872898
 10
7.2494234552
 20
6.2508472049
 10
7.2730423159
 20
6.2623234484
 10
7.2946168253
 20
6.2773236201
 10
7.3139732781
 20
6.2957269475
 10
7.3309558276
 20
6.317385258
 10
7.3454277402
 20
6.3421241714
 10
7.3504796289
 20
6.3528224695
  0
ARC
  5
2B3
330
1F
100
AcDbEntity
  8
0
  6
Continuous
 62
     7
370
     0
100
AcDbCircle
 10
6.7246753128
 20
6.530269684
 30
0.0
 40
1.032198770333538
100
AcDbArc
 50
32.434435603
 51
32.9927692132
  0
SPLINE
  5
2B4
330
1F
100
AcDbEntity
  8
0
  6
Continuous
 62
     7
370
     0
100
AcDbSpline
210
0.0
220
0.0
230
1.0
 70
     8
 71
     3
 72
    13
 73
     9
 74
     0
 42
0.00000001
 43
0.00000001
 40
0.0
 40
0.0
 40
0.0
 40
0.0
 40
0.2505627277014782
 40
0.5000471093119708
 40
0.6243230553520862
 40
0.7497534525996833
 40
0.8747558534750415
 40
1.0
 40
1.0
 40
1.0
 40
1.0
 10
7.590420982052652
 20
7.092336172662661
 30
0.0
 10
7.589781229112527
 20
7.093268919802914
 30
0.0
 10
7.588504476535166
 20
7.095130399822235
 30
0.0
 10
7.586490785174864
 20
7.097216874334713
 30
0.0
 10
7.584507601873284
 20
7.09820272460252
 30
0.0
 10
7.582966609589564
 20
7.098420730710207
 30
0.0
 10
7.581508144388278
 20
7.098206841148618
 30
0.0
 10
7.580677656300191
 20
7.09778272860725
 30
0.0
 10
7.580262011117981
 20
7.097570467483866
 30
0.0
  0
SPLINE
  5
2B5
330
1F
100
AcDbEntity
  8
0
  6
Continuous
 62
     7
370
     0
100
AcDbSpline
210
0.0
220
0.0
230
1.0
 70
     8
 71
     3
 72
    13
 73
     9
 74
     0
 42
0.00000001
 43
0.00000001
 40
0.0
 40
0.0
 40
0.0
 40
0.0
 40
0.1251815832447496
 40
0.2501778431330465
 40
0.3742188627154257
 40
0.499876926971329
 40
0.7494759856945016
 40
0.9999999999999999
 40
0.9999999999999999
 40
0.9999999999999999
 40
0.9999999999999999
 10
7.580262011117981
 20
7.097570467483868
 30
0.0
 10
7.579885299288772
 20
7.097323454107088
 30
0.0
 10
7.579132433328211
 20
7.096829793041093
 30
0.0
 10
7.57835224400607
 20
7.095699769557616
 30
0.0
 10
7.577927154594696
 20
7.094335494743459
 30
0.0
 10
7.578028768851278
 20
7.092289142199275
 30
0.0
 10
7.579072928510594
 20
7.089741910056555
 30
0.0
 10
7.580217669456152
 20
7.087878432409568
 30
0.0
 10
7.580791098502895
 20
7.086944970376184
 30
0.0
  0
ARC
  5
2B6
330
1F
100
AcDbEntity
  8
0
  6
Continuous
 62
     7
370
     0
100
AcDbCircle
 10
6.7151424956
 20
6.5247676178
 30
0.0
 40
1.032177736381176
100
AcDbArc
 50
32.4344317852
 51
33.0008648285
  0
LINE
  5
2B7
330
1F
100
AcDbEntity
  8
0
  6
Continuous
 62
     7
370
     0
100
AcDbLine
 10
7.5863064597
 20
7.0783597303
 30
0.0
 11
7.5958569929
 21
7.0838731358
 31
0.0
  0
ARC
  5
2B8
330
1F
100
AcDbEntity
  8
0
  6
Continuous
 62
     7
370
     0
100
AcDbCircle
 10
6.7470040614
 20
6.543178087
 30
0.0
 40
1.031855497329814
100
AcDbArc
 50
32.4343664767
 51
33.1232194107
  0
SPLINE
  5
2B9
330
1F
100
AcDbEntity
  8
0
  6
Continuous
 62
     7
370
     0
100
AcDbSpline
210
0.0
220
0.0
230
1.0
 70
     8
 71
     3
 72
    13
 73
     9
 74
     0
 42
0.00000001
 43
0.00000001
 40
0.0
 40
0.0
 40
0.0
 40
0.0
 40
0.2504598900566547
 40
0.4998947466964216
 40
0.6257393024518646
 40
0.7498233176505914
 40
0.8747960687617431
 40
1.0
 40
1.0
 40
1.0
 40
1.0
 10
7.611180292795747
 20
7.107026655770236
 30
0.0
 10
7.610427943303077
 20
7.108115113193876
 30
0.0
 10
7.608926323387087
 20
7.11028757341478
 30
0.0
 10
7.606525413150349
 20
7.112686910475933
 30
0.0
 10
7.604210030774855
 20
7.113844552108622
 30
0.0
 10
7.602405684650646
 20
7.114172688091599
 30
0.0
 10
7.600674200679043
 20
7.114004042359023
 30
0.0
 10
7.599694999204432
 20
7.113518584608306
 30
0.0
 10
7.599204946043026
 20
7.113275631435097
 30
0.0
  0
SPLINE
  5
2BA
330
1F
100
AcDbEntity
  8
0
  6
Continuous
 62
     7
370
     0
100
AcDbSpline
210
0.0
220
0.0
230
1.0
 70
     8
 71
     3
 72
    13
 73
     9
 74
     0
 42
0.00000001
 43
0.00000001
 40
0.0
 40
0.0
 40
0.0
 40
0.0
 40
0.1295610237633566
 40
0.2496774389454466
 40
0.3752077547247709
 40
0.4998009282125459
 40
0.7495742841115205
 40
1.0
 40
1.0
 40
1.0
 40
1.0
 10
7.599204946043026
 20
7.113275631435097
 30
0.0
 10
7.598751130936825
 20
7.112963399867016
 30
0.0
 10
7.597876582479428
 20
7.112361697472178
 30
0.0
 10
7.597029192495631
 20
7.110961435705058
 30
0.0
 10
7.596649431515063
 20
7.109319661291202
 30
0.0
 10
7.596867021649217
 20
7.106899068690154
 30
0.0
 10
7.598146385389771
 20
7.103920133106412
 30
0.0
 10
7.599506190467722
 20
7.101723910486099
 30
0.0
 10
7.60018697973608
 20
7.100624367018382
 30
0.0
  0
ARC
  5
2BB
330
1F
100
AcDbEntity
  8
0
  6
Continuous
 62
     7
370
     0
100
AcDbCircle
 10
6.7359781565
 20
6.536812581
 30
0.0
 40
1.031862694479747
100
AcDbArc
 50
32.434368074
 51
33.1205199863
  0
LINE
  5
2BC
330
1F
100
AcDbEntity
  8
0
  6
Continuous
 62
     7
370
     0
100
AcDbLine
 10
7.6068768388
 20
7.0902347574
 30
0.0
 11
7.6178966848
 21
7.0965963791
 31
0.0
  0
ARC
  5
2BD
330
1F
100
AcDbEntity
  8
0
  6
Continuous
 62
     7
370
     0
100
AcDbCircle
 10
6.7616359845
 20
6.5566467317
 30
0.0
 40
0.9867786208273676
100
AcDbArc
 50
37.321122125
 51
37.8964599528
  0
SPLINE
  5
2BE
330
1F
100
AcDbEntity
  8
0
  6
Continuous
 62
     7
370
     0
100
AcDbSpline
210
0.0
220
0.0
230
1.0
 70
     8
 71
     3
 72
    13
 73
     9
 74
     0
 42
0.00000001
 43
0.00000001
 40
0.0
 40
0.0
 40
0.0
 40
0.0
 40
0.2505627277009965
 40
0.5000471093109954
 40
0.6243230553610339
 40
0.7497534526001517
 40
0.874755853475276
 40
1.0
 40
1.0
 40
1.0
 40
1.0
 10
7.540324740058523
 20
7.16276212379645
 30
0.0
 10
7.539617298217409
 20
7.163624637372269
 30
0.0
 10
7.538205459150599
 20
7.165345952526709
 30
0.0
 10
7.53602450489139
 20
7.167254601016844
 30
0.0
 10
7.533932126003058
 20
7.168123045204038
 30
0.0
 10
7.532334528777796
 20
7.168279772095127
 30
0.0
 10
7.530844017879876
 20
7.168031052190138
 30
0.0
 10
7.530010709405476
 20
7.167603868585452
 30
0.0
 10
7.529593652667822
 20
7.16739007044704
 30
0.0
  0
SPLINE
  5
2BF
330
1F
100
AcDbEntity
  8
0
  6
Continuous
 62
     7
370
     0
100
AcDbSpline
210
0.0
220
0.0
230
1.0
 70
     8
 71
     3
 72
    13
 73
     9
 74
     0
 42
0.00000001
 43
0.00000001
 40
0.0
 40
0.0
 40
0.0
 40
0.0
 40
0.1251815832450546
 40
0.2501778431337111
 40
0.3742188627213521
 40
0.4998769269700189
 40
0.7494759856938471
 40
0.9999999999999999
 40
0.9999999999999999
 40
0.9999999999999999
 40
0.9999999999999999
 10
7.529593652667822
 20
7.16739007044704
 30
0.0
 10
7.529218446936391
 20
7.167144697331478
 30
0.0
 10
7.528468590941703
 20
7.166654314359615
 30
0.0
 10
7.527723080595345
 20
7.165561977287579
 30
0.0
 10
7.527355180846508
 20
7.164259591947319
 30
0.0
 10
7.527564687138352
 20
7.162329207458188
 30
0.0
 10
7.528771024122504
 20
7.159954373170791
 30
0.0
 10
7.530046958489396
 20
7.15822711283008
 30
0.0
 10
7.530686105565032
 20
7.157361885413786
 30
0.0
  0
ARC
  5
2C0
330
1F
100
AcDbEntity
  8
0
  6
Continuous
 62
     7
370
     0
100
AcDbCircle
 10
6.7521291083
 20
6.5511668427
 30
0.0
 40
0.9867235822758236
100
AcDbArc
 50
37.3211113505
 51
37.9048090605
  0
LINE
  5
2C1
330
1F
100
AcDbEntity
  8
0
  6
Continuous
 62
     7
370
     0
100
AcDbLine
 10
7.536821178
 20
7.1493990581
 30
0.0
 11
7.5463717111
 21
7.1549124636
 31
0.0
  0
ARC
  5
2C2
330
1F
100
AcDbEntity
  8
0
  6
Continuous
 62
     7
370
     0
100
AcDbCircle
 10
6.7843819035
 20
6.5699125737
 30
0.0
 40
0.9858880261137716
100
AcDbArc
 50
37.3209286536
 51
38.0310308236
  0
SPLINE
  5
2C3
330
1F
100
AcDbEntity
  8
0
  6
Continuous
 62
     7
370
     0
100
AcDbSpline
210
0.0
220
0.0
230
1.0
 70
     8
 71
     3
 72
    13
 73
     9
 74
     0
 42
0.00000001
 43
0.00000001
 40
0.0
 40
0.0
 40
0.0
 40
0.0
 40
0.2504598900563925
 40
0.4998947466959389
 40
0.625739302472372
 40
0.7498233176508659
 40
0.8747960687618774
 40
1.0
 40
1.0
 40
1.0
 40
1.0
 10
7.56094342532603
 20
7.177306517396978
 30
0.0
 10
7.560112347726576
 20
7.178312151460703
 30
0.0
 10
7.55845359380007
 20
7.180319303925079
 30
0.0
 10
7.555859207167668
 20
7.182509248234903
 30
0.0
 10
7.553417017127293
 20
7.183527843757834
 30
0.0
 10
7.551543264951919
 20
7.183779255957703
 30
0.0
 10
7.549769769095694
 20
7.183563925276298
 30
0.0
 10
7.548786535852551
 20
7.183073976132749
 30
0.0
 10
7.548294464944065
 20
7.182828775187949
 30
0.0
  0
SPLINE
  5
2C4
330
1F
100
AcDbEntity
  8
0
  6
Continuous
 62
     7
370
     0
100
AcDbSpline
210
0.0
220
0.0
230
1.0
 70
     8
 71
     3
 72
    13
 73
     9
 74
     0
 42
0.00000001
 43
0.00000001
 40
0.0
 40
0.0
 40
0.0
 40
0.0
 40
0.1295610237631954
 40
0.2496774389472616
 40
0.3752077547154891
 40
0.4998009282121235
 40
0.7495742841112967
 40
1.0
 40
1.0
 40
1.0
 40
1.0
 10
7.548294464944065
 20
7.182828775187949
 30
0.0
 10
7.547843187775664
 20
7.182519371177571
 30
0.0
 10
7.546973530185833
 20
7.181923117777685
 30
0.0
 10
7.546172211472768
 20
7.180574033945729
 30
0.0
 10
7.54586454923708
 20
7.179011910816564
 30
0.0
 10
7.546211637709844
 20
7.176733178331308
 30
0.0
 10
7.547681089344754
 20
7.17395975624369
 30
0.0
 10
7.549195047568602
 20
7.171925644479773
 30
0.0
 10
7.549953013933227
 20
7.1709072621528
 30
0.0
  0
ARC
  5
2C5
330
1F
100
AcDbEntity
  8
0
  6
Continuous
 62
     7
370
     0
100
AcDbCircle
 10
6.7733473841
 20
6.5635396695
 30
0.0
 40
0.9859065355711195
100
AcDbArc
 50
37.3209330887
 51
38.0282453523
  0
LINE
  5
2C6
330
1F
100
AcDbEntity
  8
0
  6
Continuous
 62
     7
370
     0
100
AcDbLine
 10
7.5573915571
 20
7.1612740852
 30
0.0
 11
7.568411403
 21
7.1676357069
 31
0.0
  0
SPLINE
  5
2C7
330
1F
100
AcDbEntity
  8
0
  6
Continuous
 62
     7
370
     0
100
AcDbSpline
210
0.0
220
0.0
230
1.0
 70
     8
 71
     3
 72
     9
 73
     5
 74
     0
 42
0.00000001
 43
0.00000001
 40
0.0
 40
0.0
 40
0.0
 40
0.0
 40
0.49999943778706
 40
1.0
 40
1.0
 40
1.0
 40
1.0
 10
7.267519307950266
 20
7.272268365354721
 30
0.0
 10
7.268928071353568
 20
7.271665082167726
 30
0.0
 10
7.271745601328276
 20
7.270458514437039
 30
0.0
 10
7.274456373938875
 20
7.269119395540017
 30
0.0
 10
7.275811761768205
 20
7.268449835338635
 30
0.0
  0
SPLINE
  5
2C8
330
1F
100
AcDbEntity
  8
0
  6
Continuous
 62
     7
370
     0
100
AcDbSpline
210
0.0
220
0.0
230
1.0
 70
    24
 71
     1
 72
     4
 73
     2
 74
     0
 42
0.00000001
 43
0.00000001
 40
0.0
 40
0.0
 40
1.0
 40
1.0
 10
7.275811761768205
 20
7.268449835338635
 30
0.0
 10
7.283799252609582
 20
7.265240522116104
 30
0.0
  0
ARC
  5
2C9
330
1F
100
AcDbEntity
  8
0
  6
Continuous
 62
     7
370
     0
100
AcDbCircle
 10
7.2850735044
 20
7.2704184859
 30
0.0
 40
0.0053324503183773
100
AcDbArc
 50
256.1747283172
 51
296.5632532671
  0
SPLINE
  5
2CA
330
1F
100
AcDbEntity
  8
0
  6
Continuous
 62
     7
370
     0
100
AcDbSpline
210
0.0
220
0.0
230
1.0
 70
     8
 71
     3
 72
    13
 73
     9
 74
     0
 42
0.00000001
 43
0.00000001
 40
0.0
 40
0.0
 40
0.0
 40
0.0
 40
0.1250915069580341
 40
0.2499455687836041
 40
0.3709820856994186
 40
0.500112710982576
 40
0.7496528854791775
 40
1.0
 40
1.0
 40
1.0
 40
1.0
 10
7.287458099025445
 20
7.265648922491436
 30
0.0
 10
7.287725363197449
 20
7.265828462359522
 30
0.0
 10
7.288259384228227
 20
7.266187201298235
 30
0.0
 10
7.288670838118742
 20
7.266914044716795
 30
0.0
 10
7.288764654320559
 20
7.267707979654691
 30
0.0
 10
7.288497587838979
 20
7.268785260127347
 30
0.0
 10
7.287548713650996
 20
7.270069023238388
 30
0.0
 10
7.286460402289941
 20
7.27092646337425
 30
0.0
 10
7.285915368209405
 20
7.271355875500951
 30
0.0
  0
ARC
  5
2CB
330
1F
100
AcDbEntity
  8
0
  6
Continuous
 62
     7
370
     0
100
AcDbCircle
 10
7.2761636742
 20
7.2600944458
 30
0.0
 40
0.0148968229863635
100
AcDbArc
 50
49.109484117
 51
116.2539787899
  0
LINE
  5
2CC
330
1F
100
AcDbEntity
  8
0
  6
Continuous
 62
     7
370
     0
100
AcDbLine
 10
7.2695740501
 20
7.2734545427
 30
0.0
 11
7.267519308
 21
7.2722683654
 31
0.0
  0
SPLINE
  5
2CD
330
1F
100
AcDbEntity
  8
0
  6
Continuous
 62
     7
370
     0
100
AcDbSpline
210
0.0
220
0.0
230
1.0
 70
     8
 71
     3
 72
    13
 73
     9
 74
     0
 42
0.00000001
 43
0.00000001
 40
0.0
 40
0.0
 40
0.0
 40
0.0
 40
0.5004639766922045
 40
0.6282475802575279
 40
0.7518824419742655
 40
0.8133314421065327
 40
0.8755414302565988
 40
0.9999999999999999
 40
0.9999999999999999
 40
0.9999999999999999
 40
0.9999999999999999
 10
7.021288630497566
 20
7.262239524333549
 30
0.0
 10
7.024922599788673
 20
7.264385207321043
 30
0.0
 10
7.029484431449281
 20
7.267078748130517
 30
0.0
 10
7.033310294721788
 20
7.270729644672752
 30
0.0
 10
7.034103176964115
 20
7.272341287060404
 30
0.0
 10
7.034060539046891
 20
7.273559792092851
 30
0.0
 10
7.033462602984032
 20
7.274702761607483
 30
0.0
 10
7.032245463385987
 20
7.275291386446272
 30
0.0
 10
7.031433953106697
 20
7.27568384357123
 30
0.0
  0
ARC
  5
2CE
330
1F
100
AcDbEntity
  8
0
  6
Continuous
 62
     7
370
     0
100
AcDbCircle
 10
7.0260299659
 20
7.2460269101
 30
0.0
 40
0.0301452613664624
100
AcDbArc
 50
79.6730548834
 51
132.166792651
  0
SPLINE
  5
2CF
330
1F
100
AcDbEntity
  8
0
  6
Continuous
 62
     7
370
     0
100
AcDbSpline
210
0.0
220
0.0
230
1.0
 70
     8
 71
     3
 72
    13
 73
     9
 74
     0
 42
0.00000001
 43
0.00000001
 40
0.0
 40
0.0
 40
0.0
 40
0.0
 40
0.5004231501095057
 40
0.6255784393532678
 40
0.7503815851612478
 40
0.8126552223387211
 40
0.8754890600874716
 40
0.9999999999999999
 40
0.9999999999999999
 40
0.9999999999999999
 40
0.9999999999999999
 10
7.005793719559966
 20
7.268370390464252
 30
0.0
 10
7.002075905386168
 20
7.266180578774714
 30
0.0
 10
6.997428269903796
 20
7.263443097547239
 30
0.0
 10
6.993409222276097
 20
7.259793702417077
 30
0.0
 10
6.992601917561658
 20
7.258184939192124
 30
0.0
 10
6.992722001795291
 20
7.2569694168247
 30
0.0
 10
6.993416335079736
 20
7.255846539010954
 30
0.0
 10
6.994683811016043
 20
7.255259312926854
 30
0.0
 10
6.995526186352659
 20
7.254869037454086
 30
0.0
  0
ARC
  5
2D0
330
1F
100
AcDbEntity
  8
0
  6
Continuous
 62
     7
370
     0
100
AcDbCircle
 10
7.0010320839
 20
7.2843336344
 30
0.0
 40
0.0299746122863263
100
AcDbArc
 50
259.415504197
 51
312.5155371187
  0
SPLINE
  5
2D1
330
1F
100
AcDbEntity
  8
0
  6
Continuous
 62
     7
370
     0
100
AcDbSpline
210
0.0
220
0.0
230
1.0
 70
    24
 71
     1
 72
     4
 73
     2
 74
     0
 42
0.00000001
 43
0.00000001
 40
0.0
 40
0.0
 40
1.0
 40
1.0
 10
7.478843511170022
 20
7.22297057670885
 30
0.0
 10
7.504400374115531
 20
7.22861558247246
 30
0.0
  0
ARC
  5
2D2
330
1F
100
AcDbEntity
  8
0
  6
Continuous
 62
     7
370
     0
100
AcDbCircle
 10
6.8418675724
 20
6.6214492758
 30
0.0
 40
0.8986660320916169
100
AcDbArc
 50
42.5031422055
 51
43.5533128359
  0
SPLINE
  5
2D3
330
1F
100
AcDbEntity
  8
0
  6
Continuous
 62
     7
370
     0
100
AcDbSpline
210
0.0
220
0.0
230
1.0
 70
    24
 71
     1
 72
     4
 73
     2
 74
     0
 42
0.00000001
 43
0.00000001
 40
0.0
 40
0.0
 40
1.0
 40
1.0
 10
7.493160999537155
 20
7.240656437480355
 30
0.0
 10
7.478843511170022
 20
7.22297057670885
 30
0.0
  0
ARC
  5
2D4
330
1F
100
AcDbEntity
  8
0
  6
Continuous
 62
     7
370
     0
100
AcDbCircle
 10
6.9028646649
 20
6.6891667727
 30
0.0
 40
0.794499115131072
100
AcDbArc
 50
47.8928167653
 51
48.5897056937
  0
SPLINE
  5
2D5
330
1F
100
AcDbEntity
  8
0
  6
Continuous
 62
     7
370
     0
100
AcDbSpline
210
0.0
220
0.0
230
1.0
 70
    24
 71
     1
 72
     4
 73
     2
 74
     0
 42
0.00000001
 43
0.00000001
 40
0.0
 40
0.0
 40
1.0
 40
1.0
 10
7.42838342453282
 20
7.285034943648888
 30
0.0
 10
7.423102613040523
 20
7.288589089814645
 30
0.0
  0
ARC
  5
2D6
330
1F
100
AcDbEntity
  8
0
  6
Continuous
 62
     7
370
     0
100
AcDbCircle
 10
7.4182836427
 20
7.2815820668
 30
0.0
 40
0.0085041664093203
100
AcDbArc
 50
55.4823608329
 51
117.3218244143
  0
SPLINE
  5
2D7
330
1F
100
AcDbEntity
  8
0
  6
Continuous
 62
     7
370
     0
100
AcDbSpline
210
0.0
220
0.0
230
1.0
 70
     8
 71
     3
 72
    12
 73
     8
 74
     0
 42
0.00000001
 43
0.00000001
 40
0.0
 40
0.0
 40
0.0
 40
0.0
 40
0.1254669244527804
 40
0.2506002708973358
 40
0.3754476425664723
 40
0.5006747216463869
 40
1.0
 40
1.0
 40
1.0
 40
1.0
 10
7.41438033237192
 20
7.289137529375017
 30
0.0
 10
7.413927858143664
 20
7.28884021373784
 30
0.0
 10
7.413024112677125
 20
7.288246372934431
 30
0.0
 10
7.412163629124809
 20
7.287037884151288
 30
0.0
 10
7.41188932444549
 20
7.28562936213191
 30
0.0
 10
7.412865843108299
 20
7.282687892869439
 30
0.0
 10
7.415198736228781
 20
7.280603755992665
 30
0.0
 10
7.417063868099458
 20
7.278937503013653
 30
0.0
  0
ARC
  5
2D8
330
1F
100
AcDbEntity
  8
0
  6
Continuous
 62
     7
370
     0
100
AcDbCircle
 10
6.8920449401
 20
6.683028425
 30
0.0
 40
0.7941992847986528
100
AcDbArc
 50
47.8927272141
 51
48.6187018959
  0
LINE
  5
2D9
330
1F
100
AcDbEntity
  8
0
  6
Continuous
 62
     7
370
     0
100
AcDbLine
 10
7.4245720764
 20
7.2722375162
 30
0.0
 11
7.4355919224
 21
7.2785991378
 31
0.0
  0
SPLINE
  5
2DA
330
1F
100
AcDbEntity
  8
0
  6
Continuous
 62
     7
370
     0
100
AcDbSpline
210
0.0
220
0.0
230
1.0
 70
    24
 71
     1
 72
     4
 73
     2
 74
     0
 42
0.00000001
 43
0.00000001
 40
0.0
 40
0.0
 40
1.0
 40
1.0
 10
7.335523565239168
 20
7.346374425505809
 30
0.0
 10
7.368373172067303
 20
7.346720947730669
 30
0.0
  0
ARC
  5
2DB
330
1F
100
AcDbEntity
  8
0
  6
Continuous
 62
     7
370
     0
100
AcDbCircle
 10
7.0168344961
 20
6.8290385456
 30
0.0
 40
0.6257591470807168
100
AcDbArc
 50
55.8210467487
 51
57.472865189
  0
LINE
  5
2DC
330
1F
100
AcDbEntity
  8
0
  6
Continuous
 62
     7
370
     0
100
AcDbLine
 10
7.3533045458
 20
7.3566391671
 30
0.0
 11
7.3355235652
 21
7.3463744255
 31
0.0
  0
SPLINE
  5
2DD
330
1F
100
AcDbEntity
  8
0
  6
Continuous
 62
     7
370
     0
100
AcDbSpline
210
0.0
220
0.0
230
1.0
 70
     8
 71
     3
 72
    13
 73
     9
 74
     0
 42
0.00000001
 43
0.00000001
 40
0.0
 40
0.0
 40
0.0
 40
0.0
 40
0.5004639766923782
 40
0.628247580257338
 40
0.7518824419779022
 40
0.8133314421061418
 40
0.8755414302563888
 40
1.0
 40
1.0
 40
1.0
 40
1.0
 10
7.306612863355737
 20
7.377340047151114
 30
0.0
 10
7.310246314833436
 20
7.3794924585203
 30
0.0
 10
7.314807496467194
 20
7.382194445670998
 30
0.0
 10
7.318615597955382
 20
7.386052223438782
 30
0.0
 10
7.319393872281925
 20
7.387830128893743
 30
0.0
 10
7.319334885641978
 20
7.389228893630342
 30
0.0
 10
7.318716934280294
 20
7.390588484833287
 30
0.0
 10
7.317481293722881
 20
7.391367193286481
 30
0.0
 10
7.316657448195664
 20
7.391886385920877
 30
0.0
  0
ARC
  5
2DE
330
1F
100
AcDbEntity
  8
0
  6
Continuous
 62
     7
370
     0
100
AcDbCircle
 10
7.3090709717
 20
7.3667565302
 30
0.0
 40
0.0262500338109972
100
AcDbArc
 50
73.2014088053
 51
133.8139104283
  0
SPLINE
  5
2DF
330
1F
100
AcDbEntity
  8
0
  6
Continuous
 62
     7
370
     0
100
AcDbSpline
210
0.0
220
0.0
230
1.0
 70
     8
 71
     3
 72
    13
 73
     9
 74
     0
 42
0.00000001
 43
0.00000001
 40
0.0
 40
0.0
 40
0.0
 40
0.0
 40
0.5004231501092954
 40
0.6255784393530116
 40
0.7503815851609408
 40
0.8126552223361403
 40
0.8754890600875258
 40
0.9999999999999999
 40
0.9999999999999999
 40
0.9999999999999999
 40
0.9999999999999999
 10
7.290897590652318
 20
7.385698348962084
 30
0.0
 10
7.287180588346744
 20
7.383501773199258
 30
0.0
 10
7.282533967779959
 20
7.380755836211074
 30
0.0
 10
7.278537577751634
 20
7.376904006181142
 30
0.0
 10
7.277749332340111
 20
7.375121999201752
 30
0.0
 10
7.277890122327581
 20
7.373713040288799
 30
0.0
 10
7.278608492572924
 20
7.372361734225119
 30
0.0
 10
7.279895545010006
 20
7.371579081766151
 30
0.0
 10
7.280750931056289
 20
7.371058924254924
 30
0.0
  0
ARC
  5
2E0
330
1F
100
AcDbEntity
  8
0
  6
Continuous
 62
     7
370
     0
100
AcDbCircle
 10
7.2883731037
 20
7.3960579433
 30
0.0
 40
0.0261351959431407
100
AcDbArc
 50
253.0435954455
 51
314.2587821949
  0
ARC
  5
2E1
330
1F
100
AcDbEntity
  8
0
  6
Continuous
 62
     7
370
     0
100
AcDbCircle
 10
7.0707552033
 20
7.3695240206
 30
0.0
 40
0.0212192058633505
100
AcDbArc
 50
261.350602875
 51
283.7394828064
  0
SPLINE
  5
2E2
330
1F
100
AcDbEntity
  8
0
  6
Continuous
 62
     7
370
     0
100
AcDbSpline
210
0.0
220
0.0
230
1.0
 70
     8
 71
     3
 72
     9
 73
     5
 74
     0
 42
0.00000001
 43
0.00000001
 40
0.0
 40
0.0
 40
0.0
 40
0.0
 40
0.4990303792096863
 40
1.0
 40
1.0
 40
1.0
 40
1.0
 10
7.075794925715778
 20
7.348911987805394
 30
0.0
 10
7.076975789399799
 20
7.349237942803517
 30
0.0
 10
7.079342105626662
 20
7.349891119467112
 30
0.0
 10
7.08130431146375
 20
7.350835956096959
 30
0.0
 10
7.08228731697787
 20
7.351309290545122
 30
0.0
  0
ARC
  5
2E3
330
1F
100
AcDbEntity
  8
0
  6
Continuous
 62
     7
370
     0
100
AcDbCircle
 10
7.0138317635
 20
7.0287795273
 30
0.0
 40
0.3297144385311995
100
AcDbArc
 50
78.0170425402
 51
80.5972692644
  0
SPLINE
  5
2E4
330
1F
100
AcDbEntity
  8
0
  6
Continuous
 62
     7
370
     0
100
AcDbSpline
210
0.0
220
0.0
230
1.0
 70
     8
 71
     3
 72
    14
 73
    10
 74
     0
 42
0.00000001
 43
0.00000001
 40
0.0
 40
0.0
 40
0.0
 40
0.0
 40
0.2498680581560299
 40
0.3817391960284565
 40
0.4998759012706431
 40
0.6215720652118609
 40
0.7497806842473832
 40
0.8748255772342886
 40
1.0
 40
1.0
 40
1.0
 40
1.0
 10
7.067698194686521
 20
7.35406404671578
 30
0.0
 10
7.066870449786205
 20
7.353473334055761
 30
0.0
 10
7.065605851681527
 20
7.352570865058389
 30
0.0
 10
7.064571381159866
 20
7.351392845977418
 30
0.0
 10
7.064250794350729
 20
7.350568827524134
 30
0.0
 10
7.064472798275641
 20
7.349864756102297
 30
0.0
 10
7.065160024672521
 20
7.349287909156031
 30
0.0
 10
7.066204732420064
 20
7.348837871980281
 30
0.0
 10
7.067110817754107
 20
7.348643416734781
 30
0.0
 10
7.067564094945454
 20
7.348546138780694
 30
0.0
  0
SPLINE
  5
2E5
330
1F
100
AcDbEntity
  8
0
  6
Continuous
 62
     7
370
     0
100
AcDbSpline
210
0.0
220
0.0
230
1.0
 70
     8
 71
     3
 72
    13
 73
     9
 74
     0
 42
0.00000001
 43
0.00000001
 40
0.0
 40
0.0
 40
0.0
 40
0.0
 40
0.5004639766923232
 40
0.6282475802557483
 40
0.7518824419760957
 40
0.8133314421069597
 40
0.875541430256971
 40
1.0
 40
1.0
 40
1.0
 40
1.0
 10
7.25405503644718
 20
7.401152681636751
 30
0.0
 10
7.257689091490985
 20
7.403297681682635
 30
0.0
 10
7.262251030799534
 20
7.405990365174826
 30
0.0
 10
7.266079707432284
 20
7.409620279368359
 30
0.0
 10
7.266874882680237
 20
7.411215061966788
 30
0.0
 10
7.266834779865806
 20
7.412415292453542
 30
0.0
 10
7.266239925684797
 20
7.413536304373275
 30
0.0
 10
7.265025580435069
 20
7.41410566998861
 30
0.0
 10
7.264215933247232
 20
7.414485286303993
 30
0.0
  0
ARC
  5
2E6
330
1F
100
AcDbEntity
  8
0
  6
Continuous
 62
     7
370
     0
100
AcDbCircle
 10
7.2590774405
 20
7.3843020308
 30
0.0
 40
0.0306175280379326
100
AcDbArc
 50
80.3384146701
 51
131.9927055164
  0
SPLINE
  5
2E7
330
1F
100
AcDbEntity
  8
0
  6
Continuous
 62
     7
370
     0
100
AcDbSpline
210
0.0
220
0.0
230
1.0
 70
     8
 71
     3
 72
    13
 73
     9
 74
     0
 42
0.00000001
 43
0.00000001
 40
0.0
 40
0.0
 40
0.0
 40
0.0
 40
0.5004231501093978
 40
0.6255784393531417
 40
0.7503815851610872
 40
0.8126552223343629
 40
0.8754890600874987
 40
1.0
 40
1.0
 40
1.0
 40
1.0
 10
7.238593212372784
 20
7.407057896370074
 30
0.0
 10
7.234875284024625
 20
7.404868768644151
 30
0.0
 10
7.230227505813003
 20
7.40213214243885
 30
0.0
 10
7.226205198622553
 20
7.398503231584089
 30
0.0
 10
7.225395136158756
 20
7.396912001754455
 30
0.0
 10
7.225512196414446
 20
7.395716061558079
 30
0.0
 10
7.226202998479008
 20
7.394616311931641
 30
0.0
 10
7.227467548192119
 20
7.394048881438452
 30
0.0
 10
7.228307978735781
 20
7.393671762284545
 30
0.0
  0
ARC
  5
2E8
330
1F
100
AcDbEntity
  8
0
  6
Continuous
 62
     7
370
     0
100
AcDbCircle
 10
7.2335567125
 20
7.4236544563
 30
0.0
 40
0.030438645581364
100
AcDbArc
 50
260.070486819
 51
312.3324173441
  0
SPLINE
  5
2E9
330
1F
100
AcDbEntity
  8
0
  6
Continuous
 62
     7
370
     0
100
AcDbSpline
210
0.0
220
0.0
230
1.0
 70
     8
 71
     3
 72
    13
 73
     9
 74
     0
 42
0.00000001
 43
0.00000001
 40
0.0
 40
0.0
 40
0.0
 40
0.0
 40
0.2503907102767813
 40
0.4999495678155186
 40
0.6253606354950207
 40
0.7501944146347903
 40
0.8700210567427733
 40
1.0
 40
1.0
 40
1.0
 40
1.0
 10
7.025147644906112
 20
7.360469404956321
 30
0.0
 10
7.024032653330398
 20
7.359805709099817
 30
0.0
 10
7.021806374425
 20
7.358480522329694
 30
0.0
 10
7.019807185682612
 20
7.356862319722802
 30
0.0
 10
7.01915988774664
 20
7.355773487487543
 30
0.0
 10
7.019269523045697
 20
7.355133772398458
 30
0.0
 10
7.019990755262346
 20
7.354697367973321
 30
0.0
 10
7.020942216213181
 20
7.354623283018745
 30
0.0
 10
7.021437280760114
 20
7.354584735105202
 30
0.0
  0
ARC
  5
2EA
330
1F
100
AcDbEntity
  8
0
  6
Continuous
 62
     7
370
     0
100
AcDbCircle
 10
7.0187272364
 20
7.3873494894
 30
0.0
 40
0.0328766401142234
100
AcDbArc
 50
274.728296102
 51
304.9146534462
  0
SPLINE
  5
2EB
330
1F
100
AcDbEntity
  8
0
  6
Continuous
 62
     7
370
     0
100
AcDbSpline
210
0.0
220
0.0
230
1.0
 70
     8
 71
     3
 72
    13
 73
     9
 74
     0
 42
0.00000001
 43
0.00000001
 40
0.0
 40
0.0
 40
0.0
 40
0.0
 40
0.2504308113692567
 40
0.5001650640269847
 40
0.6247953729341271
 40
0.751476491945037
 40
0.8754581573910845
 40
1.0
 40
1.0
 40
1.0
 40
1.0
 10
7.037544365748479
 20
7.360390462962386
 30
0.0
 10
7.038635187140281
 20
7.36104029659673
 30
0.0
 10
7.040813795867738
 20
7.362338156391028
 30
0.0
 10
7.042927266400235
 20
7.36396670594485
 30
0.0
 10
7.043722478654115
 20
7.365114395430374
 30
0.0
 10
7.043790972913452
 20
7.365835242403494
 30
0.0
 10
7.043229388255424
 20
7.366352658218457
 30
0.0
 10
7.042298233944908
 20
7.366426954648068
 30
0.0
 10
7.041831607369044
 20
7.366464186595724
 30
0.0
  0
ARC
  5
2EC
330
1F
100
AcDbEntity
  8
0
  6
Continuous
 62
     7
370
     0
100
AcDbCircle
 10
7.0452433803
 20
7.3307551468
 30
0.0
 40
0.0358716561739702
100
AcDbArc
 50
95.4576825837
 51
124.0704662143
  0
ARC
  5
2ED
330
1F
100
AcDbEntity
  8
0
  6
Continuous
 62
     7
370
     0
100
AcDbCircle
 10
7.0076941134
 20
7.1393955653
 30
0.0
 40
0.213982907528177
100
AcDbArc
 50
104.6691023735
 51
105.5597866115
  0
ARC
  5
2EE
330
1F
100
AcDbEntity
  8
0
  6
Continuous
 62
     7
370
     0
100
AcDbCircle
 10
6.9663101268
 20
7.2904739175
 30
0.0
 40
0.0573442001539281
100
AcDbArc
 50
106.2177613319
 51
120.3622695154
  0
SPLINE
  5
2EF
330
1F
100
AcDbEntity
  8
0
  6
Continuous
 62
     7
370
     0
100
AcDbSpline
210
0.0
220
0.0
230
1.0
 70
     8
 71
     3
 72
    13
 73
     9
 74
     0
 42
0.00000001
 43
0.00000001
 40
0.0
 40
0.0
 40
0.0
 40
0.0
 40
0.248512609499512
 40
0.3782641238817999
 40
0.4992248968171528
 40
0.5972187856454861
 40
0.7114003712234817
 40
1.0
 40
1.0
 40
1.0
 40
1.0
 10
6.937324602192718
 20
7.339953172339373
 30
0.0
 10
6.936441469779611
 20
7.339422605252979
 30
0.0
 10
6.935097242984892
 20
7.338615022513016
 30
0.0
 10
6.934218764077072
 20
7.337897822589544
 30
0.0
 10
6.934017087730692
 20
7.337576887371688
 30
0.0
 10
6.934327597038258
 20
7.337506827172856
 30
0.0
 10
6.935254407454559
 20
7.337630832431363
 30
0.0
 10
6.936439826274745
 20
7.337951903445766
 30
0.0
 10
6.937289199133404
 20
7.338181956318802
 30
0.0
  0
ARC
  5
2F0
330
1F
100
AcDbEntity
  8
0
  6
Continuous
 62
     7
370
     0
100
AcDbCircle
 10
6.9951692043
 20
7.1323192423
 30
0.0
 40
0.2138446913918922
100
AcDbArc
 50
104.6688949305
 51
105.7037674065
  0
LINE
  5
2F1
330
1F
100
AcDbEntity
  8
0
  6
Continuous
 62
     7
370
     0
100
AcDbLine
 10
6.9410167163
 20
7.3391937455
 30
0.0
 11
6.953505875
 21
7.3464035833
 31
0.0
  0
SPLINE
  5
2F2
330
1F
100
AcDbEntity
  8
0
  6
Continuous
 62
     7
370
     0
100
AcDbSpline
210
0.0
220
0.0
230
1.0
 70
     8
 71
     3
 72
    13
 73
     9
 74
     0
 42
0.00000001
 43
0.00000001
 40
0.0
 40
0.0
 40
0.0
 40
0.0
 40
0.5004639766923097
 40
0.6282475802560794
 40
0.7518824419797379
 40
0.8133314421062813
 40
0.8755414302564657
 40
1.0
 40
1.0
 40
1.0
 40
1.0
 10
7.129260217707166
 20
7.424584349914696
 30
0.0
 10
7.132899039407756
 20
7.426709794053809
 30
0.0
 10
7.13746696244487
 20
7.429377928424226
 30
0.0
 10
7.141446556770004
 20
7.432408160881477
 30
0.0
 10
7.142363808121102
 20
7.433521293121806
 30
0.0
 10
7.14245726754606
 20
7.434199774479772
 30
0.0
 10
7.142023790262514
 20
7.434694113501071
 30
0.0
 10
7.140953270724092
 20
7.434714401806866
 30
0.0
 10
7.14023951725571
 20
7.434727928742258
 30
0.0
  0
ARC
  5
2F3
330
1F
100
AcDbEntity
  8
0
  6
Continuous
 62
     7
370
     0
100
AcDbCircle
 10
7.1509546997
 20
7.3758395774
 30
0.0
 40
0.0598552676350295
100
AcDbArc
 50
100.3125781377
 51
126.3325372625
  0
SPLINE
  5
2F4
330
1F
100
AcDbEntity
  8
0
  6
Continuous
 62
     7
370
     0
100
AcDbSpline
210
0.0
220
0.0
230
1.0
 70
     8
 71
     3
 72
    13
 73
     9
 74
     0
 42
0.00000001
 43
0.00000001
 40
0.0
 40
0.0
 40
0.0
 40
0.0
 40
0.5004231501093781
 40
0.6255784393531159
 40
0.7503815851610671
 40
0.8126552223394558
 40
0.8754890600875065
 40
1.0
 40
1.0
 40
1.0
 40
1.0
 10
7.115492204055663
 20
7.424058499637789
 30
0.0
 10
7.111768794441804
 20
7.421888776004023
 30
0.0
 10
7.107114164105855
 20
7.419176406833365
 30
0.0
 10
7.102931694468197
 20
7.416129659491651
 30
0.0
 10
7.101985348413661
 20
7.41503693553265
 30
0.0
 10
7.101951600991744
 20
7.414398110071976
 30
0.0
 10
7.102465295527153
 20
7.413956617953131
 30
0.0
 10
7.103580662412272
 20
7.41395321057817
 30
0.0
 10
7.104321944773848
 20
7.413950946007658
 30
0.0
  0
ARC
  5
2F5
330
1F
100
AcDbEntity
  8
0
  6
Continuous
 62
     7
370
     0
100
AcDbCircle
 10
7.0944090714
 20
7.4717596509
 30
0.0
 40
0.0586524630295158
100
AcDbArc
 50
279.7302837365
 51
306.4554440442
  0
SPLINE
  5
2F6
330
1F
100
AcDbEntity
  8
0
  6
Continuous
 62
     7
370
     0
100
AcDbSpline
210
0.0
220
0.0
230
1.0
 70
    24
 71
     1
 72
     4
 73
     2
 74
     0
 42
0.00000001
 43
0.00000001
 40
0.0
 40
0.0
 40
1.0
 40
1.0
 10
6.923854584547889
 20
7.337722949735109
 30
0.0
 10
6.930239471316432
 20
7.341192088161275
 30
0.0
  0
ARC
  5
2F7
330
1F
100
AcDbEntity
  8
0
  6
Continuous
 62
     7
370
     0
100
AcDbCircle
 10
6.8560325359
 20
7.478159188
 30
0.0
 40
0.1557775841186811
100
AcDbArc
 50
298.4482399659
 51
299.846944244
  0
SPLINE
  5
2F8
330
1F
100
AcDbEntity
  8
0
  6
Continuous
 62
     7
370
     0
100
AcDbSpline
210
0.0
220
0.0
230
1.0
 70
     8
 71
     3
 72
    13
 73
     9
 74
     0
 42
0.00000001
 43
0.00000001
 40
0.0
 40
0.0
 40
0.0
 40
0.0
 40
0.125091506958161
 40
0.2499455687838251
 40
0.3709820857137475
 40
0.5001127109821804
 40
0.7496528854789699
 40
1.0
 40
1.0
 40
1.0
 40
1.0
 10
6.933560668820625
 20
7.343044258004245
 30
0.0
 10
6.933832903086569
 20
7.343202433567003
 30
0.0
 10
6.934376854871134
 20
7.343518484448173
 30
0.0
 10
6.934884841170686
 20
7.343831118880098
 30
0.0
 10
6.935125267234441
 20
7.343998177500819
 30
0.0
 10
6.935103755564571
 20
7.344030470333984
 30
0.0
 10
6.934523539004572
 20
7.343756661188198
 30
0.0
 10
6.933740399897713
 20
7.343344641772628
 30
0.0
 10
6.933348198255507
 20
7.343138299514921
 30
0.0
  0
SPLINE
  5
2F9
330
1F
100
AcDbEntity
  8
0
  6
Continuous
 62
     7
370
     0
100
AcDbSpline
210
0.0
220
0.0
230
1.0
 70
     8
 71
     3
 72
    13
 73
     9
 74
     0
 42
0.00000001
 43
0.00000001
 40
0.0
 40
0.0
 40
0.0
 40
0.0
 40
0.5004639766922842
 40
0.6282475802606352
 40
0.7518824419743603
 40
0.8133314421055567
 40
0.875541430255897
 40
1.0
 40
1.0
 40
1.0
 40
1.0
 10
7.084016741932602
 20
7.419135039361571
 30
0.0
 10
7.087658695680888
 20
7.421252568922026
 30
0.0
 10
7.092230550472324
 20
7.423910767882277
 30
0.0
 10
7.096307843368404
 20
7.426698895243583
 30
0.0
 10
7.097303864452107
 20
7.42761768248613
 30
0.0
 10
7.097483112353951
 20
7.428085804960554
 30
0.0
 10
7.097153008451182
 20
7.428327601706974
 30
0.0
 10
7.096173909357752
 20
7.428126922708834
 30
0.0
 10
7.095521109153045
 20
7.427993122880046
 30
0.0
  0
ARC
  5
2FA
330
1F
100
AcDbEntity
  8
0
  6
Continuous
 62
     7
370
     0
100
AcDbCircle
 10
7.129903745
 20
7.3280473164
 30
0.0
 40
0.1056945120581532
100
AcDbArc
 50
108.9838723708
 51
123.658973288
  0
SPLINE
  5
2FB
330
1F
100
AcDbEntity
  8
0
  6
Continuous
 62
     7
370
     0
100
AcDbSpline
210
0.0
220
0.0
230
1.0
 70
     8
 71
     3
 72
    13
 73
     9
 74
     0
 42
0.00000001
 43
0.00000001
 40
0.0
 40
0.0
 40
0.0
 40
0.0
 40
0.5004231501093749
 40
0.6255784393531214
 40
0.750381585161061
 40
0.8126552223394785
 40
0.8754890600875023
 40
0.9999999999999999
 40
0.9999999999999999
 40
0.9999999999999999
 40
0.9999999999999999
 10
7.071322713495321
 20
7.416022270960245
 30
0.0
 10
7.067595934273541
 20
7.413860306214908
 30
0.0
 10
7.062937091594373
 20
7.411157636422297
 30
0.0
 10
7.058655020318192
 20
7.408344209599698
 30
0.0
 10
7.057623686299135
 20
7.40745138595687
 30
0.0
 10
7.057495481111579
 20
7.407036150826747
 30
0.0
 10
7.057897945220149
 20
7.406858976586518
 30
0.0
 10
7.058918900721292
 20
7.407082370370311
 30
0.0
 10
7.059597436470426
 20
7.407230839787703
 30
0.0
  0
ARC
  5
2FC
330
1F
100
AcDbEntity
  8
0
  6
Continuous
 62
     7
370
     0
100
AcDbCircle
 10
7.027887448
 20
7.5032761145
 30
0.0
 40
0.1011445409696672
100
AcDbArc
 50
288.2709847742
 51
303.7066791881
  0
ARC
  5
2FD
330
1F
100
AcDbEntity
  8
0
  6
Continuous
 62
     7
370
     0
100
AcDbCircle
 10
7.7502483944
 20
7.1220673153
 30
0.0
 40
0.9050907144832349
100
AcDbArc
 50
2.5519148536
 51
57.4427086137
  0
SPLINE
  5
2FE
330
1F
100
AcDbEntity
  8
0
  6
Continuous
 62
     7
370
     0
100
AcDbSpline
210
0.0
220
0.0
230
1.0
 70
     8
 71
     3
 72
    13
 73
     9
 74
     0
 42
0.00000001
 43
0.00000001
 40
0.0
 40
0.0
 40
0.0
 40
0.0
 40
0.5004639766924572
 40
0.6282475802559034
 40
0.7518824419753668
 40
0.8133314421043242
 40
0.8755414302550685
 40
1.0
 40
1.0
 40
1.0
 40
1.0
 10
8.085484336183322
 20
7.876586628480136
 30
0.0
 10
8.089118305474445
 20
7.87873231146763
 30
0.0
 10
8.09368013713506
 20
7.881425852277098
 30
0.0
 10
8.097506000407508
 20
7.885076748819333
 30
0.0
 10
8.098298882649932
 20
7.886688391206977
 30
0.0
 10
8.098256244732605
 20
7.887906896239413
 30
0.0
 10
8.097658308669782
 20
7.889049865754044
 30
0.0
 10
8.096441169071742
 20
7.889638490592848
 30
0.0
 10
8.095629658792452
 20
7.890030947717817
 30
0.0
  0
ARC
  5
2FF
330
1F
100
AcDbEntity
  8
0
  6
Continuous
 62
     7
370
     0
100
AcDbCircle
 10
8.0902256716
 20
7.8603740142
 30
0.0
 40
0.0301452613664749
100
AcDbArc
 50
79.6730548834
 51
132.166792651
  0
SPLINE
  5
300
330
1F
100
AcDbEntity
  8
0
  6
Continuous
 62
     7
370
     0
100
AcDbSpline
210
0.0
220
0.0
230
1.0
 70
     8
 71
     3
 72
    13
 73
     9
 74
     0
 42
0.00000001
 43
0.00000001
 40
0.0
 40
0.0
 40
0.0
 40
0.0
 40
0.5004231501094257
 40
0.6255784393531709
 40
0.7503815851611286
 40
0.8126552223377889
 40
0.8754890600874942
 40
1.0
 40
1.0
 40
1.0
 40
1.0
 10
8.069989425245721
 20
7.882717494610839
 30
0.0
 10
8.066271611071928
 20
7.880527682921302
 30
0.0
 10
8.06162397558956
 20
7.877790201693827
 30
0.0
 10
8.057604927961846
 20
7.874140806563663
 30
0.0
 10
8.056797623247439
 20
7.872532043338721
 30
0.0
 10
8.056917707481007
 20
7.871316520971285
 30
0.0
 10
8.057612040765507
 20
7.870193643157549
 30
0.0
 10
8.058879516701806
 20
7.869606417073443
 30
0.0
 10
8.059721892038416
 20
7.869216141600673
 30
0.0
  0
ARC
  5
301
330
1F
100
AcDbEntity
  8
0
  6
Continuous
 62
     7
370
     0
100
AcDbCircle
 10
8.0652277896
 20
7.8986807386
 30
0.0
 40
0.0299746122863316
100
AcDbArc
 50
259.415504197
 51
312.5155371187
  0
ARC
  5
302
330
1F
100
AcDbEntity
  8
0
  6
Continuous
 62
     7
370
     0
100
AcDbCircle
 10
7.2711386117
 20
6.5849344056
 30
0.0
 40
0.2845846775584336
100
AcDbArc
 50
234.4275504974
 51
280.2473410878
  0
SPLINE
  5
303
330
1F
100
AcDbEntity
  8
0
  6
Continuous
 62
     7
370
     0
100
AcDbSpline
210
0.0
220
0.0
230
1.0
 70
    24
 71
     1
 72
     4
 73
     2
 74
     0
 42
0.00000001
 43
0.00000001
 40
0.0
 40
0.0
 40
1.0
 40
1.0
 10
7.107782277411979
 20
6.35018611835473
 30
0.0
 10
7.105586619101084
 20
6.353458755759094
 30
0.0
  0
LWPOLYLINE
  5
304
330
1F
100
AcDbEntity
  8
0
  6
Continuous
 62
     7
370
     0
100
AcDbPolyline
 90
       11
 70
   128
 43
0.0
 10
7.1071432646
 20
6.3934994029
 10
7.1380316208
 20
6.3764297301
 10
7.1687104005
 20
6.3629366201
 10
7.198890382
 20
6.3531472779
 10
7.2282870463
 20
6.3471539918
 10
7.2566232587
 20
6.3450132629
 10
7.2836318821
 20
6.3467452728
 10
7.3090582948
 20
6.3523336931
 10
7.3326627917
 20
6.3617258394
 10
7.3542228433
 20
6.3748331681
 10
7.3587248918
 20
6.3782460951
  0
LINE
  5
305
330
1F
100
AcDbEntity
  8
0
  6
Continuous
 62
     7
370
     0
100
AcDbLine
 10
7.1055866191
 20
6.3534587558
 30
0.0
 11
7.1071432646
 21
6.3934994029
 31
0.0
  0
LINE
  5
306
330
1F
100
AcDbEntity
  8
0
  6
Continuous
 62
     7
370
     0
100
AcDbLine
 10
7.1071432646
 20
6.3934994029
 30
0.0
 11
7.1248209342
 21
6.4037045043
 31
0.0
  0
ARC
  5
307
330
1F
100
AcDbEntity
  8
0
  6
Continuous
 62
     7
370
     0
100
AcDbCircle
 10
7.3600829976
 20
6.7900950082
 30
0.0
 40
0.4523780057341881
100
AcDbArc
 50
237.0791381411
 51
238.6639672459
  0
LINE
  5
308
330
1F
100
AcDbEntity
  8
0
  6
Continuous
 62
     7
370
     0
100
AcDbLine
 10
7.0965468724
 20
6.4001538408
 30
0.0
 11
7.1142245419
 21
6.4103589422
 31
0.0
  0
LWPOLYLINE
  5
309
330
1F
100
AcDbEntity
  8
0
  6
Continuous
 62
     7
370
     0
100
AcDbPolyline
 90
       26
 70
   128
 43
0.0
 10
6.910321656
 20
7.1549874433
 10
6.8989393723
 20
7.1498915164
 10
6.8773793208
 20
7.1367841877
 10
6.85806697
 20
7.1200852448
 10
6.8411843857
 20
7.0999521156
 10
6.8268907268
 20
7.0765746035
 10
6.8153207457
 20
7.0501730979
 10
6.8065835174
 20
7.0209964969
 10
6.8007614114
 20
6.9893198603
 10
6.797909315
 20
6.9554418169
 10
6.7980541161
 20
6.9196817491
 10
6.8011944497
 20
6.8823767818
 10
6.8073007105
 20
6.8438786046
 10
6.8163153323
 20
6.8045501556
 10
6.8281533305
 20
6.7647622005
 10
6.8427031033
 20
6.7248898368
 10
6.8598274841
 20
6.6853089579
 10
6.8793650342
 20
6.6463927091
 10
6.9011315649
 20
6.60850797
 10
6.9249218743
 20
6.5720118957
 10
6.9505116811
 20
6.53724855
 10
6.9776597397
 20
6.5045456613
 10
7.006110114
 20
6.4742115332
 10
7.0355945905
 20
6.4465321383
 10
7.0658352069
 20
6.4217684215
 10
7.0965468724
 20
6.4001538408
  0
LWPOLYLINE
  5
30A
330
1F
100
AcDbEntity
  8
0
  6
Continuous
 62
     7
370
     0
100
AcDbPolyline
 90
       32
 70
   128
 43
0.0
 10
6.9154823277
 20
7.1535968799
 10
6.9124882911
 20
7.1505143992
 10
6.896212057
 20
7.1304239632
 10
6.8824367486
 20
7.1072366939
 10
6.8712871172
 20
7.0811625787
 10
6.8628641356
 20
7.052437749
 10
6.8572440837
 20
7.0213223412
 10
6.8544778575
 20
6.9880981413
 10
6.8545905083
 20
6.9530660328
 10
6.857581016
 20
6.9165432719
 10
6.8634222981
 20
6.8788606143
 10
6.872061455
 20
6.84035932
 10
6.8834202492
 20
6.8013880628
 10
6.8973958137
 20
6.7622997723
 10
6.9138615836
 20
6.7234484383
 10
6.9326684424
 20
6.6851859043
 10
6.9536460721
 20
6.6478586817
 10
6.9766044963
 20
6.6118048119
 10
7.0013357998
 20
6.577350804
 10
7.027616012
 20
6.544808679
 10
7.0552071354
 20
6.5144731434
 10
7.0838593004
 20
6.4866189206
 10
7.1133130287
 20
6.4614982625
 10
7.1433015826
 20
6.4393386659
 10
7.1735533812
 20
6.4203408115
 10
7.2037944595
 20
6.4046767468
 10
7.2337509497
 20
6.3924883279
 10
7.263151561
 20
6.3838859351
 10
7.2917300371
 20
6.378947473
 10
7.3192275668
 20
6.377717665
 10
7.3453951283
 20
6.3802076486
 10
7.360101449
 20
6.3834105205
  0
LWPOLYLINE
  5
30B
330
1F
100
AcDbEntity
  8
0
  6
Continuous
 62
     7
370
     0
100
AcDbPolyline
 90
       25
 70
   128
 43
0.0
 10
6.8283134829
 20
7.1596659444
 10
6.8225025968
 20
7.1533659098
 10
6.8056667074
 20
7.1311770101
 10
6.7914265335
 20
7.1058464096
 10
6.7799012605
 20
7.0775861165
 10
6.7711873507
 20
7.0466326596
 10
6.7653577365
 20
7.0132451082
 10
6.7624612097
 20
6.9777029046
 10
6.7625220133
 20
6.9403035244
 10
6.7655396383
 20
6.9013599873
 10
6.7714888284
 20
6.861198237
 10
6.7803197907
 20
6.8201544132
 10
6.7919586134
 20
6.7785720382
 10
6.8063078836
 20
6.7367991419
 10
6.8232475028
 20
6.6951853487
 10
6.8426356926
 20
6.6540789514
 10
6.8643101804
 20
6.6138239962
 10
6.8880895586
 20
6.5747574027
 10
6.9137748021
 20
6.5372061447
 10
6.9411509345
 20
6.501484513
 10
6.9699888271
 20
6.4678914849
 10
7.0000471169
 20
6.4367082224
 10
7.0310742267
 20
6.4081957184
 10
7.0628104704
 20
6.3825926125
 10
7.0949902269
 20
6.3601131937
  0
SPLINE
  5
30C
330
1F
100
AcDbEntity
  8
0
  6
Continuous
 62
     7
370
     0
100
AcDbSpline
210
0.0
220
0.0
230
1.0
 70
    24
 71
     1
 72
     4
 73
     2
 74
     0
 42
0.00000001
 43
0.00000001
 40
0.0
 40
0.0
 40
1.0
 40
1.0
 10
7.094990226865519
 20
6.360113193725068
 30
0.0
 10
7.097185880662699
 20
6.356840550912002
 30
0.0
  0
LINE
  5
30D
330
1F
100
AcDbEntity
  8
0
  6
Continuous
 62
     7
370
     0
100
AcDbLine
 10
7.0949902269
 20
6.3601131937
 30
0.0
 11
7.0965468724
 21
6.4001538408
 31
0.0
  0
LINE
  5
30E
330
1F
100
AcDbEntity
  8
0
  6
Continuous
 62
     7
370
     0
100
AcDbLine
 10
7.1137166258
 20
6.3972941235
 30
0.0
 11
7.1142245419
 21
6.4103589422
 31
0.0
  0
SPLINE
  5
30F
330
1F
100
AcDbEntity
  8
0
  6
Continuous
 62
     7
370
     0
100
AcDbSpline
210
0.0
220
0.0
230
1.0
 70
     8
 71
     3
 72
    11
 73
     7
 74
     0
 42
0.00000001
 43
0.00000001
 40
0.0
 40
0.0
 40
0.0
 40
0.0
 40
0.0183565823577558
 40
0.2593787013222308
 40
0.5095924850708143
 40
1.0
 40
1.0
 40
1.0
 40
1.0
 10
7.367080085040758
 20
6.208068992795106
 30
0.0
 10
7.367026286108436
 20
6.208037404808111
 30
0.0
 10
7.366266106630237
 20
6.207591066220409
 30
0.0
 10
7.366360376535402
 20
6.207682597173448
 30
0.0
 10
7.367914995184016
 20
6.208754705760384
 30
0.0
 10
7.371534634973318
 20
6.211253036581885
 30
0.0
 10
7.37393140449261
 20
6.21290732361337
 30
0.0
  0
ARC
  5
310
330
1F
100
AcDbEntity
  8
0
  6
Continuous
 62
     7
370
     0
100
AcDbCircle
 10
7.2312171837
 20
6.5463126748
 30
0.0
 40
0.3608739694172782
100
AcDbArc
 50
299.4849787939
 51
303.9174886043
  0
SPLINE
  5
311
330
1F
100
AcDbEntity
  8
0
  6
Continuous
 62
     7
370
     0
100
AcDbSpline
210
0.0
220
0.0
230
1.0
 70
     8
 71
     3
 72
    12
 73
     8
 74
     0
 42
0.00000001
 43
0.00000001
 40
0.0
 40
0.0
 40
0.0
 40
0.0
 40
0.1501512390019339
 40
0.3062857532582274
 40
0.4655758315772372
 40
0.6529556413541341
 40
1.0
 40
1.0
 40
1.0
 40
1.0
 10
6.907219951619175
 20
7.328198872016677
 30
0.0
 10
6.906982118797476
 20
7.328061579414305
 30
0.0
 10
6.906496975914687
 20
7.327781523329428
 30
0.0
 10
6.906049457016832
 20
7.327522420104356
 30
0.0
 10
6.906043708452346
 20
7.327515571526802
 30
0.0
 10
6.906525472143024
 20
7.327783691972894
 30
0.0
 10
6.90725552589882
 20
7.328188108310388
 30
0.0
 10
6.907729608196043
 20
7.328450728185693
 30
0.0
  0
SPLINE
  5
312
330
1F
100
AcDbEntity
  8
0
  6
Continuous
 62
     7
370
     0
100
AcDbSpline
210
0.0
220
0.0
230
1.0
 70
    24
 71
     1
 72
     4
 73
     2
 74
     0
 42
0.00000001
 43
0.00000001
 40
0.0
 40
0.0
 40
1.0
 40
1.0
 10
6.898479241782213
 20
7.323054297539763
 30
0.0
 10
6.89377611690391
 20
7.320403348558687
 30
0.0
  0
ARC
  5
313
330
1F
100
AcDbEntity
  8
0
  6
Continuous
 62
     7
370
     0
100
AcDbCircle
 10
7.1540246525
 20
7.2396340049
 30
0.0
 40
0.2000938580277331
100
AcDbArc
 50
117.9975812071
 51
119.9971539438
  0
SPLINE
  5
314
330
1F
100
AcDbEntity
  8
0
  6
Continuous
 62
     7
370
     0
100
AcDbSpline
210
0.0
220
0.0
230
1.0
 70
     8
 71
     3
 72
     9
 73
     5
 74
     0
 42
0.00000001
 43
0.00000001
 40
0.0
 40
0.0
 40
0.0
 40
0.0
 40
0.7845519713638596
 40
1.0
 40
1.0
 40
1.0
 40
1.0
 10
7.017457520796924
 20
7.391729606894257
 30
0.0
 10
7.016051574012494
 20
7.390965868087021
 30
0.0
 10
7.014259536217996
 20
7.389992396812826
 30
0.0
 10
7.013907964344296
 20
7.389785738392471
 30
0.0
 10
7.013832218877183
 20
7.389741214243205
 30
0.0
  0
SPLINE
  5
315
330
1F
100
AcDbEntity
  8
0
  6
Continuous
 62
     7
370
     0
100
AcDbSpline
210
0.0
220
0.0
230
1.0
 70
     8
 71
     3
 72
    10
 73
     6
 74
     0
 42
0.00000001
 43
0.00000001
 40
0.0
 40
0.0
 40
0.0
 40
0.0
 40
0.3663477244771824
 40
0.6831580478721251
 40
1.0
 40
1.0
 40
1.0
 40
1.0
 10
7.490376635948803
 20
6.279307875214873
 30
0.0
 10
7.49116579687646
 20
6.279755700397224
 30
0.0
 10
7.492637408688881
 20
6.280590796009728
 30
0.0
 10
7.491529562941416
 20
6.280168013682918
 30
0.0
 10
7.489366397039279
 20
6.279034631892026
 30
0.0
 10
7.488284760101031
 20
6.278467912710224
 30
0.0
  0
SPLINE
  5
316
330
1F
100
AcDbEntity
  8
0
  6
Continuous
 62
     7
370
     0
100
AcDbSpline
210
0.0
220
0.0
230
1.0
 70
    24
 71
     1
 72
     4
 73
     2
 74
     0
 42
0.00000001
 43
0.00000001
 40
0.0
 40
0.0
 40
1.0
 40
1.0
 10
7.505753644590945
 20
6.288399946478782
 30
0.0
 10
7.503327819129789
 20
6.286834359777834
 30
0.0
  0
SPLINE
  5
317
330
1F
100
AcDbEntity
  8
0
  6
Continuous
 62
     7
370
     0
100
AcDbSpline
210
0.0
220
0.0
230
1.0
 70
     8
 71
     3
 72
     9
 73
     5
 74
     0
 42
0.00000001
 43
0.00000001
 40
0.0
 40
0.0
 40
0.0
 40
0.0
 40
0.4791994081043274
 40
1.0
 40
1.0
 40
1.0
 40
1.0
 10
6.917688848713884
 20
7.334240920130749
 30
0.0
 10
6.918695822024359
 20
7.334819950801498
 30
0.0
 10
6.92079718795563
 20
7.336028280071014
 30
0.0
 10
6.922807574201237
 20
7.337142607401714
 30
0.0
 10
6.923854584547889
 20
7.337722949735109
 30
0.0
  0
ARC
  5
318
330
1F
100
AcDbEntity
  8
0
  6
Continuous
 62
     7
370
     0
100
AcDbCircle
 10
7.1874866084
 20
6.8794868271
 30
0.0
 40
0.528733410509717
100
AcDbArc
 50
118.7281963538
 51
120.2469363645
  0
LINE
  5
319
330
1F
100
AcDbEntity
  8
0
  6
Continuous
 62
     7
370
     0
100
AcDbLine
 10
6.8780405496
 20
4.3890014837
 30
0.0
 11
5.9780834226
 21
4.3890014837
 31
0.0
  0
LINE
  5
31A
330
1F
100
AcDbEntity
  8
0
  6
Continuous
 62
     7
370
     0
100
AcDbLine
 10
5.9780834226
 20
4.3890014837
 30
0.0
 11
6.8928483747
 21
4.6936924461
 31
0.0
  0
LINE
  5
31B
330
1F
100
AcDbEntity
  8
0
  6
Continuous
 62
     7
370
     0
100
AcDbLine
 10
5.9780834226
 20
4.3890014837
 30
0.0
 11
6.8912455629
 21
4.1012358922
 31
0.0
  0
LINE
  5
31C
330
1F
100
AcDbEntity
  8
0
  6
Continuous
 62
     7
370
     0
100
AcDbLine
 10
8.2166162106
 20
4.3890014837
 30
0.0
 11
9.1158205092
 21
4.3890014837
 31
0.0
  0
LINE
  5
31D
330
1F
100
AcDbEntity
  8
0
  6
Continuous
 62
     7
370
     0
100
AcDbLine
 10
9.1158205092
 20
4.3890014837
 30
0.0
 11
8.201806561
 21
4.6936924461
 31
0.0
  0
LINE
  5
31E
330
1F
100
AcDbEntity
  8
0
  6
Continuous
 62
     7
370
     0
100
AcDbLine
 10
9.1158205092
 20
4.3890014837
 30
0.0
 11
8.2034095711
 21
4.1012358922
 31
0.0
  0
LINE
  5
31F
330
1F
100
AcDbEntity
  8
0
  6
Continuous
 62
     7
370
     0
100
AcDbLine
 10
6.9180777173
 20
3.8890014837
 30
0.0
 11
7.186682445
 21
3.8890014837
 31
0.0
  0
LINE
  5
320
330
1F
100
AcDbEntity
  8
0
  6
Continuous
 62
     7
370
     0
100
AcDbLine
 10
7.186682445
 20
4.8890014837
 30
0.0
 11
6.9180777173
 21
4.8890014837
 31
0.0
  0
ARC
  5
321
330
1F
100
AcDbEntity
  8
0
  6
Continuous
 62
     7
370
     0
100
AcDbCircle
 10
10.0201580981
 20
4.3890014837
 30
0.0
 40
3.142117548509807
100
AcDbArc
 50
170.8436934778
 51
189.1563065222
  0
ARC
  5
322
330
1F
100
AcDbEntity
  8
0
  6
Continuous
 62
     7
370
     0
100
AcDbCircle
 10
6.6067807071
 20
4.3890014837
 30
0.0
 40
0.8224409448818895
100
AcDbArc
 50
322.5588390421
 51
0.0
  0
ARC
  5
323
330
1F
100
AcDbEntity
  8
0
  6
Continuous
 62
     7
370
     0
100
AcDbCircle
 10
6.6067807071
 20
4.3890014837
 30
0.0
 40
0.8224409448818895
100
AcDbArc
 50
0.0
 51
37.4411609579
  0
LINE
  5
324
330
1F
100
AcDbEntity
  8
0
  6
Continuous
 62
     7
370
     0
100
AcDbLine
 10
7.186682445
 20
3.8890014837
 30
0.0
 11
7.2597807896
 21
3.8890014837
 31
0.0
  0
LINE
  5
325
330
1F
100
AcDbEntity
  8
0
  6
Continuous
 62
     7
370
     0
100
AcDbLine
 10
7.2597807896
 20
4.8890014837
 30
0.0
 11
7.186682445
 21
4.8890014837
 31
0.0
  0
ARC
  5
326
330
1F
100
AcDbEntity
  8
0
  6
Continuous
 62
     7
370
     0
100
AcDbCircle
 10
5.0748839271
 20
4.3890014837
 30
0.0
 40
3.141732283464567
100
AcDbArc
 50
350.8425609973
 51
0.0
  0
ARC
  5
327
330
1F
100
AcDbEntity
  8
0
  6
Continuous
 62
     7
370
     0
100
AcDbCircle
 10
5.0748839271
 20
4.3890014837
 30
0.0
 40
3.141732283464567
100
AcDbArc
 50
0.0
 51
9.1574390027
  0
LINE
  5
328
330
1F
100
AcDbEntity
  8
0
  6
Continuous
 62
     7
370
     0
100
AcDbLine
 10
7.9079743152
 20
3.8890014837
 30
0.0
 11
8.1765740698
 21
3.8890014837
 31
0.0
  0
LINE
  5
329
330
1F
100
AcDbEntity
  8
0
  6
Continuous
 62
     7
370
     0
100
AcDbLine
 10
8.1765740698
 20
4.8890014837
 30
0.0
 11
7.9079743152
 21
4.8890014837
 31
0.0
  0
LINE
  5
32A
330
1F
100
AcDbEntity
  8
0
  6
Continuous
 62
     7
370
     0
100
AcDbLine
 10
7.8348759706
 20
3.8890014837
 30
0.0
 11
7.9079743152
 21
3.8890014837
 31
0.0
  0
LINE
  5
32B
330
1F
100
AcDbEntity
  8
0
  6
Continuous
 62
     7
370
     0
100
AcDbLine
 10
7.9079743152
 20
4.8890014837
 30
0.0
 11
7.8348759706
 21
4.8890014837
 31
0.0
  0
ARC
  5
32C
330
1F
100
AcDbEntity
  8
0
  6
Continuous
 62
     7
370
     0
100
AcDbCircle
 10
8.4878760531
 20
4.3890014837
 30
0.0
 40
0.8224409448818905
100
AcDbArc
 50
142.5588390421
 51
217.4411609579
  0
LINE
  5
32D
330
1F
100
AcDbEntity
  8
0
  6
Continuous
 62
     7
370
     0
100
AcDbLine
 10
6.9180777173
 20
4.3890014837
 30
0.0
 11
6.9180777173
 21
4.8890014837
 31
0.0
  0
LINE
  5
32E
330
1F
100
AcDbEntity
  8
0
  6
Continuous
 62
     7
370
     0
100
AcDbLine
 10
6.9180777173
 20
3.8890014837
 30
0.0
 11
6.9180777173
 21
4.3890014837
 31
0.0
  0
LINE
  5
32F
330
1F
100
AcDbEntity
  8
0
  6
Continuous
 62
     7
370
     0
100
AcDbLine
 10
7.186682445
 20
4.3890014837
 30
0.0
 11
7.186682445
 21
4.8890014837
 31
0.0
  0
LINE
  5
330
330
1F
100
AcDbEntity
  8
0
  6
Continuous
 62
     7
370
     0
100
AcDbLine
 10
7.186682445
 20
3.8890014837
 30
0.0
 11
7.186682445
 21
4.3890014837
 31
0.0
  0
LINE
  5
331
330
1F
100
AcDbEntity
  8
0
  6
Continuous
 62
     7
370
     0
100
AcDbLine
 10
7.2597807896
 20
4.3890014837
 30
0.0
 11
7.2597807896
 21
4.8890014837
 31
0.0
  0
LINE
  5
332
330
1F
100
AcDbEntity
  8
0
  6
Continuous
 62
     7
370
     0
100
AcDbLine
 10
7.2597807896
 20
3.8890014837
 30
0.0
 11
7.2597807896
 21
4.3890014837
 31
0.0
  0
LINE
  5
333
330
1F
100
AcDbEntity
  8
0
  6
Continuous
 62
     7
370
     0
100
AcDbLine
 10
7.186682445
 20
4.3890014837
 30
0.0
 11
7.186682445
 21
4.8890014837
 31
0.0
  0
LINE
  5
334
330
1F
100
AcDbEntity
  8
0
  6
Continuous
 62
     7
370
     0
100
AcDbLine
 10
7.186682445
 20
3.8890014837
 30
0.0
 11
7.186682445
 21
4.3890014837
 31
0.0
  0
LINE
  5
335
330
1F
100
AcDbEntity
  8
0
  6
Continuous
 62
     7
370
     0
100
AcDbLine
 10
8.1765740698
 20
4.3890014837
 30
0.0
 11
8.1765740698
 21
4.8890014837
 31
0.0
  0
LINE
  5
336
330
1F
100
AcDbEntity
  8
0
  6
Continuous
 62
     7
370
     0
100
AcDbLine
 10
8.1765740698
 20
3.8890014837
 30
0.0
 11
8.1765740698
 21
4.3890014837
 31
0.0
  0
LINE
  5
337
330
1F
100
AcDbEntity
  8
0
  6
Continuous
 62
     7
370
     0
100
AcDbLine
 10
7.9079743152
 20
4.3890014837
 30
0.0
 11
7.9079743152
 21
4.8890014837
 31
0.0
  0
LINE
  5
338
330
1F
100
AcDbEntity
  8
0
  6
Continuous
 62
     7
370
     0
100
AcDbLine
 10
7.9079743152
 20
3.8890014837
 30
0.0
 11
7.9079743152
 21
4.3890014837
 31
0.0
  0
LINE
  5
339
330
1F
100
AcDbEntity
  8
0
  6
Continuous
 62
     7
370
     0
100
AcDbLine
 10
7.8348759706
 20
4.3890014837
 30
0.0
 11
7.8348759706
 21
4.8890014837
 31
0.0
  0
LINE
  5
33A
330
1F
100
AcDbEntity
  8
0
  6
Continuous
 62
     7
370
     0
100
AcDbLine
 10
7.8348759706
 20
3.8890014837
 30
0.0
 11
7.8348759706
 21
4.3890014837
 31
0.0
  0
LINE
  5
33B
330
1F
100
AcDbEntity
  8
0
  6
Continuous
 62
     7
370
     0
100
AcDbLine
 10
7.9079743152
 20
4.3890014837
 30
0.0
 11
7.9079743152
 21
4.8890014837
 31
0.0
  0
LINE
  5
33C
330
1F
100
AcDbEntity
  8
0
  6
Continuous
 62
     7
370
     0
100
AcDbLine
 10
7.9079743152
 20
3.8890014837
 30
0.0
 11
7.9079743152
 21
4.3890014837
 31
0.0
  0
LINE
  5
33D
330
1F
100
AcDbEntity
  8
0
  6
Continuous
 62
     7
370
     0
100
AcDbLine
 10
8.2013454276
 20
3.8715014837
 30
0.0
 11
8.2540249196
 21
3.8715014837
 31
0.0
  0
LINE
  5
33E
330
1F
100
AcDbEntity
  8
0
  6
Continuous
 62
     7
370
     0
100
AcDbLine
 10
8.2540249196
 20
4.9065014837
 30
0.0
 11
8.2013454276
 21
4.9065014837
 31
0.0
  0
LINE
  5
33F
330
1F
100
AcDbEntity
  8
0
  6
Continuous
 62
     7
370
     0
100
AcDbLine
 10
8.1840249196
 20
4.8965014837
 30
0.0
 11
8.2013454276
 21
4.9065014837
 31
0.0
  0
LINE
  5
340
330
1F
100
AcDbEntity
  8
0
  6
Continuous
 62
     7
370
     0
100
AcDbLine
 10
8.2013454276
 20
3.8715014837
 30
0.0
 11
8.1840249196
 21
3.8815014837
 31
0.0
  0
LINE
  5
341
330
1F
100
AcDbEntity
  8
0
  6
Continuous
 62
     7
370
     0
100
AcDbLine
 10
8.2640249196
 20
4.8389766144
 30
0.0
 11
8.2390249196
 21
4.8389766144
 31
0.0
  0
LINE
  5
342
330
1F
100
AcDbEntity
  8
0
  6
Continuous
 62
     7
370
     0
100
AcDbLine
 10
8.2390249196
 20
4.8385689524
 30
0.0
 11
8.2390249196
 21
4.8389766144
 31
0.0
  0
LINE
  5
343
330
1F
100
AcDbEntity
  8
0
  6
Continuous
 62
     7
370
     0
100
AcDbLine
 10
8.2640249196
 20
4.8385689524
 30
0.0
 11
8.2390249196
 21
4.8385689524
 31
0.0
  0
LINE
  5
344
330
1F
100
AcDbEntity
  8
0
  6
Continuous
 62
     7
370
     0
100
AcDbLine
 10
8.2640249196
 20
3.9390014837
 30
0.0
 11
8.2640249196
 21
4.8385689524
 31
0.0
  0
LINE
  5
345
330
1F
100
AcDbEntity
  8
0
  6
Continuous
 62
     7
370
     0
100
AcDbLine
 10
8.1842217571
 20
3.9390014837
 30
0.0
 11
8.2640249196
 21
3.9390014837
 31
0.0
  0
LINE
  5
346
330
1F
100
AcDbEntity
  8
0
  6
Continuous
 62
     7
370
     0
100
AcDbLine
 10
8.2640249196
 20
4.8390014837
 30
0.0
 11
8.1842217571
 21
4.8390014837
 31
0.0
  0
LINE
  5
347
330
1F
100
AcDbEntity
  8
0
  6
Continuous
 62
     7
370
     0
100
AcDbLine
 10
8.2640249196
 20
4.8389766144
 30
0.0
 11
8.2640249196
 21
4.8390014837
 31
0.0
  0
LINE
  5
348
330
1F
100
AcDbEntity
  8
0
  6
Continuous
 62
     7
370
     0
100
AcDbLine
 10
8.2640249196
 20
3.8888219918
 30
0.0
 11
8.2540249196
 21
3.8715014837
 31
0.0
  0
LINE
  5
349
330
1F
100
AcDbEntity
  8
0
  6
Continuous
 62
     7
370
     0
100
AcDbLine
 10
8.2540249196
 20
4.9065014837
 30
0.0
 11
8.2640249196
 21
4.8891809756
 31
0.0
  0
LINE
  5
34A
330
1F
100
AcDbEntity
  8
0
  6
Continuous
 62
     7
370
     0
100
AcDbLine
 10
8.2640249196
 20
4.8891809756
 30
0.0
 11
8.2640249196
 21
4.8390014837
 31
0.0
  0
LINE
  5
34B
330
1F
100
AcDbEntity
  8
0
  6
Continuous
 62
     7
370
     0
100
AcDbLine
 10
8.1840249196
 20
4.8965014837
 30
0.0
 11
8.1840249196
 21
4.8403594681
 31
0.0
  0
LINE
  5
34C
330
1F
100
AcDbEntity
  8
0
  6
Continuous
 62
     7
370
     0
100
AcDbLine
 10
8.2640249196
 20
3.9390014837
 30
0.0
 11
8.2640249196
 21
3.8888219918
 31
0.0
  0
LINE
  5
34D
330
1F
100
AcDbEntity
  8
0
  6
Continuous
 62
     7
370
     0
100
AcDbLine
 10
8.1840249196
 20
3.9376434993
 30
0.0
 11
8.1840249196
 21
3.8815014837
 31
0.0
  0
LINE
  5
34E
330
1F
100
AcDbEntity
  8
0
  6
Continuous
 62
     7
370
     0
100
AcDbLine
 10
8.2640249196
 20
4.8389766144
 30
0.0
 11
8.2640249196
 21
4.8385689524
 31
0.0
  0
LINE
  5
34F
330
1F
100
AcDbEntity
  8
0
  6
Continuous
 62
     7
370
     0
100
AcDbLine
 10
6.9109857907
 20
3.8815014837
 30
0.0
 11
6.8936652826
 21
3.8715014837
 31
0.0
  0
LINE
  5
350
330
1F
100
AcDbEntity
  8
0
  6
Continuous
 62
     7
370
     0
100
AcDbLine
 10
6.8936652826
 20
4.9065014837
 30
0.0
 11
6.9109857907
 21
4.8965014837
 31
0.0
  0
LINE
  5
351
330
1F
100
AcDbEntity
  8
0
  6
Continuous
 62
     7
370
     0
100
AcDbLine
 10
6.8936652826
 20
4.9065014837
 30
0.0
 11
6.8409857907
 21
4.9065014837
 31
0.0
  0
LINE
  5
352
330
1F
100
AcDbEntity
  8
0
  6
Continuous
 62
     7
370
     0
100
AcDbLine
 10
6.8409857907
 20
3.8715014837
 30
0.0
 11
6.8936652826
 21
3.8715014837
 31
0.0
  0
LINE
  5
353
330
1F
100
AcDbEntity
  8
0
  6
Continuous
 62
     7
370
     0
100
AcDbLine
 10
6.8309857907
 20
3.9391680874
 30
0.0
 11
6.8559857907
 21
3.9391680874
 31
0.0
  0
LINE
  5
354
330
1F
100
AcDbEntity
  8
0
  6
Continuous
 62
     7
370
     0
100
AcDbLine
 10
6.8559857907
 20
3.9398260716
 30
0.0
 11
6.8559857907
 21
3.9391680874
 31
0.0
  0
LINE
  5
355
330
1F
100
AcDbEntity
  8
0
  6
Continuous
 62
     7
370
     0
100
AcDbLine
 10
6.8309857907
 20
3.9398260716
 30
0.0
 11
6.8559857907
 21
3.9398260716
 31
0.0
  0
LINE
  5
356
330
1F
100
AcDbEntity
  8
0
  6
Continuous
 62
     7
370
     0
100
AcDbLine
 10
6.8309857907
 20
4.8390014837
 30
0.0
 11
6.8309857907
 21
3.9398260716
 31
0.0
  0
LINE
  5
357
330
1F
100
AcDbEntity
  8
0
  6
Continuous
 62
     7
370
     0
100
AcDbLine
 10
6.9104309897
 20
4.8390014837
 30
0.0
 11
6.8309857907
 21
4.8390014837
 31
0.0
  0
LINE
  5
358
330
1F
100
AcDbEntity
  8
0
  6
Continuous
 62
     7
370
     0
100
AcDbLine
 10
6.8309857907
 20
3.9390014837
 30
0.0
 11
6.9104309897
 21
3.9390014837
 31
0.0
  0
LINE
  5
359
330
1F
100
AcDbEntity
  8
0
  6
Continuous
 62
     7
370
     0
100
AcDbLine
 10
6.8309857907
 20
3.9391680874
 30
0.0
 11
6.8309857907
 21
3.9390014837
 31
0.0
  0
LINE
  5
35A
330
1F
100
AcDbEntity
  8
0
  6
Continuous
 62
     7
370
     0
100
AcDbLine
 10
6.8309857907
 20
4.8891809756
 30
0.0
 11
6.8409857907
 21
4.9065014837
 31
0.0
  0
LINE
  5
35B
330
1F
100
AcDbEntity
  8
0
  6
Continuous
 62
     7
370
     0
100
AcDbLine
 10
6.8309857907
 20
4.8390014837
 30
0.0
 11
6.8309857907
 21
4.8891809756
 31
0.0
  0
LINE
  5
35C
330
1F
100
AcDbEntity
  8
0
  6
Continuous
 62
     7
370
     0
100
AcDbLine
 10
6.9109857907
 20
4.8428189045
 30
0.0
 11
6.9109857907
 21
4.8965014837
 31
0.0
  0
LINE
  5
35D
330
1F
100
AcDbEntity
  8
0
  6
Continuous
 62
     7
370
     0
100
AcDbLine
 10
6.8409857907
 20
3.8715014837
 30
0.0
 11
6.8309857907
 21
3.8888219918
 31
0.0
  0
LINE
  5
35E
330
1F
100
AcDbEntity
  8
0
  6
Continuous
 62
     7
370
     0
100
AcDbLine
 10
6.8309857907
 20
3.8888219918
 30
0.0
 11
6.8309857907
 21
3.9390014837
 31
0.0
  0
LINE
  5
35F
330
1F
100
AcDbEntity
  8
0
  6
Continuous
 62
     7
370
     0
100
AcDbLine
 10
6.9109857907
 20
3.8815014837
 30
0.0
 11
6.9109857907
 21
3.9351840629
 31
0.0
  0
LINE
  5
360
330
1F
100
AcDbEntity
  8
0
  6
Continuous
 62
     7
370
     0
100
AcDbLine
 10
6.8309857907
 20
3.9391680874
 30
0.0
 11
6.8309857907
 21
3.9398260716
 31
0.0
  0
LINE
  5
361
330
1F
100
AcDbEntity
  8
0
  6
Continuous
 62
     7
370
     0
100
AcDbLine
 10
6.8319519659
 20
3.7890014837
 30
0.0
 11
6.9190231953
 21
3.7890014837
 31
0.0
  0
LINE
  5
362
330
1F
100
AcDbEntity
  8
0
  6
Continuous
 62
     7
370
     0
100
AcDbLine
 10
7.0006732899
 20
3.7890014837
 30
0.0
 11
8.4069519659
 21
3.7890014837
 31
0.0
  0
LINE
  5
363
330
1F
100
AcDbEntity
  8
0
  6
Continuous
 62
     7
370
     0
100
AcDbLine
 10
8.4069519659
 20
4.9890014837
 30
0.0
 11
8.3195087661
 21
4.9890014837
 31
0.0
  0
LINE
  5
364
330
1F
100
AcDbEntity
  8
0
  6
Continuous
 62
     7
370
     0
100
AcDbLine
 10
8.2752809169
 20
4.9890014837
 30
0.0
 11
6.99988923
 21
4.9890014837
 31
0.0
  0
LINE
  5
365
330
1F
100
AcDbEntity
  8
0
  6
Continuous
 62
     7
370
     0
100
AcDbLine
 10
6.9845914084
 20
4.9890014837
 30
0.0
 11
6.9583156022
 21
4.9890014837
 31
0.0
  0
LINE
  5
366
330
1F
100
AcDbEntity
  8
0
  6
Continuous
 62
     7
370
     0
100
AcDbLine
 10
6.9416922256
 20
4.9890014837
 30
0.0
 11
6.8145087661
 21
4.9890014837
 31
0.0
  0
LINE
  5
367
330
1F
100
AcDbEntity
  8
0
  6
Continuous
 62
     7
370
     0
100
AcDbLine
 10
6.7702809169
 20
4.9890014837
 30
0.0
 11
6.6869519659
 21
4.9890014837
 31
0.0
  0
LINE
  5
368
330
1F
100
AcDbEntity
  8
0
  6
Continuous
 62
     7
370
     0
100
AcDbLine
 10
6.6869519659
 20
3.7890014837
 30
0.0
 11
6.8122117061
 21
3.7890014837
 31
0.0
  0
LINE
  5
369
330
1F
100
AcDbEntity
  8
0
  6
Continuous
 62
     7
370
     0
100
AcDbLine
 10
8.4169519659
 20
3.7990014837
 30
0.0
 11
8.4069519659
 21
3.7890014837
 31
0.0
  0
LINE
  5
36A
330
1F
100
AcDbEntity
  8
0
  6
Continuous
 62
     7
370
     0
100
AcDbLine
 10
8.4069519659
 20
4.9890014837
 30
0.0
 11
8.4169519659
 21
4.9790014837
 31
0.0
  0
LINE
  5
36B
330
1F
100
AcDbEntity
  8
0
  6
Continuous
 62
     7
370
     0
100
AcDbLine
 10
6.6769519659
 20
4.9790014837
 30
0.0
 11
6.6869519659
 21
4.9890014837
 31
0.0
  0
LINE
  5
36C
330
1F
100
AcDbEntity
  8
0
  6
Continuous
 62
     7
370
     0
100
AcDbLine
 10
6.6869519659
 20
3.7890014837
 30
0.0
 11
6.6769519659
 21
3.7990014837
 31
0.0
  0
LINE
  5
36D
330
1F
100
AcDbEntity
  8
0
  6
Continuous
 62
     7
370
     0
100
AcDbLine
 10
7.8019519659
 20
3.8640014837
 30
0.0
 11
7.8219519659
 21
3.8640014837
 31
0.0
  0
LINE
  5
36E
330
1F
100
AcDbEntity
  8
0
  6
Continuous
 62
     7
370
     0
100
AcDbLine
 10
7.8219519659
 20
4.9140014837
 30
0.0
 11
7.8019519659
 21
4.9140014837
 31
0.0
  0
LINE
  5
36F
330
1F
100
AcDbEntity
  8
0
  6
Continuous
 62
     7
370
     0
100
AcDbLine
 10
7.2719519659
 20
4.9140014837
 30
0.0
 11
7.2919519659
 21
4.9140014837
 31
0.0
  0
LINE
  5
370
330
1F
100
AcDbEntity
  8
0
  6
Continuous
 62
     7
370
     0
100
AcDbLine
 10
7.2919519659
 20
3.8640014837
 30
0.0
 11
7.2719519659
 21
3.8640014837
 31
0.0
  0
LINE
  5
371
330
1F
100
AcDbEntity
  8
0
  6
Continuous
 62
     7
370
     0
100
AcDbLine
 10
8.4169519659
 20
4.9050014837
 30
0.0
 11
8.3996314578
 21
4.8950014837
 31
0.0
  0
LINE
  5
372
330
1F
100
AcDbEntity
  8
0
  6
Continuous
 62
     7
370
     0
100
AcDbLine
 10
8.3996314578
 20
3.8830014837
 30
0.0
 11
8.4169519659
 21
3.8730014837
 31
0.0
  0
LINE
  5
373
330
1F
100
AcDbEntity
  8
0
  6
Continuous
 62
     7
370
     0
100
AcDbLine
 10
8.3996314578
 20
3.8830014837
 30
0.0
 11
8.3996314578
 21
4.8950014837
 31
0.0
  0
LINE
  5
374
330
1F
100
AcDbEntity
  8
0
  6
Continuous
 62
     7
370
     0
100
AcDbLine
 10
8.4169519659
 20
4.9050014837
 30
0.0
 11
8.4169519659
 21
3.8730014837
 31
0.0
  0
LINE
  5
375
330
1F
100
AcDbEntity
  8
0
  6
Continuous
 62
     7
370
     0
100
AcDbLine
 10
6.6769519659
 20
3.8730014837
 30
0.0
 11
6.694272474
 21
3.8830014837
 31
0.0
  0
LINE
  5
376
330
1F
100
AcDbEntity
  8
0
  6
Continuous
 62
     7
370
     0
100
AcDbLine
 10
6.694272474
 20
4.8950014837
 30
0.0
 11
6.6769519659
 21
4.9050014837
 31
0.0
  0
LINE
  5
377
330
1F
100
AcDbEntity
  8
0
  6
Continuous
 62
     7
370
     0
100
AcDbLine
 10
6.694272474
 20
4.8950014837
 30
0.0
 11
6.694272474
 21
3.8830014837
 31
0.0
  0
LINE
  5
378
330
1F
100
AcDbEntity
  8
0
  6
Continuous
 62
     7
370
     0
100
AcDbLine
 10
6.6769519659
 20
3.8730014837
 30
0.0
 11
6.6769519659
 21
4.9050014837
 31
0.0
  0
LINE
  5
379
330
1F
100
AcDbEntity
  8
0
  6
Continuous
 62
     7
370
     0
100
AcDbLine
 10
8.1159519659
 20
3.8830014837
 30
0.0
 11
8.1159519659
 21
3.8890014837
 31
0.0
  0
LINE
  5
37A
330
1F
100
AcDbEntity
  8
0
  6
Continuous
 62
     7
370
     0
100
AcDbLine
 10
8.1159519659
 20
4.8890014837
 30
0.0
 11
8.1159519659
 21
4.8950014837
 31
0.0
  0
LINE
  5
37B
330
1F
100
AcDbEntity
  8
0
  6
Continuous
 62
     7
370
     0
100
AcDbLine
 10
8.1159519659
 20
4.8950014837
 30
0.0
 11
8.3996314578
 21
4.8950014837
 31
0.0
  0
LINE
  5
37C
330
1F
100
AcDbEntity
  8
0
  6
Continuous
 62
     7
370
     0
100
AcDbLine
 10
8.3996314578
 20
3.8830014837
 30
0.0
 11
8.1159519659
 21
3.8830014837
 31
0.0
  0
LINE
  5
37D
330
1F
100
AcDbEntity
  8
0
  6
Continuous
 62
     7
370
     0
100
AcDbLine
 10
8.1147972653
 20
4.8930014837
 30
0.0
 11
8.1147972653
 21
4.8890014837
 31
0.0
  0
LINE
  5
37E
330
1F
100
AcDbEntity
  8
0
  6
Continuous
 62
     7
370
     0
100
AcDbLine
 10
8.1147972653
 20
3.8890014837
 30
0.0
 11
8.1147972653
 21
3.8850014837
 31
0.0
  0
LINE
  5
37F
330
1F
100
AcDbEntity
  8
0
  6
Continuous
 62
     7
370
     0
100
AcDbLine
 10
8.1147972653
 20
4.8930014837
 30
0.0
 11
8.1159519659
 21
4.8950014837
 31
0.0
  0
LINE
  5
380
330
1F
100
AcDbEntity
  8
0
  6
Continuous
 62
     7
370
     0
100
AcDbLine
 10
8.1159519659
 20
3.8830014837
 30
0.0
 11
8.1147972653
 21
3.8850014837
 31
0.0
  0
LINE
  5
381
330
1F
100
AcDbEntity
  8
0
  6
Continuous
 62
     7
370
     0
100
AcDbLine
 10
6.9791066664
 20
3.8850014837
 30
0.0
 11
6.9791066664
 21
3.8890014837
 31
0.0
  0
LINE
  5
382
330
1F
100
AcDbEntity
  8
0
  6
Continuous
 62
     7
370
     0
100
AcDbLine
 10
6.9791066664
 20
4.8890014837
 30
0.0
 11
6.9791066664
 21
4.8930014837
 31
0.0
  0
LINE
  5
383
330
1F
100
AcDbEntity
  8
0
  6
Continuous
 62
     7
370
     0
100
AcDbLine
 10
6.9791066664
 20
3.8850014837
 30
0.0
 11
6.9779519659
 21
3.8830014837
 31
0.0
  0
LINE
  5
384
330
1F
100
AcDbEntity
  8
0
  6
Continuous
 62
     7
370
     0
100
AcDbLine
 10
6.9779519659
 20
4.8950014837
 30
0.0
 11
6.9779519659
 21
4.8890014837
 31
0.0
  0
LINE
  5
385
330
1F
100
AcDbEntity
  8
0
  6
Continuous
 62
     7
370
     0
100
AcDbLine
 10
6.9779519659
 20
3.8890014837
 30
0.0
 11
6.9779519659
 21
3.8830014837
 31
0.0
  0
LINE
  5
386
330
1F
100
AcDbEntity
  8
0
  6
Continuous
 62
     7
370
     0
100
AcDbLine
 10
6.9779519659
 20
4.8950014837
 30
0.0
 11
6.9791066664
 21
4.8930014837
 31
0.0
  0
LINE
  5
387
330
1F
100
AcDbEntity
  8
0
  6
Continuous
 62
     7
370
     0
100
AcDbLine
 10
6.9779519659
 20
3.8830014837
 30
0.0
 11
6.694272474
 21
3.8830014837
 31
0.0
  0
LINE
  5
388
330
1F
100
AcDbEntity
  8
0
  6
Continuous
 62
     7
370
     0
100
AcDbLine
 10
6.694272474
 20
4.8950014837
 30
0.0
 11
6.9779519659
 21
4.8950014837
 31
0.0
  0
LINE
  5
389
330
1F
100
AcDbEntity
  8
0
  6
Continuous
 62
     7
370
     0
100
AcDbLine
 10
7.8219519659
 20
3.8850014837
 30
0.0
 11
8.1147972653
 21
3.8850014837
 31
0.0
  0
LINE
  5
38A
330
1F
100
AcDbEntity
  8
0
  6
Continuous
 62
     7
370
     0
100
AcDbLine
 10
8.1147972653
 20
4.8930014837
 30
0.0
 11
7.8219519659
 21
4.8930014837
 31
0.0
  0
LINE
  5
38B
330
1F
100
AcDbEntity
  8
0
  6
Continuous
 62
     7
370
     0
100
AcDbLine
 10
7.8219519659
 20
3.8850014837
 30
0.0
 11
7.8219519659
 21
3.9063481735
 31
0.0
  0
LINE
  5
38C
330
1F
100
AcDbEntity
  8
0
  6
Continuous
 62
     7
370
     0
100
AcDbLine
 10
7.8219519659
 20
4.8716547939
 30
0.0
 11
7.8219519659
 21
4.8930014837
 31
0.0
  0
LINE
  5
38D
330
1F
100
AcDbEntity
  8
0
  6
Continuous
 62
     7
370
     0
100
AcDbLine
 10
7.2719519659
 20
4.8930014837
 30
0.0
 11
6.9791066664
 21
4.8930014837
 31
0.0
  0
LINE
  5
38E
330
1F
100
AcDbEntity
  8
0
  6
Continuous
 62
     7
370
     0
100
AcDbLine
 10
6.9791066664
 20
3.8850014837
 30
0.0
 11
7.2719519659
 21
3.8850014837
 31
0.0
  0
LINE
  5
38F
330
1F
100
AcDbEntity
  8
0
  6
Continuous
 62
     7
370
     0
100
AcDbLine
 10
7.2719519659
 20
4.8930014837
 30
0.0
 11
7.2719519659
 21
4.8726917816
 31
0.0
  0
LINE
  5
390
330
1F
100
AcDbEntity
  8
0
  6
Continuous
 62
     7
370
     0
100
AcDbLine
 10
7.2719519659
 20
3.9053111858
 30
0.0
 11
7.2719519659
 21
3.8850014837
 31
0.0
  0
LINE
  5
391
330
1F
100
AcDbEntity
  8
0
  6
Continuous
 62
     7
370
     0
100
AcDbLine
 10
7.8001202041
 20
4.8400014837
 30
0.0
 11
7.2945365561
 21
4.8400014837
 31
0.0
  0
LINE
  5
392
330
1F
100
AcDbEntity
  8
0
  6
Continuous
 62
     7
370
     0
100
AcDbLine
 10
7.2945365561
 20
3.9380014837
 30
0.0
 11
7.8001202041
 21
3.9380014837
 31
0.0
  0
LINE
  5
393
330
1F
100
AcDbEntity
  8
0
  6
Continuous
 62
     7
370
     0
100
AcDbLine
 10
6.9837446265
 20
3.7890014837
 30
0.0
 11
7.0006732899
 21
3.7890014837
 31
0.0
  0
LINE
  5
394
330
1F
100
AcDbEntity
  8
0
  6
Continuous
 62
     7
370
     0
100
AcDbLine
 10
6.9360225343
 20
3.7890014837
 30
0.0
 11
6.9837446265
 21
3.7890014837
 31
0.0
  0
LINE
  5
395
330
1F
100
AcDbEntity
  8
0
  6
Continuous
 62
     7
370
     0
100
AcDbLine
 10
6.9190231953
 20
3.7890014837
 30
0.0
 11
6.9360225343
 21
3.7890014837
 31
0.0
  0
LINE
  5
396
330
1F
100
AcDbEntity
  8
0
  6
Continuous
 62
     7
370
     0
100
AcDbLine
 10
6.8122117061
 20
3.7890014837
 30
0.0
 11
6.8319519659
 21
3.7890014837
 31
0.0
  0
LINE
  5
397
330
1F
100
AcDbEntity
  8
0
  6
Continuous
 62
     7
370
     0
100
AcDbLine
 10
7.2919519659
 20
3.8640014837
 30
0.0
 11
7.2919519659
 21
3.9340845089
 31
0.0
  0
LINE
  5
398
330
1F
100
AcDbEntity
  8
0
  6
Continuous
 62
     7
370
     0
100
AcDbLine
 10
7.2719519659
 20
3.8640014837
 30
0.0
 11
7.2719519659
 21
3.8850014837
 31
0.0
  0
LINE
  5
399
330
1F
100
AcDbEntity
  8
0
  6
Continuous
 62
     7
370
     0
100
AcDbLine
 10
7.8219519659
 20
3.8850014837
 30
0.0
 11
7.8219519659
 21
3.8640014837
 31
0.0
  0
LINE
  5
39A
330
1F
100
AcDbEntity
  8
0
  6
Continuous
 62
     7
370
     0
100
AcDbLine
 10
7.8019519659
 20
3.8640014837
 30
0.0
 11
7.8019519659
 21
3.9352204193
 31
0.0
  0
LINE
  5
39B
330
1F
100
AcDbEntity
  8
0
  6
Continuous
 62
     7
370
     0
100
AcDbLine
 10
6.6769519659
 20
3.7990014837
 30
0.0
 11
6.6769519659
 21
3.8730014837
 31
0.0
  0
LINE
  5
39C
330
1F
100
AcDbEntity
  8
0
  6
Continuous
 62
     7
370
     0
100
AcDbLine
 10
8.4169519659
 20
3.8730014837
 30
0.0
 11
8.4169519659
 21
3.7990014837
 31
0.0
  0
LINE
  5
39D
330
1F
100
AcDbEntity
  8
0
  6
Continuous
 62
     7
370
     0
100
AcDbLine
 10
6.772649722
 20
4.9890014837
 30
0.0
 11
6.7702809169
 21
4.9890014837
 31
0.0
  0
LINE
  5
39E
330
1F
100
AcDbEntity
  8
0
  6
Continuous
 62
     7
370
     0
100
AcDbLine
 10
6.8093990979
 20
4.9890014837
 30
0.0
 11
6.772649722
 21
4.9890014837
 31
0.0
  0
LINE
  5
39F
330
1F
100
AcDbEntity
  8
0
  6
Continuous
 62
     7
370
     0
100
AcDbLine
 10
6.8145087661
 20
4.9890014837
 30
0.0
 11
6.8093990979
 21
4.9890014837
 31
0.0
  0
LINE
  5
3A0
330
1F
100
AcDbEntity
  8
0
  6
Continuous
 62
     7
370
     0
100
AcDbLine
 10
6.9583156022
 20
4.9890014837
 30
0.0
 11
6.9416922256
 21
4.9890014837
 31
0.0
  0
LINE
  5
3A1
330
1F
100
AcDbEntity
  8
0
  6
Continuous
 62
     7
370
     0
100
AcDbLine
 10
6.99988923
 20
4.9890014837
 30
0.0
 11
6.9845914084
 21
4.9890014837
 31
0.0
  0
LINE
  5
3A2
330
1F
100
AcDbEntity
  8
0
  6
Continuous
 62
     7
370
     0
100
AcDbLine
 10
8.277649722
 20
4.9890014837
 30
0.0
 11
8.2752809169
 21
4.9890014837
 31
0.0
  0
LINE
  5
3A3
330
1F
100
AcDbEntity
  8
0
  6
Continuous
 62
     7
370
     0
100
AcDbLine
 10
8.3143990979
 20
4.9890014837
 30
0.0
 11
8.277649722
 21
4.9890014837
 31
0.0
  0
LINE
  5
3A4
330
1F
100
AcDbEntity
  8
0
  6
Continuous
 62
     7
370
     0
100
AcDbLine
 10
8.3195087661
 20
4.9890014837
 30
0.0
 11
8.3143990979
 21
4.9890014837
 31
0.0
  0
LINE
  5
3A5
330
1F
100
AcDbEntity
  8
0
  6
Continuous
 62
     7
370
     0
100
AcDbLine
 10
7.2919519659
 20
4.8439184584
 30
0.0
 11
7.2919519659
 21
4.9140014837
 31
0.0
  0
LINE
  5
3A6
330
1F
100
AcDbEntity
  8
0
  6
Continuous
 62
     7
370
     0
100
AcDbLine
 10
7.2719519659
 20
4.8930014837
 30
0.0
 11
7.2719519659
 21
4.9140014837
 31
0.0
  0
LINE
  5
3A7
330
1F
100
AcDbEntity
  8
0
  6
Continuous
 62
     7
370
     0
100
AcDbLine
 10
7.8219519659
 20
4.9140014837
 30
0.0
 11
7.8219519659
 21
4.8930014837
 31
0.0
  0
LINE
  5
3A8
330
1F
100
AcDbEntity
  8
0
  6
Continuous
 62
     7
370
     0
100
AcDbLine
 10
7.8019519659
 20
4.842782548
 30
0.0
 11
7.8019519659
 21
4.9140014837
 31
0.0
  0
LINE
  5
3A9
330
1F
100
AcDbEntity
  8
0
  6
Continuous
 62
     7
370
     0
100
AcDbLine
 10
6.6769519659
 20
4.9050014837
 30
0.0
 11
6.6769519659
 21
4.9790014837
 31
0.0
  0
LINE
  5
3AA
330
1F
100
AcDbEntity
  8
0
  6
Continuous
 62
     7
370
     0
100
AcDbLine
 10
8.4169519659
 20
4.9790014837
 30
0.0
 11
8.4169519659
 21
4.9050014837
 31
0.0
  0
DIMENSION
  5
3AB
330
1F
100
AcDbEntity
  8
0
  6
Continuous
 62
     7
370
     0
100
AcDbDimension
  2
*D8
 10
6.6769519659
 20
3.003433257
 30
0.0
 11
5.4799497759
 21
3.003433257
 31
0.0
 70
   160
 71
     1
 42
-1.0
  3
SLDDIMSTYLE1
100
AcDbAlignedDimension
 13
5.9780834226
 23
4.3890014837
 33
0.0
 14
6.6769519659
 24
3.7990014837
 34
0.0
100
AcDbRotatedDimension
  0
DIMENSION
  5
3BE
330
1F
100
AcDbEntity
  8
0
  6
Continuous
 62
     7
370
     0
100
AcDbDimension
  2
*D9
 10
6.8780405496
 20
5.3693943941
 30
0.0
 11
6.3406181139
 21
5.3693943941
 31
0.0
 70
   160
 71
     1
 42
-1.0
  3
SLDDIMSTYLE1
100
AcDbAlignedDimension
 13
5.9780834226
 23
4.3890014837
 33
0.0
 14
6.8780405496
 24
4.3890014837
 34
0.0
100
AcDbRotatedDimension
  0
DIMENSION
  5
3D0
330
1F
100
AcDbEntity
  8
0
  6
Continuous
 62
     7
370
     0
100
AcDbDimension
  2
*D10
 10
8.4169519659
 20
3.003433257
 30
0.0
 11
9.6195194144
 21
3.003433257
 31
0.0
 70
   160
 71
     1
 42
-1.0
  3
SLDDIMSTYLE1
100
AcDbAlignedDimension
 13
9.1158205092
 23
4.3890014837
 33
0.0
 14
8.4169519659
 24
3.7990014837
 34
0.0
100
AcDbRotatedDimension
  0
DIMENSION
  5
3E2
330
1F
100
AcDbEntity
  8
0
  6
Continuous
 62
     7
370
     0
100
AcDbDimension
  2
*D11
 10
8.2166162106
 20
5.3693943941
 30
0.0
 11
8.7462510842
 21
5.3693943941
 31
0.0
 70
   160
 71
     1
 42
-1.0
  3
SLDDIMSTYLE1
100
AcDbAlignedDimension
 13
9.1158205092
 23
4.3890014837
 33
0.0
 14
8.2166162106
 24
4.3890014837
 34
0.0
100
AcDbRotatedDimension
  0
DIMENSION
  5
3F4
330
1F
100
AcDbEntity
  8
0
  6
Continuous
 62
     7
370
     0
100
AcDbDimension
  2
*D12
 10
8.4169519659
 20
2.6990271545
 30
0.0
 11
7.5469519659
 21
2.6990271545
 31
0.0
 70
   160
 71
     1
 42
-1.0
  3
SLDDIMSTYLE2
100
AcDbAlignedDimension
 13
6.6769519659
 23
3.7990014837
 33
0.0
 14
8.4169519659
 24
3.7990014837
 34
0.0
100
AcDbRotatedDimension
  0
DIMENSION
  5
407
330
1F
100
AcDbEntity
  8
0
  6
Continuous
 62
     7
370
     0
100
AcDbDimension
  2
*D13
 10
6.8780405496
 20
5.6842352711
 30
0.0
 11
7.5469519659
 21
5.6842352711
 31
0.0
 70
   160
 71
     1
 42
-1.0
  3
SLDDIMSTYLE3
100
AcDbAlignedDimension
 13
8.2166162106
 23
4.3890014837
 33
0.0
 14
6.8780405496
 24
4.3890014837
 34
0.0
100
AcDbRotatedDimension
  0
DIMENSION
  5
41A
330
1F
100
AcDbEntity
  8
0
  6
Continuous
 62
     7
370
     0
100
AcDbDimension
  2
*D14
 10
7.6654351082
 20
3.5173901289
 30
0.0
 11
8.0801937235
 21
3.5173901289
 31
0.0
 70
   160
 71
     1
 42
-1.0
  3
SLDDIMSTYLE4
100
AcDbAlignedDimension
 13
7.429221652
 23
4.3890014837
 33
0.0
 14
7.6654351082
 24
4.3890014837
 34
0.0
100
AcDbRotatedDimension
  0
INSERT
  5
434
330
1F
100
AcDbEntity
  8
0
  6
Continuous
 62
     7
370
     0
100
AcDbBlockReference
  2
SW_NOTE_5
 10
7.0969774993
 20
3.1116508479
 30
0.0
  0
INSERT
  5
43B
102
{ACAD_REACTORS
330
43D
330
43E
102
}
330
1F
100
AcDbEntity
  8
0
  6
Continuous
 62
     7
370
     0
100
AcDbBlockReference
  2
SW_NOTE_6
 10
5.3885667514
 20
3.4233799611
 30
0.0
  0
LEADER
  5
43D
330
1F
100
AcDbEntity
  8
0
  6
Continuous
 62
     7
370
     0
100
AcDbLeader
  3
SLDDIMSTYLE5
 73
     2
 76
     3
 10
6.7354431433
 20
3.8830014837
 30
0.0
 10
5.6385667514
 20
3.4233799611
 30
0.0
 10
5.3885667514
 20
3.4233799611
 30
0.0
340
43B
  0
LEADER
  5
43E
330
1F
100
AcDbEntity
  8
0
  6
Continuous
 62
     7
370
     0
100
AcDbLeader
  3
SLDDIMSTYLE5
 73
     2
 76
     3
 10
8.3214925795
 20
3.8830014837
 30
0.0
 10
5.6385667514
 20
3.4233799611
 30
0.0
 10
5.3885667514
 20
3.4233799611
 30
0.0
340
43B
  0
INSERT
  5
444
330
1F
100
AcDbEntity
  8
0
  6
Continuous
 62
     7
370
     0
100
AcDbBlockReference
  2
SW_NOTE_7
 10
8.645419804
 20
4.8865436715
 30
0.0
  0
LEADER
  5
445
330
1F
100
AcDbEntity
  8
0
  6
Continuous
 62
     7
370
     0
100
AcDbLeader
  3
SLDDIMSTYLE5
 76
     2
 10
7.9079743152
 20
4.6770298507
 30
0.0
 10
8.645419804
 20
4.8865436715
 30
0.0
  0
INSERT
  5
44B
102
{ACAD_REACTORS
330
44C
102
}
330
1F
100
AcDbEntity
  8
0
  6
Continuous
 62
     7
370
     0
100
AcDbBlockReference
  2
SW_NOTE_8
 10
6.4247846898
 20
4.9046296844
 30
0.0
  0
LEADER
  5
44C
330
1F
100
AcDbEntity
  8
0
  6
Continuous
 62
     7
370
     0
100
AcDbLeader
  3
SLDDIMSTYLE5
 73
     2
 76
     2
 10
7.1677961217
 20
4.7675311021
 30
0.0
 10
6.4247846898
 20
4.9046296844
 30
0.0
340
44B
  0
INSERT
  5
452
330
1F
100
AcDbEntity
  8
0
  6
Continuous
 62
     7
370
     0
100
AcDbBlockReference
  2
SW_NOTE_9
 10
8.6585349125
 20
3.5669649291
 30
0.0
  0
LEADER
  5
453
330
1F
100
AcDbEntity
  8
0
  6
Continuous
 62
     7
370
     0
100
AcDbLeader
  3
SLDDIMSTYLE5
 76
     2
 10
8.4069519659
 20
3.7890014837
 30
0.0
 10
8.6585349125
 20
3.5669649291
 30
0.0
  0
INSERT
  5
459
330
1F
100
AcDbEntity
  8
0
  6
Continuous
 62
     7
370
     0
100
AcDbBlockReference
  2
SW_NOTE_10
 10
8.6311780791
 20
4.0155454329
 30
0.0
  0
LEADER
  5
45A
330
1F
100
AcDbEntity
  8
0
  6
Continuous
 62
     7
370
     0
100
AcDbLeader
  3
SLDDIMSTYLE5
 76
     2
 10
8.2640249196
 20
4.0041343284
 30
0.0
 10
8.6311780791
 20
4.0155454329
 30
0.0
  0
INSERT
  5
460
102
{ACAD_REACTORS
330
461
102
}
330
1F
100
AcDbEntity
  8
0
  6
Continuous
 62
     7
370
     0
100
AcDbBlockReference
  2
SW_NOTE_11
 10
6.4328632778
 20
3.994481954
 30
0.0
  0
LEADER
  5
461
330
1F
100
AcDbEntity
  8
0
  6
Continuous
 62
     7
370
     0
100
AcDbLeader
  3
SLDDIMSTYLE5
 73
     2
 76
     2
 10
6.8309857907
 20
3.9390014837
 30
0.0
 10
6.4328632778
 20
3.994481954
 30
0.0
340
460
  0
HATCH
  5
462
330
1F
100
AcDbEntity
  8
0
  6
Continuous
 62
     7
370
     0
100
AcDbHatch
 10
0.0
 20
0.0
 30
0.0
210
0.0
220
0.0
230
1.0
  2
ANSI31
 70
     0
 71
     0
 91
        1
 92
        0
 93
        6
 72
     1
 10
8.201345427638554
 20
4.906501483679522
 11
8.184024919562866
 21
4.896501483679522
 72
     1
 10
8.184024919562866
 20
4.896501483679522
 11
8.184024919562866
 21
4.839001483679522
 72
     1
 10
8.184024919562866
 20
4.839001483679522
 11
8.264024919562864
 21
4.839001483679522
 72
     1
 10
8.264024919562864
 20
4.839001483679522
 11
8.264024919562864
 21
4.889180975603834
 72
     1
 10
8.264024919562864
 20
4.889180975603834
 11
8.254024919562863
 21
4.906501483679524
 72
     1
 10
8.254024919562863
 20
4.906501483679524
 11
8.201345427638554
 21
4.906501483679522
 97
        0
 75
     0
 76
     1
 52
0.0
 41
1.0
 77
     0
 78
     1
 53
45.0
 43
0.0
 44
0.0
 45
-0.0883883476483184
 46
0.0883883476483184
 79
     0
 98
        1
 10
0.0
 20
0.0
  0
HATCH
  5
463
330
1F
100
AcDbEntity
  8
0
  6
Continuous
 62
     7
370
     0
100
AcDbHatch
 10
0.0
 20
0.0
 30
0.0
210
0.0
220
0.0
230
1.0
  2
ANSI31
 70
     0
 71
     0
 91
        1
 92
        0
 93
        6
 72
     1
 10
8.264024919562864
 20
3.88882199175521
 11
8.264024919562864
 21
3.939001483679522
 72
     1
 10
8.264024919562864
 20
3.939001483679522
 11
8.184024919562866
 21
3.939001483679522
 72
     1
 10
8.184024919562866
 20
3.939001483679522
 11
8.184024919562866
 21
3.881501483679521
 72
     1
 10
8.184024919562866
 20
3.881501483679521
 11
8.201345427638554
 21
3.871501483679521
 72
     1
 10
8.201345427638554
 20
3.871501483679521
 11
8.254024919562866
 21
3.871501483679521
 72
     1
 10
8.254024919562866
 20
3.871501483679521
 11
8.264024919562864
 21
3.88882199175521
 97
        0
 75
     0
 76
     1
 52
0.0
 41
1.0
 77
     0
 78
     1
 53
45.0
 43
0.0
 44
0.0
 45
-0.0883883476483184
 46
0.0883883476483184
 79
     0
 98
        1
 10
0.0
 20
0.0
  0
HATCH
  5
464
330
1F
100
AcDbEntity
  8
0
  6
Continuous
 62
     7
370
     0
100
AcDbHatch
 10
0.0
 20
0.0
 30
0.0
210
0.0
220
0.0
230
1.0
  2
ANSI31
 70
     0
 71
     0
 91
        1
 92
        0
 93
        6
 72
     1
 10
6.830985790684447
 20
4.839001483679522
 11
6.910985790684447
 21
4.839001483679522
 72
     1
 10
6.910985790684447
 20
4.839001483679522
 11
6.910985790684447
 21
4.896501483679522
 72
     1
 10
6.910985790684447
 20
4.896501483679522
 11
6.893665282608758
 21
4.906501483679522
 72
     1
 10
6.893665282608758
 20
4.906501483679522
 11
6.840985790684447
 21
4.906501483679522
 72
     1
 10
6.840985790684447
 20
4.906501483679522
 11
6.830985790684447
 21
4.889180975603833
 72
     1
 10
6.830985790684447
 20
4.889180975603833
 11
6.830985790684447
 21
4.839001483679522
 97
        0
 75
     0
 76
     1
 52
0.0
 41
1.0
 77
     0
 78
     1
 53
45.0
 43
0.0
 44
0.0
 45
-0.0883883476483184
 46
0.0883883476483184
 79
     0
 98
        1
 10
0.0
 20
0.0
  0
HATCH
  5
465
330
1F
100
AcDbEntity
  8
0
  6
Continuous
 62
     7
370
     0
100
AcDbHatch
 10
0.0
 20
0.0
 30
0.0
210
0.0
220
0.0
230
1.0
  2
ANSI31
 70
     0
 71
     0
 91
        1
 92
        0
 93
        6
 72
     1
 10
6.830985790684447
 20
3.939001483679522
 11
6.830985790684447
 21
3.88882199175521
 72
     1
 10
6.830985790684447
 20
3.88882199175521
 11
6.840985790684446
 21
3.871501483679521
 72
     1
 10
6.840985790684446
 20
3.871501483679521
 11
6.893665282608758
 21
3.871501483679521
 72
     1
 10
6.893665282608758
 20
3.871501483679521
 11
6.910985790684447
 21
3.881501483679521
 72
     1
 10
6.910985790684447
 20
3.881501483679521
 11
6.910985790684447
 21
3.939001483679522
 72
     1
 10
6.910985790684447
 20
3.939001483679522
 11
6.830985790684447
 21
3.939001483679522
 97
        0
 75
     0
 76
     1
 52
0.0
 41
1.0
 77
     0
 78
     1
 53
45.0
 43
0.0
 44
0.0
 45
-0.0883883476483184
 46
0.0883883476483184
 79
     0
 98
        1
 10
0.0
 20
0.0
  0
HATCH
  5
466
330
1F
100
AcDbEntity
  8
0
  6
Continuous
 62
     7
370
     0
100
AcDbHatch
 10
0.0
 20
0.0
 30
0.0
210
0.0
220
0.0
230
1.0
  2
ANSI31
 70
     0
 71
     0
 91
        1
 92
        0
 93
       32
 72
     1
 10
8.416951965875368
 20
4.905001483679523
 11
8.416951965875368
 21
4.979001483679522
 72
     1
 10
8.416951965875368
 20
4.979001483679522
 11
8.406951965875368
 21
4.989001483679523
 72
     1
 10
8.406951965875368
 20
4.989001483679523
 11
8.319508766140869
 21
4.989001483679523
 72
     1
 10
8.319508766140869
 20
4.989001483679523
 11
8.314399097933247
 21
4.989001483679523
 72
     1
 10
8.314399097933247
 20
4.989001483679523
 11
8.27764972204651
 21
4.989001483679523
 72
     1
 10
8.27764972204651
 20
4.989001483679523
 11
8.275280916902432
 21
4.989001483679523
 72
     1
 10
8.275280916902432
 20
4.989001483679523
 11
6.999889229990108
 21
4.989001483679523
 72
     1
 10
6.999889229990108
 20
4.989001483679523
 11
6.984591408404481
 21
4.989001483679523
 72
     1
 10
6.984591408404481
 20
4.989001483679523
 11
6.958315602239005
 21
4.989001483679523
 72
     1
 10
6.958315602239005
 20
4.989001483679523
 11
6.941692225615627
 21
4.989001483679523
 72
     1
 10
6.941692225615627
 20
4.989001483679523
 11
6.814508766140845
 21
4.989001483679523
 72
     1
 10
6.814508766140845
 20
4.989001483679523
 11
6.809399097933248
 21
4.989001483679523
 72
     1
 10
6.809399097933248
 20
4.989001483679523
 11
6.77264972204651
 21
4.989001483679523
 72
     1
 10
6.77264972204651
 20
4.989001483679523
 11
6.770280916902458
 21
4.989001483679523
 72
     1
 10
6.770280916902458
 20
4.989001483679523
 11
6.686951965875369
 21
4.989001483679523
 72
     1
 10
6.686951965875369
 20
4.989001483679523
 11
6.676951965875368
 21
4.979001483679522
 72
     1
 10
6.676951965875368
 20
4.979001483679522
 11
6.676951965875368
 21
4.905001483679523
 72
     1
 10
6.676951965875368
 20
4.905001483679523
 11
6.694272473951058
 21
4.895001483679522
 72
     1
 10
6.694272473951058
 20
4.895001483679522
 11
6.977951965875369
 21
4.895001483679522
 72
     1
 10
6.977951965875369
 20
4.895001483679522
 11
6.979106666413747
 21
4.893001483679523
 72
     1
 10
6.979106666413747
 20
4.893001483679523
 11
7.271951965875369
 21
4.893001483679523
 72
     1
 10
7.271951965875369
 20
4.893001483679523
 11
7.271951965875369
 21
4.914001483679525
 72
     1
 10
7.271951965875369
 20
4.914001483679525
 11
7.291951965875368
 21
4.914001483679522
 72
     1
 10
7.291951965875368
 20
4.914001483679522
 11
7.291951965875368
 21
4.840001483679522
 72
     1
 10
7.291951965875368
 20
4.840001483679522
 11
7.801951965875369
 21
4.840001483679522
 72
     1
 10
7.801951965875369
 20
4.840001483679522
 11
7.801951965875369
 21
4.914001483679525
 72
     1
 10
7.801951965875369
 20
4.914001483679525
 11
7.821951965875368
 21
4.914001483679522
 72
     1
 10
7.821951965875368
 20
4.914001483679522
 11
7.821951965875368
 21
4.893001483679523
 72
     1
 10
7.821951965875368
 20
4.893001483679523
 11
8.114797265336989
 21
4.893001483679523
 72
     1
 10
8.114797265336989
 20
4.893001483679523
 11
8.11595196587537
 21
4.895001483679524
 72
     1
 10
8.11595196587537
 20
4.895001483679524
 11
8.39963145779968
 21
4.895001483679522
 72
     1
 10
8.39963145779968
 20
4.895001483679522
 11
8.416951965875368
 21
4.905001483679523
 97
        0
 75
     0
 76
     1
 52
0.0
 41
1.0
 77
     0
 78
     1
 53
45.0
 43
0.0
 44
0.0
 45
-0.0883883476483184
 46
0.0883883476483184
 79
     0
 98
        1
 10
0.0
 20
0.0
  0
HATCH
  5
467
330
1F
100
AcDbEntity
  8
0
  6
Continuous
 62
     7
370
     0
100
AcDbHatch
 10
0.0
 20
0.0
 30
0.0
210
0.0
220
0.0
230
1.0
  2
ANSI31
 70
     0
 71
     0
 91
        1
 92
        0
 93
       26
 72
     1
 10
8.39963145779968
 20
3.883001483679522
 11
8.115951965875368
 21
3.883001483679522
 72
     1
 10
8.115951965875368
 20
3.883001483679522
 11
8.114797265336989
 21
3.885001483679521
 72
     1
 10
8.114797265336989
 20
3.885001483679521
 11
7.821951965875368
 21
3.885001483679521
 72
     1
 10
7.821951965875368
 20
3.885001483679521
 11
7.821951965875368
 21
3.86400148367952
 72
     1
 10
7.821951965875368
 20
3.86400148367952
 11
7.801951965875369
 21
3.864001483679519
 72
     1
 10
7.801951965875369
 20
3.864001483679519
 11
7.801951965875369
 21
3.938001483679521
 72
     1
 10
7.801951965875369
 20
3.938001483679521
 11
7.291951965875368
 21
3.938001483679521
 72
     1
 10
7.291951965875368
 20
3.938001483679521
 11
7.291951965875368
 21
3.86400148367952
 72
     1
 10
7.291951965875368
 20
3.86400148367952
 11
7.271951965875369
 21
3.864001483679519
 72
     1
 10
7.271951965875369
 20
3.864001483679519
 11
7.271951965875369
 21
3.885001483679521
 72
     1
 10
7.271951965875369
 20
3.885001483679521
 11
6.979106666413747
 21
3.885001483679521
 72
     1
 10
6.979106666413747
 20
3.885001483679521
 11
6.977951965875369
 21
3.883001483679522
 72
     1
 10
6.977951965875369
 20
3.883001483679522
 11
6.694272473951058
 21
3.883001483679522
 72
     1
 10
6.694272473951058
 20
3.883001483679522
 11
6.676951965875368
 21
3.873001483679521
 72
     1
 10
6.676951965875368
 20
3.873001483679521
 11
6.676951965875368
 21
3.799001483679521
 72
     1
 10
6.676951965875368
 20
3.799001483679521
 11
6.686951965875369
 21
3.789001483679521
 72
     1
 10
6.686951965875369
 20
3.789001483679521
 11
6.812211706135109
 21
3.789001483679521
 72
     1
 10
6.812211706135109
 20
3.789001483679521
 11
6.831951965875369
 21
3.789001483679521
 72
     1
 10
6.831951965875369
 20
3.789001483679521
 11
6.919023195323787
 21
3.789001483679521
 72
     1
 10
6.919023195323787
 20
3.789001483679521
 11
6.936022534255446
 21
3.789001483679521
 72
     1
 10
6.936022534255446
 20
3.789001483679521
 11
6.98374462645397
 21
3.789001483679521
 72
     1
 10
6.98374462645397
 20
3.789001483679521
 11
7.000673289946561
 21
3.789001483679521
 72
     1
 10
7.000673289946561
 20
3.789001483679521
 11
8.406951965875368
 21
3.789001483679521
 72
     1
 10
8.406951965875368
 20
3.789001483679521
 11
8.416951965875368
 21
3.799001483679521
 72
     1
 10
8.416951965875368
 20
3.799001483679521
 11
8.416951965875368
 21
3.873001483679521
 72
     1
 10
8.416951965875368
 20
3.873001483679521
 11
8.39963145779968
 21
3.883001483679522
 97
        0
 75
     0
 76
     1
 52
0.0
 41
1.0
 77
     0
 78
     1
 53
45.0
 43
0.0
 44
0.0
 45
-0.0883883476483184
 46
0.0883883476483184
 79
     0
 98
        1
 10
0.0
 20
0.0
  0
ENDSEC
  0
SECTION
  2
OBJECTS
  0
DICTIONARY
  5
C
330
0
100
AcDbDictionary
281
     1
  3
ACAD_GROUP
350
D
  3
ACAD_LAYOUT
350
1A
  3
ACAD_MLINESTYLE
350
17
  3
ACAD_PLOTSETTINGS
350
19
  3
ACAD_PLOTSTYLENAME
350
E
  0
DICTIONARY
  5
D
102
{ACAD_REACTORS
330
C
102
}
330
C
100
AcDbDictionary
281
     1
  0
DICTIONARY
  5
1A
102
{ACAD_REACTORS
330
C
102
}
330
C
100
AcDbDictionary
281
     1
  3
Layout1
350
1E
  3
Layout2
350
26
  3
Model
350
22
  0
DICTIONARY
  5
17
102
{ACAD_REACTORS
330
C
102
}
330
C
100
AcDbDictionary
281
     1
  3
Standard
350
18
  0
DICTIONARY
  5
19
102
{ACAD_REACTORS
330
C
102
}
330
C
100
AcDbDictionary
281
     1
  0
ACDBDICTIONARYWDFLT
  5
E
102
{ACAD_REACTORS
330
C
102
}
330
C
100
AcDbDictionary
281
     1
  3
Normal
350
F
100
AcDbDictionaryWithDefault
340
F
  0
LAYOUT
  5
1E
102
{ACAD_REACTORS
330
1A
102
}
330
1A
100
AcDbPlotSettings
  1

  2
none_device
  4

  6

 40
0.0
 41
0.0
 42
0.0
 43
0.0
 44
0.0
 45
0.0
 46
0.0
 47
0.0
 48
0.0
 49
0.0
140
0.0
141
0.0
142
1.0
143
1.0
 70
   688
 72
     0
 73
     0
 74
     5
  7

 75
    16
147
1.0
148
0.0
149
0.0
100
AcDbLayout
  1
Layout1
 70
     1
 71
     1
 10
0.0
 20
0.0
 11
12.0
 21
9.0
 12
0.0
 22
0.0
 32
0.0
 14
1.0000000000E+20
 24
1.0000000000E+20
 34
1.0000000000E+20
 15
-1.0000000000E+20
 25
-1.0000000000E+20
 35
-1.0000000000E+20
146
0.0
 13
0.0
 23
0.0
 33
0.0
 16
1.0
 26
0.0
 36
0.0
 17
0.0
 27
1.0
 37
0.0
 76
     0
330
1B
  0
LAYOUT
  5
26
102
{ACAD_REACTORS
330
1A
102
}
330
1A
100
AcDbPlotSettings
  1

  2
none_device
  4

  6

 40
0.0
 41
0.0
 42
0.0
 43
0.0
 44
0.0
 45
0.0
 46
0.0
 47
0.0
 48
0.0
 49
0.0
140
0.0
141
0.0
142
1.0
143
1.0
 70
   688
 72
     0
 73
     0
 74
     5
  7

 75
    16
147
1.0
148
0.0
149
0.0
100
AcDbLayout
  1
Layout2
 70
     1
 71
     2
 10
0.0
 20
0.0
 11
0.0
 21
0.0
 12
0.0
 22
0.0
 32
0.0
 14
0.0
 24
0.0
 34
0.0
 15
0.0
 25
0.0
 35
0.0
146
0.0
 13
0.0
 23
0.0
 33
0.0
 16
1.0
 26
0.0
 36
0.0
 17
0.0
 27
1.0
 37
0.0
 76
     0
330
23
  0
LAYOUT
  5
22
102
{ACAD_REACTORS
330
1A
102
}
330
1A
100
AcDbPlotSettings
  1

  2
none_device
  4

  6

 40
0.0
 41
0.0
 42
0.0
 43
0.0
 44
0.0
 45
0.0
 46
0.0
 47
0.0
 48
0.0
 49
0.0
140
0.0
141
0.0
142
1.0
143
1.0
 70
  1712
 72
     0
 73
     0
 74
     0
  7

 75
     0
147
1.0
148
0.0
149
0.0
100
AcDbLayout
  1
Model
 70
     1
 71
     0
 10
0.0
 20
0.0
 11
0.0
 21
0.0
 12
0.0
 22
0.0
 32
0.0
 14
0.0
 24
0.0
 34
0.0
 15
11.0
 25
8.5
 35
0.0
146
0.0
 13
0.0
 23
0.0
 33
0.0
 16
1.0
 26
0.0
 36
0.0
 17
0.0
 27
1.0
 37
0.0
 76
     0
330
1F
  0
MLINESTYLE
  5
18
102
{ACAD_REACTORS
330
17
102
}
330
17
100
AcDbMlineStyle
  2
Standard
 70
     0
  3

 62
   256
 51
90.0
 52
90.0
 71
     2
 49
0.5
 62
   256
  6
BYLAYER
 49
-0.5
 62
   256
  6
BYLAYER
  0
ACDBPLACEHOLDER
  5
F
102
{ACAD_REACTORS
330
E
102
}
330
E
  0
ENDSEC
  0
EOF
