  0
SECTION
  2
HEADER
  9
$ACADVER
  1
AC1012
  9
$DWGCODEPAGE
  3
ansi_1252
  9
$INSBASE
 10
0.0
 20
0.0
 30
0.0
  9
$EXTMIN
 10
0.0
 20
0.0
 30
0.0
  9
$EXTMAX
 10
279.4
 20
215.9
 30
0.0
  9
$LIMMIN
 10
0.0
 20
0.0
  9
$LIMMAX
 10
279.4
 20
215.9
  9
$ORTHOMODE
 70
     0
  9
$REGENMODE
 70
     1
  9
$FILLMODE
 70
     1
  9
$QTEXTMODE
 70
     0
  9
$MIRRTEXT
 70
     1
  9
$DRAGMODE
 70
     2
  9
$LTSCALE
 40
1.0
  9
$OSMODE
 70
    37
  9
$ATTMODE
 70
     1
  9
$TEXTSIZE
 40
2.8222222222
  9
$TRACEWID
 40
1.0
  9
$TEXTSTYLE
  7
STANDARD
  9
$CLAYER
  8
0
  9
$CELTYPE
  6
BYLAYER
  9
$CECOLOR
 62
   256
  9
$CELTSCALE
 40
1.0
  9
$DELOBJ
 70
     1
  9
$DISPSILH
 70
     0
  9
$DIMSCALE
 40
1.0
  9
$DIMASZ
 40
3.175
  9
$DIMEXO
 40
1.27
  9
$DIMDLI
 40
3.75
  9
$DIMRND
 40
0.0
  9
$DIMDLE
 40
0.0
  9
$DIMEXE
 40
1.778
  9
$DIMTP
 40
0.0
  9
$DIMTM
 40
0.0
  9
$DIMTXT
 40
2.8222222222
  9
$DIMCEN
 40
2.5
  9
$DIMTSZ
 40
0.0
  9
$DIMTOL
 70
     0
  9
$DIMLIM
 70
     0
  9
$DIMTIH
 70
     1
  9
$DIMTOH
 70
     1
  9
$DIMSE1
 70
     0
  9
$DIMSE2
 70
     0
  9
$DIMTAD
 70
     0
  9
$DIMZIN
 70
     1
  9
$DIMBLK
  1

  9
$DIMASO
 70
     1
  9
$DIMSHO
 70
     1
  9
$DIMPOST
  1

  9
$DIMAPOST
  1

  9
$DIMALT
 70
     0
  9
$DIMALTD
 70
     3
  9
$DIMALTF
 40
0.0393700787
  9
$DIMLFAC
 40
1.0
  9
$DIMTOFL
 70
     1
  9
$DIMTVP
 40
0.0
  9
$DIMTIX
 70
     0
  9
$DIMSOXD
 70
     0
  9
$DIMSAH
 70
     0
  9
$DIMBLK1
  1

  9
$DIMBLK2
  1

  9
$DIMSTYLE
  2
ISO-25
  9
$DIMCLRD
 70
     0
  9
$DIMCLRE
 70
     0
  9
$DIMCLRT
 70
     0
  9
$DIMTFAC
 40
1.0
  9
$DIMGAP
 40
2.54
  9
$DIMJUST
 70
     0
  9
$DIMSD1
 70
     0
  9
$DIMSD2
 70
     0
  9
$DIMTOLJ
 70
     0
  9
$DIMTZIN
 70
     1
  9
$DIMALTZ
 70
     0
  9
$DIMALTTZ
 70
     0
  9
$DIMFIT
 70
     3
  9
$DIMUPT
 70
     0
  9
$DIMUNIT
 70
     2
  9
$DIMDEC
 70
     1
  9
$DIMTDEC
 70
     1
  9
$DIMALTU
 70
     2
  9
$DIMALTTD
 70
     3
  9
$DIMTXSTY
  7
STANDARD
  9
$DIMAUNIT
 70
     0
  9
$LUNITS
 70
     2
  9
$LUPREC
 70
     1
  9
$SKETCHINC
 40
1.0
  9
$FILLETRAD
 40
10.0
  9
$AUNITS
 70
     0
  9
$AUPREC
 70
     0
  9
$MENU
  1
.
  9
$ELEVATION
 40
0.0
  9
$PELEVATION
 40
0.0
  9
$THICKNESS
 40
0.0
  9
$LIMCHECK
 70
     0
  9
$CHAMFERA
 40
0.0
  9
$CHAMFERB
 40
0.0
  9
$CHAMFERC
 40
0.0
  9
$CHAMFERD
 40
0.0
  9
$SKPOLY
 70
     0
  9
$TDCREATE
 40
2459523.588212836
  9
$TDUPDATE
 40
2459523.588215775
  9
$TDINDWG
 40
0.0000000116
  9
$TDUSRTIMER
 40
0.0000000116
  9
$USRTIMER
 70
     1
  9
$ANGBASE
 50
0.0
  9
$ANGDIR
 70
     0
  9
$PDMODE
 70
     0
  9
$PDSIZE
 40
-1.0
  9
$PLINEWID
 40
0.0
  9
$COORDS
 70
     1
  9
$SPLFRAME
 70
     0
  9
$SPLINETYPE
 70
     6
  9
$SPLINESEGS
 70
     8
  9
$ATTDIA
 70
     0
  9
$ATTREQ
 70
     1
  9
$HANDLING
 70
     1
  9
$HANDSEED
  5
380
  9
$SURFTAB1
 70
     6
  9
$SURFTAB2
 70
     6
  9
$SURFTYPE
 70
     6
  9
$SURFU
 70
     6
  9
$SURFV
 70
     6
  9
$UCSNAME
  2

  9
$UCSORG
 10
0.0
 20
0.0
 30
0.0
  9
$UCSXDIR
 10
1.0
 20
0.0
 30
0.0
  9
$UCSYDIR
 10
0.0
 20
1.0
 30
0.0
  9
$PUCSNAME
  2

  9
$PUCSORG
 10
0.0
 20
0.0
 30
0.0
  9
$PUCSXDIR
 10
1.0
 20
0.0
 30
0.0
  9
$PUCSYDIR
 10
0.0
 20
1.0
 30
0.0
  9
$USERI1
 70
     0
  9
$USERI2
 70
     0
  9
$USERI3
 70
     0
  9
$USERI4
 70
     0
  9
$USERI5
 70
     0
  9
$USERR1
 40
0.0
  9
$USERR2
 40
0.0
  9
$USERR3
 40
0.0
  9
$USERR4
 40
0.0
  9
$USERR5
 40
0.0
  9
$WORLDVIEW
 70
     1
  9
$SHADEDGE
 70
     3
  9
$SHADEDIF
 70
    70
  9
$TILEMODE
 70
     1
  9
$MAXACTVP
 70
    64
  9
$PINSBASE
 10
0.0
 20
0.0
 30
0.0
  9
$PLIMCHECK
 70
     0
  9
$PEXTMIN
 10
1.0000000000E+20
 20
1.0000000000E+20
 30
1.0000000000E+20
  9
$PEXTMAX
 10
-1.0000000000E+20
 20
-1.0000000000E+20
 30
-1.0000000000E+20
  9
$PLIMMIN
 10
0.0
 20
0.0
  9
$PLIMMAX
 10
420.0
 20
297.0
  9
$UNITMODE
 70
     0
  9
$VISRETAIN
 70
     1
  9
$PLINEGEN
 70
     0
  9
$PSLTSCALE
 70
     1
  9
$TREEDEPTH
 70
  3020
  9
$PICKSTYLE
 70
     1
  9
$CMLSTYLE
  2
STANDARD
  9
$CMLJUST
 70
     0
  9
$CMLSCALE
 40
20.0
  9
$SAVEIMAGES
 70
     1
  0
ENDSEC
  0
SECTION
  2
CLASSES
  0
CLASS
  1
ACDBDICTIONARYWDFLT
  2
AcDbDictionaryWithDefault
  3
ObjectDBX Classes
 90
    32768
280
     0
281
     0
  0
CLASS
  1
VISUALSTYLE
  2
AcDbVisualStyle
  3
ObjectDBX Classes
 90
     4095
280
     0
281
     0
  0
CLASS
  1
MATERIAL
  2
AcDbMaterial
  3
ObjectDBX Classes
 90
     1153
280
     0
281
     0
  0
CLASS
  1
SCALE
  2
AcDbScale
  3
ObjectDBX Classes
 90
     1153
280
     0
281
     0
  0
CLASS
  1
TABLESTYLE
  2
AcDbTableStyle
  3
ObjectDBX Classes
 90
     4095
280
     0
281
     0
  0
CLASS
  1
MLEADERSTYLE
  2
AcDbMLeaderStyle
  3
ACDB_MLEADERSTYLE_CLASS
 90
     4095
280
     0
281
     0
  0
CLASS
  1
SUN
  2
AcDbSun
  3
SCENEOE
 90
     1153
280
     0
281
     0
  0
CLASS
  1
XRECORD
  2
AcDbXrecord
  3
ObjectDBX Classes
 90
    32768
280
     0
281
     0
  0
ENDSEC
  0
SECTION
  2
TABLES
  0
TABLE
  2
VPORT
  5
8
330
0
100
AcDbSymbolTable
 70
     1
  0
VPORT
  5
29
330
8
100
AcDbSymbolTableRecord
100
AcDbViewportTableRecord
  2
*ACTIVE
 70
     0
 10
0.0
 20
0.0
 11
1.0
 21
1.0
 12
139.7
 22
107.95
 13
0.0
 23
0.0
 14
10.0
 24
10.0
 15
10.0
 25
10.0
 16
0.0
 26
0.0
 36
1.0
 17
0.0
 27
0.0
 37
0.0
 40
215.9
 41
1.2941176471
 42
50.0
 43
0.0
 44
0.0
 50
0.0
 51
0.0
 71
     0
 72
  2000
 73
     1
 74
     3
 75
     0
 76
     0
 77
     0
 78
     0
  0
ENDTAB
  0
TABLE
  2
LTYPE
  5
5
330
0
100
AcDbSymbolTable
 70
     8
  0
LTYPE
  5
14
330
5
100
AcDbSymbolTableRecord
100
AcDbLinetypeTableRecord
  2
BYBLOCK
 70
     0
  3

 72
    65
 73
     0
 40
0.0
  0
LTYPE
  5
15
330
5
100
AcDbSymbolTableRecord
100
AcDbLinetypeTableRecord
  2
BYLAYER
 70
     0
  3

 72
    65
 73
     0
 40
0.0
  0
LTYPE
  5
16
330
5
100
AcDbSymbolTableRecord
100
AcDbLinetypeTableRecord
  2
CONTINUOUS
 70
     0
  3
Solid line
 72
    65
 73
     0
 40
0.0
  0
LTYPE
  5
6E
330
5
100
AcDbSymbolTableRecord
100
AcDbLinetypeTableRecord
  2
SLD-SOLID
 70
     0
  3
SolidWorks Line Style
 72
    65
 73
     0
 40
0.0
  0
LTYPE
  5
6F
330
5
100
AcDbSymbolTableRecord
100
AcDbLinetypeTableRecord
  2
SLD-DASHED
 70
     0
  3
SolidWorks Line Style
 72
    65
 73
     2
 40
1.905
 49
1.27
 74
     0
 49
-0.635
 74
     0
  0
LTYPE
  5
70
330
5
100
AcDbSymbolTableRecord
100
AcDbLinetypeTableRecord
  2
SLD-PHANTOM
 70
     0
  3
SolidWorks Line Style
 72
    65
 73
     6
 40
12.7
 49
6.35
 74
     0
 49
-1.27
 74
     0
 49
1.27
 74
     0
 49
-1.27
 74
     0
 49
1.27
 74
     0
 49
-1.27
 74
     0
  0
LTYPE
  5
71
330
5
100
AcDbSymbolTableRecord
100
AcDbLinetypeTableRecord
  2
SLD-CHAIN
 70
     0
  3
SolidWorks Line Style
 72
    65
 73
     4
 40
10.16
 49
6.35
 74
     0
 49
-1.27
 74
     0
 49
1.27
 74
     0
 49
-1.27
 74
     0
  0
LTYPE
  5
72
330
5
100
AcDbSymbolTableRecord
100
AcDbLinetypeTableRecord
  2
SLD-CENTER
 70
     0
  3
SolidWorks Line Style
 72
    65
 73
     4
 40
19.05
 49
15.24
 74
     0
 49
-1.27
 74
     0
 49
1.27
 74
     0
 49
-1.27
 74
     0
  0
LTYPE
  5
73
330
5
100
AcDbSymbolTableRecord
100
AcDbLinetypeTableRecord
  2
SLD-STITCH
 70
     0
  3
SolidWorks Line Style
 72
    65
 73
     2
 40
0.635
 49
0.0
 74
     0
 49
-0.635
 74
     0
  0
LTYPE
  5
74
330
5
100
AcDbSymbolTableRecord
100
AcDbLinetypeTableRecord
  2
SLD-THIN-THICK-CHAIN
 70
     0
  3
SolidWorks Line Style
 72
    65
 73
     4
 40
10.16
 49
6.35
 74
     0
 49
-1.27
 74
     0
 49
1.27
 74
     0
 49
-1.27
 74
     0
  0
ENDTAB
  0
TABLE
  2
LAYER
  5
2
330
0
100
AcDbSymbolTable
 70
     2
  0
LAYER
  5
10
330
2
100
AcDbSymbolTableRecord
100
AcDbLayerTableRecord
  2
0
 70
     0
 62
     7
  6
CONTINUOUS
  0
LAYER
  5
75
330
2
100
AcDbSymbolTableRecord
100
AcDbLayerTableRecord
  2
FORMAT
 70
     0
 62
     7
  6
SLD-SOLID
  0
ENDTAB
  0
TABLE
  2
STYLE
  5
3
330
0
100
AcDbSymbolTable
 70
     7
  0
STYLE
  5
11
330
3
100
AcDbSymbolTableRecord
100
AcDbTextStyleTableRecord
  2
STANDARD
 70
     0
 40
0.0
 41
1.0
 50
0.0
 71
     0
 42
2.8222222222
  3
txt
  4

  0
STYLE
  5
9F
330
3
100
AcDbSymbolTableRecord
100
AcDbTextStyleTableRecord
  2
SLDTEXTSTYLE0
 70
     0
 40
0.0
 41
0.75
 50
0.0
 71
     0
 42
2.8222222222
  3
TXT
  4

  0
STYLE
  5
A7
330
3
100
AcDbSymbolTableRecord
100
AcDbTextStyleTableRecord
  2
SLDTEXTSTYLE1
 70
     0
 40
0.0
 41
0.75
 50
0.0
 71
     0
 42
2.8222222222
  3
TXT
  4
bigfont
  0
STYLE
  5
C1
330
3
100
AcDbSymbolTableRecord
100
AcDbTextStyleTableRecord
  2
SLDTEXTSTYLE2
 70
     0
 40
0.0
 41
0.7
 50
0.0
 71
     0
 42
2.8222222222
  3
TXT
  4

  0
STYLE
  5
C5
330
3
100
AcDbSymbolTableRecord
100
AcDbTextStyleTableRecord
  2
SLDTEXTSTYLE3
 70
     0
 40
0.0
 41
0.6896551724
 50
0.0
 71
     0
 42
2.8222222222
  3
TXT
  4

  0
STYLE
  5
D4
330
3
100
AcDbSymbolTableRecord
100
AcDbTextStyleTableRecord
  2
SLDTEXTSTYLE4
 70
     0
 40
0.0
 41
0.5525
 50
0.0
 71
     0
 42
2.8222222222
  3
TXT
  4

  0
STYLE
  5
D9
330
3
100
AcDbSymbolTableRecord
100
AcDbTextStyleTableRecord
  2
SLDTEXTSTYLE5
 70
     0
 40
0.0
 41
0.6875
 50
0.0
 71
     0
 42
2.8222222222
  3
TXT
  4

  0
ENDTAB
  0
TABLE
  2
VIEW
  5
6
330
0
100
AcDbSymbolTable
 70
     0
  0
ENDTAB
  0
TABLE
  2
UCS
  5
7
330
0
100
AcDbSymbolTable
 70
     0
  0
ENDTAB
  0
TABLE
  2
APPID
  5
9
330
0
100
AcDbSymbolTable
 70
     1
  0
APPID
  5
12
330
9
100
AcDbSymbolTableRecord
100
AcDbRegAppTableRecord
  2
ACAD
 70
     0
  0
ENDTAB
  0
TABLE
  2
DIMSTYLE
  5
A
330
0
100
AcDbSymbolTable
 70
     4
  0
DIMSTYLE
105
27
330
A
100
AcDbSymbolTableRecord
100
AcDbDimStyleTableRecord
  2
ISO-25
 70
     0
  3

  4

  5

  6

  7

 40
1.0
 41
2.5
 42
0.625
 43
3.75
 44
1.25
 45
0.0
 46
0.0
 47
0.0
 48
0.0
140
2.5
141
2.5
142
0.0
143
0.0393700787
144
1.0
145
0.0
146
1.0
147
0.625
 71
     0
 72
     0
 73
     0
 74
     0
 75
     0
 76
     0
 77
     1
 78
     8
170
     0
171
     3
172
     1
173
     0
174
     0
175
     0
176
     0
177
     0
178
     0
270
     2
271
     2
272
     2
273
     2
274
     3
340
11
275
     0
280
     0
281
     0
282
     0
283
     0
284
     8
285
     0
286
     0
287
     3
288
     0
  0
DIMSTYLE
105
F9
102
{ACAD_REACTORS
330
F8
102
}
330
A
100
AcDbSymbolTableRecord
100
AcDbDimStyleTableRecord
  2
SLDDIMSTYLE0
 70
     0
  3

  4

  5

  6

  7

 40
1.0
 41
3.175
 42
0.0625
 43
0.38
 44
0.0
 45
0.000000001
 46
0.0
 47
0.0
 48
0.0
140
2.1166666667
141
0.0
142
0.0
143
0.0393700787
144
1.0
145
0.0
146
1.0
147
0.5291666667
 71
     0
 72
     0
 73
     1
 74
     1
 75
     0
 76
     0
 77
     0
 78
    12
170
     1
171
     2
172
     0
173
     1
174
     0
175
     0
176
     0
177
     0
178
     0
270
     2
271
     1
272
     1
273
     2
274
     2
340
9F
275
     0
280
     0
281
     0
282
     0
283
     1
284
    12
285
     0
286
     0
287
     3
288
     0
  0
DIMSTYLE
105
118
102
{ACAD_REACTORS
330
117
102
}
330
A
100
AcDbSymbolTableRecord
100
AcDbDimStyleTableRecord
  2
SLDDIMSTYLE1
 70
     0
  3

  4

  5

  6

  7

 40
1.0
 41
3.175
 42
0.0625
 43
0.38
 44
0.0
 45
0.000000001
 46
0.0
 47
0.0
 48
0.0
140
2.1166666667
141
0.09
142
0.0
143
0.0393700787
144
1.0
145
0.0
146
1.0
147
0.5291666667
 71
     0
 72
     0
 73
     1
 74
     1
 75
     0
 76
     0
 77
     0
 78
     4
170
     1
171
     2
172
     1
173
     1
174
     0
175
     0
176
     0
177
     0
178
     0
270
     2
271
     1
272
     1
273
     2
274
     2
340
9F
275
     0
280
     0
281
     0
282
     0
283
     1
284
    12
285
     0
286
     0
288
     0
  0
DIMSTYLE
105
12B
330
A
100
AcDbSymbolTableRecord
100
AcDbDimStyleTableRecord
  2
SLDDIMSTYLE2
 70
     0
  3

  4

  5

  6

  7

 40
1.0
 41
3.175
 42
0.0625
 43
0.38
 44
0.0
 45
0.000000001
 46
0.0
 47
0.0
 48
0.0
140
0.18
141
0.09
142
0.0
143
25.4
144
1.0
145
0.0
146
3.175
147
0.0
 71
     0
 72
     0
 73
     1
 74
     1
 75
     0
 76
     0
 77
     0
 78
     0
170
     0
171
     2
172
     0
173
     1
174
     0
175
     0
176
     0
177
     0
178
     0
270
     2
271
     0
272
     0
273
     2
274
     2
340
11
275
     0
280
     0
281
     0
282
     0
283
     1
284
     0
285
     0
286
     0
287
     3
288
     0
  0
ENDTAB
  0
TABLE
  2
BLOCK_RECORD
  5
1
330
0
100
AcDbSymbolTable
 70
     9
  0
BLOCK_RECORD
  5
1F
330
1
100
AcDbSymbolTableRecord
100
AcDbBlockTableRecord
  2
*MODEL_SPACE
  0
BLOCK_RECORD
  5
1B
330
1
100
AcDbSymbolTableRecord
100
AcDbBlockTableRecord
  2
*PAPER_SPACE
  0
BLOCK_RECORD
  5
23
330
1
100
AcDbSymbolTableRecord
100
AcDbBlockTableRecord
  2
*PAPER_SPACE0
  0
BLOCK_RECORD
  5
76
330
1
100
AcDbSymbolTableRecord
100
AcDbBlockTableRecord
  2
THIRD_ANGLE_PROJECTION_BLO
  0
BLOCK_RECORD
  5
9C
330
1
100
AcDbSymbolTableRecord
100
AcDbBlockTableRecord
  2
SW_NOTE_0
  0
BLOCK_RECORD
  5
DB
330
1
100
AcDbSymbolTableRecord
100
AcDbBlockTableRecord
  2
SW_NOTE_1
  0
BLOCK_RECORD
  5
E1
330
1
100
AcDbSymbolTableRecord
100
AcDbBlockTableRecord
  2
SW_NOTE_2
  0
BLOCK_RECORD
  5
E8
330
1
100
AcDbSymbolTableRecord
100
AcDbBlockTableRecord
  2
SW_NOTE_3
  0
BLOCK_RECORD
  5
EE
330
1
100
AcDbSymbolTableRecord
100
AcDbBlockTableRecord
  2
SW_NOTE_4
  0
BLOCK_RECORD
  5
FA
330
1
100
AcDbSymbolTableRecord
100
AcDbBlockTableRecord
  2
_D
  0
BLOCK_RECORD
  5
119
330
1
100
AcDbSymbolTableRecord
100
AcDbBlockTableRecord
  2
_D_1
  0
ENDTAB
  0
ENDSEC
  0
SECTION
  2
BLOCKS
  0
BLOCK
  5
20
330
1F
100
AcDbEntity
  8
0
100
AcDbBlockBegin
  2
*MODEL_SPACE
 70
     0
 10
0.0
 20
0.0
 30
0.0
  3
*MODEL_SPACE
  1

  0
ENDBLK
  5
21
330
1F
100
AcDbEntity
  8
0
100
AcDbBlockEnd
  0
BLOCK
  5
1C
330
1B
100
AcDbEntity
 67
     1
  8
0
100
AcDbBlockBegin
  2
*PAPER_SPACE
 70
     0
 10
0.0
 20
0.0
 30
0.0
  3
*PAPER_SPACE
  1

  0
ENDBLK
  5
1D
330
1B
100
AcDbEntity
 67
     1
  8
0
100
AcDbBlockEnd
  0
BLOCK
  5
24
330
23
100
AcDbEntity
  8
0
100
AcDbBlockBegin
  2
*PAPER_SPACE0
 70
     0
 10
0.0
 20
0.0
 30
0.0
  3
*PAPER_SPACE0
  1

  0
ENDBLK
  5
25
330
23
100
AcDbEntity
  8
0
100
AcDbBlockEnd
  0
BLOCK
  5
77
330
76
100
AcDbEntity
  8
0
100
AcDbBlockBegin
  2
THIRD_ANGLE_PROJECTION_BLO
 70
     0
 10
0.0
 20
0.0
 30
0.0
  3
THIRD_ANGLE_PROJECTION_BLO
  1

  0
CIRCLE
  5
79
330
76
100
AcDbEntity
  8
0
  6
SLD-SOLID
 62
     7
100
AcDbCircle
 10
101.4766388944
 20
18.9404083667
 30
0.0
 40
1.768227153674871
  0
CIRCLE
  5
7A
330
76
100
AcDbEntity
  8
0
  6
SLD-SOLID
 62
     7
100
AcDbCircle
 10
101.4766388944
 20
18.9404083667
 30
0.0
 40
3.901228248531818
  0
LINE
  5
7B
330
76
100
AcDbEntity
  8
0
  6
SLD-CENTER
 62
     7
100
AcDbLine
 10
110.1367822585
 20
18.9404083667
 30
0.0
 11
119.4527334874
 21
18.9404083667
 31
0.0
  0
LINE
  5
7C
330
76
100
AcDbEntity
  8
0
  6
SLD-SOLID
 62
     7
100
AcDbLine
 10
111.0016388944
 20
20.7086355204
 30
0.0
 11
111.0016388944
 21
17.172181213
 31
0.0
  0
LINE
  5
7D
330
76
100
AcDbEntity
  8
0
  6
SLD-SOLID
 62
     7
100
AcDbLine
 10
111.0016388944
 20
17.172181213
 30
0.0
 11
118.6216388944
 21
15.1304083667
 31
0.0
  0
LINE
  5
7E
330
76
100
AcDbEntity
  8
0
  6
SLD-SOLID
 62
     7
100
AcDbLine
 10
118.6216388944
 20
15.1304083667
 30
0.0
 11
118.6216388944
 21
22.7504083667
 31
0.0
  0
LINE
  5
7F
330
76
100
AcDbEntity
  8
0
  6
SLD-SOLID
 62
     7
100
AcDbLine
 10
118.6216388944
 20
22.7504083667
 30
0.0
 11
111.0016388944
 21
20.7086355204
 31
0.0
  0
LINE
  5
80
330
76
100
AcDbEntity
  8
0
  6
SLD-CENTER
 62
     7
100
AcDbLine
 10
96.6025854619
 20
18.9404083667
 30
0.0
 11
106.3506923269
 21
18.9404083667
 31
0.0
  0
LINE
  5
81
330
76
100
AcDbEntity
  8
0
  6
SLD-CENTER
 62
     7
100
AcDbLine
 10
101.4766388944
 20
23.8144617992
 30
0.0
 11
101.4766388944
 21
14.0663549342
 31
0.0
  0
POINT
  5
82
330
76
100
AcDbEntity
  8
0
  6
CONTINUOUS
 62
     7
100
AcDbPoint
 10
101.4766388944
 20
18.9404083667
 30
0.0
  0
ENDBLK
  5
78
330
76
100
AcDbEntity
  8
0
100
AcDbBlockEnd
  0
BLOCK
  5
9D
330
9C
100
AcDbEntity
  8
0
100
AcDbBlockBegin
  2
SW_NOTE_0
 70
     0
 10
0.0
 20
0.0
 30
0.0
  3
SW_NOTE_0
  1

  0
MTEXT
  5
A0
330
9C
100
AcDbEntity
  8
0
  6
CONTINUOUS
 62
     0
100
AcDbMText
 10
0.0
 20
3.0695925553
 30
0.0
 40
2.38125
 41
0.0
 71
     1
 72
     1
  1
NOTES/SPECIFICATIONS:
  7
SLDTEXTSTYLE0
  0
MTEXT
  5
A1
330
9C
100
AcDbEntity
  8
0
  6
CONTINUOUS
 62
     0
100
AcDbMText
 10
9.9999997765
 20
-3.2804073679
 30
0.0
 40
2.38125
 41
0.0
 71
     1
 72
     1
  1
CLEAR APERTURE: >
  7
SLDTEXTSTYLE0
  0
MTEXT
  5
A2
330
9C
100
AcDbEntity
  8
0
  6
CONTINUOUS
 62
     0
100
AcDbMText
 10
39.5010411739
 20
-3.2804073679
 30
0.0
 40
2.38125
 41
0.0
 71
     1
 72
     1
  1
%%c
  7
SLDTEXTSTYLE0
  0
MTEXT
  5
A3
330
9C
100
AcDbEntity
  8
0
  6
CONTINUOUS
 62
     0
100
AcDbMText
 10
43.0954080075
 20
-3.2804073679
 30
0.0
 40
2.38125
 41
0.0
 71
     1
 72
     1
  1
43.2 mm
  7
SLDTEXTSTYLE0
  0
MTEXT
  5
A4
330
9C
100
AcDbEntity
  8
0
  6
CONTINUOUS
 62
     0
100
AcDbMText
 10
0.0
 20
-3.2804073679
 30
0.0
 40
2.38125
 41
0.0
 71
     1
 72
     1
  1
1.
  7
SLDTEXTSTYLE0
  0
MTEXT
  5
A5
330
9C
100
AcDbEntity
  8
0
  6
CONTINUOUS
 62
     0
100
AcDbMText
 10
9.9999997765
 20
-6.4554073296
 30
0.0
 40
2.38125
 41
0.0
 71
     1
 72
     1
  1
SURFACE QUALITY (S1): 10-5 SCRATCH-DIG
  7
SLDTEXTSTYLE0
  0
MTEXT
  5
A6
330
9C
100
AcDbEntity
  8
0
  6
CONTINUOUS
 62
     0
100
AcDbMText
 10
0.0
 20
-6.4554073296
 30
0.0
 40
2.38125
 41
0.0
 71
     1
 72
     1
  1
2.
  7
SLDTEXTSTYLE0
  0
MTEXT
  5
A8
330
9C
100
AcDbEntity
  8
0
  6
CONTINUOUS
 62
     0
100
AcDbMText
 10
9.9999997765
 20
-9.6304072912
 30
0.0
 40
2.38125
 41
0.0
 71
     1
 72
     1
  1
SURFACE FLATNESS (S1): \M+183C9/10 AT 633 nm
  7
SLDTEXTSTYLE1
  0
MTEXT
  5
A9
330
9C
100
AcDbEntity
  8
0
  6
CONTINUOUS
 62
     0
100
AcDbMText
 10
0.0
 20
-9.6304072912
 30
0.0
 40
2.38125
 41
0.0
 71
     1
 72
     1
  1
3.
  7
SLDTEXTSTYLE0
  0
MTEXT
  5
AA
330
9C
100
AcDbEntity
  8
0
  6
CONTINUOUS
 62
     0
100
AcDbMText
 10
40.0
 20
-12.8054072528
 30
0.0
 40
2.38125
 41
0.0
 71
     1
 72
     1
  1
(S2): FINE GRIND
  7
SLDTEXTSTYLE0
  0
MTEXT
  5
AB
330
9C
100
AcDbEntity
  8
0
  6
CONTINUOUS
 62
     0
100
AcDbMText
 10
9.9999997765
 20
-15.9804072144
 30
0.0
 40
2.38125
 41
0.0
 71
     1
 72
     1
  1
PARALLELISM: \U+2264 3 arcmin
  7
SLDTEXTSTYLE1
  0
MTEXT
  5
AC
330
9C
100
AcDbEntity
  8
0
  6
CONTINUOUS
 62
     0
100
AcDbMText
 10
0.0
 20
-15.9804072144
 30
0.0
 40
2.38125
 41
0.0
 71
     1
 72
     1
  1
4.
  7
SLDTEXTSTYLE0
  0
MTEXT
  5
AD
330
9C
100
AcDbEntity
  8
0
  6
CONTINUOUS
 62
     0
100
AcDbMText
 10
9.9999997765
 20
-19.1554071761
 30
0.0
 40
2.38125
 41
0.0
 71
     1
 72
     1
  1
THICKNESS TOLERANCE:
  7
SLDTEXTSTYLE0
  0
MTEXT
  5
AE
330
9C
100
AcDbEntity
  8
0
  6
CONTINUOUS
 62
     0
100
AcDbMText
 10
46.741804108
 20
-19.1554071761
 30
0.0
 40
2.38125
 41
0.0
 71
     1
 72
     1
  1
%%p
  7
SLDTEXTSTYLE0
  0
MTEXT
  5
AF
330
9C
100
AcDbEntity
  8
0
  6
CONTINUOUS
 62
     0
100
AcDbMText
 10
49.0119289607
 20
-19.1554071761
 30
0.0
 40
2.38125
 41
0.0
 71
     1
 72
     1
  1
0.2 mm
  7
SLDTEXTSTYLE0
  0
MTEXT
  5
B0
330
9C
100
AcDbEntity
  8
0
  6
CONTINUOUS
 62
     0
100
AcDbMText
 10
0.0
 20
-19.1554071761
 30
0.0
 40
2.38125
 41
0.0
 71
     1
 72
     1
  1
5.
  7
SLDTEXTSTYLE0
  0
MTEXT
  5
B1
330
9C
100
AcDbEntity
  8
0
  6
CONTINUOUS
 62
     0
100
AcDbMText
 10
9.9999997765
 20
-22.3304071377
 30
0.0
 40
2.38125
 41
0.0
 71
     1
 72
     1
  1
DIAMETER TOLERANCE: + 0.0/-0.1 mm
  7
SLDTEXTSTYLE0
  0
MTEXT
  5
B2
330
9C
100
AcDbEntity
  8
0
  6
CONTINUOUS
 62
     0
100
AcDbMText
 10
0.0
 20
-22.3304071377
 30
0.0
 40
2.38125
 41
0.0
 71
     1
 72
     1
  1
6.
  7
SLDTEXTSTYLE0
  0
MTEXT
  5
B3
330
9C
100
AcDbEntity
  8
0
  6
CONTINUOUS
 62
     0
100
AcDbMText
 10
9.9999997765
 20
-25.5054070993
 30
0.0
 40
2.38125
 41
0.0
 71
     1
 72
     1
  1
DESIGN WAVELENGTH RANGE: 750-1100 nm
  7
SLDTEXTSTYLE0
  0
MTEXT
  5
B4
330
9C
100
AcDbEntity
  8
0
  6
CONTINUOUS
 62
     0
100
AcDbMText
 10
0.0
 20
-25.5054070993
 30
0.0
 40
2.38125
 41
0.0
 71
     1
 72
     1
  1
7.
  7
SLDTEXTSTYLE0
  0
MTEXT
  5
B5
330
9C
100
AcDbEntity
  8
0
  6
CONTINUOUS
 62
     0
100
AcDbMText
 10
9.9999997765
 20
-28.680407061
 30
0.0
 40
2.38125
 41
0.0
 71
     1
 72
     1
  1
COATING: BROADBAND HR, DIELECTRIC
  7
SLDTEXTSTYLE0
  0
MTEXT
  5
B6
330
9C
100
AcDbEntity
  8
0
  6
CONTINUOUS
 62
     0
100
AcDbMText
 10
0.0
 20
-28.680407061
 30
0.0
 40
2.38125
 41
0.0
 71
     1
 72
     1
  1
8.
  7
SLDTEXTSTYLE0
  0
MTEXT
  5
B7
330
9C
100
AcDbEntity
  8
0
  6
CONTINUOUS
 62
     0
100
AcDbMText
 10
10.0
 20
-31.8554070226
 30
0.0
 40
2.38125
 41
0.0
 71
     1
 72
     1
  1
R
  7
SLDTEXTSTYLE0
  0
MTEXT
  5
B8
330
9C
100
AcDbEntity
  8
0
  6
CONTINUOUS
 62
     0
100
AcDbMText
 10
11.9270486664
 20
-32.6448892574
 30
0.0
 40
1.5875
 41
0.0
 71
     1
 72
     1
  1
s
  7
SLDTEXTSTYLE0
  0
MTEXT
  5
B9
330
9C
100
AcDbEntity
  8
0
  6
CONTINUOUS
 62
     0
100
AcDbMText
 10
13.6247917451
 20
-32.6448892574
 30
0.0
 40
1.5875
 41
0.0
 71
     1
 72
     1
  1
avg
  7
SLDTEXTSTYLE0
  0
MTEXT
  5
BA
330
9C
100
AcDbEntity
  8
0
  6
CONTINUOUS
 62
     0
100
AcDbMText
 10
17.6670371927
 20
-31.8554070226
 30
0.0
 40
2.38125
 41
0.0
 71
     1
 72
     1
  1
: >99% FROM 750-1100 nm
  7
SLDTEXTSTYLE0
  0
MTEXT
  5
BB
330
9C
100
AcDbEntity
  8
0
  6
CONTINUOUS
 62
     0
100
AcDbMText
 10
10.0
 20
-35.0304069842
 30
0.0
 40
2.38125
 41
0.0
 71
     1
 72
     1
  1
R
  7
SLDTEXTSTYLE0
  0
MTEXT
  5
BC
330
9C
100
AcDbEntity
  8
0
  6
CONTINUOUS
 62
     0
100
AcDbMText
 10
11.9270486664
 20
-35.819889219
 30
0.0
 40
1.5875
 41
0.0
 71
     1
 72
     1
  1
p
  7
SLDTEXTSTYLE0
  0
MTEXT
  5
BD
330
9C
100
AcDbEntity
  8
0
  6
CONTINUOUS
 62
     0
100
AcDbMText
 10
14.2480323464
 20
-35.819889219
 30
0.0
 40
1.5875
 41
0.0
 71
     1
 72
     1
  1
avg
  7
SLDTEXTSTYLE0
  0
MTEXT
  5
BE
330
9C
100
AcDbEntity
  8
0
  6
CONTINUOUS
 62
     0
100
AcDbMText
 10
18.290277794
 20
-35.0304069842
 30
0.0
 40
2.38125
 41
0.0
 71
     1
 72
     1
  1
: >99% FROM 750-1100 nm
  7
SLDTEXTSTYLE0
  0
MTEXT
  5
BF
330
9C
100
AcDbEntity
  8
0
  6
CONTINUOUS
 62
     0
100
AcDbMText
 10
10.0
 20
-38.2054069459
 30
0.0
 40
2.38125
 41
0.0
 71
     1
 72
     1
  1
AOI: 0
  7
SLDTEXTSTYLE0
  0
MTEXT
  5
C0
330
9C
100
AcDbEntity
  8
0
  6
CONTINUOUS
 62
     0
100
AcDbMText
 10
19.344201535
 20
-38.2054069459
 30
0.0
 40
2.38125
 41
0.0
 71
     1
 72
     1
  1
%%d
  7
SLDTEXTSTYLE0
  0
MTEXT
  5
C2
330
9C
100
AcDbEntity
  8
0
  6
CONTINUOUS
 62
     0
100
AcDbMText
 10
21.7505871639
 20
-38.2054069459
 30
0.0
 40
2.38125
 41
0.0
 71
     1
 72
     1
  1
TO 45
  7
SLDTEXTSTYLE2
  0
MTEXT
  5
C3
330
9C
100
AcDbEntity
  8
0
  6
CONTINUOUS
 62
     0
100
AcDbMText
 10
9.9999997765
 20
-41.3804069075
 30
0.0
 40
2.38125
 41
0.0
 71
     1
 72
     1
  1
DAMAGE THRESHOLD: 0.5 J/cm
  7
SLDTEXTSTYLE0
  0
MTEXT
  5
C4
330
9C
100
AcDbEntity
  8
0
  6
CONTINUOUS
 62
     0
100
AcDbMText
 10
57.8102078289
 20
-41.333559084
 30
0.0
 40
1.3229166667
 41
0.0
 71
     1
 72
     1
  1
2
  7
SLDTEXTSTYLE0
  0
MTEXT
  5
C6
330
9C
100
AcDbEntity
  8
0
  6
CONTINUOUS
 62
     0
100
AcDbMText
 10
59.6806666762
 20
-41.3804069075
 30
0.0
 40
2.38125
 41
0.0
 71
     1
 72
     1
  1
10 ns PULSE, 10 Hz AT 1064 nm
  7
SLDTEXTSTYLE3
  0
MTEXT
  5
C7
330
9C
100
AcDbEntity
  8
0
  6
CONTINUOUS
 62
     0
100
AcDbMText
 10
0.0
 20
-41.3804069075
 30
0.0
 40
2.38125
 41
0.0
 71
     1
 72
     1
  1
9.
  7
SLDTEXTSTYLE0
  0
ENDBLK
  5
9E
330
9C
100
AcDbEntity
  8
0
100
AcDbBlockEnd
  0
BLOCK
  5
DC
330
DB
100
AcDbEntity
  8
0
100
AcDbBlockBegin
  2
SW_NOTE_1
 70
     0
 10
0.0
 20
0.0
 30
0.0
  3
SW_NOTE_1
  1

  0
MTEXT
  5
DE
330
DB
100
AcDbEntity
  8
0
  6
CONTINUOUS
 62
     0
100
AcDbMText
 10
19.90725
 20
1.9645392354
 30
0.0
 40
1.524
 41
0.0
 71
     2
 72
     1
  1
VALUES IN PARENTHESIS ARE CALCULATED
  7
SLDTEXTSTYLE0
  0
MTEXT
  5
DF
330
DB
100
AcDbEntity
  8
0
  6
CONTINUOUS
 62
     0
100
AcDbMText
 10
19.8778795174
 20
-0.5594606586
 30
0.0
 40
1.524
 41
0.0
 71
     2
 72
     1
  1
AND MAY CONTAIN ROUNDOFF ERRORS
  7
SLDTEXTSTYLE0
  0
ENDBLK
  5
DD
330
DB
100
AcDbEntity
  8
0
100
AcDbBlockEnd
  0
BLOCK
  5
E2
330
E1
100
AcDbEntity
  8
0
100
AcDbBlockBegin
  2
SW_NOTE_2
 70
     0
 10
0.0
 20
0.0
 30
0.0
  3
SW_NOTE_2
  1

  0
MTEXT
  5
E4
330
E1
100
AcDbEntity
  8
0
  6
CONTINUOUS
 62
     0
100
AcDbMText
 10
0.0
 20
2.7285267159
 30
0.0
 40
2.1166666667
 41
0.0
 71
     1
 72
     1
  1
DRAWING
  7
SLDTEXTSTYLE0
  0
MTEXT
  5
E5
330
E1
100
AcDbEntity
  8
0
  6
CONTINUOUS
 62
     0
100
AcDbMText
 10
0.0
 20
-0.0936954723
 30
0.0
 40
2.1166666667
 41
0.0
 71
     1
 72
     1
  1
PROJECTION
  7
SLDTEXTSTYLE0
  0
ENDBLK
  5
E3
330
E1
100
AcDbEntity
  8
0
100
AcDbBlockEnd
  0
BLOCK
  5
E9
330
E8
100
AcDbEntity
  8
0
100
AcDbBlockBegin
  2
SW_NOTE_3
 70
     0
 10
0.0
 20
0.0
 30
0.0
  3
SW_NOTE_3
  1

  0
MTEXT
  5
EB
330
E8
100
AcDbEntity
  8
0
  6
CONTINUOUS
 62
     0
100
AcDbMText
 10
25.052734375
 20
4.0927900738
 30
0.0
 40
3.175
 41
0.0
 71
     2
 72
     1
  1
FOR INFORMATION ONLY
  7
SLDTEXTSTYLE0
  0
MTEXT
  5
EC
330
E8
100
AcDbEntity
  8
0
  6
CONTINUOUS
 62
     0
100
AcDbMText
 10
25.3768468589
 20
-0.1405432084
 30
0.0
 40
3.175
 41
0.0
 71
     2
 72
     1
  1
NOT FOR MANUFACTURING PURPOSES
  7
SLDTEXTSTYLE0
  0
ENDBLK
  5
EA
330
E8
100
AcDbEntity
  8
0
100
AcDbBlockEnd
  0
BLOCK
  5
EF
330
EE
100
AcDbEntity
  8
0
100
AcDbBlockBegin
  2
SW_NOTE_4
 70
     0
 10
0.0
 20
0.0
 30
0.0
  3
SW_NOTE_4
  1

  0
MTEXT
  5
F1
330
EE
100
AcDbEntity
  8
0
  6
CONTINUOUS
 62
     0
100
AcDbMText
 10
1.6430625
 20
2.9468088531
 30
0.0
 40
2.286
 41
0.0
 71
     2
 72
     1
  1
%%c
  7
SLDTEXTSTYLE0
  0
MTEXT
  5
F2
330
EE
100
AcDbEntity
  8
0
  6
CONTINUOUS
 62
     0
100
AcDbMText
 10
25.4146051148
 20
2.9468088531
 30
0.0
 40
2.286
 41
0.0
 71
     2
 72
     1
  1
50.8 mm BROADBAND MIRROR
  7
SLDTEXTSTYLE0
  0
MTEXT
  5
F3
330
EE
100
AcDbEntity
  8
0
  6
CONTINUOUS
 62
     0
100
AcDbMText
 10
24.5218746136
 20
-0.3391912552
 30
0.0
 40
2.286
 41
0.0
 71
     2
 72
     1
  1
750-1100 nm
  7
SLDTEXTSTYLE0
  0
ENDBLK
  5
F0
330
EE
100
AcDbEntity
  8
0
100
AcDbBlockEnd
  0
BLOCK
  5
FB
330
FA
100
AcDbEntity
  8
0
100
AcDbBlockBegin
  2
_D
 70
     0
 10
0.0
 20
0.0
 30
0.0
  3
_D
  1

  0
SOLID
  5
FD
330
FA
100
AcDbEntity
  8
0
  6
SLD-SOLID
 62
     7
100
AcDbTrace
 10
71.5071604245
 20
126.195031622
 30
0.0
 11
74.1114346996
 21
128.0808854074
 31
0.0
 12
73.39301421
 22
128.7993058971
 32
0.0
 13
73.39301421
 23
128.7993058971
 33
0.0
  0
LINE
  5
FE
330
FA
100
AcDbEntity
  8
0
  6
SLD-SOLID
 62
     7
100
AcDbLine
 10
83.0774462393
 20
131.0895134121
 30
0.0
 11
82.4336267852
 21
131.0895134121
 31
0.0
  0
LINE
  5
FF
330
FA
100
AcDbEntity
  8
0
  6
SLD-SOLID
 62
     7
100
AcDbLine
 10
82.4336267852
 20
131.0895134121
 30
0.0
 11
82.4336267852
 21
127.7263653357
 31
0.0
  0
LINE
  5
100
330
FA
100
AcDbEntity
  8
0
  6
SLD-SOLID
 62
     7
100
AcDbLine
 10
82.4336267852
 20
127.7263653357
 30
0.0
 11
83.0774462393
 21
127.7263653357
 31
0.0
  0
LINE
  5
101
330
FA
100
AcDbEntity
  8
0
  6
SLD-SOLID
 62
     7
100
AcDbLine
 10
90.8346377856
 20
131.0895134121
 30
0.0
 11
91.4784572397
 21
131.0895134121
 31
0.0
  0
LINE
  5
102
330
FA
100
AcDbEntity
  8
0
  6
SLD-SOLID
 62
     7
100
AcDbLine
 10
91.4784572397
 20
131.0895134121
 30
0.0
 11
91.4784572397
 21
127.7263653357
 31
0.0
  0
LINE
  5
103
330
FA
100
AcDbEntity
  8
0
  6
SLD-SOLID
 62
     7
100
AcDbLine
 10
91.4784572397
 20
127.7263653357
 30
0.0
 11
90.8346377856
 21
127.7263653357
 31
0.0
  0
LINE
  5
104
330
FA
100
AcDbEntity
  8
0
  6
SLD-SOLID
 62
     7
100
AcDbLine
 10
71.5071604245
 20
126.195031622
 30
0.0
 11
77.9798073311
 21
132.6676785285
 31
0.0
  0
LINE
  5
105
330
FA
100
AcDbEntity
  8
0
  6
SLD-SOLID
 62
     7
100
AcDbLine
 10
77.9798073311
 20
132.6676785285
 30
0.0
 11
81.7898073311
 21
132.6676785285
 31
0.0
  0
MTEXT
  5
106
330
FA
100
AcDbEntity
  8
0
  6
SLD-SOLID
 62
     7
100
AcDbMText
 10
81.7898073311
 20
134.2472530586
 30
0.0
 40
2.1166666667
 41
0.0
 71
     1
 72
     1
  1
%%c
  7
SLDTEXTSTYLE0
  0
MTEXT
  5
107
330
FA
100
AcDbEntity
  8
0
  6
SLD-SOLID
 62
     7
100
AcDbMText
 10
84.9847981317
 20
134.2472530586
 30
0.0
 40
2.1166666667
 41
0.0
 71
     1
 72
     1
  1
50.8mm
  7
SLDTEXTSTYLE0
  0
MTEXT
  5
108
330
FA
100
AcDbEntity
  8
0
  6
SLD-SOLID
 62
     7
100
AcDbMText
 10
83.0774462393
 20
130.4548919351
 30
0.0
 40
2.1166666667
 41
0.0
 71
     1
 72
     1
  1
2.00in
  7
SLDTEXTSTYLE0
  0
ENDBLK
  5
FC
330
FA
100
AcDbEntity
  8
0
100
AcDbBlockEnd
  0
BLOCK
  5
11A
330
119
100
AcDbEntity
  8
0
100
AcDbBlockBegin
  2
_D_1
 70
     0
 10
0.0
 20
0.0
 30
0.0
  3
_D_1
  1

  0
SOLID
  5
11C
330
119
100
AcDbEntity
  8
0
  6
SLD-SOLID
 62
     7
100
AcDbTrace
 10
146.8940977948
 20
145.1725142378
 30
0.0
 11
150.0690977948
 21
144.6645142378
 31
0.0
 12
150.0690977948
 22
145.6805142378
 32
0.0
 13
150.0690977948
 23
145.6805142378
 33
0.0
  0
SOLID
  5
11D
330
119
100
AcDbEntity
  8
0
  6
SLD-SOLID
 62
     7
100
AcDbTrace
 10
134.8940977948
 20
145.1725142378
 30
0.0
 11
131.7190977948
 21
145.6805142378
 31
0.0
 12
131.7190977948
 22
144.6645142378
 32
0.0
 13
131.7190977948
 23
144.6645142378
 33
0.0
  0
LINE
  5
11E
330
119
100
AcDbEntity
  8
0
  6
SLD-SOLID
 62
     7
100
AcDbLine
 10
136.1813094786
 20
144.9215237199
 30
0.0
 11
136.1813094786
 21
142.076964518
 31
0.0
  0
LINE
  5
11F
330
119
100
AcDbEntity
  8
0
  6
SLD-SOLID
 62
     7
100
AcDbLine
 10
136.1813094786
 20
142.076964518
 30
0.0
 11
136.6034647838
 21
142.076964518
 31
0.0
  0
LINE
  5
120
330
119
100
AcDbEntity
  8
0
  6
SLD-SOLID
 62
     7
100
AcDbLine
 10
136.1813094786
 20
144.9215237199
 30
0.0
 11
136.6034647838
 21
144.9215237199
 31
0.0
  0
LINE
  5
121
330
119
100
AcDbEntity
  8
0
  6
SLD-SOLID
 62
     7
100
AcDbLine
 10
145.6068861109
 20
144.9215237199
 30
0.0
 11
145.6068861109
 21
142.076964518
 31
0.0
  0
LINE
  5
122
330
119
100
AcDbEntity
  8
0
  6
SLD-SOLID
 62
     7
100
AcDbLine
 10
145.6068861109
 20
142.076964518
 30
0.0
 11
145.1847308058
 21
142.076964518
 31
0.0
  0
LINE
  5
123
330
119
100
AcDbEntity
  8
0
  6
SLD-SOLID
 62
     7
100
AcDbLine
 10
145.6068861109
 20
144.9215237199
 30
0.0
 11
145.1847308058
 21
144.9215237199
 31
0.0
  0
LINE
  5
124
330
119
100
AcDbEntity
  8
0
  6
SLD-SOLID
 62
     7
100
AcDbLine
 10
146.8940977948
 20
134.6545193798
 30
0.0
 11
146.8940977948
 21
146.9505142378
 31
0.0
  0
LINE
  5
125
330
119
100
AcDbEntity
  8
0
  6
SLD-SOLID
 62
     7
100
AcDbLine
 10
134.8940977948
 20
134.6545193798
 30
0.0
 11
134.8940977948
 21
146.9505142378
 31
0.0
  0
LINE
  5
126
330
119
100
AcDbEntity
  8
0
  6
SLD-SOLID
 62
     7
100
AcDbLine
 10
146.8940977948
 20
145.1725142378
 30
0.0
 11
153.2440977948
 21
145.1725142378
 31
0.0
  0
LINE
  5
127
330
119
100
AcDbEntity
  8
0
  6
SLD-SOLID
 62
     7
100
AcDbLine
 10
134.8940977948
 20
145.1725142378
 30
0.0
 11
128.5440977948
 21
145.1725142378
 31
0.0
  0
MTEXT
  5
128
330
119
100
AcDbEntity
  8
0
  6
SLD-SOLID
 62
     7
100
AcDbMText
 10
135.5212120923
 20
147.9010408372
 30
0.0
 40
2.1166666667
 41
0.0
 71
     1
 72
     1
  1
12.0mm
  7
SLDTEXTSTYLE0
  0
MTEXT
  5
129
330
119
100
AcDbEntity
  8
0
  6
SLD-SOLID
 62
     7
100
AcDbMText
 10
137.025620089
 20
144.5545005997
 30
0.0
 40
2.1166666667
 41
0.0
 71
     1
 72
     1
  1
0.47in
  7
SLDTEXTSTYLE0
  0
ENDBLK
  5
11B
330
119
100
AcDbEntity
  8
0
100
AcDbBlockEnd
  0
ENDSEC
  0
SECTION
  2
ENTITIES
  0
LINE
  5
83
330
1F
100
AcDbEntity
  8
0
  6
SLD-SOLID
 62
     7
100
AcDbLine
 10
1.5793501011
 20
214.6453799966
 30
0.0
 11
277.9892068491
 21
214.6453799966
 31
0.0
  0
LINE
  5
84
330
1F
100
AcDbEntity
  8
0
  6
SLD-SOLID
 62
     7
100
AcDbLine
 10
1.5793501011
 20
214.6453799966
 30
0.0
 11
1.5793501011
 21
0.9031642596
 31
0.0
  0
LINE
  5
85
330
1F
100
AcDbEntity
  8
0
  6
SLD-SOLID
 62
     7
100
AcDbLine
 10
277.9892068491
 20
0.9031642596
 30
0.0
 11
1.5793501011
 21
0.9031642596
 31
0.0
  0
LINE
  5
86
330
1F
100
AcDbEntity
  8
0
  6
SLD-SOLID
 62
     7
100
AcDbLine
 10
277.9892068491
 20
0.9031642596
 30
0.0
 11
277.9892068491
 21
214.6453799966
 31
0.0
  0
LINE
  5
87
330
1F
100
AcDbEntity
  8
0
  6
SLD-SOLID
 62
     7
100
AcDbLine
 10
215.7427640041
 20
12.2958890132
 30
0.0
 11
171.6327596684
 21
12.2958890132
 31
0.0
  0
LINE
  5
88
330
1F
100
AcDbEntity
  8
0
  6
SLD-SOLID
 62
     7
100
AcDbLine
 10
171.6327596684
 20
12.2958890132
 30
0.0
 11
171.6327596684
 21
26.1661402506
 31
0.0
  0
LINE
  5
89
330
1F
100
AcDbEntity
  8
0
  6
SLD-SOLID
 62
     7
100
AcDbLine
 10
171.6327596684
 20
0.9031642596
 30
0.0
 11
171.6327596684
 21
26.1661402506
 31
0.0
  0
LINE
  5
8A
330
1F
100
AcDbEntity
  8
0
  6
SLD-SOLID
 62
     7
100
AcDbLine
 10
215.7427640041
 20
17.1604579552
 30
0.0
 11
277.9892068491
 21
17.1604579552
 31
0.0
  0
LINE
  5
8B
330
1F
100
AcDbEntity
  8
0
  6
SLD-SOLID
 62
     7
100
AcDbLine
 10
215.7427640041
 20
35.2394508358
 30
0.0
 11
215.7427640041
 21
0.9031642596
 31
0.0
  0
LINE
  5
8C
330
1F
100
AcDbEntity
  8
0
  6
SLD-SOLID
 62
     7
100
AcDbLine
 10
215.7427640041
 20
26.1661402506
 30
0.0
 11
171.6327596684
 21
26.1661402506
 31
0.0
  0
LINE
  5
8D
330
1F
100
AcDbEntity
  8
0
  6
SLD-SOLID
 62
     7
100
AcDbLine
 10
215.7427640041
 20
9.1409200612
 30
0.0
 11
277.9892068491
 21
9.1409200612
 31
0.0
  0
LINE
  5
8E
330
1F
100
AcDbEntity
  8
0
  6
SLD-SOLID
 62
     7
100
AcDbLine
 10
215.7427640041
 20
16.9216824031
 30
0.0
 11
171.6327596684
 21
16.9216824031
 31
0.0
  0
LINE
  5
8F
330
1F
100
AcDbEntity
  8
0
  6
SLD-SOLID
 62
     7
100
AcDbLine
 10
215.7427640041
 20
21.4874005542
 30
0.0
 11
171.6327596684
 21
21.4874005542
 31
0.0
  0
LINE
  5
90
330
1F
100
AcDbEntity
  8
0
  6
SLD-SOLID
 62
     7
100
AcDbLine
 10
186.1338100705
 20
26.1661402506
 30
0.0
 11
186.1338100705
 21
12.2958890132
 31
0.0
  0
LINE
  5
91
330
1F
100
AcDbEntity
  8
0
  6
SLD-SOLID
 62
     7
100
AcDbLine
 10
198.2145906188
 20
26.1661402506
 30
0.0
 11
198.2145906188
 21
12.2958890132
 31
0.0
  0
LINE
  5
92
330
1F
100
AcDbEntity
  8
0
  6
SLD-SOLID
 62
     7
100
AcDbLine
 10
253.7490408369
 20
9.1409200612
 30
0.0
 11
253.7490408369
 21
0.9031642596
 31
0.0
  0
LINE
  5
93
330
1F
100
AcDbEntity
  8
0
  6
SLD-SOLID
 62
     7
100
AcDbLine
 10
171.6327596684
 20
12.2958890132
 30
0.0
 11
171.6327596684
 21
7.5627342528
 31
0.0
  0
LINE
  5
94
330
1F
100
AcDbEntity
  8
0
  6
SLD-SOLID
 62
     7
100
AcDbLine
 10
171.6327596684
 20
7.5627342528
 30
0.0
 11
215.7427640041
 21
7.5627342528
 31
0.0
  0
LINE
  5
95
330
1F
100
AcDbEntity
  8
0
  6
SLD-SOLID
 62
     7
100
AcDbLine
 10
171.6327596684
 20
7.5627342528
 30
0.0
 11
171.6327596684
 21
35.2394508358
 31
0.0
  0
LINE
  5
96
330
1F
100
AcDbEntity
  8
0
  6
SLD-SOLID
 62
     7
100
AcDbLine
 10
171.6327596684
 20
35.2394508358
 30
0.0
 11
215.7427640041
 21
35.2394508358
 31
0.0
  0
LINE
  5
97
330
1F
100
AcDbEntity
  8
0
  6
SLD-SOLID
 62
     7
100
AcDbLine
 10
270.1683598194
 20
17.1604579552
 30
0.0
 11
270.1683598194
 21
9.1409200612
 31
0.0
  0
LINE
  5
98
330
1F
100
AcDbEntity
  8
0
  6
SLD-SOLID
 62
     7
100
AcDbLine
 10
215.7427640041
 20
35.2394508358
 30
0.0
 11
277.9892068491
 21
35.2394508358
 31
0.0
  0
LINE
  5
99
330
1F
100
AcDbEntity
  8
0
  6
SLD-SOLID
 62
     7
100
AcDbLine
 10
277.9892068491
 20
35.2394508358
 30
0.0
 11
277.9892068491
 21
50.0331356147
 31
0.0
  0
LINE
  5
9A
330
1F
100
AcDbEntity
  8
0
  6
SLD-SOLID
 62
     7
100
AcDbLine
 10
215.7427640041
 20
24.8927335446
 30
0.0
 11
277.9892068491
 21
24.8927335446
 31
0.0
  0
INSERT
  5
9B
330
1F
100
AcDbEntity
  8
0
  6
CONTINUOUS
 62
     7
100
AcDbBlockReference
  2
THIRD_ANGLE_PROJECTION_BLO
 10
117.7262204235
 20
15.5162339489
 30
0.0
 41
0.8
 42
0.8
 43
0.8
  0
INSERT
  5
C8
330
1F
100
AcDbEntity
  8
0
  6
CONTINUOUS
 62
     7
100
AcDbBlockReference
  2
SW_NOTE_0
 10
7.7493665909
 20
66.7459442206
 30
0.0
  0
MTEXT
  5
C9
330
1F
100
AcDbEntity
  8
0
  6
CONTINUOUS
 62
     7
100
AcDbMText
 10
274.3001627607
 20
13.2559386876
 30
0.0
 40
3.175
 41
0.0
 71
     2
 72
     1
  1
E
  7
SLDTEXTSTYLE0
  0
MTEXT
  5
CA
330
1F
100
AcDbEntity
  8
0
  6
CONTINUOUS
 62
     7
100
AcDbMText
 10
234.6884361393
 20
5.1306563898
 30
0.0
 40
3.175
 41
0.0
 71
     2
 72
     1
  1
BB2-E03
  7
SLDTEXTSTYLE0
  0
MTEXT
  5
CB
330
1F
100
AcDbEntity
  8
0
  6
CONTINUOUS
 62
     7
100
AcDbMText
 10
216.4199766059
 20
16.8243178599
 30
0.0
 40
2.1166666667
 41
0.0
 71
     1
 72
     1
  1
MATERIAL
  7
SLDTEXTSTYLE0
  0
MTEXT
  5
CC
330
1F
100
AcDbEntity
  8
0
  6
CONTINUOUS
 62
     7
100
AcDbMText
 10
174.230946566
 20
20.054553926
 30
0.0
 40
1.8520833333
 41
0.0
 71
     1
 72
     1
  1
DRAWN
  7
SLDTEXTSTYLE0
  0
MTEXT
  5
CD
330
1F
100
AcDbEntity
  8
0
  6
CONTINUOUS
 62
     7
100
AcDbMText
 10
172.3960124543
 20
15.5787169747
 30
0.0
 40
1.8520833333
 41
0.0
 71
     1
 72
     1
  1
APPROVAL
  7
SLDTEXTSTYLE0
  0
MTEXT
  5
CE
330
1F
100
AcDbEntity
  8
0
  6
CONTINUOUS
 62
     7
100
AcDbMText
 10
271.7160653675
 20
16.1671746307
 30
0.0
 40
2.1166666667
 41
0.0
 71
     1
 72
     1
  1
REV
  7
SLDTEXTSTYLE0
  0
MTEXT
  5
CF
330
1F
100
AcDbEntity
  8
0
  6
CONTINUOUS
 62
     7
100
AcDbMText
 10
188.9572740039
 20
20.3177146903
 30
0.0
 40
2.1166666667
 41
0.0
 71
     1
 72
     1
  1
BAG
  7
SLDTEXTSTYLE0
  0
MTEXT
  5
D0
330
1F
100
AcDbEntity
  8
0
  6
CONTINUOUS
 62
     7
100
AcDbMText
 10
189.8676366983
 20
15.841877739
 30
0.0
 40
2.1166666667
 41
0.0
 71
     1
 72
     1
  1
BW
  7
SLDTEXTSTYLE0
  0
MTEXT
  5
D1
330
1F
100
AcDbEntity
  8
0
  6
CONTINUOUS
 62
     7
100
AcDbMText
 10
200.1438113421
 20
20.3177146903
 30
0.0
 40
2.1166666667
 41
0.0
 71
     1
 72
     1
  1
25/OCT/10
  7
SLDTEXTSTYLE0
  0
MTEXT
  5
D2
330
1F
100
AcDbEntity
  8
0
  6
CONTINUOUS
 62
     7
100
AcDbMText
 10
203.6145073853
 20
24.8221395769
 30
0.0
 40
2.1166666667
 41
0.0
 71
     1
 72
     1
  1
DATE
  7
SLDTEXTSTYLE0
  0
MTEXT
  5
D3
330
1F
100
AcDbEntity
  8
0
  6
CONTINUOUS
 62
     7
100
AcDbMText
 10
199.8662436873
 20
15.841877739
 30
0.0
 40
2.1166666667
 41
0.0
 71
     1
 72
     1
  1
04/NOV/21
  7
SLDTEXTSTYLE0
  0
MTEXT
  5
D5
330
1F
100
AcDbEntity
  8
0
  6
CONTINUOUS
 62
     7
100
AcDbMText
 10
229.402906477
 20
27.7957480569
 30
0.0
 40
2.1166666667
 41
0.0
 71
     1
 72
     1
  1
w w w . t h o r  l a b s . c o m
  7
SLDTEXTSTYLE4
  0
MTEXT
  5
D6
330
1F
100
AcDbEntity
  8
0
  6
CONTINUOUS
 62
     7
100
AcDbMText
 10
216.7004035316
 20
8.3494791871
 30
0.0
 40
2.1166666667
 41
0.0
 71
     1
 72
     1
  1
ITEM #
  7
SLDTEXTSTYLE0
  0
MTEXT
  5
D7
330
1F
100
AcDbEntity
  8
0
  6
CONTINUOUS
 62
     7
100
AcDbMText
 10
254.5318000914
 20
8.3494791871
 30
0.0
 40
2.1166666667
 41
0.0
 71
     1
 72
     1
  1
APPROX WEIGHT
  7
SLDTEXTSTYLE0
  0
MTEXT
  5
D8
330
1F
100
AcDbEntity
  8
0
  6
CONTINUOUS
 62
     7
100
AcDbMText
 10
243.4751168075
 20
13.8247651814
 30
0.0
 40
3.175
 41
0.0
 71
     2
 72
     1
  1
FUSED SILICA
  7
SLDTEXTSTYLE0
  0
MTEXT
  5
DA
330
1F
100
AcDbEntity
  8
0
  6
CONTINUOUS
 62
     7
100
AcDbMText
 10
266.2586154088
 20
5.1306563898
 30
0.0
 40
3.175
 41
0.0
 71
     2
 72
     1
  1
54 g
  7
SLDTEXTSTYLE5
  0
INSERT
  5
E0
330
1F
100
AcDbEntity
  8
0
  6
CONTINUOUS
 62
     7
100
AcDbBlockReference
  2
SW_NOTE_1
 10
174.8430140051
 20
4.4558554801
 30
0.0
  0
INSERT
  5
E6
330
1F
100
AcDbEntity
  8
0
  6
CONTINUOUS
 62
     7
100
AcDbBlockReference
  2
SW_NOTE_2
 10
174.5483650337
 20
30.4835322715
 30
0.0
  0
MTEXT
  5
E7
330
1F
100
AcDbEntity
  8
0
  6
CONTINUOUS
 62
     7
100
AcDbMText
 10
187.9273588276
 20
24.8221395769
 30
0.0
 40
2.1166666667
 41
0.0
 71
     1
 72
     1
  1
NAME
  7
SLDTEXTSTYLE0
  0
INSERT
  5
ED
330
1F
100
AcDbEntity
  8
0
  6
CONTINUOUS
 62
     7
100
AcDbBlockReference
  2
SW_NOTE_3
 10
58.6204667508
 20
8.1776609732
 30
0.0
  0
INSERT
  5
F4
330
1F
100
AcDbEntity
  8
0
  6
CONTINUOUS
 62
     7
100
AcDbBlockReference
  2
SW_NOTE_4
 10
223.6168746331
 20
20.8285037925
 30
0.0
  0
MTEXT
  5
F5
330
1F
100
AcDbEntity
  8
0
  6
CONTINUOUS
 62
     7
100
AcDbMText
 10
177.6925831922
 20
10.7142101515
 30
0.0
 40
1.5875
 41
0.0
 71
     1
 72
     1
  1
COPYRIGHT © 2021 BY THORLABS
  7
SLDTEXTSTYLE0
  0
CIRCLE
  5
F6
330
1F
100
AcDbEntity
  8
0
  6
SLD-SOLID
 62
     7
100
AcDbCircle
 10
53.5466481824
 20
108.2345193798
 30
0.0
 40
25.15000000000001
  0
CIRCLE
  5
F7
330
1F
100
AcDbEntity
  8
0
  6
SLD-SOLID
 62
     7
100
AcDbCircle
 10
53.5466481824
 20
108.2345193798
 30
0.0
 40
25.40000000000001
  0
DIMENSION
  5
F8
330
1F
100
AcDbEntity
  8
0
  6
SLD-SOLID
 62
     7
100
AcDbDimension
  2
_D
 10
35.5861359402
 20
90.2740071377
 30
0.0
 11
88.7691238041
 21
132.6676785285
 31
0.0
 70
   163
  1
<>
  3
SLDDIMSTYLE0
100
AcDbDiametricDimension
 15
71.5071604245
 25
126.195031622
 35
0.0
 40
0.0
  0
LINE
  5
109
330
1F
100
AcDbEntity
  8
0
  6
SLD-SOLID
 62
     7
100
AcDbLine
 10
146.644097777
 20
82.8345195765
 30
0.0
 11
146.894097818
 21
83.0845191518
 31
0.0
  0
LINE
  5
10A
330
1F
100
AcDbEntity
  8
0
  6
SLD-SOLID
 62
     7
100
AcDbLine
 10
146.894097818
 20
133.3845175246
 30
0.0
 11
146.644097777
 21
133.6345180313
 31
0.0
  0
LINE
  5
10B
330
1F
100
AcDbEntity
  8
0
  6
SLD-SOLID
 62
     7
100
AcDbLine
 10
146.644097777
 20
133.6345180313
 30
0.0
 11
135.1440979875
 21
133.6345180313
 31
0.0
  0
LINE
  5
10C
330
1F
100
AcDbEntity
  8
0
  6
SLD-SOLID
 62
     7
100
AcDbLine
 10
135.1440979875
 20
82.8345195765
 30
0.0
 11
146.644097777
 21
82.8345195765
 31
0.0
  0
LINE
  5
10D
330
1F
100
AcDbEntity
  8
0
  6
SLD-SOLID
 62
     7
100
AcDbLine
 10
135.1440979875
 20
133.6345180313
 30
0.0
 11
134.8940974808
 21
133.3845175246
 31
0.0
  0
LINE
  5
10E
330
1F
100
AcDbEntity
  8
0
  6
SLD-SOLID
 62
     7
100
AcDbLine
 10
134.8940974808
 20
83.0845191518
 30
0.0
 11
135.1440979875
 21
82.8345195765
 31
0.0
  0
LINE
  5
10F
330
1F
100
AcDbEntity
  8
0
  6
SLD-SOLID
 62
     7
100
AcDbLine
 10
146.644097777
 20
108.2345192696
 30
0.0
 11
146.644097777
 21
133.6345180313
 31
0.0
  0
LINE
  5
110
330
1F
100
AcDbEntity
  8
0
  6
SLD-SOLID
 62
     7
100
AcDbLine
 10
146.644097777
 20
82.8345195765
 30
0.0
 11
146.644097777
 21
108.2345192696
 31
0.0
  0
LINE
  5
111
330
1F
100
AcDbEntity
  8
0
  6
SLD-SOLID
 62
     7
100
AcDbLine
 10
146.894097818
 20
108.2345192696
 30
0.0
 11
146.894097818
 21
83.0845191518
 31
0.0
  0
LINE
  5
112
330
1F
100
AcDbEntity
  8
0
  6
SLD-SOLID
 62
     7
100
AcDbLine
 10
146.894097818
 20
133.3845175246
 30
0.0
 11
146.894097818
 21
108.2345192696
 31
0.0
  0
LINE
  5
113
330
1F
100
AcDbEntity
  8
0
  6
SLD-SOLID
 62
     7
100
AcDbLine
 10
135.1440979875
 20
108.2345192696
 30
0.0
 11
135.1440979875
 21
82.8345195765
 31
0.0
  0
LINE
  5
114
330
1F
100
AcDbEntity
  8
0
  6
SLD-SOLID
 62
     7
100
AcDbLine
 10
135.1440979875
 20
133.6345180313
 30
0.0
 11
135.1440979875
 21
108.2345192696
 31
0.0
  0
LINE
  5
115
330
1F
100
AcDbEntity
  8
0
  6
SLD-SOLID
 62
     7
100
AcDbLine
 10
134.8940974808
 20
108.2345192696
 30
0.0
 11
134.8940974808
 21
133.3845175246
 31
0.0
  0
LINE
  5
116
330
1F
100
AcDbEntity
  8
0
  6
SLD-SOLID
 62
     7
100
AcDbLine
 10
134.8940974808
 20
83.0845191518
 30
0.0
 11
134.8940974808
 21
108.2345192696
 31
0.0
  0
DIMENSION
  5
117
330
1F
100
AcDbEntity
  8
0
  6
SLD-SOLID
 62
     7
100
AcDbDimension
  2
_D_1
 10
134.8940977948
 20
145.1725142378
 30
0.0
 11
140.8940977948
 21
145.1725142378
 31
0.0
 70
   160
  1
<>
  3
SLDDIMSTYLE1
100
AcDbAlignedDimension
 13
146.8940977948
 23
133.3845193798
 33
0.0
 14
134.8940977948
 24
133.3845193798
 34
0.0
100
AcDbRotatedDimension
  0
MTEXT
  5
12A
330
1F
100
AcDbEntity
  8
0
  6
CONTINUOUS
 62
     7
100
AcDbMText
 10
117.5167851704
 20
118.6848481389
 30
0.0
 40
2.1166666667
 41
0.0
 71
     1
 72
     1
  1
S1
  7
SLDTEXTSTYLE0
  0
LEADER
  5
12C
330
1F
100
AcDbEntity
  8
0
  6
CONTINUOUS
 62
     7
100
AcDbLeader
  3
SLDDIMSTYLE2
 76
     3
 10
134.8940977948
 20
109.3508340094
 30
0.0
 10
127.0086727984
 20
118.713009241
 30
0.0
 10
120.6586727984
 20
118.713009241
 30
0.0
1001
ACAD
1000
DSTYLE
1002
{
1070
     6
1000

1002
}
  0
MTEXT
  5
12D
330
1F
100
AcDbEntity
  8
0
  6
CONTINUOUS
 62
     7
100
AcDbMText
 10
159.2534157873
 20
118.6848481389
 30
0.0
 40
2.1166666667
 41
0.0
 71
     1
 72
     1
  1
S2
  7
SLDTEXTSTYLE0
  0
LEADER
  5
12E
330
1F
100
AcDbEntity
  8
0
  6
CONTINUOUS
 62
     7
100
AcDbLeader
  3
SLDDIMSTYLE2
 76
     3
 10
146.8940977948
 20
108.7374393241
 30
0.0
 10
150.9625
 20
118.713009241
 30
0.0
 10
157.3125
 20
118.713009241
 30
0.0
1001
ACAD
1000
DSTYLE
1002
{
1070
     6
1000

1002
}
  0
LINE
  5
12F
330
1F
100
AcDbEntity
  8
0
  6
SLD-SOLID
 62
     7
100
AcDbLine
 10
222.4327758244
 20
184.2558608614
 30
0.0
 11
222.4327758244
 21
184.0517588335
 31
0.0
  0
LINE
  5
130
330
1F
100
AcDbEntity
  8
0
  6
SLD-SOLID
 62
     7
100
AcDbLine
 10
240.2136210141
 20
153.2510942473
 30
0.0
 11
240.3903689782
 21
153.1490266472
 31
0.0
  0
LINE
  5
131
330
1F
100
AcDbEntity
  8
0
  6
SLD-SOLID
 62
     7
100
AcDbLine
 10
235.8260481457
 20
200.5794655887
 30
0.0
 11
227.6943201621
 21
195.8851189458
 31
0.0
  0
LINE
  5
132
330
1F
100
AcDbEntity
  8
0
  6
SLD-SOLID
 62
     7
100
AcDbLine
 10
253.092255971
 20
151.8898367368
 30
0.0
 11
261.2239839547
 21
156.5841833798
 31
0.0
  0
LINE
  5
133
330
1F
100
AcDbEntity
  8
0
  6
SLD-SOLID
 62
     7
100
AcDbLine
 10
266.4855282923
 20
168.2134414641
 30
0.0
 11
266.4855282923
 21
168.4175434921
 31
0.0
  0
LINE
  5
134
330
1F
100
AcDbEntity
  8
0
  6
SLD-SOLID
 62
     7
100
AcDbLine
 10
248.7046831026
 20
199.2182080783
 30
0.0
 11
248.5279351385
 21
199.3202756784
 31
0.0
  0
POLYLINE
  5
135
330
1F
100
AcDbEntity
  8
0
  6
SLD-SOLID
 62
     7
100
AcDb2dPolyline
 66
     1
 10
0.0
 20
0.0
 30
0.0
 70
   128
  0
VERTEX
  5
201
330
135
100
AcDbEntity
  8
0
  6
SLD-SOLID
 62
     7
100
AcDbVertex
100
AcDb2dVertex
 10
258.0002469181
 20
163.5190948212
 30
0.0
  0
VERTEX
  5
202
330
135
100
AcDbEntity
  8
0
  6
SLD-SOLID
 62
     7
100
AcDbVertex
100
AcDb2dVertex
 10
257.9871968759
 20
164.3132134435
 30
0.0
  0
VERTEX
  5
203
330
135
100
AcDbEntity
  8
0
  6
SLD-SOLID
 62
     7
100
AcDbVertex
100
AcDb2dVertex
 10
257.9480659023
 20
165.1212338452
 30
0.0
  0
VERTEX
  5
204
330
135
100
AcDbEntity
  8
0
  6
SLD-SOLID
 62
     7
100
AcDbVertex
100
AcDb2dVertex
 10
257.8829114272
 20
165.9419701449
 30
0.0
  0
VERTEX
  5
205
330
135
100
AcDbEntity
  8
0
  6
SLD-SOLID
 62
     7
100
AcDbVertex
100
AcDb2dVertex
 10
257.7918290739
 20
166.7742177989
 30
0.0
  0
VERTEX
  5
206
330
135
100
AcDbEntity
  8
0
  6
SLD-SOLID
 62
     7
100
AcDbVertex
100
AcDb2dVertex
 10
257.6749525182
 20
167.616755369
 30
0.0
  0
VERTEX
  5
207
330
135
100
AcDbEntity
  8
0
  6
SLD-SOLID
 62
     7
100
AcDbVertex
100
AcDb2dVertex
 10
257.5324532926
 20
168.468346315
 30
0.0
  0
VERTEX
  5
208
330
135
100
AcDbEntity
  8
0
  6
SLD-SOLID
 62
     7
100
AcDbVertex
100
AcDb2dVertex
 10
257.3645405345
 20
169.32774081
 30
0.0
  0
VERTEX
  5
209
330
135
100
AcDbEntity
  8
0
  6
SLD-SOLID
 62
     7
100
AcDbVertex
100
AcDb2dVertex
 10
257.1714606789
 20
170.1936775739
 30
0.0
  0
VERTEX
  5
20A
330
135
100
AcDbEntity
  8
0
  6
SLD-SOLID
 62
     7
100
AcDbVertex
100
AcDb2dVertex
 10
256.953497097
 20
171.0648857251
 30
0.0
  0
VERTEX
  5
20B
330
135
100
AcDbEntity
  8
0
  6
SLD-SOLID
 62
     7
100
AcDbVertex
100
AcDb2dVertex
 10
256.7109696807
 20
171.9400866455
 30
0.0
  0
VERTEX
  5
20C
330
135
100
AcDbEntity
  8
0
  6
SLD-SOLID
 62
     7
100
AcDbVertex
100
AcDb2dVertex
 10
256.4442343722
 20
172.8179958571
 30
0.0
  0
VERTEX
  5
20D
330
135
100
AcDbEntity
  8
0
  6
SLD-SOLID
 62
     7
100
AcDbVertex
100
AcDb2dVertex
 10
256.1536826424
 20
173.6973249071
 30
0.0
  0
VERTEX
  5
20E
330
135
100
AcDbEntity
  8
0
  6
SLD-SOLID
 62
     7
100
AcDbVertex
100
AcDb2dVertex
 10
255.8397409161
 20
174.5767832588
 30
0.0
  0
VERTEX
  5
20F
330
135
100
AcDbEntity
  8
0
  6
SLD-SOLID
 62
     7
100
AcDbVertex
100
AcDb2dVertex
 10
255.502869946
 20
175.4550801858
 30
0.0
  0
VERTEX
  5
210
330
135
100
AcDbEntity
  8
0
  6
SLD-SOLID
 62
     7
100
AcDbVertex
100
AcDb2dVertex
 10
255.1435641367
 20
176.3309266663
 30
0.0
  0
VERTEX
  5
211
330
135
100
AcDbEntity
  8
0
  6
SLD-SOLID
 62
     7
100
AcDbVertex
100
AcDb2dVertex
 10
254.7623508191
 20
177.2030372747
 30
0.0
  0
VERTEX
  5
212
330
135
100
AcDbEntity
  8
0
  6
SLD-SOLID
 62
     7
100
AcDbVertex
100
AcDb2dVertex
 10
254.3597894763
 20
178.0701320685
 30
0.0
  0
VERTEX
  5
213
330
135
100
AcDbEntity
  8
0
  6
SLD-SOLID
 62
     7
100
AcDbVertex
100
AcDb2dVertex
 10
253.9364709224
 20
178.9309384665
 30
0.0
  0
VERTEX
  5
214
330
135
100
AcDbEntity
  8
0
  6
SLD-SOLID
 62
     7
100
AcDbVertex
100
AcDb2dVertex
 10
253.493016436
 20
179.7841931166
 30
0.0
  0
VERTEX
  5
215
330
135
100
AcDbEntity
  8
0
  6
SLD-SOLID
 62
     7
100
AcDbVertex
100
AcDb2dVertex
 10
253.0300768476
 20
180.62864375
 30
0.0
  0
VERTEX
  5
216
330
135
100
AcDbEntity
  8
0
  6
SLD-SOLID
 62
     7
100
AcDbVertex
100
AcDb2dVertex
 10
252.5483315849
 20
181.4630510189
 30
0.0
  0
VERTEX
  5
217
330
135
100
AcDbEntity
  8
0
  6
SLD-SOLID
 62
     7
100
AcDbVertex
100
AcDb2dVertex
 10
252.0484876755
 20
182.2861903155
 30
0.0
  0
VERTEX
  5
218
330
135
100
AcDbEntity
  8
0
  6
SLD-SOLID
 62
     7
100
AcDbVertex
100
AcDb2dVertex
 10
251.5312787092
 20
183.0968535695
 30
0.0
  0
VERTEX
  5
219
330
135
100
AcDbEntity
  8
0
  6
SLD-SOLID
 62
     7
100
AcDbVertex
100
AcDb2dVertex
 10
250.9974637616
 20
183.8938510207
 30
0.0
  0
VERTEX
  5
21A
330
135
100
AcDbEntity
  8
0
  6
SLD-SOLID
 62
     7
100
AcDbVertex
100
AcDb2dVertex
 10
250.4478262797
 20
184.6760129655
 30
0.0
  0
VERTEX
  5
21B
330
135
100
AcDbEntity
  8
0
  6
SLD-SOLID
 62
     7
100
AcDbVertex
100
AcDb2dVertex
 10
249.8831729323
 20
185.4421914733
 30
0.0
  0
VERTEX
  5
21C
330
135
100
AcDbEntity
  8
0
  6
SLD-SOLID
 62
     7
100
AcDbVertex
100
AcDb2dVertex
 10
249.304332426
 20
186.1912620715
 30
0.0
  0
VERTEX
  5
21D
330
135
100
AcDbEntity
  8
0
  6
SLD-SOLID
 62
     7
100
AcDbVertex
100
AcDb2dVertex
 10
248.7121542891
 20
186.9221253958
 30
0.0
  0
VERTEX
  5
21E
330
135
100
AcDbEntity
  8
0
  6
SLD-SOLID
 62
     7
100
AcDbVertex
100
AcDb2dVertex
 10
248.1075076247
 20
187.6337088034
 30
0.0
  0
VERTEX
  5
21F
330
135
100
AcDbEntity
  8
0
  6
SLD-SOLID
 62
     7
100
AcDbVertex
100
AcDb2dVertex
 10
247.4912798352
 20
188.3249679475
 30
0.0
  0
VERTEX
  5
220
330
135
100
AcDbEntity
  8
0
  6
SLD-SOLID
 62
     7
100
AcDbVertex
100
AcDb2dVertex
 10
246.8643753197
 20
188.9948883101
 30
0.0
  0
VERTEX
  5
221
330
135
100
AcDbEntity
  8
0
  6
SLD-SOLID
 62
     7
100
AcDbVertex
100
AcDb2dVertex
 10
246.2277141472
 20
189.6424866906
 30
0.0
  0
VERTEX
  5
222
330
135
100
AcDbEntity
  8
0
  6
SLD-SOLID
 62
     7
100
AcDbVertex
100
AcDb2dVertex
 10
245.5822307057
 20
190.2668126491
 30
0.0
  0
VERTEX
  5
223
330
135
100
AcDbEntity
  8
0
  6
SLD-SOLID
 62
     7
100
AcDbVertex
100
AcDb2dVertex
 10
244.9288723311
 20
190.8669499011
 30
0.0
  0
VERTEX
  5
224
330
135
100
AcDbEntity
  8
0
  6
SLD-SOLID
 62
     7
100
AcDbVertex
100
AcDb2dVertex
 10
244.268597917
 20
191.4420176625
 30
0.0
  0
VERTEX
  5
225
330
135
100
AcDbEntity
  8
0
  6
SLD-SOLID
 62
     7
100
AcDbVertex
100
AcDb2dVertex
 10
243.6023765071
 20
191.991171942
 30
0.0
  0
VERTEX
  5
226
330
135
100
AcDbEntity
  8
0
  6
SLD-SOLID
 62
     7
100
AcDbVertex
100
AcDb2dVertex
 10
242.9311858732
 20
192.5136067801
 30
0.0
  0
VERTEX
  5
227
330
135
100
AcDbEntity
  8
0
  6
SLD-SOLID
 62
     7
100
AcDbVertex
100
AcDb2dVertex
 10
242.2560110801
 20
193.0085554314
 30
0.0
  0
VERTEX
  5
228
330
135
100
AcDbEntity
  8
0
  6
SLD-SOLID
 62
     7
100
AcDbVertex
100
AcDb2dVertex
 10
241.57784304
 20
193.4752914908
 30
0.0
  0
VERTEX
  5
229
330
135
100
AcDbEntity
  8
0
  6
SLD-SOLID
 62
     7
100
AcDbVertex
100
AcDb2dVertex
 10
240.8976770579
 20
193.9131299585
 30
0.0
  0
VERTEX
  5
22A
330
135
100
AcDbEntity
  8
0
  6
SLD-SOLID
 62
     7
100
AcDbVertex
100
AcDb2dVertex
 10
240.2165113712
 20
194.3214282462
 30
0.0
  0
VERTEX
  5
22B
330
135
100
AcDbEntity
  8
0
  6
SLD-SOLID
 62
     7
100
AcDbVertex
100
AcDb2dVertex
 10
239.5353456846
 20
194.6995871201
 30
0.0
  0
VERTEX
  5
22C
330
135
100
AcDbEntity
  8
0
  6
SLD-SOLID
 62
     7
100
AcDbVertex
100
AcDb2dVertex
 10
238.8551797025
 20
195.0470515796
 30
0.0
  0
VERTEX
  5
22D
330
135
100
AcDbEntity
  8
0
  6
SLD-SOLID
 62
     7
100
AcDbVertex
100
AcDb2dVertex
 10
238.1770116623
 20
195.3633116729
 30
0.0
  0
VERTEX
  5
22E
330
135
100
AcDbEntity
  8
0
  6
SLD-SOLID
 62
     7
100
AcDbVertex
100
AcDb2dVertex
 10
237.5018368693
 20
195.6479032447
 30
0.0
  0
VERTEX
  5
22F
330
135
100
AcDbEntity
  8
0
  6
SLD-SOLID
 62
     7
100
AcDbVertex
100
AcDb2dVertex
 10
236.8306462354
 20
195.9004086175
 30
0.0
  0
VERTEX
  5
230
330
135
100
AcDbEntity
  8
0
  6
SLD-SOLID
 62
     7
100
AcDbVertex
100
AcDb2dVertex
 10
236.1644248255
 20
196.1204572048
 30
0.0
  0
VERTEX
  5
231
330
135
100
AcDbEntity
  8
0
  6
SLD-SOLID
 62
     7
100
AcDbVertex
100
AcDb2dVertex
 10
235.5041504114
 20
196.3077260552
 30
0.0
  0
VERTEX
  5
232
330
135
100
AcDbEntity
  8
0
  6
SLD-SOLID
 62
     7
100
AcDbVertex
100
AcDb2dVertex
 10
234.8507920368
 20
196.4619403256
 30
0.0
  0
VERTEX
  5
233
330
135
100
AcDbEntity
  8
0
  6
SLD-SOLID
 62
     7
100
AcDbVertex
100
AcDb2dVertex
 10
234.2053085952
 20
196.5828736855
 30
0.0
  0
VERTEX
  5
234
330
135
100
AcDbEntity
  8
0
  6
SLD-SOLID
 62
     7
100
AcDbVertex
100
AcDb2dVertex
 10
233.5686474227
 20
196.6703486483
 30
0.0
  0
VERTEX
  5
235
330
135
100
AcDbEntity
  8
0
  6
SLD-SOLID
 62
     7
100
AcDbVertex
100
AcDb2dVertex
 10
232.9417429073
 20
196.7242368326
 30
0.0
  0
VERTEX
  5
236
330
135
100
AcDbEntity
  8
0
  6
SLD-SOLID
 62
     7
100
AcDbVertex
100
AcDb2dVertex
 10
232.3255151177
 20
196.7444591499
 30
0.0
  0
VERTEX
  5
237
330
135
100
AcDbEntity
  8
0
  6
SLD-SOLID
 62
     7
100
AcDbVertex
100
AcDb2dVertex
 10
231.7208684533
 20
196.7309859213
 30
0.0
  0
VERTEX
  5
238
330
135
100
AcDbEntity
  8
0
  6
SLD-SOLID
 62
     7
100
AcDbVertex
100
AcDb2dVertex
 10
231.1286903165
 20
196.6838369206
 30
0.0
  0
VERTEX
  5
239
330
135
100
AcDbEntity
  8
0
  6
SLD-SOLID
 62
     7
100
AcDbVertex
100
AcDb2dVertex
 10
230.5498498102
 20
196.6030813455
 30
0.0
  0
VERTEX
  5
23A
330
135
100
AcDbEntity
  8
0
  6
SLD-SOLID
 62
     7
100
AcDbVertex
100
AcDb2dVertex
 10
229.9851964627
 20
196.4888377158
 30
0.0
  0
VERTEX
  5
23B
330
135
100
AcDbEntity
  8
0
  6
SLD-SOLID
 62
     7
100
AcDbVertex
100
AcDb2dVertex
 10
229.4355589808
 20
196.3412736998
 30
0.0
  0
VERTEX
  5
23C
330
135
100
AcDbEntity
  8
0
  6
SLD-SOLID
 62
     7
100
AcDbVertex
100
AcDb2dVertex
 10
228.9017440332
 20
196.1606058682
 30
0.0
  0
VERTEX
  5
23D
330
135
100
AcDbEntity
  8
0
  6
SLD-SOLID
 62
     7
100
AcDbVertex
100
AcDb2dVertex
 10
228.384535067
 20
195.9470993758
 30
0.0
  0
VERTEX
  5
23E
330
135
100
AcDbEntity
  8
0
  6
SLD-SOLID
 62
     7
100
AcDbVertex
100
AcDb2dVertex
 10
227.8846911576
 20
195.7010675729
 30
0.0
  0
VERTEX
  5
23F
330
135
100
AcDbEntity
  8
0
  6
SLD-SOLID
 62
     7
100
AcDbVertex
100
AcDb2dVertex
 10
227.4029458949
 20
195.422871545
 30
0.0
  0
VERTEX
  5
240
330
135
100
AcDbEntity
  8
0
  6
SLD-SOLID
 62
     7
100
AcDbVertex
100
AcDb2dVertex
 10
226.9400063064
 20
195.1129195833
 30
0.0
  0
VERTEX
  5
241
330
135
100
AcDbEntity
  8
0
  6
SLD-SOLID
 62
     7
100
AcDbVertex
100
AcDb2dVertex
 10
226.49655182
 20
194.7716665849
 30
0.0
  0
VERTEX
  5
242
330
135
100
AcDbEntity
  8
0
  6
SLD-SOLID
 62
     7
100
AcDbVertex
100
AcDb2dVertex
 10
226.0732332662
 20
194.3996133858
 30
0.0
  0
VERTEX
  5
243
330
135
100
AcDbEntity
  8
0
  6
SLD-SOLID
 62
     7
100
AcDbVertex
100
AcDb2dVertex
 10
225.6706719234
 20
193.9973060251
 30
0.0
  0
VERTEX
  5
244
330
135
100
AcDbEntity
  8
0
  6
SLD-SOLID
 62
     7
100
AcDbVertex
100
AcDb2dVertex
 10
225.2894586057
 20
193.5653349446
 30
0.0
  0
VERTEX
  5
245
330
135
100
AcDbEntity
  8
0
  6
SLD-SOLID
 62
     7
100
AcDbVertex
100
AcDb2dVertex
 10
224.9301527965
 20
193.1043341213
 30
0.0
  0
VERTEX
  5
246
330
135
100
AcDbEntity
  8
0
  6
SLD-SOLID
 62
     7
100
AcDbVertex
100
AcDb2dVertex
 10
224.5932818264
 20
192.6149801375
 30
0.0
  0
VERTEX
  5
247
330
135
100
AcDbEntity
  8
0
  6
SLD-SOLID
 62
     7
100
AcDbVertex
100
AcDb2dVertex
 10
224.2793401001
 20
192.0979911876
 30
0.0
  0
VERTEX
  5
248
330
135
100
AcDbEntity
  8
0
  6
SLD-SOLID
 62
     7
100
AcDbVertex
100
AcDb2dVertex
 10
223.9887883703
 20
191.5541260243
 30
0.0
  0
VERTEX
  5
249
330
135
100
AcDbEntity
  8
0
  6
SLD-SOLID
 62
     7
100
AcDbVertex
100
AcDb2dVertex
 10
223.7220530618
 20
190.9841828446
 30
0.0
  0
VERTEX
  5
24A
330
135
100
AcDbEntity
  8
0
  6
SLD-SOLID
 62
     7
100
AcDbVertex
100
AcDb2dVertex
 10
223.4795256454
 20
190.3889981188
 30
0.0
  0
VERTEX
  5
24B
330
135
100
AcDbEntity
  8
0
  6
SLD-SOLID
 62
     7
100
AcDbVertex
100
AcDb2dVertex
 10
223.2615620636
 20
189.7694453625
 30
0.0
  0
VERTEX
  5
24C
330
135
100
AcDbEntity
  8
0
  6
SLD-SOLID
 62
     7
100
AcDbVertex
100
AcDb2dVertex
 10
223.068482208
 20
189.1264338549
 30
0.0
  0
VERTEX
  5
24D
330
135
100
AcDbEntity
  8
0
  6
SLD-SOLID
 62
     7
100
AcDbVertex
100
AcDb2dVertex
 10
222.9005694498
 20
188.4609073039
 30
0.0
  0
VERTEX
  5
24E
330
135
100
AcDbEntity
  8
0
  6
SLD-SOLID
 62
     7
100
AcDbVertex
100
AcDb2dVertex
 10
222.7580702243
 20
187.7738424616
 30
0.0
  0
VERTEX
  5
24F
330
135
100
AcDbEntity
  8
0
  6
SLD-SOLID
 62
     7
100
AcDbVertex
100
AcDb2dVertex
 10
222.6411936686
 20
187.0662476904
 30
0.0
  0
VERTEX
  5
250
330
135
100
AcDbEntity
  8
0
  6
SLD-SOLID
 62
     7
100
AcDbVertex
100
AcDb2dVertex
 10
222.5501113153
 20
186.3391614831
 30
0.0
  0
VERTEX
  5
251
330
135
100
AcDbEntity
  8
0
  6
SLD-SOLID
 62
     7
100
AcDbVertex
100
AcDb2dVertex
 10
222.4849568402
 20
185.5936509391
 30
0.0
  0
VERTEX
  5
252
330
135
100
AcDbEntity
  8
0
  6
SLD-SOLID
 62
     7
100
AcDbVertex
100
AcDb2dVertex
 10
222.4458258665
 20
184.8308101979
 30
0.0
  0
VERTEX
  5
253
330
135
100
AcDbEntity
  8
0
  6
SLD-SOLID
 62
     7
100
AcDbVertex
100
AcDb2dVertex
 10
222.4327758244
 20
184.0517588335
 30
0.0
  0
VERTEX
  5
254
330
135
100
AcDbEntity
  8
0
  6
SLD-SOLID
 62
     7
100
AcDbVertex
100
AcDb2dVertex
 10
222.4458258665
 20
183.2576402111
 30
0.0
  0
VERTEX
  5
255
330
135
100
AcDbEntity
  8
0
  6
SLD-SOLID
 62
     7
100
AcDbVertex
100
AcDb2dVertex
 10
222.4849568402
 20
182.4496198094
 30
0.0
  0
VERTEX
  5
256
330
135
100
AcDbEntity
  8
0
  6
SLD-SOLID
 62
     7
100
AcDbVertex
100
AcDb2dVertex
 10
222.5501113153
 20
181.6288835097
 30
0.0
  0
VERTEX
  5
257
330
135
100
AcDbEntity
  8
0
  6
SLD-SOLID
 62
     7
100
AcDbVertex
100
AcDb2dVertex
 10
222.6411936686
 20
180.7966358557
 30
0.0
  0
VERTEX
  5
258
330
135
100
AcDbEntity
  8
0
  6
SLD-SOLID
 62
     7
100
AcDbVertex
100
AcDb2dVertex
 10
222.7580702243
 20
179.9540982857
 30
0.0
  0
VERTEX
  5
259
330
135
100
AcDbEntity
  8
0
  6
SLD-SOLID
 62
     7
100
AcDbVertex
100
AcDb2dVertex
 10
222.9005694498
 20
179.1025073396
 30
0.0
  0
VERTEX
  5
25A
330
135
100
AcDbEntity
  8
0
  6
SLD-SOLID
 62
     7
100
AcDbVertex
100
AcDb2dVertex
 10
223.068482208
 20
178.2431128447
 30
0.0
  0
VERTEX
  5
25B
330
135
100
AcDbEntity
  8
0
  6
SLD-SOLID
 62
     7
100
AcDbVertex
100
AcDb2dVertex
 10
223.2615620636
 20
177.3771760808
 30
0.0
  0
VERTEX
  5
25C
330
135
100
AcDbEntity
  8
0
  6
SLD-SOLID
 62
     7
100
AcDbVertex
100
AcDb2dVertex
 10
223.4795256454
 20
176.5059679296
 30
0.0
  0
VERTEX
  5
25D
330
135
100
AcDbEntity
  8
0
  6
SLD-SOLID
 62
     7
100
AcDbVertex
100
AcDb2dVertex
 10
223.7220530618
 20
175.6307670091
 30
0.0
  0
VERTEX
  5
25E
330
135
100
AcDbEntity
  8
0
  6
SLD-SOLID
 62
     7
100
AcDbVertex
100
AcDb2dVertex
 10
223.9887883703
 20
174.7528577975
 30
0.0
  0
VERTEX
  5
25F
330
135
100
AcDbEntity
  8
0
  6
SLD-SOLID
 62
     7
100
AcDbVertex
100
AcDb2dVertex
 10
224.2793401001
 20
173.8735287475
 30
0.0
  0
VERTEX
  5
260
330
135
100
AcDbEntity
  8
0
  6
SLD-SOLID
 62
     7
100
AcDbVertex
100
AcDb2dVertex
 10
224.5932818264
 20
172.9940703958
 30
0.0
  0
VERTEX
  5
261
330
135
100
AcDbEntity
  8
0
  6
SLD-SOLID
 62
     7
100
AcDbVertex
100
AcDb2dVertex
 10
224.9301527965
 20
172.1157734688
 30
0.0
  0
VERTEX
  5
262
330
135
100
AcDbEntity
  8
0
  6
SLD-SOLID
 62
     7
100
AcDbVertex
100
AcDb2dVertex
 10
225.2894586057
 20
171.2399269884
 30
0.0
  0
VERTEX
  5
263
330
135
100
AcDbEntity
  8
0
  6
SLD-SOLID
 62
     7
100
AcDbVertex
100
AcDb2dVertex
 10
225.6706719234
 20
170.36781638
 30
0.0
  0
VERTEX
  5
264
330
135
100
AcDbEntity
  8
0
  6
SLD-SOLID
 62
     7
100
AcDbVertex
100
AcDb2dVertex
 10
226.0732332662
 20
169.5007215862
 30
0.0
  0
VERTEX
  5
265
330
135
100
AcDbEntity
  8
0
  6
SLD-SOLID
 62
     7
100
AcDbVertex
100
AcDb2dVertex
 10
226.49655182
 20
168.6399151881
 30
0.0
  0
VERTEX
  5
266
330
135
100
AcDbEntity
  8
0
  6
SLD-SOLID
 62
     7
100
AcDbVertex
100
AcDb2dVertex
 10
226.9400063064
 20
167.786660538
 30
0.0
  0
VERTEX
  5
267
330
135
100
AcDbEntity
  8
0
  6
SLD-SOLID
 62
     7
100
AcDbVertex
100
AcDb2dVertex
 10
227.4029458949
 20
166.9422099046
 30
0.0
  0
VERTEX
  5
268
330
135
100
AcDbEntity
  8
0
  6
SLD-SOLID
 62
     7
100
AcDbVertex
100
AcDb2dVertex
 10
227.8846911576
 20
166.1078026358
 30
0.0
  0
VERTEX
  5
269
330
135
100
AcDbEntity
  8
0
  6
SLD-SOLID
 62
     7
100
AcDbVertex
100
AcDb2dVertex
 10
228.384535067
 20
165.2846633391
 30
0.0
  0
VERTEX
  5
26A
330
135
100
AcDbEntity
  8
0
  6
SLD-SOLID
 62
     7
100
AcDbVertex
100
AcDb2dVertex
 10
228.9017440332
 20
164.4740000852
 30
0.0
  0
VERTEX
  5
26B
330
135
100
AcDbEntity
  8
0
  6
SLD-SOLID
 62
     7
100
AcDbVertex
100
AcDb2dVertex
 10
229.4355589808
 20
163.6770026339
 30
0.0
  0
VERTEX
  5
26C
330
135
100
AcDbEntity
  8
0
  6
SLD-SOLID
 62
     7
100
AcDbVertex
100
AcDb2dVertex
 10
229.9851964627
 20
162.8948406892
 30
0.0
  0
VERTEX
  5
26D
330
135
100
AcDbEntity
  8
0
  6
SLD-SOLID
 62
     7
100
AcDbVertex
100
AcDb2dVertex
 10
230.5498498102
 20
162.1286621814
 30
0.0
  0
VERTEX
  5
26E
330
135
100
AcDbEntity
  8
0
  6
SLD-SOLID
 62
     7
100
AcDbVertex
100
AcDb2dVertex
 10
231.1286903165
 20
161.3795915831
 30
0.0
  0
VERTEX
  5
26F
330
135
100
AcDbEntity
  8
0
  6
SLD-SOLID
 62
     7
100
AcDbVertex
100
AcDb2dVertex
 10
231.7208684533
 20
160.6487282588
 30
0.0
  0
VERTEX
  5
270
330
135
100
AcDbEntity
  8
0
  6
SLD-SOLID
 62
     7
100
AcDbVertex
100
AcDb2dVertex
 10
232.3255151177
 20
159.9371448512
 30
0.0
  0
VERTEX
  5
271
330
135
100
AcDbEntity
  8
0
  6
SLD-SOLID
 62
     7
100
AcDbVertex
100
AcDb2dVertex
 10
232.9417429073
 20
159.2458857071
 30
0.0
  0
VERTEX
  5
272
330
135
100
AcDbEntity
  8
0
  6
SLD-SOLID
 62
     7
100
AcDbVertex
100
AcDb2dVertex
 10
233.5686474227
 20
158.5759653445
 30
0.0
  0
VERTEX
  5
273
330
135
100
AcDbEntity
  8
0
  6
SLD-SOLID
 62
     7
100
AcDbVertex
100
AcDb2dVertex
 10
234.2053085953
 20
157.928366964
 30
0.0
  0
VERTEX
  5
274
330
135
100
AcDbEntity
  8
0
  6
SLD-SOLID
 62
     7
100
AcDbVertex
100
AcDb2dVertex
 10
234.8507920368
 20
157.3040410056
 30
0.0
  0
VERTEX
  5
275
330
135
100
AcDbEntity
  8
0
  6
SLD-SOLID
 62
     7
100
AcDbVertex
100
AcDb2dVertex
 10
235.5041504114
 20
156.7039037535
 30
0.0
  0
VERTEX
  5
276
330
135
100
AcDbEntity
  8
0
  6
SLD-SOLID
 62
     7
100
AcDbVertex
100
AcDb2dVertex
 10
236.1644248255
 20
156.1288359921
 30
0.0
  0
VERTEX
  5
277
330
135
100
AcDbEntity
  8
0
  6
SLD-SOLID
 62
     7
100
AcDbVertex
100
AcDb2dVertex
 10
236.8306462354
 20
155.5796817126
 30
0.0
  0
VERTEX
  5
278
330
135
100
AcDbEntity
  8
0
  6
SLD-SOLID
 62
     7
100
AcDbVertex
100
AcDb2dVertex
 10
237.5018368693
 20
155.0572468746
 30
0.0
  0
VERTEX
  5
279
330
135
100
AcDbEntity
  8
0
  6
SLD-SOLID
 62
     7
100
AcDbVertex
100
AcDb2dVertex
 10
238.1770116623
 20
154.5622982232
 30
0.0
  0
VERTEX
  5
27A
330
135
100
AcDbEntity
  8
0
  6
SLD-SOLID
 62
     7
100
AcDbVertex
100
AcDb2dVertex
 10
238.8551797025
 20
154.0955621639
 30
0.0
  0
VERTEX
  5
27B
330
135
100
AcDbEntity
  8
0
  6
SLD-SOLID
 62
     7
100
AcDbVertex
100
AcDb2dVertex
 10
239.5353456846
 20
153.6577236962
 30
0.0
  0
VERTEX
  5
27C
330
135
100
AcDbEntity
  8
0
  6
SLD-SOLID
 62
     7
100
AcDbVertex
100
AcDb2dVertex
 10
240.2165113712
 20
153.2494254084
 30
0.0
  0
VERTEX
  5
27D
330
135
100
AcDbEntity
  8
0
  6
SLD-SOLID
 62
     7
100
AcDbVertex
100
AcDb2dVertex
 10
240.8976770579
 20
152.8712665346
 30
0.0
  0
VERTEX
  5
27E
330
135
100
AcDbEntity
  8
0
  6
SLD-SOLID
 62
     7
100
AcDbVertex
100
AcDb2dVertex
 10
241.57784304
 20
152.523802075
 30
0.0
  0
VERTEX
  5
27F
330
135
100
AcDbEntity
  8
0
  6
SLD-SOLID
 62
     7
100
AcDbVertex
100
AcDb2dVertex
 10
242.2560110801
 20
152.2075419817
 30
0.0
  0
VERTEX
  5
280
330
135
100
AcDbEntity
  8
0
  6
SLD-SOLID
 62
     7
100
AcDbVertex
100
AcDb2dVertex
 10
242.9311858732
 20
151.92295041
 30
0.0
  0
VERTEX
  5
281
330
135
100
AcDbEntity
  8
0
  6
SLD-SOLID
 62
     7
100
AcDbVertex
100
AcDb2dVertex
 10
243.6023765071
 20
151.6704450372
 30
0.0
  0
VERTEX
  5
282
330
135
100
AcDbEntity
  8
0
  6
SLD-SOLID
 62
     7
100
AcDbVertex
100
AcDb2dVertex
 10
244.268597917
 20
151.4503964498
 30
0.0
  0
VERTEX
  5
283
330
135
100
AcDbEntity
  8
0
  6
SLD-SOLID
 62
     7
100
AcDbVertex
100
AcDb2dVertex
 10
244.9288723311
 20
151.2631275994
 30
0.0
  0
VERTEX
  5
284
330
135
100
AcDbEntity
  8
0
  6
SLD-SOLID
 62
     7
100
AcDbVertex
100
AcDb2dVertex
 10
245.5822307057
 20
151.108913329
 30
0.0
  0
VERTEX
  5
285
330
135
100
AcDbEntity
  8
0
  6
SLD-SOLID
 62
     7
100
AcDbVertex
100
AcDb2dVertex
 10
246.2277141472
 20
150.9879799692
 30
0.0
  0
VERTEX
  5
286
330
135
100
AcDbEntity
  8
0
  6
SLD-SOLID
 62
     7
100
AcDbVertex
100
AcDb2dVertex
 10
246.8643753197
 20
150.9005050063
 30
0.0
  0
VERTEX
  5
287
330
135
100
AcDbEntity
  8
0
  6
SLD-SOLID
 62
     7
100
AcDbVertex
100
AcDb2dVertex
 10
247.4912798352
 20
150.8466168221
 30
0.0
  0
VERTEX
  5
288
330
135
100
AcDbEntity
  8
0
  6
SLD-SOLID
 62
     7
100
AcDbVertex
100
AcDb2dVertex
 10
248.1075076247
 20
150.8263945047
 30
0.0
  0
VERTEX
  5
289
330
135
100
AcDbEntity
  8
0
  6
SLD-SOLID
 62
     7
100
AcDbVertex
100
AcDb2dVertex
 10
248.7121542891
 20
150.8398677333
 30
0.0
  0
VERTEX
  5
28A
330
135
100
AcDbEntity
  8
0
  6
SLD-SOLID
 62
     7
100
AcDbVertex
100
AcDb2dVertex
 10
249.304332426
 20
150.887016734
 30
0.0
  0
VERTEX
  5
28B
330
135
100
AcDbEntity
  8
0
  6
SLD-SOLID
 62
     7
100
AcDbVertex
100
AcDb2dVertex
 10
249.8831729323
 20
150.9677723092
 30
0.0
  0
VERTEX
  5
28C
330
135
100
AcDbEntity
  8
0
  6
SLD-SOLID
 62
     7
100
AcDbVertex
100
AcDb2dVertex
 10
250.4478262797
 20
151.0820159389
 30
0.0
  0
VERTEX
  5
28D
330
135
100
AcDbEntity
  8
0
  6
SLD-SOLID
 62
     7
100
AcDbVertex
100
AcDb2dVertex
 10
250.9974637616
 20
151.2295799548
 30
0.0
  0
VERTEX
  5
28E
330
135
100
AcDbEntity
  8
0
  6
SLD-SOLID
 62
     7
100
AcDbVertex
100
AcDb2dVertex
 10
251.5312787092
 20
151.4102477865
 30
0.0
  0
VERTEX
  5
28F
330
135
100
AcDbEntity
  8
0
  6
SLD-SOLID
 62
     7
100
AcDbVertex
100
AcDb2dVertex
 10
252.0484876755
 20
151.6237542789
 30
0.0
  0
VERTEX
  5
290
330
135
100
AcDbEntity
  8
0
  6
SLD-SOLID
 62
     7
100
AcDbVertex
100
AcDb2dVertex
 10
252.5483315849
 20
151.8697860818
 30
0.0
  0
VERTEX
  5
291
330
135
100
AcDbEntity
  8
0
  6
SLD-SOLID
 62
     7
100
AcDbVertex
100
AcDb2dVertex
 10
253.0300768476
 20
152.1479821096
 30
0.0
  0
VERTEX
  5
292
330
135
100
AcDbEntity
  8
0
  6
SLD-SOLID
 62
     7
100
AcDbVertex
100
AcDb2dVertex
 10
253.493016436
 20
152.4579340713
 30
0.0
  0
VERTEX
  5
293
330
135
100
AcDbEntity
  8
0
  6
SLD-SOLID
 62
     7
100
AcDbVertex
100
AcDb2dVertex
 10
253.9364709224
 20
152.7991870697
 30
0.0
  0
VERTEX
  5
294
330
135
100
AcDbEntity
  8
0
  6
SLD-SOLID
 62
     7
100
AcDbVertex
100
AcDb2dVertex
 10
254.3597894763
 20
153.1712402689
 30
0.0
  0
VERTEX
  5
295
330
135
100
AcDbEntity
  8
0
  6
SLD-SOLID
 62
     7
100
AcDbVertex
100
AcDb2dVertex
 10
254.7623508191
 20
153.5735476295
 30
0.0
  0
VERTEX
  5
296
330
135
100
AcDbEntity
  8
0
  6
SLD-SOLID
 62
     7
100
AcDbVertex
100
AcDb2dVertex
 10
255.1435641367
 20
154.00551871
 30
0.0
  0
VERTEX
  5
297
330
135
100
AcDbEntity
  8
0
  6
SLD-SOLID
 62
     7
100
AcDbVertex
100
AcDb2dVertex
 10
255.502869946
 20
154.4665195334
 30
0.0
  0
VERTEX
  5
298
330
135
100
AcDbEntity
  8
0
  6
SLD-SOLID
 62
     7
100
AcDbVertex
100
AcDb2dVertex
 10
255.8397409161
 20
154.9558735172
 30
0.0
  0
VERTEX
  5
299
330
135
100
AcDbEntity
  8
0
  6
SLD-SOLID
 62
     7
100
AcDbVertex
100
AcDb2dVertex
 10
256.1536826424
 20
155.472862467
 30
0.0
  0
VERTEX
  5
29A
330
135
100
AcDbEntity
  8
0
  6
SLD-SOLID
 62
     7
100
AcDbVertex
100
AcDb2dVertex
 10
256.4442343722
 20
156.0167276304
 30
0.0
  0
VERTEX
  5
29B
330
135
100
AcDbEntity
  8
0
  6
SLD-SOLID
 62
     7
100
AcDbVertex
100
AcDb2dVertex
 10
256.7109696807
 20
156.58667081
 30
0.0
  0
VERTEX
  5
29C
330
135
100
AcDbEntity
  8
0
  6
SLD-SOLID
 62
     7
100
AcDbVertex
100
AcDb2dVertex
 10
256.953497097
 20
157.1818555358
 30
0.0
  0
VERTEX
  5
29D
330
135
100
AcDbEntity
  8
0
  6
SLD-SOLID
 62
     7
100
AcDbVertex
100
AcDb2dVertex
 10
257.1714606789
 20
157.8014082921
 30
0.0
  0
VERTEX
  5
29E
330
135
100
AcDbEntity
  8
0
  6
SLD-SOLID
 62
     7
100
AcDbVertex
100
AcDb2dVertex
 10
257.3645405345
 20
158.4444197998
 30
0.0
  0
VERTEX
  5
29F
330
135
100
AcDbEntity
  8
0
  6
SLD-SOLID
 62
     7
100
AcDbVertex
100
AcDb2dVertex
 10
257.5324532926
 20
159.1099463508
 30
0.0
  0
VERTEX
  5
2A0
330
135
100
AcDbEntity
  8
0
  6
SLD-SOLID
 62
     7
100
AcDbVertex
100
AcDb2dVertex
 10
257.6749525182
 20
159.7970111931
 30
0.0
  0
VERTEX
  5
2A1
330
135
100
AcDbEntity
  8
0
  6
SLD-SOLID
 62
     7
100
AcDbVertex
100
AcDb2dVertex
 10
257.7918290739
 20
160.5046059643
 30
0.0
  0
VERTEX
  5
2A2
330
135
100
AcDbEntity
  8
0
  6
SLD-SOLID
 62
     7
100
AcDbVertex
100
AcDb2dVertex
 10
257.8829114272
 20
161.2316921715
 30
0.0
  0
VERTEX
  5
2A3
330
135
100
AcDbEntity
  8
0
  6
SLD-SOLID
 62
     7
100
AcDbVertex
100
AcDb2dVertex
 10
257.9480659023
 20
161.9772027155
 30
0.0
  0
VERTEX
  5
2A4
330
135
100
AcDbEntity
  8
0
  6
SLD-SOLID
 62
     7
100
AcDbVertex
100
AcDb2dVertex
 10
257.9871968759
 20
162.7400434567
 30
0.0
  0
VERTEX
  5
2A5
330
135
100
AcDbEntity
  8
0
  6
SLD-SOLID
 62
     7
100
AcDbVertex
100
AcDb2dVertex
 10
258.0002469181
 20
163.5190948212
 30
0.0
  0
SEQEND
  5
37B
330
135
100
AcDbEntity
  8
0
  6
SLD-SOLID
 62
     7
  0
POLYLINE
  5
136
330
1F
100
AcDbEntity
  8
0
  6
SLD-SOLID
 62
     7
100
AcDb2dPolyline
 66
     1
 10
0.0
 20
0.0
 30
0.0
 70
   128
  0
VERTEX
  5
2A6
330
136
100
AcDbEntity
  8
0
  6
SLD-SOLID
 62
     7
100
AcDbVertex
100
AcDb2dVertex
 10
258.3538003087
 20
163.5190948212
 30
0.0
  0
VERTEX
  5
2A7
330
136
100
AcDbEntity
  8
0
  6
SLD-SOLID
 62
     7
100
AcDbVertex
100
AcDb2dVertex
 10
258.3407797958
 20
162.7370197083
 30
0.0
  0
VERTEX
  5
2A8
330
136
100
AcDbEntity
  8
0
  6
SLD-SOLID
 62
     7
100
AcDbVertex
100
AcDb2dVertex
 10
258.3017371358
 20
161.9711116937
 30
0.0
  0
VERTEX
  5
2A9
330
136
100
AcDbEntity
  8
0
  6
SLD-SOLID
 62
     7
100
AcDbVertex
100
AcDb2dVertex
 10
258.2367289366
 20
161.2224812708
 30
0.0
  0
VERTEX
  5
2AA
330
136
100
AcDbEntity
  8
0
  6
SLD-SOLID
 62
     7
100
AcDbVertex
100
AcDb2dVertex
 10
258.145849454
 20
160.4922138822
 30
0.0
  0
VERTEX
  5
2AB
330
136
100
AcDbEntity
  8
0
  6
SLD-SOLID
 62
     7
100
AcDbVertex
100
AcDb2dVertex
 10
258.0292304546
 20
159.7813683457
 30
0.0
  0
VERTEX
  5
2AC
330
136
100
AcDbEntity
  8
0
  6
SLD-SOLID
 62
     7
100
AcDbVertex
100
AcDb2dVertex
 10
257.8870410248
 20
159.0909753194
 30
0.0
  0
VERTEX
  5
2AD
330
136
100
AcDbEntity
  8
0
  6
SLD-SOLID
 62
     7
100
AcDbVertex
100
AcDb2dVertex
 10
257.7194873255
 20
158.4220358072
 30
0.0
  0
VERTEX
  5
2AE
330
136
100
AcDbEntity
  8
0
  6
SLD-SOLID
 62
     7
100
AcDbVertex
100
AcDb2dVertex
 10
257.5268122938
 20
157.7755197075
 30
0.0
  0
VERTEX
  5
2AF
330
136
100
AcDbEntity
  8
0
  6
SLD-SOLID
 62
     7
100
AcDbVertex
100
AcDb2dVertex
 10
257.3092952899
 20
157.1523644067
 30
0.0
  0
VERTEX
  5
2B0
330
136
100
AcDbEntity
  8
0
  6
SLD-SOLID
 62
     7
100
AcDbVertex
100
AcDb2dVertex
 10
257.0672516927
 20
156.5534734205
 30
0.0
  0
VERTEX
  5
2B1
330
136
100
AcDbEntity
  8
0
  6
SLD-SOLID
 62
     7
100
AcDbVertex
100
AcDb2dVertex
 10
256.8010324423
 20
155.9797150836
 30
0.0
  0
VERTEX
  5
2B2
330
136
100
AcDbEntity
  8
0
  6
SLD-SOLID
 62
     7
100
AcDbVertex
100
AcDb2dVertex
 10
256.5110235311
 20
155.4319212907
 30
0.0
  0
VERTEX
  5
2B3
330
136
100
AcDbEntity
  8
0
  6
SLD-SOLID
 62
     7
100
AcDbVertex
100
AcDb2dVertex
 10
256.1976454444
 20
154.9108862904
 30
0.0
  0
VERTEX
  5
2B4
330
136
100
AcDbEntity
  8
0
  6
SLD-SOLID
 62
     7
100
AcDbVertex
100
AcDb2dVertex
 10
255.8613525504
 20
154.4173655337
 30
0.0
  0
VERTEX
  5
2B5
330
136
100
AcDbEntity
  8
0
  6
SLD-SOLID
 62
     7
100
AcDbVertex
100
AcDb2dVertex
 10
255.5026324417
 20
153.9520745784
 30
0.0
  0
VERTEX
  5
2B6
330
136
100
AcDbEntity
  8
0
  6
SLD-SOLID
 62
     7
100
AcDbVertex
100
AcDb2dVertex
 10
255.1220052281
 20
153.5156880521
 30
0.0
  0
VERTEX
  5
2B7
330
136
100
AcDbEntity
  8
0
  6
SLD-SOLID
 62
     7
100
AcDbVertex
100
AcDb2dVertex
 10
254.7200227827
 20
153.1088386734
 30
0.0
  0
VERTEX
  5
2B8
330
136
100
AcDbEntity
  8
0
  6
SLD-SOLID
 62
     7
100
AcDbVertex
100
AcDb2dVertex
 10
254.2972679416
 20
152.732116335
 30
0.0
  0
VERTEX
  5
2B9
330
136
100
AcDbEntity
  8
0
  6
SLD-SOLID
 62
     7
100
AcDbVertex
100
AcDb2dVertex
 10
253.8543536589
 20
152.3860672483
 30
0.0
  0
VERTEX
  5
2BA
330
136
100
AcDbEntity
  8
0
  6
SLD-SOLID
 62
     7
100
AcDbVertex
100
AcDb2dVertex
 10
253.391922118
 20
152.0711931515
 30
0.0
  0
VERTEX
  5
2BB
330
136
100
AcDbEntity
  8
0
  6
SLD-SOLID
 62
     7
100
AcDbVertex
100
AcDb2dVertex
 10
252.9106438004
 20
151.7879505817
 30
0.0
  0
VERTEX
  5
2BC
330
136
100
AcDbEntity
  8
0
  6
SLD-SOLID
 62
     7
100
AcDbVertex
100
AcDb2dVertex
 10
252.4112165136
 20
151.5367502138
 30
0.0
  0
VERTEX
  5
2BD
330
136
100
AcDbEntity
  8
0
  6
SLD-SOLID
 62
     7
100
AcDbVertex
100
AcDb2dVertex
 10
251.8943643796
 20
151.3179562642
 30
0.0
  0
VERTEX
  5
2BE
330
136
100
AcDbEntity
  8
0
  6
SLD-SOLID
 62
     7
100
AcDbVertex
100
AcDb2dVertex
 10
251.3608367844
 20
151.1318859632
 30
0.0
  0
VERTEX
  5
2BF
330
136
100
AcDbEntity
  8
0
  6
SLD-SOLID
 62
     7
100
AcDbVertex
100
AcDb2dVertex
 10
250.811407292
 20
150.9788090949
 30
0.0
  0
VERTEX
  5
2C0
330
136
100
AcDbEntity
  8
0
  6
SLD-SOLID
 62
     7
100
AcDbVertex
100
AcDb2dVertex
 10
250.2468725228
 20
150.8589476063
 30
0.0
  0
VERTEX
  5
2C1
330
136
100
AcDbEntity
  8
0
  6
SLD-SOLID
 62
     7
100
AcDbVertex
100
AcDb2dVertex
 10
249.6680509981
 20
150.7724752849
 30
0.0
  0
VERTEX
  5
2C2
330
136
100
AcDbEntity
  8
0
  6
SLD-SOLID
 62
     7
100
AcDbVertex
100
AcDb2dVertex
 10
249.0757819539
 20
150.7195175075
 30
0.0
  0
VERTEX
  5
2C3
330
136
100
AcDbEntity
  8
0
  6
SLD-SOLID
 62
     7
100
AcDbVertex
100
AcDb2dVertex
 10
248.4709241235
 20
150.7001510576
 30
0.0
  0
VERTEX
  5
2C4
330
136
100
AcDbEntity
  8
0
  6
SLD-SOLID
 62
     7
100
AcDbVertex
100
AcDb2dVertex
 10
247.8543544931
 20
150.7144040149
 30
0.0
  0
VERTEX
  5
2C5
330
136
100
AcDbEntity
  8
0
  6
SLD-SOLID
 62
     7
100
AcDbVertex
100
AcDb2dVertex
 10
247.2269670297
 20
150.7622557138
 30
0.0
  0
VERTEX
  5
2C6
330
136
100
AcDbEntity
  8
0
  6
SLD-SOLID
 62
     7
100
AcDbVertex
100
AcDb2dVertex
 10
246.5896713851
 20
150.843636774
 30
0.0
  0
VERTEX
  5
2C7
330
136
100
AcDbEntity
  8
0
  6
SLD-SOLID
 62
     7
100
AcDbVertex
100
AcDb2dVertex
 10
245.943391577
 20
150.9584292008
 30
0.0
  0
VERTEX
  5
2C8
330
136
100
AcDbEntity
  8
0
  6
SLD-SOLID
 62
     7
100
AcDbVertex
100
AcDb2dVertex
 10
245.2890646495
 20
151.106466556
 30
0.0
  0
VERTEX
  5
2C9
330
136
100
AcDbEntity
  8
0
  6
SLD-SOLID
 62
     7
100
AcDbVertex
100
AcDb2dVertex
 10
244.6276393139
 20
151.2875341997
 30
0.0
  0
VERTEX
  5
2CA
330
136
100
AcDbEntity
  8
0
  6
SLD-SOLID
 62
     7
100
AcDbVertex
100
AcDb2dVertex
 10
243.9600745739
 20
151.5013696012
 30
0.0
  0
VERTEX
  5
2CB
330
136
100
AcDbEntity
  8
0
  6
SLD-SOLID
 62
     7
100
AcDbVertex
100
AcDb2dVertex
 10
243.2873383344
 20
151.7476627194
 30
0.0
  0
VERTEX
  5
2CC
330
136
100
AcDbEntity
  8
0
  6
SLD-SOLID
 62
     7
100
AcDbVertex
100
AcDb2dVertex
 10
242.6104059987
 20
152.026056453
 30
0.0
  0
VERTEX
  5
2CD
330
136
100
AcDbEntity
  8
0
  6
SLD-SOLID
 62
     7
100
AcDbVertex
100
AcDb2dVertex
 10
241.9302590539
 20
152.3361471576
 30
0.0
  0
VERTEX
  5
2CE
330
136
100
AcDbEntity
  8
0
  6
SLD-SOLID
 62
     7
100
AcDbVertex
100
AcDb2dVertex
 10
241.2478836482
 20
152.6774852314
 30
0.0
  0
VERTEX
  5
2CF
330
136
100
AcDbEntity
  8
0
  6
SLD-SOLID
 62
     7
100
AcDbVertex
100
AcDb2dVertex
 10
240.5642691605
 20
153.0495757668
 30
0.0
  0
VERTEX
  5
2D0
330
136
100
AcDbEntity
  8
0
  6
SLD-SOLID
 62
     7
100
AcDbVertex
100
AcDb2dVertex
 10
240.3903689782
 20
153.1490266472
 30
0.0
  0
SEQEND
  5
37C
330
136
100
AcDbEntity
  8
0
  6
SLD-SOLID
 62
     7
  0
POLYLINE
  5
137
330
1F
100
AcDbEntity
  8
0
  6
SLD-SOLID
 62
     7
100
AcDb2dPolyline
 66
     1
 10
0.0
 20
0.0
 30
0.0
 70
   128
  0
VERTEX
  5
2D1
330
137
100
AcDbEntity
  8
0
  6
SLD-SOLID
 62
     7
100
AcDbVertex
100
AcDb2dVertex
 10
222.4327758244
 20
184.2558608614
 30
0.0
  0
VERTEX
  5
2D2
330
137
100
AcDbEntity
  8
0
  6
SLD-SOLID
 62
     7
100
AcDbVertex
100
AcDb2dVertex
 10
222.4360312476
 20
184.6488489646
 30
0.0
  0
VERTEX
  5
2D3
330
137
100
AcDbEntity
  8
0
  6
SLD-SOLID
 62
     7
100
AcDbVertex
100
AcDb2dVertex
 10
222.4620675533
 20
185.4229808432
 30
0.0
  0
VERTEX
  5
2D4
330
137
100
AcDbEntity
  8
0
  6
SLD-SOLID
 62
     7
100
AcDbVertex
100
AcDb2dVertex
 10
222.5141024145
 20
186.1803873452
 30
0.0
  0
VERTEX
  5
2D5
330
137
100
AcDbEntity
  8
0
  6
SLD-SOLID
 62
     7
100
AcDbVertex
100
AcDb2dVertex
 10
222.5920603855
 20
186.9199703037
 30
0.0
  0
VERTEX
  5
2D6
330
137
100
AcDbEntity
  8
0
  6
SLD-SOLID
 62
     7
100
AcDbVertex
100
AcDb2dVertex
 10
222.695828435
 20
187.640657394
 30
0.0
  0
VERTEX
  5
2D7
330
137
100
AcDbEntity
  8
0
  6
SLD-SOLID
 62
     7
100
AcDbVertex
100
AcDb2dVertex
 10
222.8252561089
 20
188.3414036888
 30
0.0
  0
VERTEX
  5
2D8
330
137
100
AcDbEntity
  8
0
  6
SLD-SOLID
 62
     7
100
AcDbVertex
100
AcDb2dVertex
 10
222.9801557497
 20
189.0211931729
 30
0.0
  0
VERTEX
  5
2D9
330
137
100
AcDbEntity
  8
0
  6
SLD-SOLID
 62
     7
100
AcDbVertex
100
AcDb2dVertex
 10
223.1603027677
 20
189.6790402166
 30
0.0
  0
VERTEX
  5
2DA
330
137
100
AcDbEntity
  8
0
  6
SLD-SOLID
 62
     7
100
AcDbVertex
100
AcDb2dVertex
 10
223.3654359668
 20
190.3139910045
 30
0.0
  0
VERTEX
  5
2DB
330
137
100
AcDbEntity
  8
0
  6
SLD-SOLID
 62
     7
100
AcDbVertex
100
AcDb2dVertex
 10
223.5952579236
 20
190.9251249188
 30
0.0
  0
VERTEX
  5
2DC
330
137
100
AcDbEntity
  8
0
  6
SLD-SOLID
 62
     7
100
AcDbVertex
100
AcDb2dVertex
 10
223.8494354182
 20
191.5115558736
 30
0.0
  0
VERTEX
  5
2DD
330
137
100
AcDbEntity
  8
0
  6
SLD-SOLID
 62
     7
100
AcDbVertex
100
AcDb2dVertex
 10
224.1275999176
 20
192.0724336001
 30
0.0
  0
VERTEX
  5
2DE
330
137
100
AcDbEntity
  8
0
  6
SLD-SOLID
 62
     7
100
AcDbVertex
100
AcDb2dVertex
 10
224.4293481097
 20
192.6069448792
 30
0.0
  0
VERTEX
  5
2DF
330
137
100
AcDbEntity
  8
0
  6
SLD-SOLID
 62
     7
100
AcDbVertex
100
AcDb2dVertex
 10
224.7542424886
 20
193.1143147208
 30
0.0
  0
VERTEX
  5
2E0
330
137
100
AcDbEntity
  8
0
  6
SLD-SOLID
 62
     7
100
AcDbVertex
100
AcDb2dVertex
 10
225.1018119885
 20
193.593807487
 30
0.0
  0
VERTEX
  5
2E1
330
137
100
AcDbEntity
  8
0
  6
SLD-SOLID
 62
     7
100
AcDbVertex
100
AcDb2dVertex
 10
225.4715526668
 20
194.0447279591
 30
0.0
  0
VERTEX
  5
2E2
330
137
100
AcDbEntity
  8
0
  6
SLD-SOLID
 62
     7
100
AcDbVertex
100
AcDb2dVertex
 10
225.862928435
 20
194.4664223457
 30
0.0
  0
VERTEX
  5
2E3
330
137
100
AcDbEntity
  8
0
  6
SLD-SOLID
 62
     7
100
AcDbVertex
100
AcDb2dVertex
 10
226.2753718354
 20
194.85827923
 30
0.0
  0
VERTEX
  5
2E4
330
137
100
AcDbEntity
  8
0
  6
SLD-SOLID
 62
     7
100
AcDbVertex
100
AcDb2dVertex
 10
226.7082848648
 20
195.2197304572
 30
0.0
  0
VERTEX
  5
2E5
330
137
100
AcDbEntity
  8
0
  6
SLD-SOLID
 62
     7
100
AcDbVertex
100
AcDb2dVertex
 10
227.1610398404
 20
195.5502519575
 30
0.0
  0
VERTEX
  5
2E6
330
137
100
AcDbEntity
  8
0
  6
SLD-SOLID
 62
     7
100
AcDbVertex
100
AcDb2dVertex
 10
227.632980311
 20
195.8493645063
 30
0.0
  0
VERTEX
  5
2E7
330
137
100
AcDbEntity
  8
0
  6
SLD-SOLID
 62
     7
100
AcDbVertex
100
AcDb2dVertex
 10
228.1234220079
 20
196.116634419
 30
0.0
  0
VERTEX
  5
2E8
330
137
100
AcDbEntity
  8
0
  6
SLD-SOLID
 62
     7
100
AcDbVertex
100
AcDb2dVertex
 10
228.6316538376
 20
196.3516741797
 30
0.0
  0
VERTEX
  5
2E9
330
137
100
AcDbEntity
  8
0
  6
SLD-SOLID
 62
     7
100
AcDbVertex
100
AcDb2dVertex
 10
229.1569389125
 20
196.5541430034
 30
0.0
  0
VERTEX
  5
2EA
330
137
100
AcDbEntity
  8
0
  6
SLD-SOLID
 62
     7
100
AcDbVertex
100
AcDb2dVertex
 10
229.6985156195
 20
196.7237473296
 30
0.0
  0
VERTEX
  5
2EB
330
137
100
AcDbEntity
  8
0
  6
SLD-SOLID
 62
     7
100
AcDbVertex
100
AcDb2dVertex
 10
230.2555987241
 20
196.8602412482
 30
0.0
  0
VERTEX
  5
2EC
330
137
100
AcDbEntity
  8
0
  6
SLD-SOLID
 62
     7
100
AcDbVertex
100
AcDb2dVertex
 10
230.827380509
 20
196.963426856
 30
0.0
  0
VERTEX
  5
2ED
330
137
100
AcDbEntity
  8
0
  6
SLD-SOLID
 62
     7
100
AcDbVertex
100
AcDb2dVertex
 10
231.4130319455
 20
197.0331545439
 30
0.0
  0
VERTEX
  5
2EE
330
137
100
AcDbEntity
  8
0
  6
SLD-SOLID
 62
     7
100
AcDbVertex
100
AcDb2dVertex
 10
232.0117038947
 20
197.0693232133
 30
0.0
  0
VERTEX
  5
2EF
330
137
100
AcDbEntity
  8
0
  6
SLD-SOLID
 62
     7
100
AcDbVertex
100
AcDb2dVertex
 10
232.6225283398
 20
197.0718804231
 30
0.0
  0
VERTEX
  5
2F0
330
137
100
AcDbEntity
  8
0
  6
SLD-SOLID
 62
     7
100
AcDbVertex
100
AcDb2dVertex
 10
233.2446196435
 20
197.0408224656
 30
0.0
  0
VERTEX
  5
2F1
330
137
100
AcDbEntity
  8
0
  6
SLD-SOLID
 62
     7
100
AcDbVertex
100
AcDb2dVertex
 10
233.877075833
 20
196.9761943719
 30
0.0
  0
VERTEX
  5
2F2
330
137
100
AcDbEntity
  8
0
  6
SLD-SOLID
 62
     7
100
AcDbVertex
100
AcDb2dVertex
 10
234.5189799074
 20
196.8780898465
 30
0.0
  0
VERTEX
  5
2F3
330
137
100
AcDbEntity
  8
0
  6
SLD-SOLID
 62
     7
100
AcDbVertex
100
AcDb2dVertex
 10
235.1694011669
 20
196.7466511317
 30
0.0
  0
VERTEX
  5
2F4
330
137
100
AcDbEntity
  8
0
  6
SLD-SOLID
 62
     7
100
AcDbVertex
100
AcDb2dVertex
 10
235.8273965631
 20
196.5820688009
 30
0.0
  0
VERTEX
  5
2F5
330
137
100
AcDbEntity
  8
0
  6
SLD-SOLID
 62
     7
100
AcDbVertex
100
AcDb2dVertex
 10
236.4920120654
 20
196.3845814829
 30
0.0
  0
VERTEX
  5
2F6
330
137
100
AcDbEntity
  8
0
  6
SLD-SOLID
 62
     7
100
AcDbVertex
100
AcDb2dVertex
 10
237.162284045
 20
196.1544755153
 30
0.0
  0
VERTEX
  5
2F7
330
137
100
AcDbEntity
  8
0
  6
SLD-SOLID
 62
     7
100
AcDbVertex
100
AcDb2dVertex
 10
237.8372406715
 20
195.8920845299
 30
0.0
  0
VERTEX
  5
2F8
330
137
100
AcDbEntity
  8
0
  6
SLD-SOLID
 62
     7
100
AcDbVertex
100
AcDb2dVertex
 10
238.5159033224
 20
195.5977889684
 30
0.0
  0
VERTEX
  5
2F9
330
137
100
AcDbEntity
  8
0
  6
SLD-SOLID
 62
     7
100
AcDbVertex
100
AcDb2dVertex
 10
239.1972880016
 20
195.2720155313
 30
0.0
  0
VERTEX
  5
2FA
330
137
100
AcDbEntity
  8
0
  6
SLD-SOLID
 62
     7
100
AcDbVertex
100
AcDb2dVertex
 10
239.8804067667
 20
194.9152365589
 30
0.0
  0
VERTEX
  5
2FB
330
137
100
AcDbEntity
  8
0
  6
SLD-SOLID
 62
     7
100
AcDbVertex
100
AcDb2dVertex
 10
240.5642691605
 20
194.5279693467
 30
0.0
  0
VERTEX
  5
2FC
330
137
100
AcDbEntity
  8
0
  6
SLD-SOLID
 62
     7
100
AcDbVertex
100
AcDb2dVertex
 10
241.2478836482
 20
194.110775395
 30
0.0
  0
VERTEX
  5
2FD
330
137
100
AcDbEntity
  8
0
  6
SLD-SOLID
 62
     7
100
AcDbVertex
100
AcDb2dVertex
 10
241.9302590539
 20
193.6642595953
 30
0.0
  0
VERTEX
  5
2FE
330
137
100
AcDbEntity
  8
0
  6
SLD-SOLID
 62
     7
100
AcDbVertex
100
AcDb2dVertex
 10
242.6104059987
 20
193.1890693526
 30
0.0
  0
VERTEX
  5
2FF
330
137
100
AcDbEntity
  8
0
  6
SLD-SOLID
 62
     7
100
AcDbVertex
100
AcDb2dVertex
 10
243.2873383344
 20
192.6858936476
 30
0.0
  0
VERTEX
  5
300
330
137
100
AcDbEntity
  8
0
  6
SLD-SOLID
 62
     7
100
AcDbVertex
100
AcDb2dVertex
 10
243.9600745739
 20
192.1554620368
 30
0.0
  0
VERTEX
  5
301
330
137
100
AcDbEntity
  8
0
  6
SLD-SOLID
 62
     7
100
AcDbVertex
100
AcDb2dVertex
 10
244.6276393139
 20
191.5985435953
 30
0.0
  0
VERTEX
  5
302
330
137
100
AcDbEntity
  8
0
  6
SLD-SOLID
 62
     7
100
AcDbVertex
100
AcDb2dVertex
 10
245.2890646495
 20
191.0159458017
 30
0.0
  0
VERTEX
  5
303
330
137
100
AcDbEntity
  8
0
  6
SLD-SOLID
 62
     7
100
AcDbVertex
100
AcDb2dVertex
 10
245.943391577
 20
190.408513367
 30
0.0
  0
VERTEX
  5
304
330
137
100
AcDbEntity
  8
0
  6
SLD-SOLID
 62
     7
100
AcDbVertex
100
AcDb2dVertex
 10
246.5896713851
 20
189.7771270102
 30
0.0
  0
VERTEX
  5
305
330
137
100
AcDbEntity
  8
0
  6
SLD-SOLID
 62
     7
100
AcDbVertex
100
AcDb2dVertex
 10
247.2269670297
 20
189.1227021813
 30
0.0
  0
VERTEX
  5
306
330
137
100
AcDbEntity
  8
0
  6
SLD-SOLID
 62
     7
100
AcDbVertex
100
AcDb2dVertex
 10
247.8543544931
 20
188.4461877335
 30
0.0
  0
VERTEX
  5
307
330
137
100
AcDbEntity
  8
0
  6
SLD-SOLID
 62
     7
100
AcDbVertex
100
AcDb2dVertex
 10
248.4709241235
 20
187.7485645482
 30
0.0
  0
VERTEX
  5
308
330
137
100
AcDbEntity
  8
0
  6
SLD-SOLID
 62
     7
100
AcDbVertex
100
AcDb2dVertex
 10
249.0757819539
 20
187.0308441123
 30
0.0
  0
VERTEX
  5
309
330
137
100
AcDbEntity
  8
0
  6
SLD-SOLID
 62
     7
100
AcDbVertex
100
AcDb2dVertex
 10
249.6680509981
 20
186.2940670518
 30
0.0
  0
VERTEX
  5
30A
330
137
100
AcDbEntity
  8
0
  6
SLD-SOLID
 62
     7
100
AcDbVertex
100
AcDb2dVertex
 10
250.2468725228
 20
185.5393016231
 30
0.0
  0
VERTEX
  5
30B
330
137
100
AcDbEntity
  8
0
  6
SLD-SOLID
 62
     7
100
AcDbVertex
100
AcDb2dVertex
 10
250.811407292
 20
184.7676421638
 30
0.0
  0
VERTEX
  5
30C
330
137
100
AcDbEntity
  8
0
  6
SLD-SOLID
 62
     7
100
AcDbVertex
100
AcDb2dVertex
 10
251.3608367844
 20
183.9802075064
 30
0.0
  0
VERTEX
  5
30D
330
137
100
AcDbEntity
  8
0
  6
SLD-SOLID
 62
     7
100
AcDbVertex
100
AcDb2dVertex
 10
251.8943643796
 20
183.1781393559
 30
0.0
  0
VERTEX
  5
30E
330
137
100
AcDbEntity
  8
0
  6
SLD-SOLID
 62
     7
100
AcDbVertex
100
AcDb2dVertex
 10
252.4112165136
 20
182.3626006343
 30
0.0
  0
VERTEX
  5
30F
330
137
100
AcDbEntity
  8
0
  6
SLD-SOLID
 62
     7
100
AcDbVertex
100
AcDb2dVertex
 10
252.9106438004
 20
181.534773795
 30
0.0
  0
VERTEX
  5
310
330
137
100
AcDbEntity
  8
0
  6
SLD-SOLID
 62
     7
100
AcDbVertex
100
AcDb2dVertex
 10
253.391922118
 20
180.6958591076
 30
0.0
  0
VERTEX
  5
311
330
137
100
AcDbEntity
  8
0
  6
SLD-SOLID
 62
     7
100
AcDbVertex
100
AcDb2dVertex
 10
253.8543536589
 20
179.8470729182
 30
0.0
  0
VERTEX
  5
312
330
137
100
AcDbEntity
  8
0
  6
SLD-SOLID
 62
     7
100
AcDbVertex
100
AcDb2dVertex
 10
254.2972679416
 20
178.9896458857
 30
0.0
  0
VERTEX
  5
313
330
137
100
AcDbEntity
  8
0
  6
SLD-SOLID
 62
     7
100
AcDbVertex
100
AcDb2dVertex
 10
254.7200227827
 20
178.1248211973
 30
0.0
  0
VERTEX
  5
314
330
137
100
AcDbEntity
  8
0
  6
SLD-SOLID
 62
     7
100
AcDbVertex
100
AcDb2dVertex
 10
255.1220052281
 20
177.2538527662
 30
0.0
  0
VERTEX
  5
315
330
137
100
AcDbEntity
  8
0
  6
SLD-SOLID
 62
     7
100
AcDbVertex
100
AcDb2dVertex
 10
255.5026324417
 20
176.3780034133
 30
0.0
  0
VERTEX
  5
316
330
137
100
AcDbEntity
  8
0
  6
SLD-SOLID
 62
     7
100
AcDbVertex
100
AcDb2dVertex
 10
255.8613525504
 20
175.4985430363
 30
0.0
  0
VERTEX
  5
317
330
137
100
AcDbEntity
  8
0
  6
SLD-SOLID
 62
     7
100
AcDbVertex
100
AcDb2dVertex
 10
256.1976454444
 20
174.6167467689
 30
0.0
  0
VERTEX
  5
318
330
137
100
AcDbEntity
  8
0
  6
SLD-SOLID
 62
     7
100
AcDbVertex
100
AcDb2dVertex
 10
256.5110235311
 20
173.7338931312
 30
0.0
  0
VERTEX
  5
319
330
137
100
AcDbEntity
  8
0
  6
SLD-SOLID
 62
     7
100
AcDbVertex
100
AcDb2dVertex
 10
256.8010324423
 20
172.8512621767
 30
0.0
  0
VERTEX
  5
31A
330
137
100
AcDbEntity
  8
0
  6
SLD-SOLID
 62
     7
100
AcDbVertex
100
AcDb2dVertex
 10
257.0672516927
 20
171.9701336358
 30
0.0
  0
VERTEX
  5
31B
330
137
100
AcDbEntity
  8
0
  6
SLD-SOLID
 62
     7
100
AcDbVertex
100
AcDb2dVertex
 10
257.3092952899
 20
171.0917850607
 30
0.0
  0
VERTEX
  5
31C
330
137
100
AcDbEntity
  8
0
  6
SLD-SOLID
 62
     7
100
AcDbVertex
100
AcDb2dVertex
 10
257.5268122938
 20
170.2174899729
 30
0.0
  0
VERTEX
  5
31D
330
137
100
AcDbEntity
  8
0
  6
SLD-SOLID
 62
     7
100
AcDbVertex
100
AcDb2dVertex
 10
257.7194873255
 20
169.3485160166
 30
0.0
  0
VERTEX
  5
31E
330
137
100
AcDbEntity
  8
0
  6
SLD-SOLID
 62
     7
100
AcDbVertex
100
AcDb2dVertex
 10
257.8870410248
 20
168.4861231211
 30
0.0
  0
VERTEX
  5
31F
330
137
100
AcDbEntity
  8
0
  6
SLD-SOLID
 62
     7
100
AcDbVertex
100
AcDb2dVertex
 10
258.0292304546
 20
167.6315616735
 30
0.0
  0
VERTEX
  5
320
330
137
100
AcDbEntity
  8
0
  6
SLD-SOLID
 62
     7
100
AcDbVertex
100
AcDb2dVertex
 10
258.145849454
 20
166.7860707063
 30
0.0
  0
VERTEX
  5
321
330
137
100
AcDbEntity
  8
0
  6
SLD-SOLID
 62
     7
100
AcDbVertex
100
AcDb2dVertex
 10
258.2367289366
 20
165.9508761005
 30
0.0
  0
VERTEX
  5
322
330
137
100
AcDbEntity
  8
0
  6
SLD-SOLID
 62
     7
100
AcDbVertex
100
AcDb2dVertex
 10
258.3017371358
 20
165.1271888086
 30
0.0
  0
VERTEX
  5
323
330
137
100
AcDbEntity
  8
0
  6
SLD-SOLID
 62
     7
100
AcDbVertex
100
AcDb2dVertex
 10
258.3407797958
 20
164.3162030982
 30
0.0
  0
VERTEX
  5
324
330
137
100
AcDbEntity
  8
0
  6
SLD-SOLID
 62
     7
100
AcDbVertex
100
AcDb2dVertex
 10
258.3538003087
 20
163.5190948212
 30
0.0
  0
VERTEX
  5
325
330
137
100
AcDbEntity
  8
0
  6
SLD-SOLID
 62
     7
100
AcDbVertex
100
AcDb2dVertex
 10
258.3538003087
 20
163.5190948212
 30
0.0
  0
SEQEND
  5
37D
330
137
100
AcDbEntity
  8
0
  6
SLD-SOLID
 62
     7
  0
POLYLINE
  5
138
330
1F
100
AcDbEntity
  8
0
  6
SLD-SOLID
 62
     7
100
AcDb2dPolyline
 66
     1
 10
0.0
 20
0.0
 30
0.0
 70
   128
  0
VERTEX
  5
326
330
138
100
AcDbEntity
  8
0
  6
SLD-SOLID
 62
     7
100
AcDbVertex
100
AcDb2dVertex
 10
266.4855282923
 20
168.2134414641
 30
0.0
  0
VERTEX
  5
327
330
138
100
AcDbEntity
  8
0
  6
SLD-SOLID
 62
     7
100
AcDbVertex
100
AcDb2dVertex
 10
266.4725077795
 20
169.0105497412
 30
0.0
  0
VERTEX
  5
328
330
138
100
AcDbEntity
  8
0
  6
SLD-SOLID
 62
     7
100
AcDbVertex
100
AcDb2dVertex
 10
266.4334651194
 20
169.8215354515
 30
0.0
  0
VERTEX
  5
329
330
138
100
AcDbEntity
  8
0
  6
SLD-SOLID
 62
     7
100
AcDbVertex
100
AcDb2dVertex
 10
266.3684569202
 20
170.6452227435
 30
0.0
  0
VERTEX
  5
32A
330
138
100
AcDbEntity
  8
0
  6
SLD-SOLID
 62
     7
100
AcDbVertex
100
AcDb2dVertex
 10
266.2775774377
 20
171.4804173493
 30
0.0
  0
VERTEX
  5
32B
330
138
100
AcDbEntity
  8
0
  6
SLD-SOLID
 62
     7
100
AcDbVertex
100
AcDb2dVertex
 10
266.1609584383
 20
172.3259083165
 30
0.0
  0
VERTEX
  5
32C
330
138
100
AcDbEntity
  8
0
  6
SLD-SOLID
 62
     7
100
AcDbVertex
100
AcDb2dVertex
 10
266.0187690084
 20
173.1804697641
 30
0.0
  0
VERTEX
  5
32D
330
138
100
AcDbEntity
  8
0
  6
SLD-SOLID
 62
     7
100
AcDbVertex
100
AcDb2dVertex
 10
265.8512153092
 20
174.0428626596
 30
0.0
  0
VERTEX
  5
32E
330
138
100
AcDbEntity
  8
0
  6
SLD-SOLID
 62
     7
100
AcDbVertex
100
AcDb2dVertex
 10
265.6585402774
 20
174.9118366159
 30
0.0
  0
VERTEX
  5
32F
330
138
100
AcDbEntity
  8
0
  6
SLD-SOLID
 62
     7
100
AcDbVertex
100
AcDb2dVertex
 10
265.4410232735
 20
175.7861317037
 30
0.0
  0
VERTEX
  5
330
330
138
100
AcDbEntity
  8
0
  6
SLD-SOLID
 62
     7
100
AcDbVertex
100
AcDb2dVertex
 10
265.1989796763
 20
176.6644802788
 30
0.0
  0
VERTEX
  5
331
330
138
100
AcDbEntity
  8
0
  6
SLD-SOLID
 62
     7
100
AcDbVertex
100
AcDb2dVertex
 10
264.9327604259
 20
177.5456088196
 30
0.0
  0
VERTEX
  5
332
330
138
100
AcDbEntity
  8
0
  6
SLD-SOLID
 62
     7
100
AcDbVertex
100
AcDb2dVertex
 10
264.6427515148
 20
178.4282397742
 30
0.0
  0
VERTEX
  5
333
330
138
100
AcDbEntity
  8
0
  6
SLD-SOLID
 62
     7
100
AcDbVertex
100
AcDb2dVertex
 10
264.3293734281
 20
179.3110934119
 30
0.0
  0
VERTEX
  5
334
330
138
100
AcDbEntity
  8
0
  6
SLD-SOLID
 62
     7
100
AcDbVertex
100
AcDb2dVertex
 10
263.9930805341
 20
180.1928896793
 30
0.0
  0
VERTEX
  5
335
330
138
100
AcDbEntity
  8
0
  6
SLD-SOLID
 62
     7
100
AcDbVertex
100
AcDb2dVertex
 10
263.6343604253
 20
181.0723500562
 30
0.0
  0
VERTEX
  5
336
330
138
100
AcDbEntity
  8
0
  6
SLD-SOLID
 62
     7
100
AcDbVertex
100
AcDb2dVertex
 10
263.2537332117
 20
181.9481994092
 30
0.0
  0
VERTEX
  5
337
330
138
100
AcDbEntity
  8
0
  6
SLD-SOLID
 62
     7
100
AcDbVertex
100
AcDb2dVertex
 10
262.8517507663
 20
182.8191678403
 30
0.0
  0
VERTEX
  5
338
330
138
100
AcDbEntity
  8
0
  6
SLD-SOLID
 62
     7
100
AcDbVertex
100
AcDb2dVertex
 10
262.4289959252
 20
183.6839925287
 30
0.0
  0
VERTEX
  5
339
330
138
100
AcDbEntity
  8
0
  6
SLD-SOLID
 62
     7
100
AcDbVertex
100
AcDb2dVertex
 10
261.9860816425
 20
184.5414195612
 30
0.0
  0
VERTEX
  5
33A
330
138
100
AcDbEntity
  8
0
  6
SLD-SOLID
 62
     7
100
AcDbVertex
100
AcDb2dVertex
 10
261.5236501016
 20
185.3902057505
 30
0.0
  0
VERTEX
  5
33B
330
138
100
AcDbEntity
  8
0
  6
SLD-SOLID
 62
     7
100
AcDbVertex
100
AcDb2dVertex
 10
261.042371784
 20
186.2291204379
 30
0.0
  0
VERTEX
  5
33C
330
138
100
AcDbEntity
  8
0
  6
SLD-SOLID
 62
     7
100
AcDbVertex
100
AcDb2dVertex
 10
260.5429444973
 20
187.0569472773
 30
0.0
  0
VERTEX
  5
33D
330
138
100
AcDbEntity
  8
0
  6
SLD-SOLID
 62
     7
100
AcDbVertex
100
AcDb2dVertex
 10
260.0260923632
 20
187.8724859988
 30
0.0
  0
VERTEX
  5
33E
330
138
100
AcDbEntity
  8
0
  6
SLD-SOLID
 62
     7
100
AcDbVertex
100
AcDb2dVertex
 10
259.492564768
 20
188.6745541494
 30
0.0
  0
VERTEX
  5
33F
330
138
100
AcDbEntity
  8
0
  6
SLD-SOLID
 62
     7
100
AcDbVertex
100
AcDb2dVertex
 10
258.9431352757
 20
189.4619888068
 30
0.0
  0
VERTEX
  5
340
330
138
100
AcDbEntity
  8
0
  6
SLD-SOLID
 62
     7
100
AcDbVertex
100
AcDb2dVertex
 10
258.3786005064
 20
190.2336482661
 30
0.0
  0
VERTEX
  5
341
330
138
100
AcDbEntity
  8
0
  6
SLD-SOLID
 62
     7
100
AcDbVertex
100
AcDb2dVertex
 10
257.7997789818
 20
190.9884136948
 30
0.0
  0
VERTEX
  5
342
330
138
100
AcDbEntity
  8
0
  6
SLD-SOLID
 62
     7
100
AcDbVertex
100
AcDb2dVertex
 10
257.2075099375
 20
191.7251907553
 30
0.0
  0
VERTEX
  5
343
330
138
100
AcDbEntity
  8
0
  6
SLD-SOLID
 62
     7
100
AcDbVertex
100
AcDb2dVertex
 10
256.6026521072
 20
192.4429111912
 30
0.0
  0
VERTEX
  5
344
330
138
100
AcDbEntity
  8
0
  6
SLD-SOLID
 62
     7
100
AcDbVertex
100
AcDb2dVertex
 10
255.9860824768
 20
193.1405343765
 30
0.0
  0
VERTEX
  5
345
330
138
100
AcDbEntity
  8
0
  6
SLD-SOLID
 62
     7
100
AcDbVertex
100
AcDb2dVertex
 10
255.3586950133
 20
193.8170488242
 30
0.0
  0
VERTEX
  5
346
330
138
100
AcDbEntity
  8
0
  6
SLD-SOLID
 62
     7
100
AcDbVertex
100
AcDb2dVertex
 10
254.7213993687
 20
194.4714736532
 30
0.0
  0
VERTEX
  5
347
330
138
100
AcDbEntity
  8
0
  6
SLD-SOLID
 62
     7
100
AcDbVertex
100
AcDb2dVertex
 10
254.0751195607
 20
195.10286001
 30
0.0
  0
VERTEX
  5
348
330
138
100
AcDbEntity
  8
0
  6
SLD-SOLID
 62
     7
100
AcDbVertex
100
AcDb2dVertex
 10
253.4207926331
 20
195.7102924446
 30
0.0
  0
VERTEX
  5
349
330
138
100
AcDbEntity
  8
0
  6
SLD-SOLID
 62
     7
100
AcDbVertex
100
AcDb2dVertex
 10
252.7593672976
 20
196.2928902383
 30
0.0
  0
VERTEX
  5
34A
330
138
100
AcDbEntity
  8
0
  6
SLD-SOLID
 62
     7
100
AcDbVertex
100
AcDb2dVertex
 10
252.0918025575
 20
196.8498086797
 30
0.0
  0
VERTEX
  5
34B
330
138
100
AcDbEntity
  8
0
  6
SLD-SOLID
 62
     7
100
AcDbVertex
100
AcDb2dVertex
 10
251.419066318
 20
197.3802402906
 30
0.0
  0
VERTEX
  5
34C
330
138
100
AcDbEntity
  8
0
  6
SLD-SOLID
 62
     7
100
AcDbVertex
100
AcDb2dVertex
 10
250.7421339823
 20
197.8834159956
 30
0.0
  0
VERTEX
  5
34D
330
138
100
AcDbEntity
  8
0
  6
SLD-SOLID
 62
     7
100
AcDbVertex
100
AcDb2dVertex
 10
250.0619870376
 20
198.3586062382
 30
0.0
  0
VERTEX
  5
34E
330
138
100
AcDbEntity
  8
0
  6
SLD-SOLID
 62
     7
100
AcDbVertex
100
AcDb2dVertex
 10
249.3796116318
 20
198.805122038
 30
0.0
  0
VERTEX
  5
34F
330
138
100
AcDbEntity
  8
0
  6
SLD-SOLID
 62
     7
100
AcDbVertex
100
AcDb2dVertex
 10
248.6959971442
 20
199.2223159897
 30
0.0
  0
VERTEX
  5
350
330
138
100
AcDbEntity
  8
0
  6
SLD-SOLID
 62
     7
100
AcDbVertex
100
AcDb2dVertex
 10
248.0121347503
 20
199.6095832019
 30
0.0
  0
VERTEX
  5
351
330
138
100
AcDbEntity
  8
0
  6
SLD-SOLID
 62
     7
100
AcDbVertex
100
AcDb2dVertex
 10
247.3290159853
 20
199.9663621743
 30
0.0
  0
VERTEX
  5
352
330
138
100
AcDbEntity
  8
0
  6
SLD-SOLID
 62
     7
100
AcDbVertex
100
AcDb2dVertex
 10
246.647631306
 20
200.2921356114
 30
0.0
  0
VERTEX
  5
353
330
138
100
AcDbEntity
  8
0
  6
SLD-SOLID
 62
     7
100
AcDbVertex
100
AcDb2dVertex
 10
245.9689686551
 20
200.5864311728
 30
0.0
  0
VERTEX
  5
354
330
138
100
AcDbEntity
  8
0
  6
SLD-SOLID
 62
     7
100
AcDbVertex
100
AcDb2dVertex
 10
245.2940120286
 20
200.8488221583
 30
0.0
  0
VERTEX
  5
355
330
138
100
AcDbEntity
  8
0
  6
SLD-SOLID
 62
     7
100
AcDbVertex
100
AcDb2dVertex
 10
244.6237400491
 20
201.0789281259
 30
0.0
  0
VERTEX
  5
356
330
138
100
AcDbEntity
  8
0
  6
SLD-SOLID
 62
     7
100
AcDbVertex
100
AcDb2dVertex
 10
243.9591245467
 20
201.2764154439
 30
0.0
  0
VERTEX
  5
357
330
138
100
AcDbEntity
  8
0
  6
SLD-SOLID
 62
     7
100
AcDbVertex
100
AcDb2dVertex
 10
243.3011291506
 20
201.4409977747
 30
0.0
  0
VERTEX
  5
358
330
138
100
AcDbEntity
  8
0
  6
SLD-SOLID
 62
     7
100
AcDbVertex
100
AcDb2dVertex
 10
242.650707891
 20
201.5724364895
 30
0.0
  0
VERTEX
  5
359
330
138
100
AcDbEntity
  8
0
  6
SLD-SOLID
 62
     7
100
AcDbVertex
100
AcDb2dVertex
 10
242.0088038167
 20
201.6705410149
 30
0.0
  0
VERTEX
  5
35A
330
138
100
AcDbEntity
  8
0
  6
SLD-SOLID
 62
     7
100
AcDbVertex
100
AcDb2dVertex
 10
241.3763476271
 20
201.7351691086
 30
0.0
  0
VERTEX
  5
35B
330
138
100
AcDbEntity
  8
0
  6
SLD-SOLID
 62
     7
100
AcDbVertex
100
AcDb2dVertex
 10
240.7542563234
 20
201.7662270661
 30
0.0
  0
VERTEX
  5
35C
330
138
100
AcDbEntity
  8
0
  6
SLD-SOLID
 62
     7
100
AcDbVertex
100
AcDb2dVertex
 10
240.1434318784
 20
201.7636698563
 30
0.0
  0
VERTEX
  5
35D
330
138
100
AcDbEntity
  8
0
  6
SLD-SOLID
 62
     7
100
AcDbVertex
100
AcDb2dVertex
 10
239.5447599291
 20
201.7275011869
 30
0.0
  0
VERTEX
  5
35E
330
138
100
AcDbEntity
  8
0
  6
SLD-SOLID
 62
     7
100
AcDbVertex
100
AcDb2dVertex
 10
238.9591084927
 20
201.657773499
 30
0.0
  0
VERTEX
  5
35F
330
138
100
AcDbEntity
  8
0
  6
SLD-SOLID
 62
     7
100
AcDbVertex
100
AcDb2dVertex
 10
238.3873267077
 20
201.5545878912
 30
0.0
  0
VERTEX
  5
360
330
138
100
AcDbEntity
  8
0
  6
SLD-SOLID
 62
     7
100
AcDbVertex
100
AcDb2dVertex
 10
237.8302436031
 20
201.4180939726
 30
0.0
  0
VERTEX
  5
361
330
138
100
AcDbEntity
  8
0
  6
SLD-SOLID
 62
     7
100
AcDbVertex
100
AcDb2dVertex
 10
237.2886668962
 20
201.2484896464
 30
0.0
  0
VERTEX
  5
362
330
138
100
AcDbEntity
  8
0
  6
SLD-SOLID
 62
     7
100
AcDbVertex
100
AcDb2dVertex
 10
236.7633818213
 20
201.0460208227
 30
0.0
  0
VERTEX
  5
363
330
138
100
AcDbEntity
  8
0
  6
SLD-SOLID
 62
     7
100
AcDbVertex
100
AcDb2dVertex
 10
236.2551499916
 20
200.8109810619
 30
0.0
  0
VERTEX
  5
364
330
138
100
AcDbEntity
  8
0
  6
SLD-SOLID
 62
     7
100
AcDbVertex
100
AcDb2dVertex
 10
235.8260481457
 20
200.5794655887
 30
0.0
  0
SEQEND
  5
37E
330
138
100
AcDbEntity
  8
0
  6
SLD-SOLID
 62
     7
  0
POLYLINE
  5
139
330
1F
100
AcDbEntity
  8
0
  6
SLD-SOLID
 62
     7
100
AcDb2dPolyline
 66
     1
 10
0.0
 20
0.0
 30
0.0
 70
   128
  0
VERTEX
  5
365
330
139
100
AcDbEntity
  8
0
  6
SLD-SOLID
 62
     7
100
AcDbVertex
100
AcDb2dVertex
 10
261.2239839547
 20
156.5841833798
 30
0.0
  0
VERTEX
  5
366
330
139
100
AcDbEntity
  8
0
  6
SLD-SOLID
 62
     7
100
AcDbVertex
100
AcDb2dVertex
 10
261.5236501016
 20
156.7655397944
 30
0.0
  0
VERTEX
  5
367
330
139
100
AcDbEntity
  8
0
  6
SLD-SOLID
 62
     7
100
AcDbVertex
100
AcDb2dVertex
 10
261.9860816425
 20
157.0804138913
 30
0.0
  0
VERTEX
  5
368
330
139
100
AcDbEntity
  8
0
  6
SLD-SOLID
 62
     7
100
AcDbVertex
100
AcDb2dVertex
 10
262.4289959252
 20
157.426462978
 30
0.0
  0
VERTEX
  5
369
330
139
100
AcDbEntity
  8
0
  6
SLD-SOLID
 62
     7
100
AcDbVertex
100
AcDb2dVertex
 10
262.8517507663
 20
157.8031853164
 30
0.0
  0
VERTEX
  5
36A
330
139
100
AcDbEntity
  8
0
  6
SLD-SOLID
 62
     7
100
AcDbVertex
100
AcDb2dVertex
 10
263.2537332117
 20
158.2100346951
 30
0.0
  0
VERTEX
  5
36B
330
139
100
AcDbEntity
  8
0
  6
SLD-SOLID
 62
     7
100
AcDbVertex
100
AcDb2dVertex
 10
263.6343604253
 20
158.6464212214
 30
0.0
  0
VERTEX
  5
36C
330
139
100
AcDbEntity
  8
0
  6
SLD-SOLID
 62
     7
100
AcDbVertex
100
AcDb2dVertex
 10
263.9930805341
 20
159.1117121767
 30
0.0
  0
VERTEX
  5
36D
330
139
100
AcDbEntity
  8
0
  6
SLD-SOLID
 62
     7
100
AcDbVertex
100
AcDb2dVertex
 10
264.3293734281
 20
159.6052329334
 30
0.0
  0
VERTEX
  5
36E
330
139
100
AcDbEntity
  8
0
  6
SLD-SOLID
 62
     7
100
AcDbVertex
100
AcDb2dVertex
 10
264.6427515148
 20
160.1262679337
 30
0.0
  0
VERTEX
  5
36F
330
139
100
AcDbEntity
  8
0
  6
SLD-SOLID
 62
     7
100
AcDbVertex
100
AcDb2dVertex
 10
264.9327604259
 20
160.6740617266
 30
0.0
  0
VERTEX
  5
370
330
139
100
AcDbEntity
  8
0
  6
SLD-SOLID
 62
     7
100
AcDbVertex
100
AcDb2dVertex
 10
265.1989796763
 20
161.2478200635
 30
0.0
  0
VERTEX
  5
371
330
139
100
AcDbEntity
  8
0
  6
SLD-SOLID
 62
     7
100
AcDbVertex
100
AcDb2dVertex
 10
265.4410232735
 20
161.8467110497
 30
0.0
  0
VERTEX
  5
372
330
139
100
AcDbEntity
  8
0
  6
SLD-SOLID
 62
     7
100
AcDbVertex
100
AcDb2dVertex
 10
265.6585402774
 20
162.4698663505
 30
0.0
  0
VERTEX
  5
373
330
139
100
AcDbEntity
  8
0
  6
SLD-SOLID
 62
     7
100
AcDbVertex
100
AcDb2dVertex
 10
265.8512153092
 20
163.1163824502
 30
0.0
  0
VERTEX
  5
374
330
139
100
AcDbEntity
  8
0
  6
SLD-SOLID
 62
     7
100
AcDbVertex
100
AcDb2dVertex
 10
266.0187690084
 20
163.7853219624
 30
0.0
  0
VERTEX
  5
375
330
139
100
AcDbEntity
  8
0
  6
SLD-SOLID
 62
     7
100
AcDbVertex
100
AcDb2dVertex
 10
266.1609584383
 20
164.4757149887
 30
0.0
  0
VERTEX
  5
376
330
139
100
AcDbEntity
  8
0
  6
SLD-SOLID
 62
     7
100
AcDbVertex
100
AcDb2dVertex
 10
266.2775774377
 20
165.1865605252
 30
0.0
  0
VERTEX
  5
377
330
139
100
AcDbEntity
  8
0
  6
SLD-SOLID
 62
     7
100
AcDbVertex
100
AcDb2dVertex
 10
266.3684569202
 20
165.9168279138
 30
0.0
  0
VERTEX
  5
378
330
139
100
AcDbEntity
  8
0
  6
SLD-SOLID
 62
     7
100
AcDbVertex
100
AcDb2dVertex
 10
266.4334651194
 20
166.6654583367
 30
0.0
  0
VERTEX
  5
379
330
139
100
AcDbEntity
  8
0
  6
SLD-SOLID
 62
     7
100
AcDbVertex
100
AcDb2dVertex
 10
266.4725077795
 20
167.4313663513
 30
0.0
  0
VERTEX
  5
37A
330
139
100
AcDbEntity
  8
0
  6
SLD-SOLID
 62
     7
100
AcDbVertex
100
AcDb2dVertex
 10
266.4855282923
 20
168.2134414641
 30
0.0
  0
SEQEND
  5
37F
330
139
100
AcDbEntity
  8
0
  6
SLD-SOLID
 62
     7
  0
ARC
  5
13A
330
1F
100
AcDbEntity
  8
0
  6
SLD-SOLID
 62
     7
100
AcDbCircle
 10
227.9058807839
 20
166.6786510613
 30
0.0
 40
38.61881599370759
100
AcDbArc
 50
2.5807340673
 51
57.4138894
  0
LINE
  5
13B
330
1F
100
AcDbEntity
  8
0
  6
SLD-SOLID
 62
     7
100
AcDbLine
 10
217.5564098167
 20
106.5718140513
 30
0.0
 11
217.1036613306
 21
106.5718140513
 31
0.0
  0
SPLINE
  5
13C
330
1F
100
AcDbEntity
  8
0
  6
SLD-SOLID
 62
     7
100
AcDbSpline
210
0.0
220
0.0
230
1.0
 70
     8
 71
     3
 72
    14
 73
    10
 74
     0
 42
0.000000001
 43
0.00000001
 40
0.0
 40
0.0
 40
0.0
 40
0.0
 40
0.1250540397031397
 40
0.2500367487108058
 40
0.3750026611438247
 40
0.4998329338928355
 40
0.6662260835795712
 40
0.8330904737964191
 40
1.0
 40
1.0
 40
1.0
 40
1.0
 10
218.0519636142099
 20
106.2162006949491
 30
0.0
 10
218.0505996000743
 20
106.2454195605135
 30
0.0
 10
218.0478723498355
 20
106.3038406252313
 30
0.0
 10
218.0180798613828
 20
106.3872644980863
 30
0.0
 10
217.969156598753
 20
106.4607283017815
 30
0.0
 10
217.891961825371
 20
106.5222489954031
 30
0.0
 10
217.7888865145023
 20
106.55609495425
 30
0.0
 10
217.6730477303903
 20
106.5699708785264
 30
0.0
 10
217.5952926261678
 20
106.5711996050018
 30
0.0
 10
217.5564098166755
 20
106.5718140513193
 30
0.0
  0
SPLINE
  5
13D
330
1F
100
AcDbEntity
  8
0
  6
SLD-SOLID
 62
     7
100
AcDbSpline
210
0.0
220
0.0
230
1.0
 70
     8
 71
     3
 72
    11
 73
     7
 74
     0
 42
0.000000001
 43
0.00000001
 40
0.0
 40
0.0
 40
0.0
 40
0.0
 40
0.2802899077733613
 40
0.5590178684488228
 40
0.7794024405567691
 40
1.0
 40
1.0
 40
1.0
 40
1.0
 10
217.7654972993561
 20
105.870465487367
 30
0.0
 10
217.8107416598066
 20
105.8816287909528
 30
0.0
 10
217.9009782514102
 20
105.9038931893573
 30
0.0
 10
217.9961944050749
 20
105.9976496883145
 30
0.0
 10
218.0452766524641
 20
106.1072972495615
 30
0.0
 10
218.0497339093666
 20
106.1798878597843
 30
0.0
 10
218.0519636142099
 20
106.2162006949491
 30
0.0
  0
SPLINE
  5
13E
330
1F
100
AcDbEntity
  8
0
  6
SLD-SOLID
 62
     7
100
AcDbSpline
210
0.0
220
0.0
230
1.0
 70
     8
 71
     3
 72
     9
 73
     5
 74
     0
 42
0.000000001
 43
0.00000001
 40
0.0
 40
0.0
 40
0.0
 40
0.0
 40
0.5600993165774628
 40
1.0
 40
1.0
 40
1.0
 40
1.0
 10
217.5897485688352
 20
105.860587338579
 30
0.0
 10
217.6226763728985
 20
105.8605384738895
 30
0.0
 10
217.681465596682
 20
105.860451230988
 30
0.0
 10
217.7398249707983
 20
105.8674060553688
 30
0.0
 10
217.7654972993561
 20
105.870465487367
 30
0.0
  0
LINE
  5
13F
330
1F
100
AcDbEntity
  8
0
  6
SLD-SOLID
 62
     7
100
AcDbLine
 10
217.1036613306
 20
105.8605873386
 30
0.0
 11
217.5897485688
 21
105.8605873386
 31
0.0
  0
LINE
  5
140
330
1F
100
AcDbEntity
  8
0
  6
SLD-SOLID
 62
     7
100
AcDbLine
 10
217.1036613306
 20
106.5718140513
 30
0.0
 11
217.1036613306
 21
105.8605873386
 31
0.0
  0
LINE
  5
141
330
1F
100
AcDbEntity
  8
0
  6
SLD-SOLID
 62
     7
100
AcDbLine
 10
217.4950829763
 20
107.4410911447
 30
0.0
 11
217.1036613306
 21
107.4410911447
 31
0.0
  0
SPLINE
  5
142
330
1F
100
AcDbEntity
  8
0
  6
SLD-SOLID
 62
     7
100
AcDbSpline
210
0.0
220
0.0
230
1.0
 70
     8
 71
     3
 72
    14
 73
    10
 74
     0
 42
0.000000001
 43
0.00000001
 40
0.0
 40
0.0
 40
0.0
 40
0.0
 40
0.1251135860085157
 40
0.2501473020086443
 40
0.3750911808044483
 40
0.4997556450079728
 40
0.6660775374514839
 40
0.8330211469910854
 40
0.9999999999999999
 40
0.9999999999999999
 40
0.9999999999999999
 40
0.9999999999999999
 10
217.9729384239054
 20
107.1200513090567
 30
0.0
 10
217.9716315440014
 20
107.1479191765496
 30
0.0
 10
217.9690186184792
 20
107.2036371212466
 30
0.0
 10
217.9406715339815
 20
107.2830686761696
 30
0.0
 10
217.8947459498023
 20
107.3537414498805
 30
0.0
 10
217.817889904079
 20
107.409277993291
 30
0.0
 10
217.7167758446045
 20
107.4310484454971
 30
0.0
 10
217.6063401366891
 20
107.4401782726482
 30
0.0
 10
217.5321713057735
 20
107.4407868325853
 30
0.0
 10
217.495082976283
 20
107.4410911446687
 30
0.0
  0
SPLINE
  5
143
330
1F
100
AcDbEntity
  8
0
  6
SLD-SOLID
 62
     7
100
AcDbSpline
210
0.0
220
0.0
230
1.0
 70
     8
 71
     3
 72
    10
 73
     6
 74
     0
 42
0.000000001
 43
0.00000001
 40
0.0
 40
0.0
 40
0.0
 40
0.0
 40
0.2808694612754493
 40
0.5610625923467047
 40
1.0
 40
1.0
 40
1.0
 40
1.0
 10
217.7741406795457
 20
106.8331734046701
 30
0.0
 10
217.8069300866719
 20
106.8464083486169
 30
0.0
 10
217.8724299444357
 20
106.8728463669283
 30
0.0
 10
217.9579682057964
 20
106.9727213082232
 30
0.0
 10
217.9672643278826
 20
107.0642094658922
 30
0.0
 10
217.9729384239054
 20
107.1200513090567
 30
0.0
  0
SPLINE
  5
144
330
1F
100
AcDbEntity
  8
0
  6
SLD-SOLID
 62
     7
100
AcDbSpline
210
0.0
220
0.0
230
1.0
 70
     8
 71
     3
 72
     9
 73
     5
 74
     0
 42
0.000000001
 43
0.00000001
 40
0.0
 40
0.0
 40
0.0
 40
0.0
 40
0.5603929846318901
 40
1.0
 40
1.0
 40
1.0
 40
1.0
 10
217.5271869598442
 20
106.8088896222328
 30
0.0
 10
217.5737992528125
 20
106.8089069288266
 30
0.0
 10
217.6569771195
 20
106.8089378117862
 30
0.0
 10
217.7383629135361
 20
106.8257726789584
 30
0.0
 10
217.7741406795457
 20
106.8331734046701
 30
0.0
  0
LINE
  5
145
330
1F
100
AcDbEntity
  8
0
  6
SLD-SOLID
 62
     7
100
AcDbLine
 10
217.1036613306
 20
106.8088896222
 30
0.0
 11
217.5271869598
 21
106.8088896222
 31
0.0
  0
LINE
  5
146
330
1F
100
AcDbEntity
  8
0
  6
SLD-SOLID
 62
     7
100
AcDbLine
 10
217.1036613306
 20
107.4410911447
 30
0.0
 11
217.1036613306
 21
106.8088896222
 31
0.0
  0
SPLINE
  5
147
330
1F
100
AcDbEntity
  8
0
  6
SLD-SOLID
 62
     7
100
AcDbSpline
210
0.0
220
0.0
230
1.0
 70
     8
 71
     3
 72
    12
 73
     8
 74
     0
 42
0.000000001
 43
0.00000001
 40
0.0
 40
0.0
 40
0.0
 40
0.0
 40
0.1867336196811253
 40
0.3733428734942814
 40
0.560195165617376
 40
0.7799442105873754
 40
1.0
 40
1.0
 40
1.0
 40
1.0
 10
227.8247454818648
 20
106.241719245985
 30
0.0
 10
227.8197788137268
 20
106.1765937217026
 30
0.0
 10
227.8098487852856
 20
106.0463860471824
 30
0.0
 10
227.7181857867429
 20
105.869399727088
 30
0.0
 10
227.5747355745373
 20
105.7195570083257
 30
0.0
 10
227.3771142223867
 20
105.6137047696709
 30
0.0
 10
227.2236454342183
 20
105.6026841770584
 30
0.0
 10
227.1468575212842
 20
105.597170037564
 30
0.0
  0
SPLINE
  5
148
330
1F
100
AcDbEntity
  8
0
  6
SLD-SOLID
 62
     7
100
AcDbSpline
210
0.0
220
0.0
230
1.0
 70
     8
 71
     3
 72
    11
 73
     7
 74
     0
 42
0.000000001
 43
0.00000001
 40
0.0
 40
0.0
 40
0.0
 40
0.0
 40
0.2798072354267325
 40
0.5591854150511315
 40
0.7794081502159206
 40
0.9999999999999999
 40
0.9999999999999999
 40
0.9999999999999999
 40
0.9999999999999999
 10
227.4390860895976
 20
106.7483859609059
 30
0.0
 10
227.5010624145003
 20
106.728040319428
 30
0.0
 10
227.6249200299448
 20
106.6873802344343
 30
0.0
 10
227.7515168325297
 20
106.5500166732727
 30
0.0
 10
227.8163432317092
 20
106.3945644396288
 30
0.0
 10
227.8219431687834
 20
106.2926960769106
 30
0.0
 10
227.8247454818648
 20
106.241719245985
 30
0.0
  0
SPLINE
  5
149
330
1F
100
AcDbEntity
  8
0
  6
SLD-SOLID
 62
     7
100
AcDbSpline
210
0.0
220
0.0
230
1.0
 70
     8
 71
     3
 72
    11
 73
     7
 74
     0
 42
0.000000001
 43
0.00000001
 40
0.0
 40
0.0
 40
0.0
 40
0.0
 40
0.2796777953603542
 40
0.5593663112705379
 40
0.7796204167476762
 40
1.0
 40
1.0
 40
1.0
 40
1.0
 10
227.7193785614589
 20
107.1558595984134
 30
0.0
 10
227.7148156767142
 20
107.1068136308567
 30
0.0
 10
227.7056897323213
 20
107.0087198157237
 30
0.0
 10
227.6345875037765
 20
106.8880786686172
 30
0.0
 10
227.5421059769577
 20
106.8011481457873
 30
0.0
 10
227.4734325706827
 20
106.7659766944184
 30
0.0
 10
227.4390860895976
 20
106.7483859609059
 30
0.0
  0
SPLINE
  5
14A
330
1F
100
AcDbEntity
  8
0
  6
SLD-SOLID
 62
     7
100
AcDbSpline
210
0.0
220
0.0
230
1.0
 70
     8
 71
     3
 72
    12
 73
     8
 74
     0
 42
0.000000001
 43
0.00000001
 40
0.0
 40
0.0
 40
0.0
 40
0.0
 40
0.1870340418332953
 40
0.3740124415070565
 40
0.5607717488627585
 40
0.7804580075127143
 40
1.0
 40
1.0
 40
1.0
 40
1.0
 10
227.1349214248319
 20
107.6781667155822
 30
0.0
 10
227.1893274231719
 20
107.6746992137088
 30
0.0
 10
227.2981232342036
 20
107.6677652415351
 30
0.0
 10
227.4516881164999
 20
107.6066644003865
 30
0.0
 10
227.5925559059341
 20
107.5050400143088
 30
0.0
 10
227.6969157241506
 20
107.3476371257061
 30
0.0
 10
227.7118925887585
 20
107.2197714415235
 30
0.0
 10
227.7193785614589
 20
107.1558595984134
 30
0.0
  0
SPLINE
  5
14B
330
1F
100
AcDbEntity
  8
0
  6
SLD-SOLID
 62
     7
100
AcDbSpline
210
0.0
220
0.0
230
1.0
 70
     8
 71
     3
 72
    12
 73
     8
 74
     0
 42
0.000000001
 43
0.00000001
 40
0.0
 40
0.0
 40
0.0
 40
0.0
 40
0.186990835037027
 40
0.3737572180260968
 40
0.5603993194730718
 40
0.7800310274897362
 40
1.0
 40
1.0
 40
1.0
 40
1.0
 10
226.5340007068915
 20
107.1513321135522
 30
0.0
 10
226.5461561257511
 20
107.2046643110415
 30
0.0
 10
226.5704523728691
 20
107.3112646894014
 30
0.0
 10
226.6503256596787
 20
107.4567637784088
 30
0.0
 10
226.7736248862585
 20
107.5807351477883
 30
0.0
 10
226.9416299983191
 20
107.6649818877195
 30
0.0
 10
227.0704580034339
 20
107.6737695256503
 30
0.0
 10
227.1349214248319
 20
107.6781667155822
 30
0.0
  0
LINE
  5
14C
330
1F
100
AcDbEntity
  8
0
  6
SLD-SOLID
 62
     7
100
AcDbLine
 10
226.7974180079
 20
107.1249903835
 30
0.0
 11
226.5340007069
 21
107.1513321136
 31
0.0
  0
SPLINE
  5
14D
330
1F
100
AcDbEntity
  8
0
  6
SLD-SOLID
 62
     7
100
AcDbSpline
210
0.0
220
0.0
230
1.0
 70
     8
 71
     3
 72
    11
 73
     7
 74
     0
 42
0.000000001
 43
0.00000001
 40
0.0
 40
0.0
 40
0.0
 40
0.0
 40
0.2800014393778852
 40
0.5591307790850962
 40
0.7793200501372545
 40
1.0
 40
1.0
 40
1.0
 40
1.0
 10
227.1431532154886
 20
107.4410911446687
 30
0.0
 10
227.0946805510714
 20
107.4367104494981
 30
0.0
 10
226.9978861964419
 20
107.4279627033825
 30
0.0
 10
226.8841092074145
 20
107.3452346546688
 30
0.0
 10
226.8214462629165
 20
107.236289666387
 30
0.0
 10
226.8054333669231
 20
107.1621176617591
 30
0.0
 10
226.7974180079065
 20
107.1249903834508
 30
0.0
  0
SPLINE
  5
14E
330
1F
100
AcDbEntity
  8
0
  6
SLD-SOLID
 62
     7
100
AcDbSpline
210
0.0
220
0.0
230
1.0
 70
     8
 71
     3
 72
    11
 73
     7
 74
     0
 42
0.000000001
 43
0.00000001
 40
0.0
 40
0.0
 40
0.0
 40
0.0
 40
0.2794599904729668
 40
0.5589522577374927
 40
0.7792552783908667
 40
0.9999999999999999
 40
0.9999999999999999
 40
0.9999999999999999
 40
0.9999999999999999
 10
227.4559612604439
 20
107.1472162182239
 30
0.0
 10
227.4508515612878
 20
107.1923582407255
 30
0.0
 10
227.4406315728207
 20
107.2826474994972
 30
0.0
 10
227.3538169158455
 20
107.3809029945685
 30
0.0
 10
227.2492672219848
 20
107.4337505193921
 30
0.0
 10
227.1785481589212
 20
107.4386426364557
 30
0.0
 10
227.1431532154886
 20
107.4410911446687
 30
0.0
  0
SPLINE
  5
14F
330
1F
100
AcDbEntity
  8
0
  6
SLD-SOLID
 62
     7
100
AcDbSpline
210
0.0
220
0.0
230
1.0
 70
     8
 71
     3
 72
    11
 73
     7
 74
     0
 42
0.000000001
 43
0.00000001
 40
0.0
 40
0.0
 40
0.0
 40
0.0
 40
0.2806803348029436
 40
0.5609514120692122
 40
0.7800568087021041
 40
1.0
 40
1.0
 40
1.0
 40
1.0
 10
227.0707134577095
 20
106.8323502256044
 30
0.0
 10
227.1228064381563
 20
106.8370286179697
 30
0.0
 10
227.2269164427314
 20
106.8463785811773
 30
0.0
 10
227.3611469140805
 20
106.9118184204663
 30
0.0
 10
227.4464743830535
 20
107.023123040197
 30
0.0
 10
227.4527949476696
 20
107.1057992378399
 30
0.0
 10
227.4559612604439
 20
107.1472162182239
 30
0.0
  0
SPLINE
  5
150
330
1F
100
AcDbEntity
  8
0
  6
SLD-SOLID
 62
     7
100
AcDbSpline
210
0.0
220
0.0
230
1.0
 70
     8
 71
     3
 72
     9
 73
     5
 74
     0
 42
0.000000001
 43
0.00000001
 40
0.0
 40
0.0
 40
0.0
 40
0.0
 40
0.5600031377096141
 40
1.0
 40
1.0
 40
1.0
 40
1.0
 10
227.0328472206886
 20
106.8352313523343
 30
0.0
 10
227.0398984924521
 20
106.8344598679968
 30
0.0
 10
227.0524899786218
 20
106.8330822251133
 30
0.0
 10
227.065145200008
 20
106.8325738910134
 30
0.0
 10
227.0707134577095
 20
106.8323502256044
 30
0.0
  0
LINE
  5
151
330
1F
100
AcDbEntity
  8
0
  6
SLD-SOLID
 62
     7
100
AcDbLine
 10
227.0056823115
 20
106.5981557814
 30
0.0
 11
227.0328472207
 21
106.8352313523
 31
0.0
  0
SPLINE
  5
152
330
1F
100
AcDbEntity
  8
0
  6
SLD-SOLID
 62
     7
100
AcDbSpline
210
0.0
220
0.0
230
1.0
 70
     8
 71
     3
 72
     9
 73
     5
 74
     0
 42
0.000000001
 43
0.00000001
 40
0.0
 40
0.0
 40
0.0
 40
0.0
 40
0.5597720928168303
 40
1.0
 40
1.0
 40
1.0
 40
1.0
 10
227.1760803781155
 20
106.6261438696537
 30
0.0
 10
227.1437997323359
 20
106.6237492966394
 30
0.0
 10
227.0861322526709
 20
106.6194715324476
 30
0.0
 10
227.0302730787525
 20
106.6046712699888
 30
0.0
 10
227.0056823115215
 20
106.5981557814208
 30
0.0
  0
SPLINE
  5
153
330
1F
100
AcDbEntity
  8
0
  6
SLD-SOLID
 62
     7
100
AcDbSpline
210
0.0
220
0.0
230
1.0
 70
     8
 71
     3
 72
    11
 73
     7
 74
     0
 42
0.000000001
 43
0.00000001
 40
0.0
 40
0.0
 40
0.0
 40
0.0
 40
0.2797467444255912
 40
0.5591708920400857
 40
0.7794436172783817
 40
1.0
 40
1.0
 40
1.0
 40
1.0
 10
227.5613281808499
 20
106.2437771936492
 30
0.0
 10
227.5554838521259
 20
106.3008541729765
 30
0.0
 10
227.5438019342087
 20
106.4149423119143
 30
0.0
 10
227.4402106422181
 20
106.543456050742
 30
0.0
 10
227.3103760270888
 20
106.616050218531
 30
0.0
 10
227.2208647935134
 20
106.6227778762785
 30
0.0
 10
227.1760803781155
 20
106.6261438696537
 30
0.0
  0
SPLINE
  5
154
330
1F
100
AcDbEntity
  8
0
  6
SLD-SOLID
 62
     7
100
AcDbSpline
210
0.0
220
0.0
230
1.0
 70
     8
 71
     3
 72
    11
 73
     7
 74
     0
 42
0.000000001
 43
0.00000001
 40
0.0
 40
0.0
 40
0.0
 40
0.0
 40
0.2798831268211024
 40
0.5589931949970897
 40
0.7793189944462561
 40
1.0
 40
1.0
 40
1.0
 40
1.0
 10
227.1563240805394
 20
105.8342456084775
 30
0.0
 10
227.2171448897208
 20
105.839915156183
 30
0.0
 10
227.3386185163478
 20
105.851238591869
 30
0.0
 10
227.4741859300902
 20
105.962974425185
 30
0.0
 10
227.5505525341479
 20
106.1010510627457
 30
0.0
 10
227.5577343704279
 20
106.1961762773499
 30
0.0
 10
227.5613281808499
 20
106.2437771936492
 30
0.0
  0
SPLINE
  5
155
330
1F
100
AcDbEntity
  8
0
  6
SLD-SOLID
 62
     7
100
AcDbSpline
210
0.0
220
0.0
230
1.0
 70
     8
 71
     3
 72
    11
 73
     7
 74
     0
 42
0.000000001
 43
0.00000001
 40
0.0
 40
0.0
 40
0.0
 40
0.0
 40
0.2808810668244257
 40
0.5600727198378398
 40
0.7796532013274984
 40
1.0
 40
1.0
 40
1.0
 40
1.0
 10
226.771076277805
 20
106.2030298298984
 30
0.0
 10
226.7846004802279
 20
106.1497927861902
 30
0.0
 10
226.8115675411278
 20
106.0436389033285
 30
0.0
 10
226.8977346825276
 20
105.9110670294363
 30
0.0
 10
227.0267497461559
 20
105.8428771276666
 30
0.0
 10
227.1130825075521
 20
105.837126120801
 30
0.0
 10
227.1563240805394
 20
105.8342456084775
 30
0.0
  0
LINE
  5
156
330
1F
100
AcDbEntity
  8
0
  6
SLD-SOLID
 62
     7
100
AcDbLine
 10
226.5076589768
 20
106.1766880998
 30
0.0
 11
226.7710762778
 21
106.2030298299
 31
0.0
  0
SPLINE
  5
157
330
1F
100
AcDbEntity
  8
0
  6
SLD-SOLID
 62
     7
100
AcDbSpline
210
0.0
220
0.0
230
1.0
 70
     8
 71
     3
 72
    12
 73
     8
 74
     0
 42
0.000000001
 43
0.00000001
 40
0.0
 40
0.0
 40
0.0
 40
0.0
 40
0.1869108676689711
 40
0.3735496791524917
 40
0.5602453269493493
 40
0.7799747366478149
 40
1.0
 40
1.0
 40
1.0
 40
1.0
 10
227.1468575212842
 20
105.597170037564
 30
0.0
 10
227.0874080290811
 20
105.6006155880379
 30
0.0
 10
226.9685955757703
 20
105.6075016738503
 30
0.0
 10
226.8012281596384
 20
105.6772471850753
 30
0.0
 10
226.6548068945617
 20
105.7978713059634
 30
0.0
 10
226.5427293509559
 20
105.9687287467953
 30
0.0
 10
226.5193543435115
 20
106.1073372315965
 30
0.0
 10
226.50765897679
 20
106.1766880997969
 30
0.0
  0
LINE
  5
158
330
1F
100
AcDbEntity
  8
0
  6
SLD-SOLID
 62
     7
100
AcDbLine
 10
224.6373961396
 20
105.8605873386
 30
0.0
 11
224.6373961396
 21
105.6235117677
 31
0.0
  0
LINE
  5
159
330
1F
100
AcDbEntity
  8
0
  6
SLD-SOLID
 62
     7
100
AcDbLine
 10
223.4256765549
 20
105.8605873386
 30
0.0
 11
224.6373961396
 21
105.8605873386
 31
0.0
  0
LINE
  5
15A
330
1F
100
AcDbEntity
  8
0
  6
SLD-SOLID
 62
     7
100
AcDbLine
 10
223.4256765549
 20
106.5718140513
 30
0.0
 11
223.4256765549
 21
105.8605873386
 31
0.0
  0
LINE
  5
15B
330
1F
100
AcDbEntity
  8
0
  6
SLD-SOLID
 62
     7
100
AcDbLine
 10
224.5056874891
 20
106.5718140513
 30
0.0
 11
223.4256765549
 21
106.5718140513
 31
0.0
  0
LINE
  5
15C
330
1F
100
AcDbEntity
  8
0
  6
SLD-SOLID
 62
     7
100
AcDbLine
 10
224.5056874891
 20
106.8088896222
 30
0.0
 11
224.5056874891
 21
106.5718140513
 31
0.0
  0
LINE
  5
15D
330
1F
100
AcDbEntity
  8
0
  6
SLD-SOLID
 62
     7
100
AcDbLine
 10
223.4256765549
 20
106.8088896222
 30
0.0
 11
224.5056874891
 21
106.8088896222
 31
0.0
  0
LINE
  5
15E
330
1F
100
AcDbEntity
  8
0
  6
SLD-SOLID
 62
     7
100
AcDbLine
 10
223.4256765549
 20
107.4410911447
 30
0.0
 11
223.4256765549
 21
106.8088896222
 31
0.0
  0
LINE
  5
15F
330
1F
100
AcDbEntity
  8
0
  6
SLD-SOLID
 62
     7
100
AcDbLine
 10
224.5847126794
 20
107.4410911447
 30
0.0
 11
223.4256765549
 21
107.4410911447
 31
0.0
  0
LINE
  5
160
330
1F
100
AcDbEntity
  8
0
  6
SLD-SOLID
 62
     7
100
AcDbLine
 10
224.5847126794
 20
107.6781667156
 30
0.0
 11
224.5847126794
 21
107.4410911447
 31
0.0
  0
LINE
  5
161
330
1F
100
AcDbEntity
  8
0
  6
SLD-SOLID
 62
     7
100
AcDbLine
 10
223.1359175238
 20
107.6781667156
 30
0.0
 11
224.5847126794
 21
107.6781667156
 31
0.0
  0
LINE
  5
162
330
1F
100
AcDbEntity
  8
0
  6
SLD-SOLID
 62
     7
100
AcDbLine
 10
223.1359175238
 20
105.6235117677
 30
0.0
 11
223.1359175238
 21
107.6781667156
 31
0.0
  0
LINE
  5
163
330
1F
100
AcDbEntity
  8
0
  6
SLD-SOLID
 62
     7
100
AcDbLine
 10
224.6373961396
 20
105.6235117677
 30
0.0
 11
223.1359175238
 21
105.6235117677
 31
0.0
  0
SPLINE
  5
164
330
1F
100
AcDbEntity
  8
0
  6
SLD-SOLID
 62
     7
100
AcDbSpline
210
0.0
220
0.0
230
1.0
 70
     8
 71
     3
 72
    10
 73
     6
 74
     0
 42
0.000000001
 43
0.00000001
 40
0.0
 40
0.0
 40
0.0
 40
0.0
 40
0.5600596005464101
 40
0.7800879090896097
 40
1.0
 40
1.0
 40
1.0
 40
1.0
 10
221.1960960555431
 20
106.2680609760865
 30
0.0
 10
221.1153068779796
 20
106.2017246400756
 30
0.0
 10
221.0027783889741
 20
106.1093270209563
 30
0.0
 10
220.8622570532516
 20
105.9852573344791
 30
0.0
 10
220.8123397218752
 20
105.9196993845361
 30
0.0
 10
220.7873876494371
 20
105.8869290686804
 30
0.0
  0
SPLINE
  5
165
330
1F
100
AcDbEntity
  8
0
  6
SLD-SOLID
 62
     7
100
AcDbSpline
210
0.0
220
0.0
230
1.0
 70
     8
 71
     3
 72
    12
 73
     8
 74
     0
 42
0.000000001
 43
0.00000001
 40
0.0
 40
0.0
 40
0.0
 40
0.0
 40
0.1862663572308549
 40
0.3726928833901799
 40
0.5594626686038825
 40
0.7797011002025416
 40
1.0
 40
1.0
 40
1.0
 40
1.0
 10
221.7661475585208
 20
107.1109963393343
 30
0.0
 10
221.7601771650054
 20
107.0454855902307
 30
0.0
 10
221.7482312440816
 20
106.914407759862
 30
0.0
 10
221.6581103491159
 20
106.7361456524522
 30
0.0
 10
221.53046589614
 20
106.5716361835555
 30
0.0
 10
221.3713932861792
 20
106.4191541291568
 30
0.0
 10
221.2545338124696
 20
106.3184299689127
 30
0.0
 10
221.1960960555431
 20
106.2680609760865
 30
0.0
  0
SPLINE
  5
166
330
1F
100
AcDbEntity
  8
0
  6
SLD-SOLID
 62
     7
100
AcDbSpline
210
0.0
220
0.0
230
1.0
 70
     8
 71
     3
 72
    12
 73
     8
 74
     0
 42
0.000000001
 43
0.00000001
 40
0.0
 40
0.0
 40
0.0
 40
0.0
 40
0.1871201970753221
 40
0.373941926582325
 40
0.560616728872706
 40
0.7802353444532003
 40
1.0
 40
1.0
 40
1.0
 40
1.0
 10
221.1339460360849
 20
107.6781667155822
 30
0.0
 10
221.1932955979796
 20
107.6752181094909
 30
0.0
 10
221.3119000557751
 20
107.669325600506
 30
0.0
 10
221.482682035625
 20
107.6092754929563
 30
0.0
 10
221.632459926147
 20
107.4926241612704
 30
0.0
 10
221.7473271487886
 20
107.3217130549483
 30
0.0
 10
221.7598726986681
 20
107.1812508065804
 30
0.0
 10
221.7661475585208
 20
107.1109963393343
 30
0.0
  0
SPLINE
  5
167
330
1F
100
AcDbEntity
  8
0
  6
SLD-SOLID
 62
     7
100
AcDbSpline
210
0.0
220
0.0
230
1.0
 70
     8
 71
     3
 72
    12
 73
     8
 74
     0
 42
0.000000001
 43
0.00000001
 40
0.0
 40
0.0
 40
0.0
 40
0.0
 40
0.1869644640000377
 40
0.3736023982586801
 40
0.5600640040762455
 40
0.7797186212448832
 40
1.0
 40
1.0
 40
1.0
 40
1.0
 10
220.4754027835475
 20
107.0986486533493
 30
0.0
 10
220.4842405297552
 20
107.1591558050237
 30
0.0
 10
220.5019005872214
 20
107.280064433828
 30
0.0
 10
220.5833500484947
 20
107.447800833097
 30
0.0
 10
220.7251499342124
 20
107.5843251753054
 30
0.0
 10
220.9180572600976
 20
107.666544605122
 30
0.0
 10
221.0619147944725
 20
107.6742890010378
 30
0.0
 10
221.1339460360849
 20
107.6781667155822
 30
0.0
  0
LINE
  5
168
330
1F
100
AcDbEntity
  8
0
  6
SLD-SOLID
 62
     7
100
AcDbLine
 10
220.7388200846
 20
107.0723069232
 30
0.0
 11
220.4754027835
 21
107.0986486533
 31
0.0
  0
SPLINE
  5
169
330
1F
100
AcDbEntity
  8
0
  6
SLD-SOLID
 62
     7
100
AcDbSpline
210
0.0
220
0.0
230
1.0
 70
     8
 71
     3
 72
    11
 73
     7
 74
     0
 42
0.000000001
 43
0.00000001
 40
0.0
 40
0.0
 40
0.0
 40
0.0
 40
0.2804101378268543
 40
0.5594890439659038
 40
0.7793747161183181
 40
1.0
 40
1.0
 40
1.0
 40
1.0
 10
221.1281837826252
 20
107.4410911446687
 30
0.0
 10
221.0713498711694
 20
107.436858889142
 30
0.0
 10
220.9579518641229
 20
107.4284144704885
 30
0.0
 10
220.8215167287356
 20
107.3360929944852
 30
0.0
 10
220.748551250222
 20
107.2059211949827
 30
0.0
 10
220.7420674351939
 20
107.1168948384949
 30
0.0
 10
220.7388200845625
 20
107.0723069232478
 30
0.0
  0
SPLINE
  5
16A
330
1F
100
AcDbEntity
  8
0
  6
SLD-SOLID
 62
     7
100
AcDbSpline
210
0.0
220
0.0
230
1.0
 70
     8
 71
     3
 72
    11
 73
     7
 74
     0
 42
0.000000001
 43
0.00000001
 40
0.0
 40
0.0
 40
0.0
 40
0.0
 40
0.2790799305047098
 40
0.5586118520658194
 40
0.7790431330532309
 40
1.0
 40
1.0
 40
1.0
 40
1.0
 10
221.5027302575058
 20
107.1085268021373
 30
0.0
 10
221.4957875659876
 20
107.1610651924102
 30
0.0
 10
221.4818909387371
 20
107.2662270628529
 30
0.0
 10
221.3751917356885
 20
107.3760722033503
 30
0.0
 10
221.2519291000241
 20
107.4337241018412
 30
0.0
 10
221.1694649533406
 20
107.438633515087
 30
0.0
 10
221.1281837826252
 20
107.4410911446687
 30
0.0
  0
SPLINE
  5
16B
330
1F
100
AcDbEntity
  8
0
  6
SLD-SOLID
 62
     7
100
AcDbSpline
210
0.0
220
0.0
230
1.0
 70
     8
 71
     3
 72
    12
 73
     8
 74
     0
 42
0.000000001
 43
0.00000001
 40
0.0
 40
0.0
 40
0.0
 40
0.0
 40
0.2803301797013221
 40
0.560586356031459
 40
0.7073094929362186
 40
0.8538564009266876
 40
1.0
 40
1.0
 40
1.0
 40
1.0
 10
220.9503771044401
 20
106.3919494254701
 30
0.0
 10
221.0163481180043
 20
106.4483711642772
 30
0.0
 10
221.1482727296783
 20
106.5611997473165
 30
0.0
 10
221.3067648439325
 20
106.7134722945066
 30
0.0
 10
221.4189392571766
 20
106.8511245818334
 30
0.0
 10
221.4866378048113
 20
106.9723214726405
 30
0.0
 10
221.4973710365114
 20
107.0631667519788
 30
0.0
 10
221.5027302575058
 20
107.1085268021373
 30
0.0
  0
SPLINE
  5
16C
330
1F
100
AcDbEntity
  8
0
  6
SLD-SOLID
 62
     7
100
AcDbSpline
210
0.0
220
0.0
230
1.0
 70
     8
 71
     3
 72
    10
 73
     6
 74
     0
 42
0.000000001
 43
0.00000001
 40
0.0
 40
0.0
 40
0.0
 40
0.0
 40
0.2798019917267806
 40
0.5597811412123067
 40
1.0
 40
1.0
 40
1.0
 40
1.0
 10
220.476637552146
 20
105.8062575202446
 30
0.0
 10
220.5044673316225
 20
105.8721350144472
 30
0.0
 10
220.5601445111125
 20
106.0039317134532
 30
0.0
 10
220.7225295391255
 20
106.2036289717094
 30
0.0
 10
220.863940240217
 20
106.3205076724293
 30
0.0
 10
220.9503771044401
 20
106.3919494254701
 30
0.0
  0
SPLINE
  5
16D
330
1F
100
AcDbEntity
  8
0
  6
SLD-SOLID
 62
     7
100
AcDbSpline
210
0.0
220
0.0
230
1.0
 70
     8
 71
     3
 72
     9
 73
     5
 74
     0
 42
0.000000001
 43
0.00000001
 40
0.0
 40
0.0
 40
0.0
 40
0.0
 40
0.5599563387951881
 40
1.0
 40
1.0
 40
1.0
 40
1.0
 10
220.449061053446
 20
105.6235117676655
 30
0.0
 10
220.4497992596386
 20
105.6583356719715
 30
0.0
 10
220.4511175877679
 20
105.7205260641385
 30
0.0
 10
220.468839247927
 20
105.7800599924601
 30
0.0
 10
220.476637552146
 20
105.8062575202446
 30
0.0
  0
LINE
  5
16E
330
1F
100
AcDbEntity
  8
0
  6
SLD-SOLID
 62
     7
100
AcDbLine
 10
221.7924892886
 20
105.6235117677
 30
0.0
 11
220.4490610534
 21
105.6235117677
 31
0.0
  0
LINE
  5
16F
330
1F
100
AcDbEntity
  8
0
  6
SLD-SOLID
 62
     7
100
AcDbLine
 10
221.7924892886
 20
105.8869290687
 30
0.0
 11
221.7924892886
 21
105.6235117677
 31
0.0
  0
LINE
  5
170
330
1F
100
AcDbEntity
  8
0
  6
SLD-SOLID
 62
     7
100
AcDbLine
 10
220.7873876494
 20
105.8869290687
 30
0.0
 11
221.7924892886
 21
105.8869290687
 31
0.0
  0
SPLINE
  5
171
330
1F
100
AcDbEntity
  8
0
  6
SLD-SOLID
 62
     7
100
AcDbSpline
210
0.0
220
0.0
230
1.0
 70
     8
 71
     3
 72
    12
 73
     8
 74
     0
 42
0.000000001
 43
0.00000001
 40
0.0
 40
0.0
 40
0.0
 40
0.0
 40
0.1866200114219032
 40
0.3732732847017367
 40
0.5592200851609198
 40
0.7792881714219663
 40
1.0
 40
1.0
 40
1.0
 40
1.0
 10
218.3417226453264
 20
106.2120847996208
 30
0.0
 10
218.3353411859077
 20
106.1443107534397
 30
0.0
 10
218.3225771296833
 20
106.0087505815011
 30
0.0
 10
218.2220219776326
 20
105.8254024769574
 30
0.0
 10
218.0488171597046
 20
105.6894464715039
 30
0.0
 10
217.8246124570263
 20
105.6305309946455
 30
0.0
 10
217.6650958642989
 20
105.6258537869535
 30
0.0
 10
217.585221083974
 20
105.6235117676655
 30
0.0
  0
SPLINE
  5
172
330
1F
100
AcDbEntity
  8
0
  6
SLD-SOLID
 62
     7
100
AcDbSpline
210
0.0
220
0.0
230
1.0
 70
     8
 71
     3
 72
    11
 73
     7
 74
     0
 42
0.000000001
 43
0.00000001
 40
0.0
 40
0.0
 40
0.0
 40
0.0
 40
0.2802111301844328
 40
0.5596695371223358
 40
0.7797087448035188
 40
1.0
 40
1.0
 40
1.0
 40
1.0
 10
217.9544168949278
 20
106.7035227018268
 30
0.0
 10
218.0141373526105
 20
106.6818396889837
 30
0.0
 10
218.1334178425969
 20
106.6385319097625
 30
0.0
 10
218.2599219079807
 20
106.5095938991469
 30
0.0
 10
218.331505225574
 20
106.3611895441464
 30
0.0
 10
218.3383155393222
 20
106.2618053438122
 30
0.0
 10
218.3417226453264
 20
106.2120847996208
 30
0.0
  0
SPLINE
  5
173
330
1F
100
AcDbEntity
  8
0
  6
SLD-SOLID
 62
     7
100
AcDbSpline
210
0.0
220
0.0
230
1.0
 70
     8
 71
     3
 72
    11
 73
     7
 74
     0
 42
0.000000001
 43
0.00000001
 40
0.0
 40
0.0
 40
0.0
 40
0.0
 40
0.2795835546999802
 40
0.5592950966815703
 40
0.7795657655052896
 40
1.0
 40
1.0
 40
1.0
 40
1.0
 10
218.2626974550219
 20
107.1455698600925
 30
0.0
 10
218.2570100768201
 20
107.0923437344216
 30
0.0
 10
218.2456327168584
 20
106.9858671173149
 30
0.0
 10
218.1666107132656
 20
106.8558850272699
 30
0.0
 10
218.0658888923187
 20
106.7618228026085
 30
0.0
 10
217.991583420107
 20
106.7229608765645
 30
0.0
 10
217.9544168949278
 20
106.7035227018268
 30
0.0
  0
SPLINE
  5
174
330
1F
100
AcDbEntity
  8
0
  6
SLD-SOLID
 62
     7
100
AcDbSpline
210
0.0
220
0.0
230
1.0
 70
     8
 71
     3
 72
    13
 73
     9
 74
     0
 42
0.000000001
 43
0.00000001
 40
0.0
 40
0.0
 40
0.0
 40
0.0
 40
0.1870109526290531
 40
0.3737001719599157
 40
0.5599820010104285
 40
0.7066445324064027
 40
0.8533599190015246
 40
1.0
 40
1.0
 40
1.0
 40
1.0
 10
217.5831631363098
 20
107.6781667155822
 30
0.0
 10
217.6437851330678
 20
107.6763925310195
 30
0.0
 10
217.7649248326122
 20
107.6728472141981
 30
0.0
 10
217.9435448514405
 20
107.6320256556784
 30
0.0
 10
218.091817323137
 20
107.5433546902878
 30
0.0
 10
218.1885251820167
 20
107.4196449467644
 30
0.0
 10
218.2506749696606
 20
107.2886408870173
 30
0.0
 10
218.2586906457875
 20
107.1932520401598
 30
0.0
 10
218.2626974550219
 20
107.1455698600925
 30
0.0
  0
LINE
  5
175
330
1F
100
AcDbEntity
  8
0
  6
SLD-SOLID
 62
     7
100
AcDbLine
 10
216.8139022994
 20
107.6781667156
 30
0.0
 11
217.5831631363
 21
107.6781667156
 31
0.0
  0
LINE
  5
176
330
1F
100
AcDbEntity
  8
0
  6
SLD-SOLID
 62
     7
100
AcDbLine
 10
216.8139022994
 20
105.6235117677
 30
0.0
 11
216.8139022994
 21
107.6781667156
 31
0.0
  0
LINE
  5
177
330
1F
100
AcDbEntity
  8
0
  6
SLD-SOLID
 62
     7
100
AcDbLine
 10
217.585221084
 20
105.6235117677
 30
0.0
 11
216.8139022994
 21
105.6235117677
 31
0.0
  0
SPLINE
  5
178
330
1F
100
AcDbEntity
  8
0
  6
SLD-SOLID
 62
     7
100
AcDbSpline
210
0.0
220
0.0
230
1.0
 70
     8
 71
     3
 72
    12
 73
     8
 74
     0
 42
0.000000001
 43
0.00000001
 40
0.0
 40
0.0
 40
0.0
 40
0.0
 40
0.1866200114219023
 40
0.3732732847017362
 40
0.5592200851609214
 40
0.7792881714219686
 40
1.0
 40
1.0
 40
1.0
 40
1.0
 10
227.9169415372201
 20
109.3730924118003
 30
0.0
 10
227.9105600778014
 20
109.3053183656192
 30
0.0
 10
227.8977960215769
 20
109.1697581936806
 30
0.0
 10
227.7972408695262
 20
108.9864100891368
 30
0.0
 10
227.6240360515984
 20
108.8504540836834
 30
0.0
 10
227.39983134892
 20
108.791538606825
 30
0.0
 10
227.2403147561926
 20
108.786861399133
 30
0.0
 10
227.1604399758677
 20
108.784519379845
 30
0.0
  0
SPLINE
  5
179
330
1F
100
AcDbEntity
  8
0
  6
SLD-SOLID
 62
     7
100
AcDbSpline
210
0.0
220
0.0
230
1.0
 70
     8
 71
     3
 72
    11
 73
     7
 74
     0
 42
0.000000001
 43
0.00000001
 40
0.0
 40
0.0
 40
0.0
 40
0.0
 40
0.2802111301844295
 40
0.5596695371223338
 40
0.7797087448035203
 40
1.0
 40
1.0
 40
1.0
 40
1.0
 10
227.5296357868215
 20
109.8645303140063
 30
0.0
 10
227.5893562445042
 20
109.8428473011632
 30
0.0
 10
227.7086367344905
 20
109.799539521942
 30
0.0
 10
227.8351407998744
 20
109.6706015113264
 30
0.0
 10
227.9067241174677
 20
109.5221971563258
 30
0.0
 10
227.9135344312159
 20
109.4228129559917
 30
0.0
 10
227.9169415372201
 20
109.3730924118003
 30
0.0
  0
SPLINE
  5
17A
330
1F
100
AcDbEntity
  8
0
  6
SLD-SOLID
 62
     7
100
AcDbSpline
210
0.0
220
0.0
230
1.0
 70
     8
 71
     3
 72
    11
 73
     7
 74
     0
 42
0.000000001
 43
0.00000001
 40
0.0
 40
0.0
 40
0.0
 40
0.0
 40
0.2795835546999772
 40
0.5592950966815722
 40
0.7795657655052955
 40
0.9999999999999999
 40
0.9999999999999999
 40
0.9999999999999999
 40
0.9999999999999999
 10
227.8379163469156
 20
110.306577472272
 30
0.0
 10
227.8322289687138
 20
110.2533513466011
 30
0.0
 10
227.8208516087521
 20
110.1468747294944
 30
0.0
 10
227.7418296051593
 20
110.0168926394494
 30
0.0
 10
227.6411077842124
 20
109.9228304147879
 30
0.0
 10
227.5668023120006
 20
109.883968488744
 30
0.0
 10
227.5296357868215
 20
109.8645303140063
 30
0.0
  0
SPLINE
  5
17B
330
1F
100
AcDbEntity
  8
0
  6
SLD-SOLID
 62
     7
100
AcDbSpline
210
0.0
220
0.0
230
1.0
 70
     8
 71
     3
 72
    13
 73
     9
 74
     0
 42
0.000000001
 43
0.00000001
 40
0.0
 40
0.0
 40
0.0
 40
0.0
 40
0.1870109526290531
 40
0.3737001719599163
 40
0.5599820010104262
 40
0.7066445324064027
 40
0.8533599190015261
 40
1.0
 40
1.0
 40
1.0
 40
1.0
 10
227.1583820282035
 20
110.8391743277616
 30
0.0
 10
227.2190040249615
 20
110.837400143199
 30
0.0
 10
227.3401437245059
 20
110.8338548263776
 30
0.0
 10
227.5187637433341
 20
110.7930332678579
 30
0.0
 10
227.6670362150307
 20
110.7043623024673
 30
0.0
 10
227.7637440739104
 20
110.5806525589439
 30
0.0
 10
227.8258938615543
 20
110.4496484991968
 30
0.0
 10
227.8339095376812
 20
110.3542596523393
 30
0.0
 10
227.8379163469156
 20
110.306577472272
 30
0.0
  0
LINE
  5
17C
330
1F
100
AcDbEntity
  8
0
  6
SLD-SOLID
 62
     7
100
AcDbLine
 10
226.3891211913
 20
110.8391743278
 30
0.0
 11
227.1583820282
 21
110.8391743278
 31
0.0
  0
LINE
  5
17D
330
1F
100
AcDbEntity
  8
0
  6
SLD-SOLID
 62
     7
100
AcDbLine
 10
226.3891211913
 20
108.7845193798
 30
0.0
 11
226.3891211913
 21
110.8391743278
 31
0.0
  0
LINE
  5
17E
330
1F
100
AcDbEntity
  8
0
  6
SLD-SOLID
 62
     7
100
AcDbLine
 10
227.1604399759
 20
108.7845193798
 30
0.0
 11
226.3891211913
 21
108.7845193798
 31
0.0
  0
LINE
  5
17F
330
1F
100
AcDbEntity
  8
0
  6
SLD-SOLID
 62
     7
100
AcDbLine
 10
224.1764158628
 20
109.0215949508
 30
0.0
 11
224.1764158628
 21
108.7845193798
 31
0.0
  0
LINE
  5
180
330
1F
100
AcDbEntity
  8
0
  6
SLD-SOLID
 62
     7
100
AcDbLine
 10
223.2017718491
 20
109.0215949508
 30
0.0
 11
224.1764158628
 21
109.0215949508
 31
0.0
  0
LINE
  5
181
330
1F
100
AcDbEntity
  8
0
  6
SLD-SOLID
 62
     7
100
AcDbLine
 10
223.2017718491
 20
110.8391743278
 30
0.0
 11
223.2017718491
 21
109.0215949508
 31
0.0
  0
LINE
  5
182
330
1F
100
AcDbEntity
  8
0
  6
SLD-SOLID
 62
     7
100
AcDbLine
 10
222.9120128179
 20
110.8391743278
 30
0.0
 11
223.2017718491
 21
110.8391743278
 31
0.0
  0
LINE
  5
183
330
1F
100
AcDbEntity
  8
0
  6
SLD-SOLID
 62
     7
100
AcDbLine
 10
222.9120128179
 20
108.7845193798
 30
0.0
 11
222.9120128179
 21
110.8391743278
 31
0.0
  0
LINE
  5
184
330
1F
100
AcDbEntity
  8
0
  6
SLD-SOLID
 62
     7
100
AcDbLine
 10
224.1764158628
 20
108.7845193798
 30
0.0
 11
222.9120128179
 21
108.7845193798
 31
0.0
  0
SPLINE
  5
185
330
1F
100
AcDbEntity
  8
0
  6
SLD-SOLID
 62
     7
100
AcDbSpline
210
0.0
220
0.0
230
1.0
 70
     8
 71
     3
 72
    14
 73
    10
 74
     0
 42
0.000000001
 43
0.00000001
 40
0.0
 40
0.0
 40
0.0
 40
0.0
 40
0.1401382881432514
 40
0.2802153673450002
 40
0.4202470161884264
 40
0.5601541068886128
 40
0.7066770913698219
 40
0.8533222262001569
 40
1.0
 40
1.0
 40
1.0
 40
1.0
 10
220.4885736485982
 20
109.8085541375406
 30
0.0
 10
220.4853356861651
 20
109.7333792214617
 30
0.0
 10
220.4788611755606
 20
109.5830622238497
 30
0.0
 10
220.4198784067769
 20
109.3638114585291
 30
0.0
 10
220.319840180069
 20
109.1606480800892
 30
0.0
 10
220.1707379301704
 20
108.9834198395129
 30
0.0
 10
219.9739234957233
 20
108.8560810895356
 30
0.0
 10
219.7503047306302
 20
108.7726904842674
 30
0.0
 10
219.5927271781566
 20
108.7630156201024
 30
0.0
 10
219.5139296348429
 20
108.7581776497435
 30
0.0
  0
SPLINE
  5
186
330
1F
100
AcDbEntity
  8
0
  6
SLD-SOLID
 62
     7
100
AcDbSpline
210
0.0
220
0.0
230
1.0
 70
     8
 71
     3
 72
    14
 73
    10
 74
     0
 42
0.000000001
 43
0.00000001
 40
0.0
 40
0.0
 40
0.0
 40
0.0
 40
0.1400264871145624
 40
0.2799841488674736
 40
0.4199428397229866
 40
0.5598508245880255
 40
0.7064809618807941
 40
0.8531980002517222
 40
1.0
 40
1.0
 40
1.0
 40
1.0
 10
219.5151644034414
 20
110.8655160578631
 30
0.0
 10
219.5905745543191
 20
110.861331603133
 30
0.0
 10
219.7413577907235
 20
110.8529647504022
 30
0.0
 10
219.9568232902806
 20
110.776600148522
 30
0.0
 10
220.1485101709574
 20
110.6542500101554
 30
0.0
 10
220.3055920161706
 20
110.4835336358782
 30
0.0
 10
220.4137725656263
 20
110.2751638286036
 30
0.0
 10
220.4780904169949
 20
110.0454499171401
 30
0.0
 10
220.4850785638059
 20
109.887534634011
 30
0.0
 10
220.4885736485982
 20
109.8085541375406
 30
0.0
  0
SPLINE
  5
187
330
1F
100
AcDbEntity
  8
0
  6
SLD-SOLID
 62
     7
100
AcDbSpline
210
0.0
220
0.0
230
1.0
 70
     8
 71
     3
 72
    14
 73
    10
 74
     0
 42
0.000000001
 43
0.00000001
 40
0.0
 40
0.0
 40
0.0
 40
0.0
 40
0.1401669877680865
 40
0.2802565352594646
 40
0.4202422896880308
 40
0.5601910430753031
 40
0.7067519887431217
 40
0.8532966192819297
 40
0.9999999999999999
 40
0.9999999999999999
 40
0.9999999999999999
 40
0.9999999999999999
 10
218.5392856210876
 20
109.7846819446361
 30
0.0
 10
218.5418206125147
 20
109.8613808378265
 30
0.0
 10
218.5468891948221
 20
110.0147362491543
 30
0.0
 10
218.6005465844624
 20
110.2397386119755
 30
0.0
 10
218.6979453076655
 20
110.4498959979704
 30
0.0
 10
218.8500814880929
 20
110.6299849219806
 30
0.0
 10
219.0444081572856
 20
110.7692984680706
 30
0.0
 10
219.2741954505158
 20
110.8522588959333
 30
0.0
 10
219.4348124357306
 20
110.861095409334
 30
0.0
 10
219.5151644034414
 20
110.8655160578631
 30
0.0
  0
SPLINE
  5
188
330
1F
100
AcDbEntity
  8
0
  6
SLD-SOLID
 62
     7
100
AcDbSpline
210
0.0
220
0.0
230
1.0
 70
     8
 71
     3
 72
    14
 73
    10
 74
     0
 42
0.000000001
 43
0.00000001
 40
0.0
 40
0.0
 40
0.0
 40
0.0
 40
0.1400395390986465
 40
0.2800174428709358
 40
0.4199710088593316
 40
0.5599113829699466
 40
0.7065581962561943
 40
0.8532824644022636
 40
0.9999999999999999
 40
0.9999999999999999
 40
0.9999999999999999
 40
0.9999999999999999
 10
219.5139296348429
 20
108.7581776497435
 30
0.0
 10
219.4399095044109
 20
108.7620708578611
 30
0.0
 10
219.2919018218811
 20
108.7698555605863
 30
0.0
 10
219.080028821018
 20
108.8436540746074
 30
0.0
 10
218.8912165099372
 20
108.9624106709662
 30
0.0
 10
218.7340318280705
 20
109.1270329499635
 30
0.0
 10
218.6239039638726
 20
109.329175805025
 30
0.0
 10
218.552225760033
 20
109.552183597183
 30
0.0
 10
218.5435989347599
 20
109.707183680894
 30
0.0
 10
218.5392856210876
 20
109.7846819446361
 30
0.0
  0
LINE
  5
189
330
1F
100
AcDbEntity
  8
0
  6
SLD-SOLID
 62
     7
100
AcDbLine
 10
215.6153535798
 20
110.6020987568
 30
0.0
 11
215.6153535798
 21
108.7845193798
 31
0.0
  0
LINE
  5
18A
330
1F
100
AcDbEntity
  8
0
  6
SLD-SOLID
 62
     7
100
AcDbLine
 10
216.2738968324
 20
110.6020987568
 30
0.0
 11
215.6153535798
 21
110.6020987568
 31
0.0
  0
LINE
  5
18B
330
1F
100
AcDbEntity
  8
0
  6
SLD-SOLID
 62
     7
100
AcDbLine
 10
216.2738968324
 20
110.8391743278
 30
0.0
 11
216.2738968324
 21
110.6020987568
 31
0.0
  0
LINE
  5
18C
330
1F
100
AcDbEntity
  8
0
  6
SLD-SOLID
 62
     7
100
AcDbLine
 10
214.6670512962
 20
110.8391743278
 30
0.0
 11
216.2738968324
 21
110.8391743278
 31
0.0
  0
LINE
  5
18D
330
1F
100
AcDbEntity
  8
0
  6
SLD-SOLID
 62
     7
100
AcDbLine
 10
214.6670512962
 20
110.6020987568
 30
0.0
 11
214.6670512962
 21
110.8391743278
 31
0.0
  0
LINE
  5
18E
330
1F
100
AcDbEntity
  8
0
  6
SLD-SOLID
 62
     7
100
AcDbLine
 10
215.3255945487
 20
110.6020987568
 30
0.0
 11
214.6670512962
 21
110.6020987568
 31
0.0
  0
LINE
  5
18F
330
1F
100
AcDbEntity
  8
0
  6
SLD-SOLID
 62
     7
100
AcDbLine
 10
215.3255945487
 20
108.7845193798
 30
0.0
 11
215.3255945487
 21
110.6020987568
 31
0.0
  0
LINE
  5
190
330
1F
100
AcDbEntity
  8
0
  6
SLD-SOLID
 62
     7
100
AcDbLine
 10
215.6153535798
 20
108.7845193798
 30
0.0
 11
215.3255945487
 21
108.7845193798
 31
0.0
  0
CIRCLE
  5
191
330
1F
100
AcDbEntity
  8
0
  6
SLD-SOLID
 62
     7
100
AcDbCircle
 10
222.2666404304
 20
108.2345193798
 30
0.0
 40
25.15000000000001
  0
LINE
  5
192
330
1F
100
AcDbEntity
  8
0
  6
SLD-SOLID
 62
     7
100
AcDbLine
 10
216.8797566247
 20
109.7591633936
 30
0.0
 11
216.8797566247
 21
108.7845193798
 31
0.0
  0
LINE
  5
193
330
1F
100
AcDbEntity
  8
0
  6
SLD-SOLID
 62
     7
100
AcDbLine
 10
217.8807423686
 20
109.7591633936
 30
0.0
 11
216.8797566247
 21
109.7591633936
 31
0.0
  0
LINE
  5
194
330
1F
100
AcDbEntity
  8
0
  6
SLD-SOLID
 62
     7
100
AcDbLine
 10
217.8807423686
 20
108.7845193798
 30
0.0
 11
217.8807423686
 21
109.7591633936
 31
0.0
  0
LINE
  5
195
330
1F
100
AcDbEntity
  8
0
  6
SLD-SOLID
 62
     7
100
AcDbLine
 10
218.1705013997
 20
108.7845193798
 30
0.0
 11
217.8807423686
 21
108.7845193798
 31
0.0
  0
LINE
  5
196
330
1F
100
AcDbEntity
  8
0
  6
SLD-SOLID
 62
     7
100
AcDbLine
 10
218.1705013997
 20
110.8391743278
 30
0.0
 11
218.1705013997
 21
108.7845193798
 31
0.0
  0
LINE
  5
197
330
1F
100
AcDbEntity
  8
0
  6
SLD-SOLID
 62
     7
100
AcDbLine
 10
217.8807423686
 20
110.8391743278
 30
0.0
 11
218.1705013997
 21
110.8391743278
 31
0.0
  0
LINE
  5
198
330
1F
100
AcDbEntity
  8
0
  6
SLD-SOLID
 62
     7
100
AcDbLine
 10
217.8807423686
 20
109.9962389645
 30
0.0
 11
217.8807423686
 21
110.8391743278
 31
0.0
  0
LINE
  5
199
330
1F
100
AcDbEntity
  8
0
  6
SLD-SOLID
 62
     7
100
AcDbLine
 10
216.8797566247
 20
109.9962389645
 30
0.0
 11
217.8807423686
 21
109.9962389645
 31
0.0
  0
LINE
  5
19A
330
1F
100
AcDbEntity
  8
0
  6
SLD-SOLID
 62
     7
100
AcDbLine
 10
216.8797566247
 20
110.8391743278
 30
0.0
 11
216.8797566247
 21
109.9962389645
 31
0.0
  0
LINE
  5
19B
330
1F
100
AcDbEntity
  8
0
  6
SLD-SOLID
 62
     7
100
AcDbLine
 10
216.5899975936
 20
110.8391743278
 30
0.0
 11
216.8797566247
 21
110.8391743278
 31
0.0
  0
LINE
  5
19C
330
1F
100
AcDbEntity
  8
0
  6
SLD-SOLID
 62
     7
100
AcDbLine
 10
216.5899975936
 20
108.7845193798
 30
0.0
 11
216.5899975936
 21
110.8391743278
 31
0.0
  0
LINE
  5
19D
330
1F
100
AcDbEntity
  8
0
  6
SLD-SOLID
 62
     7
100
AcDbLine
 10
216.8797566247
 20
108.7845193798
 30
0.0
 11
216.5899975936
 21
108.7845193798
 31
0.0
  0
LINE
  5
19E
330
1F
100
AcDbEntity
  8
0
  6
SLD-SOLID
 62
     7
100
AcDbLine
 10
221.1471169011
 20
109.7064799334
 30
0.0
 11
221.1471169011
 21
108.7845193798
 31
0.0
  0
LINE
  5
19F
330
1F
100
AcDbEntity
  8
0
  6
SLD-SOLID
 62
     7
100
AcDbLine
 10
221.4438729543
 20
109.7064799334
 30
0.0
 11
221.1471169011
 21
109.7064799334
 31
0.0
  0
SPLINE
  5
1A0
330
1F
100
AcDbEntity
  8
0
  6
SLD-SOLID
 62
     7
100
AcDbSpline
210
0.0
220
0.0
230
1.0
 70
     8
 71
     3
 72
     9
 73
     5
 74
     0
 42
0.000000001
 43
0.00000001
 40
0.0
 40
0.0
 40
0.0
 40
0.0
 40
0.5598526962065703
 40
1.0
 40
1.0
 40
1.0
 40
1.0
 10
221.5866945222044
 20
109.6970133741421
 30
0.0
 10
221.5601424930061
 20
109.7004325065282
 30
0.0
 10
221.5127156798852
 20
109.7065397065278
 30
0.0
 10
221.4649131214986
 20
109.7064982016551
 30
0.0
 10
221.4438729543103
 20
109.7064799333973
 30
0.0
  0
SPLINE
  5
1A1
330
1F
100
AcDbEntity
  8
0
  6
SLD-SOLID
 62
     7
100
AcDbSpline
210
0.0
220
0.0
230
1.0
 70
     8
 71
     3
 72
    10
 73
     6
 74
     0
 42
0.000000001
 43
0.00000001
 40
0.0
 40
0.0
 40
0.0
 40
0.0
 40
0.5608801796526574
 40
0.7807292143859458
 40
1.0
 40
1.0
 40
1.0
 40
1.0
 10
222.0180403526163
 20
109.218334747454
 30
0.0
 10
221.9548047600324
 20
109.3234227462136
 30
0.0
 10
221.8667826185657
 20
109.4697022434919
 30
0.0
 10
221.7237073618171
 20
109.6433870411868
 30
0.0
 10
221.6323253570144
 20
109.6791536294097
 30
0.0
 10
221.5866945222044
 20
109.6970133741421
 30
0.0
  0
LINE
  5
1A2
330
1F
100
AcDbEntity
  8
0
  6
SLD-SOLID
 62
     7
100
AcDbLine
 10
222.274049042
 20
108.7845193798
 30
0.0
 11
222.0180403526
 21
109.2183347475
 31
0.0
  0
LINE
  5
1A3
330
1F
100
AcDbEntity
  8
0
  6
SLD-SOLID
 62
     7
100
AcDbLine
 10
222.606201795
 20
108.7845193798
 30
0.0
 11
222.274049042
 21
108.7845193798
 31
0.0
  0
LINE
  5
1A4
330
1F
100
AcDbEntity
  8
0
  6
SLD-SOLID
 62
     7
100
AcDbLine
 10
222.2691099676
 20
109.3516897561
 30
0.0
 11
222.606201795
 21
108.7845193798
 31
0.0
  0
SPLINE
  5
1A5
330
1F
100
AcDbEntity
  8
0
  6
SLD-SOLID
 62
     7
100
AcDbSpline
210
0.0
220
0.0
230
1.0
 70
     8
 71
     3
 72
     9
 73
     5
 74
     0
 42
0.000000001
 43
0.00000001
 40
0.0
 40
0.0
 40
0.0
 40
0.0
 40
0.5597942846519989
 40
1.0
 40
1.0
 40
1.0
 40
1.0
 10
222.0526138733746
 20
109.6315706384212
 30
0.0
 10
222.098514994702
 20
109.5835264623985
 30
0.0
 10
222.1805114040721
 20
109.4977017633261
 30
0.0
 10
222.242029396002
 20
109.3963190194047
 30
0.0
 10
222.2691099676462
 20
109.3516897560928
 30
0.0
  0
SPLINE
  5
1A6
330
1F
100
AcDbEntity
  8
0
  6
SLD-SOLID
 62
     7
100
AcDbSpline
210
0.0
220
0.0
230
1.0
 70
     8
 71
     3
 72
     9
 73
     5
 74
     0
 42
0.000000001
 43
0.00000001
 40
0.0
 40
0.0
 40
0.0
 40
0.0
 40
0.5601200969425303
 40
1.0
 40
1.0
 40
1.0
 40
1.0
 10
221.8929171346342
 20
109.7328216634988
 30
0.0
 10
221.9247572815674
 20
109.717047884463
 30
0.0
 10
221.9816024958472
 20
109.6888864613648
 30
0.0
 10
222.030920065581
 20
109.6490804866985
 30
0.0
 10
222.0526138733746
 20
109.6315706384212
 30
0.0
  0
SPLINE
  5
1A7
330
1F
100
AcDbEntity
  8
0
  6
SLD-SOLID
 62
     7
100
AcDbSpline
210
0.0
220
0.0
230
1.0
 70
     8
 71
     3
 72
    12
 73
     8
 74
     0
 42
0.000000001
 43
0.00000001
 40
0.0
 40
0.0
 40
0.0
 40
0.0
 40
0.1867070858557142
 40
0.3732036760864635
 40
0.5597147242327057
 40
0.7796103846711787
 40
1.0
 40
1.0
 40
1.0
 40
1.0
 10
222.4378616761089
 20
110.2851748165646
 30
0.0
 10
222.4342160996848
 20
110.231675253273
 30
0.0
 10
222.4269290568996
 20
110.1247364426866
 30
0.0
 10
222.3581528530055
 20
109.9765472285753
 30
0.0
 10
222.2417881878656
 20
109.8501557318354
 30
0.0
 10
222.0786090138915
 20
109.767526261099
 30
0.0
 10
221.9548607053537
 20
109.7443985116859
 30
0.0
 10
221.8929171346342
 20
109.7328216634988
 30
0.0
  0
SPLINE
  5
1A8
330
1F
100
AcDbEntity
  8
0
  6
SLD-SOLID
 62
     7
100
AcDbSpline
210
0.0
220
0.0
230
1.0
 70
     8
 71
     3
 72
    13
 73
     9
 74
     0
 42
0.000000001
 43
0.00000001
 40
0.0
 40
0.0
 40
0.0
 40
0.0
 40
0.187169218679865
 40
0.3740102471002879
 40
0.5596352135016304
 40
0.7062977974288829
 40
0.8531349047063117
 40
1.0
 40
1.0
 40
1.0
 40
1.0
 10
221.7488607981417
 20
110.8391743277616
 30
0.0
 10
221.8118564772948
 20
110.837598724179
 30
0.0
 10
221.9377373763682
 20
110.8344502797424
 30
0.0
 10
222.1259811298527
 20
110.8040050938022
 30
0.0
 10
222.2804770839707
 20
110.7087654446054
 30
0.0
 10
222.3731905268645
 20
110.5740040904702
 30
0.0
 10
222.4286134168304
 20
110.4341502082305
 30
0.0
 10
222.4347787271774
 20
110.3348364351175
 30
0.0
 10
222.4378616761089
 20
110.2851748165646
 30
0.0
  0
LINE
  5
1A9
330
1F
100
AcDbEntity
  8
0
  6
SLD-SOLID
 62
     7
100
AcDbLine
 10
220.85735787
 20
110.8391743278
 30
0.0
 11
221.7488607981
 21
110.8391743278
 31
0.0
  0
LINE
  5
1AA
330
1F
100
AcDbEntity
  8
0
  6
SLD-SOLID
 62
     7
100
AcDbLine
 10
220.85735787
 20
108.7845193798
 30
0.0
 11
220.85735787
 21
110.8391743278
 31
0.0
  0
LINE
  5
1AB
330
1F
100
AcDbEntity
  8
0
  6
SLD-SOLID
 62
     7
100
AcDbLine
 10
221.1471169011
 20
108.7845193798
 30
0.0
 11
220.85735787
 21
108.7845193798
 31
0.0
  0
LINE
  5
1AC
330
1F
100
AcDbEntity
  8
0
  6
SLD-SOLID
 62
     7
100
AcDbLine
 10
224.7526412088
 20
109.4167209023
 30
0.0
 11
224.5188583541
 21
108.7845193798
 31
0.0
  0
LINE
  5
1AD
330
1F
100
AcDbEntity
  8
0
  6
SLD-SOLID
 62
     7
100
AcDbLine
 10
225.6285037347
 20
109.4167209023
 30
0.0
 11
224.7526412088
 21
109.4167209023
 31
0.0
  0
LINE
  5
1AE
330
1F
100
AcDbEntity
  8
0
  6
SLD-SOLID
 62
     7
100
AcDbLine
 10
225.8622865893
 20
108.7845193798
 30
0.0
 11
225.6285037347
 21
109.4167209023
 31
0.0
  0
LINE
  5
1AF
330
1F
100
AcDbEntity
  8
0
  6
SLD-SOLID
 62
     7
100
AcDbLine
 10
226.1697439703
 20
108.7845193798
 30
0.0
 11
225.8622865893
 21
108.7845193798
 31
0.0
  0
LINE
  5
1B0
330
1F
100
AcDbEntity
  8
0
  6
SLD-SOLID
 62
     7
100
AcDbLine
 10
225.3539735163
 20
110.8391743278
 30
0.0
 11
226.1697439703
 21
108.7845193798
 31
0.0
  0
LINE
  5
1B1
330
1F
100
AcDbEntity
  8
0
  6
SLD-SOLID
 62
     7
100
AcDbLine
 10
225.0271714272
 20
110.8391743278
 30
0.0
 11
225.3539735163
 21
110.8391743278
 31
0.0
  0
LINE
  5
1B2
330
1F
100
AcDbEntity
  8
0
  6
SLD-SOLID
 62
     7
100
AcDbLine
 10
224.2114009731
 20
108.7845193798
 30
0.0
 11
225.0271714272
 21
110.8391743278
 31
0.0
  0
LINE
  5
1B3
330
1F
100
AcDbEntity
  8
0
  6
SLD-SOLID
 62
     7
100
AcDbLine
 10
224.5188583541
 20
108.7845193798
 30
0.0
 11
224.2114009731
 21
108.7845193798
 31
0.0
  0
SPLINE
  5
1B4
330
1F
100
AcDbEntity
  8
0
  6
SLD-SOLID
 62
     7
100
AcDbSpline
210
0.0
220
0.0
230
1.0
 70
     8
 71
     3
 72
    12
 73
     8
 74
     0
 42
0.000000001
 43
0.00000001
 40
0.0
 40
0.0
 40
0.0
 40
0.0
 40
0.1864571734056642
 40
0.3730129006271271
 40
0.5595604343660676
 40
0.7796247697733155
 40
1.0
 40
1.0
 40
1.0
 40
1.0
 10
229.7872043744263
 20
109.3677417478734
 30
0.0
 10
229.7798837125721
 20
109.3008698393748
 30
0.0
 10
229.7652385194542
 20
109.1670906765572
 30
0.0
 10
229.6571233398489
 20
108.9911763674574
 30
0.0
 10
229.4903767345145
 20
108.8563046381652
 30
0.0
 10
229.2775903640114
 20
108.7725282580872
 30
0.0
 10
229.1198955931443
 20
108.7629634363776
 30
0.0
 10
229.0409925513948
 20
108.7581776497435
 30
0.0
  0
SPLINE
  5
1B5
330
1F
100
AcDbEntity
  8
0
  6
SLD-SOLID
 62
     7
100
AcDbSpline
210
0.0
220
0.0
230
1.0
 70
     8
 71
     3
 72
    11
 73
     7
 74
     0
 42
0.000000001
 43
0.00000001
 40
0.0
 40
0.0
 40
0.0
 40
0.0
 40
0.2803713422929912
 40
0.5599089067665235
 40
0.7798588713675206
 40
1.0
 40
1.0
 40
1.0
 40
1.0
 10
229.4307678389904
 20
109.8645303140063
 30
0.0
 10
229.4851662529163
 20
109.8369663648606
 30
0.0
 10
229.5938013089175
 20
109.7819204371772
 30
0.0
 10
229.711651726168
 20
109.6557015084443
 30
0.0
 10
229.7774267132119
 20
109.5111859374223
 30
0.0
 10
229.7839442103449
 20
109.4155703220284
 30
0.0
 10
229.7872043744263
 20
109.3677417478734
 30
0.0
  0
SPLINE
  5
1B6
330
1F
100
AcDbEntity
  8
0
  6
SLD-SOLID
 62
     7
100
AcDbSpline
210
0.0
220
0.0
230
1.0
 70
     8
 71
     3
 72
    11
 73
     7
 74
     0
 42
0.000000001
 43
0.00000001
 40
0.0
 40
0.0
 40
0.0
 40
0.0
 40
0.1858846769226188
 40
0.3727876403285246
 40
0.5597408737842284
 40
1.0
 40
1.0
 40
1.0
 40
1.0
 10
228.6228175860336
 20
110.1402953010063
 30
0.0
 10
228.6685442438092
 20
110.1128521014413
 30
0.0
 10
228.7602480525066
 20
110.0578153669546
 30
0.0
 10
228.9155889835713
 20
110.0154474909164
 30
0.0
 10
229.1413085505532
 20
109.9612566893335
 30
0.0
 10
229.311385639946
 20
109.904423341639
 30
0.0
 10
229.4307678389904
 20
109.8645303140063
 30
0.0
  0
SPLINE
  5
1B7
330
1F
100
AcDbEntity
  8
0
  6
SLD-SOLID
 62
     7
100
AcDbSpline
210
0.0
220
0.0
230
1.0
 70
     8
 71
     3
 72
     9
 73
     5
 74
     0
 42
0.000000001
 43
0.00000001
 40
0.0
 40
0.0
 40
0.0
 40
0.0
 40
0.5596168936192807
 40
1.0
 40
1.0
 40
1.0
 40
1.0
 10
228.549143059656
 20
110.321806284987
 30
0.0
 10
228.5526802822883
 20
110.2835018906441
 30
0.0
 10
228.5590010754465
 20
110.2150543602362
 30
0.0
 10
228.6033063094529
 20
110.1631521552612
 30
0.0
 10
228.6228175860336
 20
110.1402953010063
 30
0.0
  0
SPLINE
  5
1B8
330
1F
100
AcDbEntity
  8
0
  6
SLD-SOLID
 62
     7
100
AcDbSpline
210
0.0
220
0.0
230
1.0
 70
     8
 71
     3
 72
    11
 73
     7
 74
     0
 42
0.000000001
 43
0.00000001
 40
0.0
 40
0.0
 40
0.0
 40
0.0
 40
0.2812902698463146
 40
0.5608202086702168
 40
0.7806802755659137
 40
1.0
 40
1.0
 40
1.0
 40
1.0
 10
228.9841931958635
 20
110.6284404869497
 30
0.0
 10
228.9282636663731
 20
110.6264326131734
 30
0.0
 10
228.8167546176714
 20
110.622429431013
 30
0.0
 10
228.6683673818981
 20
110.5648986298475
 30
0.0
 10
228.5672090855015
 20
110.453719773725
 30
0.0
 10
228.5551601268143
 20
110.3657413666485
 30
0.0
 10
228.549143059656
 20
110.321806284987
 30
0.0
  0
SPLINE
  5
1B9
330
1F
100
AcDbEntity
  8
0
  6
SLD-SOLID
 62
     7
100
AcDbSpline
210
0.0
220
0.0
230
1.0
 70
     8
 71
     3
 72
    12
 73
     8
 74
     0
 42
0.000000001
 43
0.00000001
 40
0.0
 40
0.0
 40
0.0
 40
0.0
 40
0.1868967792323191
 40
0.3733705749000912
 40
0.5596477275665133
 40
0.7795192386635682
 40
0.9999999999999999
 40
0.9999999999999999
 40
0.9999999999999999
 40
0.9999999999999999
 10
229.4447618831068
 20
110.2596562655287
 30
0.0
 10
229.438239447437
 20
110.3004252631056
 30
0.0
 10
229.4252093376309
 20
110.3818709901314
 30
0.0
 10
229.3659350879151
 20
110.4932642824528
 30
0.0
 10
229.2638259463451
 20
110.5791983907579
 30
0.0
 10
229.1297057155188
 20
110.6226889934516
 30
0.0
 10
229.0327420871539
 20
110.6265215549344
 30
0.0
 10
228.9841931958635
 20
110.6284404869497
 30
0.0
  0
LINE
  5
1BA
330
1F
100
AcDbEntity
  8
0
  6
SLD-SOLID
 62
     7
100
AcDbLine
 10
229.7345209142
 20
110.2596562655
 30
0.0
 11
229.4447618831
 21
110.2596562655
 31
0.0
  0
SPLINE
  5
1BB
330
1F
100
AcDbEntity
  8
0
  6
SLD-SOLID
 62
     7
100
AcDbSpline
210
0.0
220
0.0
230
1.0
 70
     8
 71
     3
 72
    13
 73
     9
 74
     0
 42
0.000000001
 43
0.00000001
 40
0.0
 40
0.0
 40
0.0
 40
0.0
 40
0.1869458496891449
 40
0.3737575809767154
 40
0.5600610876281193
 40
0.7065956577586033
 40
0.8532760325650507
 40
1.0
 40
1.0
 40
1.0
 40
1.0
 10
228.9726686889441
 20
110.8655160578631
 30
0.0
 10
229.0406082320033
 20
110.8627528752001
 30
0.0
 10
229.17643857704
 20
110.8572284922324
 30
0.0
 10
229.3735337524064
 20
110.8006288707332
 30
0.0
 10
229.5391995455479
 20
110.7033132422634
 30
0.0
 10
229.6508774073956
 20
110.5669702880065
 30
0.0
 10
229.7180929547581
 20
110.4193171134122
 30
0.0
 10
229.7290443853643
 20
110.312881819374
 30
0.0
 10
229.7345209142233
 20
110.2596562655287
 30
0.0
  0
SPLINE
  5
1BC
330
1F
100
AcDbEntity
  8
0
  6
SLD-SOLID
 62
     7
100
AcDbSpline
210
0.0
220
0.0
230
1.0
 70
     8
 71
     3
 72
    12
 73
     8
 74
     0
 42
0.000000001
 43
0.00000001
 40
0.0
 40
0.0
 40
0.0
 40
0.0
 40
0.1864243241506547
 40
0.3729149094529093
 40
0.5593270353858006
 40
0.7795312433717757
 40
1.0
 40
1.0
 40
1.0
 40
1.0
 10
228.2593840285395
 20
110.3028731664765
 30
0.0
 10
228.2662578017961
 20
110.3661294801297
 30
0.0
 10
228.2800077914675
 20
110.4926645907478
 30
0.0
 10
228.3825786621607
 20
110.6593971798634
 30
0.0
 10
228.5449027739824
 20
110.7823080860341
 30
0.0
 10
228.7488854113959
 20
110.8530556234375
 30
0.0
 10
228.8980444149495
 20
110.8613609177523
 30
0.0
 10
228.9726686889441
 20
110.8655160578631
 30
0.0
  0
SPLINE
  5
1BD
330
1F
100
AcDbEntity
  8
0
  6
SLD-SOLID
 62
     7
100
AcDbSpline
210
0.0
220
0.0
230
1.0
 70
     8
 71
     3
 72
    11
 73
     7
 74
     0
 42
0.000000001
 43
0.00000001
 40
0.0
 40
0.0
 40
0.0
 40
0.0
 40
0.2802957267020744
 40
0.5599768903812433
 40
0.7799897284662265
 40
1.0
 40
1.0
 40
1.0
 40
1.0
 10
228.5627255142395
 20
109.8587680605466
 30
0.0
 10
228.5162780681046
 20
109.8849326436591
 30
0.0
 10
228.4234850142866
 20
109.9372044426688
 30
0.0
 10
228.324041294647
 20
110.0505656620396
 30
0.0
 10
228.2684965338673
 20
110.1775642953156
 30
0.0
 10
228.2624215185041
 20
110.2611037051781
 30
0.0
 10
228.2593840285395
 20
110.3028731664765
 30
0.0
  0
SPLINE
  5
1BE
330
1F
100
AcDbEntity
  8
0
  6
SLD-SOLID
 62
     7
100
AcDbSpline
210
0.0
220
0.0
230
1.0
 70
     8
 71
     3
 72
    11
 73
     7
 74
     0
 42
0.000000001
 43
0.00000001
 40
0.0
 40
0.0
 40
0.0
 40
0.0
 40
0.2799437429837423
 40
0.5600414115400443
 40
0.7800906928706013
 40
1.0
 40
1.0
 40
1.0
 40
1.0
 10
229.2784797118411
 20
109.6311590488884
 30
0.0
 10
229.2117961038714
 20
109.6530518614061
 30
0.0
 10
229.0783922223062
 20
109.6968495240878
 30
0.0
 10
228.8885958857929
 20
109.7437161537041
 30
0.0
 10
228.7148697149791
 20
109.7935746846715
 30
0.0
 10
228.6134294899778
 20
109.8370415449608
 30
0.0
 10
228.5627255142395
 20
109.8587680605466
 30
0.0
  0
SPLINE
  5
1BF
330
1F
100
AcDbEntity
  8
0
  6
SLD-SOLID
 62
     7
100
AcDbSpline
210
0.0
220
0.0
230
1.0
 70
     8
 71
     3
 72
    10
 73
     6
 74
     0
 42
0.000000001
 43
0.00000001
 40
0.0
 40
0.0
 40
0.0
 40
0.0
 40
0.2800885009069778
 40
0.5599704937960677
 40
1.0
 40
1.0
 40
1.0
 40
1.0
 10
229.4974453433098
 20
109.353747703757
 30
0.0
 10
229.4941223456134
 20
109.3891833226278
 30
0.0
 10
229.4874788002522
 20
109.4600284338438
 30
0.0
 10
229.4122041028461
 20
109.5681150823425
 30
0.0
 10
229.3292087381215
 20
109.6072430002776
 30
0.0
 10
229.2784797118411
 20
109.6311590488884
 30
0.0
  0
SPLINE
  5
1C0
330
1F
100
AcDbEntity
  8
0
  6
SLD-SOLID
 62
     7
100
AcDbSpline
210
0.0
220
0.0
230
1.0
 70
     8
 71
     3
 72
    11
 73
     7
 74
     0
 42
0.000000001
 43
0.00000001
 40
0.0
 40
0.0
 40
0.0
 40
0.0
 40
0.2809171675508335
 40
0.560812739751759
 40
0.7805017995679407
 40
1.0
 40
1.0
 40
1.0
 40
1.0
 10
229.0282332758769
 20
108.9952532206569
 30
0.0
 10
229.0898572922127
 20
108.9991352010775
 30
0.0
 10
229.2128812203587
 20
109.006885044543
 30
0.0
 10
229.3717975658806
 20
109.0824068746569
 30
0.0
 10
229.4765350326392
 20
109.2089474545319
 30
0.0
 10
229.4904772593962
 20
109.3054949396923
 30
0.0
 10
229.4974453433098
 20
109.353747703757
 30
0.0
  0
SPLINE
  5
1C1
330
1F
100
AcDbEntity
  8
0
  6
SLD-SOLID
 62
     7
100
AcDbSpline
210
0.0
220
0.0
230
1.0
 70
     8
 71
     3
 72
    12
 73
     8
 74
     0
 42
0.000000001
 43
0.00000001
 40
0.0
 40
0.0
 40
0.0
 40
0.0
 40
0.1870410326002627
 40
0.3735777048606312
 40
0.5599478209718458
 40
0.7798344153979253
 40
0.9999999999999999
 40
0.9999999999999999
 40
0.9999999999999999
 40
0.9999999999999999
 10
228.4701178693514
 20
109.4957460925854
 30
0.0
 10
228.4776710286926
 20
109.4441828066046
 30
0.0
 10
228.4927569801112
 20
109.3411952762004
 30
0.0
 10
228.5565352871586
 20
109.1946915232892
 30
0.0
 10
228.681396456718
 20
109.0814246142522
 30
0.0
 10
228.8436961613274
 20
109.0077361868739
 30
0.0
 10
228.9666949108954
 20
108.9994159677173
 30
0.0
 10
229.0282332758769
 20
108.9952532206569
 30
0.0
  0
LINE
  5
1C2
330
1F
100
AcDbEntity
  8
0
  6
SLD-SOLID
 62
     7
100
AcDbLine
 10
228.1803588382
 20
109.4957460926
 30
0.0
 11
228.4701178694
 21
109.4957460926
 31
0.0
  0
SPLINE
  5
1C3
330
1F
100
AcDbEntity
  8
0
  6
SLD-SOLID
 62
     7
100
AcDbSpline
210
0.0
220
0.0
230
1.0
 70
     8
 71
     3
 72
    13
 73
     9
 74
     0
 42
0.000000001
 43
0.00000001
 40
0.0
 40
0.0
 40
0.0
 40
0.0
 40
0.1869690226981985
 40
0.3736319000383405
 40
0.5598728377573353
 40
0.7065183933135822
 40
0.8532124980087368
 40
1.0
 40
1.0
 40
1.0
 40
1.0
 10
229.0409925513948
 20
108.7581776497435
 30
0.0
 10
228.9614216781688
 20
108.761160249649
 30
0.0
 10
228.802410222035
 20
108.7671205657145
 30
0.0
 10
228.5707982663866
 20
108.8348952307259
 30
0.0
 10
228.3855244624663
 20
108.964321714277
 30
0.0
 10
228.2662193426367
 20
109.1323166426225
 30
0.0
 10
228.1958673679329
 20
109.308445742837
 30
0.0
 10
228.1855294447778
 20
109.4332993982347
 30
0.0
 10
228.180358838235
 20
109.4957460925854
 30
0.0
  0
SPLINE
  5
1C4
330
1F
100
AcDbEntity
  8
0
  6
SLD-SOLID
 62
     7
100
AcDbSpline
210
0.0
220
0.0
230
1.0
 70
     8
 71
     3
 72
    12
 73
     8
 74
     0
 42
0.000000001
 43
0.00000001
 40
0.0
 40
0.0
 40
0.0
 40
0.0
 40
0.1866200114219028
 40
0.3732732847017364
 40
0.5592200851609231
 40
0.7792881714219694
 40
1.0
 40
1.0
 40
1.0
 40
1.0
 10
220.238327212634
 20
106.2120847996208
 30
0.0
 10
220.2319457532154
 20
106.1443107534397
 30
0.0
 10
220.2191816969909
 20
106.0087505815011
 30
0.0
 10
220.1186265449402
 20
105.8254024769574
 30
0.0
 10
219.9454217270123
 20
105.6894464715039
 30
0.0
 10
219.721217024334
 20
105.6305309946455
 30
0.0
 10
219.5617004316066
 20
105.6258537869535
 30
0.0
 10
219.4818256512817
 20
105.6235117676655
 30
0.0
  0
SPLINE
  5
1C5
330
1F
100
AcDbEntity
  8
0
  6
SLD-SOLID
 62
     7
100
AcDbSpline
210
0.0
220
0.0
230
1.0
 70
     8
 71
     3
 72
    11
 73
     7
 74
     0
 42
0.000000001
 43
0.00000001
 40
0.0
 40
0.0
 40
0.0
 40
0.0
 40
0.2802111301844295
 40
0.5596695371223338
 40
0.7797087448035203
 40
1.0
 40
1.0
 40
1.0
 40
1.0
 10
219.8510214622355
 20
106.7035227018268
 30
0.0
 10
219.9107419199182
 20
106.6818396889837
 30
0.0
 10
220.0300224099045
 20
106.6385319097625
 30
0.0
 10
220.1565264752884
 20
106.5095938991469
 30
0.0
 10
220.2281097928817
 20
106.3611895441464
 30
0.0
 10
220.2349201066299
 20
106.2618053438122
 30
0.0
 10
220.238327212634
 20
106.2120847996208
 30
0.0
  0
SPLINE
  5
1C6
330
1F
100
AcDbEntity
  8
0
  6
SLD-SOLID
 62
     7
100
AcDbSpline
210
0.0
220
0.0
230
1.0
 70
     8
 71
     3
 72
    11
 73
     7
 74
     0
 42
0.000000001
 43
0.00000001
 40
0.0
 40
0.0
 40
0.0
 40
0.0
 40
0.2795835546999796
 40
0.5592950966815703
 40
0.7795657655052946
 40
1.0
 40
1.0
 40
1.0
 40
1.0
 10
220.1593020223296
 20
107.1455698600925
 30
0.0
 10
220.1536146441278
 20
107.0923437344216
 30
0.0
 10
220.1422372841661
 20
106.9858671173149
 30
0.0
 10
220.0632152805733
 20
106.8558850272699
 30
0.0
 10
219.9624934596264
 20
106.7618228026085
 30
0.0
 10
219.8881879874147
 20
106.7229608765645
 30
0.0
 10
219.8510214622355
 20
106.7035227018268
 30
0.0
  0
SPLINE
  5
1C7
330
1F
100
AcDbEntity
  8
0
  6
SLD-SOLID
 62
     7
100
AcDbSpline
210
0.0
220
0.0
230
1.0
 70
     8
 71
     3
 72
    13
 73
     9
 74
     0
 42
0.000000001
 43
0.00000001
 40
0.0
 40
0.0
 40
0.0
 40
0.0
 40
0.1870109526290534
 40
0.3737001719599168
 40
0.559982001010427
 40
0.7066445324064023
 40
0.8533599190015247
 40
1.0
 40
1.0
 40
1.0
 40
1.0
 10
219.4797677036175
 20
107.6781667155822
 30
0.0
 10
219.5403897003755
 20
107.6763925310195
 30
0.0
 10
219.6615293999198
 20
107.6728472141981
 30
0.0
 10
219.8401494187482
 20
107.6320256556784
 30
0.0
 10
219.9884218904447
 20
107.5433546902878
 30
0.0
 10
220.0851297493244
 20
107.4196449467644
 30
0.0
 10
220.1472795369683
 20
107.2886408870173
 30
0.0
 10
220.1552952130952
 20
107.1932520401598
 30
0.0
 10
220.1593020223296
 20
107.1455698600925
 30
0.0
  0
LINE
  5
1C8
330
1F
100
AcDbEntity
  8
0
  6
SLD-SOLID
 62
     7
100
AcDbLine
 10
218.7105068667
 20
107.6781667156
 30
0.0
 11
219.4797677036
 21
107.6781667156
 31
0.0
  0
LINE
  5
1C9
330
1F
100
AcDbEntity
  8
0
  6
SLD-SOLID
 62
     7
100
AcDbLine
 10
218.7105068667
 20
105.6235117677
 30
0.0
 11
218.7105068667
 21
107.6781667156
 31
0.0
  0
LINE
  5
1CA
330
1F
100
AcDbEntity
  8
0
  6
SLD-SOLID
 62
     7
100
AcDbLine
 10
219.4818256513
 20
105.6235117677
 30
0.0
 11
218.7105068667
 21
105.6235117677
 31
0.0
  0
LINE
  5
1CB
330
1F
100
AcDbEntity
  8
0
  6
SLD-SOLID
 62
     7
100
AcDbLine
 10
222.7934750325
 20
106.4664471309
 30
0.0
 11
222.7934750325
 21
106.22937156
 31
0.0
  0
LINE
  5
1CC
330
1F
100
AcDbEntity
  8
0
  6
SLD-SOLID
 62
     7
100
AcDbLine
 10
222.0295648595
 20
106.4664471309
 30
0.0
 11
222.7934750325
 21
106.4664471309
 31
0.0
  0
LINE
  5
1CD
330
1F
100
AcDbEntity
  8
0
  6
SLD-SOLID
 62
     7
100
AcDbLine
 10
222.0295648595
 20
106.22937156
 30
0.0
 11
222.0295648595
 21
106.4664471309
 31
0.0
  0
LINE
  5
1CE
330
1F
100
AcDbEntity
  8
0
  6
SLD-SOLID
 62
     7
100
AcDbLine
 10
222.7934750325
 20
106.22937156
 30
0.0
 11
222.0295648595
 21
106.22937156
 31
0.0
  0
SPLINE
  5
1CF
330
1F
100
AcDbEntity
  8
0
  6
SLD-SOLID
 62
     7
100
AcDbSpline
210
0.0
220
0.0
230
1.0
 70
     8
 71
     3
 72
    11
 73
     7
 74
     0
 42
0.000000001
 43
0.00000001
 40
0.0
 40
0.0
 40
0.0
 40
0.0
 40
0.2800948759332707
 40
0.5599235684723953
 40
0.7799974186780821
 40
1.0
 40
1.0
 40
1.0
 40
1.0
 10
225.5856984232377
 20
105.597170037564
 30
0.0
 10
225.5373928167704
 20
105.5994783027541
 30
0.0
 10
225.4408275102463
 20
105.6040926395137
 30
0.0
 10
225.3117463025058
 20
105.6468759790482
 30
0.0
 10
225.2051061220221
 20
105.7123343384526
 30
0.0
 10
225.1528832843207
 20
105.7675441617374
 30
0.0
 10
225.1267760941257
 20
105.795144602858
 30
0.0
  0
SPLINE
  5
1D0
330
1F
100
AcDbEntity
  8
0
  6
SLD-SOLID
 62
     7
100
AcDbSpline
210
0.0
220
0.0
230
1.0
 70
     8
 71
     3
 72
    14
 73
    10
 74
     0
 42
0.000000001
 43
0.00000001
 40
0.0
 40
0.0
 40
0.0
 40
0.0
 40
0.1669755119791158
 40
0.3338933823269625
 40
0.5006249920422285
 40
0.6255905973393179
 40
0.7503089416179981
 40
0.8750361388241051
 40
0.9999999999999999
 40
0.9999999999999999
 40
0.9999999999999999
 40
0.9999999999999999
 10
226.2442416757751
 20
106.6368451975074
 30
0.0
 10
226.2427670964735
 20
106.559364064543
 30
0.0
 10
226.23981844691
 20
106.404428545883
 30
0.0
 10
226.2093091503565
 20
106.1736246685944
 30
0.0
 10
226.1490519086096
 20
105.9679898116492
 30
0.0
 10
226.0521810226655
 20
105.7986068164787
 30
0.0
 10
225.9238199337812
 20
105.6770619213092
 30
0.0
 10
225.7600860331693
 20
105.6072228840516
 30
0.0
 10
225.6438643459059
 20
105.600523103138
 30
0.0
 10
225.5856984232377
 20
105.597170037564
 30
0.0
  0
SPLINE
  5
1D1
330
1F
100
AcDbEntity
  8
0
  6
SLD-SOLID
 62
     7
100
AcDbSpline
210
0.0
220
0.0
230
1.0
 70
     8
 71
     3
 72
    13
 73
     9
 74
     0
 42
0.000000001
 43
0.00000001
 40
0.0
 40
0.0
 40
0.0
 40
0.0
 40
0.1250186870222048
 40
0.2499347078730186
 40
0.3746347272966041
 40
0.4996956063169884
 40
0.7495805068812555
 40
1.0
 40
1.0
 40
1.0
 40
1.0
 10
225.5856984232377
 20
107.6781667155822
 30
0.0
 10
225.6438948984577
 20
107.6744183312519
 30
0.0
 10
225.7602400575679
 20
107.6669246407893
 30
0.0
 10
225.9234447341414
 20
107.5971197812296
 30
0.0
 10
226.0552432316991
 20
107.4779521110923
 30
0.0
 10
226.1619061756444
 20
107.2693237114191
 30
0.0
 10
226.2387764781117
 20
106.9860912638155
 30
0.0
 10
226.2424186459598
 20
106.7533434526398
 30
0.0
 10
226.2442416757751
 20
106.6368451975074
 30
0.0
  0
SPLINE
  5
1D2
330
1F
100
AcDbEntity
  8
0
  6
SLD-SOLID
 62
     7
100
AcDbSpline
210
0.0
220
0.0
230
1.0
 70
     8
 71
     3
 72
    14
 73
    10
 74
     0
 42
0.000000001
 43
0.00000001
 40
0.0
 40
0.0
 40
0.0
 40
0.0
 40
0.1669897732217878
 40
0.3339166051075908
 40
0.5006505600476656
 40
0.6256481726890323
 40
0.7503476946828409
 40
0.875050040203318
 40
1.0
 40
1.0
 40
1.0
 40
1.0
 10
224.9271551707003
 20
106.6368451975074
 30
0.0
 10
224.9285159293699
 20
106.7144051828519
 30
0.0
 10
224.9312369338156
 20
106.8694959198398
 30
0.0
 10
224.9622489382168
 20
107.1004075444776
 30
0.0
 10
225.0218999563451
 20
107.3064323621795
 30
0.0
 10
225.1191851415412
 20
107.4758243619149
 30
0.0
 10
225.2475947624801
 20
107.5973987475912
 30
0.0
 10
225.4111886453145
 20
107.6678344891255
 30
0.0
 10
225.5274900466038
 20
107.6747203635427
 30
0.0
 10
225.5856984232377
 20
107.6781667155822
 30
0.0
  0
SPLINE
  5
1D3
330
1F
100
AcDbEntity
  8
0
  6
SLD-SOLID
 62
     7
100
AcDbSpline
210
0.0
220
0.0
230
1.0
 70
     8
 71
     3
 72
    10
 73
     6
 74
     0
 42
0.000000001
 43
0.00000001
 40
0.0
 40
0.0
 40
0.0
 40
0.0
 40
0.2795619859421304
 40
0.5596877546750701
 40
1.0
 40
1.0
 40
1.0
 40
1.0
 10
225.1267760941257
 20
105.795144602858
 30
0.0
 10
225.0851284880738
 20
105.8660666810405
 30
0.0
 10
225.0017492867129
 20
106.0080538634576
 30
0.0
 10
224.9390768574128
 20
106.2975772058969
 30
0.0
 10
224.9316774739279
 20
106.5081492528411
 30
0.0
 10
224.9271551707003
 20
106.6368451975074
 30
0.0
  0
CIRCLE
  5
1D4
330
1F
100
AcDbEntity
  8
0
  6
SLD-SOLID
 62
     7
100
AcDbCircle
 10
222.2666404304
 20
108.2345193798
 30
0.0
 40
25.40000000000001
  0
LINE
  5
1D5
330
1F
100
AcDbEntity
  8
0
  6
SLD-SOLID
 62
     7
100
AcDbLine
 10
227.1316287086
 20
109.7328216635
 30
0.0
 11
226.6788802224
 21
109.7328216635
 31
0.0
  0
SPLINE
  5
1D6
330
1F
100
AcDbEntity
  8
0
  6
SLD-SOLID
 62
     7
100
AcDbSpline
210
0.0
220
0.0
230
1.0
 70
     8
 71
     3
 72
    14
 73
    10
 74
     0
 42
0.000000001
 43
0.00000001
 40
0.0
 40
0.0
 40
0.0
 40
0.0
 40
0.1250540397031383
 40
0.2500367487108056
 40
0.3750026611438269
 40
0.4998329338928372
 40
0.6662260835795724
 40
0.8330904737964147
 40
0.9999999999999999
 40
0.9999999999999999
 40
0.9999999999999999
 40
0.9999999999999999
 10
227.6271825061036
 20
109.3772083071286
 30
0.0
 10
227.625818491968
 20
109.406427172693
 30
0.0
 10
227.6230912417292
 20
109.4648482374108
 30
0.0
 10
227.5932987532765
 20
109.5482721102658
 30
0.0
 10
227.5443754906466
 20
109.621735913961
 30
0.0
 10
227.4671807172647
 20
109.6832566075826
 30
0.0
 10
227.364105406396
 20
109.7171025664295
 30
0.0
 10
227.248266622284
 20
109.7309784907059
 30
0.0
 10
227.1705115180615
 20
109.7322072171813
 30
0.0
 10
227.1316287085692
 20
109.7328216634988
 30
0.0
  0
SPLINE
  5
1D7
330
1F
100
AcDbEntity
  8
0
  6
SLD-SOLID
 62
     7
100
AcDbSpline
210
0.0
220
0.0
230
1.0
 70
     8
 71
     3
 72
    11
 73
     7
 74
     0
 42
0.000000001
 43
0.00000001
 40
0.0
 40
0.0
 40
0.0
 40
0.0
 40
0.280289907773356
 40
0.5590178684488191
 40
0.7794024405567724
 40
1.0
 40
1.0
 40
1.0
 40
1.0
 10
227.3407161912498
 20
109.0314730995465
 30
0.0
 10
227.3859605517003
 20
109.0426364031323
 30
0.0
 10
227.4761971433038
 20
109.0649008015368
 30
0.0
 10
227.5714132969686
 20
109.158657300494
 30
0.0
 10
227.6204955443578
 20
109.268304861741
 30
0.0
 10
227.6249528012603
 20
109.3408954719638
 30
0.0
 10
227.6271825061036
 20
109.3772083071286
 30
0.0
  0
SPLINE
  5
1D8
330
1F
100
AcDbEntity
  8
0
  6
SLD-SOLID
 62
     7
100
AcDbSpline
210
0.0
220
0.0
230
1.0
 70
     8
 71
     3
 72
     9
 73
     5
 74
     0
 42
0.000000001
 43
0.00000001
 40
0.0
 40
0.0
 40
0.0
 40
0.0
 40
0.5600993165774628
 40
1.0
 40
1.0
 40
1.0
 40
1.0
 10
227.1649674607289
 20
109.0215949507584
 30
0.0
 10
227.1978952647922
 20
109.0215460860689
 30
0.0
 10
227.2566844885757
 20
109.0214588431675
 30
0.0
 10
227.315043862692
 20
109.0284136675483
 30
0.0
 10
227.3407161912498
 20
109.0314730995465
 30
0.0
  0
LINE
  5
1D9
330
1F
100
AcDbEntity
  8
0
  6
SLD-SOLID
 62
     7
100
AcDbLine
 10
226.6788802224
 20
109.0215949508
 30
0.0
 11
227.1649674607
 21
109.0215949508
 31
0.0
  0
LINE
  5
1DA
330
1F
100
AcDbEntity
  8
0
  6
SLD-SOLID
 62
     7
100
AcDbLine
 10
226.6788802224
 20
109.7328216635
 30
0.0
 11
226.6788802224
 21
109.0215949508
 31
0.0
  0
LINE
  5
1DB
330
1F
100
AcDbEntity
  8
0
  6
SLD-SOLID
 62
     7
100
AcDbLine
 10
227.0703018682
 20
110.6020987568
 30
0.0
 11
226.6788802224
 21
110.6020987568
 31
0.0
  0
SPLINE
  5
1DC
330
1F
100
AcDbEntity
  8
0
  6
SLD-SOLID
 62
     7
100
AcDbSpline
210
0.0
220
0.0
230
1.0
 70
     8
 71
     3
 72
    10
 73
     6
 74
     0
 42
0.000000001
 43
0.00000001
 40
0.0
 40
0.0
 40
0.0
 40
0.0
 40
0.2808694612754568
 40
0.5610625923467093
 40
1.0
 40
1.0
 40
1.0
 40
1.0
 10
227.3493595714394
 20
109.9941810168496
 30
0.0
 10
227.3821489785656
 20
110.0074159607964
 30
0.0
 10
227.4476488363294
 20
110.0338539791078
 30
0.0
 10
227.5331870976901
 20
110.1337289204026
 30
0.0
 10
227.5424832197762
 20
110.2252170780717
 30
0.0
 10
227.5481573157991
 20
110.2810589212362
 30
0.0
  0
SPLINE
  5
1DD
330
1F
100
AcDbEntity
  8
0
  6
SLD-SOLID
 62
     7
100
AcDbSpline
210
0.0
220
0.0
230
1.0
 70
     8
 71
     3
 72
     9
 73
     5
 74
     0
 42
0.000000001
 43
0.00000001
 40
0.0
 40
0.0
 40
0.0
 40
0.0
 40
0.560392984631884
 40
1.0
 40
1.0
 40
1.0
 40
1.0
 10
227.1024058517378
 20
109.9698972344123
 30
0.0
 10
227.1490181447062
 20
109.9699145410061
 30
0.0
 10
227.2321960113937
 20
109.9699454239657
 30
0.0
 10
227.3135818054298
 20
109.9867802911379
 30
0.0
 10
227.3493595714394
 20
109.9941810168496
 30
0.0
  0
LINE
  5
1DE
330
1F
100
AcDbEntity
  8
0
  6
SLD-SOLID
 62
     7
100
AcDbLine
 10
226.6788802224
 20
109.9698972344
 30
0.0
 11
227.1024058517
 21
109.9698972344
 31
0.0
  0
LINE
  5
1DF
330
1F
100
AcDbEntity
  8
0
  6
SLD-SOLID
 62
     7
100
AcDbLine
 10
226.6788802224
 20
110.6020987568
 30
0.0
 11
226.6788802224
 21
109.9698972344
 31
0.0
  0
SPLINE
  5
1E0
330
1F
100
AcDbEntity
  8
0
  6
SLD-SOLID
 62
     7
100
AcDbSpline
210
0.0
220
0.0
230
1.0
 70
     8
 71
     3
 72
    14
 73
    10
 74
     0
 42
0.000000001
 43
0.00000001
 40
0.0
 40
0.0
 40
0.0
 40
0.0
 40
0.1251135860085142
 40
0.2501473020086434
 40
0.375091180804442
 40
0.4997556450079756
 40
0.6660775374514826
 40
0.8330211469910849
 40
1.0
 40
1.0
 40
1.0
 40
1.0
 10
227.5481573157991
 20
110.2810589212362
 30
0.0
 10
227.546850435895
 20
110.308926788729
 30
0.0
 10
227.5442375103729
 20
110.3646447334261
 30
0.0
 10
227.5158904258752
 20
110.444076288349
 30
0.0
 10
227.469964841696
 20
110.51474906206
 30
0.0
 10
227.3931087959728
 20
110.5702856054705
 30
0.0
 10
227.2919947364982
 20
110.5920560576766
 30
0.0
 10
227.1815590285828
 20
110.6011858848277
 30
0.0
 10
227.1073901976672
 20
110.6017944447648
 30
0.0
 10
227.0703018681767
 20
110.6020987568482
 30
0.0
  0
SPLINE
  5
1E1
330
1F
100
AcDbEntity
  8
0
  6
SLD-SOLID
 62
     7
100
AcDbSpline
210
0.0
220
0.0
230
1.0
 70
     8
 71
     3
 72
    10
 73
     6
 74
     0
 42
0.000000001
 43
0.00000001
 40
0.0
 40
0.0
 40
0.0
 40
0.0
 40
0.2804532367257075
 40
0.5606884758386259
 40
1.0
 40
1.0
 40
1.0
 40
1.0
 10
225.5828172965078
 20
107.4410911446687
 30
0.0
 10
225.5529999886693
 20
107.4391432030169
 30
0.0
 10
225.4933885501251
 20
107.4352488338575
 30
0.0
 10
225.3930509840251
 20
107.3926431154409
 30
0.0
 10
225.3411869027569
 20
107.3353234367317
 30
0.0
 10
225.3095218467048
 20
107.3003275244388
 30
0.0
  0
SPLINE
  5
1E2
330
1F
100
AcDbEntity
  8
0
  6
SLD-SOLID
 62
     7
100
AcDbSpline
210
0.0
220
0.0
230
1.0
 70
     8
 71
     3
 72
    13
 73
     9
 74
     0
 42
0.000000001
 43
0.00000001
 40
0.0
 40
0.0
 40
0.0
 40
0.0
 40
0.250522768405274
 40
0.5008004348743411
 40
0.6258653437831372
 40
0.7507402036104256
 40
0.8753672407688589
 40
1.0
 40
1.0
 40
1.0
 40
1.0
 10
225.9808243747601
 20
106.6376683765731
 30
0.0
 10
225.9793196823859
 20
106.7213031136014
 30
0.0
 10
225.9763117697713
 20
106.8884907626164
 30
0.0
 10
225.9493330229587
 20
107.0966516005671
 30
0.0
 10
225.8939165797771
 20
107.2562313466125
 30
0.0
 10
225.815442767658
 20
107.355780104844
 30
0.0
 10
225.7089491246983
 20
107.4291977804792
 30
0.0
 10
225.6248618826808
 20
107.4371266292666
 30
0.0
 10
225.5828172965078
 20
107.4410911446687
 30
0.0
  0
SPLINE
  5
1E3
330
1F
100
AcDbEntity
  8
0
  6
SLD-SOLID
 62
     7
100
AcDbSpline
210
0.0
220
0.0
230
1.0
 70
     8
 71
     3
 72
    13
 73
     9
 74
     0
 42
0.000000001
 43
0.00000001
 40
0.0
 40
0.0
 40
0.0
 40
0.0
 40
0.1245442362116273
 40
0.2491960861446946
 40
0.3740507948170431
 40
0.4991413426108753
 40
0.7494521513032805
 40
1.0
 40
1.0
 40
1.0
 40
1.0
 10
225.5856984232377
 20
105.8342456084775
 30
0.0
 10
225.6275399502515
 20
105.8387450674638
 30
0.0
 10
225.7112591578786
 20
105.84774787324
 30
0.0
 10
225.8163894907947
 20
105.9219488172149
 30
0.0
 10
225.89568441002
 20
106.0204053312758
 30
0.0
 10
225.9495824245808
 20
106.1801789094714
 30
0.0
 10
225.976793502014
 20
106.3874935871399
 30
0.0
 10
225.9794803266494
 20
106.5542504732372
 30
0.0
 10
225.9808243747601
 20
106.6376683765731
 30
0.0
  0
SPLINE
  5
1E4
330
1F
100
AcDbEntity
  8
0
  6
SLD-SOLID
 62
     7
100
AcDbSpline
210
0.0
220
0.0
230
1.0
 70
     8
 71
     3
 72
    13
 73
     9
 74
     0
 42
0.000000001
 43
0.00000001
 40
0.0
 40
0.0
 40
0.0
 40
0.0
 40
0.2505245141323428
 40
0.5008087333580524
 40
0.6259017750402485
 40
0.7507609468510291
 40
0.8754148889595238
 40
1.0
 40
1.0
 40
1.0
 40
1.0
 10
225.1905724717153
 20
106.6376683765731
 30
0.0
 10
225.1918999656131
 20
106.5542209682758
 30
0.0
 10
225.1945536801202
 20
106.3874061917014
 30
0.0
 10
225.221835525448
 20
106.1801663059696
 30
0.0
 10
225.2752204676687
 20
106.0200228103053
 30
0.0
 10
225.3552402869809
 20
105.9221609573021
 30
0.0
 10
225.4598669537312
 20
105.8471128442739
 30
0.0
 10
225.5437623230531
 20
105.8385338973417
 30
0.0
 10
225.5856984232377
 20
105.8342456084775
 30
0.0
  0
SPLINE
  5
1E5
330
1F
100
AcDbEntity
  8
0
  6
SLD-SOLID
 62
     7
100
AcDbSpline
210
0.0
220
0.0
230
1.0
 70
     8
 71
     3
 72
    10
 73
     6
 74
     0
 42
0.000000001
 43
0.00000001
 40
0.0
 40
0.0
 40
0.0
 40
0.0
 40
0.279304153260435
 40
0.559523633684517
 40
0.9999999999999999
 40
0.9999999999999999
 40
0.9999999999999999
 40
0.9999999999999999
 10
225.3095218467048
 20
107.3003275244388
 30
0.0
 10
225.2824419296263
 20
107.2427025481755
 30
0.0
 10
225.2281933499802
 20
107.1272637488112
 30
0.0
 10
225.1974326970692
 20
106.9004122334787
 30
0.0
 10
225.1931748136436
 20
106.7373370200872
 30
0.0
 10
225.1905724717153
 20
106.6376683765731
 30
0.0
  0
SPLINE
  5
1E6
330
1F
100
AcDbEntity
  8
0
  6
SLD-SOLID
 62
     7
100
AcDbSpline
210
0.0
220
0.0
230
1.0
 70
     8
 71
     3
 72
     9
 73
     5
 74
     0
 42
0.000000001
 43
0.00000001
 40
0.0
 40
0.0
 40
0.0
 40
0.0
 40
0.5599145935103051
 40
0.9999999999999999
 40
0.9999999999999999
 40
0.9999999999999999
 40
0.9999999999999999
 10
225.1905724717152
 20
110.6020987568482
 30
0.0
 10
225.1709824839434
 20
110.5287707817421
 30
0.0
 10
225.1359950269298
 20
110.3978079957102
 30
0.0
 10
225.0764328749039
 20
110.276152163808
 30
0.0
 10
225.0502204410182
 20
110.2226132075735
 30
0.0
  0
SPLINE
  5
1E7
330
1F
100
AcDbEntity
  8
0
  6
SLD-SOLID
 62
     7
100
AcDbSpline
210
0.0
220
0.0
230
1.0
 70
     8
 71
     3
 72
     9
 73
     5
 74
     0
 42
0.000000001
 43
0.00000001
 40
0.0
 40
0.0
 40
0.0
 40
0.0
 40
0.560002073106695
 40
0.9999999999999999
 40
0.9999999999999999
 40
0.9999999999999999
 40
0.9999999999999999
 10
225.341625830266
 20
110.193801940275
 30
0.0
 10
225.313342928319
 20
110.2699857577526
 30
0.0
 10
225.2628379332391
 20
110.4060277853383
 30
0.0
 10
225.2126535127103
 20
110.5421883782448
 30
0.0
 10
225.1905724717152
 20
110.6020987568482
 30
0.0
  0
LINE
  5
1E8
330
1F
100
AcDbEntity
  8
0
  6
SLD-SOLID
 62
     7
100
AcDbLine
 10
225.5412467537
 20
109.6537964732
 30
0.0
 11
225.3416258303
 21
110.1938019403
 31
0.0
  0
LINE
  5
1E9
330
1F
100
AcDbEntity
  8
0
  6
SLD-SOLID
 62
     7
100
AcDbLine
 10
224.8398981897
 20
109.6537964732
 30
0.0
 11
225.5412467537
 21
109.6537964732
 31
0.0
  0
LINE
  5
1EA
330
1F
100
AcDbEntity
  8
0
  6
SLD-SOLID
 62
     7
100
AcDbLine
 10
225.050220441
 20
110.2226132076
 30
0.0
 11
224.8398981897
 21
109.6537964732
 31
0.0
  0
LINE
  5
1EB
330
1F
100
AcDbEntity
  8
0
  6
SLD-SOLID
 62
     7
100
AcDbLine
 10
221.759562126
 20
110.6020987568
 30
0.0
 11
221.1471169011
 21
110.6020987568
 31
0.0
  0
SPLINE
  5
1EC
330
1F
100
AcDbEntity
  8
0
  6
SLD-SOLID
 62
     7
100
AcDbSpline
210
0.0
220
0.0
230
1.0
 70
     8
 71
     3
 72
    11
 73
     7
 74
     0
 42
0.000000001
 43
0.00000001
 40
0.0
 40
0.0
 40
0.0
 40
0.0
 40
0.2794034751273671
 40
0.5579788879754098
 40
0.7786394456116412
 40
1.0
 40
1.0
 40
1.0
 40
1.0
 10
222.1481026449925
 20
110.279000973572
 30
0.0
 10
222.1417742603848
 20
110.3328069771859
 30
0.0
 10
222.1291362464714
 20
110.4402595206778
 30
0.0
 10
222.0184583138777
 20
110.5548529165312
 30
0.0
 10
221.8856985607622
 20
110.5971022751479
 30
0.0
 10
221.8016519704126
 20
110.6004315055279
 30
0.0
 10
221.7595621259954
 20
110.6020987568482
 30
0.0
  0
LINE
  5
1ED
330
1F
100
AcDbEntity
  8
0
  6
SLD-SOLID
 62
     7
100
AcDbLine
 10
221.1471169011
 20
109.9435555043
 30
0.0
 11
221.6974121065
 21
109.9435555043
 31
0.0
  0
LINE
  5
1EE
330
1F
100
AcDbEntity
  8
0
  6
SLD-SOLID
 62
     7
100
AcDbLine
 10
221.1471169011
 20
110.6020987568
 30
0.0
 11
221.1471169011
 21
109.9435555043
 31
0.0
  0
SPLINE
  5
1EF
330
1F
100
AcDbEntity
  8
0
  6
SLD-SOLID
 62
     7
100
AcDbSpline
210
0.0
220
0.0
230
1.0
 70
     8
 71
     3
 72
    12
 73
     8
 74
     0
 42
0.000000001
 43
0.00000001
 40
0.0
 40
0.0
 40
0.0
 40
0.0
 40
0.1874499594625476
 40
0.3747518762126181
 40
0.5611753053640991
 40
0.7803411264621906
 40
0.9999999999999999
 40
0.9999999999999999
 40
0.9999999999999999
 40
0.9999999999999999
 10
221.6974121065372
 20
109.9435555043108
 30
0.0
 10
221.7373546941764
 20
109.944497032511
 30
0.0
 10
221.8172083239211
 20
109.946379345319
 30
0.0
 10
221.9363187053241
 20
109.9643720453131
 30
0.0
 10
222.0524289294113
 20
110.0223038383677
 30
0.0
 10
222.1322923407879
 20
110.1381604763893
 30
0.0
 10
222.1428285974996
 20
110.2320189888196
 30
0.0
 10
222.1481026449925
 20
110.279000973572
 30
0.0
  0
SPLINE
  5
1F0
330
1F
100
AcDbEntity
  8
0
  6
SLD-SOLID
 62
     7
100
AcDbSpline
210
0.0
220
0.0
230
1.0
 70
     8
 71
     3
 72
    13
 73
     9
 74
     0
 42
0.000000001
 43
0.00000001
 40
0.0
 40
0.0
 40
0.0
 40
0.0
 40
0.1869617415486633
 40
0.3737161741131203
 40
0.5600504464690387
 40
0.7066997877863043
 40
0.853309735930068
 40
1.0
 40
1.0
 40
1.0
 40
1.0
 10
220.1988146174818
 20
109.8106120852048
 30
0.0
 10
220.1956451012678
 20
109.885226968548
 30
0.0
 10
220.1893095832978
 20
110.0343739999348
 30
0.0
 10
220.1235693520565
 20
110.2503325825356
 30
0.0
 10
220.0091875136557
 20
110.4277044141953
 30
0.0
 10
219.8566758773259
 20
110.5464137773822
 30
0.0
 10
219.6926873749663
 20
110.6165296019494
 30
0.0
 10
219.5754470008849
 20
110.6244694672114
 30
0.0
 10
219.5168107615727
 20
110.6284404869497
 30
0.0
  0
SPLINE
  5
1F1
330
1F
100
AcDbEntity
  8
0
  6
SLD-SOLID
 62
     7
100
AcDbSpline
210
0.0
220
0.0
230
1.0
 70
     8
 71
     3
 72
    13
 73
     9
 74
     0
 42
0.000000001
 43
0.00000001
 40
0.0
 40
0.0
 40
0.0
 40
0.0
 40
0.1864908485879143
 40
0.3727325558475026
 40
0.5591987802068049
 40
0.7060278828957428
 40
0.8529806871779154
 40
1.0
 40
1.0
 40
1.0
 40
1.0
 10
219.5126948662444
 20
108.9952532206569
 30
0.0
 10
219.5876686869112
 20
109.0011277645253
 30
0.0
 10
219.7375161674198
 20
109.0128690042004
 30
0.0
 10
219.9376675215275
 20
109.1262447942425
 30
0.0
 10
220.077557415434
 20
109.2842214458163
 30
0.0
 10
220.1559515836172
 20
109.4612635330958
 30
0.0
 10
220.193345752819
 20
109.6343900924112
 30
0.0
 10
220.1969913876635
 20
109.7518625619114
 30
0.0
 10
220.1988146174818
 20
109.8106120852048
 30
0.0
  0
SPLINE
  5
1F2
330
1F
100
AcDbEntity
  8
0
  6
SLD-SOLID
 62
     7
100
AcDbSpline
210
0.0
220
0.0
230
1.0
 70
     8
 71
     3
 72
    13
 73
     9
 74
     0
 42
0.000000001
 43
0.00000001
 40
0.0
 40
0.0
 40
0.0
 40
0.0
 40
0.186891576654219
 40
0.373502635950344
 40
0.5599145583605446
 40
0.7065930975726377
 40
0.8532368355354696
 40
1.0
 40
1.0
 40
1.0
 40
1.0
 10
218.829044652204
 20
109.7813892283735
 30
0.0
 10
218.8324949407466
 20
109.7085110626605
 30
0.0
 10
218.839390339076
 20
109.5628641186712
 30
0.0
 10
218.9080595388752
 20
109.3522923609927
 30
0.0
 10
219.0293088095959
 20
109.1858008709552
 30
0.0
 10
219.179150194216
 20
109.0714113812966
 30
0.0
 10
219.3407538553377
 20
109.0056818668716
 30
0.0
 10
219.4553656456546
 20
108.9987303792251
 30
0.0
 10
219.5126948662444
 20
108.9952532206569
 30
0.0
  0
SPLINE
  5
1F3
330
1F
100
AcDbEntity
  8
0
  6
SLD-SOLID
 62
     7
100
AcDbSpline
210
0.0
220
0.0
230
1.0
 70
     8
 71
     3
 72
    14
 73
    10
 74
     0
 42
0.000000001
 43
0.00000001
 40
0.0
 40
0.0
 40
0.0
 40
0.0
 40
0.1399750700778379
 40
0.2798494598752372
 40
0.4198409656980253
 40
0.5595711296449009
 40
0.7062482606506747
 40
0.85309406915657
 40
1.0
 40
1.0
 40
1.0
 40
1.0
 10
219.5168107615727
 20
110.6284404869497
 30
0.0
 10
219.4590111207488
 20
110.6247827314363
 30
0.0
 10
219.3434534128184
 20
110.6174698513341
 30
0.0
 10
219.1805117538281
 20
110.5520941518723
 30
0.0
 10
219.0386529446788
 20
110.4509683803809
 30
0.0
 10
218.927687191257
 20
110.3112073998958
 30
0.0
 10
218.8648768433561
 20
110.1421417780524
 30
0.0
 10
218.8337558106382
 20
109.9628742058906
 30
0.0
 10
218.8306152526087
 20
109.8418924746794
 30
0.0
 10
218.829044652204
 20
109.7813892283735
 30
0.0
  0
LINE
  5
1F4
330
1F
100
AcDbEntity
  8
0
  6
SLD-SOLID
 62
     7
100
AcDbLine
 10
219.3916875436
 20
107.4410911447
 30
0.0
 11
219.0002658979
 21
107.4410911447
 31
0.0
  0
SPLINE
  5
1F5
330
1F
100
AcDbEntity
  8
0
  6
SLD-SOLID
 62
     7
100
AcDbSpline
210
0.0
220
0.0
230
1.0
 70
     8
 71
     3
 72
    14
 73
    10
 74
     0
 42
0.000000001
 43
0.00000001
 40
0.0
 40
0.0
 40
0.0
 40
0.0
 40
0.1251135860085161
 40
0.2501473020086467
 40
0.375091180804446
 40
0.4997556450079765
 40
0.6660775374514832
 40
0.8330211469910852
 40
1.0
 40
1.0
 40
1.0
 40
1.0
 10
219.8695429912131
 20
107.1200513090567
 30
0.0
 10
219.868236111309
 20
107.1479191765496
 30
0.0
 10
219.8656231857869
 20
107.2036371212466
 30
0.0
 10
219.8372761012892
 20
107.2830686761696
 30
0.0
 10
219.79135051711
 20
107.3537414498805
 30
0.0
 10
219.7144944713868
 20
107.409277993291
 30
0.0
 10
219.6133804119122
 20
107.4310484454971
 30
0.0
 10
219.5029447039968
 20
107.4401782726482
 30
0.0
 10
219.4287758730812
 20
107.4407868325853
 30
0.0
 10
219.3916875435907
 20
107.4410911446687
 30
0.0
  0
SPLINE
  5
1F6
330
1F
100
AcDbEntity
  8
0
  6
SLD-SOLID
 62
     7
100
AcDbSpline
210
0.0
220
0.0
230
1.0
 70
     8
 71
     3
 72
    10
 73
     6
 74
     0
 42
0.000000001
 43
0.00000001
 40
0.0
 40
0.0
 40
0.0
 40
0.0
 40
0.2808694612754553
 40
0.5610625923467084
 40
1.0
 40
1.0
 40
1.0
 40
1.0
 10
219.6707452468534
 20
106.8331734046701
 30
0.0
 10
219.7035346539796
 20
106.8464083486169
 30
0.0
 10
219.7690345117434
 20
106.8728463669283
 30
0.0
 10
219.8545727731041
 20
106.9727213082232
 30
0.0
 10
219.8638688951903
 20
107.0642094658922
 30
0.0
 10
219.8695429912131
 20
107.1200513090567
 30
0.0
  0
SPLINE
  5
1F7
330
1F
100
AcDbEntity
  8
0
  6
SLD-SOLID
 62
     7
100
AcDbSpline
210
0.0
220
0.0
230
1.0
 70
     8
 71
     3
 72
     9
 73
     5
 74
     0
 42
0.000000001
 43
0.00000001
 40
0.0
 40
0.0
 40
0.0
 40
0.0
 40
0.560392984631897
 40
1.0
 40
1.0
 40
1.0
 40
1.0
 10
219.4237915271518
 20
106.8088896222328
 30
0.0
 10
219.4704038201202
 20
106.8089069288266
 30
0.0
 10
219.5535816868077
 20
106.8089378117862
 30
0.0
 10
219.6349674808438
 20
106.8257726789584
 30
0.0
 10
219.6707452468534
 20
106.8331734046701
 30
0.0
  0
LINE
  5
1F8
330
1F
100
AcDbEntity
  8
0
  6
SLD-SOLID
 62
     7
100
AcDbLine
 10
219.0002658979
 20
106.8088896222
 30
0.0
 11
219.4237915272
 21
106.8088896222
 31
0.0
  0
LINE
  5
1F9
330
1F
100
AcDbEntity
  8
0
  6
SLD-SOLID
 62
     7
100
AcDbLine
 10
219.0002658979
 20
107.4410911447
 30
0.0
 11
219.0002658979
 21
106.8088896222
 31
0.0
  0
LINE
  5
1FA
330
1F
100
AcDbEntity
  8
0
  6
SLD-SOLID
 62
     7
100
AcDbLine
 10
219.453014384
 20
106.5718140513
 30
0.0
 11
219.0002658979
 21
106.5718140513
 31
0.0
  0
SPLINE
  5
1FB
330
1F
100
AcDbEntity
  8
0
  6
SLD-SOLID
 62
     7
100
AcDbSpline
210
0.0
220
0.0
230
1.0
 70
     8
 71
     3
 72
    14
 73
    10
 74
     0
 42
0.000000001
 43
0.00000001
 40
0.0
 40
0.0
 40
0.0
 40
0.0
 40
0.1250540397031365
 40
0.2500367487108047
 40
0.3750026611438264
 40
0.4998329338928368
 40
0.6662260835795715
 40
0.8330904737964143
 40
1.0
 40
1.0
 40
1.0
 40
1.0
 10
219.9485681815176
 20
106.2162006949491
 30
0.0
 10
219.947204167382
 20
106.2454195605135
 30
0.0
 10
219.9444769171432
 20
106.3038406252313
 30
0.0
 10
219.9146844286905
 20
106.3872644980863
 30
0.0
 10
219.8657611660607
 20
106.4607283017815
 30
0.0
 10
219.7885663926787
 20
106.5222489954031
 30
0.0
 10
219.68549108181
 20
106.55609495425
 30
0.0
 10
219.569652297698
 20
106.5699708785264
 30
0.0
 10
219.4918971934755
 20
106.5711996050018
 30
0.0
 10
219.4530143839832
 20
106.5718140513193
 30
0.0
  0
SPLINE
  5
1FC
330
1F
100
AcDbEntity
  8
0
  6
SLD-SOLID
 62
     7
100
AcDbSpline
210
0.0
220
0.0
230
1.0
 70
     8
 71
     3
 72
     9
 73
     5
 74
     0
 42
0.000000001
 43
0.00000001
 40
0.0
 40
0.0
 40
0.0
 40
0.0
 40
0.5600993165774629
 40
1.0
 40
1.0
 40
1.0
 40
1.0
 10
219.4863531361429
 20
105.860587338579
 30
0.0
 10
219.5192809402062
 20
105.8605384738895
 30
0.0
 10
219.5780701639897
 20
105.860451230988
 30
0.0
 10
219.636429538106
 20
105.8674060553688
 30
0.0
 10
219.6621018666638
 20
105.870465487367
 30
0.0
  0
LINE
  5
1FD
330
1F
100
AcDbEntity
  8
0
  6
SLD-SOLID
 62
     7
100
AcDbLine
 10
219.0002658979
 20
105.8605873386
 30
0.0
 11
219.4863531361
 21
105.8605873386
 31
0.0
  0
LINE
  5
1FE
330
1F
100
AcDbEntity
  8
0
  6
SLD-SOLID
 62
     7
100
AcDbLine
 10
219.0002658979
 20
106.5718140513
 30
0.0
 11
219.0002658979
 21
105.8605873386
 31
0.0
  0
SPLINE
  5
1FF
330
1F
100
AcDbEntity
  8
0
  6
SLD-SOLID
 62
     7
100
AcDbSpline
210
0.0
220
0.0
230
1.0
 70
     8
 71
     3
 72
    11
 73
     7
 74
     0
 42
0.000000001
 43
0.00000001
 40
0.0
 40
0.0
 40
0.0
 40
0.0
 40
0.2802899077733563
 40
0.5590178684488172
 40
0.7794024405567679
 40
1.0
 40
1.0
 40
1.0
 40
1.0
 10
219.6621018666638
 20
105.870465487367
 30
0.0
 10
219.7073462271143
 20
105.8816287909528
 30
0.0
 10
219.7975828187178
 20
105.9038931893573
 30
0.0
 10
219.8927989723826
 20
105.9976496883145
 30
0.0
 10
219.9418812197718
 20
106.1072972495615
 30
0.0
 10
219.9463384766743
 20
106.1798878597843
 30
0.0
 10
219.9485681815176
 20
106.2162006949491
 30
0.0
  0
OLE2FRAME
  5
200
330
1F
100
AcDbEntity
  8
0
100
AcDbOle2Frame
 70
     2
  3
Paintbrush Picture
 10
229.0524258301
 20
33.6996297921
 30
0.0
 11
265.1686469208
 21
28.555479607
 31
0.0
 71
     2
 72
     0
 90
     7296
310
80557333EF78ADA16C40002412788DD94040000000000000000041161DC7B292
310
7040002412788DD94040000000000000000041161DC7B2927040F6DD59E9338E
310
3C4000000000000000007333EF78ADA16C40F6DD59E9338E3C40000000000000
310
00000000000001000000000100000100000001000000000001000000001C0000
310
D0CF11E0A1B11AE1000000000000000000000000000000003E000300FEFF0900
310
0600000000000000000000000100000001000000000000000010000002000000
310
01000000FEFFFFFF0000000000000000FFFFFFFFFFFFFFFFFFFFFFFFFFFFFFFF
310
FFFFFFFFFFFFFFFFFFFFFFFFFFFFFFFFFFFFFFFFFFFFFFFFFFFFFFFFFFFFFFFF
310
FFFFFFFFFFFFFFFFFFFFFFFFFFFFFFFFFFFFFFFFFFFFFFFFFFFFFFFFFFFFFFFF
310
FFFFFFFFFFFFFFFFFFFFFFFFFFFFFFFFFFFFFFFFFFFFFFFFFFFFFFFFFFFFFFFF
310
FFFFFFFFFFFFFFFFFFFFFFFFFFFFFFFFFFFFFFFFFFFFFFFFFFFFFFFFFFFFFFFF
310
FFFFFFFFFFFFFFFFFFFFFFFFFFFFFFFFFFFFFFFFFFFFFFFFFFFFFFFFFFFFFFFF
310
FFFFFFFFFFFFFFFFFFFFFFFFFFFFFFFFFFFFFFFFFFFFFFFFFFFFFFFFFFFFFFFF
310
FFFFFFFFFFFFFFFFFFFFFFFFFFFFFFFFFFFFFFFFFFFFFFFFFFFFFFFFFFFFFFFF
310
FFFFFFFFFFFFFFFFFFFFFFFFFFFFFFFFFFFFFFFFFFFFFFFFFFFFFFFFFFFFFFFF
310
FFFFFFFFFFFFFFFFFFFFFFFFFFFFFFFFFFFFFFFFFFFFFFFFFFFFFFFFFFFFFFFF
310
FFFFFFFFFFFFFFFFFFFFFFFFFFFFFFFFFFFFFFFFFFFFFFFFFFFFFFFFFFFFFFFF
310
FFFFFFFFFFFFFFFFFFFFFFFFFFFFFFFFFFFFFFFFFFFFFFFFFFFFFFFFFFFFFFFF
310
FFFFFFFFFFFFFFFFFFFFFFFFFFFFFFFFFFFFFFFFFFFFFFFFFFFFFFFFFFFFFFFF
310
FFFFFFFFFFFFFFFFFFFFFFFFFFFFFFFFFFFFFFFFFFFFFFFFFFFFFFFFFFFFFFFF
310
FDFFFFFFFEFFFFFFFEFFFFFFFEFFFFFF05000000060000000700000008000000
310
090000000A0000000B0000000C000000FEFFFFFFFFFFFFFFFFFFFFFFFFFFFFFF
310
FFFFFFFFFFFFFFFFFFFFFFFFFFFFFFFFFFFFFFFFFFFFFFFFFFFFFFFFFFFFFFFF
310
FFFFFFFFFFFFFFFFFFFFFFFFFFFFFFFFFFFFFFFFFFFFFFFFFFFFFFFFFFFFFFFF
310
FFFFFFFFFFFFFFFFFFFFFFFFFFFFFFFFFFFFFFFFFFFFFFFFFFFFFFFFFFFFFFFF
310
FFFFFFFFFFFFFFFFFFFFFFFFFFFFFFFFFFFFFFFFFFFFFFFFFFFFFFFFFFFFFFFF
310
FFFFFFFFFFFFFFFFFFFFFFFFFFFFFFFFFFFFFFFFFFFFFFFFFFFFFFFFFFFFFFFF
310
FFFFFFFFFFFFFFFFFFFFFFFFFFFFFFFFFFFFFFFFFFFFFFFFFFFFFFFFFFFFFFFF
310
FFFFFFFFFFFFFFFFFFFFFFFFFFFFFFFFFFFFFFFFFFFFFFFFFFFFFFFFFFFFFFFF
310
FFFFFFFFFFFFFFFFFFFFFFFFFFFFFFFFFFFFFFFFFFFFFFFFFFFFFFFFFFFFFFFF
310
FFFFFFFFFFFFFFFFFFFFFFFFFFFFFFFFFFFFFFFFFFFFFFFFFFFFFFFFFFFFFFFF
310
FFFFFFFFFFFFFFFFFFFFFFFFFFFFFFFFFFFFFFFFFFFFFFFFFFFFFFFFFFFFFFFF
310
FFFFFFFFFFFFFFFFFFFFFFFFFFFFFFFFFFFFFFFFFFFFFFFFFFFFFFFFFFFFFFFF
310
FFFFFFFFFFFFFFFFFFFFFFFFFFFFFFFFFFFFFFFFFFFFFFFFFFFFFFFFFFFFFFFF
310
FFFFFFFFFFFFFFFFFFFFFFFFFFFFFFFFFFFFFFFFFFFFFFFFFFFFFFFFFFFFFFFF
310
FFFFFFFFFFFFFFFFFFFFFFFFFFFFFFFFFFFFFFFFFFFFFFFFFFFFFFFFFFFFFFFF
310
52006F006F007400200045006E00740072007900000000000000000000000000
310
0000000000000000000000000000000000000000000000000000000000000000
310
16000500FFFFFFFFFFFFFFFF020000000A00030000000000C000000000000046
310
000000000000000000000000303246C4A6D1D70103000000C000000000000000
310
01004F006C006500000000000000000000000000000000000000000000000000
310
0000000000000000000000000000000000000000000000000000000000000000
310
0A000200FFFFFFFFFFFFFFFFFFFFFFFF00000000000000000000000000000000
310
0000000000000000000000000000000000000000000000001400000000000000
310
010043006F006D0070004F0062006A0000000000000000000000000000000000
310
0000000000000000000000000000000000000000000000000000000000000000
310
120002010100000003000000FFFFFFFF00000000000000000000000000000000
310
0000000000000000000000000000000000000000010000004D00000000000000
310
01004F006C006500310030004E00610074006900760065000000000000000000
310
0000000000000000000000000000000000000000000000000000000000000000
310
1A000200FFFFFFFFFFFFFFFFFFFFFFFF00000000000000000000000000000000
310
000000000000000000000000000000000000000004000000E411000000000000
310
FEFFFFFF02000000FEFFFFFFFFFFFFFFFFFFFFFFFFFFFFFFFFFFFFFFFFFFFFFF
310
FFFFFFFFFFFFFFFFFFFFFFFFFFFFFFFFFFFFFFFFFFFFFFFFFFFFFFFFFFFFFFFF
310
FFFFFFFFFFFFFFFFFFFFFFFFFFFFFFFFFFFFFFFFFFFFFFFFFFFFFFFFFFFFFFFF
310
FFFFFFFFFFFFFFFFFFFFFFFFFFFFFFFFFFFFFFFFFFFFFFFFFFFFFFFFFFFFFFFF
310
FFFFFFFFFFFFFFFFFFFFFFFFFFFFFFFFFFFFFFFFFFFFFFFFFFFFFFFFFFFFFFFF
310
FFFFFFFFFFFFFFFFFFFFFFFFFFFFFFFFFFFFFFFFFFFFFFFFFFFFFFFFFFFFFFFF
310
FFFFFFFFFFFFFFFFFFFFFFFFFFFFFFFFFFFFFFFFFFFFFFFFFFFFFFFFFFFFFFFF
310
FFFFFFFFFFFFFFFFFFFFFFFFFFFFFFFFFFFFFFFFFFFFFFFFFFFFFFFFFFFFFFFF
310
FFFFFFFFFFFFFFFFFFFFFFFFFFFFFFFFFFFFFFFFFFFFFFFFFFFFFFFFFFFFFFFF
310
FFFFFFFFFFFFFFFFFFFFFFFFFFFFFFFFFFFFFFFFFFFFFFFFFFFFFFFFFFFFFFFF
310
FFFFFFFFFFFFFFFFFFFFFFFFFFFFFFFFFFFFFFFFFFFFFFFFFFFFFFFFFFFFFFFF
310
FFFFFFFFFFFFFFFFFFFFFFFFFFFFFFFFFFFFFFFFFFFFFFFFFFFFFFFFFFFFFFFF
310
FFFFFFFFFFFFFFFFFFFFFFFFFFFFFFFFFFFFFFFFFFFFFFFFFFFFFFFFFFFFFFFF
310
FFFFFFFFFFFFFFFFFFFFFFFFFFFFFFFFFFFFFFFFFFFFFFFFFFFFFFFFFFFFFFFF
310
FFFFFFFFFFFFFFFFFFFFFFFFFFFFFFFFFFFFFFFFFFFFFFFFFFFFFFFFFFFFFFFF
310
FFFFFFFFFFFFFFFFFFFFFFFFFFFFFFFFFFFFFFFFFFFFFFFFFFFFFFFFFFFFFFFF
310
0100000200000000000000000000000000000000000000000000000000000000
310
0000000000000000000000000000000000000000000000000000000000000000
310
0100FEFF030A0000FFFFFFFF0A00030000000000C00000000000004607000000
310
5042727573680007000000504272757368000700000050427275736800F439B2
310
7100000000000000000000000000000000000000000000000000000000000000
310
0000000000000000000000000000000000000000000000000000000000000000
310
0000000000000000000000000000000000000000000000000000000000000000
310
0000000000000000000000000000000000000000000000000000000000000000
310
0000000000000000000000000000000000000000000000000000000000000000
310
0000000000000000000000000000000000000000000000000000000000000000
310
0000000000000000000000000000000000000000000000000000000000000000
310
0000000000000000000000000000000000000000000000000000000000000000
310
0000000000000000000000000000000000000000000000000000000000000000
310
0000000000000000000000000000000000000000000000000000000000000000
310
0000000000000000000000000000000000000000000000000000000000000000
310
0000000000000000000000000000000000000000000000000000000000000000
310
E0110000424DDE11000000000000360400002800000096000000170000000100
310
08000000000000000000E7240000E72400000001000000010000000000FF0101
310
01FF020202FF030303FF040404FF050505FF060606FF070707FF080808FF0909
310
09FF0A0A0AFF0B0B0BFF0C0C0CFF0D0D0DFF0E0E0EFF0F0F0FFF101010FF1111
310
11FF121212FF131313FF141414FF151515FF161616FF171717FF181818FF1919
310
19FF1A1A1AFF1B1B1BFF1C1C1CFF1D1D1DFF1E1E1EFF1F1F1FFF202020FF2121
310
21FF222222FF232323FF242424FF252525FF262626FF272727FF282828FF2929
310
29FF2A2A2AFF2B2B2BFF2C2C2CFF2D2D2DFF2E2E2EFF2F2F2FFF303030FF3131
310
31FF323232FF333333FF343434FF353535FF363636FF373737FF383838FF3939
310
39FF3A3A3AFF3B3B3BFF3C3C3CFF3D3D3DFF3E3E3EFF3F3F3FFF404040FF4141
310
41FF424242FF434343FF444444FF454545FF464646FF474747FF484848FF4949
310
49FF4A4A4AFF4B4B4BFF4C4C4CFF4D4D4DFF4E4E4EFF4F4F4FFF505050FF5151
310
51FF525252FF535353FF545454FF555555FF565656FF575757FF585858FF5959
310
59FF5A5A5AFF5B5B5BFF5C5C5CFF5D5D5DFF5E5E5EFF5F5F5FFF606060FF6161
310
61FF626262FF636363FF646464FF656565FF666666FF676767FF686868FF6969
310
69FF6A6A6AFF6B6B6BFF6C6C6CFF6D6D6DFF6E6E6EFF6F6F6FFF707070FF7171
310
71FF727272FF737373FF747474FF757575FF767676FF777777FF787878FF7979
310
79FF7A7A7AFF7B7B7BFF7C7C7CFF7D7D7DFF7E7E7EFF7F7F7FFF808080FF8181
310
81FF828282FF838383FF848484FF858585FF868686FF878787FF888888FF8989
310
89FF8A8A8AFF8B8B8BFF8C8C8CFF8D8D8DFF8E8E8EFF8F8F8FFF909090FF9191
310
91FF929292FF939393FF949494FF959595FF969696FF979797FF989898FF9999
310
99FF9A9A9AFF9B9B9BFF9C9C9CFF9D9D9DFF9E9E9EFF9F9F9FFFA0A0A0FFA1A1
310
A1FFA2A2A2FFA3A3A3FFA4A4A4FFA5A5A5FFA6A6A6FFA7A7A7FFA8A8A8FFA9A9
310
A9FFAAAAAAFFABABABFFACACACFFADADADFFAEAEAEFFAFAFAFFFB0B0B0FFB1B1
310
B1FFB2B2B2FFB3B3B3FFB4B4B4FFB5B5B5FFB6B6B6FFB7B7B7FFB8B8B8FFB9B9
310
B9FFBABABAFFBBBBBBFFBCBCBCFFBDBDBDFFBEBEBEFFBFBFBFFFC0C0C0FFC1C1
310
C1FFC2C2C2FFC3C3C3FFC4C4C4FFC5C5C5FFC6C6C6FFC7C7C7FFC8C8C8FFC9C9
310
C9FFCACACAFFCBCBCBFFCCCCCCFFCDCDCDFFCECECEFFCFCFCFFFD0D0D0FFD1D1
310
D1FFD2D2D2FFD3D3D3FFD4D4D4FFD5D5D5FFD6D6D6FFD7D7D7FFD8D8D8FFD9D9
310
D9FFDADADAFFDBDBDBFFDCDCDCFFDDDDDDFFDEDEDEFFDFDFDFFFE0E0E0FFE1E1
310
E1FFE2E2E2FFE3E3E3FFE4E4E4FFE5E5E5FFE6E6E6FFE7E7E7FFE8E8E8FFE9E9
310
E9FFEAEAEAFFEBEBEBFFECECECFFEDEDEDFFEEEEEEFFEFEFEFFFF0F0F0FFF1F1
310
F1FFF2F2F2FFF3F3F3FFF4F4F4FFF5F5F5FFF6F6F6FFF7F7F7FFF8F8F8FFF9F9
310
F9FFFAFAFAFFFBFBFBFFFCFCFCFFFDFDFDFFFEFEFEFFFFFFFFFFFFFFFFFFFFFF
310
C94E4E4E4F4E4EFFFFFFFFFFC94E4E4E4E4E72FFFFFFFFFFFFFF734E4D4E4E4E
310
C9FFFFFFFFFFAA683516171616265B9BE9FFFFFFFFFF4E4E4E4D4E4EFFFFFFFF
310
FFFFFFFF4E4E4F4E4D4E4E4E4F4E4E4F4D4E4E4E4E4E4D4E4F4E4D4E4E4EAAFF
310
FFFFFFFFFFEA4E4F4F4E4E4E4E4E4D4D4F4F4E4E4E4E4E5B7FAAFFFFFFFFFFFF
310
C9744E1716171616164D8DEAFFFFFFFF0000FFFFFFFFFFFFBA161617161716FF
310
FFFFFFFFB917171616174FFFFFFFFFFFFFFF4E1716161616B9FFFFFFB9341717
310
1716171617171616268CFFFFFFFF161617161617FFFFFFFFFFFFFFB917161717
310
1617167F807F7F7F7F7F7F807F7F807F7F807F7F7F414EFFFFFFFFFFFF8C167F
310
7F807F7F7F7E7F7F807F807F7F807F4E3417258EFFFFEA4E162674AABAEAEBBA
310
AA74341680FFFFFF0000FFFFFFFFFFFFB9171717171617FFFFFFFFFFBB161616
310
16164EFFFFFFFFFFFFFF4E1717171717B9FFFF9C171617171716161616171616
310
171766FFFFFF161717161617FFFFFFFFFFFFFF8E16171717161616FFFFFFFFFF
310
FFFFFFFFFFFFFFFFFFFFFFFFFFAA16D9FFFFFFFFFF3467FFFFFFFFEAFFFFFFFF
310
FFFFFFFFFFFFFFFFFFCA671667EB26278DFFFFFFFFFFFFFFFFFFFF8C2541EAFF
310
0000FFFFFFFFFFFFB9171717171716FFFFFFFFFFBA16171617174EFFFFFFFFFF
310
FFFF4E1717161616BAFF9B1617161616171716171617161616161667FFFF1616
310
16161716FFFFFFFFFFFFFF7F16161617174017FFFFFFFFFFFFFFFFFFFFFFFFFF
310
FFFFFFFFFFFF344E7F7F7F7E7417DAFFFFFFFF80FFFFFFFFFFFFFFFFFFFFFFFF
310
FFFFFF9B163425CAFFFFFFFFFFFFFFFFFFFFFFFFCA2667FF0000FFFFFFFFFFFF
310
BA171717171617FFFFFFFFFFB916171716164EFFFFFFFFFFFFFF4F1716161717
310
B9C91716171616161716161617171616161617168DFF161716161717FFFFFFFF
310
FFFFFF7F17171716164F16FFFFFFFFFFFFFFFFFFFFFFFFFFFFFFFFFFFFFF9B16
310
17161617174EFFFFFFFFFF34FFFFFFFFD9BABABABABADAFFFFFFFFFF7F16AAFF
310
FFFFFFFFFFFFFFFFFFFFFFFFFF9C16BA0000FFFFFFFFFFFFB9161717161717FF
310
FFFFFFFFB917161716174DFFFFFFFFFFFFFF4E1616161616BA4E161617171716
310
419BEAEAAA4E16161617161726E9171717161616FFFFFFFFFFFFFF4F16161717
310
164E16FFFFFFFFFFBAB9B9B9B9B9BABABACAFFFFFFFFFFFFFFFFFFFFFFFFFFFF
310
FFFFBA16FFFFFFFF7F1617161617174DEAFFFFFFEA41FFFFFFFFFFAA4D16174E
310
9BFFFFFFFFFF34730000FFFFFFFFFFFFB9161617171617FFFFFFFFFFBA161616
310
16164EFFFFFFFFFFFFFF4F16161717169B1617161716175BFFFFFFFFFFFF7417
310
16171616168D171717161617FFFFFFFFFFFFEA2616171717167416FFFFFFFFFF
310
16171616171717171717EAFFFFFFFFFFFFFFFFFFFFFFFFFFFFFF6716FFFFFFFF
310
7F4EFFFFFFFFBA2573FFFFFFFFBAFFFFFFFFAA167FB9BB9B269BFFFFFFFF664F
310
0000FFFFFFFFFFFFB9171616161616FFFFFFFFFFBA16161717164EFFFFFFFFFF
310
FFFF4E16161616174E161617171626EAFFFFFFFFFFFFFF4E16161616164E1716
310
16161617FFFFFFFFFFFF671616161716347F16FFFFFFFFFF16B9FFFFFFFFFFFF
310
D9168DFFFFFFFFFFFFFFFFFFFFFFFFFFFFEA1716FFFFFFFF7F4EFFFFFFFFFF7F
310
4EFFFFFFFFFFFFFFFFFF5B66FFFFFFEA347FFFFFFFFF7F4D0000FFFFFFFFFFFF
310
B9171616171617FFFFFFFFFFBA17161716174EFFFFFFFFFFFFFF4D1716161617
310
17161716161673FFFFFFFFFFFFFFFF9B1617161717161616171616174F4E4E4E
310
4E341616171616167E7F16FFFFFFFFFF16BAFFFFFFFFFFFFFF5B41FFFFFFFF34
310
1616171616BAFFFFFF9B1716FFFFFFFF7F4EFFFFFFFFFF4E4EFFFFFFFF734E4E
310
4E4E267EDA9B67164EEAFFFFFFFF744D0000FFFFFFFFFFFFBA171717161617FF
310
FFFFFFFFBA1616171616347F7F7F7F80807F331616161717161717161716B9FF
310
FFFFFFFFFFFFFFE9161616161616171716161716171616161616171616171734
310
EA7F16FFFFFFFFFF16BAFFFFFFFFFFFFFFAA17C9FFFFFF7326BABA5B25FFFFFF
310
FF401716FFFFFFFF7F264F4E4E4E4217AAFFFFFFEA16677F73261616164173CA
310
FFFFFFFFFFFF417F0000FFFFFFFFFFFFBA171616171617FFFFFFFFFFBA161616
310
17171616161616161616161717161616161616161617EAFFFFFFFFFFFFFFFFFF
310
261717161716161617161616161617161617161616174EEAFF8016FFFFFFFFFF
310
17BAFFFFFFFFFFFFFFFF3467FFFFFFC916C9FF3467FFFFFFDA166716FFFFFFFF
310
9C4D4E4E4E4E67AAFFFFFFFF6834FF7F262567AAEAFFFFFFFFFFFFFFFF9B17D9
310
0000FFFFFFFFFFFFB9161616161616FFFFFFFFFFBA1617161717171616161616
310
1716171716161716161617171716FFFFFFFFFFFFFFFFFFFF4E17161716171616
310
1617171616161716171717161616169BFF7F17FFFFFFFFFF17B9FFFFFFFFFFFF
310
FFFF7326FFFFFFFF3473DA16AAFFFFFF7317AA16FFFFFFFFFFFFFFFFFFFFFFFF
310
FFFFEA6725BA4E167FEAFFFFFFFFFFFFFFFFFFFF9C167FFF0000FFFFFFFFFFFF
310
B9161717171716FFFFFFFFFFBA16161716171616171717161617161716161616
310
171617171617EAFFFFFFFFFFFFFFFFFF26161717161616161616161617171616
310
1616161616171616AA8016FFFFFFFFFF16BAFFFFFFFFFFFFFFFFDA179BFFFFFF
310
74348D26FFFFFFFF2566B917FFFFFFFFD8BAB9BAB9BADAFFFFEA41169B7425C9
310
FFFFFFFFFFFFFFFFFFFFAB4F1680FFFF0000FFFFFFFFFFFFBA161717171617FF
310
FFFFFFFFBA17161717161617171617161616161617171616171716171617BBFF
310
FFFFFFFFFFFFFFE9171616161617161617161716FFFFFFFFFFD9671616161617
310
348017FFFFFFFFFF16BAFFFFFFFFFFFFFFFFFF4E5AFFFFFFC916265AFFFFFFAA
310
16AABA16FFFFFFFF7F1617161616179BFFFFEB4127168DFFFFFFFFFFFFFFD99B
310
6734175AC9FFFFFF0000FFFFFFFFFFFFB9161617171617FFFFFFFFFFBB161616
310
1616347F807F7F7F7F8033171716171617171616161672FFFFFFFFFFFFFFFF9C
310
171617171617161716161617FFFFFFFFFFFFFF4117161616174E17FFFFFFFFFF
310
16BAFFFFFFFFFFFFFFFFFF9B16DAFFFFFF34169BFFFFFF5A26FFB917FFFFFFFF
310
7F4EFFFFFFEA5B26FFFFFFEA2616EAFFFFFFFFDA743416331617414E4E4E4ECA
310
0000FFFFFFFFFFFFBA161716161616FFFFFFFFFFBA17171616164EFFFFFFFFFF
310
FFFF4E16161717174E161717171626EBFFFFFFFFFFFFFF4E16161617165B1616
310
16171617FFFFFFFFFFFFFF6716161616161617FFFFFFFFFF16BAFFFFFFFFFFFF
310
FFFFFFEA268CFFFFFF7316EAFFFFEB1774FFB916FFFFFFFF7F4EFFFFFFFF7316
310
FFFFFFFF6826FFFFFFFFEB264D9CEABA257F807F7F6616BA0000FFFFFFFFFFFF
310
BA161716161616FFFFFFFFFFBA16171616164DFFFFFFFFFFFFFF4E1617161617
310
9B1617171717165BEBFFFFFFFFFF671616161617179B171616161616FFFFFFFF
310
FFFFFF3417161617171617FFFFFFFFFF17BAFFFFFFFFFFFFFFFFFFFF6734FFFF
310
FFEBCAFFFFFF8D17C9FFBA17FFFFFFFF7F357F808066174FFFFFFFFF7F16FFFF
310
FFFFD91673B99B415BFFFFFFFFBA16DA00009B7F7F7F807F671617161616167F
310
80807F7E6617161616164EFFFFFFFFFFFFFF4E1616161617B94E171716161616
310
349BC9D9AA4E16171616161634FF161617161717B9B9BAB9BA9B411716171716
310
163416FFFFFFFFFF16B9FFFFFFFFFFFFFFFFFFFFC917CAFFFFFFFFFFFFFF3342
310
FFFFBA17FFFFFFFF9B4E4E4F4E4E66EAFFFFFFFF5B16C9FFFFFFFFAA4E164E73
310
EAFFFFFFFF8D26FF00004E161716161616171617171616171717171617161616
310
17174EFFFFFFFFFFFFFF4E1717171616B9D92616171716171716171717171716
310
16171716AAFF161717171617161617171616161617161716166717FFFFFFFFFF
310
17B9FFFFFFFFFFFFFFFFFFFFFF3467FFFFFFFFFFFFCA168CFFFFBB17FFFFFFFF
310
FFFFFFFFFFFFFFFFFFFFFFEA26265BFFFFFFFFFFFFFFFFFFFFFFFFFFEA3467FF
310
00004D16161616161617161717161617161616171617171616164EFFFFFFFFFF
310
FFFF4D1617161616BAFF9B1616161616161716161616171717161766FFFF1616
310
16171617161617161716171616171717667F16FFFFFFFFFF17BAFFFFFFFFFFFF
310
FFFFFFFFFF8C26EAFFFFFFFFFF6617EAFFFFBA17FFFFFFFFFFFFFFFFFFFFFFFF
310
FFFFEA5A25BA269BFFFFFFFFFFFFFFFFFFFFFFFF6616DAFF00004E1616171616
310
1616161616161716161617171616171616174EFFFFFFFFFFFFFF4D1717171716
310
B9FFFF9C161616161616161716161717171667FFFFFF17161717171716161617
310
1716161616161641E97E16FFFFFFFFFF16B9FFFFFFFFFFFFFFFFFFFFFFEA169B
310
FFFFFFFFEA265BFFFFFFB916FFFFFFFFFFFFFFFFFFFFFFFFFF9B3416AAFF9B17
310
67EAFFFFFFFFFFFFFFFFEA5B169BFFFF00004D17161716161616161717171616
310
161717161716171716174EFFFFFFFFFFFFFF4D1616161616BAFFFFFFBB411616
310
161716161616171634ABFFFFFFFF161716161617171716171617171617267FFF
310
FF7F164E4E4E4E4F17BAFFFFFFFFFFFFFFFFFFFFFFFF66344D4E4E4F4117AAFF
310
FFFFBA174E4E4E4D4E4D4D4E4E4E4E4116174EBBFFFFFFCA342666ABEAFFFFEA
310
AA6725269CFFFFFF0000724F4E4D4D4D4E4D4D4E4E4E4D4E4E4E4E4E4E4E4E4D
310
4E4E74FFFFFFFFFFFFFF734E4E4E4D4ECAFFFFFFFFFFAA663416171717265B9B
310
FFFFFFFFFFFF7F8080807F80807F7F7F7F7F807FBAFFFFFFFF9B4E4E4F4D4D4E
310
4DC9FFFFFFFFFFFFFFFFFFFFFFFFBA4E4E4E4E4D4E4EFFFFFFFFC94E4E4E4F4E
310
4E4E4D4E4E5A807F9CD9FFFFFFFFFFFFFF9B5B2617171716174E8DEAFFFFFFFF
310
0000000000000000000000000000000000000000000000000000000000000000
  1
OLE
  0
ENDSEC
  0
SECTION
  2
OBJECTS
  0
DICTIONARY
  5
C
330
0
100
AcDbDictionary
  3
ACAD_GROUP
350
D
  3
ACAD_MLINESTYLE
350
17
  3
ACAD_SCALELIST
350
47
1001
ACAD
1000
TREAT_AS_HARD
1070
     0
  0
DICTIONARY
  5
D
102
{ACAD_REACTORS
330
C
102
}
330
C
100
AcDbDictionary
1001
ACAD
1000
TREAT_AS_HARD
1070
     0
  0
DICTIONARY
  5
17
102
{ACAD_REACTORS
330
C
102
}
330
C
100
AcDbDictionary
  3
STANDARD
350
18
1001
ACAD
1000
TREAT_AS_HARD
1070
     0
  0
DICTIONARY
  5
47
102
{ACAD_REACTORS
330
C
102
}
330
C
100
AcDbDictionary
1001
ACAD
1000
TREAT_AS_HARD
1070
     0
  0
MLINESTYLE
  5
18
102
{ACAD_REACTORS
330
17
102
}
330
17
100
AcDbMlineStyle
  2
Standard
 70
     0
  3

 62
   256
 51
90.0
 52
90.0
 71
     2
 49
0.5
 62
   256
  6
BYLAYER
 49
-0.5
 62
   256
  6
BYLAYER
  0
ENDSEC
  0
EOF
