  0
SECTION
  2
HEADER
  9
$ACADVER
  1
AC1015
  9
$ACADMAINTVER
 70
     6
  9
$DWGCODEPAGE
  3
ANSI_1252
  9
$INSBASE
 10
0.0
 20
0.0
 30
0.0
  9
$EXTMIN
 10
0.0
 20
0.0
 30
0.0
  9
$EXTMAX
 10
279.4
 20
215.9
 30
0.0
  9
$LIMMIN
 10
0.0
 20
0.0
  9
$LIMMAX
 10
279.4
 20
215.9
  9
$ORTHOMODE
 70
     0
  9
$REGENMODE
 70
     1
  9
$FILLMODE
 70
     1
  9
$QTEXTMODE
 70
     0
  9
$MIRRTEXT
 70
     1
  9
$LTSCALE
 40
1.0
  9
$ATTMODE
 70
     1
  9
$TEXTSIZE
 40
2.8222222222
  9
$TRACEWID
 40
1.0
  9
$TEXTSTYLE
  7
Standard
  9
$CLAYER
  8
0
  9
$CELTYPE
  6
ByLayer
  9
$CECOLOR
 62
   256
  9
$CELTSCALE
 40
1.0
  9
$DISPSILH
 70
     0
  9
$DIMSCALE
 40
1.0
  9
$DIMASZ
 40
3.175
  9
$DIMEXO
 40
1.27
  9
$DIMDLI
 40
3.75
  9
$DIMRND
 40
0.0
  9
$DIMDLE
 40
0.0
  9
$DIMEXE
 40
1.778
  9
$DIMTP
 40
0.0
  9
$DIMTM
 40
0.0
  9
$DIMTXT
 40
2.8222222222
  9
$DIMCEN
 40
2.5
  9
$DIMTSZ
 40
0.0
  9
$DIMTOL
 70
     0
  9
$DIMLIM
 70
     0
  9
$DIMTIH
 70
     1
  9
$DIMTOH
 70
     1
  9
$DIMSE1
 70
     0
  9
$DIMSE2
 70
     0
  9
$DIMTAD
 70
     0
  9
$DIMZIN
 70
     1
  9
$DIMBLK
  1

  9
$DIMASO
 70
     1
  9
$DIMSHO
 70
     1
  9
$DIMPOST
  1

  9
$DIMAPOST
  1

  9
$DIMALT
 70
     0
  9
$DIMALTD
 70
     3
  9
$DIMALTF
 40
0.0393700787
  9
$DIMLFAC
 40
1.0
  9
$DIMTOFL
 70
     1
  9
$DIMTVP
 40
0.0
  9
$DIMTIX
 70
     0
  9
$DIMSOXD
 70
     0
  9
$DIMSAH
 70
     0
  9
$DIMBLK1
  1

  9
$DIMBLK2
  1

  9
$DIMSTYLE
  2
ISO-25
  9
$DIMCLRD
 70
     0
  9
$DIMCLRE
 70
     0
  9
$DIMCLRT
 70
     0
  9
$DIMTFAC
 40
1.0
  9
$DIMGAP
 40
2.54
  9
$DIMJUST
 70
     0
  9
$DIMSD1
 70
     0
  9
$DIMSD2
 70
     0
  9
$DIMTOLJ
 70
     0
  9
$DIMTZIN
 70
     1
  9
$DIMALTZ
 70
     0
  9
$DIMALTTZ
 70
     0
  9
$DIMUPT
 70
     0
  9
$DIMDEC
 70
     1
  9
$DIMTDEC
 70
     1
  9
$DIMALTU
 70
     2
  9
$DIMALTTD
 70
     3
  9
$DIMTXSTY
  7
Standard
  9
$DIMAUNIT
 70
     0
  9
$DIMADEC
 70
     0
  9
$DIMALTRND
 40
0.0
  9
$DIMAZIN
 70
     0
  9
$DIMDSEP
 70
    44
  9
$DIMATFIT
 70
     3
  9
$DIMFRAC
 70
     0
  9
$DIMLDRBLK
  1

  9
$DIMLUNIT
 70
     2
  9
$DIMLWD
 70
    -2
  9
$DIMLWE
 70
    -2
  9
$DIMTMOVE
 70
     0
  9
$LUNITS
 70
     2
  9
$LUPREC
 70
     1
  9
$SKETCHINC
 40
1.0
  9
$FILLETRAD
 40
10.0
  9
$AUNITS
 70
     0
  9
$AUPREC
 70
     0
  9
$MENU
  1
.
  9
$ELEVATION
 40
0.0
  9
$PELEVATION
 40
0.0
  9
$THICKNESS
 40
0.0
  9
$LIMCHECK
 70
     0
  9
$CHAMFERA
 40
0.0
  9
$CHAMFERB
 40
0.0
  9
$CHAMFERC
 40
0.0
  9
$CHAMFERD
 40
0.0
  9
$SKPOLY
 70
     0
  9
$TDCREATE
 40
2457303.597460011
  9
$TDUCREATE
 40
2457303.764126678
  9
$TDUPDATE
 40
2457303.597462361
  9
$TDUUPDATE
 40
2457303.764129028
  9
$TDINDWG
 40
0.0000000116
  9
$TDUSRTIMER
 40
0.0000000116
  9
$USRTIMER
 70
     1
  9
$ANGBASE
 50
0.0
  9
$ANGDIR
 70
     0
  9
$PDMODE
 70
     0
  9
$PDSIZE
 40
-1.0
  9
$PLINEWID
 40
0.0
  9
$SPLFRAME
 70
     0
  9
$SPLINETYPE
 70
     6
  9
$SPLINESEGS
 70
     8
  9
$HANDSEED
  5
1FB
  9
$SURFTAB1
 70
     6
  9
$SURFTAB2
 70
     6
  9
$SURFTYPE
 70
     6
  9
$SURFU
 70
     6
  9
$SURFV
 70
     6
  9
$UCSBASE
  2

  9
$UCSNAME
  2

  9
$UCSORG
 10
0.0
 20
0.0
 30
0.0
  9
$UCSXDIR
 10
1.0
 20
0.0
 30
0.0
  9
$UCSYDIR
 10
0.0
 20
1.0
 30
0.0
  9
$UCSORTHOREF
  2

  9
$UCSORTHOVIEW
 70
     0
  9
$UCSORGTOP
 10
0.0
 20
0.0
 30
0.0
  9
$UCSORGBOTTOM
 10
0.0
 20
0.0
 30
0.0
  9
$UCSORGLEFT
 10
0.0
 20
0.0
 30
0.0
  9
$UCSORGRIGHT
 10
0.0
 20
0.0
 30
0.0
  9
$UCSORGFRONT
 10
0.0
 20
0.0
 30
0.0
  9
$UCSORGBACK
 10
0.0
 20
0.0
 30
0.0
  9
$PUCSBASE
  2

  9
$PUCSNAME
  2

  9
$PUCSORG
 10
0.0
 20
0.0
 30
0.0
  9
$PUCSXDIR
 10
1.0
 20
0.0
 30
0.0
  9
$PUCSYDIR
 10
0.0
 20
1.0
 30
0.0
  9
$PUCSORTHOREF
  2

  9
$PUCSORTHOVIEW
 70
     0
  9
$PUCSORGTOP
 10
0.0
 20
0.0
 30
0.0
  9
$PUCSORGBOTTOM
 10
0.0
 20
0.0
 30
0.0
  9
$PUCSORGLEFT
 10
0.0
 20
0.0
 30
0.0
  9
$PUCSORGRIGHT
 10
0.0
 20
0.0
 30
0.0
  9
$PUCSORGFRONT
 10
0.0
 20
0.0
 30
0.0
  9
$PUCSORGBACK
 10
0.0
 20
0.0
 30
0.0
  9
$USERI1
 70
     0
  9
$USERI2
 70
     0
  9
$USERI3
 70
     0
  9
$USERI4
 70
     0
  9
$USERI5
 70
     0
  9
$USERR1
 40
0.0
  9
$USERR2
 40
0.0
  9
$USERR3
 40
0.0
  9
$USERR4
 40
0.0
  9
$USERR5
 40
0.0
  9
$WORLDVIEW
 70
     1
  9
$SHADEDGE
 70
     3
  9
$SHADEDIF
 70
    70
  9
$TILEMODE
 70
     1
  9
$MAXACTVP
 70
    64
  9
$PINSBASE
 10
0.0
 20
0.0
 30
0.0
  9
$PLIMCHECK
 70
     0
  9
$PEXTMIN
 10
1.0000000000E+20
 20
1.0000000000E+20
 30
1.0000000000E+20
  9
$PEXTMAX
 10
-1.0000000000E+20
 20
-1.0000000000E+20
 30
-1.0000000000E+20
  9
$PLIMMIN
 10
0.0
 20
0.0
  9
$PLIMMAX
 10
420.0
 20
297.0
  9
$UNITMODE
 70
     0
  9
$VISRETAIN
 70
     1
  9
$PLINEGEN
 70
     0
  9
$PSLTSCALE
 70
     1
  9
$TREEDEPTH
 70
  3020
  9
$CMLSTYLE
  2
Standard
  9
$CMLJUST
 70
     0
  9
$CMLSCALE
 40
20.0
  9
$PROXYGRAPHICS
 70
     1
  9
$MEASUREMENT
 70
     1
  9
$CELWEIGHT
370
    -1
  9
$ENDCAPS
280
     0
  9
$JOINSTYLE
280
     0
  9
$LWDISPLAY
290
     1
  9
$INSUNITS
 70
     4
  9
$HYPERLINKBASE
  1

  9
$STYLESHEET
  1

  9
$XEDIT
290
     1
  9
$CEPSNTYPE
380
     0
  9
$PSTYLEMODE
290
     1
  9
$FINGERPRINTGUID
  2
{703574DF-84E1-4F02-A8C2-A0F92CE2D998}
  9
$VERSIONGUID
  2
{FAEB1C32-E019-11D5-929B-00C0DF256EC4}
  9
$EXTNAMES
290
     1
  9
$PSVPSCALE
 40
0.0
  9
$OLESTARTUP
290
     0
  0
ENDSEC
  0
SECTION
  2
CLASSES
  0
CLASS
  1
ACDBDICTIONARYWDFLT
  2
AcDbDictionaryWithDefault
  3
ObjectDBX Classes
 90
        0
280
     0
281
     0
  0
CLASS
  1
VISUALSTYLE
  2
AcDbVisualStyle
  3
ObjectDBX Classes
 90
     4095
280
     0
281
     0
  0
CLASS
  1
MATERIAL
  2
AcDbMaterial
  3
ObjectDBX Classes
 90
     1153
280
     0
281
     0
  0
CLASS
  1
SCALE
  2
AcDbScale
  3
ObjectDBX Classes
 90
     1153
280
     0
281
     0
  0
CLASS
  1
SUN
  2
AcDbSun
  3
SCENEOE
 90
     1153
280
     0
281
     0
  0
CLASS
  1
ACDBPLACEHOLDER
  2
AcDbPlaceHolder
  3
ObjectDBX Classes
 90
        0
280
     0
281
     0
  0
CLASS
  1
LAYOUT
  2
AcDbLayout
  3
ObjectDBX Classes
 90
        0
280
     0
281
     0
  0
ENDSEC
  0
SECTION
  2
TABLES
  0
TABLE
  2
VPORT
  5
8
330
0
100
AcDbSymbolTable
 70
     1
  0
VPORT
  5
29
330
8
100
AcDbSymbolTableRecord
100
AcDbViewportTableRecord
  2
*Active
 70
     0
 10
0.0
 20
0.0
 11
1.0
 21
1.0
 12
139.7
 22
107.95
 13
0.0
 23
0.0
 14
10.0
 24
10.0
 15
10.0
 25
10.0
 16
0.0
 26
0.0
 36
1.0
 17
0.0
 27
0.0
 37
0.0
 40
215.9
 41
1.2941176471
 42
50.0
 43
0.0
 44
0.0
 50
0.0
 51
0.0
 71
     0
 72
  2000
 73
     1
 74
     3
 75
     0
 76
     0
 77
     0
 78
     0
281
     0
 65
     1
110
0.0
120
0.0
130
0.0
111
1.0
121
0.0
131
0.0
112
0.0
122
1.0
132
0.0
 79
     0
146
0.0
  0
ENDTAB
  0
TABLE
  2
LTYPE
  5
5
330
0
100
AcDbSymbolTable
 70
     6
  0
LTYPE
  5
14
330
5
100
AcDbSymbolTableRecord
100
AcDbLinetypeTableRecord
  2
ByBlock
 70
     0
  3

 72
    65
 73
     0
 40
0.0
  0
LTYPE
  5
15
330
5
100
AcDbSymbolTableRecord
100
AcDbLinetypeTableRecord
  2
ByLayer
 70
     0
  3

 72
    65
 73
     0
 40
0.0
  0
LTYPE
  5
16
330
5
100
AcDbSymbolTableRecord
100
AcDbLinetypeTableRecord
  2
Continuous
 70
     0
  3
Solid line
 72
    65
 73
     0
 40
0.0
  0
LTYPE
  5
6A
330
5
100
AcDbSymbolTableRecord
100
AcDbLinetypeTableRecord
  2
HIDDEN
 70
     0
  3
Hidden __ __ __ __ __ __ __ __ __ __ __ __ __ __
 72
    65
 73
     2
 40
1.905
 49
1.27
 74
     0
 49
-0.635
 74
     0
  0
LTYPE
  5
6B
330
5
100
AcDbSymbolTableRecord
100
AcDbLinetypeTableRecord
  2
PHANTOM
 70
     0
  3
Phantom ______  __  __  ______  __  __  ______
 72
    65
 73
     6
 40
12.7
 49
6.35
 74
     0
 49
-1.27
 74
     0
 49
1.27
 74
     0
 49
-1.27
 74
     0
 49
1.27
 74
     0
 49
-1.27
 74
     0
  0
LTYPE
  5
6C
330
5
100
AcDbSymbolTableRecord
100
AcDbLinetypeTableRecord
  2
CENTER
 70
     0
  3
Center ____ _ ____ _ ____ _ ____ _ ____ _ ____
 72
    65
 73
     4
 40
10.16
 49
6.35
 74
     0
 49
-1.27
 74
     0
 49
1.27
 74
     0
 49
-1.27
 74
     0
  0
LTYPE
  5
6D
330
5
100
AcDbSymbolTableRecord
100
AcDbLinetypeTableRecord
  2
CENTERX2
 70
     0
  3
Center (2x) ________  __  ________  __  _____
 72
    65
 73
     4
 40
20.32
 49
12.7
 74
     0
 49
-2.54
 74
     0
 49
2.54
 74
     0
 49
-2.54
 74
     0
  0
LTYPE
  5
6E
330
5
100
AcDbSymbolTableRecord
100
AcDbLinetypeTableRecord
  2
DOT2
 70
     0
  3
Dot (.5x) ........................................
 72
    65
 73
     2
 40
0.635
 49
0.0
 74
     0
 49
-0.635
 74
     0
  0
ENDTAB
  0
TABLE
  2
LAYER
  5
2
330
0
100
AcDbSymbolTable
 70
     2
  0
LAYER
  5
10
330
2
100
AcDbSymbolTableRecord
100
AcDbLayerTableRecord
  2
0
 70
     0
 62
     7
  6
Continuous
370
    -3
390
F
  0
LAYER
  5
6F
330
2
100
AcDbSymbolTableRecord
100
AcDbLayerTableRecord
  2
FORMAT
 70
     0
 62
     7
  6
Continuous
370
    -3
390
F
  0
ENDTAB
  0
TABLE
  2
STYLE
  5
3
330
0
100
AcDbSymbolTable
 70
     5
  0
STYLE
  5
11
330
3
100
AcDbSymbolTableRecord
100
AcDbTextStyleTableRecord
  2
Standard
 70
     0
 40
0.0
 41
1.0
 50
0.0
 71
     0
 42
2.8222222222
  3
txt
  4

  0
STYLE
  5
96
330
3
100
AcDbSymbolTableRecord
100
AcDbTextStyleTableRecord
  2
SLDTEXTSTYLE0
 70
     0
 40
0.0
 41
0.75
 50
0.0
 71
     0
 42
2.8222222222
  3
TXT
  4

  0
STYLE
  5
A0
330
3
100
AcDbSymbolTableRecord
100
AcDbTextStyleTableRecord
  2
SLDTEXTSTYLE1
 70
     0
 40
0.0
 41
0.6
 50
0.0
 71
     0
 42
2.8222222222
  3
TXT
  4

  0
STYLE
  5
C9
330
3
100
AcDbSymbolTableRecord
100
AcDbTextStyleTableRecord
  2
SLDTEXTSTYLE2
 70
     0
 40
0.0
 41
0.75
 50
0.0
 71
     0
 42
2.8222222222
  3
TXT
  4
bigfont
  0
STYLE
  5
D9
330
3
100
AcDbSymbolTableRecord
100
AcDbTextStyleTableRecord
  2
SLDTEXTSTYLE3
 70
     0
 40
0.0
 41
0.7
 50
0.0
 71
     0
 42
2.8222222222
  3
TXT
  4

  0
ENDTAB
  0
TABLE
  2
VIEW
  5
6
330
0
100
AcDbSymbolTable
 70
     0
  0
ENDTAB
  0
TABLE
  2
UCS
  5
7
330
0
100
AcDbSymbolTable
 70
     0
  0
ENDTAB
  0
TABLE
  2
APPID
  5
9
330
0
100
AcDbSymbolTable
 70
     1
  0
APPID
  5
12
330
9
100
AcDbSymbolTableRecord
100
AcDbRegAppTableRecord
  2
ACAD
 70
     0
  0
ENDTAB
  0
TABLE
  2
DIMSTYLE
  5
A
330
0
100
AcDbSymbolTable
 70
     4
100
AcDbDimStyleTable
  0
DIMSTYLE
105
27
330
A
100
AcDbSymbolTableRecord
100
AcDbDimStyleTableRecord
  2
ISO-25
 70
     0
 41
2.5
 42
0.625
 43
3.75
 44
1.25
 73
     0
 74
     0
 77
     1
 78
     8
140
2.5
141
2.5
143
0.0393700787
147
0.625
171
     3
172
     1
178
     0
271
     2
272
     2
274
     3
278
    44
283
     0
284
     8
340
11
  0
DIMSTYLE
105
E7
102
{ACAD_REACTORS
330
E6
102
}
330
A
100
AcDbSymbolTableRecord
100
AcDbDimStyleTableRecord
  2
SLDDIMSTYLE0
 70
     0
 41
3.175
 44
0.0
 45
0.000000001
 78
    12
 79
     3
140
2.1166666667
141
0.0
143
0.0393700787
147
0.5291666667
148
0.000000001
170
     1
173
     1
178
     0
271
     1
272
     1
276
     2
284
    12
340
96
  0
DIMSTYLE
105
112
102
{ACAD_REACTORS
330
111
102
}
330
A
100
AcDbSymbolTableRecord
100
AcDbDimStyleTableRecord
  2
SLDDIMSTYLE1
 70
     0
 41
3.175
 44
0.0
 45
0.000000001
 78
     4
 79
     1
140
2.1166666667
143
0.0393700787
147
0.5291666667
148
0.000000001
170
     1
173
     1
178
     0
271
     1
272
     1
276
     2
284
    12
340
96
  0
DIMSTYLE
105
127
330
A
100
AcDbSymbolTableRecord
100
AcDbDimStyleTableRecord
  2
SLDDIMSTYLE2
 70
     0
 41
3.175
 44
0.0
 45
0.000000001
146
3.175
147
0.0
173
     1
178
     0
271
     0
272
     0
276
     2
340
11
  0
ENDTAB
  0
TABLE
  2
BLOCK_RECORD
  5
1
330
0
100
AcDbSymbolTable
 70
     9
  0
BLOCK_RECORD
  5
1F
330
1
100
AcDbSymbolTableRecord
100
AcDbBlockTableRecord
  2
*Model_Space
340
22
  0
BLOCK_RECORD
  5
1B
330
1
100
AcDbSymbolTableRecord
100
AcDbBlockTableRecord
  2
*Paper_Space
340
1E
  0
BLOCK_RECORD
  5
23
330
1
100
AcDbSymbolTableRecord
100
AcDbBlockTableRecord
  2
*Paper_Space0
340
26
  0
BLOCK_RECORD
  5
70
330
1
100
AcDbSymbolTableRecord
100
AcDbBlockTableRecord
  2
Third Angle Projection Block
340
0
102
{BLKREFS
331
95
102
}
  0
BLOCK_RECORD
  5
A6
330
1
100
AcDbSymbolTableRecord
100
AcDbBlockTableRecord
  2
SW_NOTE_0
340
0
102
{BLKREFS
331
AB
102
}
  0
BLOCK_RECORD
  5
AC
330
1
100
AcDbSymbolTableRecord
100
AcDbBlockTableRecord
  2
SW_NOTE_1
340
0
102
{BLKREFS
331
B1
102
}
  0
BLOCK_RECORD
  5
B3
330
1
100
AcDbSymbolTableRecord
100
AcDbBlockTableRecord
  2
SW_NOTE_2
340
0
102
{BLKREFS
331
B8
102
}
  0
BLOCK_RECORD
  5
BA
330
1
100
AcDbSymbolTableRecord
100
AcDbBlockTableRecord
  2
SW_NOTE_3
340
0
102
{BLKREFS
331
C0
102
}
  0
BLOCK_RECORD
  5
C1
330
1
100
AcDbSymbolTableRecord
100
AcDbBlockTableRecord
  2
SW_NOTE_4
340
0
102
{BLKREFS
331
E1
102
}
  0
BLOCK_RECORD
  5
E8
330
1
100
AcDbSymbolTableRecord
100
AcDbBlockTableRecord
  2
_D
340
0
  0
BLOCK_RECORD
  5
113
330
1
100
AcDbSymbolTableRecord
100
AcDbBlockTableRecord
  2
_D_1
340
0
  0
ENDTAB
  0
ENDSEC
  0
SECTION
  2
BLOCKS
  0
BLOCK
  5
20
330
1F
100
AcDbEntity
  8
0
100
AcDbBlockBegin
  2
*Model_Space
 70
     0
 10
0.0
 20
0.0
 30
0.0
  3
*Model_Space
  1
*Model_Space
  0
ENDBLK
  5
21
330
1F
100
AcDbEntity
  8
0
100
AcDbBlockEnd
  0
BLOCK
  5
1C
330
1B
100
AcDbEntity
 67
     1
  8
0
100
AcDbBlockBegin
  2
*Paper_Space
 70
     0
 10
0.0
 20
0.0
 30
0.0
  3
*Paper_Space
  1
*Paper_Space
  0
ENDBLK
  5
1D
330
1B
100
AcDbEntity
 67
     1
  8
0
100
AcDbBlockEnd
  0
BLOCK
  5
24
330
23
100
AcDbEntity
  8
0
100
AcDbBlockBegin
  2
*Paper_Space0
 70
     0
 10
0.0
 20
0.0
 30
0.0
  3
*Paper_Space0
  1
*Paper_Space0
  0
ENDBLK
  5
25
330
23
100
AcDbEntity
  8
0
100
AcDbBlockEnd
  0
BLOCK
  5
71
330
70
100
AcDbEntity
  8
0
100
AcDbBlockBegin
  2
Third Angle Projection Block
 70
     0
 10
0.0
 20
0.0
 30
0.0
  3
Third Angle Projection Block
  1
Third Angle Projection Block
  0
CIRCLE
  5
73
330
70
100
AcDbEntity
  8
0
  6
Continuous
 62
     7
370
    30
100
AcDbCircle
 10
101.4766388944
 20
18.9404083667
 30
0.0
 40
1.768227153674871
  0
CIRCLE
  5
74
330
70
100
AcDbEntity
  8
0
  6
Continuous
 62
     7
370
    30
100
AcDbCircle
 10
101.4766388944
 20
18.9404083667
 30
0.0
 40
3.901228248531818
  0
LINE
  5
75
330
70
100
AcDbEntity
  8
0
  6
CENTERX2
 62
     7
370
     0
100
AcDbLine
 10
110.1367822585
 20
18.9404083667
 30
0.0
 11
119.4527334874
 21
18.9404083667
 31
0.0
  0
LINE
  5
76
330
70
100
AcDbEntity
  8
0
  6
Continuous
 62
     7
370
    30
100
AcDbLine
 10
111.0016388944
 20
20.7086355204
 30
0.0
 11
111.0016388944
 21
17.172181213
 31
0.0
  0
LINE
  5
77
330
70
100
AcDbEntity
  8
0
  6
Continuous
 62
     7
370
    30
100
AcDbLine
 10
111.0016388944
 20
17.172181213
 30
0.0
 11
118.6216388944
 21
15.1304083667
 31
0.0
  0
LINE
  5
78
330
70
100
AcDbEntity
  8
0
  6
Continuous
 62
     7
370
    30
100
AcDbLine
 10
118.6216388944
 20
15.1304083667
 30
0.0
 11
118.6216388944
 21
22.7504083667
 31
0.0
  0
LINE
  5
79
330
70
100
AcDbEntity
  8
0
  6
Continuous
 62
     7
370
    30
100
AcDbLine
 10
118.6216388944
 20
22.7504083667
 30
0.0
 11
111.0016388944
 21
20.7086355204
 31
0.0
  0
LINE
  5
7A
330
70
100
AcDbEntity
  8
0
  6
CENTERX2
 62
     7
370
     0
100
AcDbLine
 10
96.6025854619
 20
18.9404083667
 30
0.0
 11
106.3506923269
 21
18.9404083667
 31
0.0
  0
LINE
  5
7B
330
70
100
AcDbEntity
  8
0
  6
CENTERX2
 62
     7
370
     0
100
AcDbLine
 10
101.4766388944
 20
23.8144617992
 30
0.0
 11
101.4766388944
 21
14.0663549342
 31
0.0
  0
POINT
  5
7C
330
70
100
AcDbEntity
  8
0
  6
Continuous
 62
     7
370
     0
100
AcDbPoint
 10
101.4766388944
 20
18.9404083667
 30
0.0
  0
ENDBLK
  5
72
330
70
100
AcDbEntity
  8
0
100
AcDbBlockEnd
  0
BLOCK
  5
A7
330
A6
100
AcDbEntity
  8
0
100
AcDbBlockBegin
  2
SW_NOTE_0
 70
     0
 10
0.0
 20
0.0
 30
0.0
  3
SW_NOTE_0
  1
SW_NOTE_0
  0
MTEXT
  5
A9
330
A6
100
AcDbEntity
  8
0
  6
Continuous
 62
     0
370
     0
100
AcDbMText
 10
19.90725
 20
1.9645392354
 30
0.0
 40
1.524
 41
0.0
 71
     2
 72
     1
  1
VALUES IN PARENTHESIS ARE CALCULATED
  7
SLDTEXTSTYLE0
 73
     1
 44
1.0
  0
MTEXT
  5
AA
330
A6
100
AcDbEntity
  8
0
  6
Continuous
 62
     0
370
     0
100
AcDbMText
 10
19.8778795174
 20
-0.5594606586
 30
0.0
 40
1.524
 41
0.0
 71
     2
 72
     1
  1
AND MAY CONTAIN ROUNDOFF ERRORS
  7
SLDTEXTSTYLE0
 73
     1
 44
1.0
  0
ENDBLK
  5
A8
330
A6
100
AcDbEntity
  8
0
100
AcDbBlockEnd
  0
BLOCK
  5
AD
330
AC
100
AcDbEntity
  8
0
100
AcDbBlockBegin
  2
SW_NOTE_1
 70
     0
 10
0.0
 20
0.0
 30
0.0
  3
SW_NOTE_1
  1
SW_NOTE_1
  0
MTEXT
  5
AF
330
AC
100
AcDbEntity
  8
0
  6
Continuous
 62
     0
370
     0
100
AcDbMText
 10
0.0
 20
2.7285267159
 30
0.0
 40
2.1166666667
 41
0.0
 71
     1
 72
     1
  1
DRAWING
  7
SLDTEXTSTYLE0
 73
     1
 44
1.0
  0
MTEXT
  5
B0
330
AC
100
AcDbEntity
  8
0
  6
Continuous
 62
     0
370
     0
100
AcDbMText
 10
0.0
 20
-0.0936954723
 30
0.0
 40
2.1166666667
 41
0.0
 71
     1
 72
     1
  1
PROJECTION
  7
SLDTEXTSTYLE0
 73
     1
 44
1.0
  0
ENDBLK
  5
AE
330
AC
100
AcDbEntity
  8
0
100
AcDbBlockEnd
  0
BLOCK
  5
B4
330
B3
100
AcDbEntity
  8
0
100
AcDbBlockBegin
  2
SW_NOTE_2
 70
     0
 10
0.0
 20
0.0
 30
0.0
  3
SW_NOTE_2
  1
SW_NOTE_2
  0
MTEXT
  5
B6
330
B3
100
AcDbEntity
  8
0
  6
Continuous
 62
     0
370
     0
100
AcDbMText
 10
25.052734375
 20
4.0927900738
 30
0.0
 40
3.175
 41
0.0
 71
     2
 72
     1
  1
FOR INFORMATION ONLY
  7
SLDTEXTSTYLE0
 73
     1
 44
1.0
  0
MTEXT
  5
B7
330
B3
100
AcDbEntity
  8
0
  6
Continuous
 62
     0
370
     0
100
AcDbMText
 10
25.3768468589
 20
-0.1405432084
 30
0.0
 40
3.175
 41
0.0
 71
     2
 72
     1
  1
NOT FOR MANUFACTURING PURPOSES
  7
SLDTEXTSTYLE0
 73
     1
 44
1.0
  0
ENDBLK
  5
B5
330
B3
100
AcDbEntity
  8
0
100
AcDbBlockEnd
  0
BLOCK
  5
BB
330
BA
100
AcDbEntity
  8
0
100
AcDbBlockBegin
  2
SW_NOTE_3
 70
     0
 10
0.0
 20
0.0
 30
0.0
  3
SW_NOTE_3
  1
SW_NOTE_3
  0
MTEXT
  5
BD
330
BA
100
AcDbEntity
  8
0
  6
Continuous
 62
     0
370
     0
100
AcDbMText
 10
1.5213541667
 20
2.7285267159
 30
0.0
 40
2.1166666667
 41
0.0
 71
     2
 72
     1
  1
%%c
  7
SLDTEXTSTYLE0
 73
     1
 44
1.0
  0
MTEXT
  5
BE
330
BA
100
AcDbEntity
  8
0
  6
Continuous
 62
     0
370
     0
100
AcDbMText
 10
30.8108762174
 20
2.7285267159
 30
0.0
 40
2.1166666667
 41
0.0
 71
     2
 72
     1
  1
50.8mm BROADBAND ZERODUR® MIRROR
  7
SLDTEXTSTYLE0
 73
     1
 44
1.0
  0
MTEXT
  5
BF
330
BA
100
AcDbEntity
  8
0
  6
Continuous
 62
     0
370
     0
100
AcDbMText
 10
30.1252183775
 20
-0.0936954723
 30
0.0
 40
2.1166666667
 41
0.0
 71
     2
 72
     1
  1
400-750nm
  7
SLDTEXTSTYLE0
 73
     1
 44
1.0
  0
ENDBLK
  5
BC
330
BA
100
AcDbEntity
  8
0
100
AcDbBlockEnd
  0
BLOCK
  5
C2
330
C1
100
AcDbEntity
  8
0
100
AcDbBlockBegin
  2
SW_NOTE_4
 70
     0
 10
0.0
 20
0.0
 30
0.0
  3
SW_NOTE_4
  1
SW_NOTE_4
  0
MTEXT
  5
C4
330
C1
100
AcDbEntity
  8
0
  6
Continuous
 62
     0
370
     0
100
AcDbMText
 10
0.0
 20
3.0695925553
 30
0.0
 40
2.38125
 41
0.0
 71
     1
 72
     1
  1
NOTES/SPECIFICATIONS
  7
SLDTEXTSTYLE0
 73
     1
 44
1.0
  0
MTEXT
  5
C5
330
C1
100
AcDbEntity
  8
0
  6
Continuous
 62
     0
370
     0
100
AcDbMText
 10
9.9999997765
 20
-3.2804073679
 30
0.0
 40
2.38125
 41
0.0
 71
     1
 72
     1
  1
CLEAR APERTURE: >85% DIAMETER
  7
SLDTEXTSTYLE0
 73
     1
 44
1.0
  0
MTEXT
  5
C6
330
C1
100
AcDbEntity
  8
0
  6
Continuous
 62
     0
370
     0
100
AcDbMText
 10
0.0
 20
-3.2804073679
 30
0.0
 40
2.38125
 41
0.0
 71
     1
 72
     1
  1
1.
  7
SLDTEXTSTYLE0
 73
     1
 44
1.0
  0
MTEXT
  5
C7
330
C1
100
AcDbEntity
  8
0
  6
Continuous
 62
     0
370
     0
100
AcDbMText
 10
9.9999997765
 20
-6.4554073296
 30
0.0
 40
2.38125
 41
0.0
 71
     1
 72
     1
  1
SURFACE QUALITY: 10-5 SCRATCH-DIG
  7
SLDTEXTSTYLE0
 73
     1
 44
1.0
  0
MTEXT
  5
C8
330
C1
100
AcDbEntity
  8
0
  6
Continuous
 62
     0
370
     0
100
AcDbMText
 10
0.0
 20
-6.4554073296
 30
0.0
 40
2.38125
 41
0.0
 71
     1
 72
     1
  1
2.
  7
SLDTEXTSTYLE0
 73
     1
 44
1.0
  0
MTEXT
  5
CA
330
C1
100
AcDbEntity
  8
0
  6
Continuous
 62
     0
370
     0
100
AcDbMText
 10
9.9999997765
 20
-9.6304072912
 30
0.0
 40
2.38125
 41
0.0
 71
     1
 72
     1
  1
SURFACE FLATNESS (S1): \M+183C9/10 AT 632.8nm
  7
SLDTEXTSTYLE2
 73
     1
 44
1.0
  0
MTEXT
  5
CB
330
C1
100
AcDbEntity
  8
0
  6
Continuous
 62
     0
370
     0
100
AcDbMText
 10
0.0
 20
-9.6304072912
 30
0.0
 40
2.38125
 41
0.0
 71
     1
 72
     1
  1
3.
  7
SLDTEXTSTYLE0
 73
     1
 44
1.0
  0
MTEXT
  5
CC
330
C1
100
AcDbEntity
  8
0
  6
Continuous
 62
     0
370
     0
100
AcDbMText
 10
15.3578125
 20
-12.8054072528
 30
0.0
 40
2.38125
 41
0.0
 71
     1
 72
     1
  1
SURFACE FINISH (S2): FINE GROUND
  7
SLDTEXTSTYLE0
 73
     1
 44
1.0
  0
MTEXT
  5
CD
330
C1
100
AcDbEntity
  8
0
  6
Continuous
 62
     0
370
     0
100
AcDbMText
 10
9.9999997765
 20
-15.9804072144
 30
0.0
 40
2.38125
 41
0.0
 71
     1
 72
     1
  1
PARALLELISM: \U+2264 3arcmin
  7
SLDTEXTSTYLE2
 73
     1
 44
1.0
  0
MTEXT
  5
CE
330
C1
100
AcDbEntity
  8
0
  6
Continuous
 62
     0
370
     0
100
AcDbMText
 10
0.0
 20
-15.9804072144
 30
0.0
 40
2.38125
 41
0.0
 71
     1
 72
     1
  1
4.
  7
SLDTEXTSTYLE0
 73
     1
 44
1.0
  0
MTEXT
  5
CF
330
C1
100
AcDbEntity
  8
0
  6
Continuous
 62
     0
370
     0
100
AcDbMText
 10
9.9999997765
 20
-19.1554071761
 30
0.0
 40
2.38125
 41
0.0
 71
     1
 72
     1
  1
DIAMETER TOLERANCE: + 0.0/-0.1mm
  7
SLDTEXTSTYLE0
 73
     1
 44
1.0
  0
MTEXT
  5
D0
330
C1
100
AcDbEntity
  8
0
  6
Continuous
 62
     0
370
     0
100
AcDbMText
 10
0.0
 20
-19.1554071761
 30
0.0
 40
2.38125
 41
0.0
 71
     1
 72
     1
  1
5.
  7
SLDTEXTSTYLE0
 73
     1
 44
1.0
  0
MTEXT
  5
D1
330
C1
100
AcDbEntity
  8
0
  6
Continuous
 62
     0
370
     0
100
AcDbMText
 10
9.9999997765
 20
-22.3304071377
 30
0.0
 40
2.38125
 41
0.0
 71
     1
 72
     1
  1
THICKNESS TOLERANCE:
  7
SLDTEXTSTYLE0
 73
     1
 44
1.0
  0
MTEXT
  5
D2
330
C1
100
AcDbEntity
  8
0
  6
Continuous
 62
     0
370
     0
100
AcDbMText
 10
46.741804108
 20
-22.3304071377
 30
0.0
 40
2.38125
 41
0.0
 71
     1
 72
     1
  1
%%p
  7
SLDTEXTSTYLE0
 73
     1
 44
1.0
  0
MTEXT
  5
D3
330
C1
100
AcDbEntity
  8
0
  6
Continuous
 62
     0
370
     0
100
AcDbMText
 10
49.0119289607
 20
-22.3304071377
 30
0.0
 40
2.38125
 41
0.0
 71
     1
 72
     1
  1
0.2mm
  7
SLDTEXTSTYLE0
 73
     1
 44
1.0
  0
MTEXT
  5
D4
330
C1
100
AcDbEntity
  8
0
  6
Continuous
 62
     0
370
     0
100
AcDbMText
 10
0.0
 20
-22.3304071377
 30
0.0
 40
2.38125
 41
0.0
 71
     1
 72
     1
  1
6.
  7
SLDTEXTSTYLE0
 73
     1
 44
1.0
  0
MTEXT
  5
D5
330
C1
100
AcDbEntity
  8
0
  6
Continuous
 62
     0
370
     0
100
AcDbMText
 10
9.9999997765
 20
-25.5054070993
 30
0.0
 40
2.38125
 41
0.0
 71
     1
 72
     1
  1
COATING(S1): BROADBAND HR, DIELECTRIC
  7
SLDTEXTSTYLE0
 73
     1
 44
1.0
  0
MTEXT
  5
D6
330
C1
100
AcDbEntity
  8
0
  6
Continuous
 62
     0
370
     0
100
AcDbMText
 10
0.0
 20
-25.5054070993
 30
0.0
 40
2.38125
 41
0.0
 71
     1
 72
     1
  1
7.
  7
SLDTEXTSTYLE0
 73
     1
 44
1.0
  0
MTEXT
  5
D7
330
C1
100
AcDbEntity
  8
0
  6
Continuous
 62
     0
370
     0
100
AcDbMText
 10
10.0
 20
-28.680407061
 30
0.0
 40
2.38125
 41
0.0
 71
     1
 72
     1
  1
R
  7
SLDTEXTSTYLE0
 73
     1
 44
1.0
  0
MTEXT
  5
D8
330
C1
100
AcDbEntity
  8
0
  6
Continuous
 62
     0
370
     0
100
AcDbMText
 10
11.9270486664
 20
-29.7330500309
 30
0.0
 40
1.3229166667
 41
0.0
 71
     1
 72
     1
  1
S
  7
SLDTEXTSTYLE0
 73
     1
 44
1.0
  0
MTEXT
  5
DA
330
C1
100
AcDbEntity
  8
0
  6
Continuous
 62
     0
370
     0
100
AcDbMText
 10
13.3915664535
 20
-28.680407061
 30
0.0
 40
2.38125
 41
0.0
 71
     1
 72
     1
  1
AND R
  7
SLDTEXTSTYLE3
 73
     1
 44
1.0
  0
MTEXT
  5
DB
330
C1
100
AcDbEntity
  8
0
  6
Continuous
 62
     0
370
     0
100
AcDbMText
 10
23.26052472
 20
-29.7330500309
 30
0.0
 40
1.3229166667
 41
0.0
 71
     1
 72
     1
  1
P
  7
SLDTEXTSTYLE0
 73
     1
 44
1.0
  0
MTEXT
  5
DC
330
C1
100
AcDbEntity
  8
0
  6
Continuous
 62
     0
370
     0
100
AcDbMText
 10
24.7916786373
 20
-28.680407061
 30
0.0
 40
2.38125
 41
0.0
 71
     1
 72
     1
  1
> 99% FROM 400-750nm
  7
SLDTEXTSTYLE0
 73
     1
 44
1.0
  0
MTEXT
  5
DD
330
C1
100
AcDbEntity
  8
0
  6
Continuous
 62
     0
370
     0
100
AcDbMText
 10
10.0
 20
-31.8554070226
 30
0.0
 40
2.38125
 41
0.0
 71
     1
 72
     1
  1
AOI: 0
  7
SLDTEXTSTYLE0
 73
     1
 44
1.0
  0
MTEXT
  5
DE
330
C1
100
AcDbEntity
  8
0
  6
Continuous
 62
     0
370
     0
100
AcDbMText
 10
19.344201535
 20
-31.8554070226
 30
0.0
 40
2.38125
 41
0.0
 71
     1
 72
     1
  1
%%d
  7
SLDTEXTSTYLE0
 73
     1
 44
1.0
  0
MTEXT
  5
DF
330
C1
100
AcDbEntity
  8
0
  6
Continuous
 62
     0
370
     0
100
AcDbMText
 10
21.7505871639
 20
-31.8554070226
 30
0.0
 40
2.38125
 41
0.0
 71
     1
 72
     1
  1
TO 45
  7
SLDTEXTSTYLE3
 73
     1
 44
1.0
  0
MTEXT
  5
E0
330
C1
100
AcDbEntity
  8
0
  6
Continuous
 62
     0
370
     0
100
AcDbMText
 10
30.2459171414
 20
-31.8554070226
 30
0.0
 40
2.38125
 41
0.0
 71
     1
 72
     1
  1
%%d
  7
SLDTEXTSTYLE0
 73
     1
 44
1.0
  0
ENDBLK
  5
C3
330
C1
100
AcDbEntity
  8
0
100
AcDbBlockEnd
  0
BLOCK
  5
E9
330
E8
100
AcDbEntity
  8
0
100
AcDbBlockBegin
  2
_D
 70
     0
 10
0.0
 20
0.0
 30
0.0
  3
_D
  1
_D
  0
SOLID
  5
EB
330
E8
100
AcDbEntity
  8
0
  6
Continuous
 62
     7
370
     0
100
AcDbTrace
 10
82.4600252957
 20
138.7771918589
 30
0.0
 11
84.4874662008
 21
141.2728225159
 31
0.0
 12
83.6075843905
 22
141.7808225159
 32
0.0
 13
83.6075843905
 23
141.7808225159
 33
0.0
  0
LINE
  5
EC
330
E8
100
AcDbEntity
  8
0
  6
Continuous
 62
     7
370
     0
100
AcDbLine
 10
99.9887535504
 20
159.5120681557
 30
0.0
 11
99.5595405907
 21
159.5120681557
 31
0.0
  0
LINE
  5
ED
330
E8
100
AcDbEntity
  8
0
  6
Continuous
 62
     7
370
     0
100
AcDbLine
 10
99.5595405907
 20
159.5120681557
 30
0.0
 11
99.5595405907
 21
156.1489200792
 31
0.0
  0
LINE
  5
EE
330
E8
100
AcDbEntity
  8
0
  6
Continuous
 62
     7
370
     0
100
AcDbLine
 10
99.5595405907
 20
156.1489200792
 30
0.0
 11
99.9887535504
 21
156.1489200792
 31
0.0
  0
LINE
  5
EF
330
E8
100
AcDbEntity
  8
0
  6
Continuous
 62
     7
370
     0
100
AcDbLine
 10
108.8189775396
 20
159.5120681557
 30
0.0
 11
109.2481904993
 21
159.5120681557
 31
0.0
  0
LINE
  5
F0
330
E8
100
AcDbEntity
  8
0
  6
Continuous
 62
     7
370
     0
100
AcDbLine
 10
109.2481904993
 20
159.5120681557
 30
0.0
 11
109.2481904993
 21
156.1489200792
 31
0.0
  0
LINE
  5
F1
330
E8
100
AcDbEntity
  8
0
  6
Continuous
 62
     7
370
     0
100
AcDbLine
 10
109.2481904993
 20
156.1489200792
 30
0.0
 11
108.8189775396
 21
156.1489200792
 31
0.0
  0
LINE
  5
F2
330
E8
100
AcDbEntity
  8
0
  6
Continuous
 62
     7
370
     0
100
AcDbLine
 10
82.4600252957
 20
138.7771918589
 30
0.0
 11
95.4276308636
 21
161.2377435551
 31
0.0
  0
LINE
  5
F3
330
E8
100
AcDbEntity
  8
0
  6
Continuous
 62
     7
370
     0
100
AcDbLine
 10
95.4276308636
 20
161.2377435551
 30
0.0
 11
99.2376308636
 21
161.2377435551
 31
0.0
  0
MTEXT
  5
F4
330
E8
100
AcDbEntity
  8
0
  6
Continuous
 62
     7
370
     0
100
AcDbMText
 10
99.2376308636
 20
162.6698078021
 30
0.0
 40
2.1166666667
 41
0.0
 71
     1
 72
     1
  1
%%c
  7
SLDTEXTSTYLE0
 73
     1
 44
1.0
  0
MTEXT
  5
F5
330
E8
100
AcDbEntity
  8
0
  6
Continuous
 62
     7
370
     0
100
AcDbMText
 10
102.4326216643
 20
162.6698078021
 30
0.0
 40
2.1166666667
 41
0.0
 71
     1
 72
     1
  1
50.8mm
  7
SLDTEXTSTYLE0
 73
     1
 44
1.0
  0
MTEXT
  5
F6
330
E8
100
AcDbEntity
  8
0
  6
Continuous
 62
     7
370
     0
100
AcDbMText
 10
100.5252697719
 20
158.8774466786
 30
0.0
 40
2.1166666667
 41
0.0
 71
     1
 72
     1
  1
2.00in
  7
SLDTEXTSTYLE0
 73
     1
 44
1.0
  0
ENDBLK
  5
EA
330
E8
100
AcDbEntity
  8
0
100
AcDbBlockEnd
  0
BLOCK
  5
114
330
113
100
AcDbEntity
  8
0
100
AcDbBlockBegin
  2
_D_1
 70
     0
 10
0.0
 20
0.0
 30
0.0
  3
_D_1
  1
_D_1
  0
SOLID
  5
116
330
113
100
AcDbEntity
  8
0
  6
Continuous
 62
     7
370
     0
100
AcDbTrace
 10
137.1806253772
 20
152.1801466028
 30
0.0
 11
140.3556253772
 21
151.6721466028
 31
0.0
 12
140.3556253772
 22
152.6881466028
 32
0.0
 13
140.3556253772
 23
152.6881466028
 33
0.0
  0
SOLID
  5
117
330
113
100
AcDbEntity
  8
0
  6
Continuous
 62
     7
370
     0
100
AcDbTrace
 10
149.1806253772
 20
152.1801466028
 30
0.0
 11
146.0056253772
 21
152.6881466028
 31
0.0
 12
146.0056253772
 22
151.6721466028
 32
0.0
 13
146.0056253772
 23
151.6721466028
 33
0.0
  0
LINE
  5
118
330
113
100
AcDbEntity
  8
0
  6
Continuous
 62
     7
370
     0
100
AcDbLine
 10
160.7655136154
 20
152.1801463699
 30
0.0
 11
160.3363006557
 21
152.1801463699
 31
0.0
  0
LINE
  5
119
330
113
100
AcDbEntity
  8
0
  6
Continuous
 62
     7
370
     0
100
AcDbLine
 10
160.3363006557
 20
152.1801463699
 30
0.0
 11
160.3363006557
 21
148.8169982935
 31
0.0
  0
LINE
  5
11A
330
113
100
AcDbEntity
  8
0
  6
Continuous
 62
     7
370
     0
100
AcDbLine
 10
160.3363006557
 20
148.8169982935
 30
0.0
 11
160.7655136154
 21
148.8169982935
 31
0.0
  0
LINE
  5
11B
330
113
100
AcDbEntity
  8
0
  6
Continuous
 62
     7
370
     0
100
AcDbLine
 10
169.5957376046
 20
152.1801463699
 30
0.0
 11
170.0249505643
 21
152.1801463699
 31
0.0
  0
LINE
  5
11C
330
113
100
AcDbEntity
  8
0
  6
Continuous
 62
     7
370
     0
100
AcDbLine
 10
170.0249505643
 20
152.1801463699
 30
0.0
 11
170.0249505643
 21
148.8169982935
 31
0.0
  0
LINE
  5
11D
330
113
100
AcDbEntity
  8
0
  6
Continuous
 62
     7
370
     0
100
AcDbLine
 10
170.0249505643
 20
148.8169982935
 30
0.0
 11
169.5957376046
 21
148.8169982935
 31
0.0
  0
LINE
  5
11E
330
113
100
AcDbEntity
  8
0
  6
Continuous
 62
     7
370
     0
100
AcDbLine
 10
137.1806253772
 20
143.2001466028
 30
0.0
 11
137.1806253772
 21
153.9581466028
 31
0.0
  0
LINE
  5
11F
330
113
100
AcDbEntity
  8
0
  6
Continuous
 62
     7
370
     0
100
AcDbLine
 10
149.1806253772
 20
143.2001466028
 30
0.0
 11
149.1806253772
 21
153.9581466028
 31
0.0
  0
LINE
  5
120
330
113
100
AcDbEntity
  8
0
  6
Continuous
 62
     7
370
     0
100
AcDbLine
 10
137.1806253772
 20
152.1801466028
 30
0.0
 11
149.1806253772
 21
152.1801466028
 31
0.0
  0
LINE
  5
121
330
113
100
AcDbEntity
  8
0
  6
Continuous
 62
     7
370
     0
100
AcDbLine
 10
149.1806253772
 20
152.1801466028
 30
0.0
 11
157.8092248598
 21
152.1801466028
 31
0.0
  0
MTEXT
  5
122
330
113
100
AcDbEntity
  8
0
  6
Continuous
 62
     7
370
     0
100
AcDbMText
 10
159.8262424837
 20
155.3378860164
 30
0.0
 40
2.1166666667
 41
0.0
 71
     1
 72
     1
  1

  7
SLDTEXTSTYLE0
 73
     1
 44
1.0
  0
MTEXT
  5
123
330
113
100
AcDbEntity
  8
0
  6
Continuous
 62
     7
370
     0
100
AcDbMText
 10
159.7988041881
 20
155.3378860164
 30
0.0
 40
2.1166666667
 41
0.0
 71
     1
 72
     1
  1
12.0mm
  7
SLDTEXTSTYLE0
 73
     1
 44
1.0
  0
MTEXT
  5
124
330
113
100
AcDbEntity
  8
0
  6
Continuous
 62
     7
370
     0
100
AcDbMText
 10
161.3020298369
 20
151.5455248929
 30
0.0
 40
2.1166666667
 41
0.0
 71
     1
 72
     1
  1
0.47in
  7
SLDTEXTSTYLE0
 73
     1
 44
1.0
  0
MTEXT
  5
125
330
113
100
AcDbEntity
  8
0
  6
Continuous
 62
     7
370
     0
100
AcDbMText
 10
172.1499461006
 20
155.3378860164
 30
0.0
 40
2.1166666667
 41
0.0
 71
     1
 72
     1
  1

  7
SLDTEXTSTYLE0
 73
     1
 44
1.0
  0
ENDBLK
  5
115
330
113
100
AcDbEntity
  8
0
100
AcDbBlockEnd
  0
ENDSEC
  0
SECTION
  2
ENTITIES
  0
LINE
  5
7D
330
1F
100
AcDbEntity
  8
0
  6
Continuous
 62
     7
370
     0
100
AcDbLine
 10
1.5793501011
 20
214.6453799966
 30
0.0
 11
277.9892068491
 21
214.6453799966
 31
0.0
  0
LINE
  5
7E
330
1F
100
AcDbEntity
  8
0
  6
Continuous
 62
     7
370
     0
100
AcDbLine
 10
1.5793501011
 20
214.6453799966
 30
0.0
 11
1.5793501011
 21
0.9031642596
 31
0.0
  0
LINE
  5
7F
330
1F
100
AcDbEntity
  8
0
  6
Continuous
 62
     7
370
     0
100
AcDbLine
 10
277.9892068491
 20
0.9031642596
 30
0.0
 11
1.5793501011
 21
0.9031642596
 31
0.0
  0
LINE
  5
80
330
1F
100
AcDbEntity
  8
0
  6
Continuous
 62
     7
370
     0
100
AcDbLine
 10
277.9892068491
 20
0.9031642596
 30
0.0
 11
277.9892068491
 21
214.6453799966
 31
0.0
  0
LINE
  5
81
330
1F
100
AcDbEntity
  8
0
  6
Continuous
 62
     7
370
     0
100
AcDbLine
 10
215.7427640041
 20
12.2958890132
 30
0.0
 11
171.6327596684
 21
12.2958890132
 31
0.0
  0
LINE
  5
82
330
1F
100
AcDbEntity
  8
0
  6
Continuous
 62
     7
370
     0
100
AcDbLine
 10
171.6327596684
 20
12.2958890132
 30
0.0
 11
171.6327596684
 21
26.1661402506
 31
0.0
  0
LINE
  5
83
330
1F
100
AcDbEntity
  8
0
  6
Continuous
 62
     7
370
     0
100
AcDbLine
 10
171.6327596684
 20
0.9031642596
 30
0.0
 11
171.6327596684
 21
26.1661402506
 31
0.0
  0
LINE
  5
84
330
1F
100
AcDbEntity
  8
0
  6
Continuous
 62
     7
370
     0
100
AcDbLine
 10
215.7427640041
 20
17.1604579552
 30
0.0
 11
277.9892068491
 21
17.1604579552
 31
0.0
  0
LINE
  5
85
330
1F
100
AcDbEntity
  8
0
  6
Continuous
 62
     7
370
     0
100
AcDbLine
 10
215.7427640041
 20
35.2394508358
 30
0.0
 11
215.7427640041
 21
0.9031642596
 31
0.0
  0
LINE
  5
86
330
1F
100
AcDbEntity
  8
0
  6
Continuous
 62
     7
370
     0
100
AcDbLine
 10
215.7427640041
 20
26.1661402506
 30
0.0
 11
171.6327596684
 21
26.1661402506
 31
0.0
  0
LINE
  5
87
330
1F
100
AcDbEntity
  8
0
  6
Continuous
 62
     7
370
     0
100
AcDbLine
 10
215.7427640041
 20
9.1409200612
 30
0.0
 11
277.9892068491
 21
9.1409200612
 31
0.0
  0
LINE
  5
88
330
1F
100
AcDbEntity
  8
0
  6
Continuous
 62
     7
370
     0
100
AcDbLine
 10
215.7427640041
 20
16.9216824031
 30
0.0
 11
171.6327596684
 21
16.9216824031
 31
0.0
  0
LINE
  5
89
330
1F
100
AcDbEntity
  8
0
  6
Continuous
 62
     7
370
     0
100
AcDbLine
 10
215.7427640041
 20
21.4874005542
 30
0.0
 11
171.6327596684
 21
21.4874005542
 31
0.0
  0
LINE
  5
8A
330
1F
100
AcDbEntity
  8
0
  6
Continuous
 62
     7
370
     0
100
AcDbLine
 10
186.1338100705
 20
26.1661402506
 30
0.0
 11
186.1338100705
 21
12.2958890132
 31
0.0
  0
LINE
  5
8B
330
1F
100
AcDbEntity
  8
0
  6
Continuous
 62
     7
370
     0
100
AcDbLine
 10
198.2145906188
 20
26.1661402506
 30
0.0
 11
198.2145906188
 21
12.2958890132
 31
0.0
  0
LINE
  5
8C
330
1F
100
AcDbEntity
  8
0
  6
Continuous
 62
     7
370
     0
100
AcDbLine
 10
253.7490408369
 20
9.1409200612
 30
0.0
 11
253.7490408369
 21
0.9031642596
 31
0.0
  0
LINE
  5
8D
330
1F
100
AcDbEntity
  8
0
  6
Continuous
 62
     7
370
     0
100
AcDbLine
 10
171.6327596684
 20
12.2958890132
 30
0.0
 11
171.6327596684
 21
7.5627342528
 31
0.0
  0
LINE
  5
8E
330
1F
100
AcDbEntity
  8
0
  6
Continuous
 62
     7
370
     0
100
AcDbLine
 10
171.6327596684
 20
7.5627342528
 30
0.0
 11
215.7427640041
 21
7.5627342528
 31
0.0
  0
LINE
  5
8F
330
1F
100
AcDbEntity
  8
0
  6
Continuous
 62
     7
370
     0
100
AcDbLine
 10
171.6327596684
 20
7.5627342528
 30
0.0
 11
171.6327596684
 21
35.2394508358
 31
0.0
  0
LINE
  5
90
330
1F
100
AcDbEntity
  8
0
  6
Continuous
 62
     7
370
     0
100
AcDbLine
 10
171.6327596684
 20
35.2394508358
 30
0.0
 11
215.7427640041
 21
35.2394508358
 31
0.0
  0
LINE
  5
91
330
1F
100
AcDbEntity
  8
0
  6
Continuous
 62
     7
370
     0
100
AcDbLine
 10
270.1683598194
 20
17.1604579552
 30
0.0
 11
270.1683598194
 21
9.1409200612
 31
0.0
  0
LINE
  5
92
330
1F
100
AcDbEntity
  8
0
  6
Continuous
 62
     7
370
     0
100
AcDbLine
 10
215.7427640041
 20
35.2394508358
 30
0.0
 11
277.9892068491
 21
35.2394508358
 31
0.0
  0
LINE
  5
93
330
1F
100
AcDbEntity
  8
0
  6
Continuous
 62
     7
370
     0
100
AcDbLine
 10
277.9892068491
 20
35.2394508358
 30
0.0
 11
277.9892068491
 21
50.0331356147
 31
0.0
  0
LINE
  5
94
330
1F
100
AcDbEntity
  8
0
  6
Continuous
 62
     7
370
     0
100
AcDbLine
 10
215.7427640041
 20
24.8927335446
 30
0.0
 11
277.9892068491
 21
24.8927335446
 31
0.0
  0
INSERT
  5
95
330
1F
100
AcDbEntity
  8
0
  6
Continuous
 62
     7
100
AcDbBlockReference
  2
Third Angle Projection Block
 10
117.7262204235
 20
15.5162339489
 30
0.0
 41
0.8
 42
0.8
 43
0.8
  0
MTEXT
  5
97
330
1F
100
AcDbEntity
  8
0
  6
Continuous
 62
     7
370
     0
100
AcDbMText
 10
273.7514466724
 20
13.1125292762
 30
0.0
 40
3.175
 41
0.0
 71
     2
 72
     1
  1
A
  7
SLDTEXTSTYLE0
 73
     1
 44
1.0
  0
MTEXT
  5
98
330
1F
100
AcDbEntity
  8
0
  6
Continuous
 62
     7
370
     0
100
AcDbMText
 10
234.8181548423
 20
5.1306563898
 30
0.0
 40
3.175
 41
0.0
 71
     2
 72
     1
  1
BB211-E02
  7
SLDTEXTSTYLE0
 73
     1
 44
1.0
  0
MTEXT
  5
99
330
1F
100
AcDbEntity
  8
0
  6
Continuous
 62
     7
370
     0
100
AcDbMText
 10
216.4199766059
 20
16.8243178599
 30
0.0
 40
2.1166666667
 41
0.0
 71
     1
 72
     1
  1
MATERIAL
  7
SLDTEXTSTYLE0
 73
     1
 44
1.0
  0
MTEXT
  5
9A
330
1F
100
AcDbEntity
  8
0
  6
Continuous
 62
     7
370
     0
100
AcDbMText
 10
174.230946566
 20
20.054553926
 30
0.0
 40
1.8520833333
 41
0.0
 71
     1
 72
     1
  1
DRAWN
  7
SLDTEXTSTYLE0
 73
     1
 44
1.0
  0
MTEXT
  5
9B
330
1F
100
AcDbEntity
  8
0
  6
Continuous
 62
     7
370
     0
100
AcDbMText
 10
172.3960124543
 20
15.5787169747
 30
0.0
 40
1.8520833333
 41
0.0
 71
     1
 72
     1
  1
APPROVAL
  7
SLDTEXTSTYLE0
 73
     1
 44
1.0
  0
MTEXT
  5
9C
330
1F
100
AcDbEntity
  8
0
  6
Continuous
 62
     7
370
     0
100
AcDbMText
 10
271.321689486
 20
16.0237652193
 30
0.0
 40
2.1166666667
 41
0.0
 71
     1
 72
     1
  1
REV
  7
SLDTEXTSTYLE0
 73
     1
 44
1.0
  0
MTEXT
  5
9D
330
1F
100
AcDbEntity
  8
0
  6
Continuous
 62
     7
370
     0
100
AcDbMText
 10
190.2958696448
 20
20.3177146903
 30
0.0
 40
2.1166666667
 41
0.0
 71
     1
 72
     1
  1
LM
  7
SLDTEXTSTYLE0
 73
     1
 44
1.0
  0
MTEXT
  5
9E
330
1F
100
AcDbEntity
  8
0
  6
Continuous
 62
     7
370
     0
100
AcDbMText
 10
199.8662436873
 20
20.3177146903
 30
0.0
 40
2.1166666667
 41
0.0
 71
     1
 72
     1
  1
23/JUL/15
  7
SLDTEXTSTYLE0
 73
     1
 44
1.0
  0
MTEXT
  5
9F
330
1F
100
AcDbEntity
  8
0
  6
Continuous
 62
     7
370
     0
100
AcDbMText
 10
203.6145073853
 20
24.8221395769
 30
0.0
 40
2.1166666667
 41
0.0
 71
     1
 72
     1
  1
DATE
  7
SLDTEXTSTYLE0
 73
     1
 44
1.0
  0
MTEXT
  5
A1
330
1F
100
AcDbEntity
  8
0
  6
Continuous
 62
     7
370
     0
100
AcDbMText
 10
229.402906477
 20
27.7957480569
 30
0.0
 40
2.1166666667
 41
0.0
 71
     1
 72
     1
  1
w w w . t h o r  l a b s . c o m
  7
SLDTEXTSTYLE1
 73
     1
 44
1.0
  0
MTEXT
  5
A2
330
1F
100
AcDbEntity
  8
0
  6
Continuous
 62
     7
370
     0
100
AcDbMText
 10
216.7004035316
 20
8.3494791871
 30
0.0
 40
2.1166666667
 41
0.0
 71
     1
 72
     1
  1
ITEM #
  7
SLDTEXTSTYLE0
 73
     1
 44
1.0
  0
MTEXT
  5
A3
330
1F
100
AcDbEntity
  8
0
  6
Continuous
 62
     7
370
     0
100
AcDbMText
 10
254.5318000914
 20
8.3494791871
 30
0.0
 40
2.1166666667
 41
0.0
 71
     1
 72
     1
  1
APPROX WEIGHT
  7
SLDTEXTSTYLE0
 73
     1
 44
1.0
  0
MTEXT
  5
A4
330
1F
100
AcDbEntity
  8
0
  6
Continuous
 62
     7
370
     0
100
AcDbMText
 10
243.0329852882
 20
13.1125292762
 30
0.0
 40
3.175
 41
0.0
 71
     2
 72
     1
  1
ZERODUR®
  7
SLDTEXTSTYLE0
 73
     1
 44
1.0
  0
MTEXT
  5
A5
330
1F
100
AcDbEntity
  8
0
  6
Continuous
 62
     7
370
     0
100
AcDbMText
 10
266.1678480997
 20
5.1306563898
 30
0.0
 40
3.175
 41
0.0
 71
     2
 72
     1
  1
0.05 kg
  7
SLDTEXTSTYLE0
 73
     1
 44
1.0
  0
INSERT
  5
AB
330
1F
100
AcDbEntity
  8
0
  6
Continuous
 62
     7
370
     0
100
AcDbBlockReference
  2
SW_NOTE_0
 10
174.8430140051
 20
4.4558554801
 30
0.0
  0
INSERT
  5
B1
330
1F
100
AcDbEntity
  8
0
  6
Continuous
 62
     7
370
     0
100
AcDbBlockReference
  2
SW_NOTE_1
 10
174.5483650337
 20
30.4835322715
 30
0.0
  0
MTEXT
  5
B2
330
1F
100
AcDbEntity
  8
0
  6
Continuous
 62
     7
370
     0
100
AcDbMText
 10
187.9273588276
 20
24.8221395769
 30
0.0
 40
2.1166666667
 41
0.0
 71
     1
 72
     1
  1
NAME
  7
SLDTEXTSTYLE0
 73
     1
 44
1.0
  0
INSERT
  5
B8
330
1F
100
AcDbEntity
  8
0
  6
Continuous
 62
     7
370
     0
100
AcDbBlockReference
  2
SW_NOTE_2
 10
58.6204667508
 20
8.1776609732
 30
0.0
  0
MTEXT
  5
B9
330
1F
100
AcDbEntity
  8
0
  6
Continuous
 62
     7
370
     0
100
AcDbMText
 10
179.1174811218
 20
10.6680638482
 30
0.0
 40
1.5875
 41
0.0
 71
     1
 72
     1
  1
COPYRIGHT © 2015 BY THORLABS
  7
SLDTEXTSTYLE0
 73
     1
 44
1.0
  0
INSERT
  5
C0
330
1F
100
AcDbEntity
  8
0
  6
Continuous
 62
     7
370
     0
100
AcDbBlockReference
  2
SW_NOTE_3
 10
216.4257745743
 20
21.0717740674
 30
0.0
  0
INSERT
  5
E1
330
1F
100
AcDbEntity
  8
0
  6
Continuous
 62
     7
370
     0
100
AcDbBlockReference
  2
SW_NOTE_4
 10
9.6381425768
 20
54.3104509789
 30
0.0
  0
MTEXT
  5
E2
330
1F
100
AcDbEntity
  8
0
  6
Continuous
 62
     7
370
     0
100
AcDbMText
 10
199.7074779209
 20
16.078516793
 30
0.0
 40
2.1166666667
 41
0.0
 71
     1
 72
     1
  1
04/AUG/15
  7
SLDTEXTSTYLE0
 73
     1
 44
1.0
  0
MTEXT
  5
E3
330
1F
100
AcDbEntity
  8
0
  6
Continuous
 62
     7
370
     0
100
AcDbMText
 10
190.1371038784
 20
16.078516793
 30
0.0
 40
2.1166666667
 41
0.0
 71
     1
 72
     1
  1
CS
  7
SLDTEXTSTYLE0
 73
     1
 44
1.0
  0
CIRCLE
  5
E4
330
1F
100
AcDbEntity
  8
0
  6
Continuous
 62
     7
370
     0
100
AcDbCircle
 10
69.7600252957
 20
116.7801466028
 30
0.0
 40
25.15000000000001
  0
CIRCLE
  5
E5
330
1F
100
AcDbEntity
  8
0
  6
Continuous
 62
     7
370
     0
100
AcDbCircle
 10
69.7600252957
 20
116.7801466028
 30
0.0
 40
25.39999999999999
  0
DIMENSION
  5
E6
330
1F
100
AcDbEntity
  8
0
  6
Continuous
 62
     7
370
     0
100
AcDbDimension
  2
_D
 10
57.0600252957
 20
94.7831013467
 30
0.0
 11
106.2169473366
 21
161.0819334048
 31
0.0
 70
   163
  1
<>
 71
     1
 42
-1.0
  3
SLDDIMSTYLE0
100
AcDbDiametricDimension
 15
82.4600252957
 25
138.7771918589
 35
0.0
 40
0.0
  0
LINE
  5
F7
330
1F
100
AcDbEntity
  8
0
  6
Continuous
 62
     7
370
     0
100
AcDbLine
 10
226.0744683416
 20
189.7364168138
 30
0.0
 11
226.0744683416
 21
189.5323147859
 31
0.0
  0
LINE
  5
F8
330
1F
100
AcDbEntity
  8
0
  6
Continuous
 62
     7
370
     0
100
AcDbLine
 10
243.8553135313
 20
158.7316501997
 30
0.0
 11
244.0320614954
 21
158.6295825996
 31
0.0
  0
LINE
  5
F9
330
1F
100
AcDbEntity
  8
0
  6
Continuous
 62
     7
370
     0
100
AcDbLine
 10
239.4677406629
 20
206.0600215411
 30
0.0
 11
231.3360126793
 21
201.3656748982
 31
0.0
  0
LINE
  5
FA
330
1F
100
AcDbEntity
  8
0
  6
Continuous
 62
     7
370
     0
100
AcDbLine
 10
256.7339484882
 20
157.3703926892
 30
0.0
 11
264.8656764719
 21
162.0647393322
 31
0.0
  0
LINE
  5
FB
330
1F
100
AcDbEntity
  8
0
  6
Continuous
 62
     7
370
     0
100
AcDbLine
 10
270.1272208095
 20
173.6939974165
 30
0.0
 11
270.1272208095
 21
173.8980994445
 31
0.0
  0
LINE
  5
FC
330
1F
100
AcDbEntity
  8
0
  6
Continuous
 62
     7
370
     0
100
AcDbLine
 10
252.3463756198
 20
204.6987640307
 30
0.0
 11
252.1696276557
 21
204.8008316308
 31
0.0
  0
LWPOLYLINE
  5
FD
330
1F
100
AcDbEntity
  8
0
  6
Continuous
 62
     7
370
     0
100
AcDbPolyline
 90
      165
 70
   128
 43
0.0
 10
261.6419394353
 20
168.9996507735
 10
261.6288893931
 20
169.7937693959
 10
261.5897584195
 20
170.6017897976
 10
261.5246039444
 20
171.4225260973
 10
261.4335215911
 20
172.2547737513
 10
261.3166450354
 20
173.0973113214
 10
261.1741458099
 20
173.9489022674
 10
261.0062330517
 20
174.8082967624
 10
260.8131531961
 20
175.6742335263
 10
260.5951896143
 20
176.5454416775
 10
260.3526621979
 20
177.4206425979
 10
260.0859268894
 20
178.2985518095
 10
259.7953751596
 20
179.1778808595
 10
259.4814334333
 20
180.0573392112
 10
259.1445624632
 20
180.9356361382
 10
258.7852566539
 20
181.8114826187
 10
258.4040433363
 20
182.6835932271
 10
258.0014819935
 20
183.5506880209
 10
257.5781634396
 20
184.4114944189
 10
257.1347089532
 20
185.264749069
 10
256.6717693648
 20
186.1091997024
 10
256.1900241021
 20
186.9436069713
 10
255.6901801927
 20
187.7667462679
 10
255.1729712265
 20
188.5774095219
 10
254.6391562788
 20
189.3744069731
 10
254.0895187969
 20
190.1565689179
 10
253.5248654495
 20
190.9227474257
 10
252.9460249432
 20
191.6718180239
 10
252.3538468063
 20
192.4026813482
 10
251.749200142
 20
193.1142647558
 10
251.1329723524
 20
193.8055238999
 10
250.506067837
 20
194.4754442625
 10
249.8694066644
 20
195.123042643
 10
249.2239232229
 20
195.7473686015
 10
248.5705648483
 20
196.3475058535
 10
247.9102904342
 20
196.9225736149
 10
247.2440690243
 20
197.4717278944
 10
246.5728783904
 20
197.9941627325
 10
245.8977035973
 20
198.4891113838
 10
245.2195355572
 20
198.9558474431
 10
244.5393695751
 20
199.3936859109
 10
243.8582038884
 20
199.8019841986
 10
243.1770382018
 20
200.1801430725
 10
242.4968722197
 20
200.527607532
 10
241.8187041795
 20
200.8438676253
 10
241.1435293865
 20
201.1284591971
 10
240.4723387526
 20
201.3809645699
 10
239.8061173427
 20
201.6010131572
 10
239.1458429286
 20
201.7882820076
 10
238.492484554
 20
201.942496278
 10
237.8470011125
 20
202.0634296379
 10
237.2103399399
 20
202.1509046007
 10
236.5834354245
 20
202.204792785
 10
235.9672076349
 20
202.2250151023
 10
235.3625609705
 20
202.2115418737
 10
234.7703828337
 20
202.164392873
 10
234.1915423274
 20
202.0836372979
 10
233.6268889799
 20
201.9693936682
 10
233.077251498
 20
201.8218296522
 10
232.5434365504
 20
201.6411618206
 10
232.0262275842
 20
201.4276553282
 10
231.5263836748
 20
201.1816235253
 10
231.0446384121
 20
200.9034274974
 10
230.5816988236
 20
200.5934755357
 10
230.1382443372
 20
200.2522225373
 10
229.7149257834
 20
199.8801693381
 10
229.3123644406
 20
199.4778619775
 10
228.9311511229
 20
199.045890897
 10
228.5718453137
 20
198.5848900737
 10
228.2349743436
 20
198.0955360899
 10
227.9210326173
 20
197.57854714
 10
227.6304808875
 20
197.0346819767
 10
227.363745579
 20
196.464738797
 10
227.1212181626
 20
195.8695540712
 10
226.9032545808
 20
195.2500013149
 10
226.7101747252
 20
194.6069898072
 10
226.542261967
 20
193.9414632563
 10
226.3997627415
 20
193.254398414
 10
226.2828861858
 20
192.5468036428
 10
226.1918038325
 20
191.8197174355
 10
226.1266493574
 20
191.0742068915
 10
226.0875183837
 20
190.3113661503
 10
226.0744683416
 20
189.5323147859
 10
226.0875183837
 20
188.7381961635
 10
226.1266493574
 20
187.9301757618
 10
226.1918038325
 20
187.1094394621
 10
226.2828861858
 20
186.2771918081
 10
226.3997627415
 20
185.4346542381
 10
226.542261967
 20
184.583063292
 10
226.7101747252
 20
183.723668797
 10
226.9032545808
 20
182.8577320332
 10
227.1212181626
 20
181.986523882
 10
227.363745579
 20
181.1113229615
 10
227.6304808875
 20
180.2334137499
 10
227.9210326173
 20
179.3540846999
 10
228.2349743436
 20
178.4746263482
 10
228.5718453137
 20
177.5963294212
 10
228.9311511229
 20
176.7204829408
 10
229.3123644406
 20
175.8483723324
 10
229.7149257834
 20
174.9812775385
 10
230.1382443372
 20
174.1204711405
 10
230.5816988236
 20
173.2672164904
 10
231.0446384121
 20
172.422765857
 10
231.5263836748
 20
171.5883585882
 10
232.0262275842
 20
170.7652192915
 10
232.5434365504
 20
169.9545560375
 10
233.077251498
 20
169.1575585863
 10
233.6268889799
 20
168.3753966416
 10
234.1915423274
 20
167.6092181338
 10
234.7703828337
 20
166.8601475355
 10
235.3625609705
 20
166.1292842112
 10
235.9672076349
 20
165.4177008036
 10
236.5834354245
 20
164.7264416595
 10
237.2103399399
 20
164.0565212969
 10
237.8470011125
 20
163.4089229164
 10
238.492484554
 20
162.784596958
 10
239.1458429286
 20
162.1844597059
 10
239.8061173427
 20
161.6093919445
 10
240.4723387526
 20
161.060237665
 10
241.1435293865
 20
160.537802827
 10
241.8187041795
 20
160.0428541756
 10
242.4968722197
 20
159.5761181163
 10
243.1770382018
 20
159.1382796486
 10
243.8582038884
 20
158.7299813608
 10
244.5393695751
 20
158.351822487
 10
245.2195355572
 20
158.0043580274
 10
245.8977035973
 20
157.6880979341
 10
246.5728783904
 20
157.4035063624
 10
247.2440690243
 20
157.1510009896
 10
247.9102904342
 20
156.9309524022
 10
248.5705648483
 20
156.7436835518
 10
249.2239232229
 20
156.5894692814
 10
249.8694066644
 20
156.4685359216
 10
250.506067837
 20
156.3810609587
 10
251.1329723524
 20
156.3271727745
 10
251.749200142
 20
156.3069504571
 10
252.3538468063
 20
156.3204236857
 10
252.9460249432
 20
156.3675726864
 10
253.5248654495
 20
156.4483282616
 10
254.0895187969
 20
156.5625718913
 10
254.6391562788
 20
156.7101359072
 10
255.1729712265
 20
156.8908037389
 10
255.6901801927
 20
157.1043102313
 10
256.1900241021
 20
157.3503420342
 10
256.6717693648
 20
157.628538062
 10
257.1347089532
 20
157.9384900237
 10
257.5781634396
 20
158.2797430221
 10
258.0014819935
 20
158.6517962213
 10
258.4040433363
 20
159.0541035819
 10
258.7852566539
 20
159.4860746624
 10
259.1445624632
 20
159.9470754857
 10
259.4814334333
 20
160.4364294696
 10
259.7953751596
 20
160.9534184194
 10
260.0859268894
 20
161.4972835827
 10
260.3526621979
 20
162.0672267624
 10
260.5951896143
 20
162.6624114882
 10
260.8131531961
 20
163.2819642445
 10
261.0062330517
 20
163.9249757522
 10
261.1741458099
 20
164.5905023032
 10
261.3166450354
 20
165.2775671455
 10
261.4335215911
 20
165.9851619167
 10
261.5246039444
 20
166.7122481239
 10
261.5897584195
 20
167.4577586679
 10
261.6288893931
 20
168.2205994091
 10
261.6419394353
 20
168.9996507735
  0
LWPOLYLINE
  5
FE
330
1F
100
AcDbEntity
  8
0
  6
Continuous
 62
     7
370
     0
100
AcDbPolyline
 90
       43
 70
   128
 43
0.0
 10
261.9954928259
 20
168.9996507735
 10
261.982472313
 20
168.2175756607
 10
261.943429653
 20
167.4516676461
 10
261.8784214538
 20
166.7030372232
 10
261.7875419712
 20
165.9727698346
 10
261.6709229718
 20
165.2619242981
 10
261.528733542
 20
164.5715312718
 10
261.3611798427
 20
163.9025917596
 10
261.168504811
 20
163.2560756599
 10
260.9509878071
 20
162.6329203591
 10
260.7089442099
 20
162.0340293729
 10
260.4427249595
 20
161.460271036
 10
260.1527160483
 20
160.9124772431
 10
259.8393379616
 20
160.3914422428
 10
259.5030450676
 20
159.8979214861
 10
259.1443249589
 20
159.4326305308
 10
258.7636977453
 20
158.9962440045
 10
258.3617152999
 20
158.5893946258
 10
257.9389604588
 20
158.2126722874
 10
257.4960461761
 20
157.8666232007
 10
257.0336146352
 20
157.5517491039
 10
256.5523363176
 20
157.2685065341
 10
256.0529090308
 20
157.0173061662
 10
255.5360568968
 20
156.7985122166
 10
255.0025293016
 20
156.6124419156
 10
254.4530998092
 20
156.4593650473
 10
253.88856504
 20
156.3395035587
 10
253.3097435153
 20
156.2530312373
 10
252.7174744711
 20
156.2000734599
 10
252.1126166407
 20
156.18070701
 10
251.4960470103
 20
156.1949599673
 10
250.8686595469
 20
156.2428116662
 10
250.2313639023
 20
156.3241927264
 10
249.5850840942
 20
156.4389851532
 10
248.9307571667
 20
156.5870225084
 10
248.2693318311
 20
156.7680901521
 10
247.6017670911
 20
156.9819255536
 10
246.9290308516
 20
157.2282186718
 10
246.2520985159
 20
157.5066124054
 10
245.5719515711
 20
157.81670311
 10
244.8895761654
 20
158.1580411838
 10
244.2059616778
 20
158.5301317192
 10
244.0320614954
 20
158.6295825996
  0
LWPOLYLINE
  5
FF
330
1F
100
AcDbEntity
  8
0
  6
Continuous
 62
     7
370
     0
100
AcDbPolyline
 90
       85
 70
   128
 43
0.0
 10
226.0744683416
 20
189.7364168138
 10
226.0777237648
 20
190.129404917
 10
226.1037600705
 20
190.9035367956
 10
226.1557949317
 20
191.6609432976
 10
226.2337529027
 20
192.4005262561
 10
226.3375209522
 20
193.1212133464
 10
226.4669486261
 20
193.8219596412
 10
226.6218482669
 20
194.5017491253
 10
226.8019952849
 20
195.159596169
 10
227.007128484
 20
195.7945469569
 10
227.2369504408
 20
196.4056808712
 10
227.4911279354
 20
196.992111826
 10
227.7692924348
 20
197.5529895525
 10
228.0710406269
 20
198.0875008316
 10
228.3959350058
 20
198.5948706732
 10
228.7435045057
 20
199.0743634394
 10
229.113245184
 20
199.5252839115
 10
229.5046209522
 20
199.9469782981
 10
229.9170643526
 20
200.3388351824
 10
230.349977382
 20
200.7002864096
 10
230.8027323576
 20
201.0308079099
 10
231.2746728282
 20
201.3299204587
 10
231.7651145251
 20
201.5971903714
 10
232.2733463548
 20
201.8322301321
 10
232.7986314297
 20
202.0346989558
 10
233.3402081367
 20
202.204303282
 10
233.8972912413
 20
202.3407972006
 10
234.4690730263
 20
202.4439828084
 10
235.0547244627
 20
202.5137104963
 10
235.6533964119
 20
202.5498791657
 10
236.264220857
 20
202.5524363755
 10
236.8863121607
 20
202.521378418
 10
237.5187683502
 20
202.4567503243
 10
238.1606724246
 20
202.3586457989
 10
238.8110936841
 20
202.2272070841
 10
239.4690890803
 20
202.0626247533
 10
240.1337045826
 20
201.8651374353
 10
240.8039765622
 20
201.6350314677
 10
241.4789331887
 20
201.3726404823
 10
242.1575958396
 20
201.0783449208
 10
242.8389805188
 20
200.7525714837
 10
243.5220992839
 20
200.3957925113
 10
244.2059616778
 20
200.0085252991
 10
244.8895761654
 20
199.5913313474
 10
245.5719515711
 20
199.1448155477
 10
246.2520985159
 20
198.669625305
 10
246.9290308516
 20
198.1664496
 10
247.6017670911
 20
197.6360179892
 10
248.2693318311
 20
197.0790995477
 10
248.9307571667
 20
196.4965017541
 10
249.5850840942
 20
195.8890693194
 10
250.2313639023
 20
195.2576829626
 10
250.8686595469
 20
194.6032581336
 10
251.4960470103
 20
193.9267436859
 10
252.1126166407
 20
193.2291205006
 10
252.7174744711
 20
192.5114000647
 10
253.3097435153
 20
191.7746230042
 10
253.88856504
 20
191.0198575755
 10
254.4530998092
 20
190.2481981162
 10
255.0025293016
 20
189.4607634588
 10
255.5360568968
 20
188.6586953083
 10
256.0529090308
 20
187.8431565867
 10
256.5523363176
 20
187.0153297474
 10
257.0336146352
 20
186.1764150599
 10
257.4960461761
 20
185.3276288706
 10
257.9389604588
 20
184.4702018381
 10
258.3617152999
 20
183.6053771497
 10
258.7636977453
 20
182.7344087186
 10
259.1443249589
 20
181.8585593657
 10
259.5030450676
 20
180.9790989887
 10
259.8393379616
 20
180.0973027213
 10
260.1527160483
 20
179.2144490836
 10
260.4427249595
 20
178.3318181291
 10
260.7089442099
 20
177.4506895882
 10
260.9509878071
 20
176.5723410131
 10
261.168504811
 20
175.6980459253
 10
261.3611798427
 20
174.829071969
 10
261.528733542
 20
173.9666790735
 10
261.6709229718
 20
173.1121176259
 10
261.7875419712
 20
172.2666266587
 10
261.8784214538
 20
171.4314320529
 10
261.943429653
 20
170.6077447609
 10
261.982472313
 20
169.7967590506
 10
261.9954928259
 20
168.9996507735
 10
261.9954928259
 20
168.9996507735
  0
LWPOLYLINE
  5
100
330
1F
100
AcDbEntity
  8
0
  6
Continuous
 62
     7
370
     0
100
AcDbPolyline
 90
       63
 70
   128
 43
0.0
 10
270.1272208095
 20
173.6939974165
 10
270.1142002967
 20
174.4911056935
 10
270.0751576366
 20
175.3020914039
 10
270.0101494375
 20
176.1257786959
 10
269.9192699549
 20
176.9609733017
 10
269.8026509555
 20
177.8064642689
 10
269.6604615256
 20
178.6610257165
 10
269.4929078264
 20
179.523418612
 10
269.3002327946
 20
180.3923925683
 10
269.0827157907
 20
181.2666876561
 10
268.8406721935
 20
182.1450362312
 10
268.5744529431
 20
183.026164772
 10
268.284444032
 20
183.9087957266
 10
267.9710659453
 20
184.7916493642
 10
267.6347730513
 20
185.6734456317
 10
267.2760529425
 20
186.5529060086
 10
266.8954257289
 20
187.4287553616
 10
266.4934432835
 20
188.2997237927
 10
266.0706884424
 20
189.1645484811
 10
265.6277741597
 20
190.0219755136
 10
265.1653426188
 20
190.8707617029
 10
264.6840643012
 20
191.7096763903
 10
264.1846370145
 20
192.5375032297
 10
263.6677848804
 20
193.3530419512
 10
263.1342572852
 20
194.1551101018
 10
262.5848277929
 20
194.9425447592
 10
262.0202930236
 20
195.7142042185
 10
261.441471499
 20
196.4689696472
 10
260.8492024547
 20
197.2057467077
 10
260.2443446244
 20
197.9234671436
 10
259.627774994
 20
198.6210903289
 10
259.0003875305
 20
199.2976047766
 10
258.3630918859
 20
199.9520296056
 10
257.7168120779
 20
200.5834159624
 10
257.0624851503
 20
201.190848397
 10
256.4010598148
 20
201.7734461907
 10
255.7334950747
 20
202.3303646321
 10
255.0607588352
 20
202.860796243
 10
254.3838264995
 20
203.363971948
 10
253.7036795548
 20
203.8391621906
 10
253.021304149
 20
204.2856779904
 10
252.3376896614
 20
204.7028719421
 10
251.6538272675
 20
205.0901391543
 10
250.9707085025
 20
205.4469181267
 10
250.2893238232
 20
205.7726915637
 10
249.6106611723
 20
206.0669871252
 10
248.9357045458
 20
206.3293781107
 10
248.2654325663
 20
206.5594840783
 10
247.6008170639
 20
206.7569713963
 10
246.9428216678
 20
206.9215537271
 10
246.2924004082
 20
207.0529924419
 10
245.6504963339
 20
207.1510969673
 10
245.0180401444
 20
207.215725061
 10
244.3959488406
 20
207.2467830185
 10
243.7851243956
 20
207.2442258087
 10
243.1864524463
 20
207.2080571393
 10
242.6008010099
 20
207.1383294514
 10
242.0290192249
 20
207.0351438436
 10
241.4719361203
 20
206.898649925
 10
240.9303594134
 20
206.7290455988
 10
240.4050743385
 20
206.5265767751
 10
239.8968425088
 20
206.2915370143
 10
239.4677406629
 20
206.0600215411
  0
LWPOLYLINE
  5
101
330
1F
100
AcDbEntity
  8
0
  6
Continuous
 62
     7
370
     0
100
AcDbPolyline
 90
       22
 70
   128
 43
0.0
 10
264.8656764719
 20
162.0647393322
 10
265.1653426188
 20
162.2460957468
 10
265.6277741597
 20
162.5609698437
 10
266.0706884424
 20
162.9070189304
 10
266.4934432835
 20
163.2837412688
 10
266.8954257289
 20
163.6905906475
 10
267.2760529425
 20
164.1269771738
 10
267.6347730513
 20
164.5922681291
 10
267.9710659453
 20
165.0857888858
 10
268.284444032
 20
165.6068238861
 10
268.5744529431
 20
166.154617679
 10
268.8406721935
 20
166.7283760159
 10
269.0827157907
 20
167.3272670021
 10
269.3002327946
 20
167.9504223029
 10
269.4929078264
 20
168.5969384026
 10
269.6604615256
 20
169.2658779148
 10
269.8026509555
 20
169.9562709411
 10
269.9192699549
 20
170.6671164776
 10
270.0101494375
 20
171.3973838662
 10
270.0751576366
 20
172.1460142891
 10
270.1142002967
 20
172.9119223037
 10
270.1272208095
 20
173.6939974165
  0
ARC
  5
102
330
1F
100
AcDbEntity
  8
0
  6
Continuous
 62
     7
370
     0
100
AcDbCircle
 10
231.5475733012
 20
172.1592070137
 30
0.0
 40
38.61881599370731
100
AcDbArc
 50
2.5807340673
 51
57.4138894
  0
LINE
  5
103
330
1F
100
AcDbEntity
  8
0
  6
Continuous
 62
     7
370
     0
100
AcDbLine
 10
148.9306253772
 20
142.1801466028
 30
0.0
 11
137.4306253772
 21
142.1801466028
 31
0.0
  0
LINE
  5
104
330
1F
100
AcDbEntity
  8
0
  6
Continuous
 62
     7
370
     0
100
AcDbLine
 10
137.4306253772
 20
91.3801466028
 30
0.0
 11
148.9306253772
 21
91.3801466028
 31
0.0
  0
LINE
  5
105
330
1F
100
AcDbEntity
  8
0
  6
Continuous
 62
     7
370
     0
100
AcDbLine
 10
148.9306253772
 20
91.3801466028
 30
0.0
 11
149.1806253772
 21
91.6301466028
 31
0.0
  0
LINE
  5
106
330
1F
100
AcDbEntity
  8
0
  6
Continuous
 62
     7
370
     0
100
AcDbLine
 10
149.1806253772
 20
141.9301466028
 30
0.0
 11
148.9306253772
 21
142.1801466028
 31
0.0
  0
LINE
  5
107
330
1F
100
AcDbEntity
  8
0
  6
Continuous
 62
     7
370
     0
100
AcDbLine
 10
137.4306253772
 20
142.1801466028
 30
0.0
 11
137.1806253772
 21
141.9301466028
 31
0.0
  0
LINE
  5
108
330
1F
100
AcDbEntity
  8
0
  6
Continuous
 62
     7
370
     0
100
AcDbLine
 10
137.1806253772
 20
91.6301466028
 30
0.0
 11
137.4306253772
 21
91.3801466028
 31
0.0
  0
LINE
  5
109
330
1F
100
AcDbEntity
  8
0
  6
Continuous
 62
     7
370
     0
100
AcDbLine
 10
137.4306253772
 20
116.7801466028
 30
0.0
 11
137.4306253772
 21
91.3801466028
 31
0.0
  0
LINE
  5
10A
330
1F
100
AcDbEntity
  8
0
  6
Continuous
 62
     7
370
     0
100
AcDbLine
 10
137.4306253772
 20
142.1801466028
 30
0.0
 11
137.4306253772
 21
116.7801466028
 31
0.0
  0
LINE
  5
10B
330
1F
100
AcDbEntity
  8
0
  6
Continuous
 62
     7
370
     0
100
AcDbLine
 10
148.9306253772
 20
116.7801466028
 30
0.0
 11
148.9306253772
 21
142.1801466028
 31
0.0
  0
LINE
  5
10C
330
1F
100
AcDbEntity
  8
0
  6
Continuous
 62
     7
370
     0
100
AcDbLine
 10
148.9306253772
 20
91.3801466028
 30
0.0
 11
148.9306253772
 21
116.7801466028
 31
0.0
  0
LINE
  5
10D
330
1F
100
AcDbEntity
  8
0
  6
Continuous
 62
     7
370
     0
100
AcDbLine
 10
149.1806253772
 20
116.7801466028
 30
0.0
 11
149.1806253772
 21
91.6301466028
 31
0.0
  0
LINE
  5
10E
330
1F
100
AcDbEntity
  8
0
  6
Continuous
 62
     7
370
     0
100
AcDbLine
 10
149.1806253772
 20
141.9301466028
 30
0.0
 11
149.1806253772
 21
116.7801466028
 31
0.0
  0
LINE
  5
10F
330
1F
100
AcDbEntity
  8
0
  6
Continuous
 62
     7
370
     0
100
AcDbLine
 10
137.1806253772
 20
116.7801466028
 30
0.0
 11
137.1806253772
 21
141.9301466028
 31
0.0
  0
LINE
  5
110
330
1F
100
AcDbEntity
  8
0
  6
Continuous
 62
     7
370
     0
100
AcDbLine
 10
137.1806253772
 20
91.6301466028
 30
0.0
 11
137.1806253772
 21
116.7801466028
 31
0.0
  0
DIMENSION
  5
111
330
1F
100
AcDbEntity
  8
0
  6
Continuous
 62
     7
370
     0
100
AcDbDimension
  2
_D_1
 10
149.1806253772
 20
152.1801466028
 30
0.0
 11
165.1806253772
 21
152.1801466028
 31
0.0
 70
   160
  1
<>
 71
     2
 42
-1.0
  3
SLDDIMSTYLE1
100
AcDbAlignedDimension
 13
137.1806253772
 23
141.9301466028
 33
0.0
 14
149.1806253772
 24
141.9301466028
 34
0.0
100
AcDbRotatedDimension
  0
MTEXT
  5
126
330
1F
100
AcDbEntity
  8
0
  6
Continuous
 62
     7
370
     0
100
AcDbMText
 10
120.7304271286
 20
125.1820597021
 30
0.0
 40
2.1166666667
 41
0.0
 71
     1
 72
     1
  1
S1
  7
SLDTEXTSTYLE0
 73
     1
 44
1.0
  0
LEADER
  5
128
330
1F
100
AcDbEntity
  8
0
  6
Continuous
 62
     7
370
     0
100
AcDbLeader
  3
SLDDIMSTYLE2
 76
     3
 10
137.1806253772
 20
114.9206462869
 30
0.0
 10
130.53123197
 20
124.1076097983
 30
0.0
 10
124.18123197
 20
124.1076097983
 30
0.0
  0
MTEXT
  5
129
330
1F
100
AcDbEntity
  8
0
  6
Continuous
 62
     7
370
     0
100
AcDbMText
 10
160.6379848947
 20
125.0336473498
 30
0.0
 40
2.1166666667
 41
0.0
 71
     1
 72
     1
  1
S2
  7
SLDTEXTSTYLE0
 73
     1
 44
1.0
  0
LEADER
  5
12A
330
1F
100
AcDbEntity
  8
0
  6
Continuous
 62
     7
370
     0
100
AcDbLeader
  3
SLDDIMSTYLE2
 76
     3
 10
149.1806253772
 20
113.1243422135
 30
0.0
 10
153.7417159763
 20
123.989266603
 30
0.0
 10
160.0917159763
 20
123.989266603
 30
0.0
  0
LINE
  5
12B
330
1F
100
AcDbEntity
  8
0
  6
Continuous
 62
     7
370
     0
100
AcDbLine
 10
213.7473259509
 20
118.8771259798
 30
0.0
 11
213.134880726
 21
118.8771259798
 31
0.0
  0
SPLINE
  5
12C
330
1F
100
AcDbEntity
  8
0
  6
Continuous
 62
     7
370
     0
100
AcDbSpline
210
0.0
220
0.0
230
1.0
 70
     8
 71
     3
 72
    23
 73
    19
 74
     0
 42
0.000000001
 43
0.00000001
 40
0.0
 40
0.0
 40
0.0
 40
0.0
 40
0.0603255293380431
 40
0.1181599905079978
 40
0.1741866762963805
 40
0.2295388181457996
 40
0.2834498146386368
 40
0.3378265119505919
 40
0.3926321025334832
 40
0.4484655764151907
 40
0.5059654091573051
 40
0.5650585322290047
 40
0.6266544786228437
 40
0.6922320330373638
 40
0.7611310781257616
 40
0.8353098773394202
 40
0.9153255598322015
 40
0.9999999999999999
 40
0.9999999999999999
 40
0.9999999999999999
 40
0.9999999999999999
 10
214.1358664698624
 20
118.5540281965075
 30
0.0
 10
214.1354840422516
 20
118.5655612739076
 30
0.0
 10
214.1347349789053
 20
118.5881511845322
 30
0.0
 10
214.1308081411048
 20
118.6213069014953
 30
0.0
 10
214.1231734361099
 20
118.652812496269
 30
0.0
 10
214.1130918268991
 20
118.6828345109687
 30
0.0
 10
214.0996207511898
 20
118.7111530557997
 30
0.0
 10
214.0836176628134
 20
118.737987568178
 30
0.0
 10
214.0645210380374
 20
118.7631893204024
 30
0.0
 10
214.0426469531641
 20
118.7868350808724
 30
0.0
 10
214.0175315285921
 20
118.8083504120696
 30
0.0
 10
213.9888438092287
 20
118.8269134763342
 30
0.0
 10
213.9568100534316
 20
118.8426880763032
 30
0.0
 10
213.9213930271718
 20
118.8552078533527
 30
0.0
 10
213.8827043005534
 20
118.8652216370228
 30
0.0
 10
213.8405236271791
 20
118.871883484315
 30
0.0
 10
213.7950439082761
 20
118.8767039748113
 30
0.0
 10
213.7635291005186
 20
118.8769826834212
 30
0.0
 10
213.7473259508654
 20
118.8771259797837
 30
0.0
  0
SPLINE
  5
12D
330
1F
100
AcDbEntity
  8
0
  6
Continuous
 62
     7
370
     0
100
AcDbSpline
210
0.0
220
0.0
230
1.0
 70
     8
 71
     3
 72
    19
 73
    15
 74
     0
 42
0.000000001
 43
0.00000001
 40
0.0
 40
0.0
 40
0.0
 40
0.0
 40
0.1288602680417313
 40
0.2408921848092289
 40
0.3380442015575112
 40
0.4201204852136088
 40
0.494058456868551
 40
0.5660947835833202
 40
0.6368049543510104
 40
0.7091484493607203
 40
0.7819418055941268
 40
0.8542853006038366
 40
0.9261704072165587
 40
1.0
 40
1.0
 40
1.0
 40
1.0
 10
213.6851759314071
 20
118.2185827272463
 30
0.0
 10
213.712769817455
 20
118.2190144597631
 30
0.0
 10
213.7643539992859
 20
118.2198215432094
 30
0.0
 10
213.8364863169955
 20
118.2267131875328
 30
0.0
 10
213.8979591011352
 20
118.2376643030247
 30
0.0
 10
213.9499875808906
 20
118.253637787523
 30
0.0
 10
213.9936997163922
 20
118.2758142884254
 30
0.0
 10
214.0317169911694
 20
118.3028404987861
 30
0.0
 10
214.0633098250635
 20
118.3366936407328
 30
0.0
 10
214.0895917993463
 20
118.3748897038975
 30
0.0
 10
214.1100213171155
 20
118.4169225647902
 30
0.0
 10
214.1247581968395
 20
118.4610719225499
 30
0.0
 10
214.1344037409328
 20
118.506966730389
 30
0.0
 10
214.1353745751283
 20
118.5382021012589
 30
0.0
 10
214.1358664698624
 20
118.5540281965075
 30
0.0
  0
LINE
  5
12E
330
1F
100
AcDbEntity
  8
0
  6
Continuous
 62
     7
370
     0
100
AcDbLine
 10
213.134880726
 20
118.2185827272
 30
0.0
 11
213.6851759314
 21
118.2185827272
 31
0.0
  0
LINE
  5
12F
330
1F
100
AcDbEntity
  8
0
  6
Continuous
 62
     7
370
     0
100
AcDbLine
 10
213.134880726
 20
118.8771259798
 30
0.0
 11
213.134880726
 21
118.2185827272
 31
0.0
  0
LINE
  5
130
330
1F
100
AcDbEntity
  8
0
  6
Continuous
 62
     7
370
     0
100
AcDbLine
 10
219.1193925334
 20
118.0078488864
 30
0.0
 11
218.6666440473
 21
118.0078488864
 31
0.0
  0
SPLINE
  5
131
330
1F
100
AcDbEntity
  8
0
  6
Continuous
 62
     7
370
     0
100
AcDbSpline
210
0.0
220
0.0
230
1.0
 70
     8
 71
     3
 72
    19
 73
    15
 74
     0
 42
0.000000001
 43
0.00000001
 40
0.0
 40
0.0
 40
0.0
 40
0.0
 40
0.0801399024652515
 40
0.1562809906190946
 40
0.2294060490129018
 40
0.301798696972305
 40
0.3727428627695776
 40
0.4426676099026289
 40
0.5133209646126977
 40
0.586547692363209
 40
0.6683225082295049
 40
0.7636766255259052
 40
0.8740807567185483
 40
1.0
 40
1.0
 40
1.0
 40
1.0
 10
219.6149463309735
 20
117.6522355300642
 30
0.0
 10
219.6143793807329
 20
117.6709440498368
 30
0.0
 10
219.6132737698884
 20
117.7074275731895
 30
0.0
 10
219.602764559662
 20
117.7601481129253
 30
0.0
 10
219.5854050642148
 20
117.8090470690216
 30
0.0
 10
219.5609679529026
 20
117.8534472400728
 30
0.0
 10
219.5309945602671
 20
117.893381371226
 30
0.0
 10
219.4947297817757
 20
117.9272564076307
 30
0.0
 10
219.4524447828825
 20
117.9541379242966
 30
0.0
 10
219.4040096044922
 20
117.9752347123348
 30
0.0
 10
219.3473985830688
 20
117.9902447136747
 30
0.0
 10
219.2810488007571
 20
118.000428090402
 30
0.0
 10
219.2038989720233
 20
118.0069991793106
 30
0.0
 10
219.1487678368335
 20
118.0075535195372
 30
0.0
 10
219.1193925334391
 20
118.0078488864344
 30
0.0
  0
SPLINE
  5
132
330
1F
100
AcDbEntity
  8
0
  6
Continuous
 62
     7
370
     0
100
AcDbSpline
210
0.0
220
0.0
230
1.0
 70
     8
 71
     3
 72
    19
 73
    15
 74
     0
 42
0.000000001
 43
0.00000001
 40
0.0
 40
0.0
 40
0.0
 40
0.0
 40
0.0889709576989538
 40
0.1722707767733144
 40
0.2503120304637098
 40
0.3246551996215511
 40
0.3978444501802941
 40
0.4733008807185328
 40
0.551825888744448
 40
0.6347494834982532
 40
0.7217660118923857
 40
0.8103926655611191
 40
0.9031752367994194
 40
1.0
 40
1.0
 40
1.0
 40
1.0
 10
219.3284800161198
 20
117.306500322482
 30
0.0
 10
219.3428219535791
 20
117.3095148524112
 30
0.0
 10
219.3705916524836
 20
117.3153517617347
 30
0.0
 10
219.4097402649934
 20
117.3283791344028
 30
0.0
 10
219.4456345933993
 20
117.3433026841132
 30
0.0
 10
219.4776481564339
 20
117.3622688578659
 30
0.0
 10
219.5072919477225
 20
117.3841260738899
 30
0.0
 10
219.5330546086145
 20
117.4114267826958
 30
0.0
 10
219.5567832421956
 20
117.4424450104343
 30
0.0
 10
219.5773420141093
 20
117.4779418436968
 30
0.0
 10
219.5939667664172
 20
117.5172107988205
 30
0.0
 10
219.6066727801713
 20
117.5596451427812
 30
0.0
 10
219.6134409285756
 20
117.605096091809
 30
0.0
 10
219.6144374486524
 20
117.6363006366494
 30
0.0
 10
219.6149463309735
 20
117.6522355300642
 30
0.0
  0
SPLINE
  5
133
330
1F
100
AcDbEntity
  8
0
  6
Continuous
 62
     7
370
     0
100
AcDbSpline
210
0.0
220
0.0
230
1.0
 70
     8
 71
     3
 72
    11
 73
     7
 74
     0
 42
0.000000001
 43
0.00000001
 40
0.0
 40
0.0
 40
0.0
 40
0.0
 40
0.3293954641291864
 40
0.6051903468528028
 40
0.8278865786947356
 40
1.0
 40
1.0
 40
1.0
 40
1.0
 10
219.1527312855989
 20
117.296622173694
 30
0.0
 10
219.1720764363251
 20
117.2968444220917
 30
0.0
 10
219.2076188154799
 20
117.297252753716
 30
0.0
 10
219.2562338462138
 20
117.2985337098942
 30
0.0
 10
219.2955298212646
 20
117.3016626066692
 30
0.0
 10
219.3184765940952
 20
117.3050316297133
 30
0.0
 10
219.3284800161198
 20
117.306500322482
 30
0.0
  0
LINE
  5
134
330
1F
100
AcDbEntity
  8
0
  6
Continuous
 62
     7
370
     0
100
AcDbLine
 10
218.6666440473
 20
117.2966221737
 30
0.0
 11
219.1527312856
 21
117.2966221737
 31
0.0
  0
LINE
  5
135
330
1F
100
AcDbEntity
  8
0
  6
Continuous
 62
     7
370
     0
100
AcDbLine
 10
218.6666440473
 20
118.0078488864
 30
0.0
 11
218.6666440473
 21
117.2966221737
 31
0.0
  0
LINE
  5
136
330
1F
100
AcDbEntity
  8
0
  6
Continuous
 62
     7
370
     0
100
AcDbLine
 10
209.8602744028
 20
114.8468412743
 30
0.0
 11
209.4075259166
 21
114.8468412743
 31
0.0
  0
SPLINE
  5
137
330
1F
100
AcDbEntity
  8
0
  6
Continuous
 62
     7
370
     0
100
AcDbSpline
210
0.0
220
0.0
230
1.0
 70
     8
 71
     3
 72
    19
 73
    15
 74
     0
 42
0.000000001
 43
0.00000001
 40
0.0
 40
0.0
 40
0.0
 40
0.0
 40
0.0801399024652511
 40
0.1562809906190945
 40
0.2294060490129022
 40
0.3017986969723054
 40
0.3727428627695781
 40
0.4426676099026295
 40
0.5133209646126973
 40
0.5865476923632087
 40
0.6683225082295047
 40
0.763676625525905
 40
0.8740807567185482
 40
1.0
 40
1.0
 40
1.0
 40
1.0
 10
210.3558282002978
 20
114.4912279178847
 30
0.0
 10
210.3552612500571
 20
114.5099364376573
 30
0.0
 10
210.3541556392127
 20
114.5464199610101
 30
0.0
 10
210.3436464289863
 20
114.5991405007458
 30
0.0
 10
210.326286933539
 20
114.6480394568422
 30
0.0
 10
210.3018498222268
 20
114.6924396278933
 30
0.0
 10
210.2718764295914
 20
114.7323737590465
 30
0.0
 10
210.2356116510999
 20
114.7662487954512
 30
0.0
 10
210.1933266522067
 20
114.7931303121171
 30
0.0
 10
210.1448914738164
 20
114.8142271001553
 30
0.0
 10
210.088280452393
 20
114.8292371014952
 30
0.0
 10
210.0219306700814
 20
114.8394204782225
 30
0.0
 10
209.9447808413476
 20
114.8459915671311
 30
0.0
 10
209.8896497061577
 20
114.8465459073577
 30
0.0
 10
209.8602744027634
 20
114.8468412742549
 30
0.0
  0
SPLINE
  5
138
330
1F
100
AcDbEntity
  8
0
  6
Continuous
 62
     7
370
     0
100
AcDbSpline
210
0.0
220
0.0
230
1.0
 70
     8
 71
     3
 72
    19
 73
    15
 74
     0
 42
0.000000001
 43
0.00000001
 40
0.0
 40
0.0
 40
0.0
 40
0.0
 40
0.0889709576989539
 40
0.1722707767733142
 40
0.2503120304637097
 40
0.3246551996215506
 40
0.3978444501802953
 40
0.4733008807185329
 40
0.5518258887444478
 40
0.6347494834982534
 40
0.7217660118923851
 40
0.810392665561119
 40
0.9031752367994188
 40
1.0
 40
1.0
 40
1.0
 40
1.0
 10
210.069361885444
 20
114.1454927103025
 30
0.0
 10
210.0837038229033
 20
114.1485072402317
 30
0.0
 10
210.1114735218078
 20
114.1543441495552
 30
0.0
 10
210.1506221343176
 20
114.1673715222233
 30
0.0
 10
210.1865164627235
 20
114.1822950719337
 30
0.0
 10
210.2185300257582
 20
114.2012612456864
 30
0.0
 10
210.2481738170467
 20
114.2231184617104
 30
0.0
 10
210.2739364779387
 20
114.2504191705163
 30
0.0
 10
210.2976651115199
 20
114.2814373982548
 30
0.0
 10
210.3182238834335
 20
114.3169342315173
 30
0.0
 10
210.3348486357415
 20
114.356203186641
 30
0.0
 10
210.3475546494955
 20
114.3986375306017
 30
0.0
 10
210.3543227978998
 20
114.4440884796295
 30
0.0
 10
210.3553193179766
 20
114.4752930244699
 30
0.0
 10
210.3558282002978
 20
114.4912279178847
 30
0.0
  0
SPLINE
  5
139
330
1F
100
AcDbEntity
  8
0
  6
Continuous
 62
     7
370
     0
100
AcDbSpline
210
0.0
220
0.0
230
1.0
 70
     8
 71
     3
 72
    11
 73
     7
 74
     0
 42
0.000000001
 43
0.00000001
 40
0.0
 40
0.0
 40
0.0
 40
0.0
 40
0.3293954641291815
 40
0.6051903468528028
 40
0.8278865786947358
 40
1.0
 40
1.0
 40
1.0
 40
1.0
 10
209.8936131549231
 20
114.1356145615145
 30
0.0
 10
209.9129583056494
 20
114.1358368099122
 30
0.0
 10
209.9485006848041
 20
114.1362451415365
 30
0.0
 10
209.9971157155381
 20
114.1375260977147
 30
0.0
 10
210.0364116905888
 20
114.1406549944897
 30
0.0
 10
210.0593584634195
 20
114.1440240175339
 30
0.0
 10
210.069361885444
 20
114.1454927103025
 30
0.0
  0
LINE
  5
13A
330
1F
100
AcDbEntity
  8
0
  6
Continuous
 62
     7
370
     0
100
AcDbLine
 10
209.4075259166
 20
114.1356145615
 30
0.0
 11
209.8936131549
 21
114.1356145615
 31
0.0
  0
LINE
  5
13B
330
1F
100
AcDbEntity
  8
0
  6
Continuous
 62
     7
370
     0
100
AcDbLine
 10
209.4075259166
 20
114.8468412743
 30
0.0
 11
209.4075259166
 21
114.1356145615
 31
0.0
  0
LINE
  5
13C
330
1F
100
AcDbEntity
  8
0
  6
Continuous
 62
     7
370
     0
100
AcDbLine
 10
207.9636698355
 20
114.8468412743
 30
0.0
 11
207.5109213493
 21
114.8468412743
 31
0.0
  0
SPLINE
  5
13D
330
1F
100
AcDbEntity
  8
0
  6
Continuous
 62
     7
370
     0
100
AcDbSpline
210
0.0
220
0.0
230
1.0
 70
     8
 71
     3
 72
    19
 73
    15
 74
     0
 42
0.000000001
 43
0.00000001
 40
0.0
 40
0.0
 40
0.0
 40
0.0
 40
0.0801399024652518
 40
0.156280990619095
 40
0.2294060490129027
 40
0.3017986969723059
 40
0.3727428627695786
 40
0.4426676099026299
 40
0.5133209646126977
 40
0.586547692363209
 40
0.668322508229505
 40
0.7636766255259051
 40
0.8740807567185482
 40
1.0
 40
1.0
 40
1.0
 40
1.0
 10
208.4592236329901
 20
114.4912279178847
 30
0.0
 10
208.4586566827494
 20
114.5099364376573
 30
0.0
 10
208.457551071905
 20
114.5464199610101
 30
0.0
 10
208.4470418616786
 20
114.5991405007458
 30
0.0
 10
208.4296823662313
 20
114.6480394568422
 30
0.0
 10
208.4052452549192
 20
114.6924396278933
 30
0.0
 10
208.3752718622837
 20
114.7323737590465
 30
0.0
 10
208.3390070837922
 20
114.7662487954512
 30
0.0
 10
208.296722084899
 20
114.7931303121171
 30
0.0
 10
208.2482869065088
 20
114.8142271001553
 30
0.0
 10
208.1916758850853
 20
114.8292371014952
 30
0.0
 10
208.1253261027737
 20
114.8394204782225
 30
0.0
 10
208.0481762740399
 20
114.8459915671311
 30
0.0
 10
207.9930451388501
 20
114.8465459073577
 30
0.0
 10
207.9636698354557
 20
114.8468412742549
 30
0.0
  0
SPLINE
  5
13E
330
1F
100
AcDbEntity
  8
0
  6
Continuous
 62
     7
370
     0
100
AcDbSpline
210
0.0
220
0.0
230
1.0
 70
     8
 71
     3
 72
    19
 73
    15
 74
     0
 42
0.000000001
 43
0.00000001
 40
0.0
 40
0.0
 40
0.0
 40
0.0
 40
0.0889709576989536
 40
0.1722707767733142
 40
0.2503120304637098
 40
0.3246551996215508
 40
0.3978444501802954
 40
0.473300880718533
 40
0.551825888744448
 40
0.634749483498253
 40
0.7217660118923855
 40
0.8103926655611194
 40
0.9031752367994194
 40
1.0
 40
1.0
 40
1.0
 40
1.0
 10
208.1727573181363
 20
114.1454927103025
 30
0.0
 10
208.1870992555956
 20
114.1485072402317
 30
0.0
 10
208.2148689545001
 20
114.1543441495552
 30
0.0
 10
208.2540175670099
 20
114.1673715222233
 30
0.0
 10
208.2899118954158
 20
114.1822950719337
 30
0.0
 10
208.3219254584505
 20
114.2012612456864
 30
0.0
 10
208.351569249739
 20
114.2231184617104
 30
0.0
 10
208.377331910631
 20
114.2504191705163
 30
0.0
 10
208.4010605442122
 20
114.2814373982548
 30
0.0
 10
208.4216193161259
 20
114.3169342315173
 30
0.0
 10
208.4382440684338
 20
114.356203186641
 30
0.0
 10
208.4509500821879
 20
114.3986375306017
 30
0.0
 10
208.4577182305921
 20
114.4440884796295
 30
0.0
 10
208.4587147506689
 20
114.4752930244699
 30
0.0
 10
208.4592236329901
 20
114.4912279178847
 30
0.0
  0
SPLINE
  5
13F
330
1F
100
AcDbEntity
  8
0
  6
Continuous
 62
     7
370
     0
100
AcDbSpline
210
0.0
220
0.0
230
1.0
 70
     8
 71
     3
 72
    11
 73
     7
 74
     0
 42
0.000000001
 43
0.00000001
 40
0.0
 40
0.0
 40
0.0
 40
0.0
 40
0.3293954641291814
 40
0.6051903468528026
 40
0.8278865786947355
 40
1.0
 40
1.0
 40
1.0
 40
1.0
 10
207.9970085876154
 20
114.1356145615145
 30
0.0
 10
208.0163537383417
 20
114.1358368099122
 30
0.0
 10
208.0518961174965
 20
114.1362451415365
 30
0.0
 10
208.1005111482304
 20
114.1375260977147
 30
0.0
 10
208.1398071232811
 20
114.1406549944897
 30
0.0
 10
208.1627538961118
 20
114.1440240175339
 30
0.0
 10
208.1727573181363
 20
114.1454927103025
 30
0.0
  0
LINE
  5
140
330
1F
100
AcDbEntity
  8
0
  6
Continuous
 62
     7
370
     0
100
AcDbLine
 10
207.5109213493
 20
114.1356145615
 30
0.0
 11
207.9970085876
 21
114.1356145615
 31
0.0
  0
LINE
  5
141
330
1F
100
AcDbEntity
  8
0
  6
Continuous
 62
     7
370
     0
100
AcDbLine
 10
207.5109213493
 20
114.8468412743
 30
0.0
 11
207.5109213493
 21
114.1356145615
 31
0.0
  0
LINE
  5
142
330
1F
100
AcDbEntity
  8
0
  6
Continuous
 62
     7
370
     0
100
AcDbLine
 10
219.058065693
 20
118.8771259798
 30
0.0
 11
218.6666440473
 21
118.8771259798
 31
0.0
  0
SPLINE
  5
143
330
1F
100
AcDbEntity
  8
0
  6
Continuous
 62
     7
370
     0
100
AcDbSpline
210
0.0
220
0.0
230
1.0
 70
     8
 71
     3
 72
    23
 73
    19
 74
     0
 42
0.000000001
 43
0.00000001
 40
0.0
 40
0.0
 40
0.0
 40
0.0
 40
0.076010519206233
 40
0.1481357362434485
 40
0.2177881778331537
 40
0.2867678984972342
 40
0.3540434632439191
 40
0.418610840023479
 40
0.4836364388553436
 40
0.5502295626461514
 40
0.586927811313815
 40
0.6291578250269649
 40
0.67723822428767
 40
0.7300426397437307
 40
0.7888625661169238
 40
0.853750451461094
 40
0.9241097665384563
 40
1.0
 40
1.0
 40
1.0
 40
1.0
 10
219.535921140669
 20
118.5560861441717
 30
0.0
 10
219.5353892262621
 20
118.5729967663344
 30
0.0
 10
219.5343525864244
 20
118.6059536187618
 30
0.0
 10
219.525650921846
 20
118.6538126825417
 30
0.0
 10
219.5105930127516
 20
118.6983367531159
 30
0.0
 10
219.4902004803526
 20
118.7395160634918
 30
0.0
 10
219.4643781159724
 20
118.7761509745094
 30
0.0
 10
219.4335582233267
 20
118.8076484226142
 30
0.0
 10
219.3966381673526
 20
118.8314591066164
 30
0.0
 10
219.362128973937
 20
118.846312260361
 30
0.0
 10
219.3310906894327
 20
118.855604309427
 30
0.0
 10
219.3033590723154
 20
118.8611020323711
 30
0.0
 10
219.2719031472003
 20
118.8659460730348
 30
0.0
 10
219.2366194012407
 20
118.8700643153374
 30
0.0
 10
219.1974944875977
 20
118.8732604507986
 30
0.0
 10
219.1544078555907
 20
118.8757995686149
 30
0.0
 10
219.1074620701001
 20
118.8768776163964
 30
0.0
 10
219.0749411151479
 20
118.8770411307068
 30
0.0
 10
219.0580656930466
 20
118.8771259797837
 30
0.0
  0
SPLINE
  5
144
330
1F
100
AcDbEntity
  8
0
  6
Continuous
 62
     7
370
     0
100
AcDbSpline
210
0.0
220
0.0
230
1.0
 70
     8
 71
     3
 72
    15
 73
    11
 74
     0
 42
0.000000001
 43
0.00000001
 40
0.0
 40
0.0
 40
0.0
 40
0.0
 40
0.1323768784386554
 40
0.2551949197670693
 40
0.3737221416536682
 40
0.4900113154474162
 40
0.6078124214239341
 40
0.7311098159015431
 40
0.8599973777575842
 40
1.0
 40
1.0
 40
1.0
 40
1.0
 10
219.3371233963094
 20
118.2692082397851
 30
0.0
 10
219.3528576397383
 20
118.2747199464909
 30
0.0
 10
219.3831899684413
 20
118.2853453636117
 30
0.0
 10
219.423838126165
 20
118.3094767541103
 30
0.0
 10
219.4584585415465
 20
118.3384343049361
 30
0.0
 10
219.4869584394647
 20
118.3727293351836
 30
0.0
 10
219.5088591988212
 20
118.4121783121399
 30
0.0
 10
219.525097979706
 20
118.455963159831
 30
0.0
 10
219.5339890725515
 20
118.5046959498955
 30
0.0
 10
219.5352596112936
 20
118.5384904275324
 30
0.0
 10
219.535921140669
 20
118.5560861441717
 30
0.0
  0
SPLINE
  5
145
330
1F
100
AcDbEntity
  8
0
  6
Continuous
 62
     7
370
     0
100
AcDbSpline
210
0.0
220
0.0
230
1.0
 70
     8
 71
     3
 72
    15
 73
    11
 74
     0
 42
0.000000001
 43
0.00000001
 40
0.0
 40
0.0
 40
0.0
 40
0.0
 40
0.1669801744060311
 40
0.3208066328848162
 40
0.4631345048703153
 40
0.5942480539785179
 40
0.7123671525397409
 40
0.8194549510427486
 40
0.9157522665813508
 40
1.0
 40
1.0
 40
1.0
 40
1.0
 10
219.0901696766078
 20
118.2449244573478
 30
0.0
 10
219.104028489731
 20
118.2449792880488
 30
0.0
 10
219.1306544002001
 20
118.2450846302106
 30
0.0
 10
219.1690616416957
 20
118.2465534142961
 30
0.0
 10
219.2045096846121
 20
118.2478064974196
 30
0.0
 10
219.2368614111815
 20
118.2509516392332
 30
0.0
 10
219.2662770944717
 20
118.2540321659256
 30
0.0
 10
219.2926390164874
 20
118.25817903505
 30
0.0
 10
219.3160762993712
 20
118.2628516159952
 30
0.0
 10
219.3304269516549
 20
118.2671857860699
 30
0.0
 10
219.3371233963094
 20
118.2692082397851
 30
0.0
  0
LINE
  5
146
330
1F
100
AcDbEntity
  8
0
  6
Continuous
 62
     7
370
     0
100
AcDbLine
 10
218.6666440473
 20
118.2449244573
 30
0.0
 11
219.0901696766
 21
118.2449244573
 31
0.0
  0
LINE
  5
147
330
1F
100
AcDbEntity
  8
0
  6
Continuous
 62
     7
370
     0
100
AcDbLine
 10
218.6666440473
 20
118.8771259798
 30
0.0
 11
218.6666440473
 21
118.2449244573
 31
0.0
  0
LINE
  5
148
330
1F
100
AcDbEntity
  8
0
  6
Continuous
 62
     7
370
     0
100
AcDbLine
 10
209.7989475624
 20
115.7161183676
 30
0.0
 11
209.4075259166
 21
115.7161183676
 31
0.0
  0
SPLINE
  5
149
330
1F
100
AcDbEntity
  8
0
  6
Continuous
 62
     7
370
     0
100
AcDbSpline
210
0.0
220
0.0
230
1.0
 70
     8
 71
     3
 72
    23
 73
    19
 74
     0
 42
0.000000001
 43
0.00000001
 40
0.0
 40
0.0
 40
0.0
 40
0.0
 40
0.076010519206233
 40
0.1481357362434485
 40
0.2177881778331538
 40
0.2867678984972342
 40
0.3540434632439184
 40
0.4186108400234793
 40
0.4836364388553449
 40
0.5502295626461514
 40
0.5869278113138151
 40
0.6291578250269663
 40
0.67723822428767
 40
0.7300426397437295
 40
0.7888625661169238
 40
0.853750451461094
 40
0.9241097665384562
 40
1.0
 40
1.0
 40
1.0
 40
1.0
 10
210.2768030099933
 20
115.3950785319922
 30
0.0
 10
210.2762710955863
 20
115.411989154155
 30
0.0
 10
210.2752344557486
 20
115.4449460065823
 30
0.0
 10
210.2665327911702
 20
115.4928050703622
 30
0.0
 10
210.2514748820759
 20
115.5373291409364
 30
0.0
 10
210.2310823496769
 20
115.5785084513123
 30
0.0
 10
210.2052599852967
 20
115.6151433623299
 30
0.0
 10
210.1744400926509
 20
115.6466408104347
 30
0.0
 10
210.1375200366769
 20
115.6704514944369
 30
0.0
 10
210.1030108432613
 20
115.6853046481815
 30
0.0
 10
210.071972558757
 20
115.6945966972475
 30
0.0
 10
210.0442409416397
 20
115.7000944201915
 30
0.0
 10
210.0127850165246
 20
115.7049384608553
 30
0.0
 10
209.977501270565
 20
115.7090567031579
 30
0.0
 10
209.938376356922
 20
115.7122528386191
 30
0.0
 10
209.8952897249149
 20
115.7147919564354
 30
0.0
 10
209.8483439394244
 20
115.7158700042169
 30
0.0
 10
209.8158229844722
 20
115.7160335185273
 30
0.0
 10
209.7989475623709
 20
115.7161183676042
 30
0.0
  0
SPLINE
  5
14A
330
1F
100
AcDbEntity
  8
0
  6
Continuous
 62
     7
370
     0
100
AcDbSpline
210
0.0
220
0.0
230
1.0
 70
     8
 71
     3
 72
    15
 73
    11
 74
     0
 42
0.000000001
 43
0.00000001
 40
0.0
 40
0.0
 40
0.0
 40
0.0
 40
0.1323768784386553
 40
0.2551949197670693
 40
0.3737221416536681
 40
0.4900113154474174
 40
0.6078124214239342
 40
0.7311098159015433
 40
0.8599973777575843
 40
1.0
 40
1.0
 40
1.0
 40
1.0
 10
210.0780052656336
 20
115.1082006276056
 30
0.0
 10
210.0937395090626
 20
115.1137123343114
 30
0.0
 10
210.1240718377655
 20
115.1243377514322
 30
0.0
 10
210.1647199954892
 20
115.1484691419308
 30
0.0
 10
210.1993404108707
 20
115.1774266927566
 30
0.0
 10
210.2278403087889
 20
115.2117217230041
 30
0.0
 10
210.2497410681454
 20
115.2511706999604
 30
0.0
 10
210.2659798490303
 20
115.2949555476515
 30
0.0
 10
210.2748709418757
 20
115.343688337716
 30
0.0
 10
210.2761414806178
 20
115.3774828153529
 30
0.0
 10
210.2768030099933
 20
115.3950785319922
 30
0.0
  0
SPLINE
  5
14B
330
1F
100
AcDbEntity
  8
0
  6
Continuous
 62
     7
370
     0
100
AcDbSpline
210
0.0
220
0.0
230
1.0
 70
     8
 71
     3
 72
    15
 73
    11
 74
     0
 42
0.000000001
 43
0.00000001
 40
0.0
 40
0.0
 40
0.0
 40
0.0
 40
0.1669801744060311
 40
0.3208066328848162
 40
0.4631345048703153
 40
0.5942480539785214
 40
0.712367152539741
 40
0.8194549510427487
 40
0.9157522665813509
 40
1.0
 40
1.0
 40
1.0
 40
1.0
 10
209.8310515459321
 20
115.0839168451683
 30
0.0
 10
209.8449103590553
 20
115.0839716758693
 30
0.0
 10
209.8715362695243
 20
115.0840770180311
 30
0.0
 10
209.90994351102
 20
115.0855458021166
 30
0.0
 10
209.9453915539364
 20
115.0867988852401
 30
0.0
 10
209.9777432805058
 20
115.0899440270537
 30
0.0
 10
210.0071589637959
 20
115.0930245537461
 30
0.0
 10
210.0335208858116
 20
115.0971714228705
 30
0.0
 10
210.0569581686954
 20
115.1018440038157
 30
0.0
 10
210.0713088209791
 20
115.1061781738904
 30
0.0
 10
210.0780052656336
 20
115.1082006276056
 30
0.0
  0
LINE
  5
14C
330
1F
100
AcDbEntity
  8
0
  6
Continuous
 62
     7
370
     0
100
AcDbLine
 10
209.4075259166
 20
115.0839168452
 30
0.0
 11
209.8310515459
 21
115.0839168452
 31
0.0
  0
LINE
  5
14D
330
1F
100
AcDbEntity
  8
0
  6
Continuous
 62
     7
370
     0
100
AcDbLine
 10
209.4075259166
 20
115.7161183676
 30
0.0
 11
209.4075259166
 21
115.0839168452
 31
0.0
  0
LINE
  5
14E
330
1F
100
AcDbEntity
  8
0
  6
Continuous
 62
     7
370
     0
100
AcDbLine
 10
207.9023429951
 20
115.7161183676
 30
0.0
 11
207.5109213493
 21
115.7161183676
 31
0.0
  0
SPLINE
  5
14F
330
1F
100
AcDbEntity
  8
0
  6
Continuous
 62
     7
370
     0
100
AcDbSpline
210
0.0
220
0.0
230
1.0
 70
     8
 71
     3
 72
    23
 73
    19
 74
     0
 42
0.000000001
 43
0.00000001
 40
0.0
 40
0.0
 40
0.0
 40
0.0
 40
0.076010519206233
 40
0.1481357362434485
 40
0.2177881778331538
 40
0.2867678984972342
 40
0.3540434632439184
 40
0.4186108400234793
 40
0.4836364388553449
 40
0.5502295626461514
 40
0.5869278113138151
 40
0.6291578250269663
 40
0.67723822428767
 40
0.7300426397437295
 40
0.7888625661169238
 40
0.853750451461094
 40
0.9241097665384562
 40
1.0
 40
1.0
 40
1.0
 40
1.0
 10
208.3801984426856
 20
115.3950785319922
 30
0.0
 10
208.3796665282787
 20
115.411989154155
 30
0.0
 10
208.3786298884409
 20
115.4449460065823
 30
0.0
 10
208.3699282238625
 20
115.4928050703622
 30
0.0
 10
208.3548703147682
 20
115.5373291409364
 30
0.0
 10
208.3344777823692
 20
115.5785084513123
 30
0.0
 10
208.3086554179889
 20
115.6151433623299
 30
0.0
 10
208.2778355253432
 20
115.6466408104347
 30
0.0
 10
208.2409154693692
 20
115.6704514944369
 30
0.0
 10
208.2064062759536
 20
115.6853046481815
 30
0.0
 10
208.1753679914493
 20
115.6945966972475
 30
0.0
 10
208.147636374332
 20
115.7000944201915
 30
0.0
 10
208.1161804492169
 20
115.7049384608553
 30
0.0
 10
208.0808967032573
 20
115.7090567031579
 30
0.0
 10
208.0417717896143
 20
115.7122528386191
 30
0.0
 10
207.9986851576072
 20
115.7147919564354
 30
0.0
 10
207.9517393721167
 20
115.7158700042169
 30
0.0
 10
207.9192184171645
 20
115.7160335185273
 30
0.0
 10
207.9023429950632
 20
115.7161183676042
 30
0.0
  0
SPLINE
  5
150
330
1F
100
AcDbEntity
  8
0
  6
Continuous
 62
     7
370
     0
100
AcDbSpline
210
0.0
220
0.0
230
1.0
 70
     8
 71
     3
 72
    15
 73
    11
 74
     0
 42
0.000000001
 43
0.00000001
 40
0.0
 40
0.0
 40
0.0
 40
0.0
 40
0.1323768784386553
 40
0.2551949197670693
 40
0.3737221416536681
 40
0.4900113154474174
 40
0.6078124214239342
 40
0.7311098159015433
 40
0.8599973777575843
 40
1.0
 40
1.0
 40
1.0
 40
1.0
 10
208.1814006983259
 20
115.1082006276056
 30
0.0
 10
208.1971349417549
 20
115.1137123343114
 30
0.0
 10
208.2274672704578
 20
115.1243377514322
 30
0.0
 10
208.2681154281815
 20
115.1484691419308
 30
0.0
 10
208.302735843563
 20
115.1774266927566
 30
0.0
 10
208.3312357414813
 20
115.2117217230041
 30
0.0
 10
208.3531365008377
 20
115.2511706999604
 30
0.0
 10
208.3693752817226
 20
115.2949555476515
 30
0.0
 10
208.378266374568
 20
115.343688337716
 30
0.0
 10
208.3795369133101
 20
115.3774828153529
 30
0.0
 10
208.3801984426856
 20
115.3950785319922
 30
0.0
  0
SPLINE
  5
151
330
1F
100
AcDbEntity
  8
0
  6
Continuous
 62
     7
370
     0
100
AcDbSpline
210
0.0
220
0.0
230
1.0
 70
     8
 71
     3
 72
    15
 73
    11
 74
     0
 42
0.000000001
 43
0.00000001
 40
0.0
 40
0.0
 40
0.0
 40
0.0
 40
0.1669801744060311
 40
0.3208066328848162
 40
0.4631345048703153
 40
0.5942480539785214
 40
0.712367152539741
 40
0.8194549510427487
 40
0.9157522665813509
 40
1.0
 40
1.0
 40
1.0
 40
1.0
 10
207.9344469786244
 20
115.0839168451683
 30
0.0
 10
207.9483057917476
 20
115.0839716758693
 30
0.0
 10
207.9749317022167
 20
115.0840770180311
 30
0.0
 10
208.0133389437123
 20
115.0855458021166
 30
0.0
 10
208.0487869866287
 20
115.0867988852401
 30
0.0
 10
208.0811387131981
 20
115.0899440270537
 30
0.0
 10
208.1105543964882
 20
115.0930245537461
 30
0.0
 10
208.1369163185039
 20
115.0971714228705
 30
0.0
 10
208.1603536013877
 20
115.1018440038157
 30
0.0
 10
208.1747042536714
 20
115.1061781738904
 30
0.0
 10
208.1814006983259
 20
115.1082006276056
 30
0.0
  0
LINE
  5
152
330
1F
100
AcDbEntity
  8
0
  6
Continuous
 62
     7
370
     0
100
AcDbLine
 10
207.5109213493
 20
115.0839168452
 30
0.0
 11
207.9344469786
 21
115.0839168452
 31
0.0
  0
LINE
  5
153
330
1F
100
AcDbEntity
  8
0
  6
Continuous
 62
     7
370
     0
100
AcDbLine
 10
207.5109213493
 20
115.7161183676
 30
0.0
 11
207.5109213493
 21
115.0839168452
 31
0.0
  0
SPLINE
  5
154
330
1F
100
AcDbEntity
  8
0
  6
Continuous
 62
     7
370
     0
100
AcDbSpline
210
0.0
220
0.0
230
1.0
 70
     8
 71
     3
 72
    17
 73
    13
 74
     0
 42
0.000000001
 43
0.00000001
 40
0.0
 40
0.0
 40
0.0
 40
0.0
 40
0.1241996726524874
 40
0.2368296581100273
 40
0.3394949853062825
 40
0.4312535100312252
 40
0.511454872119419
 40
0.5812230366234585
 40
0.6404953748643708
 40
0.6883082049320189
 40
0.8503329734146893
 40
1.0
 40
1.0
 40
1.0
 40
1.0
 10
220.7702781496438
 20
114.543088199022
 30
0.0
 10
220.7522816944585
 20
114.5284371660696
 30
0.0
 10
220.7179652245541
 20
114.5004999014136
 30
0.0
 10
220.6691433980791
 20
114.4599985004211
 30
0.0
 10
220.6254138910759
 20
114.4228598129008
 30
0.0
 10
220.5857540959084
 20
114.3902952327716
 30
0.0
 10
220.5516083962827
 20
114.360729651888
 30
0.0
 10
220.5217740581425
 20
114.3354579136158
 30
0.0
 10
220.4973349791582
 20
114.3132093643009
 30
0.0
 10
220.4601185885198
 20
114.2794133689676
 30
0.0
 10
220.4129808544627
 20
114.2312405934343
 30
0.0
 10
220.378247755845
 20
114.1844324532401
 30
0.0
 10
220.3615697435378
 20
114.161956291616
 30
0.0
  0
SPLINE
  5
155
330
1F
100
AcDbEntity
  8
0
  6
Continuous
 62
     7
370
     0
100
AcDbSpline
210
0.0
220
0.0
230
1.0
 70
     8
 71
     3
 72
    23
 73
    19
 74
     0
 42
0.000000001
 43
0.00000001
 40
0.0
 40
0.0
 40
0.0
 40
0.0
 40
0.0579448754623256
 40
0.1160176254256827
 40
0.1748257843638405
 40
0.2346830900793708
 40
0.2968270303289144
 40
0.3640613359637881
 40
0.4361924240497392
 40
0.5142601195414407
 40
0.5569758971654885
 40
0.6048559283836541
 40
0.6576752010734876
 40
0.7157505846619328
 40
0.778839799166456
 40
0.8475011894738634
 40
0.9212282309463241
 40
1.0
 40
1.0
 40
1.0
 40
1.0
 10
221.3403296526215
 20
115.3860235622699
 30
0.0
 10
221.3397633391225
 20
115.3656911073164
 30
0.0
 10
221.3386294623668
 20
115.3249813271338
 30
0.0
 10
221.3297794032605
 20
115.2641322117029
 30
0.0
 10
221.3146368533171
 20
115.203943444536
 30
0.0
 10
221.2945618736078
 20
115.1436824923368
 30
0.0
 10
221.2671352730989
 20
115.0831101819083
 30
0.0
 10
221.2324864205994
 20
115.0213909166529
 30
0.0
 10
221.1895007330419
 20
114.9582967108789
 30
0.0
 10
221.1481605536079
 20
114.9046596261937
 30
0.0
 10
221.1096795560651
 20
114.8596982234656
 30
0.0
 10
221.0755697884189
 20
114.8226923620671
 30
0.0
 10
221.0361067613401
 20
114.7833761089566
 30
0.0
 10
220.9927708807422
 20
114.7403878513901
 30
0.0
 10
220.9437947010195
 20
114.6952533325049
 30
0.0
 10
220.8905854217482
 20
114.6466209729911
 30
0.0
 10
220.8319782666085
 20
114.5957705915937
 30
0.0
 10
220.7912934788438
 20
114.5610320519254
 30
0.0
 10
220.7702781496438
 20
114.543088199022
 30
0.0
  0
SPLINE
  5
156
330
1F
100
AcDbEntity
  8
0
  6
Continuous
 62
     7
370
     0
100
AcDbSpline
210
0.0
220
0.0
230
1.0
 70
     8
 71
     3
 72
    23
 73
    19
 74
     0
 42
0.000000001
 43
0.00000001
 40
0.0
 40
0.0
 40
0.0
 40
0.0
 40
0.074711890304501
 40
0.1455392023749081
 40
0.2133390572509726
 40
0.2786150735384706
 40
0.3420941969414986
 40
0.4038900759591956
 40
0.4650633525655207
 40
0.5265767363834865
 40
0.5873283340287676
 40
0.6463804557031435
 40
0.704345308375326
 40
0.7616719489990785
 40
0.8194178590468651
 40
0.8780393997816819
 40
0.9377955090070549
 40
1.0
 40
1.0
 40
1.0
 40
1.0
 10
220.7081281301856
 20
115.9531939385177
 30
0.0
 10
220.7318872342138
 20
115.9527870908061
 30
0.0
 10
220.7781701088046
 20
115.9519945490676
 30
0.0
 10
220.8456116963002
 20
115.9438852558006
 30
0.0
 10
220.9092446980274
 20
115.931255105432
 30
0.0
 10
220.969302390831
 20
115.9136525426975
 30
0.0
 10
221.0254299455126
 20
115.8905703338713
 30
0.0
 10
221.0776705370935
 20
115.8623690867027
 30
0.0
 10
221.1262650360854
 20
115.8293238963617
 30
0.0
 10
221.1704015280417
 20
115.7910380767438
 30
0.0
 10
221.2102005566488
 20
115.7492426912562
 30
0.0
 10
221.2450785366878
 20
115.7046380049986
 30
0.0
 10
221.2742382069384
 20
115.6574145700252
 30
0.0
 10
221.2990658557967
 20
115.6082160744895
 30
0.0
 10
221.3174814392594
 20
115.5560029861538
 30
0.0
 10
221.3304316168695
 20
115.5014851519583
 30
0.0
 10
221.3392316381618
 20
115.444615984798
 30
0.0
 10
221.3399587819526
 20
115.4058140219897
 30
0.0
 10
221.3403296526215
 20
115.3860235622699
 30
0.0
  0
SPLINE
  5
157
330
1F
100
AcDbEntity
  8
0
  6
Continuous
 62
     7
370
     0
100
AcDbSpline
210
0.0
220
0.0
230
1.0
 70
     8
 71
     3
 72
    23
 73
    19
 74
     0
 42
0.000000001
 43
0.00000001
 40
0.0
 40
0.0
 40
0.0
 40
0.0
 40
0.0706752902033301
 40
0.137492693844125
 40
0.2014728253723049
 40
0.2628693217722903
 40
0.3225500865261559
 40
0.3807372513385548
 40
0.4382197368560122
 40
0.4954874370602859
 40
0.5534836796953475
 40
0.611346206229429
 40
0.6706437388141553
 40
0.7315869484227135
 40
0.7941831937999377
 40
0.8594451119347493
 40
0.9282076353998099
 40
1.0
 40
1.0
 40
1.0
 40
1.0
 10
220.0495848776482
 20
115.3736758762848
 30
0.0
 10
220.0522800108515
 20
115.3966333377163
 30
0.0
 10
220.0575231605199
 20
115.4412951029097
 30
0.0
 10
220.0705831310433
 20
115.5059801470591
 30
0.0
 10
220.0889181477742
 20
115.5661557798847
 30
0.0
 10
220.110857542729
 20
115.6226609761618
 30
0.0
 10
220.1383606414381
 20
115.6745338472859
 30
0.0
 10
220.1694505271541
 20
115.7228473253795
 30
0.0
 10
220.2061196130213
 20
115.7660691094946
 30
0.0
 10
220.2466292241003
 20
115.8055616122225
 30
0.0
 10
220.2914231876155
 20
115.8403648986863
 30
0.0
 10
220.3400807335759
 20
115.8707704013293
 30
0.0
 10
220.392579604467
 20
115.896202727
 30
0.0
 10
220.4486274000016
 20
115.917259632336
 30
0.0
 10
220.5083527922258
 20
115.9332360363699
 30
0.0
 10
220.5716712893022
 20
115.944692625527
 30
0.0
 10
220.638684718719
 20
115.9517545980684
 30
0.0
 10
220.6846500458096
 20
115.9527073127054
 30
0.0
 10
220.7081281301856
 20
115.9531939385177
 30
0.0
  0
LINE
  5
158
330
1F
100
AcDbEntity
  8
0
  6
Continuous
 62
     7
370
     0
100
AcDbLine
 10
220.3130021787
 20
115.3473341462
 30
0.0
 11
220.0495848776
 21
115.3736758763
 31
0.0
  0
SPLINE
  5
159
330
1F
100
AcDbEntity
  8
0
  6
Continuous
 62
     7
370
     0
100
AcDbSpline
210
0.0
220
0.0
230
1.0
 70
     8
 71
     3
 72
    23
 73
    19
 74
     0
 42
0.000000001
 43
0.00000001
 40
0.0
 40
0.0
 40
0.0
 40
0.0
 40
0.0706964833433759
 40
0.1383582132030687
 40
0.2033698682591703
 40
0.2657002133402297
 40
0.3272558681973761
 40
0.3865123433292949
 40
0.4458582974819493
 40
0.5051731438069389
 40
0.5637797628070206
 40
0.62234306429344
 40
0.6808235796100194
 40
0.7397951568104396
 40
0.8008011629883834
 40
0.864239461576908
 40
0.9306310981734531
 40
0.9999999999999999
 40
0.9999999999999999
 40
0.9999999999999999
 40
0.9999999999999999
 10
220.7023658767259
 20
115.7161183676042
 30
0.0
 10
220.6880839568679
 20
115.7157903723728
 30
0.0
 10
220.6601331901648
 20
115.7151484616015
 30
0.0
 10
220.6192766544416
 20
115.7104758804831
 30
0.0
 10
220.5804904558438
 20
115.7033368081085
 30
0.0
 10
220.5438671708932
 20
115.6924217773866
 30
0.0
 10
220.5094513748164
 20
115.6786715190515
 30
0.0
 10
220.4773832355502
 20
115.6613636058401
 30
0.0
 10
220.447149208711
 20
115.6418261023025
 30
0.0
 10
220.4197014800919
 20
115.6186951719422
 30
0.0
 10
220.3948808590882
 20
115.5930476885265
 30
0.0
 10
220.3728459259284
 20
115.5651253371426
 30
0.0
 10
220.3547916089895
 20
115.5343892747905
 30
0.0
 10
220.3398816099007
 20
115.5015153182949
 30
0.0
 10
220.3278927223657
 20
115.4664001244674
 30
0.0
 10
220.319189197725
 20
115.4287752447063
 30
0.0
 10
220.3144439777643
 20
115.3887493155042
 30
0.0
 10
220.3134897538263
 20
115.3613395703255
 30
0.0
 10
220.3130021786632
 20
115.3473341461833
 30
0.0
  0
SPLINE
  5
15A
330
1F
100
AcDbEntity
  8
0
  6
Continuous
 62
     7
370
     0
100
AcDbSpline
210
0.0
220
0.0
230
1.0
 70
     8
 71
     3
 72
    23
 73
    19
 74
     0
 42
0.000000001
 43
0.00000001
 40
0.0
 40
0.0
 40
0.0
 40
0.0
 40
0.0617621567680711
 40
0.1211739926536296
 40
0.1794214068253157
 40
0.2368434346502756
 40
0.2943217954133984
 40
0.3531909627945249
 40
0.4127207064163252
 40
0.4745221507037179
 40
0.5370567441421368
 40
0.599591337580556
 40
0.6623669793543063
 40
0.7252456446794933
 40
0.7903164461250803
 40
0.8577243009540934
 40
0.927231952378494
 40
1.0
 40
1.0
 40
1.0
 40
1.0
 10
221.0769123516066
 20
115.3835540250728
 30
0.0
 10
221.0766263435677
 20
115.3951013197153
 30
0.0
 10
221.0760652113498
 20
115.4177564838058
 30
0.0
 10
221.070741216634
 20
115.450912174816
 30
0.0
 10
221.0633297890521
 20
115.482841897408
 30
0.0
 10
221.0513477663788
 20
115.5129708468187
 30
0.0
 10
221.0370855522928
 20
115.5421912580911
 30
0.0
 10
221.0187908203031
 20
115.5695798036094
 30
0.0
 10
220.99762757626
 20
115.5958190757615
 30
0.0
 10
220.9733974529705
 20
115.6202172686825
 30
0.0
 10
220.9469324840685
 20
115.6431066688487
 30
0.0
 10
220.9173616527728
 20
115.66213332081
 30
0.0
 10
220.8866271631651
 20
115.6792629767486
 30
0.0
 10
220.853668701187
 20
115.6930362026866
 30
0.0
 10
220.8185398226249
 20
115.7031501281999
 30
0.0
 10
220.7814962492292
 20
115.7104902334496
 30
0.0
 10
220.7425438591036
 20
115.7151442535347
 30
0.0
 10
220.7159615909948
 20
115.7157887398885
 30
0.0
 10
220.7023658767259
 20
115.7161183676042
 30
0.0
  0
SPLINE
  5
15B
330
1F
100
AcDbEntity
  8
0
  6
Continuous
 62
     7
370
     0
100
AcDbSpline
210
0.0
220
0.0
230
1.0
 70
     8
 71
     3
 72
    23
 73
    19
 74
     0
 42
0.000000001
 43
0.00000001
 40
0.0
 40
0.0
 40
0.0
 40
0.0
 40
0.111409660042661
 40
0.2145263672558013
 40
0.3094172254458346
 40
0.3960871907990313
 40
0.4742842164262466
 40
0.5443738816396981
 40
0.6064195628105365
 40
0.660581602374974
 40
0.709793818064758
 40
0.7564506485918285
 40
0.8007673253039324
 40
0.8431682879413348
 40
0.8842948685500488
 40
0.9238845020552847
 40
0.962358710139216
 40
1.0
 40
1.0
 40
1.0
 40
1.0
 10
220.5245591985408
 20
114.6669766484056
 30
0.0
 10
220.5509966612852
 20
114.6892286316146
 30
0.0
 10
220.6019036727585
 20
114.7320762367526
 30
0.0
 10
220.6737923503185
 20
114.7956581116353
 30
0.0
 10
220.7394509556825
 20
114.8546974838603
 30
0.0
 10
220.797833950052
 20
114.9102291391543
 30
0.0
 10
220.849418845065
 20
114.9617144563613
 30
0.0
 10
220.8943267629585
 20
115.0090367887436
 30
0.0
 10
220.9329441053197
 20
115.0520484529247
 30
0.0
 10
220.9647994300936
 20
115.0923062888894
 30
0.0
 10
220.9916767450589
 20
115.1303208838332
 30
0.0
 10
221.0144528956247
 20
115.1674017736496
 30
0.0
 10
221.0334337951676
 20
115.2041966802746
 30
0.0
 10
221.0492423447938
 20
115.2405891745242
 30
0.0
 10
221.0617455643242
 20
115.2767348869575
 30
0.0
 10
221.070268287047
 20
115.3127391265325
 30
0.0
 10
221.076048102745
 20
115.3482446436787
 30
0.0
 10
221.0766263779734
 20
115.3718704087762
 30
0.0
 10
221.0769123516066
 20
115.3835540250728
 30
0.0
  0
SPLINE
  5
15C
330
1F
100
AcDbEntity
  8
0
  6
Continuous
 62
     7
370
     0
100
AcDbSpline
210
0.0
220
0.0
230
1.0
 70
     8
 71
     3
 72
    19
 73
    15
 74
     0
 42
0.000000001
 43
0.00000001
 40
0.0
 40
0.0
 40
0.0
 40
0.0
 40
0.1003881431397114
 40
0.204406793037309
 40
0.3106860830942075
 40
0.4221572938827998
 40
0.4806854607703741
 40
0.5432381544526687
 40
0.6094995045645647
 40
0.6795546087742244
 40
0.7538412220511754
 40
0.8316406764893863
 40
0.9138127068095903
 40
0.9999999999999999
 40
0.9999999999999999
 40
0.9999999999999999
 40
0.9999999999999999
 10
220.0508196462467
 20
114.0812847431801
 30
0.0
 10
220.0595366755572
 20
114.10535678075
 30
0.0
 10
220.0772859829002
 20
114.1543714138295
 30
0.0
 10
220.1132462654984
 20
114.225092684489
 30
0.0
 10
220.1555440558072
 20
114.2953862468969
 30
0.0
 10
220.196726908602
 20
114.3526151311204
 30
0.0
 10
220.2344415087553
 20
114.3983370087096
 30
0.0
 10
220.2660701170129
 20
114.4341090864491
 30
0.0
 10
220.3011204129321
 20
114.4707260234921
 30
0.0
 10
220.3395643268112
 20
114.5081811311766
 30
0.0
 10
220.3810318590267
 20
114.5467169910626
 30
0.0
 10
220.4255795918255
 20
114.5864621187855
 30
0.0
 10
220.473733563951
 20
114.6266758203793
 30
0.0
 10
220.5073500761932
 20
114.6533311349592
 30
0.0
 10
220.5245591985408
 20
114.6669766484056
 30
0.0
  0
SPLINE
  5
15D
330
1F
100
AcDbEntity
  8
0
  6
Continuous
 62
     7
370
     0
100
AcDbSpline
210
0.0
220
0.0
230
1.0
 70
     8
 71
     3
 72
    11
 73
     7
 74
     0
 42
0.000000001
 43
0.00000001
 40
0.0
 40
0.0
 40
0.0
 40
0.0
 40
0.2526433275832379
 40
0.5044398525799894
 40
0.7504068042814568
 40
1.0
 40
1.0
 40
1.0
 40
1.0
 10
220.0232431475467
 20
113.898538990601
 30
0.0
 10
220.0232156440426
 20
113.914194621349
 30
0.0
 10
220.0231607292199
 20
113.9454534087552
 30
0.0
 10
220.0284502195735
 20
113.9916831724192
 30
0.0
 10
220.0367346204794
 20
114.0372996594005
 30
0.0
 10
220.0461017896801
 20
114.0665516983303
 30
0.0
 10
220.0508196462467
 20
114.0812847431801
 30
0.0
  0
LINE
  5
15E
330
1F
100
AcDbEntity
  8
0
  6
Continuous
 62
     7
370
     0
100
AcDbLine
 10
221.3666713827
 20
113.8985389906
 30
0.0
 11
220.0232431475
 21
113.8985389906
 31
0.0
  0
LINE
  5
15F
330
1F
100
AcDbEntity
  8
0
  6
Continuous
 62
     7
370
     0
100
AcDbLine
 10
221.3666713827
 20
114.1619562916
 30
0.0
 11
221.3666713827
 21
113.8985389906
 31
0.0
  0
LINE
  5
160
330
1F
100
AcDbEntity
  8
0
  6
Continuous
 62
     7
370
     0
100
AcDbLine
 10
220.3615697435
 20
114.1619562916
 30
0.0
 11
221.3666713827
 21
114.1619562916
 31
0.0
  0
LINE
  5
161
330
1F
100
AcDbEntity
  8
0
  6
Continuous
 62
     7
370
     0
100
AcDbLine
 10
218.2056637705
 20
114.1356145615
 30
0.0
 11
218.2056637705
 21
113.8985389906
 31
0.0
  0
LINE
  5
162
330
1F
100
AcDbEntity
  8
0
  6
Continuous
 62
     7
370
     0
100
AcDbLine
 10
216.9939441859
 20
114.1356145615
 30
0.0
 11
218.2056637705
 21
114.1356145615
 31
0.0
  0
LINE
  5
163
330
1F
100
AcDbEntity
  8
0
  6
Continuous
 62
     7
370
     0
100
AcDbLine
 10
216.9939441859
 20
114.8468412743
 30
0.0
 11
216.9939441859
 21
114.1356145615
 31
0.0
  0
LINE
  5
164
330
1F
100
AcDbEntity
  8
0
  6
Continuous
 62
     7
370
     0
100
AcDbLine
 10
218.07395512
 20
114.8468412743
 30
0.0
 11
216.9939441859
 21
114.8468412743
 31
0.0
  0
LINE
  5
165
330
1F
100
AcDbEntity
  8
0
  6
Continuous
 62
     7
370
     0
100
AcDbLine
 10
218.07395512
 20
115.0839168452
 30
0.0
 11
218.07395512
 21
114.8468412743
 31
0.0
  0
LINE
  5
166
330
1F
100
AcDbEntity
  8
0
  6
Continuous
 62
     7
370
     0
100
AcDbLine
 10
216.9939441859
 20
115.0839168452
 30
0.0
 11
218.07395512
 21
115.0839168452
 31
0.0
  0
LINE
  5
167
330
1F
100
AcDbEntity
  8
0
  6
Continuous
 62
     7
370
     0
100
AcDbLine
 10
216.9939441859
 20
115.7161183676
 30
0.0
 11
216.9939441859
 21
115.0839168452
 31
0.0
  0
LINE
  5
168
330
1F
100
AcDbEntity
  8
0
  6
Continuous
 62
     7
370
     0
100
AcDbLine
 10
218.1529803103
 20
115.7161183676
 30
0.0
 11
216.9939441859
 21
115.7161183676
 31
0.0
  0
LINE
  5
169
330
1F
100
AcDbEntity
  8
0
  6
Continuous
 62
     7
370
     0
100
AcDbLine
 10
218.1529803103
 20
115.9531939385
 30
0.0
 11
218.1529803103
 21
115.7161183676
 31
0.0
  0
LINE
  5
16A
330
1F
100
AcDbEntity
  8
0
  6
Continuous
 62
     7
370
     0
100
AcDbLine
 10
216.7041851548
 20
115.9531939385
 30
0.0
 11
218.1529803103
 21
115.9531939385
 31
0.0
  0
LINE
  5
16B
330
1F
100
AcDbEntity
  8
0
  6
Continuous
 62
     7
370
     0
100
AcDbLine
 10
216.7041851548
 20
113.8985389906
 30
0.0
 11
216.7041851548
 21
115.9531939385
 31
0.0
  0
LINE
  5
16C
330
1F
100
AcDbEntity
  8
0
  6
Continuous
 62
     7
370
     0
100
AcDbLine
 10
218.2056637705
 20
113.8985389906
 30
0.0
 11
216.7041851548
 21
113.8985389906
 31
0.0
  0
LINE
  5
16D
330
1F
100
AcDbEntity
  8
0
  6
Continuous
 62
     7
370
     0
100
AcDbLine
 10
214.8223978106
 20
115.9531939385
 30
0.0
 11
214.9919726982
 21
115.9531939385
 31
0.0
  0
SPLINE
  5
16E
330
1F
100
AcDbEntity
  8
0
  6
Continuous
 62
     7
370
     0
100
AcDbSpline
210
0.0
220
0.0
230
1.0
 70
     8
 71
     3
 72
    15
 73
    11
 74
     0
 42
0.000000001
 43
0.00000001
 40
0.0
 40
0.0
 40
0.0
 40
0.0
 40
0.1426572507006138
 40
0.2811689939054436
 40
0.416977192367974
 40
0.5508524927475579
 40
0.678364170261812
 40
0.7950324430070947
 40
0.9019981783473519
 40
1.0
 40
1.0
 40
1.0
 40
1.0
 10
214.2544042553192
 20
115.4395302015385
 30
0.0
 10
214.2873206512384
 20
115.456482211337
 30
0.0
 10
214.3521969185023
 20
115.4898936188631
 30
0.0
 10
214.4438530553639
 20
115.5475997127307
 30
0.0
 10
214.5294239186935
 20
115.6101554939978
 30
0.0
 10
214.6074929719254
 20
115.6775471127978
 30
0.0
 10
214.677476903485
 20
115.7464334448211
 30
0.0
 10
214.7364533789004
 20
115.8159424596516
 30
0.0
 10
214.7858011406202
 20
115.8835262570656
 30
0.0
 10
214.8105598475234
 20
115.9306584607637
 30
0.0
 10
214.8223978106327
 20
115.9531939385177
 30
0.0
  0
LINE
  5
16F
330
1F
100
AcDbEntity
  8
0
  6
Continuous
 62
     7
370
     0
100
AcDbLine
 10
214.2544042553
 20
115.1966923772
 30
0.0
 11
214.2544042553
 21
115.4395302015
 31
0.0
  0
SPLINE
  5
170
330
1F
100
AcDbEntity
  8
0
  6
Continuous
 62
     7
370
     0
100
AcDbSpline
210
0.0
220
0.0
230
1.0
 70
     8
 71
     3
 72
    15
 73
    11
 74
     0
 42
0.000000001
 43
0.00000001
 40
0.0
 40
0.0
 40
0.0
 40
0.0
 40
0.1116703001015866
 40
0.232094480856018
 40
0.3627434591045532
 40
0.5025575097108851
 40
0.6415251033312813
 40
0.7710984952996682
 40
0.8901617573732524
 40
1.0
 40
1.0
 40
1.0
 40
1.0
 10
214.7285553971461
 20
115.4996222733326
 30
0.0
 10
214.7133878056479
 20
115.4849949974326
 30
0.0
 10
214.6818636289293
 20
115.454593807472
 30
0.0
 10
214.6285753384462
 20
115.4115685322135
 30
0.0
 10
214.5690987960931
 20
115.3679605919642
 30
0.0
 10
214.5042063426176
 20
115.3260266822655
 30
0.0
 10
214.4380594640197
 20
115.2865504284892
 30
0.0
 10
214.3741370220318
 20
115.2510476073394
 30
0.0
 10
214.3135062290479
 20
115.2210036066551
 30
0.0
 10
214.2735683982382
 20
115.2045754282225
 30
0.0
 10
214.2544042553192
 20
115.1966923771654
 30
0.0
  0
LINE
  5
171
330
1F
100
AcDbEntity
  8
0
  6
Continuous
 62
     7
370
     0
100
AcDbLine
 10
214.7285553971
 20
113.8985389906
 30
0.0
 11
214.7285553971
 21
115.4996222733
 31
0.0
  0
LINE
  5
172
330
1F
100
AcDbEntity
  8
0
  6
Continuous
 62
     7
370
     0
100
AcDbLine
 10
214.9919726982
 20
113.8985389906
 30
0.0
 11
214.7285553971
 21
113.8985389906
 31
0.0
  0
LINE
  5
173
330
1F
100
AcDbEntity
  8
0
  6
Continuous
 62
     7
370
     0
100
AcDbLine
 10
214.9919726982
 20
115.9531939385
 30
0.0
 11
214.9919726982
 21
113.8985389906
 31
0.0
  0
SPLINE
  5
174
330
1F
100
AcDbEntity
  8
0
  6
Continuous
 62
     7
370
     0
100
AcDbSpline
210
0.0
220
0.0
230
1.0
 70
     8
 71
     3
 72
    17
 73
    13
 74
     0
 42
0.000000001
 43
0.00000001
 40
0.0
 40
0.0
 40
0.0
 40
0.0
 40
0.1241996726524868
 40
0.2368296581100267
 40
0.3394949853062824
 40
0.4312535100312245
 40
0.5114548721194183
 40
0.581223036623458
 40
0.6404953748643702
 40
0.6883082049320183
 40
0.8503329734146882
 40
1.0
 40
1.0
 40
1.0
 40
1.0
 10
211.6033560743233
 20
114.543088199022
 30
0.0
 10
211.585359619138
 20
114.5284371660696
 30
0.0
 10
211.5510431492335
 20
114.5004999014136
 30
0.0
 10
211.5022213227586
 20
114.4599985004211
 30
0.0
 10
211.4584918157553
 20
114.4228598129008
 30
0.0
 10
211.4188320205879
 20
114.3902952327716
 30
0.0
 10
211.3846863209622
 20
114.360729651888
 30
0.0
 10
211.3548519828221
 20
114.3354579136158
 30
0.0
 10
211.3304129038377
 20
114.3132093643009
 30
0.0
 10
211.2931965131993
 20
114.2794133689676
 30
0.0
 10
211.2460587791422
 20
114.2312405934343
 30
0.0
 10
211.2113256805245
 20
114.1844324532401
 30
0.0
 10
211.1946476682173
 20
114.161956291616
 30
0.0
  0
SPLINE
  5
175
330
1F
100
AcDbEntity
  8
0
  6
Continuous
 62
     7
370
     0
100
AcDbSpline
210
0.0
220
0.0
230
1.0
 70
     8
 71
     3
 72
    23
 73
    19
 74
     0
 42
0.000000001
 43
0.00000001
 40
0.0
 40
0.0
 40
0.0
 40
0.0
 40
0.0579448754623256
 40
0.1160176254256827
 40
0.1748257843638405
 40
0.2346830900793709
 40
0.2968270303289143
 40
0.364061335963788
 40
0.436192424049739
 40
0.5142601195414407
 40
0.5569758971654882
 40
0.6048559283836539
 40
0.6576752010734875
 40
0.7157505846619325
 40
0.7788397991664557
 40
0.8475011894738632
 40
0.9212282309463236
 40
1.0
 40
1.0
 40
1.0
 40
1.0
 10
212.173407577301
 20
115.3860235622699
 30
0.0
 10
212.172841263802
 20
115.3656911073164
 30
0.0
 10
212.1717073870463
 20
115.3249813271338
 30
0.0
 10
212.16285732794
 20
115.2641322117029
 30
0.0
 10
212.1477147779966
 20
115.203943444536
 30
0.0
 10
212.1276397982873
 20
115.1436824923368
 30
0.0
 10
212.1002131977784
 20
115.0831101819083
 30
0.0
 10
212.0655643452789
 20
115.0213909166529
 30
0.0
 10
212.0225786577213
 20
114.9582967108789
 30
0.0
 10
211.9812384782874
 20
114.9046596261937
 30
0.0
 10
211.9427574807445
 20
114.8596982234656
 30
0.0
 10
211.9086477130984
 20
114.8226923620671
 30
0.0
 10
211.8691846860195
 20
114.7833761089566
 30
0.0
 10
211.8258488054217
 20
114.7403878513901
 30
0.0
 10
211.776872625699
 20
114.6952533325049
 30
0.0
 10
211.7236633464277
 20
114.6466209729911
 30
0.0
 10
211.665056191288
 20
114.5957705915937
 30
0.0
 10
211.6243714035232
 20
114.5610320519254
 30
0.0
 10
211.6033560743233
 20
114.543088199022
 30
0.0
  0
SPLINE
  5
176
330
1F
100
AcDbEntity
  8
0
  6
Continuous
 62
     7
370
     0
100
AcDbSpline
210
0.0
220
0.0
230
1.0
 70
     8
 71
     3
 72
    23
 73
    19
 74
     0
 42
0.000000001
 43
0.00000001
 40
0.0
 40
0.0
 40
0.0
 40
0.0
 40
0.074711890304501
 40
0.1455392023749085
 40
0.2133390572509726
 40
0.2786150735384705
 40
0.3420941969414981
 40
0.4038900759591955
 40
0.4650633525655206
 40
0.526576736383486
 40
0.5873283340287675
 40
0.6463804557031434
 40
0.7043453083753259
 40
0.7616719489990784
 40
0.8194178590468649
 40
0.8780393997816817
 40
0.9377955090070548
 40
1.0
 40
1.0
 40
1.0
 40
1.0
 10
211.5412060548651
 20
115.9531939385177
 30
0.0
 10
211.5649651588933
 20
115.9527870908061
 30
0.0
 10
211.6112480334841
 20
115.9519945490676
 30
0.0
 10
211.6786896209797
 20
115.9438852558006
 30
0.0
 10
211.7423226227069
 20
115.931255105432
 30
0.0
 10
211.8023803155105
 20
115.9136525426975
 30
0.0
 10
211.8585078701921
 20
115.8905703338713
 30
0.0
 10
211.9107484617729
 20
115.8623690867027
 30
0.0
 10
211.9593429607649
 20
115.8293238963617
 30
0.0
 10
212.0034794527211
 20
115.7910380767438
 30
0.0
 10
212.0432784813283
 20
115.7492426912562
 30
0.0
 10
212.0781564613673
 20
115.7046380049986
 30
0.0
 10
212.1073161316179
 20
115.6574145700252
 30
0.0
 10
212.1321437804762
 20
115.6082160744895
 30
0.0
 10
212.1505593639389
 20
115.5560029861538
 30
0.0
 10
212.163509541549
 20
115.5014851519583
 30
0.0
 10
212.1723095628412
 20
115.444615984798
 30
0.0
 10
212.1730367066321
 20
115.4058140219897
 30
0.0
 10
212.173407577301
 20
115.3860235622699
 30
0.0
  0
SPLINE
  5
177
330
1F
100
AcDbEntity
  8
0
  6
Continuous
 62
     7
370
     0
100
AcDbSpline
210
0.0
220
0.0
230
1.0
 70
     8
 71
     3
 72
    23
 73
    19
 74
     0
 42
0.000000001
 43
0.00000001
 40
0.0
 40
0.0
 40
0.0
 40
0.0
 40
0.0706752902033302
 40
0.1374926938441251
 40
0.2014728253723049
 40
0.2628693217722904
 40
0.322550086526156
 40
0.3807372513385547
 40
0.4382197368560123
 40
0.4954874370602861
 40
0.5534836796953476
 40
0.6113462062294291
 40
0.6706437388141554
 40
0.7315869484227132
 40
0.7941831937999383
 40
0.8594451119347494
 40
0.92820763539981
 40
1.0
 40
1.0
 40
1.0
 40
1.0
 10
210.8826628023277
 20
115.3736758762848
 30
0.0
 10
210.885357935531
 20
115.3966333377163
 30
0.0
 10
210.8906010851994
 20
115.4412951029097
 30
0.0
 10
210.9036610557228
 20
115.5059801470591
 30
0.0
 10
210.9219960724537
 20
115.5661557798847
 30
0.0
 10
210.9439354674085
 20
115.6226609761618
 30
0.0
 10
210.9714385661175
 20
115.6745338472859
 30
0.0
 10
211.0025284518336
 20
115.7228473253795
 30
0.0
 10
211.0391975377008
 20
115.7660691094946
 30
0.0
 10
211.0797071487798
 20
115.8055616122225
 30
0.0
 10
211.1245011122951
 20
115.8403648986863
 30
0.0
 10
211.1731586582553
 20
115.8707704013293
 30
0.0
 10
211.2256575291465
 20
115.896202727
 30
0.0
 10
211.2817053246811
 20
115.917259632336
 30
0.0
 10
211.3414307169053
 20
115.9332360363699
 30
0.0
 10
211.4047492139817
 20
115.944692625527
 30
0.0
 10
211.4717626433985
 20
115.9517545980684
 30
0.0
 10
211.5177279704891
 20
115.9527073127054
 30
0.0
 10
211.5412060548651
 20
115.9531939385177
 30
0.0
  0
LINE
  5
178
330
1F
100
AcDbEntity
  8
0
  6
Continuous
 62
     7
370
     0
100
AcDbLine
 10
211.1460801033
 20
115.3473341462
 30
0.0
 11
210.8826628023
 21
115.3736758763
 31
0.0
  0
SPLINE
  5
179
330
1F
100
AcDbEntity
  8
0
  6
Continuous
 62
     7
370
     0
100
AcDbSpline
210
0.0
220
0.0
230
1.0
 70
     8
 71
     3
 72
    23
 73
    19
 74
     0
 42
0.000000001
 43
0.00000001
 40
0.0
 40
0.0
 40
0.0
 40
0.0
 40
0.0706964833433767
 40
0.1383582132030687
 40
0.2033698682591703
 40
0.2657002133402297
 40
0.3272558681973768
 40
0.3865123433292944
 40
0.4458582974819498
 40
0.5051731438069389
 40
0.5637797628070206
 40
0.6223430642934396
 40
0.6808235796100197
 40
0.7397951568104398
 40
0.8008011629883834
 40
0.8642394615769078
 40
0.9306310981734531
 40
0.9999999999999999
 40
0.9999999999999999
 40
0.9999999999999999
 40
0.9999999999999999
 10
211.5354438014054
 20
115.7161183676042
 30
0.0
 10
211.5211618815474
 20
115.7157903723728
 30
0.0
 10
211.4932111148443
 20
115.7151484616015
 30
0.0
 10
211.4523545791211
 20
115.7104758804831
 30
0.0
 10
211.4135683805233
 20
115.7033368081085
 30
0.0
 10
211.3769450955726
 20
115.6924217773866
 30
0.0
 10
211.3425292994959
 20
115.6786715190515
 30
0.0
 10
211.3104611602297
 20
115.6613636058401
 30
0.0
 10
211.2802271333904
 20
115.6418261023025
 30
0.0
 10
211.2527794047714
 20
115.6186951719422
 30
0.0
 10
211.2279587837677
 20
115.5930476885265
 30
0.0
 10
211.2059238506079
 20
115.5651253371426
 30
0.0
 10
211.187869533669
 20
115.5343892747905
 30
0.0
 10
211.1729595345802
 20
115.5015153182949
 30
0.0
 10
211.1609706470452
 20
115.4664001244674
 30
0.0
 10
211.1522671224045
 20
115.4287752447063
 30
0.0
 10
211.1475219024438
 20
115.3887493155042
 30
0.0
 10
211.1465676785058
 20
115.3613395703255
 30
0.0
 10
211.1460801033427
 20
115.3473341461833
 30
0.0
  0
SPLINE
  5
17A
330
1F
100
AcDbEntity
  8
0
  6
Continuous
 62
     7
370
     0
100
AcDbSpline
210
0.0
220
0.0
230
1.0
 70
     8
 71
     3
 72
    23
 73
    19
 74
     0
 42
0.000000001
 43
0.00000001
 40
0.0
 40
0.0
 40
0.0
 40
0.0
 40
0.0617621567680711
 40
0.1211739926536296
 40
0.1794214068253157
 40
0.2368434346502756
 40
0.2943217954133984
 40
0.3531909627945249
 40
0.4127207064163252
 40
0.4745221507037179
 40
0.5370567441421366
 40
0.5995913375805559
 40
0.6623669793543062
 40
0.7252456446794925
 40
0.7903164461250802
 40
0.8577243009540932
 40
0.9272319523784931
 40
1.0
 40
1.0
 40
1.0
 40
1.0
 10
211.909990276286
 20
115.3835540250728
 30
0.0
 10
211.9097042682471
 20
115.3951013197153
 30
0.0
 10
211.9091431360293
 20
115.4177564838058
 30
0.0
 10
211.9038191413136
 20
115.450912174816
 30
0.0
 10
211.8964077137315
 20
115.482841897408
 30
0.0
 10
211.8844256910583
 20
115.5129708468187
 30
0.0
 10
211.8701634769723
 20
115.5421912580911
 30
0.0
 10
211.8518687449826
 20
115.5695798036094
 30
0.0
 10
211.8307055009395
 20
115.5958190757615
 30
0.0
 10
211.80647537765
 20
115.6202172686825
 30
0.0
 10
211.780010408748
 20
115.6431066688487
 30
0.0
 10
211.7504395774523
 20
115.66213332081
 30
0.0
 10
211.7197050878446
 20
115.6792629767486
 30
0.0
 10
211.6867466258665
 20
115.6930362026866
 30
0.0
 10
211.6516177473044
 20
115.7031501281999
 30
0.0
 10
211.6145741739087
 20
115.7104902334496
 30
0.0
 10
211.575621783783
 20
115.7151442535347
 30
0.0
 10
211.5490395156743
 20
115.7157887398885
 30
0.0
 10
211.5354438014054
 20
115.7161183676042
 30
0.0
  0
SPLINE
  5
17B
330
1F
100
AcDbEntity
  8
0
  6
Continuous
 62
     7
370
     0
100
AcDbSpline
210
0.0
220
0.0
230
1.0
 70
     8
 71
     3
 72
    23
 73
    19
 74
     0
 42
0.000000001
 43
0.00000001
 40
0.0
 40
0.0
 40
0.0
 40
0.0
 40
0.1114096600426607
 40
0.2145263672558013
 40
0.3094172254458341
 40
0.3960871907990314
 40
0.4742842164262461
 40
0.5443738816396977
 40
0.6064195628105363
 40
0.6605816023749734
 40
0.7097938180647575
 40
0.7564506485918283
 40
0.8007673253039321
 40
0.8431682879413347
 40
0.8842948685500486
 40
0.9238845020552846
 40
0.962358710139216
 40
1.0
 40
1.0
 40
1.0
 40
1.0
 10
211.3576371232203
 20
114.6669766484056
 30
0.0
 10
211.3840745859647
 20
114.6892286316146
 30
0.0
 10
211.434981597438
 20
114.7320762367526
 30
0.0
 10
211.506870274998
 20
114.7956581116353
 30
0.0
 10
211.572528880362
 20
114.8546974838603
 30
0.0
 10
211.6309118747315
 20
114.9102291391543
 30
0.0
 10
211.6824967697445
 20
114.9617144563613
 30
0.0
 10
211.727404687638
 20
115.0090367887436
 30
0.0
 10
211.7660220299992
 20
115.0520484529247
 30
0.0
 10
211.797877354773
 20
115.0923062888894
 30
0.0
 10
211.8247546697384
 20
115.1303208838332
 30
0.0
 10
211.8475308203042
 20
115.1674017736496
 30
0.0
 10
211.866511719847
 20
115.2041966802746
 30
0.0
 10
211.8823202694732
 20
115.2405891745242
 30
0.0
 10
211.8948234890037
 20
115.2767348869575
 30
0.0
 10
211.9033462117264
 20
115.3127391265325
 30
0.0
 10
211.9091260274245
 20
115.3482446436787
 30
0.0
 10
211.9097043026528
 20
115.3718704087762
 30
0.0
 10
211.909990276286
 20
115.3835540250728
 30
0.0
  0
SPLINE
  5
17C
330
1F
100
AcDbEntity
  8
0
  6
Continuous
 62
     7
370
     0
100
AcDbSpline
210
0.0
220
0.0
230
1.0
 70
     8
 71
     3
 72
    19
 73
    15
 74
     0
 42
0.000000001
 43
0.00000001
 40
0.0
 40
0.0
 40
0.0
 40
0.0
 40
0.1003881431397112
 40
0.2044067930373087
 40
0.3106860830942075
 40
0.4221572938827998
 40
0.4806854607703733
 40
0.5432381544526687
 40
0.6094995045645643
 40
0.679554608774224
 40
0.753841222051175
 40
0.8316406764893859
 40
0.9138127068095903
 40
1.0
 40
1.0
 40
1.0
 40
1.0
 10
210.8838975709262
 20
114.0812847431801
 30
0.0
 10
210.8926146002368
 20
114.10535678075
 30
0.0
 10
210.9103639075797
 20
114.1543714138295
 30
0.0
 10
210.9463241901779
 20
114.225092684489
 30
0.0
 10
210.9886219804867
 20
114.295386246897
 30
0.0
 10
211.0298048332815
 20
114.3526151311204
 30
0.0
 10
211.0675194334347
 20
114.3983370087096
 30
0.0
 10
211.0991480416924
 20
114.4341090864491
 30
0.0
 10
211.1341983376116
 20
114.4707260234921
 30
0.0
 10
211.1726422514907
 20
114.5081811311766
 30
0.0
 10
211.2141097837062
 20
114.5467169910626
 30
0.0
 10
211.258657516505
 20
114.5864621187855
 30
0.0
 10
211.3068114886305
 20
114.6266758203793
 30
0.0
 10
211.3404280008727
 20
114.6533311349592
 30
0.0
 10
211.3576371232203
 20
114.6669766484056
 30
0.0
  0
SPLINE
  5
17D
330
1F
100
AcDbEntity
  8
0
  6
Continuous
 62
     7
370
     0
100
AcDbSpline
210
0.0
220
0.0
230
1.0
 70
     8
 71
     3
 72
    11
 73
     7
 74
     0
 42
0.000000001
 43
0.00000001
 40
0.0
 40
0.0
 40
0.0
 40
0.0
 40
0.2526433275832377
 40
0.5044398525799888
 40
0.7504068042814569
 40
1.0
 40
1.0
 40
1.0
 40
1.0
 10
210.8563210722262
 20
113.898538990601
 30
0.0
 10
210.8562935687221
 20
113.914194621349
 30
0.0
 10
210.8562386538993
 20
113.9454534087552
 30
0.0
 10
210.861528144253
 20
113.9916831724192
 30
0.0
 10
210.8698125451589
 20
114.0372996594005
 30
0.0
 10
210.8791797143596
 20
114.0665516983303
 30
0.0
 10
210.8838975709262
 20
114.0812847431801
 30
0.0
  0
LINE
  5
17E
330
1F
100
AcDbEntity
  8
0
  6
Continuous
 62
     7
370
     0
100
AcDbLine
 10
212.1997493074
 20
113.8985389906
 30
0.0
 11
210.8563210722
 21
113.8985389906
 31
0.0
  0
LINE
  5
17F
330
1F
100
AcDbEntity
  8
0
  6
Continuous
 62
     7
370
     0
100
AcDbLine
 10
212.1997493074
 20
114.1619562916
 30
0.0
 11
212.1997493074
 21
113.8985389906
 31
0.0
  0
LINE
  5
180
330
1F
100
AcDbEntity
  8
0
  6
Continuous
 62
     7
370
     0
100
AcDbLine
 10
211.1946476682
 20
114.1619562916
 30
0.0
 11
212.1997493074
 21
114.1619562916
 31
0.0
  0
SPLINE
  5
181
330
1F
100
AcDbEntity
  8
0
  6
Continuous
 62
     7
370
     0
100
AcDbSpline
210
0.0
220
0.0
230
1.0
 70
     8
 71
     3
 72
    23
 73
    19
 74
     0
 42
0.000000001
 43
0.00000001
 40
0.0
 40
0.0
 40
0.0
 40
0.0
 40
0.064254575424703
 40
0.1273603868320975
 40
0.1894718420926418
 40
0.2517207629332008
 40
0.312027284089002
 40
0.368674657115051
 40
0.4226814918055484
 40
0.4740604252251506
 40
0.5257737722739171
 40
0.5796221048577138
 40
0.6373752855308658
 40
0.6984003818208012
 40
0.7643573310122578
 40
0.8363147679791494
 40
0.9146777942540467
 40
1.0
 40
1.0
 40
1.0
 40
1.0
 10
208.7489826641065
 20
114.4871120225563
 30
0.0
 10
208.7482728963464
 20
114.4637467496824
 30
0.0
 10
208.746866050283
 20
114.4174339358167
 30
0.0
 10
208.7355675080175
 20
114.3492692621691
 30
0.0
 10
208.7164735706515
 20
114.2837005911032
 30
0.0
 10
208.6901923897265
 20
114.2217880887913
 30
0.0
 10
208.6588773047516
 20
114.164540865276
 30
0.0
 10
208.623286613518
 20
114.1134578395087
 30
0.0
 10
208.5843279522965
 20
114.069064652303
 30
0.0
 10
208.5409042852324
 20
114.0317220469508
 30
0.0
 10
208.4932957136081
 20
114.0000291029067
 30
0.0
 10
208.4401575699198
 20
113.9733415713765
 30
0.0
 10
208.3819007086843
 20
113.9498057261072
 30
0.0
 10
208.3173410916888
 20
113.9310044240875
 30
0.0
 10
208.2465081063219
 20
113.9160686942698
 30
0.0
 10
208.1684404840468
 20
113.9063649262872
 30
0.0
 10
208.0830182857187
 20
113.8994183292678
 30
0.0
 10
208.0235035983947
 20
113.8988402953143
 30
0.0
 10
207.9924811027542
 20
113.898538990601
 30
0.0
  0
SPLINE
  5
182
330
1F
100
AcDbEntity
  8
0
  6
Continuous
 62
     7
370
     0
100
AcDbSpline
210
0.0
220
0.0
230
1.0
 70
     8
 71
     3
 72
    23
 73
    19
 74
     0
 42
0.000000001
 43
0.00000001
 40
0.0
 40
0.0
 40
0.0
 40
0.0
 40
0.0704642259291737
 40
0.1379569656042678
 40
0.2035785636142838
 40
0.2676916802449432
 40
0.3301858648593747
 40
0.3915337640898193
 40
0.4526637734870349
 40
0.5131537880892134
 40
0.5734535531000284
 40
0.6329675593891927
 40
0.6923319074206209
 40
0.7514741915716305
 40
0.8121874455294297
 40
0.8729617178483159
 40
0.935420306759491
 40
1.0
 40
1.0
 40
1.0
 40
1.0
 10
208.361676913708
 20
114.9785499247623
 30
0.0
 10
208.3768350984064
 20
114.9738047628997
 30
0.0
 10
208.4065122450364
 20
114.9645145433133
 30
0.0
 10
208.4491762263156
 20
114.9475147445122
 30
0.0
 10
208.4892246749097
 20
114.928158040652
 30
0.0
 10
208.5267447652356
 20
114.9064126231939
 30
0.0
 10
208.5614829787885
 20
114.8820771188612
 30
0.0
 10
208.5933412972581
 20
114.8551135899349
 30
0.0
 10
208.6225406124598
 20
114.825939289999
 30
0.0
 10
208.649028756954
 20
114.794571965428
 30
0.0
 10
208.6722958129199
 20
114.7612134716495
 30
0.0
 10
208.6931634554859
 20
114.7265928935933
 30
0.0
 10
208.7103950469727
 20
114.6902933232073
 30
0.0
 10
208.7245191550137
 20
114.6524090032591
 30
0.0
 10
208.7355380590683
 20
114.6131740257906
 30
0.0
 10
208.7434508316107
 20
114.5724374860629
 30
0.0
 10
208.7479609099395
 20
114.5302942063513
 30
0.0
 10
208.7486383093009
 20
114.5016654180675
 30
0.0
 10
208.7489826641065
 20
114.4871120225563
 30
0.0
  0
SPLINE
  5
183
330
1F
100
AcDbEntity
  8
0
  6
Continuous
 62
     7
370
     0
100
AcDbSpline
210
0.0
220
0.0
230
1.0
 70
     8
 71
     3
 72
    15
 73
    11
 74
     0
 42
0.000000001
 43
0.00000001
 40
0.0
 40
0.0
 40
0.0
 40
0.0
 40
0.1158426906010182
 40
0.2305685484828842
 40
0.3473546045205446
 40
0.4682527467344629
 40
0.5923025714800847
 40
0.7199701656206978
 40
0.8556003811349115
 40
1.0
 40
1.0
 40
1.0
 40
1.0
 10
208.6699574738021
 20
115.4205970830281
 30
0.0
 10
208.6689987771036
 20
115.3985637033756
 30
0.0
 10
208.6670906264465
 20
115.3547093666169
 30
0.0
 10
208.6519038820878
 20
115.2901092612481
 30
0.0
 10
208.6279345532549
 20
115.2273829611671
 30
0.0
 10
208.5940412437002
 20
115.167293029312
 30
0.0
 10
208.5507213456848
 20
115.1109387973194
 30
0.0
 10
208.4970170427142
 20
115.0602269718949
 30
0.0
 10
208.4337000607368
 20
115.0150488718025
 30
0.0
 10
208.3861806678676
 20
114.9909676163275
 30
0.0
 10
208.361676913708
 20
114.9785499247623
 30
0.0
  0
SPLINE
  5
184
330
1F
100
AcDbEntity
  8
0
  6
Continuous
 62
     7
370
     0
100
AcDbSpline
210
0.0
220
0.0
230
1.0
 70
     8
 71
     3
 72
    23
 73
    19
 74
     0
 42
0.000000001
 43
0.00000001
 40
0.0
 40
0.0
 40
0.0
 40
0.0
 40
0.0587320371008649
 40
0.1146029008469814
 40
0.1676568100446127
 40
0.2179667070908439
 40
0.2657752056293755
 40
0.3111706510536967
 40
0.3537918046646701
 40
0.3947449080003073
 40
0.472805951082463
 40
0.5491923665616076
 40
0.6247801075795552
 40
0.7026247640242257
 40
0.7797414321940389
 40
0.8540634639886253
 40
0.9271552664103497
 40
0.9999999999999999
 40
0.9999999999999999
 40
0.9999999999999999
 40
0.9999999999999999
 10
207.9904231550901
 20
115.9531939385177
 30
0.0
 10
208.0094995515594
 20
115.9531207568598
 30
0.0
 10
208.0467230241479
 20
115.9529779586411
 30
0.0
 10
208.1010769912651
 20
115.9494067230489
 30
0.0
 10
208.1525542568921
 20
115.9445220133801
 30
0.0
 10
208.2012656396342
 20
115.938225472819
 30
0.0
 10
208.2470003658599
 20
115.9290893203257
 30
0.0
 10
208.2897158160054
 20
115.9180214823054
 30
0.0
 10
208.329634280327
 20
115.9052550887236
 30
0.0
 10
208.378428519948
 20
115.8858077361908
 30
0.0
 10
208.4346585315662
 20
115.8558741268742
 30
0.0
 10
208.4948862158331
 20
115.8112084583574
 30
0.0
 10
208.5472866411428
 20
115.757581012516
 30
0.0
 10
208.5904044851365
 20
115.6960941091798
 30
0.0
 10
208.625928938266
 20
115.6304145002002
 30
0.0
 10
208.6511153596541
 20
115.5617934444907
 30
0.0
 10
208.6672184030073
 20
115.4917249896484
 30
0.0
 10
208.6690454812778
 20
115.4442796104126
 30
0.0
 10
208.6699574738021
 20
115.4205970830281
 30
0.0
  0
LINE
  5
185
330
1F
100
AcDbEntity
  8
0
  6
Continuous
 62
     7
370
     0
100
AcDbLine
 10
207.2211623182
 20
115.9531939385
 30
0.0
 11
207.9904231551
 21
115.9531939385
 31
0.0
  0
LINE
  5
186
330
1F
100
AcDbEntity
  8
0
  6
Continuous
 62
     7
370
     0
100
AcDbLine
 10
207.2211623182
 20
113.8985389906
 30
0.0
 11
207.2211623182
 21
115.9531939385
 31
0.0
  0
LINE
  5
187
330
1F
100
AcDbEntity
  8
0
  6
Continuous
 62
     7
370
     0
100
AcDbLine
 10
207.9924811028
 20
113.8985389906
 30
0.0
 11
207.2211623182
 21
113.8985389906
 31
0.0
  0
SPLINE
  5
188
330
1F
100
AcDbEntity
  8
0
  6
Continuous
 62
     7
370
     0
100
AcDbSpline
210
0.0
220
0.0
230
1.0
 70
     8
 71
     3
 72
    23
 73
    19
 74
     0
 42
0.000000001
 43
0.00000001
 40
0.0
 40
0.0
 40
0.0
 40
0.0
 40
0.0642545754247029
 40
0.1273603868320973
 40
0.1894718420926419
 40
0.2517207629332008
 40
0.3120272840890018
 40
0.3686746571150512
 40
0.4226814918055486
 40
0.4740604252251508
 40
0.5257737722739173
 40
0.5796221048577139
 40
0.6373752855308659
 40
0.6984003818208013
 40
0.7643573310122579
 40
0.8363147679791494
 40
0.9146777942540467
 40
1.0
 40
1.0
 40
1.0
 40
1.0
 10
219.90470536209
 20
117.6481196347358
 30
0.0
 10
219.9039955943298
 20
117.6247543618619
 30
0.0
 10
219.9025887482664
 20
117.5784415479962
 30
0.0
 10
219.8912902060009
 20
117.5102768743486
 30
0.0
 10
219.872196268635
 20
117.4447082032827
 30
0.0
 10
219.84591508771
 20
117.3827957009708
 30
0.0
 10
219.8146000027351
 20
117.3255484774555
 30
0.0
 10
219.7790093115014
 20
117.2744654516882
 30
0.0
 10
219.7400506502799
 20
117.2300722644825
 30
0.0
 10
219.6966269832158
 20
117.1927296591303
 30
0.0
 10
219.6490184115915
 20
117.1610367150862
 30
0.0
 10
219.5958802679033
 20
117.134349183556
 30
0.0
 10
219.5376234066677
 20
117.1108133382867
 30
0.0
 10
219.4730637896722
 20
117.0920120362669
 30
0.0
 10
219.4022308043053
 20
117.0770763064493
 30
0.0
 10
219.3241631820302
 20
117.0673725384667
 30
0.0
 10
219.2387409837022
 20
117.0604259414473
 30
0.0
 10
219.1792262963781
 20
117.0598479074938
 30
0.0
 10
219.1482038007377
 20
117.0595466027805
 30
0.0
  0
SPLINE
  5
189
330
1F
100
AcDbEntity
  8
0
  6
Continuous
 62
     7
370
     0
100
AcDbSpline
210
0.0
220
0.0
230
1.0
 70
     8
 71
     3
 72
    23
 73
    19
 74
     0
 42
0.000000001
 43
0.00000001
 40
0.0
 40
0.0
 40
0.0
 40
0.0
 40
0.0704642259291749
 40
0.1379569656042689
 40
0.2035785636142837
 40
0.2676916802449441
 40
0.3301858648593755
 40
0.39153376408982
 40
0.4526637734870355
 40
0.513153788089214
 40
0.573453553100029
 40
0.6329675593891934
 40
0.6923319074206218
 40
0.7514741915716301
 40
0.8121874455294298
 40
0.8729617178483161
 40
0.9354203067594908
 40
0.9999999999999999
 40
0.9999999999999999
 40
0.9999999999999999
 40
0.9999999999999999
 10
219.5173996116914
 20
118.1395575369418
 30
0.0
 10
219.5325577963899
 20
118.1348123750792
 30
0.0
 10
219.5622349430198
 20
118.1255221554928
 30
0.0
 10
219.604898924299
 20
118.1085223566917
 30
0.0
 10
219.6449473728931
 20
118.0891656528314
 30
0.0
 10
219.682467463219
 20
118.0674202353734
 30
0.0
 10
219.7172056767719
 20
118.0430847310407
 30
0.0
 10
219.7490639952416
 20
118.0161212021144
 30
0.0
 10
219.7782633104432
 20
117.9869469021785
 30
0.0
 10
219.8047514549374
 20
117.9555795776075
 30
0.0
 10
219.8280185109033
 20
117.922221083829
 30
0.0
 10
219.8488861534694
 20
117.8876005057728
 30
0.0
 10
219.8661177449561
 20
117.8513009353867
 30
0.0
 10
219.8802418529971
 20
117.8134166154386
 30
0.0
 10
219.8912607570517
 20
117.7741816379701
 30
0.0
 10
219.8991735295942
 20
117.7334450982424
 30
0.0
 10
219.9036836079229
 20
117.6913018185308
 30
0.0
 10
219.9043610072843
 20
117.662673030247
 30
0.0
 10
219.90470536209
 20
117.6481196347358
 30
0.0
  0
SPLINE
  5
18A
330
1F
100
AcDbEntity
  8
0
  6
Continuous
 62
     7
370
     0
100
AcDbSpline
210
0.0
220
0.0
230
1.0
 70
     8
 71
     3
 72
    15
 73
    11
 74
     0
 42
0.000000001
 43
0.00000001
 40
0.0
 40
0.0
 40
0.0
 40
0.0
 40
0.1158426906010181
 40
0.2305685484828844
 40
0.3473546045205441
 40
0.4682527467344622
 40
0.5923025714800838
 40
0.7199701656206967
 40
0.8556003811349091
 40
1.0
 40
1.0
 40
1.0
 40
1.0
 10
219.8256801717855
 20
118.5816046952075
 30
0.0
 10
219.8247214750871
 20
118.5595713155551
 30
0.0
 10
219.8228133244299
 20
118.5157169787964
 30
0.0
 10
219.8076265800713
 20
118.4511168734276
 30
0.0
 10
219.7836572512383
 20
118.3883905733465
 30
0.0
 10
219.7497639416837
 20
118.3283006414914
 30
0.0
 10
219.7064440436682
 20
118.2719464094988
 30
0.0
 10
219.6527397406976
 20
118.2212345840744
 30
0.0
 10
219.5894227587202
 20
118.1760564839819
 30
0.0
 10
219.5419033658511
 20
118.151975228507
 30
0.0
 10
219.5173996116914
 20
118.1395575369418
 30
0.0
  0
SPLINE
  5
18B
330
1F
100
AcDbEntity
  8
0
  6
Continuous
 62
     7
370
     0
100
AcDbSpline
210
0.0
220
0.0
230
1.0
 70
     8
 71
     3
 72
    23
 73
    19
 74
     0
 42
0.000000001
 43
0.00000001
 40
0.0
 40
0.0
 40
0.0
 40
0.0
 40
0.0587320371008649
 40
0.1146029008469823
 40
0.1676568100446118
 40
0.2179667070908439
 40
0.2657752056293754
 40
0.3111706510536957
 40
0.3537918046646691
 40
0.3947449080003072
 40
0.4728059510824636
 40
0.5491923665616075
 40
0.6247801075795553
 40
0.7026247640242256
 40
0.7797414321940387
 40
0.8540634639886254
 40
0.9271552664103496
 40
0.9999999999999999
 40
0.9999999999999999
 40
0.9999999999999999
 40
0.9999999999999999
 10
219.1461458530735
 20
119.1142015506972
 30
0.0
 10
219.1652222495428
 20
119.1141283690393
 30
0.0
 10
219.2024457221313
 20
119.1139855708206
 30
0.0
 10
219.2567996892485
 20
119.1104143352284
 30
0.0
 10
219.3082769548756
 20
119.1055296255596
 30
0.0
 10
219.3569883376176
 20
119.0992330849984
 30
0.0
 10
219.4027230638433
 20
119.0900969325052
 30
0.0
 10
219.4454385139888
 20
119.0790290944849
 30
0.0
 10
219.4853569783104
 20
119.0662627009031
 30
0.0
 10
219.5341512179314
 20
119.0468153483703
 30
0.0
 10
219.5903812295496
 20
119.0168817390536
 30
0.0
 10
219.6506089138166
 20
118.9722160705368
 30
0.0
 10
219.7030093391263
 20
118.9185886246954
 30
0.0
 10
219.7461271831199
 20
118.8571017213593
 30
0.0
 10
219.7816516362495
 20
118.7914221123797
 30
0.0
 10
219.8068380576376
 20
118.7228010566702
 30
0.0
 10
219.8229411009908
 20
118.6527326018279
 30
0.0
 10
219.8247681792612
 20
118.6052872225921
 30
0.0
 10
219.8256801717855
 20
118.5816046952075
 30
0.0
  0
LINE
  5
18C
330
1F
100
AcDbEntity
  8
0
  6
Continuous
 62
     7
370
     0
100
AcDbLine
 10
218.3768850162
 20
119.1142015507
 30
0.0
 11
219.1461458531
 21
119.1142015507
 31
0.0
  0
LINE
  5
18D
330
1F
100
AcDbEntity
  8
0
  6
Continuous
 62
     7
370
     0
100
AcDbLine
 10
218.3768850162
 20
117.0595466028
 30
0.0
 11
218.3768850162
 21
119.1142015507
 31
0.0
  0
LINE
  5
18E
330
1F
100
AcDbEntity
  8
0
  6
Continuous
 62
     7
370
     0
100
AcDbLine
 10
219.1482038007
 20
117.0595466028
 30
0.0
 11
218.3768850162
 21
117.0595466028
 31
0.0
  0
LINE
  5
18F
330
1F
100
AcDbEntity
  8
0
  6
Continuous
 62
     7
370
     0
100
AcDbLine
 10
216.1641796877
 20
117.2966221737
 30
0.0
 11
216.1641796877
 21
117.0595466028
 31
0.0
  0
LINE
  5
190
330
1F
100
AcDbEntity
  8
0
  6
Continuous
 62
     7
370
     0
100
AcDbLine
 10
215.1895356739
 20
117.2966221737
 30
0.0
 11
216.1641796877
 21
117.2966221737
 31
0.0
  0
LINE
  5
191
330
1F
100
AcDbEntity
  8
0
  6
Continuous
 62
     7
370
     0
100
AcDbLine
 10
215.1895356739
 20
119.1142015507
 30
0.0
 11
215.1895356739
 21
117.2966221737
 31
0.0
  0
LINE
  5
192
330
1F
100
AcDbEntity
  8
0
  6
Continuous
 62
     7
370
     0
100
AcDbLine
 10
214.8997766428
 20
119.1142015507
 30
0.0
 11
215.1895356739
 21
119.1142015507
 31
0.0
  0
LINE
  5
193
330
1F
100
AcDbEntity
  8
0
  6
Continuous
 62
     7
370
     0
100
AcDbLine
 10
214.8997766428
 20
117.0595466028
 30
0.0
 11
214.8997766428
 21
119.1142015507
 31
0.0
  0
LINE
  5
194
330
1F
100
AcDbEntity
  8
0
  6
Continuous
 62
     7
370
     0
100
AcDbLine
 10
216.1641796877
 20
117.0595466028
 30
0.0
 11
214.8997766428
 21
117.0595466028
 31
0.0
  0
SPLINE
  5
195
330
1F
100
AcDbEntity
  8
0
  6
Continuous
 62
     7
370
     0
100
AcDbSpline
210
0.0
220
0.0
230
1.0
 70
     8
 71
     3
 72
    31
 73
    27
 74
     0
 42
0.000000001
 43
0.00000001
 40
0.0
 40
0.0
 40
0.0
 40
0.0
 40
0.0475595569054264
 40
0.0939621052432108
 40
0.1391115332408222
 40
0.1836263101269047
 40
0.2274570284004935
 40
0.2707025105518545
 40
0.3136105321155538
 40
0.3562604510849769
 40
0.3983661529550377
 40
0.4395565149792806
 40
0.4800453830214204
 40
0.5198884957050127
 40
0.5596577503171976
 40
0.5994212546627414
 40
0.6392077550883982
 40
0.6796683749857806
 40
0.7200198525128486
 40
0.7598588655624579
 40
0.7995598848323808
 40
0.8391991446364383
 40
0.8789560762302792
 40
0.9187942693024661
 40
0.9590833628432752
 40
1.0
 40
1.0
 40
1.0
 40
1.0
 10
212.4763374734682
 20
118.0835813604762
 30
0.0
 10
212.4759093719166
 20
118.0580534977561
 30
0.0
 10
212.4750635834849
 20
118.0076188032464
 30
0.0
 10
212.4693406328693
 20
117.9331113284724
 30
0.0
 10
212.4592776964849
 20
117.8607428087731
 30
0.0
 10
212.4459309246734
 20
117.7902974543116
 30
0.0
 10
212.4280466579167
 20
117.7219219176623
 30
0.0
 10
212.4067939551819
 20
117.6554201619721
 30
0.0
 10
212.3810876105208
 20
117.5911882849761
 30
0.0
 10
212.3520551482695
 20
117.5290714745533
 30
0.0
 10
212.3192049295428
 20
117.469924052413
 30
0.0
 10
212.2829689092558
 20
117.4141596052369
 30
0.0
 10
212.2433214165166
 20
117.3622997653637
 30
0.0
 10
212.20086469214
 20
117.3137083449303
 30
0.0
 10
212.1546072591566
 20
117.2692542494193
 30
0.0
 10
212.1051187146193
 20
117.2285218004173
 30
0.0
 10
212.052589341705
 20
117.1911268446424
 30
0.0
 10
211.9968426684318
 20
117.1580821544392
 30
0.0
 10
211.9388791448874
 20
117.129117303136
 30
0.0
 10
211.8798457778242
 20
117.1034202616693
 30
0.0
 10
211.8196987159387
 20
117.0815048021045
 30
0.0
 10
211.7582323949914
 20
117.0637445003881
 30
0.0
 10
211.6956144890714
 20
117.0503235380685
 30
0.0
 10
211.6320212124099
 20
117.0402737799249
 30
0.0
 10
211.5672440974349
 20
117.0344870946755
 30
0.0
 10
211.5236559527941
 20
117.0336344763061
 30
0.0
 10
211.5016934597129
 20
117.033204872679
 30
0.0
  0
SPLINE
  5
196
330
1F
100
AcDbEntity
  8
0
  6
Continuous
 62
     7
370
     0
100
AcDbSpline
210
0.0
220
0.0
230
1.0
 70
     8
 71
     3
 72
    31
 73
    27
 74
     0
 42
0.000000001
 43
0.00000001
 40
0.0
 40
0.0
 40
0.0
 40
0.0
 40
0.0430989705688968
 40
0.0855867603450731
 40
0.1269076657436391
 40
0.1679674856215208
 40
0.208449558601066
 40
0.2490254246415441
 40
0.289280534171679
 40
0.3300098489827308
 40
0.370597724099577
 40
0.4104659863326995
 40
0.4500332158929483
 40
0.4896882096042475
 40
0.5291164230741915
 40
0.5690368070925096
 40
0.6097030542359448
 40
0.6507589174942194
 40
0.6925092624061778
 40
0.7342191213706865
 40
0.7767069111468624
 40
0.8195518402403216
 40
0.8633507288313336
 40
0.9078385251300618
 40
0.9533337036124183
 40
1.0
 40
1.0
 40
1.0
 40
1.0
 10
211.5029282283114
 20
119.1405432807987
 30
0.0
 10
211.5261259533215
 20
119.1401382048485
 30
0.0
 10
211.5721924394763
 20
119.1393337972764
 30
0.0
 10
211.6402976277967
 20
119.1332133299237
 30
0.0
 10
211.7066527523014
 20
119.1222893560092
 30
0.0
 10
211.7711924698262
 20
119.1076500059581
 30
0.0
 10
211.8340924578751
 20
119.0884438153226
 30
0.0
 10
211.8953902791405
 20
119.0657714917009
 30
0.0
 10
211.95454933969
 20
119.0376772902874
 30
0.0
 10
212.011963208983
 20
119.0062230361375
 30
0.0
 10
212.0669541588164
 20
118.9710400928093
 30
0.0
 10
212.1186345157761
 20
118.9321735667095
 30
0.0
 10
212.1668804890753
 20
118.8899174036548
 30
0.0
 10
212.2123401529992
 20
118.8449661797922
 30
0.0
 10
212.2534965825538
 20
118.7958028540539
 30
0.0
 10
212.2920500544897
 20
118.743925025571
 30
0.0
 10
212.3268927121514
 20
118.6884128163786
 30
0.0
 10
212.3581481849532
 20
118.6297210550464
 30
0.0
 10
212.3860937538034
 20
118.5687562250918
 30
0.0
 10
212.4099786388296
 20
118.5052656521297
 30
0.0
 10
212.4304881537763
 20
118.4400109500085
 30
0.0
 10
212.4476563480984
 20
118.3726058806018
 30
0.0
 10
212.4599749907342
 20
118.3030734875893
 30
0.0
 10
212.4697844590519
 20
118.2317133791824
 30
0.0
 10
212.4749474532442
 20
118.1582923265443
 30
0.0
 10
212.4758702247674
 20
118.108695097118
 30
0.0
 10
212.4763374734682
 20
118.0835813604762
 30
0.0
  0
SPLINE
  5
197
330
1F
100
AcDbEntity
  8
0
  6
Continuous
 62
     7
370
     0
100
AcDbSpline
210
0.0
220
0.0
230
1.0
 70
     8
 71
     3
 72
    23
 73
    19
 74
     0
 42
0.000000001
 43
0.00000001
 40
0.0
 40
0.0
 40
0.0
 40
0.0
 40
0.0752263466908988
 40
0.1465747215268522
 40
0.2145002518264754
 40
0.2795299716530228
 40
0.3424029515883814
 40
0.4034960527288083
 40
0.4637616065030392
 40
0.5238643590795867
 40
0.5832517242549665
 40
0.6413020392831351
 40
0.6988977748564887
 40
0.7562952438113087
 40
0.814627804812969
 40
0.874324768339998
 40
0.9357832838625453
 40
1.0
 40
1.0
 40
1.0
 40
1.0
 10
210.5270494459575
 20
118.0597091675717
 30
0.0
 10
210.5277635649515
 20
118.1009032283373
 30
0.0
 10
210.5291549895957
 20
118.1811677666392
 30
0.0
 10
210.54215581993
 20
118.2980432767512
 30
0.0
 10
210.5632658313774
 20
118.4080078435888
 30
0.0
 10
210.5934444606744
 20
118.5110529001329
 30
0.0
 10
210.6316959600354
 20
118.6073399186842
 30
0.0
 10
210.6781979646754
 20
118.6970869264689
 30
0.0
 10
210.7343492241495
 20
118.7792780519705
 30
0.0
 10
210.797870607428
 20
118.8546957013055
 30
0.0
 10
210.8688210749429
 20
118.9213704311391
 30
0.0
 10
210.9443631568474
 20
118.9805871438086
 30
0.0
 10
211.0254401367737
 20
119.0299808830729
 30
0.0
 10
211.1113029256467
 20
119.0707638279052
 30
0.0
 10
211.2023163174117
 20
119.1020757919926
 30
0.0
 10
211.2982247741222
 20
119.1239970160174
 30
0.0
 10
211.3989257223185
 20
119.1381383357737
 30
0.0
 10
211.4677571771826
 20
119.1397299884301
 30
0.0
 10
211.5029282283114
 20
119.1405432807987
 30
0.0
  0
SPLINE
  5
198
330
1F
100
AcDbEntity
  8
0
  6
Continuous
 62
     7
370
     0
100
AcDbSpline
210
0.0
220
0.0
230
1.0
 70
     8
 71
     3
 72
    31
 73
    27
 74
     0
 42
0.000000001
 43
0.00000001
 40
0.0
 40
0.0
 40
0.0
 40
0.0
 40
0.0446969998899171
 40
0.0885335629185875
 40
0.1314091332352275
 40
0.1738139421467784
 40
0.2157145332694449
 40
0.2572471603264208
 40
0.2988479641797117
 40
0.3406041827148143
 40
0.3820294481091344
 40
0.4229697500404858
 40
0.4636322295306197
 40
0.5040475437003945
 40
0.5445912057564576
 40
0.5849639251690937
 40
0.6262652162680831
 40
0.6679794005009905
 40
0.7099427472053506
 40
0.7513818550852255
 40
0.7926185649779642
 40
0.8339484357458206
 40
0.8750080506311037
 40
0.9164455302232757
 40
0.957906613728307
 40
1.0
 40
1.0
 40
1.0
 40
1.0
 10
211.5016934597129
 20
117.033204872679
 30
0.0
 10
211.4780789017153
 20
117.0335542529906
 30
0.0
 10
211.4313043763239
 20
117.0342462878893
 30
0.0
 10
211.3621703680503
 20
117.0411539758192
 30
0.0
 10
211.2947563052452
 20
117.0516918943821
 30
0.0
 10
211.229258172588
 20
117.0669054651437
 30
0.0
 10
211.1657654706782
 20
117.0867526430998
 30
0.0
 10
211.1042030731184
 20
117.1107750393087
 30
0.0
 10
211.0443544584587
 20
117.1386516018947
 30
0.0
 10
210.9869622489624
 20
117.171180528127
 30
0.0
 10
210.9322217842742
 20
117.2073491975045
 30
0.0
 10
210.880663628744
 20
117.2469778171634
 30
0.0
 10
210.8323162921416
 20
117.2897011742022
 30
0.0
 10
210.7879555513018
 20
117.3362254347364
 30
0.0
 10
210.7461447014909
 20
117.3848640762721
 30
0.0
 10
210.7085555283232
 20
117.4374249669636
 30
0.0
 10
210.6739604280616
 20
117.4927160808314
 30
0.0
 10
210.6433831264235
 20
117.5512704002664
 30
0.0
 10
210.6157611103454
 20
117.6113479129035
 30
0.0
 10
210.5924889651596
 20
117.6729678359194
 30
0.0
 10
210.572037259835
 20
117.7352220554412
 30
0.0
 10
210.555749546775
 20
117.7984942804467
 30
0.0
 10
210.5427702215216
 20
117.8626385563253
 30
0.0
 10
210.5340425658355
 20
117.9275481492422
 30
0.0
 10
210.5277393865371
 20
117.993319730992
 30
0.0
 10
210.5272805834893
 20
118.0374679906332
 30
0.0
 10
210.5270494459575
 20
118.0597091675717
 30
0.0
  0
LINE
  5
199
330
1F
100
AcDbEntity
  8
0
  6
Continuous
 62
     7
370
     0
100
AcDbLine
 10
207.6031174047
 20
118.8771259798
 30
0.0
 11
207.6031174047
 21
117.0595466028
 31
0.0
  0
LINE
  5
19A
330
1F
100
AcDbEntity
  8
0
  6
Continuous
 62
     7
370
     0
100
AcDbLine
 10
208.2616606572
 20
118.8771259798
 30
0.0
 11
207.6031174047
 21
118.8771259798
 31
0.0
  0
LINE
  5
19B
330
1F
100
AcDbEntity
  8
0
  6
Continuous
 62
     7
370
     0
100
AcDbLine
 10
208.2616606572
 20
119.1142015507
 30
0.0
 11
208.2616606572
 21
118.8771259798
 31
0.0
  0
LINE
  5
19C
330
1F
100
AcDbEntity
  8
0
  6
Continuous
 62
     7
370
     0
100
AcDbLine
 10
206.654815121
 20
119.1142015507
 30
0.0
 11
208.2616606572
 21
119.1142015507
 31
0.0
  0
LINE
  5
19D
330
1F
100
AcDbEntity
  8
0
  6
Continuous
 62
     7
370
     0
100
AcDbLine
 10
206.654815121
 20
118.8771259798
 30
0.0
 11
206.654815121
 21
119.1142015507
 31
0.0
  0
LINE
  5
19E
330
1F
100
AcDbEntity
  8
0
  6
Continuous
 62
     7
370
     0
100
AcDbLine
 10
207.3133583736
 20
118.8771259798
 30
0.0
 11
206.654815121
 21
118.8771259798
 31
0.0
  0
LINE
  5
19F
330
1F
100
AcDbEntity
  8
0
  6
Continuous
 62
     7
370
     0
100
AcDbLine
 10
207.3133583736
 20
117.0595466028
 30
0.0
 11
207.3133583736
 21
118.8771259798
 31
0.0
  0
LINE
  5
1A0
330
1F
100
AcDbEntity
  8
0
  6
Continuous
 62
     7
370
     0
100
AcDbLine
 10
207.6031174047
 20
117.0595466028
 30
0.0
 11
207.3133583736
 21
117.0595466028
 31
0.0
  0
CIRCLE
  5
1A1
330
1F
100
AcDbEntity
  8
0
  6
Continuous
 62
     7
370
     0
100
AcDbCircle
 10
214.2544042553
 20
116.7801466028
 30
0.0
 40
25.15000000000001
  0
LINE
  5
1A2
330
1F
100
AcDbEntity
  8
0
  6
Continuous
 62
     7
370
     0
100
AcDbLine
 10
208.8675204496
 20
118.0341906165
 30
0.0
 11
208.8675204496
 21
117.0595466028
 31
0.0
  0
LINE
  5
1A3
330
1F
100
AcDbEntity
  8
0
  6
Continuous
 62
     7
370
     0
100
AcDbLine
 10
209.8685061934
 20
118.0341906165
 30
0.0
 11
208.8675204496
 21
118.0341906165
 31
0.0
  0
LINE
  5
1A4
330
1F
100
AcDbEntity
  8
0
  6
Continuous
 62
     7
370
     0
100
AcDbLine
 10
209.8685061934
 20
117.0595466028
 30
0.0
 11
209.8685061934
 21
118.0341906165
 31
0.0
  0
LINE
  5
1A5
330
1F
100
AcDbEntity
  8
0
  6
Continuous
 62
     7
370
     0
100
AcDbLine
 10
210.1582652245
 20
117.0595466028
 30
0.0
 11
209.8685061934
 21
117.0595466028
 31
0.0
  0
LINE
  5
1A6
330
1F
100
AcDbEntity
  8
0
  6
Continuous
 62
     7
370
     0
100
AcDbLine
 10
210.1582652245
 20
119.1142015507
 30
0.0
 11
210.1582652245
 21
117.0595466028
 31
0.0
  0
LINE
  5
1A7
330
1F
100
AcDbEntity
  8
0
  6
Continuous
 62
     7
370
     0
100
AcDbLine
 10
209.8685061934
 20
119.1142015507
 30
0.0
 11
210.1582652245
 21
119.1142015507
 31
0.0
  0
LINE
  5
1A8
330
1F
100
AcDbEntity
  8
0
  6
Continuous
 62
     7
370
     0
100
AcDbLine
 10
209.8685061934
 20
118.2712661874
 30
0.0
 11
209.8685061934
 21
119.1142015507
 31
0.0
  0
LINE
  5
1A9
330
1F
100
AcDbEntity
  8
0
  6
Continuous
 62
     7
370
     0
100
AcDbLine
 10
208.8675204496
 20
118.2712661874
 30
0.0
 11
209.8685061934
 21
118.2712661874
 31
0.0
  0
LINE
  5
1AA
330
1F
100
AcDbEntity
  8
0
  6
Continuous
 62
     7
370
     0
100
AcDbLine
 10
208.8675204496
 20
119.1142015507
 30
0.0
 11
208.8675204496
 21
118.2712661874
 31
0.0
  0
LINE
  5
1AB
330
1F
100
AcDbEntity
  8
0
  6
Continuous
 62
     7
370
     0
100
AcDbLine
 10
208.5777614184
 20
119.1142015507
 30
0.0
 11
208.8675204496
 21
119.1142015507
 31
0.0
  0
LINE
  5
1AC
330
1F
100
AcDbEntity
  8
0
  6
Continuous
 62
     7
370
     0
100
AcDbLine
 10
208.5777614184
 20
117.0595466028
 30
0.0
 11
208.5777614184
 21
119.1142015507
 31
0.0
  0
LINE
  5
1AD
330
1F
100
AcDbEntity
  8
0
  6
Continuous
 62
     7
370
     0
100
AcDbLine
 10
208.8675204496
 20
117.0595466028
 30
0.0
 11
208.5777614184
 21
117.0595466028
 31
0.0
  0
LINE
  5
1AE
330
1F
100
AcDbEntity
  8
0
  6
Continuous
 62
     7
370
     0
100
AcDbLine
 10
213.134880726
 20
117.9815071563
 30
0.0
 11
213.134880726
 21
117.0595466028
 31
0.0
  0
LINE
  5
1AF
330
1F
100
AcDbEntity
  8
0
  6
Continuous
 62
     7
370
     0
100
AcDbLine
 10
213.4316367792
 20
117.9815071563
 30
0.0
 11
213.134880726
 21
117.9815071563
 31
0.0
  0
SPLINE
  5
1B0
330
1F
100
AcDbEntity
  8
0
  6
Continuous
 62
     7
370
     0
100
AcDbSpline
210
0.0
220
0.0
230
1.0
 70
     8
 71
     3
 72
    11
 73
     7
 74
     0
 42
0.000000001
 43
0.00000001
 40
0.0
 40
0.0
 40
0.0
 40
0.0
 40
0.1774946570818496
 40
0.4052256231013751
 40
0.6783881083348569
 40
0.9999999999999999
 40
0.9999999999999999
 40
0.9999999999999999
 40
0.9999999999999999
 10
213.5744583470743
 20
117.9720405970776
 30
0.0
 10
213.5661067664225
 20
117.9735466709068
 30
0.0
 10
213.5470398574284
 20
117.9769850826084
 30
0.0
 10
213.5146642935352
 20
117.9792307147726
 30
0.0
 10
213.4754373259901
 20
117.9816141528788
 30
0.0
 10
213.4470088741131
 20
117.9815447074865
 30
0.0
 10
213.4316367791803
 20
117.9815071563329
 30
0.0
  0
SPLINE
  5
1B1
330
1F
100
AcDbEntity
  8
0
  6
Continuous
 62
     7
370
     0
100
AcDbSpline
210
0.0
220
0.0
230
1.0
 70
     8
 71
     3
 72
    21
 73
    17
 74
     0
 42
0.000000001
 43
0.00000001
 40
0.0
 40
0.0
 40
0.0
 40
0.0
 40
0.0807814705861226
 40
0.1565412257955895
 40
0.227934986843486
 40
0.2943103173046012
 40
0.3568678635548111
 40
0.4147585592592752
 40
0.467641396834016
 40
0.5167484215300129
 40
0.604729741894053
 40
0.6815706529393896
 40
0.7481095416219826
 40
0.8049410995352804
 40
0.9054060495000024
 40
1.0
 40
1.0
 40
1.0
 40
1.0
 10
214.0058041774863
 20
117.4933619703895
 30
0.0
 10
213.9965993909356
 20
117.5085829040034
 30
0.0
 10
213.9787620260128
 20
117.538078574092
 30
0.0
 10
213.9529965914182
 20
117.5811555803434
 30
0.0
 10
213.9277344299165
 20
117.6208148282033
 30
0.0
 10
213.9043042072259
 20
117.6581898005583
 30
0.0
 10
213.8817550856489
 20
117.6926019732177
 30
0.0
 10
213.8603049424746
 20
117.7241708873651
 30
0.0
 10
213.8405440951683
 20
117.753310685913
 30
0.0
 10
213.8160677310121
 20
117.787236994762
 30
0.0
 10
213.7875813083923
 20
117.8247767703236
 30
0.0
 10
213.75433960772
 20
117.8634356503379
 30
0.0
 10
213.7226836528802
 20
117.8942578604098
 30
0.0
 10
213.683698760283
 20
117.9244823160728
 30
0.0
 10
213.6354100728541
 20
117.9527522139148
 30
0.0
 10
213.5943637770126
 20
117.9657414553428
 30
0.0
 10
213.5744583470743
 20
117.9720405970776
 30
0.0
  0
LINE
  5
1B2
330
1F
100
AcDbEntity
  8
0
  6
Continuous
 62
     7
370
     0
100
AcDbLine
 10
214.2618128669
 20
117.0595466028
 30
0.0
 11
214.0058041775
 21
117.4933619704
 31
0.0
  0
LINE
  5
1B3
330
1F
100
AcDbEntity
  8
0
  6
Continuous
 62
     7
370
     0
100
AcDbLine
 10
214.5939656199
 20
117.0595466028
 30
0.0
 11
214.2618128669
 21
117.0595466028
 31
0.0
  0
LINE
  5
1B4
330
1F
100
AcDbEntity
  8
0
  6
Continuous
 62
     7
370
     0
100
AcDbLine
 10
214.2568737925
 20
117.626716979
 30
0.0
 11
214.5939656199
 21
117.0595466028
 31
0.0
  0
SPLINE
  5
1B5
330
1F
100
AcDbEntity
  8
0
  6
Continuous
 62
     7
370
     0
100
AcDbSpline
210
0.0
220
0.0
230
1.0
 70
     8
 71
     3
 72
    11
 73
     7
 74
     0
 42
0.000000001
 43
0.00000001
 40
0.0
 40
0.0
 40
0.0
 40
0.0
 40
0.2295275697008571
 40
0.4714659343032296
 40
0.7281863484998697
 40
1.0
 40
1.0
 40
1.0
 40
1.0
 10
214.0403776982445
 20
117.9065978613567
 30
0.0
 10
214.0597875081165
 20
117.887570575478
 30
0.0
 10
214.0996566365086
 20
117.8484871785434
 30
0.0
 10
214.1545980271966
 20
117.7819167046216
 30
0.0
 10
214.2078655923654
 20
117.7078135520502
 30
0.0
 10
214.2402296545369
 20
117.6542589525526
 30
0.0
 10
214.2568737925162
 20
117.6267169790283
 30
0.0
  0
SPLINE
  5
1B6
330
1F
100
AcDbEntity
  8
0
  6
Continuous
 62
     7
370
     0
100
AcDbSpline
210
0.0
220
0.0
230
1.0
 70
     8
 71
     3
 72
    11
 73
     7
 74
     0
 42
0.000000001
 43
0.00000001
 40
0.0
 40
0.0
 40
0.0
 40
0.0
 40
0.2930762433192213
 40
0.5565623371181898
 40
0.7919136092098108
 40
1.0
 40
1.0
 40
1.0
 40
1.0
 10
213.8806809595042
 20
118.0078488864344
 30
0.0
 10
213.8972228065111
 20
117.9994923101992
 30
0.0
 10
213.9286363695012
 20
117.9836228710832
 30
0.0
 10
213.9721288367189
 20
117.9587397283768
 30
0.0
 10
214.0089958956434
 20
117.9333152882576
 30
0.0
 10
214.0303548510404
 20
117.91513098136
 30
0.0
 10
214.0403776982445
 20
117.9065978613567
 30
0.0
  0
SPLINE
  5
1B7
330
1F
100
AcDbEntity
  8
0
  6
Continuous
 62
     7
370
     0
100
AcDbSpline
210
0.0
220
0.0
230
1.0
 70
     8
 71
     3
 72
    23
 73
    19
 74
     0
 42
0.000000001
 43
0.00000001
 40
0.0
 40
0.0
 40
0.0
 40
0.0
 40
0.0614130692946597
 40
0.1212950233845471
 40
0.1792240423087202
 40
0.2359380947348319
 40
0.2922168332673612
 40
0.3481966394342069
 40
0.4044447389633588
 40
0.4620255339229974
 40
0.5203342118681488
 40
0.5803829016508381
 40
0.641825904813988
 40
0.7063632097966277
 40
0.7738513938275595
 40
0.8452662573568828
 40
0.920154675768406
 40
1.0
 40
1.0
 40
1.0
 40
1.0
 10
214.4256255009789
 20
118.5602020395001
 30
0.0
 10
214.4252234407031
 20
118.5426261908748
 30
0.0
 10
214.4244293440863
 20
118.5079126845399
 30
0.0
 10
214.4183464841226
 20
118.4568745384726
 30
0.0
 10
214.4073400401437
 20
118.4081096422534
 30
0.0
 10
214.3932264451465
 20
118.3611909216636
 30
0.0
 10
214.3739092392183
 20
118.316783139979
 30
0.0
 10
214.3515310946092
 20
118.2739792547258
 30
0.0
 10
214.3238077550425
 20
118.2339552028311
 30
0.0
 10
214.2927684106944
 20
118.195645207965
 30
0.0
 10
214.2571746063721
 20
118.1598697679371
 30
0.0
 10
214.216713224139
 20
118.1279195726657
 30
0.0
 10
214.1717853483926
 20
118.099180308063
 30
0.0
 10
214.1221793868736
 20
118.074444901606
 30
0.0
 10
214.068466354071
 20
118.0518355657759
 30
0.0
 10
214.0099722989708
 20
118.0336294391875
 30
0.0
 10
213.9469332987017
 20
118.0187627407674
 30
0.0
 10
213.9032317334279
 20
118.0115637116719
 30
0.0
 10
213.8806809595042
 20
118.0078488864344
 30
0.0
  0
SPLINE
  5
1B8
330
1F
100
AcDbEntity
  8
0
  6
Continuous
 62
     7
370
     0
100
AcDbSpline
210
0.0
220
0.0
230
1.0
 70
     8
 71
     3
 72
    27
 73
    23
 74
     0
 42
0.000000001
 43
0.00000001
 40
0.0
 40
0.0
 40
0.0
 40
0.0
 40
0.0621127506505294
 40
0.1202119588785538
 40
0.1743851213884739
 40
0.2254437557784867
 40
0.2723582126361769
 40
0.3163881629634408
 40
0.3568694790582282
 40
0.3939783235063667
 40
0.4295893718770922
 40
0.464683040954987
 40
0.50003634614284
 40
0.5354827477530639
 40
0.5713634671484435
 40
0.6079085322052601
 40
0.6456622985331159
 40
0.6845173397035775
 40
0.7625786223763461
 40
0.8404972886541807
 40
0.9190729926935233
 40
1.0
 40
1.0
 40
1.0
 40
1.0
 10
213.7366246230116
 20
119.1142015506972
 30
0.0
 10
213.7576167871982
 20
119.1140370684039
 30
0.0
 10
213.7982446639471
 20
119.1137187321772
 30
0.0
 10
213.8571634739807
 20
119.1114652732237
 30
0.0
 10
213.9121582765766
 20
119.1066074068675
 30
0.0
 10
213.9633301887766
 20
119.1013543014465
 30
0.0
 10
214.0106701187988
 20
119.0932914862357
 30
0.0
 10
214.0541292273267
 20
119.0840436193325
 30
0.0
 10
214.0937746130262
 20
119.0730385179013
 30
0.0
 10
214.1297835147516
 20
119.0600406447271
 30
0.0
 10
214.1631919237743
 20
119.0453354984393
 30
0.0
 10
214.1941589954275
 20
119.0271917220791
 30
0.0
 10
214.2239719909677
 20
119.0073100118661
 30
0.0
 10
214.2515244461231
 20
118.9839519694336
 30
0.0
 10
214.2775430595937
 20
118.958377074974
 30
0.0
 10
214.3020037165109
 20
118.9302378199306
 30
0.0
 10
214.3245442963135
 20
118.8992900128382
 30
0.0
 10
214.3523454020978
 20
118.854997282866
 30
0.0
 10
214.3821703204288
 20
118.7960086939098
 30
0.0
 10
214.4070191620752
 20
118.7205160815418
 30
0.0
 10
214.4230412506475
 20
118.6415480534886
 30
0.0
 10
214.4247556599018
 20
118.5875825542938
 30
0.0
 10
214.4256255009789
 20
118.5602020395001
 30
0.0
  0
LINE
  5
1B9
330
1F
100
AcDbEntity
  8
0
  6
Continuous
 62
     7
370
     0
100
AcDbLine
 10
212.8451216949
 20
119.1142015507
 30
0.0
 11
213.736624623
 21
119.1142015507
 31
0.0
  0
LINE
  5
1BA
330
1F
100
AcDbEntity
  8
0
  6
Continuous
 62
     7
370
     0
100
AcDbLine
 10
212.8451216949
 20
117.0595466028
 30
0.0
 11
212.8451216949
 21
119.1142015507
 31
0.0
  0
LINE
  5
1BB
330
1F
100
AcDbEntity
  8
0
  6
Continuous
 62
     7
370
     0
100
AcDbLine
 10
213.134880726
 20
117.0595466028
 30
0.0
 11
212.8451216949
 21
117.0595466028
 31
0.0
  0
LINE
  5
1BC
330
1F
100
AcDbEntity
  8
0
  6
Continuous
 62
     7
370
     0
100
AcDbLine
 10
216.7404050336
 20
117.6917481252
 30
0.0
 11
216.506622179
 21
117.0595466028
 31
0.0
  0
LINE
  5
1BD
330
1F
100
AcDbEntity
  8
0
  6
Continuous
 62
     7
370
     0
100
AcDbLine
 10
217.6162675595
 20
117.6917481252
 30
0.0
 11
216.7404050336
 21
117.6917481252
 31
0.0
  0
LINE
  5
1BE
330
1F
100
AcDbEntity
  8
0
  6
Continuous
 62
     7
370
     0
100
AcDbLine
 10
217.8500504142
 20
117.0595466028
 30
0.0
 11
217.6162675595
 21
117.6917481252
 31
0.0
  0
LINE
  5
1BF
330
1F
100
AcDbEntity
  8
0
  6
Continuous
 62
     7
370
     0
100
AcDbLine
 10
218.1575077952
 20
117.0595466028
 30
0.0
 11
217.8500504142
 21
117.0595466028
 31
0.0
  0
LINE
  5
1C0
330
1F
100
AcDbEntity
  8
0
  6
Continuous
 62
     7
370
     0
100
AcDbLine
 10
217.3417373411
 20
119.1142015507
 30
0.0
 11
218.1575077952
 21
117.0595466028
 31
0.0
  0
LINE
  5
1C1
330
1F
100
AcDbEntity
  8
0
  6
Continuous
 62
     7
370
     0
100
AcDbLine
 10
217.014935252
 20
119.1142015507
 30
0.0
 11
217.3417373411
 21
119.1142015507
 31
0.0
  0
LINE
  5
1C2
330
1F
100
AcDbEntity
  8
0
  6
Continuous
 62
     7
370
     0
100
AcDbLine
 10
216.199164798
 20
117.0595466028
 30
0.0
 11
217.014935252
 21
119.1142015507
 31
0.0
  0
LINE
  5
1C3
330
1F
100
AcDbEntity
  8
0
  6
Continuous
 62
     7
370
     0
100
AcDbLine
 10
216.506622179
 20
117.0595466028
 30
0.0
 11
216.199164798
 21
117.0595466028
 31
0.0
  0
SPLINE
  5
1C4
330
1F
100
AcDbEntity
  8
0
  6
Continuous
 62
     7
370
     0
100
AcDbSpline
210
0.0
220
0.0
230
1.0
 70
     8
 71
     3
 72
    23
 73
    19
 74
     0
 42
0.000000001
 43
0.00000001
 40
0.0
 40
0.0
 40
0.0
 40
0.0
 40
0.0748159666505558
 40
0.1485345605139198
 40
0.2238723272963845
 40
0.3012971209351246
 40
0.3408936290197578
 40
0.3803400620654405
 40
0.4201265887284641
 40
0.4599499070829662
 40
0.5008311555562168
 40
0.5419071755971083
 40
0.5844387941530511
 40
0.6280801713306066
 40
0.7172666799070601
 40
0.8078600064218678
 40
0.9019246558363443
 40
1.0
 40
1.0
 40
1.0
 40
1.0
 10
221.7749681992962
 20
117.6427689708089
 30
0.0
 10
221.7738959137961
 20
117.6159164580116
 30
0.0
 10
221.771767070681
 20
117.5626052950928
 30
0.0
 10
221.753436963685
 20
117.4840221753914
 30
0.0
 10
221.7246413350658
 20
117.4078755710302
 30
0.0
 10
221.6908713276906
 20
117.3474490458948
 30
0.0
 10
221.658948463703
 20
117.3012919622759
 30
0.0
 10
221.632131752133
 20
117.2681163600567
 30
0.0
 10
221.6023935607761
 20
117.2374404603499
 30
0.0
 10
221.5704660137193
 20
117.2083032454252
 30
0.0
 10
221.536101223669
 20
117.1812992096954
 30
0.0
 10
221.4990094741282
 20
117.1564191577915
 30
0.0
 10
221.4595822509595
 20
117.1334040906017
 30
0.0
 10
221.4032811677515
 20
117.1053588834874
 30
0.0
 10
221.328503975929
 20
117.0760209337382
 30
0.0
 10
221.2332528451864
 20
117.0515892827244
 30
0.0
 10
221.1328696905022
 20
117.0357398665958
 30
0.0
 10
221.0639404199659
 20
117.0340615482868
 30
0.0
 10
221.0287563762648
 20
117.033204872679
 30
0.0
  0
SPLINE
  5
1C5
330
1F
100
AcDbEntity
  8
0
  6
Continuous
 62
     7
370
     0
100
AcDbSpline
210
0.0
220
0.0
230
1.0
 70
     8
 71
     3
 72
    23
 73
    19
 74
     0
 42
0.000000001
 43
0.00000001
 40
0.0
 40
0.0
 40
0.0
 40
0.0
 40
0.0749313059818448
 40
0.1470775964339468
 40
0.2163644561730687
 40
0.2825027309006236
 40
0.3466877108244161
 40
0.4088355551310383
 40
0.4692619872876918
 40
0.5284320432534629
 40
0.5870013379727416
 40
0.6444163938320668
 40
0.7021887902662972
 40
0.7597671795443348
 40
0.8184897928274487
 40
0.8776328274167842
 40
0.9380195662701677
 40
1.0
 40
1.0
 40
1.0
 40
1.0
 10
221.4185316638603
 20
118.1395575369418
 30
0.0
 10
221.4333045598608
 20
118.1327462832048
 30
0.0
 10
221.4623012790245
 20
118.1193769335688
 30
0.0
 10
221.5033790145765
 20
118.0965507802654
 30
0.0
 10
221.5417089983869
 20
118.0728470488896
 30
0.0
 10
221.5769815498033
 20
118.0476275549492
 30
0.0
 10
221.6090826156215
 20
118.0208392498684
 30
0.0
 10
221.6383711232575
 20
117.9927890686885
 30
0.0
 10
221.6650239650187
 20
117.9636346580014
 30
0.0
 10
221.6879657012782
 20
117.9324429069175
 30
0.0
 10
221.7085650266784
 20
117.9004747265253
 30
0.0
 10
221.7265908080916
 20
117.8672833204201
 30
0.0
 10
221.7411048211082
 20
117.8326734963022
 30
0.0
 10
221.7538345158151
 20
117.7970624434702
 30
0.0
 10
221.7629908176202
 20
117.7600540634265
 30
0.0
 10
221.7701712050491
 20
117.7220221655272
 30
0.0
 10
221.7743594049543
 20
117.6827879887967
 30
0.0
 10
221.7747635134957
 20
117.6562239656523
 30
0.0
 10
221.7749681992962
 20
117.6427689708089
 30
0.0
  0
SPLINE
  5
1C6
330
1F
100
AcDbEntity
  8
0
  6
Continuous
 62
     7
370
     0
100
AcDbSpline
210
0.0
220
0.0
230
1.0
 70
     8
 71
     3
 72
    23
 73
    19
 74
     0
 42
0.000000001
 43
0.00000001
 40
0.0
 40
0.0
 40
0.0
 40
0.0
 40
0.0327432182311376
 40
0.0724096054938575
 40
0.1196114857927602
 40
0.174672915198513
 40
0.2373450901947012
 40
0.3083524168429162
 40
0.3876300477623597
 40
0.474783615586252
 40
0.5633323159904133
 40
0.6451362168299871
 40
0.7202025267224654
 40
0.7891341563324468
 40
0.8514970735699654
 40
0.9073306044315619
 40
0.9569686823424192
 40
0.9999999999999999
 40
0.9999999999999999
 40
0.9999999999999999
 40
0.9999999999999999
 10
220.6105814109035
 20
118.4153225239419
 30
0.0
 10
220.6177168879027
 20
118.4092407775939
 30
0.0
 10
220.6334965547295
 20
118.395791371043
 30
0.0
 10
220.6628570573312
 20
118.3779926561948
 30
0.0
 10
220.6992597261697
 20
118.3600093231915
 30
0.0
 10
220.74294779792
 20
118.3421324985759
 30
0.0
 10
220.7938461056878
 20
118.32414515956
 30
0.0
 10
220.8518725494968
 20
118.3056249820853
 30
0.0
 10
220.9172481452266
 20
118.2872309832949
 30
0.0
 10
220.9879805735739
 20
118.2695053220459
 30
0.0
 10
221.0594368193021
 20
118.2517084022765
 30
0.0
 10
221.1273442758591
 20
118.2339793117724
 30
0.0
 10
221.189694815628
 20
118.2171770127502
 30
0.0
 10
221.2463895149517
 20
118.200789122346
 30
0.0
 10
221.2974870546104
 20
118.1848619795893
 30
0.0
 10
221.3428098519313
 20
118.1690618903093
 30
0.0
 10
221.3827245854859
 20
118.1545298159663
 30
0.0
 10
221.4071770753155
 20
118.1443053151918
 30
0.0
 10
221.4185316638603
 20
118.1395575369418
 30
0.0
  0
SPLINE
  5
1C7
330
1F
100
AcDbEntity
  8
0
  6
Continuous
 62
     7
370
     0
100
AcDbSpline
210
0.0
220
0.0
230
1.0
 70
     8
 71
     3
 72
    11
 73
     7
 74
     0
 42
0.000000001
 43
0.00000001
 40
0.0
 40
0.0
 40
0.0
 40
0.0
 40
0.2627412305282689
 40
0.5099565029432328
 40
0.7533267184204503
 40
1.0
 40
1.0
 40
1.0
 40
1.0
 10
220.5369068845259
 20
118.5968335079225
 30
0.0
 10
220.5376556900666
 20
118.5791561598761
 30
0.0
 10
220.5391090525791
 20
118.5448460572213
 30
0.0
 10
220.5539500087735
 20
118.4961017438408
 30
0.0
 10
220.5767755032354
 20
118.4516681438819
 30
0.0
 10
220.5992622521398
 20
118.4274920490588
 30
0.0
 10
220.6105814109035
 20
118.4153225239419
 30
0.0
  0
SPLINE
  5
1C8
330
1F
100
AcDbEntity
  8
0
  6
Continuous
 62
     7
370
     0
100
AcDbSpline
210
0.0
220
0.0
230
1.0
 70
     8
 71
     3
 72
    23
 73
    19
 74
     0
 42
0.000000001
 43
0.00000001
 40
0.0
 40
0.0
 40
0.0
 40
0.0
 40
0.0915110363280374
 40
0.1771428603141494
 40
0.257108485228235
 40
0.3311983993883849
 40
0.4005922945239579
 40
0.4656249598049641
 40
0.5269734913138601
 40
0.585443115704023
 40
0.6413985080863307
 40
0.695044167265724
 40
0.7467815514927484
 40
0.7969589345766992
 40
0.8475448623598799
 40
0.8974385414187387
 40
0.9476489188871285
 40
1.0
 40
1.0
 40
1.0
 40
1.0
 10
220.9719570207334
 20
118.9034677098852
 30
0.0
 10
220.9536973081331
 20
118.9033300768037
 30
0.0
 10
220.9183509952912
 20
118.9030636530071
 30
0.0
 10
220.8672538916804
 20
118.898207080097
 30
0.0
 10
220.8198934814454
 20
118.8915436897955
 30
0.0
 10
220.7763511111181
 20
118.8817146224853
 30
0.0
 10
220.7367694198185
 20
118.8688483403746
 30
0.0
 10
220.7005609585107
 20
118.8539907369149
 30
0.0
 10
220.6687390593952
 20
118.8351622728487
 30
0.0
 10
220.6405618991002
 20
118.8141898127353
 30
0.0
 10
220.6162555295647
 20
118.7909849441523
 30
0.0
 10
220.5953070396065
 20
118.7665326230613
 30
0.0
 10
220.5767797182426
 20
118.7415512762342
 30
0.0
 10
220.5623835808659
 20
118.7146754068807
 30
0.0
 10
220.5506629612556
 20
118.6869228449888
 30
0.0
 10
220.5431018737415
 20
118.6577719332906
 30
0.0
 10
220.5377484471525
 20
118.6277618879194
 30
0.0
 10
220.5371912818601
 20
118.6072854321702
 30
0.0
 10
220.5369068845259
 20
118.5968335079225
 30
0.0
  0
SPLINE
  5
1C9
330
1F
100
AcDbEntity
  8
0
  6
Continuous
 62
     7
370
     0
100
AcDbSpline
210
0.0
220
0.0
230
1.0
 70
     8
 71
     3
 72
    23
 73
    19
 74
     0
 42
0.000000001
 43
0.00000001
 40
0.0
 40
0.0
 40
0.0
 40
0.0
 40
0.0671554674490457
 40
0.1314033464826145
 40
0.1927317719102095
 40
0.2512526591565258
 40
0.3077037298841911
 40
0.3626989162982004
 40
0.4177783327854311
 40
0.4723043857981145
 40
0.5278725997916965
 40
0.5852299868117377
 40
0.6450565760102913
 40
0.707952356429442
 40
0.7744342720454274
 40
0.8449404313752613
 40
0.9204035944750272
 40
1.0
 40
1.0
 40
1.0
 40
1.0
 10
221.4325257079768
 20
118.5346834884643
 30
0.0
 10
221.4306846217924
 20
118.5493960997159
 30
0.0
 10
221.4270821617846
 20
118.5781843194603
 30
0.0
 10
221.4181449367123
 20
118.6198595985299
 30
0.0
 10
221.4056167455762
 20
118.6585657223949
 30
0.0
 10
221.3909423942814
 20
118.6946636518636
 30
0.0
 10
221.3731540083249
 20
118.7277779287426
 30
0.0
 10
221.3524178975867
 20
118.7582265225324
 30
0.0
 10
221.3284815402267
 20
118.7856506968444
 30
0.0
 10
221.301960843902
 20
118.8107751034988
 30
0.0
 10
221.272048788697
 20
118.8326514483268
 30
0.0
 10
221.2388990720513
 20
118.8516407872424
 30
0.0
 10
221.2024557361863
 20
118.8676824303732
 30
0.0
 10
221.1627508876136
 20
118.8808210592949
 30
0.0
 10
221.1197766655487
 20
118.8910082382392
 30
0.0
 10
221.0734353246236
 20
118.8985021215464
 30
0.0
 10
221.0237447764877
 20
118.9023400747121
 30
0.0
 10
220.9895236700513
 20
118.9030852107528
 30
0.0
 10
220.9719570207334
 20
118.9034677098852
 30
0.0
  0
LINE
  5
1CA
330
1F
100
AcDbEntity
  8
0
  6
Continuous
 62
     7
370
     0
100
AcDbLine
 10
221.7222847391
 20
118.5346834885
 30
0.0
 11
221.432525708
 21
118.5346834885
 31
0.0
  0
SPLINE
  5
1CB
330
1F
100
AcDbEntity
  8
0
  6
Continuous
 62
     7
370
     0
100
AcDbSpline
210
0.0
220
0.0
230
1.0
 70
     8
 71
     3
 72
    23
 73
    19
 74
     0
 42
0.000000001
 43
0.00000001
 40
0.0
 40
0.0
 40
0.0
 40
0.0
 40
0.1004750608070147
 40
0.1956443031597846
 40
0.2860833790699328
 40
0.3729828804699541
 40
0.4150256681909618
 40
0.4560516735090278
 40
0.4959387495188997
 40
0.5355660888033515
 40
0.574087109908504
 40
0.6125192874870975
 40
0.6510809601344449
 40
0.6895131377130385
 40
0.7662374603277345
 40
0.8423504388672224
 40
0.9199744947371037
 40
1.0
 40
1.0
 40
1.0
 40
1.0
 10
220.960432513814
 20
119.1405432807987
 30
0.0
 10
220.996966281632
 20
119.1397061653035
 30
0.0
 10
221.0681045669849
 20
119.1380761401369
 30
0.0
 10
221.1714705063413
 20
119.1245146276787
 30
0.0
 10
221.2678826303719
 20
119.1012259421876
 30
0.0
 10
221.3434923259868
 20
119.0751565953314
 30
0.0
 10
221.3993896897492
 20
119.0487649187641
 30
0.0
 10
221.4391007334032
 20
119.0281717615204
 30
0.0
 10
221.4759604345887
 20
119.0043623203673
 30
0.0
 10
221.5103006049604
 20
118.9785967802385
 30
0.0
 10
221.5424402182286
 20
118.950886908141
 30
0.0
 10
221.5715532141631
 20
118.9205735777967
 30
0.0
 10
221.5989037602469
 20
118.8886910251819
 30
0.0
 10
221.6310444631918
 20
118.8429176689528
 30
0.0
 10
221.6656989548582
 20
118.7823368909461
 30
0.0
 10
221.6956624800187
 20
118.703852086786
 30
0.0
 10
221.7162477713095
 20
118.6210178200113
 30
0.0
 10
221.720252084156
 20
118.5637523706502
 30
0.0
 10
221.7222847390932
 20
118.5346834884643
 30
0.0
  0
SPLINE
  5
1CC
330
1F
100
AcDbEntity
  8
0
  6
Continuous
 62
     7
370
     0
100
AcDbSpline
210
0.0
220
0.0
230
1.0
 70
     8
 71
     3
 72
    23
 73
    19
 74
     0
 42
0.000000001
 43
0.00000001
 40
0.0
 40
0.0
 40
0.0
 40
0.0
 40
0.0749954673898322
 40
0.1491654404266558
 40
0.2236642943382247
 40
0.3004120221906725
 40
0.3395704846106348
 40
0.3789205746932795
 40
0.4180957375990935
 40
0.4582296767501551
 40
0.4984267212184583
 40
0.5397075464534797
 40
0.5822159516458436
 40
0.6258238199943749
 40
0.7154812648736979
 40
0.8073840844133601
 40
0.9016341255073719
 40
1.0
 40
1.0
 40
1.0
 40
1.0
 10
220.2471478534094
 20
118.577900389412
 30
0.0
 10
220.2481257579425
 20
118.6033728483379
 30
0.0
 10
220.2500708029626
 20
118.6540373842981
 30
0.0
 10
220.2673244182558
 20
118.7283844323728
 30
0.0
 10
220.2948442647342
 20
118.7999260682035
 30
0.0
 10
220.3261702076957
 20
118.8567240222958
 30
0.0
 10
220.3567199246469
 20
118.8996743809981
 30
0.0
 10
220.382045872044
 20
118.9306064441892
 30
0.0
 10
220.4104538754059
 20
118.9591989781403
 30
0.0
 10
220.4410690669814
 20
118.9858511153389
 30
0.0
 10
220.4744387243424
 20
119.0101646420065
 30
0.0
 10
220.5097349429612
 20
119.0331388135321
 30
0.0
 10
220.5482352488045
 20
119.052885665278
 30
0.0
 10
220.6023339041103
 20
119.0780189504311
 30
0.0
 10
220.6747048696662
 20
119.103116885968
 30
0.0
 10
220.7658108634327
 20
119.1249865532651
 30
0.0
 10
220.8616969303607
 20
119.137865145653
 30
0.0
 10
220.9270551261525
 20
119.1396379419954
 30
0.0
 10
220.960432513814
 20
119.1405432807987
 30
0.0
  0
SPLINE
  5
1CD
330
1F
100
AcDbEntity
  8
0
  6
Continuous
 62
     7
370
     0
100
AcDbSpline
210
0.0
220
0.0
230
1.0
 70
     8
 71
     3
 72
    15
 73
    11
 74
     0
 42
0.000000001
 43
0.00000001
 40
0.0
 40
0.0
 40
0.0
 40
0.0
 40
0.1448052410584836
 40
0.2795118010254855
 40
0.4063939211311607
 40
0.5275015404829176
 40
0.6453932904726505
 40
0.7618854106740867
 40
0.8789420729184868
 40
1.0
 40
1.0
 40
1.0
 40
1.0
 10
220.5504893391095
 20
118.1337952834821
 30
0.0
 10
220.5263067951115
 20
118.1468593903579
 30
0.0
 10
220.479628191652
 20
118.1720765165816
 30
0.0
 10
220.416803961258
 20
118.2171648088288
 30
0.0
 10
220.3638681694085
 20
118.2671986143266
 30
0.0
 10
220.3210441418058
 20
118.322105381955
 30
0.0
 10
220.2874846271121
 20
118.3809565064502
 30
0.0
 10
220.2648421692876
 20
118.443852035277
 30
0.0
 10
220.2493339548107
 20
118.5096502970856
 30
0.0
 10
220.2478846717681
 20
118.5548969180362
 30
0.0
 10
220.2471478534094
 20
118.577900389412
 30
0.0
  0
SPLINE
  5
1CE
330
1F
100
AcDbEntity
  8
0
  6
Continuous
 62
     7
370
     0
100
AcDbSpline
210
0.0
220
0.0
230
1.0
 70
     8
 71
     3
 72
    23
 73
    19
 74
     0
 42
0.000000001
 43
0.00000001
 40
0.0
 40
0.0
 40
0.0
 40
0.0
 40
0.031200111153937
 40
0.0704867190162008
 40
0.1172148300204118
 40
0.1715755269954925
 40
0.2341219784876085
 40
0.3039626396728072
 40
0.3821556401561973
 40
0.4676462220680265
 40
0.5543353814021611
 40
0.6350744656665043
 40
0.7100366878785244
 40
0.7790924037748317
 40
0.8429656453505103
 40
0.9010012068505269
 40
0.953246256459026
 40
1.0
 40
1.0
 40
1.0
 40
1.0
 10
221.2662435367111
 20
117.9061862718239
 30
0.0
 10
221.2590048884371
 20
117.9091567741953
 30
0.0
 10
221.2426514669885
 20
117.915867678684
 30
0.0
 10
221.2146224700196
 20
117.9247517607606
 30
0.0
 10
221.1813625154752
 20
117.9362397853975
 30
0.0
 10
221.142072559677
 20
117.9480705810741
 30
0.0
 10
221.0969629390287
 20
117.9605859082747
 30
0.0
 10
221.0461087565132
 20
117.9747513611899
 30
0.0
 10
220.9895384286175
 20
117.9898155450049
 30
0.0
 10
220.928856387528
 20
118.0058497278097
 30
0.0
 10
220.8675860177457
 20
118.0221540328588
 30
0.0
 10
220.8090493373718
 20
118.0384736065773
 30
0.0
 10
220.7551928085927
 20
118.0550400643615
 30
0.0
 10
220.705575273731
 20
118.0709912760081
 30
0.0
 10
220.6604525337537
 20
118.0870082972106
 30
0.0
 10
220.6196965199729
 20
118.102652616347
 30
0.0
 10
220.5832564195241
 20
118.117606830942
 30
0.0
 10
220.5610001933908
 20
118.1286024355525
 30
0.0
 10
220.5504893391095
 20
118.1337952834821
 30
0.0
  0
SPLINE
  5
1CF
330
1F
100
AcDbEntity
  8
0
  6
Continuous
 62
     7
370
     0
100
AcDbSpline
210
0.0
220
0.0
230
1.0
 70
     8
 71
     3
 72
    15
 73
    11
 74
     0
 42
0.000000001
 43
0.00000001
 40
0.0
 40
0.0
 40
0.0
 40
0.0
 40
0.1177675192120365
 40
0.2301764485440569
 40
0.3398429589695383
 40
0.4506252599208613
 40
0.5669428888721608
 40
0.6960213064547938
 40
0.8394383602270619
 40
1.0
 40
1.0
 40
1.0
 40
1.0
 10
221.4852091681798
 20
117.6287749266925
 30
0.0
 10
221.4845154730646
 20
117.643627441121
 30
0.0
 10
221.4831596469502
 20
117.6726566594146
 30
0.0
 10
221.4743241036661
 20
117.7149195750021
 30
0.0
 10
221.4575309051253
 20
117.7536024186516
 30
0.0
 10
221.4357398001443
 20
117.7902840437273
 30
0.0
 10
221.4054246524749
 20
117.8238214426983
 30
0.0
 10
221.3671248845233
 20
117.8547231643195
 30
0.0
 10
221.3199966562911
 20
117.8827389643931
 30
0.0
 10
221.2848225241609
 20
117.8980820495221
 30
0.0
 10
221.2662435367111
 20
117.9061862718239
 30
0.0
  0
SPLINE
  5
1D0
330
1F
100
AcDbEntity
  8
0
  6
Continuous
 62
     7
370
     0
100
AcDbSpline
210
0.0
220
0.0
230
1.0
 70
     8
 71
     3
 72
    19
 73
    15
 74
     0
 42
0.000000001
 43
0.00000001
 40
0.0
 40
0.0
 40
0.0
 40
0.0
 40
0.1055838864195047
 40
0.2058681332620123
 40
0.300946717742213
 40
0.3930019285950109
 40
0.4809485116065869
 40
0.5628738662802266
 40
0.6414613436333617
 40
0.7177416181792269
 40
0.7917717603087844
 40
0.8627163930302565
 40
0.9317768462002766
 40
1.0
 40
1.0
 40
1.0
 40
1.0
 10
221.0159971007469
 20
117.2702804435925
 30
0.0
 10
221.0392246826486
 20
117.2707103613942
 30
0.0
 10
221.0845139695697
 20
117.2715486178583
 30
0.0
 10
221.1500299853188
 20
117.2816181547756
 30
0.0
 10
221.21168074651
 20
117.295901522382
 30
0.0
 10
221.2683188681858
 20
117.3175073520964
 30
0.0
 10
221.3197354180781
 20
117.34374360389
 30
0.0
 10
221.3643849313934
 20
117.3754769656795
 30
0.0
 10
221.4025043107924
 20
117.4112634806734
 30
0.0
 10
221.4323545479117
 20
117.452045745845
 30
0.0
 10
221.4558042981616
 20
117.4947787398332
 30
0.0
 10
221.4730071141107
 20
117.5387038504003
 30
0.0
 10
221.4832544790097
 20
117.5835772730434
 30
0.0
 10
221.4845602597965
 20
117.613770425309
 30
0.0
 10
221.4852091681798
 20
117.6287749266925
 30
0.0
  0
SPLINE
  5
1D1
330
1F
100
AcDbEntity
  8
0
  6
Continuous
 62
     7
370
     0
100
AcDbSpline
210
0.0
220
0.0
230
1.0
 70
     8
 71
     3
 72
    19
 73
    15
 74
     0
 42
0.000000001
 43
0.00000001
 40
0.0
 40
0.0
 40
0.0
 40
0.0
 40
0.0937964706969321
 40
0.1801880710186108
 40
0.2603631916661888
 40
0.3348466760639746
 40
0.4070930058327162
 40
0.4814483792884682
 40
0.5592709137563652
 40
0.6422698113109349
 40
0.7285859445716476
 40
0.8159775452756135
 40
0.9060351298875359
 40
1.0
 40
1.0
 40
1.0
 40
1.0
 10
220.4578816942214
 20
117.7707733155209
 30
0.0
 10
220.4610688754603
 20
117.7447569390165
 30
0.0
 10
220.4671916222455
 20
117.6947780788056
 30
0.0
 10
220.4843114338046
 20
117.6239405681172
 30
0.0
 10
220.5063457359047
 20
117.5602503761165
 30
0.0
 10
220.5337998688765
 20
117.5028622215162
 30
0.0
 10
220.5699147347474
 20
117.4524641848313
 30
0.0
 10
220.6134269358527
 20
117.4070059253823
 30
0.0
 10
220.666270135952
 20
117.3676418253189
 30
0.0
 10
220.7259180628986
 20
117.3326103553278
 30
0.0
 10
220.7923492070246
 20
117.3051051107386
 30
0.0
 10
220.863270378135
 20
117.2847150201745
 30
0.0
 10
220.9383433440691
 20
117.2726337290453
 30
0.0
 10
220.9897486911683
 20
117.2710758977091
 30
0.0
 10
221.0159971007469
 20
117.2702804435925
 30
0.0
  0
LINE
  5
1D2
330
1F
100
AcDbEntity
  8
0
  6
Continuous
 62
     7
370
     0
100
AcDbLine
 10
220.1681226631
 20
117.7707733155
 30
0.0
 11
220.4578816942
 21
117.7707733155
 31
0.0
  0
SPLINE
  5
1D3
330
1F
100
AcDbEntity
  8
0
  6
Continuous
 62
     7
370
     0
100
AcDbSpline
210
0.0
220
0.0
230
1.0
 70
     8
 71
     3
 72
    31
 73
    27
 74
     0
 42
0.000000001
 43
0.00000001
 40
0.0
 40
0.0
 40
0.0
 40
0.0
 40
0.0524925849212958
 40
0.1028254751380329
 40
0.1513973394924577
 40
0.1980330772483325
 40
0.2428758954632244
 40
0.2859991683849086
 40
0.3278486614843783
 40
0.3683945968796912
 40
0.4078519911389193
 40
0.4468375528599373
 40
0.4851660451611073
 40
0.5233414044713736
 40
0.5616022144094737
 40
0.5999198855663566
 40
0.6384964264110082
 40
0.6777905770472508
 40
0.7172899891758322
 40
0.7566052415928194
 40
0.7960678905323556
 40
0.8358862309537683
 40
0.8757136832726162
 40
0.9162634539474125
 40
0.9577596754778291
 40
1.0
 40
1.0
 40
1.0
 40
1.0
 10
221.0287563762648
 20
117.033204872679
 30
0.0
 10
221.0063856310351
 20
117.0333894862727
 30
0.0
 10
220.9625645368582
 20
117.0337511179301
 30
0.0
 10
220.8981743331956
 20
117.0381305913985
 30
0.0
 10
220.8364680241729
 20
117.0444657150017
 30
0.0
 10
220.7775061659323
 20
117.0539019521328
 30
0.0
 10
220.7214736570419
 20
117.0662817828613
 30
0.0
 10
220.6681693662156
 20
117.0811475669689
 30
0.0
 10
220.617466947214
 20
117.098268582191
 30
0.0
 10
220.5695435559331
 20
117.1184025993437
 30
0.0
 10
220.5245242924561
 20
117.1417961278989
 30
0.0
 10
220.4815996649187
 20
117.1670318262488
 30
0.0
 10
220.4414713048908
 20
117.1956376729891
 30
0.0
 10
220.4040547371749
 20
117.2271641708657
 30
0.0
 10
220.36840190555
 20
117.2607005474524
 30
0.0
 10
220.3359905137878
 20
117.2976164008186
 30
0.0
 10
220.3057186573661
 20
117.3368321783976
 30
0.0
 10
220.2782780394495
 20
117.3787067979168
 30
0.0
 10
220.2537640249065
 20
117.4226924008242
 30
0.0
 10
220.231718941717
 20
117.4680502962126
 30
0.0
 10
220.2131456506739
 20
117.5151095201901
 30
0.0
 10
220.1981773454265
 20
117.5636322364629
 30
0.0
 10
220.1854984330329
 20
117.6132937304106
 30
0.0
 10
220.1767059003158
 20
117.6645083406478
 30
0.0
 10
220.1702413341034
 20
117.7171152717907
 30
0.0
 10
220.1688330581967
 20
117.7527816542735
 30
0.0
 10
220.168122663105
 20
117.7707733155209
 30
0.0
  0
SPLINE
  5
1D4
330
1F
100
AcDbEntity
  8
0
  6
Continuous
 62
     7
370
     0
100
AcDbSpline
210
0.0
220
0.0
230
1.0
 70
     8
 71
     3
 72
    23
 73
    19
 74
     0
 42
0.000000001
 43
0.00000001
 40
0.0
 40
0.0
 40
0.0
 40
0.0
 40
0.0642545754247026
 40
0.1273603868320974
 40
0.1894718420926418
 40
0.2517207629332009
 40
0.3120272840890019
 40
0.3686746571150511
 40
0.4226814918055485
 40
0.4740604252251507
 40
0.5257737722739171
 40
0.5796221048577139
 40
0.6373752855308659
 40
0.6984003818208013
 40
0.7643573310122579
 40
0.8363147679791494
 40
0.9146777942540467
 40
1.0
 40
1.0
 40
1.0
 40
1.0
 10
210.6455872314143
 20
114.4871120225563
 30
0.0
 10
210.6448774636541
 20
114.4637467496824
 30
0.0
 10
210.6434706175907
 20
114.4174339358167
 30
0.0
 10
210.6321720753252
 20
114.3492692621691
 30
0.0
 10
210.6130781379592
 20
114.2837005911032
 30
0.0
 10
210.5867969570342
 20
114.2217880887913
 30
0.0
 10
210.5554818720593
 20
114.164540865276
 30
0.0
 10
210.5198911808257
 20
114.1134578395087
 30
0.0
 10
210.4809325196042
 20
114.069064652303
 30
0.0
 10
210.43750885254
 20
114.0317220469508
 30
0.0
 10
210.3899002809157
 20
114.0000291029067
 30
0.0
 10
210.3367621372275
 20
113.9733415713765
 30
0.0
 10
210.2785052759919
 20
113.9498057261072
 30
0.0
 10
210.2139456589965
 20
113.9310044240875
 30
0.0
 10
210.1431126736296
 20
113.9160686942698
 30
0.0
 10
210.0650450513545
 20
113.9063649262872
 30
0.0
 10
209.9796228530264
 20
113.8994183292678
 30
0.0
 10
209.9201081657024
 20
113.8988402953143
 30
0.0
 10
209.8890856700619
 20
113.898538990601
 30
0.0
  0
SPLINE
  5
1D5
330
1F
100
AcDbEntity
  8
0
  6
Continuous
 62
     7
370
     0
100
AcDbSpline
210
0.0
220
0.0
230
1.0
 70
     8
 71
     3
 72
    23
 73
    19
 74
     0
 42
0.000000001
 43
0.00000001
 40
0.0
 40
0.0
 40
0.0
 40
0.0
 40
0.0704642259291737
 40
0.1379569656042678
 40
0.2035785636142833
 40
0.2676916802449432
 40
0.3301858648593747
 40
0.3915337640898193
 40
0.4526637734870349
 40
0.5131537880892134
 40
0.5734535531000284
 40
0.6329675593891932
 40
0.6923319074206212
 40
0.7514741915716296
 40
0.8121874455294297
 40
0.8729617178483159
 40
0.935420306759491
 40
1.0
 40
1.0
 40
1.0
 40
1.0
 10
210.2582814810157
 20
114.9785499247623
 30
0.0
 10
210.2734396657141
 20
114.9738047628997
 30
0.0
 10
210.3031168123441
 20
114.9645145433133
 30
0.0
 10
210.3457807936232
 20
114.9475147445122
 30
0.0
 10
210.3858292422174
 20
114.9281580406519
 30
0.0
 10
210.4233493325433
 20
114.9064126231939
 30
0.0
 10
210.4580875460962
 20
114.8820771188612
 30
0.0
 10
210.4899458645658
 20
114.8551135899349
 30
0.0
 10
210.5191451797675
 20
114.825939289999
 30
0.0
 10
210.5456333242617
 20
114.794571965428
 30
0.0
 10
210.5689003802275
 20
114.7612134716495
 30
0.0
 10
210.5897680227936
 20
114.7265928935933
 30
0.0
 10
210.6069996142804
 20
114.6902933232073
 30
0.0
 10
210.6211237223213
 20
114.6524090032591
 30
0.0
 10
210.632142626376
 20
114.6131740257906
 30
0.0
 10
210.6400553989184
 20
114.5724374860629
 30
0.0
 10
210.6445654772471
 20
114.5302942063513
 30
0.0
 10
210.6452428766086
 20
114.5016654180675
 30
0.0
 10
210.6455872314143
 20
114.4871120225563
 30
0.0
  0
SPLINE
  5
1D6
330
1F
100
AcDbEntity
  8
0
  6
Continuous
 62
     7
370
     0
100
AcDbSpline
210
0.0
220
0.0
230
1.0
 70
     8
 71
     3
 72
    15
 73
    11
 74
     0
 42
0.000000001
 43
0.00000001
 40
0.0
 40
0.0
 40
0.0
 40
0.0
 40
0.1158426906010182
 40
0.2305685484828845
 40
0.3473546045205446
 40
0.4682527467344629
 40
0.5923025714800847
 40
0.7199701656206978
 40
0.8556003811349115
 40
1.0
 40
1.0
 40
1.0
 40
1.0
 10
210.5665620411098
 20
115.4205970830281
 30
0.0
 10
210.5656033444113
 20
115.3985637033756
 30
0.0
 10
210.5636951937542
 20
115.3547093666169
 30
0.0
 10
210.5485084493955
 20
115.2901092612481
 30
0.0
 10
210.5245391205626
 20
115.2273829611671
 30
0.0
 10
210.4906458110079
 20
115.167293029312
 30
0.0
 10
210.4473259129925
 20
115.1109387973194
 30
0.0
 10
210.3936216100219
 20
115.0602269718949
 30
0.0
 10
210.3303046280444
 20
115.0150488718025
 30
0.0
 10
210.2827852351753
 20
114.9909676163275
 30
0.0
 10
210.2582814810157
 20
114.9785499247623
 30
0.0
  0
SPLINE
  5
1D7
330
1F
100
AcDbEntity
  8
0
  6
Continuous
 62
     7
370
     0
100
AcDbSpline
210
0.0
220
0.0
230
1.0
 70
     8
 71
     3
 72
    23
 73
    19
 74
     0
 42
0.000000001
 43
0.00000001
 40
0.0
 40
0.0
 40
0.0
 40
0.0
 40
0.0587320371008649
 40
0.1146029008469814
 40
0.1676568100446127
 40
0.2179667070908439
 40
0.2657752056293755
 40
0.3111706510536967
 40
0.3537918046646701
 40
0.3947449080003073
 40
0.472805951082463
 40
0.5491923665616076
 40
0.6247801075795552
 40
0.7026247640242257
 40
0.7797414321940389
 40
0.8540634639886254
 40
0.9271552664103497
 40
0.9999999999999999
 40
0.9999999999999999
 40
0.9999999999999999
 40
0.9999999999999999
 10
209.8870277223977
 20
115.9531939385177
 30
0.0
 10
209.9061041188671
 20
115.9531207568598
 30
0.0
 10
209.9433275914556
 20
115.9529779586411
 30
0.0
 10
209.9976815585728
 20
115.9494067230489
 30
0.0
 10
210.0491588241998
 20
115.9445220133801
 30
0.0
 10
210.0978702069419
 20
115.938225472819
 30
0.0
 10
210.1436049331676
 20
115.9290893203257
 30
0.0
 10
210.1863203833131
 20
115.9180214823054
 30
0.0
 10
210.2262388476347
 20
115.9052550887236
 30
0.0
 10
210.2750330872556
 20
115.8858077361908
 30
0.0
 10
210.3312630988739
 20
115.8558741268742
 30
0.0
 10
210.3914907831409
 20
115.8112084583574
 30
0.0
 10
210.4438912084506
 20
115.7575810125159
 30
0.0
 10
210.4870090524442
 20
115.6960941091798
 30
0.0
 10
210.5225335055737
 20
115.6304145002002
 30
0.0
 10
210.5477199269618
 20
115.5617934444907
 30
0.0
 10
210.563822970315
 20
115.4917249896484
 30
0.0
 10
210.5656500485855
 20
115.4442796104126
 30
0.0
 10
210.5665620411098
 20
115.4205970830281
 30
0.0
  0
LINE
  5
1D8
330
1F
100
AcDbEntity
  8
0
  6
Continuous
 62
     7
370
     0
100
AcDbLine
 10
209.1177668855
 20
115.9531939385
 30
0.0
 11
209.8870277224
 21
115.9531939385
 31
0.0
  0
LINE
  5
1D9
330
1F
100
AcDbEntity
  8
0
  6
Continuous
 62
     7
370
     0
100
AcDbLine
 10
209.1177668855
 20
113.8985389906
 30
0.0
 11
209.1177668855
 21
115.9531939385
 31
0.0
  0
LINE
  5
1DA
330
1F
100
AcDbEntity
  8
0
  6
Continuous
 62
     7
370
     0
100
AcDbLine
 10
209.8890856701
 20
113.8985389906
 30
0.0
 11
209.1177668855
 21
113.8985389906
 31
0.0
  0
LINE
  5
1DB
330
1F
100
AcDbEntity
  8
0
  6
Continuous
 62
     7
370
     0
100
AcDbLine
 10
213.2418940045
 20
115.9531939385
 30
0.0
 11
213.4114688921
 21
115.9531939385
 31
0.0
  0
SPLINE
  5
1DC
330
1F
100
AcDbEntity
  8
0
  6
Continuous
 62
     7
370
     0
100
AcDbSpline
210
0.0
220
0.0
230
1.0
 70
     8
 71
     3
 72
    15
 73
    11
 74
     0
 42
0.000000001
 43
0.00000001
 40
0.0
 40
0.0
 40
0.0
 40
0.0
 40
0.1426572507006137
 40
0.2811689939054436
 40
0.4169771923679743
 40
0.550852492747558
 40
0.6783641702618118
 40
0.7950324430070947
 40
0.9019981783473519
 40
1.0
 40
1.0
 40
1.0
 40
1.0
 10
212.6739004492294
 20
115.4395302015385
 30
0.0
 10
212.7068168451486
 20
115.456482211337
 30
0.0
 10
212.7716931124125
 20
115.4898936188631
 30
0.0
 10
212.8633492492742
 20
115.5475997127307
 30
0.0
 10
212.9489201126037
 20
115.6101554939978
 30
0.0
 10
213.0269891658357
 20
115.6775471127978
 30
0.0
 10
213.0969730973953
 20
115.7464334448211
 30
0.0
 10
213.1559495728107
 20
115.8159424596516
 30
0.0
 10
213.2052973345305
 20
115.8835262570656
 30
0.0
 10
213.2300560414337
 20
115.9306584607637
 30
0.0
 10
213.2418940045429
 20
115.9531939385177
 30
0.0
  0
LINE
  5
1DD
330
1F
100
AcDbEntity
  8
0
  6
Continuous
 62
     7
370
     0
100
AcDbLine
 10
212.6739004492
 20
115.1966923772
 30
0.0
 11
212.6739004492
 21
115.4395302015
 31
0.0
  0
SPLINE
  5
1DE
330
1F
100
AcDbEntity
  8
0
  6
Continuous
 62
     7
370
     0
100
AcDbSpline
210
0.0
220
0.0
230
1.0
 70
     8
 71
     3
 72
    15
 73
    11
 74
     0
 42
0.000000001
 43
0.00000001
 40
0.0
 40
0.0
 40
0.0
 40
0.0
 40
0.1116703001015865
 40
0.232094480856018
 40
0.3627434591045534
 40
0.5025575097108852
 40
0.6415251033312815
 40
0.7710984952996685
 40
0.8901617573732526
 40
1.0
 40
1.0
 40
1.0
 40
1.0
 10
213.1480515910563
 20
115.4996222733326
 30
0.0
 10
213.1328839995581
 20
115.4849949974326
 30
0.0
 10
213.1013598228396
 20
115.454593807472
 30
0.0
 10
213.0480715323565
 20
115.4115685322135
 30
0.0
 10
212.9885949900033
 20
115.3679605919642
 30
0.0
 10
212.9237025365279
 20
115.3260266822655
 30
0.0
 10
212.85755565793
 20
115.2865504284892
 30
0.0
 10
212.7936332159421
 20
115.2510476073394
 30
0.0
 10
212.7330024229582
 20
115.2210036066551
 30
0.0
 10
212.6930645921485
 20
115.2045754282225
 30
0.0
 10
212.6739004492294
 20
115.1966923771654
 30
0.0
  0
LINE
  5
1DF
330
1F
100
AcDbEntity
  8
0
  6
Continuous
 62
     7
370
     0
100
AcDbLine
 10
213.1480515911
 20
113.8985389906
 30
0.0
 11
213.1480515911
 21
115.4996222733
 31
0.0
  0
LINE
  5
1E0
330
1F
100
AcDbEntity
  8
0
  6
Continuous
 62
     7
370
     0
100
AcDbLine
 10
213.4114688921
 20
113.8985389906
 30
0.0
 11
213.1480515911
 21
113.8985389906
 31
0.0
  0
LINE
  5
1E1
330
1F
100
AcDbEntity
  8
0
  6
Continuous
 62
     7
370
     0
100
AcDbLine
 10
213.4114688921
 20
115.9531939385
 30
0.0
 11
213.4114688921
 21
113.8985389906
 31
0.0
  0
LINE
  5
1E2
330
1F
100
AcDbEntity
  8
0
  6
Continuous
 62
     7
370
     0
100
AcDbLine
 10
216.3617426634
 20
114.7414743538
 30
0.0
 11
216.3617426634
 21
114.5043987829
 31
0.0
  0
LINE
  5
1E3
330
1F
100
AcDbEntity
  8
0
  6
Continuous
 62
     7
370
     0
100
AcDbLine
 10
215.5978324905
 20
114.7414743538
 30
0.0
 11
216.3617426634
 21
114.7414743538
 31
0.0
  0
LINE
  5
1E4
330
1F
100
AcDbEntity
  8
0
  6
Continuous
 62
     7
370
     0
100
AcDbLine
 10
215.5978324905
 20
114.5043987829
 30
0.0
 11
215.5978324905
 21
114.7414743538
 31
0.0
  0
LINE
  5
1E5
330
1F
100
AcDbEntity
  8
0
  6
Continuous
 62
     7
370
     0
100
AcDbLine
 10
216.3617426634
 20
114.5043987829
 30
0.0
 11
215.5978324905
 21
114.5043987829
 31
0.0
  0
SPLINE
  5
1E6
330
1F
100
AcDbEntity
  8
0
  6
Continuous
 62
     7
370
     0
100
AcDbSpline
210
0.0
220
0.0
230
1.0
 70
     8
 71
     3
 72
    15
 73
    11
 74
     0
 42
0.000000001
 43
0.00000001
 40
0.0
 40
0.0
 40
0.0
 40
0.0
 40
0.1379032299933933
 40
0.2688733426002942
 40
0.3951781273461129
 40
0.5170892381308878
 40
0.6367430265135473
 40
0.7562218164637978
 40
0.87662835946368
 40
1.0
 40
1.0
 40
1.0
 40
1.0
 10
219.1539660541974
 20
113.8721972604995
 30
0.0
 10
219.1302052722596
 20
113.8728750380607
 30
0.0
 10
219.0838782872957
 20
113.8741965177564
 30
0.0
 10
219.0162211417101
 20
113.8831751583188
 30
0.0
 10
218.9527213017869
 20
113.8989779872716
 30
0.0
 10
218.8928431827405
 20
113.9201718091962
 30
0.0
 10
218.8372598310012
 20
113.9485197664769
 30
0.0
 10
218.7857058581662
 20
113.9830105920068
 30
0.0
 10
218.737145324317
 20
114.0228418203009
 30
0.0
 10
218.7091909288312
 20
114.0542677451122
 30
0.0
 10
218.6950437250854
 20
114.0701718257936
 30
0.0
  0
SPLINE
  5
1E7
330
1F
100
AcDbEntity
  8
0
  6
Continuous
 62
     7
370
     0
100
AcDbSpline
210
0.0
220
0.0
230
1.0
 70
     8
 71
     3
 72
    31
 73
    27
 74
     0
 42
0.000000001
 43
0.00000001
 40
0.0
 40
0.0
 40
0.0
 40
0.0
 40
0.0628739462114324
 40
0.1228366299919129
 40
0.1796565674430314
 40
0.2339600122308621
 40
0.2855950186955591
 40
0.3345131060783806
 40
0.3809048259061764
 40
0.4248945919393348
 40
0.4665290347654876
 40
0.5064882940692466
 40
0.5450315536447544
 40
0.5818311798231345
 40
0.6174482799494432
 40
0.652066912769046
 40
0.685879714246511
 40
0.7191745547913925
 40
0.7521816462063932
 40
0.7852401639180911
 40
0.8186564497770835
 40
0.8525477406533115
 40
0.8876263422585192
 40
0.9236350780687517
 40
0.9610218444769894
 40
1.0
 40
1.0
 40
1.0
 40
1.0
 10
219.8125093067348
 20
114.9118724204429
 30
0.0
 10
219.8122389424988
 20
114.8826474371
 30
0.0
 10
219.8117107327454
 20
114.8255506795122
 30
0.0
 10
219.8085730164691
 20
114.7420785686335
 30
0.0
 10
219.8026047969921
 20
114.6627706993509
 30
0.0
 10
219.7952607938864
 20
114.5874454004104
 30
0.0
 10
219.7841508554699
 20
114.5163037549085
 30
0.0
 10
219.7721792948797
 20
114.4490435008148
 30
0.0
 10
219.7573734315544
 20
114.3859700589185
 30
0.0
 10
219.7400984651053
 20
114.3270557857556
 30
0.0
 10
219.7206429301654
 20
114.2719891638659
 30
0.0
 10
219.6993069255244
 20
114.2203540303326
 30
0.0
 10
219.6756752517209
 20
114.1721856680932
 30
0.0
 10
219.6490445408895
 20
114.1279538871931
 30
0.0
 10
219.6206332686905
 20
114.0870715847951
 30
0.0
 10
219.5902333527619
 20
114.0493854021923
 30
0.0
 10
219.5572002792964
 20
114.0154377524836
 30
0.0
 10
219.5215674271239
 20
113.9854191800661
 30
0.0
 10
219.4840571568026
 20
113.9583786765118
 30
0.0
 10
219.4439232994373
 20
113.9352261954492
 30
0.0
 10
219.4013415146662
 20
113.9160447670283
 30
0.0
 10
219.3565963077901
 20
113.89964559869
 30
0.0
 10
219.3092336741329
 20
113.8876292499934
 30
0.0
 10
219.2596271110162
 20
113.8784309228348
 30
0.0
 10
219.207593841638
 20
113.8730142816869
 30
0.0
 10
219.1720886176433
 20
113.8724733583774
 30
0.0
 10
219.1539660541974
 20
113.8721972604995
 30
0.0
  0
SPLINE
  5
1E8
330
1F
100
AcDbEntity
  8
0
  6
Continuous
 62
     7
370
     0
100
AcDbSpline
210
0.0
220
0.0
230
1.0
 70
     8
 71
     3
 72
    27
 73
    23
 74
     0
 42
0.000000001
 43
0.00000001
 40
0.0
 40
0.0
 40
0.0
 40
0.0
 40
0.0567243372181501
 40
0.1114372357370104
 40
0.1643678222229013
 40
0.2164353724620895
 40
0.2676414903219246
 40
0.3173597799690278
 40
0.3674730633322804
 40
0.418210397052808
 40
0.4714042826470199
 40
0.5279657201290492
 40
0.5880611158232136
 40
0.6521342629937142
 40
0.6863448363353054
 40
0.7232636803169651
 40
0.7626102507715418
 40
0.8047389366452182
 40
0.8494303387909499
 40
0.8967112583864923
 40
0.9468896380534765
 40
1.0
 40
1.0
 40
1.0
 40
1.0
 10
219.1539660541974
 20
115.9531939385177
 30
0.0
 10
219.1803532433067
 20
115.9524181738329
 30
0.0
 10
219.2321919347295
 20
115.9508941529929
 30
0.0
 10
219.3078766919075
 20
115.9384645155675
 30
0.0
 10
219.3792046975527
 20
115.9172017050599
 30
0.0
 10
219.4461296103794
 20
115.8885172564132
 30
0.0
 10
219.507507359371
 20
115.8520824858354
 30
0.0
 10
219.5623202762042
 20
115.8077904711868
 30
0.0
 10
219.609977115033
 20
115.7561062698745
 30
0.0
 10
219.6499577752053
 20
115.69641744106
 30
0.0
 10
219.6849048629235
 20
115.6303706012475
 30
0.0
 10
219.7159510884987
 20
115.5576693078549
 30
0.0
 10
219.7440159746733
 20
115.4783950308913
 30
0.0
 10
219.763931428857
 20
115.407433486216
 30
0.0
 10
219.7781371059738
 20
115.3461769629208
 30
0.0
 10
219.78754013554
 20
115.2956543153403
 30
0.0
 10
219.7953465351944
 20
115.2411400941714
 30
0.0
 10
219.8013272923244
 20
115.1827661839899
 30
0.0
 10
219.8062343624361
 20
115.1205980563303
 30
0.0
 10
219.8100238677942
 20
115.0545970041271
 30
0.0
 10
219.8119474297683
 20
114.9845980689795
 30
0.0
 10
219.8123185032815
 20
114.9365687609504
 30
0.0
 10
219.8125093067348
 20
114.9118724204429
 30
0.0
  0
SPLINE
  5
1E9
330
1F
100
AcDbEntity
  8
0
  6
Continuous
 62
     7
370
     0
100
AcDbSpline
210
0.0
220
0.0
230
1.0
 70
     8
 71
     3
 72
    31
 73
    27
 74
     0
 42
0.000000001
 43
0.00000001
 40
0.0
 40
0.0
 40
0.0
 40
0.0
 40
0.0631144583947934
 40
0.1236146457694899
 40
0.1809737111859575
 40
0.235261455008322
 40
0.2871007018338719
 40
0.3360307363034434
 40
0.3823823485850662
 40
0.426334083659707
 40
0.4682106947981599
 40
0.5082496012618049
 40
0.5466283366065846
 40
0.5836495392304459
 40
0.6189943150301614
 40
0.6535830186205956
 40
0.687156136190331
 40
0.7204221919788075
 40
0.7532302188118168
 40
0.7862601560778997
 40
0.8195039834988835
 40
0.8535452747120185
 40
0.8883082803397299
 40
0.9239958607406945
 40
0.9613503047546447
 40
1.0
 40
1.0
 40
1.0
 40
1.0
 10
218.49542280166
 20
114.9118724204429
 30
0.0
 10
218.4956881946484
 20
114.9412353256451
 30
0.0
 10
218.4962079877525
 20
114.9987448918783
 30
0.0
 10
218.4994320955178
 20
115.0828917185245
 30
0.0
 10
218.5050611264227
 20
115.1628024755639
 30
0.0
 10
218.5134637199254
 20
115.2384077642378
 30
0.0
 10
218.5234139648678
 20
115.3098782405402
 30
0.0
 10
218.5363493460665
 20
115.3771119087306
 30
0.0
 10
218.5509035304103
 20
115.4402596183751
 30
0.0
 10
218.5683659398336
 20
115.4992555482161
 30
0.0
 10
218.5875514111791
 20
115.5546069558563
 30
0.0
 10
218.6093179404972
 20
115.6062250451416
 30
0.0
 10
218.6338082386913
 20
115.6540550887478
 30
0.0
 10
218.6598187598272
 20
115.6985931110534
 30
0.0
 10
218.6887187510605
 20
115.7391463625126
 30
0.0
 10
218.7187638668696
 20
115.7768529333757
 30
0.0
 10
218.75213760688
 20
115.8103299765615
 30
0.0
 10
218.7874522193905
 20
115.8404388594247
 30
0.0
 10
218.8252277212262
 20
115.8670081938974
 30
0.0
 10
218.8652642424788
 20
115.8899343248308
 30
0.0
 10
218.9074077335056
 20
115.9101764453811
 30
0.0
 10
218.9524614026406
 20
115.9254147084432
 30
0.0
 10
218.9994899443713
 20
115.9378371232056
 30
0.0
 10
219.048855360024
 20
115.9469752021267
 30
0.0
 10
219.1006120495252
 20
115.9523624080439
 30
0.0
 10
219.1359804715118
 20
115.9529136304099
 30
0.0
 10
219.1539660541974
 20
115.9531939385177
 30
0.0
  0
SPLINE
  5
1EA
330
1F
100
AcDbEntity
  8
0
  6
Continuous
 62
     7
370
     0
100
AcDbSpline
210
0.0
220
0.0
230
1.0
 70
     8
 71
     3
 72
    15
 73
    11
 74
     0
 42
0.000000001
 43
0.00000001
 40
0.0
 40
0.0
 40
0.0
 40
0.0
 40
0.0974206681772145
 40
0.2008855880393207
 40
0.3111719701726504
 40
0.4297979458253728
 40
0.5577399263645871
 40
0.6947152693641585
 40
0.842129910206055
 40
1.0
 40
1.0
 40
1.0
 40
1.0
 10
218.6950437250854
 20
114.0701718257936
 30
0.0
 10
218.6787599681667
 20
114.0936613840416
 30
0.0
 10
218.6451821643465
 20
114.1420978586595
 30
0.0
 10
218.605882256337
 20
114.2246865409423
 30
0.0
 10
218.5708260425969
 20
114.3156050844419
 30
0.0
 10
218.543313342185
 20
114.4166373002038
 30
0.0
 10
218.521764039416
 20
114.5269790860023
 30
0.0
 10
218.5062000626197
 20
114.6468469559252
 30
0.0
 10
218.497392384011
 20
114.7761891230984
 30
0.0
 10
218.4960941498332
 20
114.8656236643241
 30
0.0
 10
218.49542280166
 20
114.9118724204429
 30
0.0
  0
CIRCLE
  5
1EB
330
1F
100
AcDbEntity
  8
0
  6
Continuous
 62
     7
370
     0
100
AcDbCircle
 10
214.2544042553
 20
116.7801466028
 30
0.0
 40
25.40000000000001
  0
SPLINE
  5
1EC
330
1F
100
AcDbEntity
  8
0
  6
Continuous
 62
     7
370
     0
100
AcDbSpline
210
0.0
220
0.0
230
1.0
 70
     8
 71
     3
 72
    15
 73
    11
 74
     0
 42
0.000000001
 43
0.00000001
 40
0.0
 40
0.0
 40
0.0
 40
0.0
 40
0.1276647678962251
 40
0.2517385630080497
 40
0.372753349387391
 40
0.4921467589723849
 40
0.6140696213092451
 40
0.7371973244121086
 40
0.8656069906011166
 40
1.0
 40
1.0
 40
1.0
 40
1.0
 10
219.1510849274675
 20
115.7161183676042
 30
0.0
 10
219.1374767067472
 20
115.7157612055258
 30
0.0
 10
219.1106430392782
 20
115.7150569276749
 30
0.0
 10
219.0713550358952
 20
115.7083346027201
 30
0.0
 10
219.0341222566323
 20
115.6970933770766
 30
0.0
 10
218.9985181341946
 20
115.681866045446
 30
0.0
 10
218.9654315065079
 20
115.6613730647473
 30
0.0
 10
218.9335502402005
 20
115.6374460510846
 30
0.0
 10
218.9043675304352
 20
115.6082936555412
 30
0.0
 10
218.8867822855696
 20
115.5864997803195
 30
0.0
 10
218.8777894776645
 20
115.5753547473744
 30
0.0
  0
SPLINE
  5
1ED
330
1F
100
AcDbEntity
  8
0
  6
Continuous
 62
     7
370
     0
100
AcDbSpline
210
0.0
220
0.0
230
1.0
 70
     8
 71
     3
 72
    23
 73
    19
 74
     0
 42
0.000000001
 43
0.00000001
 40
0.0
 40
0.0
 40
0.0
 40
0.0
 40
0.1156291309254414
 40
0.2215410391198768
 40
0.3170478562190418
 40
0.4031508756396168
 40
0.4801812167162797
 40
0.5476493661481898
 40
0.6070358428421809
 40
0.6586524080635074
 40
0.705722890353646
 40
0.7498040879796471
 40
0.7925868153452743
 40
0.8338739610102607
 40
0.8747683933034326
 40
0.9152226988916382
 40
0.9568807037304798
 40
1.0
 40
1.0
 40
1.0
 40
1.0
 10
219.5490920057198
 20
114.9126955995086
 30
0.0
 10
219.5488425541426
 20
114.951392010125
 30
0.0
 10
219.5483646143605
 20
115.0255328684843
 30
0.0
 10
219.5429630190221
 20
115.1315257736828
 30
0.0
 10
219.5344982336796
 20
115.2273876804429
 30
0.0
 10
219.5229197520604
 20
115.3132069645535
 30
0.0
 10
219.5075319521355
 20
115.3888904574166
 30
0.0
 10
219.4888686498986
 20
115.4545992789015
 30
0.0
 10
219.466628534683
 20
115.5101932942716
 30
0.0
 10
219.4401851170552
 20
115.5562309465059
 30
0.0
 10
219.4107483022754
 20
115.5939943108389
 30
0.0
 10
219.3799987586591
 20
115.626681788524
 30
0.0
 10
219.3471677445155
 20
115.654481423365
 30
0.0
 10
219.311673593066
 20
115.676782700527
 30
0.0
 10
219.2746603475678
 20
115.6947745414445
 30
0.0
 10
219.2352775377167
 20
115.7071569845314
 30
0.0
 10
219.1939122654108
 20
115.7147643702552
 30
0.0
 10
219.1655238156872
 20
115.7156618784244
 30
0.0
 10
219.1510849274675
 20
115.7161183676042
 30
0.0
  0
SPLINE
  5
1EE
330
1F
100
AcDbEntity
  8
0
  6
Continuous
 62
     7
370
     0
100
AcDbSpline
210
0.0
220
0.0
230
1.0
 70
     8
 71
     3
 72
    23
 73
    19
 74
     0
 42
0.000000001
 43
0.00000001
 40
0.0
 40
0.0
 40
0.0
 40
0.0
 40
0.0407818458722593
 40
0.0808695887215865
 40
0.1202681657882668
 40
0.1601868504553523
 40
0.2004597376386388
 40
0.2422651778979076
 40
0.286459261549468
 40
0.3329520837492631
 40
0.3844305340495303
 40
0.4433891253601056
 40
0.5116814722136831
 40
0.5890200255490081
 40
0.6762451906507723
 40
0.7737051914728239
 40
0.881567767781983
 40
1.0
 40
1.0
 40
1.0
 40
1.0
 10
219.1539660541974
 20
114.109272831413
 30
0.0
 10
219.1675717217743
 20
114.1097922594301
 30
0.0
 10
219.1945514897984
 20
114.1108222748505
 30
0.0
 10
219.2342681944263
 20
114.1176830445349
 30
0.0
 10
219.2721066118018
 20
114.1305011432515
 30
0.0
 10
219.3084079500418
 20
114.1472608618019
 30
0.0
 10
219.342984785202
 20
114.1689687214598
 30
0.0
 10
219.3756552753628
 20
114.1957115867715
 30
0.0
 10
219.4069411356382
 20
114.2270376215899
 30
0.0
 10
219.4369500153201
 20
114.2639071312401
 30
0.0
 10
219.4642720676692
 20
114.3088247281859
 30
0.0
 10
219.4869376828124
 20
114.364180488151
 30
0.0
 10
219.5063670678939
 20
114.42969927459
 30
0.0
 10
219.5221722499756
 20
114.5058530526394
 30
0.0
 10
219.5341259865895
 20
114.5925026256399
 30
0.0
 10
219.5430761128632
 20
114.6897305865234
 30
0.0
 10
219.5483418964356
 20
114.7976665015345
 30
0.0
 10
219.5488343029392
 20
114.8731769333383
 30
0.0
 10
219.5490920057198
 20
114.9126955995086
 30
0.0
  0
SPLINE
  5
1EF
330
1F
100
AcDbEntity
  8
0
  6
Continuous
 62
     7
370
     0
100
AcDbSpline
210
0.0
220
0.0
230
1.0
 70
     8
 71
     3
 72
    23
 73
    19
 74
     0
 42
0.000000001
 43
0.00000001
 40
0.0
 40
0.0
 40
0.0
 40
0.0
 40
0.1184055081537694
 40
0.2266543328167021
 40
0.3240923419286017
 40
0.4117048030053216
 40
0.4890259050064154
 40
0.5569093973430753
 40
0.6162333444927065
 40
0.6673492812770746
 40
0.7135123932013472
 40
0.7576965045209778
 40
0.7994925114422906
 40
0.8399760647439392
 40
0.8798857418167756
 40
0.9191486593857411
 40
0.9592273564930826
 40
1.0
 40
1.0
 40
1.0
 40
1.0
 10
218.7588401026749
 20
114.9126955995086
 30
0.0
 10
218.7591016551079
 20
114.8731771116184
 30
0.0
 10
218.7596023243175
 20
114.7975299846703
 30
0.0
 10
218.7648331022509
 20
114.689455012477
 30
0.0
 10
218.7738376711619
 20
114.5919566352472
 30
0.0
 10
218.7857422994113
 20
114.5051698458545
 30
0.0
 10
218.8014612286836
 20
114.4289772480043
 30
0.0
 10
218.8211982035162
 20
114.363573003892
 30
0.0
 10
218.8434464685264
 20
114.3081721143143
 30
0.0
 10
218.8709782748852
 20
114.2634612306604
 30
0.0
 10
218.9011225619389
 20
114.2270153381281
 30
0.0
 10
218.9322444782084
 20
114.1956706918965
 30
0.0
 10
218.965076214803
 20
114.1690284603119
 30
0.0
 10
218.9994035486095
 20
114.1468142724941
 30
0.0
 10
219.0357590929142
 20
114.1299951489628
 30
0.0
 10
219.0737453058834
 20
114.1178046107749
 30
0.0
 10
219.1133704529926
 20
114.110789143221
 30
0.0
 10
219.140356978752
 20
114.1097811525409
 30
0.0
 10
219.1539660541974
 20
114.109272831413
 30
0.0
  0
SPLINE
  5
1F0
330
1F
100
AcDbEntity
  8
0
  6
Continuous
 62
     7
370
     0
100
AcDbSpline
210
0.0
220
0.0
230
1.0
 70
     8
 71
     3
 72
    15
 73
    11
 74
     0
 42
0.000000001
 43
0.00000001
 40
0.0
 40
0.0
 40
0.0
 40
0.0
 40
0.0838881132795455
 40
0.1771540327539698
 40
0.2825136355617228
 40
0.3993998606601629
 40
0.5294908061912204
 40
0.6728021776758327
 40
0.82953576161967
 40
1.0
 40
1.0
 40
1.0
 40
1.0
 10
218.8777894776645
 20
115.5753547473744
 30
0.0
 10
218.8679990533398
 20
115.5589861459333
 30
0.0
 10
218.8473237385225
 20
115.5244191060696
 30
0.0
 10
218.8241892634217
 20
115.4643401665802
 30
0.0
 10
218.803753182664
 20
115.395681374474
 30
0.0
 10
218.786927512714
 20
115.317386364367
 30
0.0
 10
218.7747553208823
 20
115.2295894436938
 30
0.0
 10
218.7651458460954
 20
115.1323925719803
 30
0.0
 10
218.7601540816262
 20
115.0256600507651
 30
0.0
 10
218.7592901800244
 20
114.9513893249661
 30
0.0
 10
218.7588401026749
 20
114.9126955995086
 30
0.0
  0
SPLINE
  5
1F1
330
1F
100
AcDbEntity
  8
0
  6
Continuous
 62
     7
370
     0
100
AcDbSpline
210
0.0
220
0.0
230
1.0
 70
     8
 71
     3
 72
    11
 73
     7
 74
     0
 42
0.000000001
 43
0.00000001
 40
0.0
 40
0.0
 40
0.0
 40
0.0
 40
0.247294050035337
 40
0.4956077709090489
 40
0.746359172773196
 40
1.0
 40
1.0
 40
1.0
 40
1.0
 10
217.1783362965852
 20
118.8771259797837
 30
0.0
 10
217.170477505037
 20
118.8446009939079
 30
0.0
 10
217.1547275176813
 20
118.7794169114504
 30
0.0
 10
217.1217508788168
 20
118.6839134860809
 30
0.0
 10
217.0840267492804
 20
118.5892834826434
 30
0.0
 10
217.0533902610197
 20
118.5283045544007
 30
0.0
 10
217.0379842658882
 20
118.497640430509
 30
0.0
  0
SPLINE
  5
1F2
330
1F
100
AcDbEntity
  8
0
  6
Continuous
 62
     7
370
     0
100
AcDbSpline
210
0.0
220
0.0
230
1.0
 70
     8
 71
     3
 72
    15
 73
    11
 74
     0
 42
0.000000001
 43
0.00000001
 40
0.0
 40
0.0
 40
0.0
 40
0.0
 40
0.1531481085926329
 40
0.2994334688329071
 40
0.4364263514567511
 40
0.5656705729563585
 40
0.686508310287873
 40
0.7992685160630044
 40
0.9033947408013442
 40
1.0
 40
1.0
 40
1.0
 40
1.0
 10
217.329389655136
 20
118.4688291632105
 30
0.0
 10
217.3217369016358
 20
118.4896942385516
 30
0.0
 10
217.3067743235945
 20
118.5304894004656
 30
0.0
 10
217.2844606118981
 20
118.5897613269093
 30
0.0
 10
217.2640751644636
 20
118.6460483810358
 30
0.0
 10
217.2440855592447
 20
118.6985434871125
 30
0.0
 10
217.2260405855666
 20
118.7480091893191
 30
0.0
 10
217.209408070797
 20
118.7941113692423
 30
0.0
 10
217.1929586540303
 20
118.8365295946637
 30
0.0
 10
217.1830871276335
 20
118.86393613898
 30
0.0
 10
217.1783362965852
 20
118.8771259797837
 30
0.0
  0
LINE
  5
1F3
330
1F
100
AcDbEntity
  8
0
  6
Continuous
 62
     7
370
     0
100
AcDbLine
 10
217.5290105786
 20
117.9288236961
 30
0.0
 11
217.3293896551
 21
118.4688291632
 31
0.0
  0
LINE
  5
1F4
330
1F
100
AcDbEntity
  8
0
  6
Continuous
 62
     7
370
     0
100
AcDbLine
 10
216.8276620146
 20
117.9288236961
 30
0.0
 11
217.5290105786
 21
117.9288236961
 31
0.0
  0
LINE
  5
1F5
330
1F
100
AcDbEntity
  8
0
  6
Continuous
 62
     7
370
     0
100
AcDbLine
 10
217.0379842659
 20
118.4976404305
 30
0.0
 11
216.8276620146
 21
117.9288236961
 31
0.0
  0
SPLINE
  5
1F6
330
1F
100
AcDbEntity
  8
0
  6
Continuous
 62
     7
370
     0
100
AcDbSpline
210
0.0
220
0.0
230
1.0
 70
     8
 71
     3
 72
    31
 73
    27
 74
     0
 42
0.000000001
 43
0.00000001
 40
0.0
 40
0.0
 40
0.0
 40
0.0
 40
0.0508516157922844
 40
0.0997524678094164
 40
0.1474376477769319
 40
0.1940857839327041
 40
0.239170927084144
 40
0.2833398222454342
 40
0.3265771497238441
 40
0.368936281499902
 40
0.4105718726814497
 40
0.451050593494912
 40
0.490876862992416
 40
0.530044332484386
 40
0.5689366633103307
 40
0.6075778621311337
 40
0.646420096450513
 40
0.6856793513063946
 40
0.7247985849801969
 40
0.7635130084045113
 40
0.8021725263787551
 40
0.8407403615726128
 40
0.8796493769005862
 40
0.9190706128663402
 40
0.9590978622172246
 40
1.0
 40
1.0
 40
1.0
 40
1.0
 10
212.1865784423518
 20
118.0856393081403
 30
0.0
 10
212.1864034935954
 20
118.1059537890119
 30
0.0
 10
212.1860603074465
 20
118.1458034490007
 30
0.0
 10
212.1815153726292
 20
118.2045423037858
 30
0.0
 10
212.1756529899089
 20
118.2614540438646
 30
0.0
 10
212.1667274210781
 20
118.3164652327226
 30
0.0
 10
212.1544268547699
 20
118.369348056518
 30
0.0
 10
212.1407999161509
 20
118.420505113272
 30
0.0
 10
212.1237599059456
 20
118.4694955595988
 30
0.0
 10
212.1044256395993
 20
118.5165115173111
 30
0.0
 10
212.082790922939
 20
118.5613116154011
 30
0.0
 10
212.0583898399109
 20
118.6035181712056
 30
0.0
 10
212.0315059811571
 20
118.6429670949891
 30
0.0
 10
212.0028647045334
 20
118.6804062983743
 30
0.0
 10
211.9708800180981
 20
118.714386730862
 30
0.0
 10
211.9370920034838
 20
118.7463437416894
 30
0.0
 10
211.9007331670984
 20
118.775617091987
 30
0.0
 10
211.862166356792
 20
118.8022144284336
 30
0.0
 10
211.8219386927768
 20
118.8261562229758
 30
0.0
 10
211.780133104106
 20
118.8466472926783
 30
0.0
 10
211.7374156133026
 20
118.8646461229574
 30
0.0
 10
211.6930711900033
 20
118.8784429817772
 30
0.0
 10
211.6477121452311
 20
118.8895703509094
 30
0.0
 10
211.6011551135638
 20
118.8980226241267
 30
0.0
 10
211.553227287666
 20
118.9023996045533
 30
0.0
 10
211.5209086140296
 20
118.9031091180389
 30
0.0
 10
211.5045745864427
 20
118.9034677098852
 30
0.0
  0
SPLINE
  5
1F7
330
1F
100
AcDbEntity
  8
0
  6
Continuous
 62
     7
370
     0
100
AcDbSpline
210
0.0
220
0.0
230
1.0
 70
     8
 71
     3
 72
    23
 73
    19
 74
     0
 42
0.000000001
 43
0.00000001
 40
0.0
 40
0.0
 40
0.0
 40
0.0
 40
0.0610549117432832
 40
0.1195453450847438
 40
0.1768063562451035
 40
0.2329564830316851
 40
0.2885834899465033
 40
0.3446666617213001
 40
0.4016615108374461
 40
0.4605400973082778
 40
0.5204770623221882
 40
0.5812128653554004
 40
0.6434307597220102
 40
0.7079608695212424
 40
0.7753707435336737
 40
0.8464136772813298
 40
0.9211518871893691
 40
1.0
 40
1.0
 40
1.0
 40
1.0
 10
211.5004586911144
 20
117.2702804435925
 30
0.0
 10
211.5249116112218
 20
117.2708924918937
 30
0.0
 10
211.5727903598615
 20
117.2720908807421
 30
0.0
 10
211.6430592178712
 20
117.2821221645591
 30
0.0
 10
211.7098224990643
 20
117.2991999976739
 30
0.0
 10
211.7737419468715
 20
117.3219344621494
 30
0.0
 10
211.833661959515
 20
117.3526675825359
 30
0.0
 10
211.8909838949172
 20
117.3886558983322
 30
0.0
 10
211.944145149727
 20
117.4326325894353
 30
0.0
 10
211.9944506823289
 20
117.4820316278073
 30
0.0
 10
212.0395713563481
 20
117.5381827076919
 30
0.0
 10
212.0796064557992
 20
117.5997026490889
 30
0.0
 10
212.1121281526026
 20
117.6675140947248
 30
0.0
 10
212.1402062483801
 20
117.7401232512854
 30
0.0
 10
212.1607666483404
 20
117.8189024594538
 30
0.0
 10
212.1759620438328
 20
117.9029561579775
 30
0.0
 10
212.1851191108597
 20
117.9925547211634
 30
0.0
 10
212.1860833972271
 20
118.0540624722977
 30
0.0
 10
212.1865784423518
 20
118.0856393081403
 30
0.0
  0
SPLINE
  5
1F8
330
1F
100
AcDbEntity
  8
0
  6
Continuous
 62
     7
370
     0
100
AcDbSpline
210
0.0
220
0.0
230
1.0
 70
     8
 71
     3
 72
    23
 73
    19
 74
     0
 42
0.000000001
 43
0.00000001
 40
0.0
 40
0.0
 40
0.0
 40
0.0
 40
0.0759644026221998
 40
0.1481252239748712
 40
0.2172006111446031
 40
0.2832999093723612
 40
0.3472018681362411
 40
0.4092995407059241
 40
0.4704256161074027
 40
0.5315880640528347
 40
0.5917391729173697
 40
0.6502577442905726
 40
0.7073030399522856
 40
0.7642084640229152
 40
0.8211475320101304
 40
0.8791188121552541
 40
0.9384228183936666
 40
1.0
 40
1.0
 40
1.0
 40
1.0
 10
210.8168084770739
 20
118.056416451309
 30
0.0
 10
210.8172525190574
 20
118.026753010754
 30
0.0
 10
210.8181183695872
 20
117.9689113951499
 30
0.0
 10
210.8280241683038
 20
117.8845813954785
 30
0.0
 10
210.8430546357595
 20
117.8050117462397
 30
0.0
 10
210.8637725485588
 20
117.7299790762994
 30
0.0
 10
210.8916224969312
 20
117.660225447679
 30
0.0
 10
210.9249207161425
 20
117.5950805957869
 30
0.0
 10
210.9647883650571
 20
117.5349775664206
 30
0.0
 10
211.0103458445456
 20
117.4800844914955
 30
0.0
 10
211.0604538492845
 20
117.4307726662169
 30
0.0
 10
211.1139993375535
 20
117.3877014099914
 30
0.0
 10
211.1709943461137
 20
117.3516322795438
 30
0.0
 10
211.2308069839152
 20
117.3218495124825
 30
0.0
 10
211.293866857191
 20
117.2986013470708
 30
0.0
 10
211.3599851009731
 20
117.2822770710512
 30
0.0
 10
211.4292102952107
 20
117.2720675615408
 30
0.0
 10
211.4764133407864
 20
117.2708835712363
 30
0.0
 10
211.5004586911144
 20
117.2702804435925
 30
0.0
  0
SPLINE
  5
1F9
330
1F
100
AcDbEntity
  8
0
  6
Continuous
 62
     7
370
     0
100
AcDbSpline
210
0.0
220
0.0
230
1.0
 70
     8
 71
     3
 72
    23
 73
    19
 74
     0
 42
0.000000001
 43
0.00000001
 40
0.0
 40
0.0
 40
0.0
 40
0.0
 40
0.0559431333569187
 40
0.1103820356898407
 40
0.1640478588828499
 40
0.2167594775435861
 40
0.2696011346144475
 40
0.3230085051908687
 40
0.3775814436721363
 40
0.4334493367080539
 40
0.490921858049893
 40
0.5506247708713257
 40
0.6131168723098185
 40
0.6798607463518506
 40
0.7513577440202002
 40
0.8282611012589941
 40
0.9107950320656293
 40
1.0
 40
1.0
 40
1.0
 40
1.0
 10
211.5045745864427
 20
118.9034677098852
 30
0.0
 10
211.4814886666259
 20
118.9030092326271
 30
0.0
 10
211.4359375744321
 20
118.9021046059101
 30
0.0
 10
211.3688809440756
 20
118.8920482753798
 30
0.0
 10
211.3042310818389
 20
118.8770227435313
 30
0.0
 10
211.2418876580408
 20
118.856016249373
 30
0.0
 10
211.1823838864074
 20
118.8282003497811
 30
0.0
 10
211.1254114829702
 20
118.7940879556781
 30
0.0
 10
211.0704647341647
 20
118.7546078936726
 30
0.0
 10
211.0184100718771
 20
118.7087982410016
 30
0.0
 10
210.9698837406929
 20
118.656174132707
 30
0.0
 10
210.9288595959653
 20
118.5941319215976
 30
0.0
 10
210.8942833259742
 20
118.5241526855296
 30
0.0
 10
210.8654127774732
 20
118.4464138056146
 30
0.0
 10
210.8433998344568
 20
118.3603132456068
 30
0.0
 10
210.8281861374203
 20
118.2662215366452
 30
0.0
 10
210.8185805195123
 20
118.1640395292338
 30
0.0
 10
210.817414258658
 20
118.0932079395995
 30
0.0
 10
210.8168084770739
 20
118.056416451309
 30
0.0
  0
OLE2FRAME
  5
1FA
330
1F
100
AcDbEntity
  8
0
100
AcDbOle2Frame
 70
     2
  3
Paintbrush Picture
 10
229.0524258301
 20
33.6996297921
 30
0.0
 11
265.1686469208
 21
28.555479607
 31
0.0
 71
     2
 72
     0
 73
     1
 90
     7296
310
80557333EF78ADA16C40002412788DD94040000000000000000041161DC7B292
310
7040002412788DD94040000000000000000041161DC7B2927040F6DD59E9338E
310
3C4000000000000000007333EF78ADA16C40F6DD59E9338E3C40000000000000
310
00000000000001000000000100000100000001000000000001000000001C0000
310
D0CF11E0A1B11AE1000000000000000000000000000000003E000300FEFF0900
310
0600000000000000000000000100000001000000000000000010000002000000
310
01000000FEFFFFFF0000000000000000FFFFFFFFFFFFFFFFFFFFFFFFFFFFFFFF
310
FFFFFFFFFFFFFFFFFFFFFFFFFFFFFFFFFFFFFFFFFFFFFFFFFFFFFFFFFFFFFFFF
310
FFFFFFFFFFFFFFFFFFFFFFFFFFFFFFFFFFFFFFFFFFFFFFFFFFFFFFFFFFFFFFFF
310
FFFFFFFFFFFFFFFFFFFFFFFFFFFFFFFFFFFFFFFFFFFFFFFFFFFFFFFFFFFFFFFF
310
FFFFFFFFFFFFFFFFFFFFFFFFFFFFFFFFFFFFFFFFFFFFFFFFFFFFFFFFFFFFFFFF
310
FFFFFFFFFFFFFFFFFFFFFFFFFFFFFFFFFFFFFFFFFFFFFFFFFFFFFFFFFFFFFFFF
310
FFFFFFFFFFFFFFFFFFFFFFFFFFFFFFFFFFFFFFFFFFFFFFFFFFFFFFFFFFFFFFFF
310
FFFFFFFFFFFFFFFFFFFFFFFFFFFFFFFFFFFFFFFFFFFFFFFFFFFFFFFFFFFFFFFF
310
FFFFFFFFFFFFFFFFFFFFFFFFFFFFFFFFFFFFFFFFFFFFFFFFFFFFFFFFFFFFFFFF
310
FFFFFFFFFFFFFFFFFFFFFFFFFFFFFFFFFFFFFFFFFFFFFFFFFFFFFFFFFFFFFFFF
310
FFFFFFFFFFFFFFFFFFFFFFFFFFFFFFFFFFFFFFFFFFFFFFFFFFFFFFFFFFFFFFFF
310
FFFFFFFFFFFFFFFFFFFFFFFFFFFFFFFFFFFFFFFFFFFFFFFFFFFFFFFFFFFFFFFF
310
FFFFFFFFFFFFFFFFFFFFFFFFFFFFFFFFFFFFFFFFFFFFFFFFFFFFFFFFFFFFFFFF
310
FFFFFFFFFFFFFFFFFFFFFFFFFFFFFFFFFFFFFFFFFFFFFFFFFFFFFFFFFFFFFFFF
310
FDFFFFFFFEFFFFFFFEFFFFFFFEFFFFFF05000000060000000700000008000000
310
090000000A0000000B0000000C000000FEFFFFFFFFFFFFFFFFFFFFFFFFFFFFFF
310
FFFFFFFFFFFFFFFFFFFFFFFFFFFFFFFFFFFFFFFFFFFFFFFFFFFFFFFFFFFFFFFF
310
FFFFFFFFFFFFFFFFFFFFFFFFFFFFFFFFFFFFFFFFFFFFFFFFFFFFFFFFFFFFFFFF
310
FFFFFFFFFFFFFFFFFFFFFFFFFFFFFFFFFFFFFFFFFFFFFFFFFFFFFFFFFFFFFFFF
310
FFFFFFFFFFFFFFFFFFFFFFFFFFFFFFFFFFFFFFFFFFFFFFFFFFFFFFFFFFFFFFFF
310
FFFFFFFFFFFFFFFFFFFFFFFFFFFFFFFFFFFFFFFFFFFFFFFFFFFFFFFFFFFFFFFF
310
FFFFFFFFFFFFFFFFFFFFFFFFFFFFFFFFFFFFFFFFFFFFFFFFFFFFFFFFFFFFFFFF
310
FFFFFFFFFFFFFFFFFFFFFFFFFFFFFFFFFFFFFFFFFFFFFFFFFFFFFFFFFFFFFFFF
310
FFFFFFFFFFFFFFFFFFFFFFFFFFFFFFFFFFFFFFFFFFFFFFFFFFFFFFFFFFFFFFFF
310
FFFFFFFFFFFFFFFFFFFFFFFFFFFFFFFFFFFFFFFFFFFFFFFFFFFFFFFFFFFFFFFF
310
FFFFFFFFFFFFFFFFFFFFFFFFFFFFFFFFFFFFFFFFFFFFFFFFFFFFFFFFFFFFFFFF
310
FFFFFFFFFFFFFFFFFFFFFFFFFFFFFFFFFFFFFFFFFFFFFFFFFFFFFFFFFFFFFFFF
310
FFFFFFFFFFFFFFFFFFFFFFFFFFFFFFFFFFFFFFFFFFFFFFFFFFFFFFFFFFFFFFFF
310
FFFFFFFFFFFFFFFFFFFFFFFFFFFFFFFFFFFFFFFFFFFFFFFFFFFFFFFFFFFFFFFF
310
FFFFFFFFFFFFFFFFFFFFFFFFFFFFFFFFFFFFFFFFFFFFFFFFFFFFFFFFFFFFFFFF
310
52006F006F007400200045006E00740072007900000000000000000000000000
310
0000000000000000000000000000000000000000000000000000000000000000
310
16000500FFFFFFFFFFFFFFFF020000000A00030000000000C000000000000046
310
000000000000000000000000C06C68D32C01D10103000000C000000000000000
310
01004F006C006500000000000000000000000000000000000000000000000000
310
0000000000000000000000000000000000000000000000000000000000000000
310
0A000200FFFFFFFFFFFFFFFFFFFFFFFF00000000000000000000000000000000
310
0000000000000000000000000000000000000000000000001400000000000000
310
010043006F006D0070004F0062006A0000000000000000000000000000000000
310
0000000000000000000000000000000000000000000000000000000000000000
310
120002010100000003000000FFFFFFFF00000000000000000000000000000000
310
0000000000000000000000000000000000000000010000004D00000000000000
310
01004F006C006500310030004E00610074006900760065000000000000000000
310
0000000000000000000000000000000000000000000000000000000000000000
310
1A000200FFFFFFFFFFFFFFFFFFFFFFFF00000000000000000000000000000000
310
000000000000000000000000000000000000000004000000E411000000000000
310
FEFFFFFF02000000FEFFFFFFFFFFFFFFFFFFFFFFFFFFFFFFFFFFFFFFFFFFFFFF
310
FFFFFFFFFFFFFFFFFFFFFFFFFFFFFFFFFFFFFFFFFFFFFFFFFFFFFFFFFFFFFFFF
310
FFFFFFFFFFFFFFFFFFFFFFFFFFFFFFFFFFFFFFFFFFFFFFFFFFFFFFFFFFFFFFFF
310
FFFFFFFFFFFFFFFFFFFFFFFFFFFFFFFFFFFFFFFFFFFFFFFFFFFFFFFFFFFFFFFF
310
FFFFFFFFFFFFFFFFFFFFFFFFFFFFFFFFFFFFFFFFFFFFFFFFFFFFFFFFFFFFFFFF
310
FFFFFFFFFFFFFFFFFFFFFFFFFFFFFFFFFFFFFFFFFFFFFFFFFFFFFFFFFFFFFFFF
310
FFFFFFFFFFFFFFFFFFFFFFFFFFFFFFFFFFFFFFFFFFFFFFFFFFFFFFFFFFFFFFFF
310
FFFFFFFFFFFFFFFFFFFFFFFFFFFFFFFFFFFFFFFFFFFFFFFFFFFFFFFFFFFFFFFF
310
FFFFFFFFFFFFFFFFFFFFFFFFFFFFFFFFFFFFFFFFFFFFFFFFFFFFFFFFFFFFFFFF
310
FFFFFFFFFFFFFFFFFFFFFFFFFFFFFFFFFFFFFFFFFFFFFFFFFFFFFFFFFFFFFFFF
310
FFFFFFFFFFFFFFFFFFFFFFFFFFFFFFFFFFFFFFFFFFFFFFFFFFFFFFFFFFFFFFFF
310
FFFFFFFFFFFFFFFFFFFFFFFFFFFFFFFFFFFFFFFFFFFFFFFFFFFFFFFFFFFFFFFF
310
FFFFFFFFFFFFFFFFFFFFFFFFFFFFFFFFFFFFFFFFFFFFFFFFFFFFFFFFFFFFFFFF
310
FFFFFFFFFFFFFFFFFFFFFFFFFFFFFFFFFFFFFFFFFFFFFFFFFFFFFFFFFFFFFFFF
310
FFFFFFFFFFFFFFFFFFFFFFFFFFFFFFFFFFFFFFFFFFFFFFFFFFFFFFFFFFFFFFFF
310
FFFFFFFFFFFFFFFFFFFFFFFFFFFFFFFFFFFFFFFFFFFFFFFFFFFFFFFFFFFFFFFF
310
0100000200000000000000000000000000000000000000000000000000000000
310
0000000000000000000000000000000000000000000000000000000000000000
310
0100FEFF030A0000FFFFFFFF0A00030000000000C00000000000004607000000
310
5042727573680007000000504272757368000700000050427275736800F439B2
310
7100000000000000000000000000000000000000000000000000000000000000
310
0000000000000000000000000000000000000000000000000000000000000000
310
0000000000000000000000000000000000000000000000000000000000000000
310
0000000000000000000000000000000000000000000000000000000000000000
310
0000000000000000000000000000000000000000000000000000000000000000
310
0000000000000000000000000000000000000000000000000000000000000000
310
0000000000000000000000000000000000000000000000000000000000000000
310
0000000000000000000000000000000000000000000000000000000000000000
310
0000000000000000000000000000000000000000000000000000000000000000
310
0000000000000000000000000000000000000000000000000000000000000000
310
0000000000000000000000000000000000000000000000000000000000000000
310
0000000000000000000000000000000000000000000000000000000000000000
310
E0110000424DDE11000000000000360400002800000096000000170000000100
310
08000000000000000000E7240000E72400000001000000010000000000FF0101
310
01FF020202FF030303FF040404FF050505FF060606FF070707FF080808FF0909
310
09FF0A0A0AFF0B0B0BFF0C0C0CFF0D0D0DFF0E0E0EFF0F0F0FFF101010FF1111
310
11FF121212FF131313FF141414FF151515FF161616FF171717FF181818FF1919
310
19FF1A1A1AFF1B1B1BFF1C1C1CFF1D1D1DFF1E1E1EFF1F1F1FFF202020FF2121
310
21FF222222FF232323FF242424FF252525FF262626FF272727FF282828FF2929
310
29FF2A2A2AFF2B2B2BFF2C2C2CFF2D2D2DFF2E2E2EFF2F2F2FFF303030FF3131
310
31FF323232FF333333FF343434FF353535FF363636FF373737FF383838FF3939
310
39FF3A3A3AFF3B3B3BFF3C3C3CFF3D3D3DFF3E3E3EFF3F3F3FFF404040FF4141
310
41FF424242FF434343FF444444FF454545FF464646FF474747FF484848FF4949
310
49FF4A4A4AFF4B4B4BFF4C4C4CFF4D4D4DFF4E4E4EFF4F4F4FFF505050FF5151
310
51FF525252FF535353FF545454FF555555FF565656FF575757FF585858FF5959
310
59FF5A5A5AFF5B5B5BFF5C5C5CFF5D5D5DFF5E5E5EFF5F5F5FFF606060FF6161
310
61FF626262FF636363FF646464FF656565FF666666FF676767FF686868FF6969
310
69FF6A6A6AFF6B6B6BFF6C6C6CFF6D6D6DFF6E6E6EFF6F6F6FFF707070FF7171
310
71FF727272FF737373FF747474FF757575FF767676FF777777FF787878FF7979
310
79FF7A7A7AFF7B7B7BFF7C7C7CFF7D7D7DFF7E7E7EFF7F7F7FFF808080FF8181
310
81FF828282FF838383FF848484FF858585FF868686FF878787FF888888FF8989
310
89FF8A8A8AFF8B8B8BFF8C8C8CFF8D8D8DFF8E8E8EFF8F8F8FFF909090FF9191
310
91FF929292FF939393FF949494FF959595FF969696FF979797FF989898FF9999
310
99FF9A9A9AFF9B9B9BFF9C9C9CFF9D9D9DFF9E9E9EFF9F9F9FFFA0A0A0FFA1A1
310
A1FFA2A2A2FFA3A3A3FFA4A4A4FFA5A5A5FFA6A6A6FFA7A7A7FFA8A8A8FFA9A9
310
A9FFAAAAAAFFABABABFFACACACFFADADADFFAEAEAEFFAFAFAFFFB0B0B0FFB1B1
310
B1FFB2B2B2FFB3B3B3FFB4B4B4FFB5B5B5FFB6B6B6FFB7B7B7FFB8B8B8FFB9B9
310
B9FFBABABAFFBBBBBBFFBCBCBCFFBDBDBDFFBEBEBEFFBFBFBFFFC0C0C0FFC1C1
310
C1FFC2C2C2FFC3C3C3FFC4C4C4FFC5C5C5FFC6C6C6FFC7C7C7FFC8C8C8FFC9C9
310
C9FFCACACAFFCBCBCBFFCCCCCCFFCDCDCDFFCECECEFFCFCFCFFFD0D0D0FFD1D1
310
D1FFD2D2D2FFD3D3D3FFD4D4D4FFD5D5D5FFD6D6D6FFD7D7D7FFD8D8D8FFD9D9
310
D9FFDADADAFFDBDBDBFFDCDCDCFFDDDDDDFFDEDEDEFFDFDFDFFFE0E0E0FFE1E1
310
E1FFE2E2E2FFE3E3E3FFE4E4E4FFE5E5E5FFE6E6E6FFE7E7E7FFE8E8E8FFE9E9
310
E9FFEAEAEAFFEBEBEBFFECECECFFEDEDEDFFEEEEEEFFEFEFEFFFF0F0F0FFF1F1
310
F1FFF2F2F2FFF3F3F3FFF4F4F4FFF5F5F5FFF6F6F6FFF7F7F7FFF8F8F8FFF9F9
310
F9FFFAFAFAFFFBFBFBFFFCFCFCFFFDFDFDFFFEFEFEFFFFFFFFFFFFFFFFFFFFFF
310
C94E4E4E4F4E4EFFFFFFFFFFC94E4E4E4E4E72FFFFFFFFFFFFFF734E4D4E4E4E
310
C9FFFFFFFFFFAA683516171616265B9BE9FFFFFFFFFF4E4E4E4D4E4EFFFFFFFF
310
FFFFFFFF4E4E4F4E4D4E4E4E4F4E4E4F4D4E4E4E4E4E4D4E4F4E4D4E4E4EAAFF
310
FFFFFFFFFFEA4E4F4F4E4E4E4E4E4D4D4F4F4E4E4E4E4E5B7FAAFFFFFFFFFFFF
310
C9744E1716171616164D8DEAFFFFFFFF0000FFFFFFFFFFFFBA161617161716FF
310
FFFFFFFFB917171616174FFFFFFFFFFFFFFF4E1716161616B9FFFFFFB9341717
310
1716171617171616268CFFFFFFFF161617161617FFFFFFFFFFFFFFB917161717
310
1617167F807F7F7F7F7F7F807F7F807F7F807F7F7F414EFFFFFFFFFFFF8C167F
310
7F807F7F7F7E7F7F807F807F7F807F4E3417258EFFFFEA4E162674AABAEAEBBA
310
AA74341680FFFFFF0000FFFFFFFFFFFFB9171717171617FFFFFFFFFFBB161616
310
16164EFFFFFFFFFFFFFF4E1717171717B9FFFF9C171617171716161616171616
310
171766FFFFFF161717161617FFFFFFFFFFFFFF8E16171717161616FFFFFFFFFF
310
FFFFFFFFFFFFFFFFFFFFFFFFFFAA16D9FFFFFFFFFF3467FFFFFFFFEAFFFFFFFF
310
FFFFFFFFFFFFFFFFFFCA671667EB26278DFFFFFFFFFFFFFFFFFFFF8C2541EAFF
310
0000FFFFFFFFFFFFB9171717171716FFFFFFFFFFBA16171617174EFFFFFFFFFF
310
FFFF4E1717161616BAFF9B1617161616171716171617161616161667FFFF1616
310
16161716FFFFFFFFFFFFFF7F16161617174017FFFFFFFFFFFFFFFFFFFFFFFFFF
310
FFFFFFFFFFFF344E7F7F7F7E7417DAFFFFFFFF80FFFFFFFFFFFFFFFFFFFFFFFF
310
FFFFFF9B163425CAFFFFFFFFFFFFFFFFFFFFFFFFCA2667FF0000FFFFFFFFFFFF
310
BA171717171617FFFFFFFFFFB916171716164EFFFFFFFFFFFFFF4F1716161717
310
B9C91716171616161716161617171616161617168DFF161716161717FFFFFFFF
310
FFFFFF7F17171716164F16FFFFFFFFFFFFFFFFFFFFFFFFFFFFFFFFFFFFFF9B16
310
17161617174EFFFFFFFFFF34FFFFFFFFD9BABABABABADAFFFFFFFFFF7F16AAFF
310
FFFFFFFFFFFFFFFFFFFFFFFFFF9C16BA0000FFFFFFFFFFFFB9161717161717FF
310
FFFFFFFFB917161716174DFFFFFFFFFFFFFF4E1616161616BA4E161617171716
310
419BEAEAAA4E16161617161726E9171717161616FFFFFFFFFFFFFF4F16161717
310
164E16FFFFFFFFFFBAB9B9B9B9B9BABABACAFFFFFFFFFFFFFFFFFFFFFFFFFFFF
310
FFFFBA16FFFFFFFF7F1617161617174DEAFFFFFFEA41FFFFFFFFFFAA4D16174E
310
9BFFFFFFFFFF34730000FFFFFFFFFFFFB9161617171617FFFFFFFFFFBA161616
310
16164EFFFFFFFFFFFFFF4F16161717169B1617161716175BFFFFFFFFFFFF7417
310
16171616168D171717161617FFFFFFFFFFFFEA2616171717167416FFFFFFFFFF
310
16171616171717171717EAFFFFFFFFFFFFFFFFFFFFFFFFFFFFFF6716FFFFFFFF
310
7F4EFFFFFFFFBA2573FFFFFFFFBAFFFFFFFFAA167FB9BB9B269BFFFFFFFF664F
310
0000FFFFFFFFFFFFB9171616161616FFFFFFFFFFBA16161717164EFFFFFFFFFF
310
FFFF4E16161616174E161617171626EAFFFFFFFFFFFFFF4E16161616164E1716
310
16161617FFFFFFFFFFFF671616161716347F16FFFFFFFFFF16B9FFFFFFFFFFFF
310
D9168DFFFFFFFFFFFFFFFFFFFFFFFFFFFFEA1716FFFFFFFF7F4EFFFFFFFFFF7F
310
4EFFFFFFFFFFFFFFFFFF5B66FFFFFFEA347FFFFFFFFF7F4D0000FFFFFFFFFFFF
310
B9171616171617FFFFFFFFFFBA17161716174EFFFFFFFFFFFFFF4D1716161617
310
17161716161673FFFFFFFFFFFFFFFF9B1617161717161616171616174F4E4E4E
310
4E341616171616167E7F16FFFFFFFFFF16BAFFFFFFFFFFFFFF5B41FFFFFFFF34
310
1616171616BAFFFFFF9B1716FFFFFFFF7F4EFFFFFFFFFF4E4EFFFFFFFF734E4E
310
4E4E267EDA9B67164EEAFFFFFFFF744D0000FFFFFFFFFFFFBA171717161617FF
310
FFFFFFFFBA1616171616347F7F7F7F80807F331616161717161717161716B9FF
310
FFFFFFFFFFFFFFE9161616161616171716161716171616161616171616171734
310
EA7F16FFFFFFFFFF16BAFFFFFFFFFFFFFFAA17C9FFFFFF7326BABA5B25FFFFFF
310
FF401716FFFFFFFF7F264F4E4E4E4217AAFFFFFFEA16677F73261616164173CA
310
FFFFFFFFFFFF417F0000FFFFFFFFFFFFBA171616171617FFFFFFFFFFBA161616
310
17171616161616161616161717161616161616161617EAFFFFFFFFFFFFFFFFFF
310
261717161716161617161616161617161617161616174EEAFF8016FFFFFFFFFF
310
17BAFFFFFFFFFFFFFFFF3467FFFFFFC916C9FF3467FFFFFFDA166716FFFFFFFF
310
9C4D4E4E4E4E67AAFFFFFFFF6834FF7F262567AAEAFFFFFFFFFFFFFFFF9B17D9
310
0000FFFFFFFFFFFFB9161616161616FFFFFFFFFFBA1617161717171616161616
310
1716171716161716161617171716FFFFFFFFFFFFFFFFFFFF4E17161716171616
310
1617171616161716171717161616169BFF7F17FFFFFFFFFF17B9FFFFFFFFFFFF
310
FFFF7326FFFFFFFF3473DA16AAFFFFFF7317AA16FFFFFFFFFFFFFFFFFFFFFFFF
310
FFFFEA6725BA4E167FEAFFFFFFFFFFFFFFFFFFFF9C167FFF0000FFFFFFFFFFFF
310
B9161717171716FFFFFFFFFFBA16161716171616171717161617161716161616
310
171617171617EAFFFFFFFFFFFFFFFFFF26161717161616161616161617171616
310
1616161616171616AA8016FFFFFFFFFF16BAFFFFFFFFFFFFFFFFDA179BFFFFFF
310
74348D26FFFFFFFF2566B917FFFFFFFFD8BAB9BAB9BADAFFFFEA41169B7425C9
310
FFFFFFFFFFFFFFFFFFFFAB4F1680FFFF0000FFFFFFFFFFFFBA161717171617FF
310
FFFFFFFFBA17161717161617171617161616161617171616171716171617BBFF
310
FFFFFFFFFFFFFFE9171616161617161617161716FFFFFFFFFFD9671616161617
310
348017FFFFFFFFFF16BAFFFFFFFFFFFFFFFFFF4E5AFFFFFFC916265AFFFFFFAA
310
16AABA16FFFFFFFF7F1617161616179BFFFFEB4127168DFFFFFFFFFFFFFFD99B
310
6734175AC9FFFFFF0000FFFFFFFFFFFFB9161617171617FFFFFFFFFFBB161616
310
1616347F807F7F7F7F8033171716171617171616161672FFFFFFFFFFFFFFFF9C
310
171617171617161716161617FFFFFFFFFFFFFF4117161616174E17FFFFFFFFFF
310
16BAFFFFFFFFFFFFFFFFFF9B16DAFFFFFF34169BFFFFFF5A26FFB917FFFFFFFF
310
7F4EFFFFFFEA5B26FFFFFFEA2616EAFFFFFFFFDA743416331617414E4E4E4ECA
310
0000FFFFFFFFFFFFBA161716161616FFFFFFFFFFBA17171616164EFFFFFFFFFF
310
FFFF4E16161717174E161717171626EBFFFFFFFFFFFFFF4E16161617165B1616
310
16171617FFFFFFFFFFFFFF6716161616161617FFFFFFFFFF16BAFFFFFFFFFFFF
310
FFFFFFEA268CFFFFFF7316EAFFFFEB1774FFB916FFFFFFFF7F4EFFFFFFFF7316
310
FFFFFFFF6826FFFFFFFFEB264D9CEABA257F807F7F6616BA0000FFFFFFFFFFFF
310
BA161716161616FFFFFFFFFFBA16171616164DFFFFFFFFFFFFFF4E1617161617
310
9B1617171717165BEBFFFFFFFFFF671616161617179B171616161616FFFFFFFF
310
FFFFFF3417161617171617FFFFFFFFFF17BAFFFFFFFFFFFFFFFFFFFF6734FFFF
310
FFEBCAFFFFFF8D17C9FFBA17FFFFFFFF7F357F808066174FFFFFFFFF7F16FFFF
310
FFFFD91673B99B415BFFFFFFFFBA16DA00009B7F7F7F807F671617161616167F
310
80807F7E6617161616164EFFFFFFFFFFFFFF4E1616161617B94E171716161616
310
349BC9D9AA4E16171616161634FF161617161717B9B9BAB9BA9B411716171716
310
163416FFFFFFFFFF16B9FFFFFFFFFFFFFFFFFFFFC917CAFFFFFFFFFFFFFF3342
310
FFFFBA17FFFFFFFF9B4E4E4F4E4E66EAFFFFFFFF5B16C9FFFFFFFFAA4E164E73
310
EAFFFFFFFF8D26FF00004E161716161616171617171616171717171617161616
310
17174EFFFFFFFFFFFFFF4E1717171616B9D92616171716171716171717171716
310
16171716AAFF161717171617161617171616161617161716166717FFFFFFFFFF
310
17B9FFFFFFFFFFFFFFFFFFFFFF3467FFFFFFFFFFFFCA168CFFFFBB17FFFFFFFF
310
FFFFFFFFFFFFFFFFFFFFFFEA26265BFFFFFFFFFFFFFFFFFFFFFFFFFFEA3467FF
310
00004D16161616161617161717161617161616171617171616164EFFFFFFFFFF
310
FFFF4D1617161616BAFF9B1616161616161716161616171717161766FFFF1616
310
16171617161617161716171616171717667F16FFFFFFFFFF17BAFFFFFFFFFFFF
310
FFFFFFFFFF8C26EAFFFFFFFFFF6617EAFFFFBA17FFFFFFFFFFFFFFFFFFFFFFFF
310
FFFFEA5A25BA269BFFFFFFFFFFFFFFFFFFFFFFFF6616DAFF00004E1616171616
310
1616161616161716161617171616171616174EFFFFFFFFFFFFFF4D1717171716
310
B9FFFF9C161616161616161716161717171667FFFFFF17161717171716161617
310
1716161616161641E97E16FFFFFFFFFF16B9FFFFFFFFFFFFFFFFFFFFFFEA169B
310
FFFFFFFFEA265BFFFFFFB916FFFFFFFFFFFFFFFFFFFFFFFFFF9B3416AAFF9B17
310
67EAFFFFFFFFFFFFFFFFEA5B169BFFFF00004D17161716161616161717171616
310
161717161716171716174EFFFFFFFFFFFFFF4D1616161616BAFFFFFFBB411616
310
161716161616171634ABFFFFFFFF161716161617171716171617171617267FFF
310
FF7F164E4E4E4E4F17BAFFFFFFFFFFFFFFFFFFFFFFFF66344D4E4E4F4117AAFF
310
FFFFBA174E4E4E4D4E4D4D4E4E4E4E4116174EBBFFFFFFCA342666ABEAFFFFEA
310
AA6725269CFFFFFF0000724F4E4D4D4D4E4D4D4E4E4E4D4E4E4E4E4E4E4E4E4D
310
4E4E74FFFFFFFFFFFFFF734E4E4E4D4ECAFFFFFFFFFFAA663416171717265B9B
310
FFFFFFFFFFFF7F8080807F80807F7F7F7F7F807FBAFFFFFFFF9B4E4E4F4D4D4E
310
4DC9FFFFFFFFFFFFFFFFFFFFFFFFBA4E4E4E4E4D4E4EFFFFFFFFC94E4E4E4F4E
310
4E4E4D4E4E5A807F9CD9FFFFFFFFFFFFFF9B5B2617171716174E8DEAFFFFFFFF
310
0000000000000000000000000000000000000000000000000000000000000000
  1
OLE
  0
ENDSEC
  0
SECTION
  2
OBJECTS
  0
DICTIONARY
  5
C
330
0
100
AcDbDictionary
281
     1
  3
ACAD_GROUP
350
D
  3
ACAD_LAYOUT
350
1A
  3
ACAD_MLINESTYLE
350
17
  3
ACAD_PLOTSETTINGS
350
19
  3
ACAD_PLOTSTYLENAME
350
E
  3
ACAD_SCALELIST
350
47
  0
DICTIONARY
  5
D
102
{ACAD_REACTORS
330
C
102
}
330
C
100
AcDbDictionary
281
     1
  0
DICTIONARY
  5
1A
102
{ACAD_REACTORS
330
C
102
}
330
C
100
AcDbDictionary
281
     1
  3
Layout1
350
1E
  3
Layout2
350
26
  3
Model
350
22
  0
DICTIONARY
  5
17
102
{ACAD_REACTORS
330
C
102
}
330
C
100
AcDbDictionary
281
     1
  3
Standard
350
18
  0
DICTIONARY
  5
19
102
{ACAD_REACTORS
330
C
102
}
330
C
100
AcDbDictionary
281
     1
  0
ACDBDICTIONARYWDFLT
  5
E
102
{ACAD_REACTORS
330
C
102
}
330
C
100
AcDbDictionary
281
     1
  3
Normal
350
F
100
AcDbDictionaryWithDefault
340
F
  0
DICTIONARY
  5
47
102
{ACAD_REACTORS
330
C
102
}
330
C
100
AcDbDictionary
281
     1
  3
A0
350
48
  3
A1
350
49
  3
A2
350
4A
  3
A3
350
4B
  3
A4
350
4C
  3
A5
350
4D
  3
A6
350
4E
  3
A7
350
4F
  3
A8
350
50
  3
A9
350
51
  3
B0
350
52
  3
B1
350
53
  3
B2
350
54
  3
B3
350
55
  3
B4
350
56
  3
B5
350
57
  3
B6
350
58
  3
B7
350
59
  3
B8
350
5A
  3
B9
350
5B
  3
C0
350
5C
  3
C1
350
5D
  3
C2
350
5E
  3
C3
350
5F
  3
C4
350
60
  3
C5
350
61
  3
C6
350
62
  3
C7
350
63
  3
C8
350
64
  3
C9
350
65
  3
D0
350
66
  3
D1
350
67
  3
D2
350
68
  0
LAYOUT
  5
1E
102
{ACAD_REACTORS
330
1A
102
}
330
1A
100
AcDbPlotSettings
  1

  2
none_device
  4

  6

 40
0.0
 41
0.0
 42
0.0
 43
0.0
 44
0.0
 45
0.0
 46
0.0
 47
0.0
 48
0.0
 49
0.0
140
0.0
141
0.0
142
1.0
143
1.0
 70
   688
 72
     1
 73
     0
 74
     5
  7

 75
    16
147
1.0
148
0.0
149
0.0
100
AcDbLayout
  1
Layout1
 70
     1
 71
     1
 10
0.0
 20
0.0
 11
420.0
 21
297.0
 12
0.0
 22
0.0
 32
0.0
 14
1.0000000000E+20
 24
1.0000000000E+20
 34
1.0000000000E+20
 15
-1.0000000000E+20
 25
-1.0000000000E+20
 35
-1.0000000000E+20
146
0.0
 13
0.0
 23
0.0
 33
0.0
 16
1.0
 26
0.0
 36
0.0
 17
0.0
 27
1.0
 37
0.0
 76
     0
330
1B
  0
LAYOUT
  5
26
102
{ACAD_REACTORS
330
1A
102
}
330
1A
100
AcDbPlotSettings
  1

  2
none_device
  4

  6

 40
0.0
 41
0.0
 42
0.0
 43
0.0
 44
0.0
 45
0.0
 46
0.0
 47
0.0
 48
0.0
 49
0.0
140
0.0
141
0.0
142
1.0
143
1.0
 70
   688
 72
     1
 73
     0
 74
     5
  7

 75
    16
147
1.0
148
0.0
149
0.0
100
AcDbLayout
  1
Layout2
 70
     1
 71
     2
 10
0.0
 20
0.0
 11
0.0
 21
0.0
 12
0.0
 22
0.0
 32
0.0
 14
0.0
 24
0.0
 34
0.0
 15
0.0
 25
0.0
 35
0.0
146
0.0
 13
0.0
 23
0.0
 33
0.0
 16
1.0
 26
0.0
 36
0.0
 17
0.0
 27
1.0
 37
0.0
 76
     0
330
23
  0
LAYOUT
  5
22
102
{ACAD_REACTORS
330
1A
102
}
330
1A
100
AcDbPlotSettings
  1

  2
none_device
  4
Letter_(8.50_x_11.00_Inches)
  6

 40
6.35
 41
6.35
 42
6.35000508
 43
6.35000508
 44
215.9
 45
279.4
 46
0.0
 47
0.0
 48
0.0
 49
0.0
140
0.0
141
0.0
142
1.0
143
1.0
 70
  1712
 72
     1
 73
     0
 74
     0
  7

 75
     0
147
1.0
148
0.0
149
0.0
100
AcDbLayout
  1
Model
 70
     1
 71
     0
 10
0.0
 20
0.0
 11
279.4
 21
215.9
 12
0.0
 22
0.0
 32
0.0
 14
0.0
 24
0.0
 34
0.0
 15
279.4
 25
215.9
 35
0.0
146
0.0
 13
0.0
 23
0.0
 33
0.0
 16
1.0
 26
0.0
 36
0.0
 17
0.0
 27
1.0
 37
0.0
 76
     0
330
1F
331
29
  0
MLINESTYLE
  5
18
102
{ACAD_REACTORS
330
17
102
}
330
17
100
AcDbMlineStyle
  2
Standard
 70
     0
  3

 62
   256
 51
90.0
 52
90.0
 71
     2
 49
0.5
 62
   256
  6
BYLAYER
 49
-0.5
 62
   256
  6
BYLAYER
  0
ACDBPLACEHOLDER
  5
F
102
{ACAD_REACTORS
330
E
102
}
330
E
  0
SCALE
  5
48
102
{ACAD_REACTORS
330
47
102
}
330
47
100
AcDbScale
 70
     0
300
1:1
140
1.0
141
1.0
290
     1
  0
SCALE
  5
49
102
{ACAD_REACTORS
330
47
102
}
330
47
100
AcDbScale
 70
     0
300
1:2
140
1.0
141
2.0
290
     0
  0
SCALE
  5
4A
102
{ACAD_REACTORS
330
47
102
}
330
47
100
AcDbScale
 70
     0
300
1:4
140
1.0
141
4.0
290
     0
  0
SCALE
  5
4B
102
{ACAD_REACTORS
330
47
102
}
330
47
100
AcDbScale
 70
     0
300
1:5
140
1.0
141
5.0
290
     0
  0
SCALE
  5
4C
102
{ACAD_REACTORS
330
47
102
}
330
47
100
AcDbScale
 70
     0
300
1:8
140
1.0
141
8.0
290
     0
  0
SCALE
  5
4D
102
{ACAD_REACTORS
330
47
102
}
330
47
100
AcDbScale
 70
     0
300
1:10
140
1.0
141
10.0
290
     0
  0
SCALE
  5
4E
102
{ACAD_REACTORS
330
47
102
}
330
47
100
AcDbScale
 70
     0
300
1:16
140
1.0
141
16.0
290
     0
  0
SCALE
  5
4F
102
{ACAD_REACTORS
330
47
102
}
330
47
100
AcDbScale
 70
     0
300
1:20
140
1.0
141
20.0
290
     0
  0
SCALE
  5
50
102
{ACAD_REACTORS
330
47
102
}
330
47
100
AcDbScale
 70
     0
300
1:30
140
1.0
141
30.0
290
     0
  0
SCALE
  5
51
102
{ACAD_REACTORS
330
47
102
}
330
47
100
AcDbScale
 70
     0
300
1:40
140
1.0
141
40.0
290
     0
  0
SCALE
  5
52
102
{ACAD_REACTORS
330
47
102
}
330
47
100
AcDbScale
 70
     0
300
1:50
140
1.0
141
50.0
290
     0
  0
SCALE
  5
53
102
{ACAD_REACTORS
330
47
102
}
330
47
100
AcDbScale
 70
     0
300
1:100
140
1.0
141
100.0
290
     0
  0
SCALE
  5
54
102
{ACAD_REACTORS
330
47
102
}
330
47
100
AcDbScale
 70
     0
300
2:1
140
2.0
141
1.0
290
     0
  0
SCALE
  5
55
102
{ACAD_REACTORS
330
47
102
}
330
47
100
AcDbScale
 70
     0
300
4:1
140
4.0
141
1.0
290
     0
  0
SCALE
  5
56
102
{ACAD_REACTORS
330
47
102
}
330
47
100
AcDbScale
 70
     0
300
8:1
140
8.0
141
1.0
290
     0
  0
SCALE
  5
57
102
{ACAD_REACTORS
330
47
102
}
330
47
100
AcDbScale
 70
     0
300
10:1
140
10.0
141
1.0
290
     0
  0
SCALE
  5
58
102
{ACAD_REACTORS
330
47
102
}
330
47
100
AcDbScale
 70
     0
300
100:1
140
100.0
141
1.0
290
     0
  0
SCALE
  5
59
102
{ACAD_REACTORS
330
47
102
}
330
47
100
AcDbScale
 70
     0
300
1/128" = 1'-0"
140
0.0078125
141
12.0
290
     0
  0
SCALE
  5
5A
102
{ACAD_REACTORS
330
47
102
}
330
47
100
AcDbScale
 70
     0
300
1/64" = 1'-0"
140
0.015625
141
12.0
290
     0
  0
SCALE
  5
5B
102
{ACAD_REACTORS
330
47
102
}
330
47
100
AcDbScale
 70
     0
300
1/32" = 1'-0"
140
0.03125
141
12.0
290
     0
  0
SCALE
  5
5C
102
{ACAD_REACTORS
330
47
102
}
330
47
100
AcDbScale
 70
     0
300
1/16" = 1'-0"
140
0.0625
141
12.0
290
     0
  0
SCALE
  5
5D
102
{ACAD_REACTORS
330
47
102
}
330
47
100
AcDbScale
 70
     0
300
3/32" = 1'-0"
140
0.09375
141
12.0
290
     0
  0
SCALE
  5
5E
102
{ACAD_REACTORS
330
47
102
}
330
47
100
AcDbScale
 70
     0
300
1/8" = 1'-0"
140
0.125
141
12.0
290
     0
  0
SCALE
  5
5F
102
{ACAD_REACTORS
330
47
102
}
330
47
100
AcDbScale
 70
     0
300
3/16" = 1'-0"
140
0.1875
141
12.0
290
     0
  0
SCALE
  5
60
102
{ACAD_REACTORS
330
47
102
}
330
47
100
AcDbScale
 70
     0
300
1/4" = 1'-0"
140
0.25
141
12.0
290
     0
  0
SCALE
  5
61
102
{ACAD_REACTORS
330
47
102
}
330
47
100
AcDbScale
 70
     0
300
3/8" = 1'-0"
140
0.375
141
12.0
290
     0
  0
SCALE
  5
62
102
{ACAD_REACTORS
330
47
102
}
330
47
100
AcDbScale
 70
     0
300
1/2" = 1'-0"
140
0.5
141
12.0
290
     0
  0
SCALE
  5
63
102
{ACAD_REACTORS
330
47
102
}
330
47
100
AcDbScale
 70
     0
300
3/4" = 1'-0"
140
0.75
141
12.0
290
     0
  0
SCALE
  5
64
102
{ACAD_REACTORS
330
47
102
}
330
47
100
AcDbScale
 70
     0
300
1" = 1'-0"
140
1.0
141
12.0
290
     0
  0
SCALE
  5
65
102
{ACAD_REACTORS
330
47
102
}
330
47
100
AcDbScale
 70
     0
300
1-1/2" = 1'-0"
140
1.5
141
12.0
290
     0
  0
SCALE
  5
66
102
{ACAD_REACTORS
330
47
102
}
330
47
100
AcDbScale
 70
     0
300
3" = 1'-0"
140
3.0
141
12.0
290
     0
  0
SCALE
  5
67
102
{ACAD_REACTORS
330
47
102
}
330
47
100
AcDbScale
 70
     0
300
6" = 1'-0"
140
6.0
141
12.0
290
     0
  0
SCALE
  5
68
102
{ACAD_REACTORS
330
47
102
}
330
47
100
AcDbScale
 70
     0
300
1'-0" = 1'-0"
140
12.0
141
12.0
290
     0
  0
ENDSEC
  0
EOF
