  0
SECTION
  2
HEADER
  9
$ACADVER
  1
AC1015
  9
$ACADMAINTVER
 70
     6
  9
$DWGCODEPAGE
  3
ANSI_1252
  9
$INSBASE
 10
0.0
 20
0.0
 30
0.0
  9
$EXTMIN
 10
0.0
 20
0.0
 30
0.0
  9
$EXTMAX
 10
11.0
 20
8.5
 30
0.0
  9
$LIMMIN
 10
0.0
 20
0.0
  9
$LIMMAX
 10
0.0
 20
0.0
  9
$ORTHOMODE
 70
     0
  9
$REGENMODE
 70
     1
  9
$FILLMODE
 70
     1
  9
$QTEXTMODE
 70
     0
  9
$MIRRTEXT
 70
     1
  9
$LTSCALE
 40
1.0
  9
$ATTMODE
 70
     1
  9
$TEXTSIZE
 40
0.09
  9
$TRACEWID
 40
0.05
  9
$TEXTSTYLE
  7
Standard
  9
$CLAYER
  8
0
  9
$CELTYPE
  6
ByLayer
  9
$CECOLOR
 62
   256
  9
$CELTSCALE
 40
1.0
  9
$DISPSILH
 70
     0
  9
$DIMSCALE
 40
1.0
  9
$DIMASZ
 40
0.16
  9
$DIMEXO
 40
0.05
  9
$DIMDLI
 40
0.38
  9
$DIMRND
 40
0.0
  9
$DIMDLE
 40
0.0
  9
$DIMEXE
 40
0.125
  9
$DIMTP
 40
0.0
  9
$DIMTM
 40
0.0
  9
$DIMTXT
 40
0.09
  9
$DIMCEN
 40
0.09
  9
$DIMTSZ
 40
0.0
  9
$DIMTOL
 70
     0
  9
$DIMLIM
 70
     0
  9
$DIMTIH
 70
     1
  9
$DIMTOH
 70
     1
  9
$DIMSE1
 70
     0
  9
$DIMSE2
 70
     0
  9
$DIMTAD
 70
     0
  9
$DIMZIN
 70
     1
  9
$DIMBLK
  1

  9
$DIMASO
 70
     1
  9
$DIMSHO
 70
     1
  9
$DIMPOST
  1

  9
$DIMAPOST
  1

  9
$DIMALT
 70
     0
  9
$DIMALTD
 70
     2
  9
$DIMALTF
 40
25.4
  9
$DIMLFAC
 40
1.0
  9
$DIMTOFL
 70
     0
  9
$DIMTVP
 40
0.0
  9
$DIMTIX
 70
     0
  9
$DIMSOXD
 70
     0
  9
$DIMSAH
 70
     0
  9
$DIMBLK1
  1

  9
$DIMBLK2
  1

  9
$DIMSTYLE
  2
Standard
  9
$DIMCLRD
 70
     0
  9
$DIMCLRE
 70
     0
  9
$DIMCLRT
 70
     0
  9
$DIMTFAC
 40
1.0
  9
$DIMGAP
 40
0.1
  9
$DIMJUST
 70
     0
  9
$DIMSD1
 70
     0
  9
$DIMSD2
 70
     0
  9
$DIMTOLJ
 70
     1
  9
$DIMTZIN
 70
     1
  9
$DIMALTZ
 70
     0
  9
$DIMALTTZ
 70
     0
  9
$DIMUPT
 70
     0
  9
$DIMDEC
 70
     4
  9
$DIMTDEC
 70
     4
  9
$DIMALTU
 70
     2
  9
$DIMALTTD
 70
     2
  9
$DIMTXSTY
  7
Standard
  9
$DIMAUNIT
 70
     0
  9
$DIMADEC
 70
     0
  9
$DIMALTRND
 40
0.0
  9
$DIMAZIN
 70
     0
  9
$DIMDSEP
 70
    46
  9
$DIMATFIT
 70
     3
  9
$DIMFRAC
 70
     0
  9
$DIMLDRBLK
  1

  9
$DIMLUNIT
 70
     2
  9
$DIMLWD
 70
    -2
  9
$DIMLWE
 70
    -2
  9
$DIMTMOVE
 70
     0
  9
$LUNITS
 70
     2
  9
$LUPREC
 70
     3
  9
$SKETCHINC
 40
0.1
  9
$FILLETRAD
 40
0.5
  9
$AUNITS
 70
     0
  9
$AUPREC
 70
     0
  9
$MENU
  1
.
  9
$ELEVATION
 40
0.0
  9
$PELEVATION
 40
0.0
  9
$THICKNESS
 40
0.0
  9
$LIMCHECK
 70
     0
  9
$CHAMFERA
 40
0.5
  9
$CHAMFERB
 40
0.5
  9
$CHAMFERC
 40
1.0
  9
$CHAMFERD
 40
0.0
  9
$SKPOLY
 70
     0
  9
$TDCREATE
 40
2454805.306983634
  9
$TDUCREATE
 40
2454805.515316967
  9
$TDUPDATE
 40
2454805.306983646
  9
$TDUUPDATE
 40
2454805.515316979
  9
$TDINDWG
 40
0.0000000116
  9
$TDUSRTIMER
 40
0.0000000116
  9
$USRTIMER
 70
     1
  9
$ANGBASE
 50
0.0
  9
$ANGDIR
 70
     0
  9
$PDMODE
 70
     0
  9
$PDSIZE
 40
-1.0
  9
$PLINEWID
 40
0.0
  9
$SPLFRAME
 70
     0
  9
$SPLINETYPE
 70
     6
  9
$SPLINESEGS
 70
     8
  9
$HANDSEED
  5
465
  9
$SURFTAB1
 70
     6
  9
$SURFTAB2
 70
     6
  9
$SURFTYPE
 70
     6
  9
$SURFU
 70
     6
  9
$SURFV
 70
     6
  9
$UCSBASE
  2

  9
$UCSNAME
  2

  9
$UCSORG
 10
0.0
 20
0.0
 30
0.0
  9
$UCSXDIR
 10
1.0
 20
0.0
 30
0.0
  9
$UCSYDIR
 10
0.0
 20
1.0
 30
0.0
  9
$UCSORTHOREF
  2

  9
$UCSORTHOVIEW
 70
     0
  9
$UCSORGTOP
 10
0.0
 20
0.0
 30
0.0
  9
$UCSORGBOTTOM
 10
0.0
 20
0.0
 30
0.0
  9
$UCSORGLEFT
 10
0.0
 20
0.0
 30
0.0
  9
$UCSORGRIGHT
 10
0.0
 20
0.0
 30
0.0
  9
$UCSORGFRONT
 10
0.0
 20
0.0
 30
0.0
  9
$UCSORGBACK
 10
0.0
 20
0.0
 30
0.0
  9
$PUCSBASE
  2

  9
$PUCSNAME
  2

  9
$PUCSORG
 10
0.0
 20
0.0
 30
0.0
  9
$PUCSXDIR
 10
1.0
 20
0.0
 30
0.0
  9
$PUCSYDIR
 10
0.0
 20
1.0
 30
0.0
  9
$PUCSORTHOREF
  2

  9
$PUCSORTHOVIEW
 70
     0
  9
$PUCSORGTOP
 10
0.0
 20
0.0
 30
0.0
  9
$PUCSORGBOTTOM
 10
0.0
 20
0.0
 30
0.0
  9
$PUCSORGLEFT
 10
0.0
 20
0.0
 30
0.0
  9
$PUCSORGRIGHT
 10
0.0
 20
0.0
 30
0.0
  9
$PUCSORGFRONT
 10
0.0
 20
0.0
 30
0.0
  9
$PUCSORGBACK
 10
0.0
 20
0.0
 30
0.0
  9
$USERI1
 70
     0
  9
$USERI2
 70
     0
  9
$USERI3
 70
     0
  9
$USERI4
 70
     0
  9
$USERI5
 70
     0
  9
$USERR1
 40
0.0
  9
$USERR2
 40
0.0
  9
$USERR3
 40
0.0
  9
$USERR4
 40
0.0
  9
$USERR5
 40
0.0
  9
$WORLDVIEW
 70
     1
  9
$SHADEDGE
 70
     3
  9
$SHADEDIF
 70
    70
  9
$TILEMODE
 70
     1
  9
$MAXACTVP
 70
    64
  9
$PINSBASE
 10
0.0
 20
0.0
 30
0.0
  9
$PLIMCHECK
 70
     0
  9
$PEXTMIN
 10
1.0000000000E+20
 20
1.0000000000E+20
 30
1.0000000000E+20
  9
$PEXTMAX
 10
-1.0000000000E+20
 20
-1.0000000000E+20
 30
-1.0000000000E+20
  9
$PLIMMIN
 10
0.0
 20
0.0
  9
$PLIMMAX
 10
12.0
 20
9.0
  9
$UNITMODE
 70
     0
  9
$VISRETAIN
 70
     1
  9
$PLINEGEN
 70
     0
  9
$PSLTSCALE
 70
     1
  9
$TREEDEPTH
 70
  3020
  9
$CMLSTYLE
  2
Standard
  9
$CMLJUST
 70
     0
  9
$CMLSCALE
 40
1.0
  9
$PROXYGRAPHICS
 70
     1
  9
$MEASUREMENT
 70
     0
  9
$CELWEIGHT
370
    -1
  9
$ENDCAPS
280
     0
  9
$JOINSTYLE
280
     0
  9
$LWDISPLAY
290
     1
  9
$INSUNITS
 70
     1
  9
$HYPERLINKBASE
  1

  9
$STYLESHEET
  1

  9
$XEDIT
290
     1
  9
$CEPSNTYPE
380
     0
  9
$PSTYLEMODE
290
     1
  9
$FINGERPRINTGUID
  2
{018E6AC6-EAF7-4E55-8837-F37937A5A403}
  9
$VERSIONGUID
  2
{FAEB1C32-E019-11D5-929B-00C0DF256EC4}
  9
$EXTNAMES
290
     1
  9
$PSVPSCALE
 40
0.0
  9
$OLESTARTUP
290
     0
  0
ENDSEC
  0
SECTION
  2
CLASSES
  0
CLASS
  1
ACDBDICTIONARYWDFLT
  2
AcDbDictionaryWithDefault
  3
ObjectDBX Classes
 90
        0
280
     0
281
     0
  0
CLASS
  1
ACDBPLACEHOLDER
  2
AcDbPlaceHolder
  3
ObjectDBX Classes
 90
        0
280
     0
281
     0
  0
CLASS
  1
LAYOUT
  2
AcDbLayout
  3
ObjectDBX Classes
 90
        0
280
     0
281
     0
  0
ENDSEC
  0
SECTION
  2
TABLES
  0
TABLE
  2
VPORT
  5
8
330
0
100
AcDbSymbolTable
 70
     1
  0
VPORT
  5
29
330
8
100
AcDbSymbolTableRecord
100
AcDbViewportTableRecord
  2
*Active
 70
     0
 10
0.0
 20
0.0
 11
1.0
 21
1.0
 12
5.5
 22
4.25
 13
0.0
 23
0.0
 14
0.5
 24
0.5
 15
0.5
 25
0.5
 16
0.0
 26
0.0
 36
1.0
 17
0.0
 27
0.0
 37
0.0
 40
8.5
 41
1.2941176471
 42
50.0
 43
0.0
 44
0.0
 50
0.0
 51
0.0
 71
     0
 72
  2000
 73
     1
 74
     3
 75
     0
 76
     0
 77
     0
 78
     0
281
     0
 65
     1
110
0.0
120
0.0
130
0.0
111
1.0
121
0.0
131
0.0
112
0.0
122
1.0
132
0.0
 79
     0
146
0.0
  0
ENDTAB
  0
TABLE
  2
LTYPE
  5
5
330
0
100
AcDbSymbolTable
 70
     6
  0
LTYPE
  5
14
330
5
100
AcDbSymbolTableRecord
100
AcDbLinetypeTableRecord
  2
ByBlock
 70
     0
  3

 72
    65
 73
     0
 40
0.0
  0
LTYPE
  5
15
330
5
100
AcDbSymbolTableRecord
100
AcDbLinetypeTableRecord
  2
ByLayer
 70
     0
  3

 72
    65
 73
     0
 40
0.0
  0
LTYPE
  5
16
330
5
100
AcDbSymbolTableRecord
100
AcDbLinetypeTableRecord
  2
Continuous
 70
     0
  3
Solid line
 72
    65
 73
     0
 40
0.0
  0
LTYPE
  5
2A
330
5
100
AcDbSymbolTableRecord
100
AcDbLinetypeTableRecord
  2
HIDDEN
 70
     0
  3
Hidden __ __ __ __ __ __ __ __ __ __ __ __ __ __
 72
    65
 73
     2
 40
0.075
 49
0.05
 74
     0
 49
-0.025
 74
     0
  0
LTYPE
  5
2B
330
5
100
AcDbSymbolTableRecord
100
AcDbLinetypeTableRecord
  2
PHANTOM
 70
     0
  3
Phantom ______  __  __  ______  __  __  ______
 72
    65
 73
     6
 40
0.5
 49
0.25
 74
     0
 49
-0.05
 74
     0
 49
0.05
 74
     0
 49
-0.05
 74
     0
 49
0.05
 74
     0
 49
-0.05
 74
     0
  0
LTYPE
  5
2C
330
5
100
AcDbSymbolTableRecord
100
AcDbLinetypeTableRecord
  2
CENTER
 70
     0
  3
Center ____ _ ____ _ ____ _ ____ _ ____ _ ____
 72
    65
 73
     4
 40
0.4
 49
0.25
 74
     0
 49
-0.05
 74
     0
 49
0.05
 74
     0
 49
-0.05
 74
     0
  0
LTYPE
  5
2D
330
5
100
AcDbSymbolTableRecord
100
AcDbLinetypeTableRecord
  2
CENTERX2
 70
     0
  3
Center (2x) ________  __  ________  __  _____
 72
    65
 73
     4
 40
0.8
 49
0.5
 74
     0
 49
-0.1
 74
     0
 49
0.1
 74
     0
 49
-0.1
 74
     0
  0
LTYPE
  5
2E
330
5
100
AcDbSymbolTableRecord
100
AcDbLinetypeTableRecord
  2
DOT2
 70
     0
  3
Dot (.5x) ........................................
 72
    65
 73
     2
 40
0.025
 49
0.0
 74
     0
 49
-0.025
 74
     0
  0
ENDTAB
  0
TABLE
  2
LAYER
  5
2
330
0
100
AcDbSymbolTable
 70
     2
  0
LAYER
  5
10
330
2
100
AcDbSymbolTableRecord
100
AcDbLayerTableRecord
  2
0
 70
     0
 62
     7
  6
Continuous
370
    -3
390
F
  0
LAYER
  5
2F
330
2
100
AcDbSymbolTableRecord
100
AcDbLayerTableRecord
  2
FORMAT
 70
     0
 62
     7
  6
Continuous
370
    -3
390
F
  0
ENDTAB
  0
TABLE
  2
STYLE
  5
3
330
0
100
AcDbSymbolTable
 70
    18
  0
STYLE
  5
11
330
3
100
AcDbSymbolTableRecord
100
AcDbTextStyleTableRecord
  2
Standard
 70
     0
 40
0.0
 41
1.0
 50
0.0
 71
     0
 42
0.2
  3
txt
  4

  0
STYLE
  5
4D
330
3
100
AcDbSymbolTableRecord
100
AcDbTextStyleTableRecord
  2
SLDTEXTSTYLE0
 70
     0
 40
0.0
 41
0.75
 50
0.0
 71
     0
 42
0.2
  3
TXT
  4

  0
STYLE
  5
56
330
3
100
AcDbSymbolTableRecord
100
AcDbTextStyleTableRecord
  2
SLDTEXTSTYLE1
 70
     0
 40
0.0
 41
0.6428571429
 50
0.0
 71
     0
 42
0.2
  3
TXT
  4

  0
STYLE
  5
58
330
3
100
AcDbSymbolTableRecord
100
AcDbTextStyleTableRecord
  2
SLDTEXTSTYLE2
 70
     0
 40
0.0
 41
0.7211538462
 50
0.0
 71
     0
 42
0.2
  3
TXT
  4

  0
STYLE
  5
63
330
3
100
AcDbSymbolTableRecord
100
AcDbTextStyleTableRecord
  2
SLDTEXTSTYLE3
 70
     0
 40
0.0
 41
0.6375
 50
0.0
 71
     0
 42
0.2
  3
TXT
  4

  0
STYLE
  5
69
330
3
100
AcDbSymbolTableRecord
100
AcDbTextStyleTableRecord
  2
SLDTEXTSTYLE4
 70
     0
 40
0.0
 41
0.7016129032
 50
0.0
 71
     0
 42
0.2
  3
TXT
  4

  0
STYLE
  5
6B
330
3
100
AcDbSymbolTableRecord
100
AcDbTextStyleTableRecord
  2
SLDTEXTSTYLE5
 70
     0
 40
0.0
 41
0.6853448276
 50
0.0
 71
     0
 42
0.2
  3
TXT
  4

  0
STYLE
  5
6D
330
3
100
AcDbSymbolTableRecord
100
AcDbTextStyleTableRecord
  2
SLDTEXTSTYLE6
 70
     0
 40
0.0
 41
0.689516129
 50
0.0
 71
     0
 42
0.2
  3
TXT
  4

  0
STYLE
  5
6F
330
3
100
AcDbSymbolTableRecord
100
AcDbTextStyleTableRecord
  2
SLDTEXTSTYLE7
 70
     0
 40
0.0
 41
0.6666666667
 50
0.0
 71
     0
 42
0.2
  3
TXT
  4

  0
STYLE
  5
71
330
3
100
AcDbSymbolTableRecord
100
AcDbTextStyleTableRecord
  2
SLDTEXTSTYLE8
 70
     0
 40
0.0
 41
0.7010869565
 50
0.0
 71
     0
 42
0.2
  3
TXT
  4

  0
STYLE
  5
73
330
3
100
AcDbSymbolTableRecord
100
AcDbTextStyleTableRecord
  2
SLDTEXTSTYLE9
 70
     0
 40
0.0
 41
0.7083333333
 50
0.0
 71
     0
 42
0.2
  3
TXT
  4

  0
STYLE
  5
82
330
3
100
AcDbSymbolTableRecord
100
AcDbTextStyleTableRecord
  2
SLDTEXTSTYLE10
 70
     0
 40
0.0
 41
0.65625
 50
0.0
 71
     0
 42
0.2
  3
TXT
  4

  0
STYLE
  5
8B
330
3
100
AcDbSymbolTableRecord
100
AcDbTextStyleTableRecord
  2
SLDTEXTSTYLE11
 70
     0
 40
0.0
 41
0.69375
 50
0.0
 71
     0
 42
0.2
  3
TXT
  4

  0
STYLE
  5
8D
330
3
100
AcDbSymbolTableRecord
100
AcDbTextStyleTableRecord
  2
SLDTEXTSTYLE12
 70
     0
 40
0.0
 41
0.6988636364
 50
0.0
 71
     0
 42
0.2
  3
TXT
  4

  0
STYLE
  5
8F
330
3
100
AcDbSymbolTableRecord
100
AcDbTextStyleTableRecord
  2
SLDTEXTSTYLE13
 70
     0
 40
0.0
 41
0.7115384615
 50
0.0
 71
     0
 42
0.2
  3
TXT
  4

  0
STYLE
  5
92
330
3
100
AcDbSymbolTableRecord
100
AcDbTextStyleTableRecord
  2
SLDTEXTSTYLE14
 70
     0
 40
0.0
 41
0.6796875
 50
0.0
 71
     0
 42
0.2
  3
TXT
  4

  0
STYLE
  5
A2
330
3
100
AcDbSymbolTableRecord
100
AcDbTextStyleTableRecord
  2
SLDTEXTSTYLE15
 70
     0
 40
0.0
 41
0.6995192308
 50
0.0
 71
     0
 42
0.2
  3
TXT
  4

  0
STYLE
  5
431
330
3
100
AcDbSymbolTableRecord
100
AcDbTextStyleTableRecord
  2
SLDTEXTSTYLE16
 70
     0
 40
0.0
 41
0.6875
 50
0.0
 71
     0
 42
0.2
  3
TXT
  4

  0
ENDTAB
  0
TABLE
  2
VIEW
  5
6
330
0
100
AcDbSymbolTable
 70
     0
  0
ENDTAB
  0
TABLE
  2
UCS
  5
7
330
0
100
AcDbSymbolTable
 70
     0
  0
ENDTAB
  0
TABLE
  2
APPID
  5
9
330
0
100
AcDbSymbolTable
 70
     1
  0
APPID
  5
12
330
9
100
AcDbSymbolTableRecord
100
AcDbRegAppTableRecord
  2
ACAD
 70
     0
  0
ENDTAB
  0
TABLE
  2
DIMSTYLE
  5
A
330
0
100
AcDbSymbolTable
 70
     5
100
AcDbDimStyleTable
  0
DIMSTYLE
105
27
330
A
100
AcDbSymbolTableRecord
100
AcDbDimStyleTableRecord
  2
Standard
 70
     0
340
11
  0
DIMSTYLE
105
D5
102
{ACAD_REACTORS
330
D4
102
}
330
A
100
AcDbSymbolTableRecord
100
AcDbDimStyleTableRecord
  2
SLDDIMSTYLE0
 70
     0
 41
0.16
 44
0.0
 78
     4
140
0.09
147
0.0225
170
     1
171
     1
172
     1
173
     1
271
     3
272
     3
274
     1
284
    12
340
4D
  0
DIMSTYLE
105
3AE
102
{ACAD_REACTORS
330
3AD
330
3C0
330
3D2
330
3E4
330
3F6
102
}
330
A
100
AcDbSymbolTableRecord
100
AcDbDimStyleTableRecord
  2
SLDDIMSTYLE1
 70
     0
 41
0.16
 44
0.0
 78
    12
140
0.09
147
0.0225
170
     1
171
     1
173
     1
271
     3
272
     3
274
     1
284
    12
340
4D
  0
DIMSTYLE
105
409
102
{ACAD_REACTORS
330
408
330
41B
102
}
330
A
100
AcDbSymbolTableRecord
100
AcDbDimStyleTableRecord
  2
SLDDIMSTYLE2
 70
     0
 41
0.16
 44
0.0
 78
     8
140
0.09
147
0.0225
170
     1
171
     1
173
     1
271
     3
272
     3
274
     1
284
    12
340
4D
  0
DIMSTYLE
105
435
330
A
100
AcDbSymbolTableRecord
100
AcDbDimStyleTableRecord
  2
SLDDIMSTYLE3
 70
     0
 41
0.16
 44
0.0
140
0.16
147
0.04
173
     1
271
     0
272
     0
340
11
  0
ENDTAB
  0
TABLE
  2
BLOCK_RECORD
  5
1
330
0
100
AcDbSymbolTable
 70
    21
  0
BLOCK_RECORD
  5
1F
330
1
100
AcDbSymbolTableRecord
100
AcDbBlockTableRecord
  2
*Model_Space
340
22
  0
BLOCK_RECORD
  5
1B
330
1
100
AcDbSymbolTableRecord
100
AcDbBlockTableRecord
  2
*Paper_Space
340
1E
  0
BLOCK_RECORD
  5
23
330
1
100
AcDbSymbolTableRecord
100
AcDbBlockTableRecord
  2
*Paper_Space0
340
26
  0
BLOCK_RECORD
  5
66
330
1
100
AcDbSymbolTableRecord
100
AcDbBlockTableRecord
  2
SW_NOTE_0
340
0
102
{BLKREFS
331
75
102
}
1001
ACAD
1000
DesignCenter Data
1002
{
1070
     1
1070
     0
1002
}
  0
BLOCK_RECORD
  5
7F
330
1
100
AcDbSymbolTableRecord
100
AcDbBlockTableRecord
  2
SW_NOTE_1
340
0
102
{BLKREFS
331
85
102
}
1001
ACAD
1000
DesignCenter Data
1002
{
1070
     1
1070
     0
1002
}
  0
BLOCK_RECORD
  5
87
330
1
100
AcDbSymbolTableRecord
100
AcDbBlockTableRecord
  2
SW_NOTE_2
340
0
102
{BLKREFS
331
96
102
}
1001
ACAD
1000
DesignCenter Data
1002
{
1070
     1
1070
     0
1002
}
  0
BLOCK_RECORD
  5
97
330
1
100
AcDbSymbolTableRecord
100
AcDbBlockTableRecord
  2
SW_NOTE_3
340
0
102
{BLKREFS
331
9C
102
}
1001
ACAD
1000
DesignCenter Data
1002
{
1070
     1
1070
     0
1002
}
  0
BLOCK_RECORD
  5
9E
330
1
100
AcDbSymbolTableRecord
100
AcDbBlockTableRecord
  2
SW_NOTE_4
340
0
102
{BLKREFS
331
A4
102
}
1001
ACAD
1000
DesignCenter Data
1002
{
1070
     1
1070
     0
1002
}
  0
BLOCK_RECORD
  5
A5
330
1
100
AcDbSymbolTableRecord
100
AcDbBlockTableRecord
  2
SW_TABLEANNOTATION_0
340
0
102
{BLKREFS
331
C1
102
}
1001
ACAD
1000
DesignCenter Data
1002
{
1070
     1
1070
     0
1002
}
  0
BLOCK_RECORD
  5
D6
330
1
100
AcDbSymbolTableRecord
100
AcDbBlockTableRecord
  2
*D7
340
0
  0
BLOCK_RECORD
  5
3AF
330
1
100
AcDbSymbolTableRecord
100
AcDbBlockTableRecord
  2
*D8
340
0
  0
BLOCK_RECORD
  5
3C1
330
1
100
AcDbSymbolTableRecord
100
AcDbBlockTableRecord
  2
*D9
340
0
  0
BLOCK_RECORD
  5
3D3
330
1
100
AcDbSymbolTableRecord
100
AcDbBlockTableRecord
  2
*D10
340
0
  0
BLOCK_RECORD
  5
3E5
330
1
100
AcDbSymbolTableRecord
100
AcDbBlockTableRecord
  2
*D11
340
0
  0
BLOCK_RECORD
  5
3F7
330
1
100
AcDbSymbolTableRecord
100
AcDbBlockTableRecord
  2
*D12
340
0
  0
BLOCK_RECORD
  5
40A
330
1
100
AcDbSymbolTableRecord
100
AcDbBlockTableRecord
  2
*D13
340
0
  0
BLOCK_RECORD
  5
41C
330
1
100
AcDbSymbolTableRecord
100
AcDbBlockTableRecord
  2
*D14
340
0
  0
BLOCK_RECORD
  5
42E
330
1
100
AcDbSymbolTableRecord
100
AcDbBlockTableRecord
  2
SW_NOTE_5
340
0
102
{BLKREFS
331
434
102
}
1001
ACAD
1000
DesignCenter Data
1002
{
1070
     1
1070
     0
1002
}
  0
BLOCK_RECORD
  5
438
330
1
100
AcDbSymbolTableRecord
100
AcDbBlockTableRecord
  2
SW_NOTE_6
340
0
102
{BLKREFS
331
43D
102
}
1001
ACAD
1000
DesignCenter Data
1002
{
1070
     1
1070
     0
1002
}
  0
BLOCK_RECORD
  5
43F
330
1
100
AcDbSymbolTableRecord
100
AcDbBlockTableRecord
  2
SW_NOTE_7
340
0
102
{BLKREFS
331
444
102
}
1001
ACAD
1000
DesignCenter Data
1002
{
1070
     1
1070
     0
1002
}
  0
BLOCK_RECORD
  5
446
330
1
100
AcDbSymbolTableRecord
100
AcDbBlockTableRecord
  2
SW_NOTE_8
340
0
102
{BLKREFS
331
44B
102
}
1001
ACAD
1000
DesignCenter Data
1002
{
1070
     1
1070
     0
1002
}
  0
BLOCK_RECORD
  5
44D
330
1
100
AcDbSymbolTableRecord
100
AcDbBlockTableRecord
  2
SW_NOTE_9
340
0
102
{BLKREFS
331
452
102
}
1001
ACAD
1000
DesignCenter Data
1002
{
1070
     1
1070
     0
1002
}
  0
BLOCK_RECORD
  5
454
330
1
100
AcDbSymbolTableRecord
100
AcDbBlockTableRecord
  2
SW_NOTE_10
340
0
102
{BLKREFS
331
459
102
}
1001
ACAD
1000
DesignCenter Data
1002
{
1070
     1
1070
     0
1002
}
  0
ENDTAB
  0
ENDSEC
  0
SECTION
  2
BLOCKS
  0
BLOCK
  5
20
330
1F
100
AcDbEntity
  8
0
100
AcDbBlockBegin
  2
*Model_Space
 70
     0
 71
     0
 10
0.0
 20
0.0
 30
0.0
  3
*Model_Space
  1

  0
ENDBLK
  5
21
330
1F
100
AcDbEntity
  8
0
100
AcDbBlockEnd
  0
BLOCK
  5
1C
330
1B
100
AcDbEntity
 67
     1
  8
0
100
AcDbBlockBegin
  2
*Paper_Space
 70
     0
 71
     0
 10
0.0
 20
0.0
 30
0.0
  3
*Paper_Space
  1

  0
ENDBLK
  5
1D
330
1B
100
AcDbEntity
 67
     1
  8
0
100
AcDbBlockEnd
  0
BLOCK
  5
24
330
23
100
AcDbEntity
  8
0
100
AcDbBlockBegin
  2
*Paper_Space0
 70
     0
 71
     0
 10
0.0
 20
0.0
 30
0.0
  3
*Paper_Space0
  1

  0
ENDBLK
  5
25
330
23
100
AcDbEntity
  8
0
100
AcDbBlockEnd
  0
BLOCK
  5
67
330
66
100
AcDbEntity
  8
0
100
AcDbBlockBegin
  2
SW_NOTE_0
 70
     0
 71
     0
 10
0.0
 20
0.0
 30
0.0
  3
SW_NOTE_0
  1

  0
MTEXT
  5
6A
330
66
100
AcDbEntity
  8
0
  6
Continuous
 62
     0
370
     0
100
AcDbMText
 10
0.0
 20
0.076640625
 30
0.0
 40
0.06
 41
0.0
 71
     1
 72
     1
  1
THE INFORMATION CONTAINED IN THIS
  7
SLDTEXTSTYLE4
 73
     1
 44
1.0
  0
MTEXT
  5
6C
330
66
100
AcDbEntity
  8
0
  6
Continuous
 62
     0
370
     0
100
AcDbMText
 10
0.0
 20
-0.0227294496
 30
0.0
 40
0.06
 41
0.0
 71
     1
 72
     1
  1
DRAWING IS THE SOLE PROPERTY OF
  7
SLDTEXTSTYLE5
 73
     1
 44
1.0
  0
MTEXT
  5
6E
330
66
100
AcDbEntity
  8
0
  6
Continuous
 62
     0
370
     0
100
AcDbMText
 10
0.0
 20
-0.1220995241
 30
0.0
 40
0.06
 41
0.0
 71
     1
 72
     1
  1
THORLABS, INC.  ANY REPRODUCTION 
  7
SLDTEXTSTYLE6
 73
     1
 44
1.0
  0
MTEXT
  5
70
330
66
100
AcDbEntity
  8
0
  6
Continuous
 62
     0
370
     0
100
AcDbMText
 10
0.0
 20
-0.2214695987
 30
0.0
 40
0.06
 41
0.0
 71
     1
 72
     1
  1
IN PART OR AS A WHOLE WITHOUT
  7
SLDTEXTSTYLE7
 73
     1
 44
1.0
  0
MTEXT
  5
72
330
66
100
AcDbEntity
  8
0
  6
Continuous
 62
     0
370
     0
100
AcDbMText
 10
0.0
 20
-0.3208396733
 30
0.0
 40
0.06
 41
0.0
 71
     1
 72
     1
  1
THE WRITTEN PERMISSION OF
  7
SLDTEXTSTYLE8
 73
     1
 44
1.0
  0
MTEXT
  5
74
330
66
100
AcDbEntity
  8
0
  6
Continuous
 62
     0
370
     0
100
AcDbMText
 10
0.0
 20
-0.4202097478
 30
0.0
 40
0.06
 41
0.0
 71
     1
 72
     1
  1
THORLABS, INC. IS PROHIBITED.
  7
SLDTEXTSTYLE9
 73
     1
 44
1.0
  0
ENDBLK
  5
68
330
66
100
AcDbEntity
  8
0
100
AcDbBlockEnd
  0
BLOCK
  5
80
330
7F
100
AcDbEntity
  8
0
100
AcDbBlockBegin
  2
SW_NOTE_1
 70
     0
 71
     0
 10
0.0
 20
0.0
 30
0.0
  3
SW_NOTE_1
  1

  0
MTEXT
  5
83
330
7F
100
AcDbEntity
  8
0
  6
Continuous
 62
     0
370
     0
100
AcDbMText
 10
0.0
 20
0.1149609375
 30
0.0
 40
0.09
 41
0.0
 71
     1
 72
     1
  1
PO BOX 366
  7
SLDTEXTSTYLE10
 73
     1
 44
1.0
  0
MTEXT
  5
84
330
7F
100
AcDbEntity
  8
0
  6
Continuous
 62
     0
370
     0
100
AcDbMText
 10
0.0
 20
-0.0144091455
 30
0.0
 40
0.09
 41
0.0
 71
     1
 72
     1
  1
NEWTON NJ
  7
SLDTEXTSTYLE0
 73
     1
 44
1.0
  0
ENDBLK
  5
81
330
7F
100
AcDbEntity
  8
0
100
AcDbBlockEnd
  0
BLOCK
  5
88
330
87
100
AcDbEntity
  8
0
100
AcDbBlockBegin
  2
SW_NOTE_2
 70
     0
 71
     0
 10
0.0
 20
0.0
 30
0.0
  3
SW_NOTE_2
  1

  0
LINE
  5
8A
330
87
100
AcDbEntity
  8
0
  6
Continuous
 62
     0
370
     0
100
AcDbLine
 10
1.0817708433
 20
-0.6526041506
 30
0.0
 11
1.4039930543
 21
-0.6526041506
 31
0.0
  0
MTEXT
  5
8C
330
87
100
AcDbEntity
  8
0
  6
Continuous
 62
     0
370
     0
100
AcDbMText
 10
0.0
 20
0.1197509766
 30
0.0
 40
0.09375
 41
0.0
 71
     1
 72
     1
  1
DESIGN WAVELENGTH:  486.1, 587.6 & 656.3nm
  7
SLDTEXTSTYLE11
 73
     1
 44
1.0
  0
MTEXT
  5
8E
330
87
100
AcDbEntity
  8
0
  6
Continuous
 62
     0
370
     0
100
AcDbMText
 10
0.0
 20
-0.0052490219
 30
0.0
 40
0.09375
 41
0.0
 71
     1
 72
     1
  1
COATING:  BBAR 400-700nm
  7
SLDTEXTSTYLE12
 73
     1
 44
1.0
  0
MTEXT
  5
90
330
87
100
AcDbEntity
  8
0
  6
Continuous
 62
     0
370
     0
100
AcDbMText
 10
0.0
 20
-0.1302490204
 30
0.0
 40
0.09375
 41
0.0
 71
     1
 72
     1
  1
COATING RANGE: R(AVG)<0.5% FROM 400-700nm
  7
SLDTEXTSTYLE13
 73
     1
 44
1.0
  0
MTEXT
  5
91
330
87
100
AcDbEntity
  8
0
  6
Continuous
 62
     0
370
     0
100
AcDbMText
 10
0.0
 20
-0.2552490189
 30
0.0
 40
0.09375
 41
0.0
 71
     1
 72
     1
  1
MAGNIFICATION: 1:2
  7
SLDTEXTSTYLE0
 73
     1
 44
1.0
  0
MTEXT
  5
93
330
87
100
AcDbEntity
  8
0
  6
Continuous
 62
     0
370
     0
100
AcDbMText
 10
0.0
 20
-0.6091552547
 30
0.0
 40
0.09375
 41
0.0
 71
     1
 72
     1
  1
Dimensions are in 
  7
SLDTEXTSTYLE14
 73
     1
 44
1.0
  0
MTEXT
  5
94
330
87
100
AcDbEntity
  8
0
  6
Continuous
 62
     0
370
     0
100
AcDbMText
 10
1.0817708433
 20
-0.5052490159
 30
0.0
 40
0.09375
 41
0.0
 71
     1
 72
     1
  1
[mm]
  7
SLDTEXTSTYLE0
 73
     1
 44
1.0
  0
MTEXT
  5
95
330
87
100
AcDbEntity
  8
0
  6
Continuous
 62
     0
370
     0
100
AcDbMText
 10
1.1922743109
 20
-0.6854573399
 30
0.0
 40
0.09375
 41
0.0
 71
     1
 72
     1
  1
in
  7
SLDTEXTSTYLE0
 73
     1
 44
1.0
  0
ENDBLK
  5
89
330
87
100
AcDbEntity
  8
0
100
AcDbBlockEnd
  0
BLOCK
  5
98
330
97
100
AcDbEntity
  8
0
100
AcDbBlockBegin
  2
SW_NOTE_3
 70
     0
 71
     0
 10
0.0
 20
0.0
 30
0.0
  3
SW_NOTE_3
  1

  0
MTEXT
  5
9A
330
97
100
AcDbEntity
  8
0
  6
Continuous
 62
     0
370
     0
100
AcDbMText
 10
0.0
 20
0.1463623047
 30
0.0
 40
0.1145833333
 41
0.0
 71
     1
 72
     1
  1
Matched Achromatic Pair 
  7
SLDTEXTSTYLE12
 73
     1
 44
1.0
  0
MTEXT
  5
9B
330
97
100
AcDbEntity
  8
0
  6
Continuous
 62
     0
370
     0
100
AcDbMText
 10
0.0
 20
-0.0064154712
 30
0.0
 40
0.1145833333
 41
0.0
 71
     1
 72
     1
  1
F1=50mm, F2=100mm
  7
SLDTEXTSTYLE0
 73
     1
 44
1.0
  0
ENDBLK
  5
99
330
97
100
AcDbEntity
  8
0
100
AcDbBlockEnd
  0
BLOCK
  5
9F
330
9E
100
AcDbEntity
  8
0
100
AcDbBlockBegin
  2
SW_NOTE_4
 70
     0
 71
     0
 10
0.0
 20
0.0
 30
0.0
  3
SW_NOTE_4
  1

  0
MTEXT
  5
A1
330
9E
100
AcDbEntity
  8
0
  6
Continuous
 62
     0
370
     0
100
AcDbMText
 10
0.0
 20
0.1149609375
 30
0.0
 40
0.09
 41
0.0
 71
     1
 72
     1
  1
NOTE:
  7
SLDTEXTSTYLE0
 73
     1
 44
1.0
  0
MTEXT
  5
A3
330
9E
100
AcDbEntity
  8
0
  6
Continuous
 62
     0
370
     0
100
AcDbMText
 10
0.0
 20
-0.0144091455
 30
0.0
 40
0.09
 41
0.0
 71
     1
 72
     1
  1
FOR INFORMATION ONLY.  NOT INTENDED FOR MANUFACTURING.
  7
SLDTEXTSTYLE15
 73
     1
 44
1.0
  0
ENDBLK
  5
A0
330
9E
100
AcDbEntity
  8
0
100
AcDbBlockEnd
  0
BLOCK
  5
A6
330
A5
100
AcDbEntity
  8
0
100
AcDbBlockBegin
  2
SW_TABLEANNOTATION_0
 70
     0
 71
     0
 10
0.0
 20
0.0
 30
0.0
  3
SW_TABLEANNOTATION_0
  1

  0
LINE
  5
A8
330
A5
100
AcDbEntity
  8
0
  6
Continuous
 62
     0
370
     0
100
AcDbLine
 10
0.0
 20
0.0
 30
0.0
 11
0.0
 21
-0.7787253843
 31
0.0
  0
LINE
  5
A9
330
A5
100
AcDbEntity
  8
0
  6
Continuous
 62
     0
370
     0
100
AcDbLine
 10
0.0
 20
-0.7787253843
 30
0.0
 11
3.4645866928
 21
-0.7787253843
 31
0.0
  0
LINE
  5
AA
330
A5
100
AcDbEntity
  8
0
  6
Continuous
 62
     0
370
     0
100
AcDbLine
 10
3.4645866928
 20
-0.7787253843
 30
0.0
 11
3.4645866928
 21
0.0
 31
0.0
  0
LINE
  5
AB
330
A5
100
AcDbEntity
  8
0
  6
Continuous
 62
     0
370
     0
100
AcDbLine
 10
3.4645866928
 20
0.0
 30
0.0
 11
0.0
 21
0.0
 31
0.0
  0
LINE
  5
AC
330
A5
100
AcDbEntity
  8
0
  6
Continuous
 62
     0
370
     0
100
AcDbLine
 10
1.1548622309
 20
0.0
 30
0.0
 11
1.1548622309
 21
-0.7787253843
 31
0.0
  0
LINE
  5
AD
330
A5
100
AcDbEntity
  8
0
  6
Continuous
 62
     0
370
     0
100
AcDbLine
 10
2.3097244619
 20
0.0
 30
0.0
 11
2.3097244619
 21
-0.7787253843
 31
0.0
  0
LINE
  5
AE
330
A5
100
AcDbEntity
  8
0
  6
Continuous
 62
     0
370
     0
100
AcDbLine
 10
0.0
 20
-0.1557450769
 30
0.0
 11
3.4645866928
 21
-0.1557450769
 31
0.0
  0
LINE
  5
AF
330
A5
100
AcDbEntity
  8
0
  6
Continuous
 62
     0
370
     0
100
AcDbLine
 10
0.0
 20
-0.3114901537
 30
0.0
 11
3.4645866928
 21
-0.3114901537
 31
0.0
  0
LINE
  5
B0
330
A5
100
AcDbEntity
  8
0
  6
Continuous
 62
     0
370
     0
100
AcDbLine
 10
0.0
 20
-0.4672352306
 30
0.0
 11
3.4645866928
 21
-0.4672352306
 31
0.0
  0
LINE
  5
B1
330
A5
100
AcDbEntity
  8
0
  6
Continuous
 62
     0
370
     0
100
AcDbLine
 10
0.0
 20
-0.6229803075
 30
0.0
 11
3.4645866928
 21
-0.6229803075
 31
0.0
  0
MTEXT
  5
B2
330
A5
100
AcDbEntity
  8
0
  6
Continuous
 62
     0
370
     0
100
AcDbMText
 10
0.4355561111
 20
-0.0320134969
 30
0.0
 40
0.09
 41
0.0
 71
     1
 72
     1
  1
PART
  7
SLDTEXTSTYLE0
 73
     1
 44
1.0
  0
MTEXT
  5
B3
330
A5
100
AcDbEntity
  8
0
  6
Continuous
 62
     0
370
     0
100
AcDbMText
 10
1.4606683143
 20
-0.0320134969
 30
0.0
 40
0.09
 41
0.0
 71
     1
 72
     1
  1
PART NO.
  7
SLDTEXTSTYLE0
 73
     1
 44
1.0
  0
MTEXT
  5
B4
330
A5
100
AcDbEntity
  8
0
  6
Continuous
 62
     0
370
     0
100
AcDbMText
 10
2.6078430823
 20
-0.0320134969
 30
0.0
 40
0.09
 41
0.0
 71
     1
 72
     1
  1
MATERIAL
  7
SLDTEXTSTYLE0
 73
     1
 44
1.0
  0
MTEXT
  5
B5
330
A5
100
AcDbEntity
  8
0
  6
Continuous
 62
     0
370
     0
100
AcDbMText
 10
0.5330561156
 20
-0.1877585737
 30
0.0
 40
0.09
 41
0.0
 71
     1
 72
     1
  1
A
  7
SLDTEXTSTYLE0
 73
     1
 44
1.0
  0
MTEXT
  5
B6
330
A5
100
AcDbEntity
  8
0
  6
Continuous
 62
     0
370
     0
100
AcDbMText
 10
1.3221683642
 20
-0.1877585737
 30
0.0
 40
0.09
 41
0.0
 71
     1
 72
     1
  1
AC254-050-A1
  7
SLDTEXTSTYLE0
 73
     1
 44
1.0
  0
MTEXT
  5
B7
330
A5
100
AcDbEntity
  8
0
  6
Continuous
 62
     0
370
     0
100
AcDbMText
 10
2.5674055878
 20
-0.1877585737
 30
0.0
 40
0.09
 41
0.0
 71
     1
 72
     1
  1
BAF10-SF10
  7
SLDTEXTSTYLE0
 73
     1
 44
1.0
  0
MTEXT
  5
B8
330
A5
100
AcDbEntity
  8
0
  6
Continuous
 62
     0
370
     0
100
AcDbMText
 10
0.5429936162
 20
-0.3435036506
 30
0.0
 40
0.09
 41
0.0
 71
     1
 72
     1
  1
B
  7
SLDTEXTSTYLE0
 73
     1
 44
1.0
  0
MTEXT
  5
B9
330
A5
100
AcDbEntity
  8
0
  6
Continuous
 62
     0
370
     0
100
AcDbMText
 10
1.3221683642
 20
-0.3435036506
 30
0.0
 40
0.09
 41
0.0
 71
     1
 72
     1
  1
AC254-100-A1
  7
SLDTEXTSTYLE0
 73
     1
 44
1.0
  0
MTEXT
  5
BA
330
A5
100
AcDbEntity
  8
0
  6
Continuous
 62
     0
370
     0
100
AcDbMText
 10
2.6719055723
 20
-0.3435036506
 30
0.0
 40
0.09
 41
0.0
 71
     1
 72
     1
  1
BK7-SF5
  7
SLDTEXTSTYLE0
 73
     1
 44
1.0
  0
MTEXT
  5
BB
330
A5
100
AcDbEntity
  8
0
  6
Continuous
 62
     0
370
     0
100
AcDbMText
 10
0.5286811132
 20
-0.4992487275
 30
0.0
 40
0.09
 41
0.0
 71
     1
 72
     1
  1
C
  7
SLDTEXTSTYLE0
 73
     1
 44
1.0
  0
MTEXT
  5
BC
330
A5
100
AcDbEntity
  8
0
  6
Continuous
 62
     0
370
     0
100
AcDbMText
 10
1.3650433389
 20
-0.4992487275
 30
0.0
 40
0.09
 41
0.0
 71
     1
 72
     1
  1
LENS MOUNT
  7
SLDTEXTSTYLE0
 73
     1
 44
1.0
  0
MTEXT
  5
BD
330
A5
100
AcDbEntity
  8
0
  6
Continuous
 62
     0
370
     0
100
AcDbMText
 10
2.3399055926
 20
-0.4992487275
 30
0.0
 40
0.09
 41
0.0
 71
     1
 72
     1
  1
6061-T6 ALUMINUM
  7
SLDTEXTSTYLE0
 73
     1
 44
1.0
  0
MTEXT
  5
BE
330
A5
100
AcDbEntity
  8
0
  6
Continuous
 62
     0
370
     0
100
AcDbMText
 10
0.532806116
 20
-0.6549938043
 30
0.0
 40
0.09
 41
0.0
 71
     1
 72
     1
  1
D
  7
SLDTEXTSTYLE0
 73
     1
 44
1.0
  0
MTEXT
  5
BF
330
A5
100
AcDbEntity
  8
0
  6
Continuous
 62
     0
370
     0
100
AcDbMText
 10
1.541168336
 20
-0.6549938043
 30
0.0
 40
0.09
 41
0.0
 71
     1
 72
     1
  1
SM1RR
  7
SLDTEXTSTYLE0
 73
     1
 44
1.0
  0
MTEXT
  5
C0
330
A5
100
AcDbEntity
  8
0
  6
Continuous
 62
     0
370
     0
100
AcDbMText
 10
2.3399055926
 20
-0.6549938043
 30
0.0
 40
0.09
 41
0.0
 71
     1
 72
     1
  1
6061-T6 ALUMINUM
  7
SLDTEXTSTYLE0
 73
     1
 44
1.0
  0
ENDBLK
  5
A7
330
A5
100
AcDbEntity
  8
0
100
AcDbBlockEnd
  0
BLOCK
  5
D7
330
D6
100
AcDbEntity
  8
0
100
AcDbBlockBegin
  2
*D7
 70
     1
 71
     0
 10
0.0
 20
0.0
 30
0.0
  3
*D7
  1

  0
SOLID
  5
D9
330
D6
100
AcDbEntity
  8
0
  6
Continuous
 62
     7
370
     0
100
AcDbTrace
 10
1.5271771839
 20
4.8047710535
 30
0.0
 11
1.4321327074
 21
4.9360819345
 31
0.0
 12
1.3954449925
 22
4.899230726
 32
0.0
 13
1.3954449925
 23
4.899230726
 33
0.0
  0
LINE
  5
DA
330
D6
100
AcDbEntity
  8
0
  6
Continuous
 62
     7
370
     0
100
AcDbLine
 10
0.5369822009
 20
5.2537975565
 30
0.0
 11
0.5369822009
 21
5.1324512919
 31
0.0
  0
LINE
  5
DB
330
D6
100
AcDbEntity
  8
0
  6
Continuous
 62
     7
370
     0
100
AcDbLine
 10
0.5369822009
 20
5.1324512919
 30
0.0
 11
0.555245625
 21
5.1324512919
 31
0.0
  0
LINE
  5
DC
330
D6
100
AcDbEntity
  8
0
  6
Continuous
 62
     7
370
     0
100
AcDbLine
 10
0.5369822009
 20
5.2537975565
 30
0.0
 11
0.555245625
 21
5.2537975565
 31
0.0
  0
LINE
  5
DD
330
D6
100
AcDbEntity
  8
0
  6
Continuous
 62
     7
370
     0
100
AcDbLine
 10
0.842730839
 20
5.2537975565
 30
0.0
 11
0.842730839
 21
5.1324512919
 31
0.0
  0
LINE
  5
DE
330
D6
100
AcDbEntity
  8
0
  6
Continuous
 62
     7
370
     0
100
AcDbLine
 10
0.842730839
 20
5.1324512919
 30
0.0
 11
0.8244674149
 21
5.1324512919
 31
0.0
  0
LINE
  5
DF
330
D6
100
AcDbEntity
  8
0
  6
Continuous
 62
     7
370
     0
100
AcDbLine
 10
0.842730839
 20
5.2537975565
 30
0.0
 11
0.8244674149
 21
5.2537975565
 31
0.0
  0
LINE
  5
E0
330
D6
100
AcDbEntity
  8
0
  6
Continuous
 62
     7
370
     0
100
AcDbLine
 10
1.5271771839
 20
4.8047710535
 30
0.0
 11
1.2087914226
 21
5.1217442685
 31
0.0
  0
LINE
  5
E1
330
D6
100
AcDbEntity
  8
0
  6
Continuous
 62
     7
370
     0
100
AcDbLine
 10
1.2087914226
 20
5.1217442685
 30
0.0
 11
0.9587914226
 21
5.1217442685
 31
0.0
  0
MTEXT
  5
E2
330
D6
100
AcDbEntity
  8
0
  6
Continuous
 62
     7
370
     0
100
AcDbMText
 10
0.4760143798
 20
5.0939448947
 30
0.0
 40
0.09
 41
0.0
 71
     1
 72
     1
  1
%%c
  7
SLDTEXTSTYLE0
 73
     1
 44
1.0
  0
MTEXT
  5
E3
330
D6
100
AcDbEntity
  8
0
  6
Continuous
 62
     7
370
     0
100
AcDbMText
 10
0.60449866
 20
5.0939449016
 30
0.0
 40
0.09
 41
0.0
 71
     1
 72
     1
  1
1.200
  7
SLDTEXTSTYLE0
 73
     1
 44
1.0
  0
MTEXT
  5
E4
330
D6
100
AcDbEntity
  8
0
  6
Continuous
 62
     7
370
     0
100
AcDbMText
 10
0.5735090491
 20
5.2367052129
 30
0.0
 40
0.09
 41
0.0
 71
     1
 72
     1
  1
30.5
  7
SLDTEXTSTYLE0
 73
     1
 44
1.0
  0
ENDBLK
  5
D8
330
D6
100
AcDbEntity
  8
0
100
AcDbBlockEnd
  0
BLOCK
  5
3B0
330
3AF
100
AcDbEntity
  8
0
100
AcDbBlockBegin
  2
*D8
 70
     1
 71
     0
 10
0.0
 20
0.0
 30
0.0
  3
*D8
  1

  0
SOLID
  5
3B2
330
3AF
100
AcDbEntity
  8
0
  6
Continuous
 62
     7
370
     0
100
AcDbTrace
 10
9.5431927202
 20
3.2978236544
 30
0.0
 11
9.3831927202
 21
3.3238236544
 31
0.0
 12
9.3831927202
 22
3.2718236544
 32
0.0
 13
9.3831927202
 23
3.2718236544
 33
0.0
  0
SOLID
  5
3B3
330
3AF
100
AcDbEntity
  8
0
  6
Continuous
 62
     7
370
     0
100
AcDbTrace
 10
8.0583895706
 20
3.2978236544
 30
0.0
 11
8.2183895706
 21
3.2718236544
 31
0.0
 12
8.2183895706
 22
3.3238236544
 32
0.0
 13
8.2183895706
 23
3.3238236544
 33
0.0
  0
LINE
  5
3B4
330
3AF
100
AcDbEntity
  8
0
  6
Continuous
 62
     7
370
     0
100
AcDbLine
 10
8.7716569838
 20
3.4298769424
 30
0.0
 11
8.7716569838
 21
3.3085306778
 31
0.0
  0
LINE
  5
3B5
330
3AF
100
AcDbEntity
  8
0
  6
Continuous
 62
     7
370
     0
100
AcDbLine
 10
8.7716569838
 20
3.3085306778
 30
0.0
 11
8.7899204079
 21
3.3085306778
 31
0.0
  0
LINE
  5
3B6
330
3AF
100
AcDbEntity
  8
0
  6
Continuous
 62
     7
370
     0
100
AcDbLine
 10
8.7716569838
 20
3.4298769424
 30
0.0
 11
8.7899204079
 21
3.4298769424
 31
0.0
  0
LINE
  5
3B7
330
3AF
100
AcDbEntity
  8
0
  6
Continuous
 62
     7
370
     0
100
AcDbLine
 10
9.0774056219
 20
3.4298769424
 30
0.0
 11
9.0774056219
 21
3.3085306778
 31
0.0
  0
LINE
  5
3B8
330
3AF
100
AcDbEntity
  8
0
  6
Continuous
 62
     7
370
     0
100
AcDbLine
 10
9.0774056219
 20
3.3085306778
 30
0.0
 11
9.0591421978
 21
3.3085306778
 31
0.0
  0
LINE
  5
3B9
330
3AF
100
AcDbEntity
  8
0
  6
Continuous
 62
     7
370
     0
100
AcDbLine
 10
9.0774056219
 20
3.4298769424
 30
0.0
 11
9.0591421978
 21
3.4298769424
 31
0.0
  0
LINE
  5
3BA
330
3AF
100
AcDbEntity
  8
0
  6
Continuous
 62
     7
370
     0
100
AcDbLine
 10
9.5431927202
 20
4.3314512656
 30
0.0
 11
9.5431927202
 21
3.1728236544
 31
0.0
  0
LINE
  5
3BB
330
3AF
100
AcDbEntity
  8
0
  6
Continuous
 62
     7
370
     0
100
AcDbLine
 10
8.0583895706
 20
3.7414512656
 30
0.0
 11
8.0583895706
 21
3.1728236544
 31
0.0
  0
LINE
  5
3BC
330
3AF
100
AcDbEntity
  8
0
  6
Continuous
 62
     7
370
     0
100
AcDbLine
 10
9.5431927202
 20
3.2978236544
 30
0.0
 11
9.1946958943
 21
3.2978236544
 31
0.0
  0
LINE
  5
3BD
330
3AF
100
AcDbEntity
  8
0
  6
Continuous
 62
     7
370
     0
100
AcDbLine
 10
8.0583895706
 20
3.2978236544
 30
0.0
 11
8.6543667114
 21
3.2978236544
 31
0.0
  0
MTEXT
  5
3BE
330
3AF
100
AcDbEntity
  8
0
  6
Continuous
 62
     7
370
     0
100
AcDbMText
 10
8.7749313028
 20
3.2700242875
 30
0.0
 40
0.09
 41
0.0
 71
     1
 72
     1
  1
1.485
  7
SLDTEXTSTYLE0
 73
     1
 44
1.0
  0
MTEXT
  5
3BF
330
3AF
100
AcDbEntity
  8
0
  6
Continuous
 62
     7
370
     0
100
AcDbMText
 10
8.808183832
 20
3.4127845988
 30
0.0
 40
0.09
 41
0.0
 71
     1
 72
     1
  1
37.7
  7
SLDTEXTSTYLE0
 73
     1
 44
1.0
  0
ENDBLK
  5
3B1
330
3AF
100
AcDbEntity
  8
0
100
AcDbBlockEnd
  0
BLOCK
  5
3C2
330
3C1
100
AcDbEntity
  8
0
100
AcDbBlockBegin
  2
*D9
 70
     1
 71
     0
 10
0.0
 20
0.0
 30
0.0
  3
*D9
  1

  0
SOLID
  5
3C4
330
3C1
100
AcDbEntity
  8
0
  6
Continuous
 62
     7
370
     0
100
AcDbTrace
 10
3.1257124052
 20
3.2978236544
 30
0.0
 11
3.2857124052
 21
3.2718236544
 31
0.0
 12
3.2857124052
 22
3.3238236544
 32
0.0
 13
3.2857124052
 23
3.3238236544
 33
0.0
  0
SOLID
  5
3C5
330
3C1
100
AcDbEntity
  8
0
  6
Continuous
 62
     7
370
     0
100
AcDbTrace
 10
6.7733895706
 20
3.2978236544
 30
0.0
 11
6.6133895706
 21
3.3238236544
 31
0.0
 12
6.6133895706
 22
3.2718236544
 32
0.0
 13
6.6133895706
 23
3.2718236544
 33
0.0
  0
LINE
  5
3C6
330
3C1
100
AcDbEntity
  8
0
  6
Continuous
 62
     7
370
     0
100
AcDbLine
 10
4.8094916294
 20
3.4298769424
 30
0.0
 11
4.8094916294
 21
3.3085306778
 31
0.0
  0
LINE
  5
3C7
330
3C1
100
AcDbEntity
  8
0
  6
Continuous
 62
     7
370
     0
100
AcDbLine
 10
4.8094916294
 20
3.3085306778
 30
0.0
 11
4.8277550536
 21
3.3085306778
 31
0.0
  0
LINE
  5
3C8
330
3C1
100
AcDbEntity
  8
0
  6
Continuous
 62
     7
370
     0
100
AcDbLine
 10
4.8094916294
 20
3.4298769424
 30
0.0
 11
4.8277550536
 21
3.4298769424
 31
0.0
  0
LINE
  5
3C9
330
3C1
100
AcDbEntity
  8
0
  6
Continuous
 62
     7
370
     0
100
AcDbLine
 10
5.1152402676
 20
3.4298769424
 30
0.0
 11
5.1152402676
 21
3.3085306778
 31
0.0
  0
LINE
  5
3CA
330
3C1
100
AcDbEntity
  8
0
  6
Continuous
 62
     7
370
     0
100
AcDbLine
 10
5.1152402676
 20
3.3085306778
 30
0.0
 11
5.0969768434
 21
3.3085306778
 31
0.0
  0
LINE
  5
3CB
330
3C1
100
AcDbEntity
  8
0
  6
Continuous
 62
     7
370
     0
100
AcDbLine
 10
5.1152402676
 20
3.4298769424
 30
0.0
 11
5.0969768434
 21
3.4298769424
 31
0.0
  0
LINE
  5
3CC
330
3C1
100
AcDbEntity
  8
0
  6
Continuous
 62
     7
370
     0
100
AcDbLine
 10
3.1257124052
 20
4.3314512656
 30
0.0
 11
3.1257124052
 21
3.1728236544
 31
0.0
  0
LINE
  5
3CD
330
3C1
100
AcDbEntity
  8
0
  6
Continuous
 62
     7
370
     0
100
AcDbLine
 10
6.7733895706
 20
3.7414512656
 30
0.0
 11
6.7733895706
 21
3.1728236544
 31
0.0
  0
LINE
  5
3CE
330
3C1
100
AcDbEntity
  8
0
  6
Continuous
 62
     7
370
     0
100
AcDbLine
 10
3.1257124052
 20
3.2978236544
 30
0.0
 11
4.6922013571
 21
3.2978236544
 31
0.0
  0
LINE
  5
3CF
330
3C1
100
AcDbEntity
  8
0
  6
Continuous
 62
     7
370
     0
100
AcDbLine
 10
6.7733895706
 20
3.2978236544
 30
0.0
 11
5.2325305399
 21
3.2978236544
 31
0.0
  0
MTEXT
  5
3D0
330
3C1
100
AcDbEntity
  8
0
  6
Continuous
 62
     7
370
     0
100
AcDbMText
 10
4.8127659485
 20
3.2700242875
 30
0.0
 40
0.09
 41
0.0
 71
     1
 72
     1
  1
3.648
  7
SLDTEXTSTYLE0
 73
     1
 44
1.0
  0
MTEXT
  5
3D1
330
3C1
100
AcDbEntity
  8
0
  6
Continuous
 62
     7
370
     0
100
AcDbMText
 10
4.8460184777
 20
3.4127845988
 30
0.0
 40
0.09
 41
0.0
 71
     1
 72
     1
  1
92.7
  7
SLDTEXTSTYLE0
 73
     1
 44
1.0
  0
ENDBLK
  5
3C3
330
3C1
100
AcDbEntity
  8
0
100
AcDbBlockEnd
  0
BLOCK
  5
3D4
330
3D3
100
AcDbEntity
  8
0
100
AcDbBlockBegin
  2
*D10
 70
     1
 71
     0
 10
0.0
 20
0.0
 30
0.0
  3
*D10
  1

  0
SOLID
  5
3D6
330
3D3
100
AcDbEntity
  8
0
  6
Continuous
 62
     7
370
     0
100
AcDbTrace
 10
9.5431927202
 20
5.1193997351
 30
0.0
 11
9.3831927202
 21
5.1453997351
 31
0.0
 12
9.3831927202
 22
5.0933997351
 32
0.0
 13
9.3831927202
 23
5.0933997351
 33
0.0
  0
SOLID
  5
3D7
330
3D3
100
AcDbEntity
  8
0
  6
Continuous
 62
     7
370
     0
100
AcDbTrace
 10
7.8394501246
 20
5.1193997351
 30
0.0
 11
7.9994501246
 21
5.0933997351
 31
0.0
 12
7.9994501246
 22
5.1453997351
 32
0.0
 13
7.9994501246
 23
5.1453997351
 33
0.0
  0
LINE
  5
3D8
330
3D3
100
AcDbEntity
  8
0
  6
Continuous
 62
     7
370
     0
100
AcDbLine
 10
8.6065124825
 20
5.2514530231
 30
0.0
 11
8.6065124825
 21
5.1301067585
 31
0.0
  0
LINE
  5
3D9
330
3D3
100
AcDbEntity
  8
0
  6
Continuous
 62
     7
370
     0
100
AcDbLine
 10
8.6065124825
 20
5.1301067585
 30
0.0
 11
8.6247759066
 21
5.1301067585
 31
0.0
  0
LINE
  5
3DA
330
3D3
100
AcDbEntity
  8
0
  6
Continuous
 62
     7
370
     0
100
AcDbLine
 10
8.6065124825
 20
5.2514530231
 30
0.0
 11
8.6247759066
 21
5.2514530231
 31
0.0
  0
LINE
  5
3DB
330
3D3
100
AcDbEntity
  8
0
  6
Continuous
 62
     7
370
     0
100
AcDbLine
 10
8.9122611207
 20
5.2514530231
 30
0.0
 11
8.9122611207
 21
5.1301067585
 31
0.0
  0
LINE
  5
3DC
330
3D3
100
AcDbEntity
  8
0
  6
Continuous
 62
     7
370
     0
100
AcDbLine
 10
8.9122611207
 20
5.1301067585
 30
0.0
 11
8.8939976965
 21
5.1301067585
 31
0.0
  0
LINE
  5
3DD
330
3D3
100
AcDbEntity
  8
0
  6
Continuous
 62
     7
370
     0
100
AcDbLine
 10
8.9122611207
 20
5.2514530231
 30
0.0
 11
8.8939976965
 21
5.2514530231
 31
0.0
  0
LINE
  5
3DE
330
3D3
100
AcDbEntity
  8
0
  6
Continuous
 62
     7
370
     0
100
AcDbLine
 10
9.5431927202
 20
4.4314512656
 30
0.0
 11
9.5431927202
 21
5.2443997351
 31
0.0
  0
LINE
  5
3DF
330
3D3
100
AcDbEntity
  8
0
  6
Continuous
 62
     7
370
     0
100
AcDbLine
 10
7.8394501246
 20
4.4314512656
 30
0.0
 11
7.8394501246
 21
5.2443997351
 31
0.0
  0
LINE
  5
3E0
330
3D3
100
AcDbEntity
  8
0
  6
Continuous
 62
     7
370
     0
100
AcDbLine
 10
9.5431927202
 20
5.1193997351
 30
0.0
 11
9.029551393
 21
5.1193997351
 31
0.0
  0
LINE
  5
3E1
330
3D3
100
AcDbEntity
  8
0
  6
Continuous
 62
     7
370
     0
100
AcDbLine
 10
7.8394501246
 20
5.1193997351
 30
0.0
 11
8.4892222102
 21
5.1193997351
 31
0.0
  0
MTEXT
  5
3E2
330
3D3
100
AcDbEntity
  8
0
  6
Continuous
 62
     7
370
     0
100
AcDbMText
 10
8.6097868016
 20
5.0916003682
 30
0.0
 40
0.09
 41
0.0
 71
     1
 72
     1
  1
1.704
  7
SLDTEXTSTYLE0
 73
     1
 44
1.0
  0
MTEXT
  5
3E3
330
3D3
100
AcDbEntity
  8
0
  6
Continuous
 62
     7
370
     0
100
AcDbMText
 10
8.6430393308
 20
5.2343606795
 30
0.0
 40
0.09
 41
0.0
 71
     1
 72
     1
  1
43.3
  7
SLDTEXTSTYLE0
 73
     1
 44
1.0
  0
ENDBLK
  5
3D5
330
3D3
100
AcDbEntity
  8
0
100
AcDbBlockEnd
  0
BLOCK
  5
3E6
330
3E5
100
AcDbEntity
  8
0
100
AcDbBlockBegin
  2
*D11
 70
     1
 71
     0
 10
0.0
 20
0.0
 30
0.0
  3
*D11
  1

  0
SOLID
  5
3E8
330
3E5
100
AcDbEntity
  8
0
  6
Continuous
 62
     7
370
     0
100
AcDbTrace
 10
3.1257124052
 20
5.1193997351
 30
0.0
 11
3.2857124052
 21
5.0933997351
 31
0.0
 12
3.2857124052
 22
5.1453997351
 32
0.0
 13
3.2857124052
 23
5.1453997351
 33
0.0
  0
SOLID
  5
3E9
330
3E5
100
AcDbEntity
  8
0
  6
Continuous
 62
     7
370
     0
100
AcDbTrace
 10
6.9847942586
 20
5.1193997351
 30
0.0
 11
6.8247942586
 21
5.1453997351
 31
0.0
 12
6.8247942586
 22
5.0933997351
 32
0.0
 13
6.8247942586
 23
5.0933997351
 33
0.0
  0
LINE
  5
3EA
330
3E5
100
AcDbEntity
  8
0
  6
Continuous
 62
     7
370
     0
100
AcDbLine
 10
4.8094916294
 20
5.2514530231
 30
0.0
 11
4.8094916294
 21
5.1301067585
 31
0.0
  0
LINE
  5
3EB
330
3E5
100
AcDbEntity
  8
0
  6
Continuous
 62
     7
370
     0
100
AcDbLine
 10
4.8094916294
 20
5.1301067585
 30
0.0
 11
4.8277550536
 21
5.1301067585
 31
0.0
  0
LINE
  5
3EC
330
3E5
100
AcDbEntity
  8
0
  6
Continuous
 62
     7
370
     0
100
AcDbLine
 10
4.8094916294
 20
5.2514530231
 30
0.0
 11
4.8277550536
 21
5.2514530231
 31
0.0
  0
LINE
  5
3ED
330
3E5
100
AcDbEntity
  8
0
  6
Continuous
 62
     7
370
     0
100
AcDbLine
 10
5.1152402676
 20
5.2514530231
 30
0.0
 11
5.1152402676
 21
5.1301067585
 31
0.0
  0
LINE
  5
3EE
330
3E5
100
AcDbEntity
  8
0
  6
Continuous
 62
     7
370
     0
100
AcDbLine
 10
5.1152402676
 20
5.1301067585
 30
0.0
 11
5.0969768434
 21
5.1301067585
 31
0.0
  0
LINE
  5
3EF
330
3E5
100
AcDbEntity
  8
0
  6
Continuous
 62
     7
370
     0
100
AcDbLine
 10
5.1152402676
 20
5.2514530231
 30
0.0
 11
5.0969768434
 21
5.2514530231
 31
0.0
  0
LINE
  5
3F0
330
3E5
100
AcDbEntity
  8
0
  6
Continuous
 62
     7
370
     0
100
AcDbLine
 10
3.1257124052
 20
4.4314512656
 30
0.0
 11
3.1257124052
 21
5.2443997351
 31
0.0
  0
LINE
  5
3F1
330
3E5
100
AcDbEntity
  8
0
  6
Continuous
 62
     7
370
     0
100
AcDbLine
 10
6.9847942586
 20
4.4314512656
 30
0.0
 11
6.9847942586
 21
5.2443997351
 31
0.0
  0
LINE
  5
3F2
330
3E5
100
AcDbEntity
  8
0
  6
Continuous
 62
     7
370
     0
100
AcDbLine
 10
3.1257124052
 20
5.1193997351
 30
0.0
 11
4.6922013571
 21
5.1193997351
 31
0.0
  0
LINE
  5
3F3
330
3E5
100
AcDbEntity
  8
0
  6
Continuous
 62
     7
370
     0
100
AcDbLine
 10
6.9847942586
 20
5.1193997351
 30
0.0
 11
5.2325305399
 21
5.1193997351
 31
0.0
  0
MTEXT
  5
3F4
330
3E5
100
AcDbEntity
  8
0
  6
Continuous
 62
     7
370
     0
100
AcDbMText
 10
4.8127659485
 20
5.0916003682
 30
0.0
 40
0.09
 41
0.0
 71
     1
 72
     1
  1
3.859
  7
SLDTEXTSTYLE0
 73
     1
 44
1.0
  0
MTEXT
  5
3F5
330
3E5
100
AcDbEntity
  8
0
  6
Continuous
 62
     7
370
     0
100
AcDbMText
 10
4.8460184777
 20
5.2343606795
 30
0.0
 40
0.09
 41
0.0
 71
     1
 72
     1
  1
98.0
  7
SLDTEXTSTYLE0
 73
     1
 44
1.0
  0
ENDBLK
  5
3E7
330
3E5
100
AcDbEntity
  8
0
100
AcDbBlockEnd
  0
BLOCK
  5
3F8
330
3F7
100
AcDbEntity
  8
0
100
AcDbBlockBegin
  2
*D12
 70
     1
 71
     0
 10
0.0
 20
0.0
 30
0.0
  3
*D12
  1

  0
SOLID
  5
3FA
330
3F7
100
AcDbEntity
  8
0
  6
Continuous
 62
     7
370
     0
100
AcDbTrace
 10
6.7733895706
 20
2.4842121607
 30
0.0
 11
6.9333895706
 21
2.4582121607
 31
0.0
 12
6.9333895706
 22
2.5102121607
 32
0.0
 13
6.9333895706
 23
2.5102121607
 33
0.0
  0
SOLID
  5
3FB
330
3F7
100
AcDbEntity
  8
0
  6
Continuous
 62
     7
370
     0
100
AcDbTrace
 10
8.0583895706
 20
2.4842121607
 30
0.0
 11
7.8983895706
 21
2.5102121607
 31
0.0
 12
7.8983895706
 22
2.4582121607
 32
0.0
 13
7.8983895706
 23
2.4582121607
 33
0.0
  0
LINE
  5
3FC
330
3F7
100
AcDbEntity
  8
0
  6
Continuous
 62
     7
370
     0
100
AcDbLine
 10
7.190655382
 20
2.6162654486
 30
0.0
 11
7.190655382
 21
2.4949191841
 31
0.0
  0
LINE
  5
3FD
330
3F7
100
AcDbEntity
  8
0
  6
Continuous
 62
     7
370
     0
100
AcDbLine
 10
7.190655382
 20
2.4949191841
 30
0.0
 11
7.2089188061
 21
2.4949191841
 31
0.0
  0
LINE
  5
3FE
330
3F7
100
AcDbEntity
  8
0
  6
Continuous
 62
     7
370
     0
100
AcDbLine
 10
7.190655382
 20
2.6162654486
 30
0.0
 11
7.2089188061
 21
2.6162654486
 31
0.0
  0
LINE
  5
3FF
330
3F7
100
AcDbEntity
  8
0
  6
Continuous
 62
     7
370
     0
100
AcDbLine
 10
7.4964040201
 20
2.6162654486
 30
0.0
 11
7.4964040201
 21
2.4949191841
 31
0.0
  0
LINE
  5
400
330
3F7
100
AcDbEntity
  8
0
  6
Continuous
 62
     7
370
     0
100
AcDbLine
 10
7.4964040201
 20
2.4949191841
 30
0.0
 11
7.478140596
 21
2.4949191841
 31
0.0
  0
LINE
  5
401
330
3F7
100
AcDbEntity
  8
0
  6
Continuous
 62
     7
370
     0
100
AcDbLine
 10
7.4964040201
 20
2.6162654486
 30
0.0
 11
7.478140596
 21
2.6162654486
 31
0.0
  0
LINE
  5
402
330
3F7
100
AcDbEntity
  8
0
  6
Continuous
 62
     7
370
     0
100
AcDbLine
 10
6.7733895706
 20
3.7414512656
 30
0.0
 11
6.7733895706
 21
2.3592121607
 31
0.0
  0
LINE
  5
403
330
3F7
100
AcDbEntity
  8
0
  6
Continuous
 62
     7
370
     0
100
AcDbLine
 10
8.0583895706
 20
3.7414512656
 30
0.0
 11
8.0583895706
 21
2.3592121607
 31
0.0
  0
LINE
  5
404
330
3F7
100
AcDbEntity
  8
0
  6
Continuous
 62
     7
370
     0
100
AcDbLine
 10
6.7733895706
 20
2.4842121607
 30
0.0
 11
7.0733651096
 21
2.4842121607
 31
0.0
  0
LINE
  5
405
330
3F7
100
AcDbEntity
  8
0
  6
Continuous
 62
     7
370
     0
100
AcDbLine
 10
8.0583895706
 20
2.4842121607
 30
0.0
 11
7.6136942925
 21
2.4842121607
 31
0.0
  0
MTEXT
  5
406
330
3F7
100
AcDbEntity
  8
0
  6
Continuous
 62
     7
370
     0
100
AcDbMText
 10
7.1939297011
 20
2.4564127938
 30
0.0
 40
0.09
 41
0.0
 71
     1
 72
     1
  1
1.285
  7
SLDTEXTSTYLE0
 73
     1
 44
1.0
  0
MTEXT
  5
407
330
3F7
100
AcDbEntity
  8
0
  6
Continuous
 62
     7
370
     0
100
AcDbMText
 10
7.2271822302
 20
2.5991731051
 30
0.0
 40
0.09
 41
0.0
 71
     1
 72
     1
  1
32.6
  7
SLDTEXTSTYLE0
 73
     1
 44
1.0
  0
ENDBLK
  5
3F9
330
3F7
100
AcDbEntity
  8
0
100
AcDbBlockEnd
  0
BLOCK
  5
40B
330
40A
100
AcDbEntity
  8
0
100
AcDbBlockBegin
  2
*D13
 70
     1
 71
     0
 10
0.0
 20
0.0
 30
0.0
  3
*D13
  1

  0
SOLID
  5
40D
330
40A
100
AcDbEntity
  8
0
  6
Continuous
 62
     7
370
     0
100
AcDbTrace
 10
7.2406997705
 20
3.4055439944
 30
0.0
 11
7.0806997705
 21
3.4315439944
 31
0.0
 12
7.0806997705
 22
3.3795439944
 32
0.0
 13
7.0806997705
 23
3.3795439944
 33
0.0
  0
SOLID
  5
40E
330
40A
100
AcDbEntity
  8
0
  6
Continuous
 62
     7
370
     0
100
AcDbTrace
 10
7.3866942191
 20
3.4055439944
 30
0.0
 11
7.5466942191
 21
3.3795439944
 31
0.0
 12
7.5466942191
 22
3.4315439944
 32
0.0
 13
7.5466942191
 23
3.4315439944
 33
0.0
  0
LINE
  5
40F
330
40A
100
AcDbEntity
  8
0
  6
Continuous
 62
     7
370
     0
100
AcDbLine
 10
7.7314867759
 20
3.5375972823
 30
0.0
 11
7.7314867759
 21
3.4162510177
 31
0.0
  0
LINE
  5
410
330
40A
100
AcDbEntity
  8
0
  6
Continuous
 62
     7
370
     0
100
AcDbLine
 10
7.7314867759
 20
3.4162510177
 30
0.0
 11
7.7497502
 21
3.4162510177
 31
0.0
  0
LINE
  5
411
330
40A
100
AcDbEntity
  8
0
  6
Continuous
 62
     7
370
     0
100
AcDbLine
 10
7.7314867759
 20
3.5375972823
 30
0.0
 11
7.7497502
 21
3.5375972823
 31
0.0
  0
LINE
  5
412
330
40A
100
AcDbEntity
  8
0
  6
Continuous
 62
     7
370
     0
100
AcDbLine
 10
7.9707303557
 20
3.5375972823
 30
0.0
 11
7.9707303557
 21
3.4162510177
 31
0.0
  0
LINE
  5
413
330
40A
100
AcDbEntity
  8
0
  6
Continuous
 62
     7
370
     0
100
AcDbLine
 10
7.9707303557
 20
3.4162510177
 30
0.0
 11
7.9524669316
 21
3.4162510177
 31
0.0
  0
LINE
  5
414
330
40A
100
AcDbEntity
  8
0
  6
Continuous
 62
     7
370
     0
100
AcDbLine
 10
7.9707303557
 20
3.5375972823
 30
0.0
 11
7.9524669316
 21
3.5375972823
 31
0.0
  0
LINE
  5
415
330
40A
100
AcDbEntity
  8
0
  6
Continuous
 62
     7
370
     0
100
AcDbLine
 10
7.2406997705
 20
4.3314512656
 30
0.0
 11
7.2406997705
 21
3.2805439944
 31
0.0
  0
LINE
  5
416
330
40A
100
AcDbEntity
  8
0
  6
Continuous
 62
     7
370
     0
100
AcDbLine
 10
7.3866942191
 20
4.3314512656
 30
0.0
 11
7.3866942191
 21
3.2805439944
 31
0.0
  0
LINE
  5
417
330
40A
100
AcDbEntity
  8
0
  6
Continuous
 62
     7
370
     0
100
AcDbLine
 10
7.2406997705
 20
3.4055439944
 30
0.0
 11
6.8906997705
 21
3.4055439944
 31
0.0
  0
LINE
  5
418
330
40A
100
AcDbEntity
  8
0
  6
Continuous
 62
     7
370
     0
100
AcDbLine
 10
7.3866942191
 20
3.4055439944
 30
0.0
 11
7.6141965035
 21
3.4055439944
 31
0.0
  0
MTEXT
  5
419
330
40A
100
AcDbEntity
  8
0
  6
Continuous
 62
     7
370
     0
100
AcDbMText
 10
7.7015085658
 20
3.3777446275
 30
0.0
 40
0.09
 41
0.0
 71
     1
 72
     1
  1
0.146
  7
SLDTEXTSTYLE0
 73
     1
 44
1.0
  0
MTEXT
  5
41A
330
40A
100
AcDbEntity
  8
0
  6
Continuous
 62
     7
370
     0
100
AcDbMText
 10
7.7680136242
 20
3.5205049387
 30
0.0
 40
0.09
 41
0.0
 71
     1
 72
     1
  1
3.7
  7
SLDTEXTSTYLE0
 73
     1
 44
1.0
  0
ENDBLK
  5
40C
330
40A
100
AcDbEntity
  8
0
100
AcDbBlockEnd
  0
BLOCK
  5
41D
330
41C
100
AcDbEntity
  8
0
100
AcDbBlockBegin
  2
*D14
 70
     1
 71
     0
 10
0.0
 20
0.0
 30
0.0
  3
*D14
  1

  0
SOLID
  5
41F
330
41C
100
AcDbEntity
  8
0
  6
Continuous
 62
     7
370
     0
100
AcDbTrace
 10
6.9847942586
 20
5.3172060798
 30
0.0
 11
7.1447942586
 21
5.2912060798
 31
0.0
 12
7.1447942586
 22
5.3432060798
 32
0.0
 13
7.1447942586
 23
5.3432060798
 33
0.0
  0
SOLID
  5
420
330
41C
100
AcDbEntity
  8
0
  6
Continuous
 62
     7
370
     0
100
AcDbTrace
 10
7.8394501246
 20
5.3172060798
 30
0.0
 11
7.6794501246
 21
5.3432060798
 31
0.0
 12
7.6794501246
 22
5.2912060798
 32
0.0
 13
7.6794501246
 23
5.2912060798
 33
0.0
  0
LINE
  5
421
330
41C
100
AcDbEntity
  8
0
  6
Continuous
 62
     7
370
     0
100
AcDbLine
 10
7.2821098992
 20
5.4492593677
 30
0.0
 11
7.2821098992
 21
5.3279131031
 31
0.0
  0
LINE
  5
422
330
41C
100
AcDbEntity
  8
0
  6
Continuous
 62
     7
370
     0
100
AcDbLine
 10
7.2821098992
 20
5.3279131031
 30
0.0
 11
7.3003733234
 21
5.3279131031
 31
0.0
  0
LINE
  5
423
330
41C
100
AcDbEntity
  8
0
  6
Continuous
 62
     7
370
     0
100
AcDbLine
 10
7.2821098992
 20
5.4492593677
 30
0.0
 11
7.3003733234
 21
5.4492593677
 31
0.0
  0
LINE
  5
424
330
41C
100
AcDbEntity
  8
0
  6
Continuous
 62
     7
370
     0
100
AcDbLine
 10
7.5878585374
 20
5.4492593677
 30
0.0
 11
7.5878585374
 21
5.3279131031
 31
0.0
  0
LINE
  5
425
330
41C
100
AcDbEntity
  8
0
  6
Continuous
 62
     7
370
     0
100
AcDbLine
 10
7.5878585374
 20
5.3279131031
 30
0.0
 11
7.5695951132
 21
5.3279131031
 31
0.0
  0
LINE
  5
426
330
41C
100
AcDbEntity
  8
0
  6
Continuous
 62
     7
370
     0
100
AcDbLine
 10
7.5878585374
 20
5.4492593677
 30
0.0
 11
7.5695951132
 21
5.4492593677
 31
0.0
  0
LINE
  5
427
330
41C
100
AcDbEntity
  8
0
  6
Continuous
 62
     7
370
     0
100
AcDbLine
 10
6.9847942586
 20
4.4314512656
 30
0.0
 11
6.9847942586
 21
5.4422060798
 31
0.0
  0
LINE
  5
428
330
41C
100
AcDbEntity
  8
0
  6
Continuous
 62
     7
370
     0
100
AcDbLine
 10
7.8394501246
 20
4.4314512656
 30
0.0
 11
7.8394501246
 21
5.4422060798
 31
0.0
  0
LINE
  5
429
330
41C
100
AcDbEntity
  8
0
  6
Continuous
 62
     7
370
     0
100
AcDbLine
 10
6.9847942586
 20
5.3172060798
 30
0.0
 11
7.1648196269
 21
5.3172060798
 31
0.0
  0
LINE
  5
42A
330
41C
100
AcDbEntity
  8
0
  6
Continuous
 62
     7
370
     0
100
AcDbLine
 10
7.8394501246
 20
5.3172060798
 30
0.0
 11
7.7051488097
 21
5.3172060798
 31
0.0
  0
MTEXT
  5
42B
330
41C
100
AcDbEntity
  8
0
  6
Continuous
 62
     7
370
     0
100
AcDbMText
 10
7.2853842183
 20
5.2894067129
 30
0.0
 40
0.09
 41
0.0
 71
     1
 72
     1
  1
0.855
  7
SLDTEXTSTYLE0
 73
     1
 44
1.0
  0
MTEXT
  5
42C
330
41C
100
AcDbEntity
  8
0
  6
Continuous
 62
     7
370
     0
100
AcDbMText
 10
7.3186367475
 20
5.4321670241
 30
0.0
 40
0.09
 41
0.0
 71
     1
 72
     1
  1
21.7
  7
SLDTEXTSTYLE0
 73
     1
 44
1.0
  0
ENDBLK
  5
41E
330
41C
100
AcDbEntity
  8
0
100
AcDbBlockEnd
  0
BLOCK
  5
42F
330
42E
100
AcDbEntity
  8
0
100
AcDbBlockBegin
  2
SW_NOTE_5
 70
     0
 71
     0
 10
0.0
 20
0.0
 30
0.0
  3
SW_NOTE_5
  1

  0
MTEXT
  5
432
330
42E
100
AcDbEntity
  8
0
  6
Continuous
 62
     0
370
     0
100
AcDbMText
 10
-1.341411929
 20
0.1665005632
 30
0.0
 40
0.09
 41
0.0
 71
     1
 72
     1
  1
INTERNAL  SM1 THREAD
  7
SLDTEXTSTYLE16
 73
     1
 44
1.0
  0
MTEXT
  5
433
330
42E
100
AcDbEntity
  8
0
  6
Continuous
 62
     0
370
     0
100
AcDbMText
 10
-0.960849417
 20
0.0371304802
 30
0.0
 40
0.09
 41
0.0
 71
     1
 72
     1
  1
(1.035-40)
  7
SLDTEXTSTYLE0
 73
     1
 44
1.0
  0
ENDBLK
  5
430
330
42E
100
AcDbEntity
  8
0
100
AcDbBlockEnd
  0
BLOCK
  5
439
330
438
100
AcDbEntity
  8
0
100
AcDbBlockBegin
  2
SW_NOTE_6
 70
     0
 71
     0
 10
0.0
 20
0.0
 30
0.0
  3
SW_NOTE_6
  1

  0
CIRCLE
  5
43B
330
438
100
AcDbEntity
  8
0
  6
Continuous
 62
     0
370
     0
100
AcDbCircle
 10
0.1283335882
 20
0.0087633046
 30
0.0
 40
0.1286324429531544
  0
MTEXT
  5
43C
330
438
100
AcDbEntity
  8
0
  6
Continuous
 62
     0
370
     0
100
AcDbMText
 10
0.0839585884
 20
0.0550572952
 30
0.0
 40
0.09
 41
0.0
 71
     1
 72
     1
  1
A
  7
SLDTEXTSTYLE0
 73
     1
 44
1.0
  0
ENDBLK
  5
43A
330
438
100
AcDbEntity
  8
0
100
AcDbBlockEnd
  0
BLOCK
  5
440
330
43F
100
AcDbEntity
  8
0
100
AcDbBlockBegin
  2
SW_NOTE_7
 70
     0
 71
     0
 10
0.0
 20
0.0
 30
0.0
  3
SW_NOTE_7
  1

  0
CIRCLE
  5
442
330
43F
100
AcDbEntity
  8
0
  6
Continuous
 62
     0
370
     0
100
AcDbCircle
 10
-0.128323873
 20
0.0089044372
 30
0.0
 40
0.1286324429531544
  0
MTEXT
  5
443
330
43F
100
AcDbEntity
  8
0
  6
Continuous
 62
     0
370
     0
100
AcDbMText
 10
-0.1627613722
 20
0.0551984278
 30
0.0
 40
0.09
 41
0.0
 71
     1
 72
     1
  1
B
  7
SLDTEXTSTYLE0
 73
     1
 44
1.0
  0
ENDBLK
  5
441
330
43F
100
AcDbEntity
  8
0
100
AcDbBlockEnd
  0
BLOCK
  5
447
330
446
100
AcDbEntity
  8
0
100
AcDbBlockBegin
  2
SW_NOTE_8
 70
     0
 71
     0
 10
0.0
 20
0.0
 30
0.0
  3
SW_NOTE_8
  1

  0
CIRCLE
  5
449
330
446
100
AcDbEntity
  8
0
  6
Continuous
 62
     0
370
     0
100
AcDbCircle
 10
0.1251600594
 20
-0.0296861063
 30
0.0
 40
0.1286324429531548
  0
MTEXT
  5
44A
330
446
100
AcDbEntity
  8
0
  6
Continuous
 62
     0
370
     0
100
AcDbMText
 10
0.0764100572
 20
0.0166078843
 30
0.0
 40
0.09
 41
0.0
 71
     1
 72
     1
  1
C
  7
SLDTEXTSTYLE0
 73
     1
 44
1.0
  0
ENDBLK
  5
448
330
446
100
AcDbEntity
  8
0
100
AcDbBlockEnd
  0
BLOCK
  5
44E
330
44D
100
AcDbEntity
  8
0
100
AcDbBlockBegin
  2
SW_NOTE_9
 70
     0
 71
     0
 10
0.0
 20
0.0
 30
0.0
  3
SW_NOTE_9
  1

  0
CIRCLE
  5
450
330
44D
100
AcDbEntity
  8
0
  6
Continuous
 62
     0
370
     0
100
AcDbCircle
 10
0.1282968201
 20
0.0092860827
 30
0.0
 40
0.1286324429531548
  0
MTEXT
  5
451
330
44D
100
AcDbEntity
  8
0
  6
Continuous
 62
     0
370
     0
100
AcDbMText
 10
0.0836718206
 20
0.0555800733
 30
0.0
 40
0.09
 41
0.0
 71
     1
 72
     1
  1
D
  7
SLDTEXTSTYLE0
 73
     1
 44
1.0
  0
ENDBLK
  5
44F
330
44D
100
AcDbEntity
  8
0
100
AcDbBlockEnd
  0
BLOCK
  5
455
330
454
100
AcDbEntity
  8
0
100
AcDbBlockBegin
  2
SW_NOTE_10
 70
     0
 71
     0
 10
0.0
 20
0.0
 30
0.0
  3
SW_NOTE_10
  1

  0
CIRCLE
  5
457
330
454
100
AcDbEntity
  8
0
  6
Continuous
 62
     0
370
     0
100
AcDbCircle
 10
-0.1286241842
 20
-0.0014576086
 30
0.0
 40
0.1286324429531546
  0
MTEXT
  5
458
330
454
100
AcDbEntity
  8
0
  6
Continuous
 62
     0
370
     0
100
AcDbMText
 10
-0.1732491837
 20
0.044836382
 30
0.0
 40
0.09
 41
0.0
 71
     1
 72
     1
  1
D
  7
SLDTEXTSTYLE0
 73
     1
 44
1.0
  0
ENDBLK
  5
456
330
454
100
AcDbEntity
  8
0
100
AcDbBlockEnd
  0
ENDSEC
  0
SECTION
  2
ENTITIES
  0
LINE
  5
30
330
1F
100
AcDbEntity
  8
0
  6
Continuous
 62
     7
370
     0
100
AcDbLine
 10
0.329927
 20
8.1920731707
 30
0.0
 11
10.629927
 21
8.1920731707
 31
0.0
  0
LINE
  5
31
330
1F
100
AcDbEntity
  8
0
  6
Continuous
 62
     7
370
     0
100
AcDbLine
 10
0.329927
 20
8.1920731707
 30
0.0
 11
0.329927
 21
0.3920731707
 31
0.0
  0
LINE
  5
32
330
1F
100
AcDbEntity
  8
0
  6
Continuous
 62
     7
370
     0
100
AcDbLine
 10
10.629927
 20
0.3920731707
 30
0.0
 11
0.329927
 21
0.3920731707
 31
0.0
  0
LINE
  5
33
330
1F
100
AcDbEntity
  8
0
  6
Continuous
 62
     7
370
     0
100
AcDbLine
 10
10.629927
 20
0.3920731707
 30
0.0
 11
10.629927
 21
8.1920731707
 31
0.0
  0
LINE
  5
34
330
1F
100
AcDbEntity
  8
0
  6
Continuous
 62
     7
370
     0
100
AcDbLine
 10
7.8832069922
 20
1.2010186622
 30
0.0
 11
6.3491817542
 21
1.2010186622
 31
0.0
  0
LINE
  5
35
330
1F
100
AcDbEntity
  8
0
  6
Continuous
 62
     7
370
     0
100
AcDbLine
 10
6.3491817542
 20
0.3920731707
 30
0.0
 11
6.3491817542
 21
1.6988536355
 31
0.0
  0
LINE
  5
36
330
1F
100
AcDbEntity
  8
0
  6
Continuous
 62
     7
370
     0
100
AcDbLine
 10
7.8832069922
 20
1.270166923
 30
0.0
 11
10.629927
 21
1.270166923
 31
0.0
  0
LINE
  5
37
330
1F
100
AcDbEntity
  8
0
  6
Continuous
 62
     7
370
     0
100
AcDbLine
 10
7.8832069922
 20
1.9437769943
 30
0.0
 11
7.8832069922
 21
0.3920731707
 31
0.0
  0
LINE
  5
38
330
1F
100
AcDbEntity
  8
0
  6
Continuous
 62
     7
370
     0
100
AcDbLine
 10
7.8832069922
 20
1.323339557
 30
0.0
 11
6.3491817542
 21
1.323339557
 31
0.0
  0
LINE
  5
39
330
1F
100
AcDbEntity
  8
0
  6
Continuous
 62
     7
370
     0
100
AcDbLine
 10
7.8832069922
 20
1.6988536355
 30
0.0
 11
6.3491817542
 21
1.6988536355
 31
0.0
  0
LINE
  5
3A
330
1F
100
AcDbEntity
  8
0
  6
Continuous
 62
     7
370
     0
100
AcDbLine
 10
7.8832069922
 20
0.7890359178
 30
0.0
 11
10.629927
 21
0.7890359178
 31
0.0
  0
LINE
  5
3B
330
1F
100
AcDbEntity
  8
0
  6
Continuous
 62
     7
370
     0
100
AcDbLine
 10
7.8832069922
 20
1.4456604517
 30
0.0
 11
6.3491817542
 21
1.4456604517
 31
0.0
  0
LINE
  5
3C
330
1F
100
AcDbEntity
  8
0
  6
Continuous
 62
     7
370
     0
100
AcDbLine
 10
7.8832069922
 20
1.5679813464
 30
0.0
 11
6.3491817542
 21
1.5679813464
 31
0.0
  0
LINE
  5
3D
330
1F
100
AcDbEntity
  8
0
  6
Continuous
 62
     7
370
     0
100
AcDbLine
 10
6.9294188505
 20
1.6988536355
 30
0.0
 11
6.9294188505
 21
1.2010186622
 31
0.0
  0
LINE
  5
3E
330
1F
100
AcDbEntity
  8
0
  6
Continuous
 62
     7
370
     0
100
AcDbLine
 10
7.2989435727
 20
1.6988536355
 30
0.0
 11
7.2989435727
 21
1.2010186622
 31
0.0
  0
LINE
  5
3F
330
1F
100
AcDbEntity
  8
0
  6
Continuous
 62
     7
370
     0
100
AcDbLine
 10
8.9000563418
 20
0.7890359178
 30
0.0
 11
8.9000563418
 21
0.3920731707
 31
0.0
  0
LINE
  5
40
330
1F
100
AcDbEntity
  8
0
  6
Continuous
 62
     7
370
     0
100
AcDbLine
 10
9.3113942988
 20
0.96139916
 30
0.0
 11
9.3113942988
 21
0.7890359178
 31
0.0
  0
LINE
  5
41
330
1F
100
AcDbEntity
  8
0
  6
Continuous
 62
     7
370
     0
100
AcDbLine
 10
10.0324602448
 20
1.270166923
 30
0.0
 11
10.0324602448
 21
0.96139916
 31
0.0
  0
LINE
  5
42
330
1F
100
AcDbEntity
  8
0
  6
Continuous
 62
     7
370
     0
100
AcDbLine
 10
6.3491817542
 20
1.0381709011
 30
0.0
 11
7.8832069922
 21
1.0381709011
 31
0.0
  0
LINE
  5
43
330
1F
100
AcDbEntity
  8
0
  6
Continuous
 62
     7
370
     0
100
AcDbLine
 10
7.8832069922
 20
1.9437769943
 30
0.0
 11
10.629927
 21
1.9437769943
 31
0.0
  0
LINE
  5
44
330
1F
100
AcDbEntity
  8
0
  6
Continuous
 62
     7
370
     0
100
AcDbLine
 10
10.315241862
 20
1.2693980507
 30
0.0
 11
10.315241862
 21
0.96139916
 31
0.0
  0
LINE
  5
45
330
1F
100
AcDbEntity
  8
0
  6
Continuous
 62
     7
370
     0
100
AcDbLine
 10
7.8832069922
 20
0.96139916
 30
0.0
 11
10.629927
 21
0.96139916
 31
0.0
  0
LINE
  5
46
330
1F
100
AcDbEntity
  8
0
  6
Continuous
 62
     7
370
     0
100
AcDbLine
 10
10.629927
 20
1.9437769943
 30
0.0
 11
10.629927
 21
1.9698084888
 31
0.0
  0
LINE
  5
47
330
1F
100
AcDbEntity
  8
0
  6
Continuous
 62
     7
370
     0
100
AcDbLine
 10
7.8832069922
 20
1.6268095213
 30
0.0
 11
10.629927
 21
1.6268095213
 31
0.0
  0
LINE
  5
48
330
1F
100
AcDbEntity
  8
0
  6
Continuous
 62
     7
370
     0
100
AcDbLine
 10
6.692177
 20
0.3920731707
 30
0.0
 11
6.692177
 21
0.3072739649
 31
0.0
  0
LINE
  5
49
330
1F
100
AcDbEntity
  8
0
  6
Continuous
 62
     7
370
     0
100
AcDbLine
 10
2.754677
 20
0.3920731707
 30
0.0
 11
2.754677
 21
0.3072739649
 31
0.0
  0
LINE
  5
4A
330
1F
100
AcDbEntity
  8
0
  6
Continuous
 62
     7
370
     0
100
AcDbLine
 10
2.754677
 20
0.3920731707
 30
0.0
 11
2.7672319738
 21
0.3575
 31
0.0
  0
LINE
  5
4B
330
1F
100
AcDbEntity
  8
0
  6
Continuous
 62
     7
370
     0
100
AcDbLine
 10
2.7672319738
 20
0.3575
 30
0.0
 11
2.7414258825
 21
0.3575
 31
0.0
  0
LINE
  5
4C
330
1F
100
AcDbEntity
  8
0
  6
Continuous
 62
     7
370
     0
100
AcDbLine
 10
2.7414258825
 20
0.3575
 30
0.0
 11
2.754677
 21
0.3920731707
 31
0.0
  0
MTEXT
  5
4E
330
1F
100
AcDbEntity
  8
0
  6
Continuous
 62
     7
370
     0
100
AcDbMText
 10
10.4043270877
 20
1.1203120088
 30
0.0
 40
0.1041666667
 41
0.0
 71
     1
 72
     1
  1
C
  7
SLDTEXTSTYLE0
 73
     1
 44
1.0
  0
MTEXT
  5
4F
330
1F
100
AcDbEntity
  8
0
  6
Continuous
 62
     7
370
     0
100
AcDbMText
 10
1.7387909509
 20
0.3094873007
 30
0.0
 40
0.09375
 41
0.0
 71
     1
 72
     1
  1
5
  7
SLDTEXTSTYLE0
 73
     1
 44
1.0
  0
MTEXT
  5
50
330
1F
100
AcDbEntity
  8
0
  6
Continuous
 62
     7
370
     0
100
AcDbMText
 10
3.723800327
 20
0.3126246278
 30
0.0
 40
0.09375
 41
0.0
 71
     1
 72
     1
  1
4
  7
SLDTEXTSTYLE0
 73
     1
 44
1.0
  0
MTEXT
  5
51
330
1F
100
AcDbEntity
  8
0
  6
Continuous
 62
     7
370
     0
100
AcDbMText
 10
5.6324457277
 20
0.3105200602
 30
0.0
 40
0.09375
 41
0.0
 71
     1
 72
     1
  1
3
  7
SLDTEXTSTYLE0
 73
     1
 44
1.0
  0
MTEXT
  5
52
330
1F
100
AcDbEntity
  8
0
  6
Continuous
 62
     7
370
     0
100
AcDbMText
 10
7.6059721724
 20
0.3113400111
 30
0.0
 40
0.09375
 41
0.0
 71
     1
 72
     1
  1
2
  7
SLDTEXTSTYLE0
 73
     1
 44
1.0
  0
MTEXT
  5
53
330
1F
100
AcDbEntity
  8
0
  6
Continuous
 62
     7
370
     0
100
AcDbMText
 10
9.6619921328
 20
0.300272888
 30
0.0
 40
0.09375
 41
0.0
 71
     1
 72
     1
  1
1
  7
SLDTEXTSTYLE0
 73
     1
 44
1.0
  0
MTEXT
  5
54
330
1F
100
AcDbEntity
  8
0
  6
Continuous
 62
     7
370
     0
100
AcDbMText
 10
9.0666869092
 20
0.6032387684
 30
0.0
 40
0.125
 41
0.0
 71
     1
 72
     1
  1
MAP1050100-A1
  7
SLDTEXTSTYLE0
 73
     1
 44
1.0
  0
MTEXT
  5
55
330
1F
100
AcDbEntity
  8
0
  6
Continuous
 62
     7
370
     0
100
AcDbMText
 10
7.9301743649
 20
1.2499730493
 30
0.0
 40
0.0833333333
 41
0.0
 71
     1
 72
     1
  1
MATERIAL:
  7
SLDTEXTSTYLE0
 73
     1
 44
1.0
  0
MTEXT
  5
57
330
1F
100
AcDbEntity
  8
0
  6
Continuous
 62
     7
370
     0
100
AcDbMText
 10
8.9438302275
 20
0.7457341193
 30
0.0
 40
0.0833333333
 41
0.0
 71
     1
 72
     1
  1
PART  NO.
  7
SLDTEXTSTYLE1
 73
     1
 44
1.0
  0
MTEXT
  5
59
330
1F
100
AcDbEntity
  8
0
  6
Continuous
 62
     7
370
     0
100
AcDbMText
 10
6.3927073562
 20
1.1440291591
 30
0.0
 40
0.06
 41
0.0
 71
     1
 72
     1
  1
PROPRIETARY AND CONFIDENTIAL
  7
SLDTEXTSTYLE2
 73
     1
 44
1.0
  0
MTEXT
  5
5A
330
1F
100
AcDbEntity
  8
0
  6
Continuous
 62
     7
370
     0
100
AcDbMText
 10
6.4985660702
 20
1.5406501707
 30
0.0
 40
0.065
 41
0.0
 71
     1
 72
     1
  1
DRAWN
  7
SLDTEXTSTYLE0
 73
     1
 44
1.0
  0
MTEXT
  5
5B
330
1F
100
AcDbEntity
  8
0
  6
Continuous
 62
     7
370
     0
100
AcDbMText
 10
6.4369653776
 20
1.4183941661
 30
0.0
 40
0.065
 41
0.0
 71
     1
 72
     1
  1
ENG APPR.
  7
SLDTEXTSTYLE0
 73
     1
 44
1.0
  0
MTEXT
  5
5C
330
1F
100
AcDbEntity
  8
0
  6
Continuous
 62
     7
370
     0
100
AcDbMText
 10
6.4273055419
 20
1.298296273
 30
0.0
 40
0.065
 41
0.0
 71
     1
 72
     1
  1
MFG APPR.
  7
SLDTEXTSTYLE0
 73
     1
 44
1.0
  0
MTEXT
  5
5D
330
1F
100
AcDbEntity
  8
0
  6
Continuous
 62
     7
370
     0
100
AcDbMText
 10
6.9752663896
 20
1.6608078346
 30
0.0
 40
0.065
 41
0.0
 71
     1
 72
     1
  1
NAME
  7
SLDTEXTSTYLE0
 73
     1
 44
1.0
  0
MTEXT
  5
5E
330
1F
100
AcDbEntity
  8
0
  6
Continuous
 62
     7
370
     0
100
AcDbMText
 10
7.9386050459
 20
1.5661804433
 30
0.0
 40
0.1
 41
0.0
 71
     1
 72
     1
  1
TITLE:
  7
SLDTEXTSTYLE0
 73
     1
 44
1.0
  0
MTEXT
  5
5F
330
1F
100
AcDbEntity
  8
0
  6
Continuous
 62
     7
370
     0
100
AcDbMText
 10
10.0657693915
 20
1.2262994671
 30
0.0
 40
0.0833333333
 41
0.0
 71
     1
 72
     1
  1
SIZE
  7
SLDTEXTSTYLE0
 73
     1
 44
1.0
  0
MTEXT
  5
60
330
1F
100
AcDbEntity
  8
0
  6
Continuous
 62
     7
370
     0
100
AcDbMText
 10
10.1162261111
 20
1.1164461388
 30
0.0
 40
0.1041666667
 41
0.0
 71
     1
 72
     1
  1
A
  7
SLDTEXTSTYLE0
 73
     1
 44
1.0
  0
MTEXT
  5
61
330
1F
100
AcDbEntity
  8
0
  6
Continuous
 62
     7
370
     0
100
AcDbMText
 10
10.335100974
 20
1.2278993505
 30
0.0
 40
0.0833333333
 41
0.0
 71
     1
 72
     1
  1
REV.
  7
SLDTEXTSTYLE0
 73
     1
 44
1.0
  0
MTEXT
  5
62
330
1F
100
AcDbEntity
  8
0
  6
Continuous
 62
     7
370
     0
100
AcDbMText
 10
8.3227727705
 20
0.9309786574
 30
0.0
 40
0.0833333333
 41
0.0
 71
     1
 72
     1
  1
SCALE: 1:1
  7
SLDTEXTSTYLE0
 73
     1
 44
1.0
  0
MTEXT
  5
64
330
1F
100
AcDbEntity
  8
0
  6
Continuous
 62
     7
370
     0
100
AcDbMText
 10
9.6378279873
 20
0.926579063
 30
0.0
 40
0.0833333333
 41
0.0
 71
     1
 72
     1
  1
SHEET 1 OF 1
  7
SLDTEXTSTYLE3
 73
     1
 44
1.0
  0
MTEXT
  5
65
330
1F
100
AcDbEntity
  8
0
  6
Continuous
 62
     7
370
     0
100
AcDbMText
 10
7.9968963263
 20
0.6032387684
 30
0.0
 40
0.125
 41
0.0
 71
     1
 72
     1
  1
13298-E01
  7
SLDTEXTSTYLE0
 73
     1
 44
1.0
  0
INSERT
  5
75
330
1F
100
AcDbEntity
  8
0
  6
Continuous
 62
     7
370
     0
100
AcDbBlockReference
  2
SW_NOTE_0
 10
6.3891646717
 20
0.9312082413
 30
0.0
  0
MTEXT
  5
76
330
1F
100
AcDbEntity
  8
0
  6
Continuous
 62
     7
370
     0
100
AcDbMText
 10
7.9076399399
 20
0.7468305835
 30
0.0
 40
0.0833333333
 41
0.0
 71
     1
 72
     1
  1
DWG.  NO.
  7
SLDTEXTSTYLE1
 73
     1
 44
1.0
  0
MTEXT
  5
77
330
1F
100
AcDbEntity
  8
0
  6
Continuous
 62
     7
370
     0
100
AcDbMText
 10
7.0592138229
 20
1.5434434118
 30
0.0
 40
0.065
 41
0.0
 71
     1
 72
     1
  1
AP
  7
SLDTEXTSTYLE0
 73
     1
 44
1.0
  0
MTEXT
  5
78
330
1F
100
AcDbEntity
  8
0
  6
Continuous
 62
     7
370
     0
100
AcDbMText
 10
7.0628716471
 20
1.4267005168
 30
0.0
 40
0.065
 41
0.0
 71
     1
 72
     1
  1
DJ
  7
SLDTEXTSTYLE0
 73
     1
 44
1.0
  0
MTEXT
  5
79
330
1F
100
AcDbEntity
  8
0
  6
Continuous
 62
     7
370
     0
100
AcDbMText
 10
7.0636219211
 20
1.3041261123
 30
0.0
 40
0.065
 41
0.0
 71
     1
 72
     1
  1
DD
  7
SLDTEXTSTYLE0
 73
     1
 44
1.0
  0
MTEXT
  5
7A
330
1F
100
AcDbEntity
  8
0
  6
Continuous
 62
     7
370
     0
100
AcDbMText
 10
7.3775562039
 20
1.5451308061
 30
0.0
 40
0.065
 41
0.0
 71
     1
 72
     1
  1
10/26/2007
  7
SLDTEXTSTYLE0
 73
     1
 44
1.0
  0
MTEXT
  5
7B
330
1F
100
AcDbEntity
  8
0
  6
Continuous
 62
     7
370
     0
100
AcDbMText
 10
7.4731545031
 20
1.6582684693
 30
0.0
 40
0.065
 41
0.0
 71
     1
 72
     1
  1
DATE
  7
SLDTEXTSTYLE0
 73
     1
 44
1.0
  0
MTEXT
  5
7C
330
1F
100
AcDbEntity
  8
0
  6
Continuous
 62
     7
370
     0
100
AcDbMText
 10
7.3821011998
 20
1.4184142209
 30
0.0
 40
0.065
 41
0.0
 71
     1
 72
     1
  1
01/10/2008
  7
SLDTEXTSTYLE0
 73
     1
 44
1.0
  0
MTEXT
  5
7D
330
1F
100
AcDbEntity
  8
0
  6
Continuous
 62
     7
370
     0
100
AcDbMText
 10
7.3821011998
 20
1.2979456571
 30
0.0
 40
0.065
 41
0.0
 71
     1
 72
     1
  1
01/11/2008
  7
SLDTEXTSTYLE0
 73
     1
 44
1.0
  0
MTEXT
  5
7E
330
1F
100
AcDbEntity
  8
0
  6
Continuous
 62
     7
370
     0
100
AcDbMText
 10
7.9182509893
 20
1.8945248266
 30
0.0
 40
0.1875
 41
0.0
 71
     1
 72
     1
  1
THORLABS INC.
  7
SLDTEXTSTYLE0
 73
     1
 44
1.0
  0
INSERT
  5
85
330
1F
100
AcDbEntity
  8
0
  6
Continuous
 62
     7
370
     0
100
AcDbBlockReference
  2
SW_NOTE_1
 10
9.7899715108
 20
1.7882142597
 30
0.0
  0
MTEXT
  5
86
330
1F
100
AcDbEntity
  8
0
  6
Continuous
 62
     7
370
     0
100
AcDbMText
 10
0.7257045785
 20
2.1039704868
 30
0.0
 40
0.09
 41
0.0
 71
     1
 72
     1
  1
SPECIFICATIONS:
  7
SLDTEXTSTYLE0
 73
     1
 44
1.0
  0
INSERT
  5
96
330
1F
100
AcDbEntity
  8
0
  6
Continuous
 62
     7
370
     0
100
AcDbBlockReference
  2
SW_NOTE_2
 10
0.7066965232
 20
1.7976517907
 30
0.0
  0
INSERT
  5
9C
330
1F
100
AcDbEntity
  8
0
  6
Continuous
 62
     7
370
     0
100
AcDbBlockReference
  2
SW_NOTE_3
 10
8.3761943141
 20
1.4724817837
 30
0.0
  0
MTEXT
  5
9D
330
1F
100
AcDbEntity
  8
0
  6
Continuous
 62
     7
370
     0
100
AcDbMText
 10
8.5021403846
 20
1.1403464748
 30
0.0
 40
0.1041666667
 41
0.0
 71
     1
 72
     1
  1
SEE TABLE
  7
SLDTEXTSTYLE0
 73
     1
 44
1.0
  0
INSERT
  5
A4
330
1F
100
AcDbEntity
  8
0
  6
Continuous
 62
     7
370
     0
100
AcDbBlockReference
  2
SW_NOTE_4
 10
0.4001107216
 20
0.5376622624
 30
0.0
  0
INSERT
  5
C1
330
1F
100
AcDbEntity
  8
0
  6
Continuous
 62
     7
370
     0
100
AcDbBlockReference
  2
SW_TABLEANNOTATION_0
 10
0.3174104478
 20
8.1967910448
 30
0.0
  0
ARC
  5
C2
330
1F
100
AcDbEntity
  8
0
  6
Continuous
 62
     7
370
     0
100
AcDbCircle
 10
1.9523834365
 20
4.3814512656
 30
0.0
 40
0.500179491924311
100
AcDbArc
 50
26.3707605872
 51
204.6524396333
  0
SPLINE
  5
C3
330
1F
100
AcDbEntity
  8
0
  6
Continuous
 62
     7
370
     0
100
AcDbSpline
210
0.0
220
0.0
230
1.0
 70
    24
 71
     1
 72
     4
 73
     2
 74
     0
 42
0.00000001
 43
0.00000001
 40
0.0
 40
0.0
 40
1.0
 40
1.0
 10
1.497792934616827
 20
4.172819994068968
 30
0.0
 10
1.492582551474285
 20
4.170333472793474
 30
0.0
  0
SPLINE
  5
C4
330
1F
100
AcDbEntity
  8
0
  6
Continuous
 62
     7
370
     0
100
AcDbSpline
210
0.0
220
0.0
230
1.0
 70
    24
 71
     1
 72
     4
 73
     2
 74
     0
 42
0.00000001
 43
0.00000001
 40
0.0
 40
0.0
 40
1.0
 40
1.0
 10
2.40541202972359
 20
4.605957682092102
 30
0.0
 10
2.400513529644815
 20
4.603620007430452
 30
0.0
  0
LINE
  5
C5
330
1F
100
AcDbEntity
  8
0
  6
Continuous
 62
     7
370
     0
100
AcDbLine
 10
1.4977929346
 20
4.1728199941
 30
0.0
 11
1.5430854981
 21
4.1944347077
 31
0.0
  0
LINE
  5
C6
330
1F
100
AcDbEntity
  8
0
  6
Continuous
 62
     7
370
     0
100
AcDbLine
 10
2.4005135296
 20
4.6036200074
 30
0.0
 11
2.3552209662
 21
4.5820052938
 31
0.0
  0
ARC
  5
C7
330
1F
100
AcDbEntity
  8
0
  6
Continuous
 62
     7
370
     0
100
AcDbCircle
 10
1.9523834365
 20
4.3814512656
 30
0.0
 40
0.4499999999999998
100
AcDbArc
 50
26.4665739841
 51
204.5566262365
  0
ARC
  5
C8
330
1F
100
AcDbEntity
  8
0
  6
Continuous
 62
     7
370
     0
100
AcDbCircle
 10
1.9523834365
 20
4.3814512656
 30
0.0
 40
0.5001794919243115
100
AcDbArc
 50
206.3707605872
 51
24.6524396333
  0
SPLINE
  5
C9
330
1F
100
AcDbEntity
  8
0
  6
Continuous
 62
     7
370
     0
100
AcDbSpline
210
0.0
220
0.0
230
1.0
 70
    24
 71
     1
 72
     4
 73
     2
 74
     0
 42
0.00000001
 43
0.00000001
 40
0.0
 40
0.0
 40
1.0
 40
1.0
 10
2.406973938346955
 20
4.590082537149797
 30
0.0
 10
2.412188024780051
 20
4.59257081840496
 30
0.0
  0
SPLINE
  5
CA
330
1F
100
AcDbEntity
  8
0
  6
Continuous
 62
     7
370
     0
100
AcDbSpline
210
0.0
220
0.0
230
1.0
 70
    24
 71
     1
 72
     4
 73
     2
 74
     0
 42
0.00000001
 43
0.00000001
 40
0.0
 40
0.0
 40
1.0
 40
1.0
 10
1.499332146835716
 20
4.15693401425183
 30
0.0
 10
1.504253343318968
 20
4.159282523788313
 30
0.0
  0
LINE
  5
CB
330
1F
100
AcDbEntity
  8
0
  6
Continuous
 62
     7
370
     0
100
AcDbLine
 10
1.5042533433
 20
4.1592825238
 30
0.0
 11
1.5495459068
 21
4.1808972374
 31
0.0
  0
LINE
  5
CC
330
1F
100
AcDbEntity
  8
0
  6
Continuous
 62
     7
370
     0
100
AcDbLine
 10
2.4069739383
 20
4.5900825371
 30
0.0
 11
2.3616813749
 21
4.5684678235
 31
0.0
  0
ARC
  5
CD
330
1F
100
AcDbEntity
  8
0
  6
Continuous
 62
     7
370
     0
100
AcDbCircle
 10
1.9523834365
 20
4.3814512656
 30
0.0
 40
0.4499999999999995
100
AcDbArc
 50
206.4665739841
 51
24.5566262365
  0
ARC
  5
CE
330
1F
100
AcDbEntity
  8
0
  6
Continuous
 62
     7
370
     0
100
AcDbCircle
 10
1.9523834365
 20
4.3814512656
 30
0.0
 40
0.4499999999999998
100
AcDbArc
 50
204.5566262365
 51
206.4665739841
  0
ARC
  5
CF
330
1F
100
AcDbEntity
  8
0
  6
Continuous
 62
     7
370
     0
100
AcDbCircle
 10
1.9523834365
 20
4.3814512656
 30
0.0
 40
0.4499999999999984
100
AcDbArc
 50
24.5566262365
 51
26.4665739841
  0
CIRCLE
  5
D0
330
1F
100
AcDbEntity
  8
0
  6
Continuous
 62
     7
370
     0
100
AcDbCircle
 10
1.9523834365
 20
4.3814512656
 30
0.0
 40
0.5900000000000015
  0
CIRCLE
  5
D1
330
1F
100
AcDbEntity
  8
0
  6
Continuous
 62
     7
370
     0
100
AcDbCircle
 10
1.9523834365
 20
4.3814512656
 30
0.0
 40
0.6000000000000016
  0
CIRCLE
  5
D2
330
1F
100
AcDbEntity
  8
0
  6
Continuous
 62
     7
370
     0
100
AcDbCircle
 10
1.9523834365
 20
4.3814512656
 30
0.0
 40
0.5060000000000008
  0
CIRCLE
  5
D3
330
1F
100
AcDbEntity
  8
0
  6
Continuous
 62
     7
370
     0
100
AcDbCircle
 10
1.9523834365
 20
4.3814512656
 30
0.0
 40
0.5160000000000003
  0
DIMENSION
  5
D4
330
1F
100
AcDbEntity
  8
0
  6
Continuous
 62
     7
370
     0
100
AcDbDimension
  2
*D7
 10
2.377589689
 20
3.9581314777
 30
0.0
 11
0.682514769
 21
5.1217442685
 31
0.0
 70
   163
  1
<>
 71
     1
 42
-1.0
  3
SLDDIMSTYLE0
100
AcDbDiametricDimension
 15
1.5271771839
 25
4.8047710535
 35
0.0
 40
0.0
  0
LINE
  5
E5
330
1F
100
AcDbEntity
  8
0
  6
PHANTOM
 62
     7
370
     0
100
AcDbLine
 10
1.9523834365
 20
5.3107150693
 30
0.0
 11
1.9523834365
 21
3.4751322472
 31
0.0
  0
LINE
  5
E6
330
1F
100
AcDbEntity
  8
0
  6
Continuous
 62
     7
370
     0
100
AcDbLine
 10
1.9523834365
 20
5.3107150693
 30
0.0
 11
1.5523834365
 21
5.3107150693
 31
0.0
  0
SOLID
  5
E7
330
1F
100
AcDbEntity
  8
0
  6
Continuous
 62
     7
370
     0
100
AcDbTrace
 10
1.5523834365
 20
5.3107150693
 30
0.0
 11
1.7273834365
 21
5.2732150693
 31
0.0
 12
1.7273834365
 22
5.3482150693
 32
0.0
 13
1.7273834365
 23
5.3482150693
 33
0.0
  0
LINE
  5
E8
330
1F
100
AcDbEntity
  8
0
  6
Continuous
 62
     7
370
     0
100
AcDbLine
 10
1.9523834365
 20
3.4751322472
 30
0.0
 11
1.5523834365
 21
3.4751322472
 31
0.0
  0
SOLID
  5
E9
330
1F
100
AcDbEntity
  8
0
  6
Continuous
 62
     7
370
     0
100
AcDbTrace
 10
1.5523834365
 20
3.4751322472
 30
0.0
 11
1.7273834365
 21
3.4376322472
 31
0.0
 12
1.7273834365
 22
3.5126322472
 32
0.0
 13
1.7273834365
 23
3.5126322472
 33
0.0
  0
MTEXT
  5
EA
330
1F
100
AcDbEntity
  8
0
  6
Continuous
 62
     7
100
AcDbMText
 10
1.3916507517
 20
5.4098905557
 30
0.0
 40
0.125
 41
0.0
 71
     1
 72
     1
  1
A
  7
SLDTEXTSTYLE0
 73
     1
 44
1.0
  0
MTEXT
  5
EB
330
1F
100
AcDbEntity
  8
0
  6
Continuous
 62
     7
100
AcDbMText
 10
1.3916507517
 20
3.5743077336
 30
0.0
 40
0.125
 41
0.0
 71
     1
 72
     1
  1
A
  7
SLDTEXTSTYLE0
 73
     1
 44
1.0
  0
LINE
  5
EC
330
1F
100
AcDbEntity
  8
0
  6
Continuous
 62
     7
370
     0
100
AcDbLine
 10
4.318736291
 20
7.0302609755
 30
0.0
 11
4.318736291
 21
7.0220968944
 31
0.0
  0
LINE
  5
ED
330
1F
100
AcDbEntity
  8
0
  6
Continuous
 62
     7
370
     0
100
AcDbLine
 10
4.7358614863
 20
6.2995365721
 30
0.0
 11
4.7429314048
 21
6.2954538681
 31
0.0
  0
LINE
  5
EE
330
1F
100
AcDbEntity
  8
0
  6
Continuous
 62
     7
370
     0
100
AcDbLine
 10
5.3375148181
 20
7.8213459902
 30
0.0
 11
4.4430247399
 21
7.3049678594
 31
0.0
  0
LINE
  5
EF
330
1F
100
AcDbEntity
  8
0
  6
Continuous
 62
     7
370
     0
100
AcDbLine
 10
5.0429759795
 20
6.2657092246
 30
0.0
 11
5.9374660577
 21
6.7820873553
 31
0.0
  0
LINE
  5
F0
330
1F
100
AcDbEntity
  8
0
  6
Continuous
 62
     7
370
     0
100
AcDbLine
 10
6.0617545066
 20
7.0567942392
 30
0.0
 11
6.0617545066
 21
7.0649583203
 31
0.0
  0
LINE
  5
F1
330
1F
100
AcDbEntity
  8
0
  6
Continuous
 62
     7
370
     0
100
AcDbLine
 10
5.6446293113
 20
7.7875186426
 30
0.0
 11
5.6375593927
 21
7.7916013466
 31
0.0
  0
LWPOLYLINE
  5
F2
330
1F
100
AcDbEntity
  8
0
  6
Continuous
 62
     7
370
     0
100
AcDbPolyline
 90
      136
 70
   128
 43
0.0
 10
5.1492434518
 20
6.4771139374
 10
5.1514365355
 20
6.4981244692
 10
5.152729723
 20
6.519748202
 10
5.1531202135
 20
6.5419383035
 10
5.1526071615
 20
6.5646467149
 10
5.1511916779
 20
6.5878242549
 10
5.1488768285
 20
6.6114207261
 10
5.1456676267
 20
6.6353850237
 10
5.1415710228
 20
6.6596652465
 10
5.1365958894
 20
6.6842088089
 10
5.1307530013
 20
6.7089625549
 10
5.1240550129
 20
6.7338728736
 10
5.1165164307
 20
6.7588858146
 10
5.1081535815
 20
6.7839472056
 10
5.0989845773
 20
6.8090027691
 10
5.0890292762
 20
6.8339982403
 10
5.0783092392
 20
6.8588794847
 10
5.0668476835
 20
6.883592615
 10
5.0546694323
 20
6.9080841081
 10
5.0418008608
 20
6.9323009208
 10
5.0282698397
 20
6.9561906049
 10
5.014105674
 20
6.9797014207
 10
4.9993390402
 20
7.002782449
 10
4.9840019196
 20
7.0253837015
 10
4.9681275289
 20
7.0474562288
 10
4.9517502485
 20
7.0689522267
 10
4.934905548
 20
7.0898251398
 10
4.9176299092
 20
7.1100297619
 10
4.8999607474
 20
7.1295223343
 10
4.8819363299
 20
7.1482606405
 10
4.8635956937
 20
7.1662040975
 10
4.8449785605
 20
7.1833138437
 10
4.8261252509
 20
7.1995528232
 10
4.8070765969
 20
7.214885866
 10
4.7878738537
 20
7.2292797642
 10
4.7685586101
 20
7.2427033437
 10
4.7491726987
 20
7.2551275322
 10
4.7297581051
 20
7.2665254215
 10
4.7103568768
 20
7.2768723264
 10
4.6910110327
 20
7.2861458378
 10
4.6717624716
 20
7.2943258713
 10
4.6526528815
 20
7.3013947108
 10
4.6337236495
 20
7.3073370467
 10
4.6150157722
 20
7.3121400093
 10
4.5965697667
 20
7.3157931965
 10
4.5784255829
 20
7.3182886963
 10
4.560622517
 20
7.3196211038
 10
4.5431991266
 20
7.3197875336
 10
4.5261931468
 20
7.318787625
 10
4.5096414088
 20
7.3166235437
 10
4.4935797599
 20
7.3132999766
 10
4.4780429862
 20
7.3088241218
 10
4.4630647368
 20
7.3032056731
 10
4.4486774512
 20
7.2964567986
 10
4.4349122892
 20
7.2885921151
 10
4.421799063
 20
7.2796286555
 10
4.4093661729
 20
7.2695858329
 10
4.3976405458
 20
7.2584853977
 10
4.3866475767
 20
7.2463513909
 10
4.3764110741
 20
7.2332100922
 10
4.366953208
 20
7.2190899626
 10
4.3582944618
 20
7.2040215833
 10
4.3504535886
 20
7.1880375889
 10
4.3434475699
 20
7.1711725973
 10
4.3372915793
 20
7.1534631342
 10
4.3319989491
 20
7.1349475545
 10
4.3275811422
 20
7.1156659587
 10
4.3240477264
 20
7.0956601064
 10
4.3214063543
 20
7.074973326
 10
4.3196627467
 20
7.0536504204
 10
4.3188206796
 20
7.0317375701
 10
4.318881977
 20
7.0092822337
 10
4.319846506
 20
6.9863330443
 10
4.3217121776
 20
6.9629397047
 10
4.3244749513
 20
6.9391528798
 10
4.3281288434
 20
6.9150240865
 10
4.3326659405
 20
6.8906055824
 10
4.3380764162
 20
6.8659502526
 10
4.3443485527
 20
6.8411114949
 10
4.3514687658
 20
6.8161431046
 10
4.3594216349
 20
6.7910991578
 10
4.3681899357
 20
6.7660338939
 10
4.377754678
 20
6.7410015988
 10
4.3880951468
 20
6.7160564869
 10
4.3991889469
 20
6.6912525837
 10
4.4110120516
 20
6.6666436089
 10
4.4235388547
 20
6.6422828601
 10
4.4367422259
 20
6.6182230973
 10
4.4505935697
 20
6.5945164285
 10
4.4650628871
 20
6.5712141972
 10
4.4801188409
 20
6.5483668707
 10
4.4957288231
 20
6.5260239313
 10
4.511859026
 20
6.5042337688
 10
4.5284745153
 20
6.4830435759
 10
4.5455393053
 20
6.4624992457
 10
4.5630164378
 20
6.4426452728
 10
4.5808680609
 20
6.4235246564
 10
4.5990555121
 20
6.4051788075
 10
4.6175394015
 20
6.3876474592
 10
4.636279697
 20
6.3709685804
 10
4.6552358114
 20
6.3551782939
 10
4.6743666898
 20
6.3403107979
 10
4.6936308991
 20
6.3263982921
 10
4.7129867174
 20
6.3134709079
 10
4.7323922241
 20
6.3015566431
 10
4.7518053914
 20
6.2906813014
 10
4.7711841745
 20
6.2808684363
 10
4.7904866035
 20
6.2721393004
 10
4.8096708734
 20
6.264512799
 10
4.8286954355
 20
6.2580054493
 10
4.8475190868
 20
6.2526313449
 10
4.8661010594
 20
6.2484021249
 10
4.884401109
 20
6.2453269488
 10
4.9023796017
 20
6.2434124768
 10
4.9199976
 20
6.2426628552
 10
4.9372169474
 20
6.2430797075
 10
4.9540003506
 20
6.2446621309
 10
4.9703114604
 20
6.2474066982
 10
4.9861149506
 20
6.2513074653
 10
5.0013765944
 20
6.256355984
 10
5.0160633385
 20
6.2625413203
 10
5.0301433746
 20
6.2698500782
 10
5.0435862085
 20
6.2782664286
 10
5.056362726
 20
6.2877721434
 10
5.068445256
 20
6.2983466355
 10
5.0798076306
 20
6.3099670028
 10
5.0904252412
 20
6.3226080782
 10
5.1002750925
 20
6.336242484
 10
5.109335852
 20
6.3508406911
 10
5.117587896
 20
6.3663710829
 10
5.1250133524
 20
6.3828000242
 10
5.1315961394
 20
6.4000919335
 10
5.1373220001
 20
6.4182093603
 10
5.1421785336
 20
6.4371130664
 10
5.1461552217
 20
6.4567621106
 10
5.1492434518
 20
6.4771139374
  0
LWPOLYLINE
  5
F3
330
1F
100
AcDbEntity
  8
0
  6
Continuous
 62
     7
370
     0
100
AcDbPolyline
 90
       33
 70
   128
 43
0.0
 10
5.1633198444
 20
6.4760410192
 10
5.1602056707
 20
6.4554938742
 10
5.1562011599
 20
6.4356506343
 10
5.1513148578
 20
6.416553646
 10
5.1455571919
 20
6.3982436632
 10
5.1389404495
 20
6.3807597605
 10
5.1314787509
 20
6.3641392492
 10
5.1231880199
 20
6.3484175985
 10
5.1140859493
 20
6.3336283591
 10
5.1041919633
 20
6.319803092
 10
5.0935271762
 20
6.306971301
 10
5.0821143473
 20
6.2951603697
 10
5.069977832
 20
6.2843955035
 10
5.0571435303
 20
6.2746996749
 10
5.0436388312
 20
6.2660935753
 10
5.0294925545
 20
6.2585955707
 10
5.0147348891
 20
6.2522216622
 10
4.9993973284
 20
6.2469854519
 10
4.9835126037
 20
6.2428981143
 10
4.9671146137
 20
6.2399683718
 10
4.9502383526
 20
6.2382024768
 10
4.9329198352
 20
6.2376041978
 10
4.9151960201
 20
6.2381748114
 10
4.8971047307
 20
6.2399131
 10
4.8786845749
 20
6.242815354
 10
4.8599748621
 20
6.2468753798
 10
4.8410155198
 20
6.2520845131
 10
4.8218470082
 20
6.2584316374
 10
4.802510234
 20
6.2659032076
 10
4.7830464626
 20
6.274483279
 10
4.7634972308
 20
6.2841535412
 10
4.7439042577
 20
6.2948933575
 10
4.7429314048
 20
6.2954538681
  0
LWPOLYLINE
  5
F4
330
1F
100
AcDbEntity
  8
0
  6
Continuous
 62
     7
370
     0
100
AcDbPolyline
 90
       73
 70
   128
 43
0.0
 10
4.318736291
 20
7.0302609755
 10
4.3191482081
 20
7.0516068624
 10
4.3204636843
 20
7.0734288632
 10
4.322680875
 20
7.0946360648
 10
4.3257950486
 20
7.1151832098
 10
4.3297995594
 20
7.1350264497
 10
4.3346858616
 20
7.154123438
 10
4.3404435275
 20
7.1724334208
 10
4.3470602699
 20
7.1899173235
 10
4.3545219684
 20
7.2065378348
 10
4.3628126994
 20
7.2222594855
 10
4.3719147701
 20
7.2370487249
 10
4.381808756
 20
7.250873992
 10
4.3924735431
 20
7.263705783
 10
4.4038863721
 20
7.2755167143
 10
4.4160228874
 20
7.2862815805
 10
4.428857189
 20
7.2959774091
 10
4.4423618881
 20
7.3045835087
 10
4.4565081648
 20
7.3120815133
 10
4.4712658303
 20
7.3184554218
 10
4.486603391
 20
7.3236916321
 10
4.5024881157
 20
7.3277789697
 10
4.5188861056
 20
7.3307087121
 10
4.5357623667
 20
7.3324746071
 10
4.5530808841
 20
7.3330728862
 10
4.5708046993
 20
7.3325022726
 10
4.5888959886
 20
7.330763984
 10
4.6073161445
 20
7.32786173
 10
4.6260258572
 20
7.3238017042
 10
4.6449851995
 20
7.3185925709
 10
4.6641537111
 20
7.3122454466
 10
4.6834904854
 20
7.3047738764
 10
4.7029542568
 20
7.296193805
 10
4.7225034885
 20
7.2865235428
 10
4.7420964616
 20
7.2757837265
 10
4.7616913637
 20
7.2639972754
 10
4.7812463783
 20
7.2511893425
 10
4.8007197739
 20
7.2373872605
 10
4.8200699933
 20
7.2226204838
 10
4.8392557423
 20
7.2069205254
 10
4.8582360775
 20
7.1903208898
 10
4.8769704938
 20
7.1728570014
 10
4.8954190111
 20
7.1545661291
 10
4.9135422593
 20
7.1354873066
 10
4.9313015625
 20
7.1156612489
 10
4.9486590215
 20
7.0951302659
 10
4.9655775945
 20
7.0739381718
 10
4.9820211765
 20
7.0521301915
 10
4.997954676
 20
7.0297528644
 10
5.0133440901
 20
7.0068539448
 10
5.0281565771
 20
6.9834823002
 10
5.0423605264
 20
6.9596878068
 10
5.055925626
 20
6.9355212433
 10
5.0688229273
 20
6.9110341823
 10
5.0810249068
 20
6.8862788805
 10
5.0925055249
 20
6.861308167
 10
5.1032402813
 20
6.8361753304
 10
5.1132062676
 20
6.8109340056
 10
5.1223822159
 20
6.7856380587
 10
5.1307485441
 20
6.7603414727
 10
5.1382873982
 20
6.7350982317
 10
5.1449826898
 20
6.709962206
 10
5.1508201309
 20
6.6849870373
 10
5.155787264
 20
6.6602260237
 10
5.1598734891
 20
6.6357320065
 10
5.1630700859
 20
6.6115572572
 10
5.1653702327
 20
6.5877533659
 10
5.1667690209
 20
6.5643711314
 10
5.1672634655
 20
6.5414604524
 10
5.1668525112
 20
6.5190702216
 10
5.1655370351
 20
6.4972482208
 10
5.1633198444
 20
6.4760410192
 10
5.1633198444
 20
6.4760410192
  0
LINE
  5
F5
330
1F
100
AcDbEntity
  8
0
  6
Continuous
 62
     7
370
     0
100
AcDbLine
 10
5.6778675842
 20
7.6640505591
 30
0.0
 11
5.6903567429
 21
7.6712603969
 31
0.0
  0
ARC
  5
F6
330
1F
100
AcDbEntity
  8
0
  6
Continuous
 62
     7
370
     0
100
AcDbCircle
 10
5.1153617089
 20
7.0410860548
 30
0.0
 40
0.8393435728725797
100
AcDbArc
 50
44.1550423214
 51
47.9195378822
  0
LINE
  5
F7
330
1F
100
AcDbEntity
  8
0
  6
Continuous
 62
     7
370
     0
100
AcDbLine
 10
5.7300441454
 20
7.6329846043
 30
0.0
 11
5.7175549866
 21
7.6257747665
 31
0.0
  0
ARC
  5
F8
330
1F
100
AcDbEntity
  8
0
  6
Continuous
 62
     7
370
     0
100
AcDbCircle
 10
5.1278508676
 20
7.0482958927
 30
0.0
 40
0.8393435728725865
100
AcDbArc
 50
44.1550423214
 51
47.9195378822
  0
SPLINE
  5
F9
330
1F
100
AcDbEntity
  8
0
  6
Continuous
 62
     7
370
     0
100
AcDbSpline
210
0.0
220
0.0
230
1.0
 70
    24
 71
     1
 72
     4
 73
     2
 74
     0
 42
0.00000001
 43
0.00000001
 40
0.0
 40
0.0
 40
1.0
 40
1.0
 10
5.650875390334172
 20
7.686534375395613
 30
0.0
 10
5.656718373578729
 20
7.685082825937921
 30
0.0
  0
SPLINE
  5
FA
330
1F
100
AcDbEntity
  8
0
  6
Continuous
 62
     7
370
     0
100
AcDbSpline
210
0.0
220
0.0
230
1.0
 70
    24
 71
     1
 72
     4
 73
     2
 74
     0
 42
0.00000001
 43
0.00000001
 40
0.0
 40
0.0
 40
1.0
 40
1.0
 10
5.645607454567373
 20
7.689557943175149
 30
0.0
 10
5.650875390334172
 20
7.686534375395613
 30
0.0
  0
SPLINE
  5
FB
330
1F
100
AcDbEntity
  8
0
  6
Continuous
 62
     7
370
     0
100
AcDbSpline
210
0.0
220
0.0
230
1.0
 70
     8
 71
     3
 72
    13
 73
     9
 74
     0
 42
0.00000001
 43
0.00000001
 40
0.0
 40
0.0
 40
0.0
 40
0.0
 40
0.2498441747938024
 40
0.3817947059274834
 40
0.4998701509663093
 40
0.6229414449907784
 40
0.7501704474545782
 40
1.0
 40
1.0
 40
1.0
 40
1.0
 10
5.645774364913574
 20
7.700455172037846
 30
0.0
 10
5.644754276736593
 20
7.699783722309491
 30
0.0
 10
5.64319544805519
 20
7.698757658957031
 30
0.0
 10
5.642012665994351
 20
7.696946952997576
 30
0.0
 10
5.641720093414894
 20
7.695430255148593
 30
0.0
 10
5.642062565323441
 20
7.693879027576353
 30
0.0
 10
5.643119621512258
 20
7.691811736784538
 30
0.0
 10
5.644615994988738
 20
7.690456132568404
 30
0.0
 10
5.645607454567373
 20
7.689557943175149
 30
0.0
  0
ARC
  5
FC
330
1F
100
AcDbEntity
  8
0
  6
Continuous
 62
     7
370
     0
100
AcDbCircle
 10
5.6526732274
 20
7.6884578955
 30
0.0
 40
0.0138393983867214
100
AcDbArc
 50
48.9673294757
 51
119.9004394892
  0
SPLINE
  5
FD
330
1F
100
AcDbEntity
  8
0
  6
Continuous
 62
     7
370
     0
100
AcDbSpline
210
0.0
220
0.0
230
1.0
 70
     8
 71
     3
 72
    13
 73
     9
 74
     0
 42
0.00000001
 43
0.00000001
 40
0.0
 40
0.0
 40
0.0
 40
0.0
 40
0.2497059556549228
 40
0.3754902122107949
 40
0.4999844705107443
 40
0.7494478519748415
 40
0.8746685414676589
 40
1.0
 40
1.0
 40
1.0
 40
1.0
 10
5.663152912148368
 20
7.68849699253846
 30
0.0
 10
5.663853812768384
 20
7.689234230810277
 30
0.0
 10
5.6649077777083
 20
7.690342837749222
 30
0.0
 10
5.665403173213875
 20
7.692162403120632
 30
0.0
 10
5.66536362785462
 20
7.694055561106597
 30
0.0
 10
5.664525496195477
 20
7.695972356834989
 30
0.0
 10
5.663121799900583
 20
7.697721085113021
 30
0.0
 10
5.662213163083291
 20
7.69850520825217
 30
0.0
 10
5.661758643820595
 20
7.698897443152062
 30
0.0
  0
SPLINE
  5
FE
330
1F
100
AcDbEntity
  8
0
  6
Continuous
 62
     7
370
     0
100
AcDbSpline
210
0.0
220
0.0
230
1.0
 70
    24
 71
     1
 72
     4
 73
     2
 74
     0
 42
0.00000001
 43
0.00000001
 40
0.0
 40
0.0
 40
1.0
 40
1.0
 10
5.679618280344727
 20
7.676507254084887
 30
0.0
 10
5.663152912148368
 20
7.68849699253846
 30
0.0
  0
SPLINE
  5
FF
330
1F
100
AcDbEntity
  8
0
  6
Continuous
 62
     7
370
     0
100
AcDbSpline
210
0.0
220
0.0
230
1.0
 70
     8
 71
     3
 72
    12
 73
     8
 74
     0
 42
0.00000001
 43
0.00000001
 40
0.0
 40
0.0
 40
0.0
 40
0.0
 40
0.2504168115017486
 40
0.4997978941598364
 40
0.6250016503732547
 40
0.7501548209131088
 40
1.0
 40
1.0
 40
1.0
 40
1.0
 10
5.672598458045043
 20
7.705404966717065
 30
0.0
 10
5.675071618467954
 20
7.703255994915946
 30
0.0
 10
5.680007710273763
 20
7.698966939503222
 30
0.0
 10
5.683930090962014
 20
7.692434389478491
 30
0.0
 10
5.684551189989801
 20
7.687124614136682
 30
0.0
 10
5.683859444943756
 20
7.681914688263624
 30
0.0
 10
5.681314120151154
 20
7.678669429571555
 30
0.0
 10
5.679618280344727
 20
7.676507254084887
 30
0.0
  0
ARC
  5
100
330
1F
100
AcDbEntity
  8
0
  6
Continuous
 62
     7
370
     0
100
AcDbCircle
 10
5.6465898341
 20
7.6768992521
 30
0.0
 40
0.0385878774351442
100
AcDbArc
 50
47.6226643477
 51
116.7542077581
  0
SPLINE
  5
101
330
1F
100
AcDbEntity
  8
0
  6
Continuous
 62
     7
370
     0
100
AcDbSpline
210
0.0
220
0.0
230
1.0
 70
     8
 71
     3
 72
    13
 73
     9
 74
     0
 42
0.00000001
 43
0.00000001
 40
0.0
 40
0.0
 40
0.0
 40
0.0
 40
0.2498089441006439
 40
0.3754926331966979
 40
0.5002625661611696
 40
0.6265425410112999
 40
0.7507234029547117
 40
1.0
 40
1.0
 40
1.0
 40
1.0
 10
5.63016112829349
 20
7.686756684088977
 30
0.0
 10
5.627950236082023
 20
7.688752372431637
 30
0.0
 10
5.624627001434896
 20
7.691752130000457
 30
0.0
 10
5.622297916574955
 20
7.696307524386624
 30
0.0
 10
5.621570364431157
 20
7.699782218148483
 30
0.0
 10
5.621903030444885
 20
7.703158858196368
 30
0.0
 10
5.623697929058837
 20
7.707427285336312
 30
0.0
 10
5.627008925436571
 20
7.709783442873743
 30
0.0
 10
5.629218960046955
 20
7.711356138555398
 30
0.0
  0
SPLINE
  5
102
330
1F
100
AcDbEntity
  8
0
  6
Continuous
 62
     7
370
     0
100
AcDbSpline
210
0.0
220
0.0
230
1.0
 70
     8
 71
     3
 72
     9
 73
     5
 74
     0
 42
0.00000001
 43
0.00000001
 40
0.0
 40
0.0
 40
0.0
 40
0.0
 40
0.5003482590474687
 40
1.0
 40
1.0
 40
1.0
 40
1.0
 10
5.642939017985819
 20
7.68026868270791
 30
0.0
 10
5.640579488996435
 20
7.681114035992411
 30
0.0
 10
5.635863715639141
 20
7.682803565773351
 30
0.0
 10
5.632061107880337
 20
7.685439589996625
 30
0.0
 10
5.63016112829349
 20
7.686756684088977
 30
0.0
  0
SPLINE
  5
103
330
1F
100
AcDbEntity
  8
0
  6
Continuous
 62
     7
370
     0
100
AcDbSpline
210
0.0
220
0.0
230
1.0
 70
    24
 71
     1
 72
     4
 73
     2
 74
     0
 42
0.00000001
 43
0.00000001
 40
0.0
 40
0.0
 40
1.0
 40
1.0
 10
5.632790506165319
 20
7.67647150763869
 30
0.0
 10
5.642939017985819
 20
7.68026868270791
 30
0.0
  0
ARC
  5
104
330
1F
100
AcDbEntity
  8
0
  6
Continuous
 62
     7
370
     0
100
AcDbCircle
 10
5.1742883786
 20
7.1193286197
 30
0.0
 40
0.7215486113698799
100
AcDbArc
 50
50.5472424907
 51
52.997959478
  0
LINE
  5
105
330
1F
100
AcDbEntity
  8
0
  6
Continuous
 62
     7
370
     0
100
AcDbLine
 10
5.5953238801
 20
7.6879335517
 30
0.0
 11
5.6085476952
 21
7.6955674977
 31
0.0
  0
ARC
  5
106
330
1F
100
AcDbEntity
  8
0
  6
Continuous
 62
     7
370
     0
100
AcDbCircle
 10
5.1536089926
 20
7.1021583615
 30
0.0
 40
0.7336515625862886
100
AcDbArc
 50
49.3688815238
 51
52.9811876855
  0
SPLINE
  5
107
330
1F
100
AcDbEntity
  8
0
  6
Continuous
 62
     7
370
     0
100
AcDbSpline
210
0.0
220
0.0
230
1.0
 70
    24
 71
     1
 72
     4
 73
     2
 74
     0
 42
0.00000001
 43
0.00000001
 40
0.0
 40
0.0
 40
1.0
 40
1.0
 10
5.668209155026743
 20
7.673020659494844
 30
0.0
 10
5.631352983361941
 20
7.658939552426261
 30
0.0
  0
SPLINE
  5
108
330
1F
100
AcDbEntity
  8
0
  6
Continuous
 62
     7
370
     0
100
AcDbSpline
210
0.0
220
0.0
230
1.0
 70
    24
 71
     1
 72
     4
 73
     2
 74
     0
 42
0.00000001
 43
0.00000001
 40
0.0
 40
0.0
 40
1.0
 40
1.0
 10
5.656718373578729
 20
7.685082825937921
 30
0.0
 10
5.668209155026743
 20
7.673020659494844
 30
0.0
  0
LINE
  5
109
330
1F
100
AcDbEntity
  8
0
  6
Continuous
 62
     7
370
     0
100
AcDbLine
 10
5.5520887394
 20
7.7595704864
 30
0.0
 11
5.5727968665
 21
7.7715250338
 31
0.0
  0
ARC
  5
10A
330
1F
100
AcDbEntity
  8
0
  6
Continuous
 62
     7
370
     0
100
AcDbCircle
 10
5.5430926503
 20
7.7722794826
 30
0.0
 40
0.0155707482641205
100
AcDbArc
 50
246.5059256946
 51
305.2928471951
  0
SPLINE
  5
10B
330
1F
100
AcDbEntity
  8
0
  6
Continuous
 62
     7
370
     0
100
AcDbSpline
210
0.0
220
0.0
230
1.0
 70
     8
 71
     3
 72
    11
 73
     7
 74
     0
 42
0.00000001
 43
0.00000001
 40
0.0
 40
0.0
 40
0.0
 40
0.0
 40
0.2500620333659275
 40
0.4999138376966905
 40
0.7498401673007691
 40
1.0
 40
1.0
 40
1.0
 40
1.0
 10
5.535389542639424
 20
7.762463583089839
 30
0.0
 10
5.535125485921912
 20
7.762071335535351
 30
0.0
 10
5.53459759448136
 20
7.761287170191849
 30
0.0
 10
5.534658089825307
 20
7.760045129247577
 30
0.0
 10
5.535396967480813
 20
7.758887145422178
 30
0.0
 10
5.536389038589527
 20
7.758295493187709
 30
0.0
 10
5.536885305755646
 20
7.757999528941649
 30
0.0
  0
SPLINE
  5
10C
330
1F
100
AcDbEntity
  8
0
  6
Continuous
 62
     7
370
     0
100
AcDbSpline
210
0.0
220
0.0
230
1.0
 70
    24
 71
     1
 72
     4
 73
     2
 74
     0
 42
0.00000001
 43
0.00000001
 40
0.0
 40
0.0
 40
1.0
 40
1.0
 10
5.538707616147418
 20
7.764725997376141
 30
0.0
 10
5.535389542639424
 20
7.762463583089839
 30
0.0
  0
LINE
  5
10D
330
1F
100
AcDbEntity
  8
0
  6
Continuous
 62
     7
370
     0
100
AcDbLine
 10
5.5610572412
 20
7.7776281613
 30
0.0
 11
5.5387076161
 21
7.7647259974
 31
0.0
  0
ARC
  5
10E
330
1F
100
AcDbEntity
  8
0
  6
Continuous
 62
     7
370
     0
100
AcDbCircle
 10
5.3369109894
 20
7.3329234309
 30
0.0
 40
0.497999838749888
100
AcDbArc
 50
63.2503477768
 51
65.2147362249
  0
LINE
  5
10F
330
1F
100
AcDbEntity
  8
0
  6
Continuous
 62
     7
370
     0
100
AcDbLine
 10
5.5246866784
 20
7.7729299642
 30
0.0
 11
5.5456817807
 21
7.7850501787
 31
0.0
  0
ARC
  5
110
330
1F
100
AcDbEntity
  8
0
  6
Continuous
 62
     7
370
     0
100
AcDbCircle
 10
5.515426505
 20
7.7861515135
 30
0.0
 40
0.0161418764889738
100
AcDbArc
 50
249.7798403706
 51
305.0068179738
  0
ARC
  5
111
330
1F
100
AcDbEntity
  8
0
  6
Continuous
 62
     7
370
     0
100
AcDbCircle
 10
5.5105737024
 20
7.7736486877
 30
0.0
 40
0.0027421808322399
100
AcDbArc
 50
172.2036912528
 51
254.6414926103
  0
SPLINE
  5
112
330
1F
100
AcDbEntity
  8
0
  6
Continuous
 62
     7
370
     0
100
AcDbSpline
210
0.0
220
0.0
230
1.0
 70
     8
 71
     3
 72
     9
 73
     5
 74
     0
 42
0.00000001
 43
0.00000001
 40
0.0
 40
0.0
 40
0.0
 40
0.0
 40
0.5015771373280867
 40
1.0
 40
1.0
 40
1.0
 40
1.0
 10
5.510827498942989
 20
7.776871965222559
 30
0.0
 10
5.510108218006905
 20
7.776442170953032
 30
0.0
 10
5.508674179486096
 20
7.775585285266784
 30
0.0
 10
5.508128732157108
 20
7.774541110067895
 30
0.0
 10
5.507856868737957
 20
7.774020669276134
 30
0.0
  0
LINE
  5
113
330
1F
100
AcDbEntity
  8
0
  6
Continuous
 62
     7
370
     0
100
AcDbLine
 10
5.5340036124
 20
7.7902512508
 30
0.0
 11
5.5108274989
 21
7.7768719652
 31
0.0
  0
ARC
  5
114
330
1F
100
AcDbEntity
  8
0
  6
Continuous
 62
     7
370
     0
100
AcDbCircle
 10
5.3571935114
 20
7.3784468759
 30
0.0
 40
0.4481569535154188
100
AcDbArc
 50
66.7635109767
 51
68.8709822394
  0
LINE
  5
115
330
1F
100
AcDbEntity
  8
0
  6
Continuous
 62
     7
370
     0
100
AcDbLine
 10
5.4930158646
 20
7.7816243166
 30
0.0
 11
5.5187403174
 21
7.7964747272
 31
0.0
  0
SPLINE
  5
116
330
1F
100
AcDbEntity
  8
0
  6
Continuous
 62
     7
370
     0
100
AcDbSpline
210
0.0
220
0.0
230
1.0
 70
     8
 71
     3
 72
    13
 73
     9
 74
     0
 42
0.00000001
 43
0.00000001
 40
0.0
 40
0.0
 40
0.0
 40
0.0
 40
0.2493551011003939
 40
0.3758643206458298
 40
0.4994912623308582
 40
0.6184449072888764
 40
0.7497843925020292
 40
1.0
 40
1.0
 40
1.0
 40
1.0
 10
5.490830488811951
 20
7.766631631138103
 30
0.0
 10
5.488946370873641
 20
7.767577916036355
 30
0.0
 10
5.48610635394287
 20
7.769004294437479
 30
0.0
 10
5.484463487649238
 20
7.771592056122651
 30
0.0
 10
5.484349602920578
 20
7.773665093736772
 30
0.0
 10
5.48540900820211
 20
7.775803470179555
 30
0.0
 10
5.488068320546462
 20
7.778551123713853
 30
0.0
 10
5.491056367662766
 20
7.780407164849042
 30
0.0
 10
5.493015864570867
 20
7.781624316628836
 30
0.0
  0
ARC
  5
117
330
1F
100
AcDbEntity
  8
0
  6
Continuous
 62
     7
370
     0
100
AcDbCircle
 10
5.5055886002
 20
7.8034945596
 30
0.0
 40
0.0397073966498691
100
AcDbArc
 50
248.1812542349
 51
279.5380000703
  0
SPLINE
  5
118
330
1F
100
AcDbEntity
  8
0
  6
Continuous
 62
     7
370
     0
100
AcDbSpline
210
0.0
220
0.0
230
1.0
 70
     8
 71
     3
 72
    12
 73
     8
 74
     0
 42
0.00000001
 43
0.00000001
 40
0.0
 40
0.0
 40
0.0
 40
0.0
 40
0.2503533688407837
 40
0.4999961943216288
 40
0.7494886161542236
 40
0.8747044873187649
 40
1.0
 40
1.0
 40
1.0
 40
1.0
 10
5.517658376470713
 20
7.754218374039976
 30
0.0
 10
5.516435600907474
 20
7.754879466505896
 30
0.0
 10
5.513993520215849
 20
7.756199775150376
 30
0.0
 10
5.511434564797124
 20
7.758659893816484
 30
0.0
 10
5.511018625110361
 20
7.761039246202778
 30
0.0
 10
5.511441668969479
 20
7.762935016063087
 30
0.0
 10
5.51192596055047
 20
7.763868960504482
 30
0.0
 10
5.512168183322927
 20
7.764336081183006
 30
0.0
  0
ARC
  5
119
330
1F
100
AcDbEntity
  8
0
  6
Continuous
 62
     7
370
     0
100
AcDbCircle
 10
5.5342444107
 20
7.7900063769
 30
0.0
 40
0.039444615392507
100
AcDbArc
 50
245.1345242863
 51
276.9612175777
  0
LINE
  5
11A
330
1F
100
AcDbEntity
  8
0
  6
Continuous
 62
     7
370
     0
100
AcDbLine
 10
5.5327115453
 20
7.7472078518
 30
0.0
 11
5.5390249987
 21
7.7508525309
 31
0.0
  0
ARC
  5
11B
330
1F
100
AcDbEntity
  8
0
  6
Continuous
 62
     7
370
     0
100
AcDbCircle
 10
5.2709511788
 20
7.2615177429
 30
0.0
 40
0.5517366866334594
100
AcDbArc
 50
59.9686838781
 51
61.6777643571
  0
LINE
  5
11C
330
1F
100
AcDbEntity
  8
0
  6
Continuous
 62
     7
370
     0
100
AcDbLine
 10
5.5882213998
 20
7.7629349313
 30
0.0
 11
5.5470806416
 21
7.7391848771
 31
0.0
  0
ARC
  5
11D
330
1F
100
AcDbEntity
  8
0
  6
Continuous
 62
     7
370
     0
100
AcDbCircle
 10
5.3126075816
 20
7.2861814274
 30
0.0
 40
0.5506876431189345
100
AcDbArc
 50
59.9675573669
 51
61.8045547777
  0
SPLINE
  5
11E
330
1F
100
AcDbEntity
  8
0
  6
Continuous
 62
     7
370
     0
100
AcDbSpline
210
0.0
220
0.0
230
1.0
 70
    24
 71
     1
 72
     4
 73
     2
 74
     0
 42
0.00000001
 43
0.00000001
 40
0.0
 40
0.0
 40
1.0
 40
1.0
 10
5.418825477422405
 20
7.085064099564295
 30
0.0
 10
5.424318510094884
 20
7.075595316189956
 30
0.0
  0
SPLINE
  5
11F
330
1F
100
AcDbEntity
  8
0
  6
Continuous
 62
     7
370
     0
100
AcDbSpline
210
0.0
220
0.0
230
1.0
 70
    24
 71
     1
 72
     4
 73
     2
 74
     0
 42
0.00000001
 43
0.00000001
 40
0.0
 40
0.0
 40
1.0
 40
1.0
 10
5.412847405802633
 20
7.09234675560844
 30
0.0
 10
5.418825477422405
 20
7.085064099564295
 30
0.0
  0
ARC
  5
120
330
1F
100
AcDbEntity
  8
0
  6
Continuous
 62
     7
370
     0
100
AcDbCircle
 10
5.4023447128
 20
7.0795135946
 30
0.0
 40
0.016583020907061
100
AcDbArc
 50
50.7030149381
 51
119.2127157521
  0
ARC
  5
121
330
1F
100
AcDbEntity
  8
0
  6
Continuous
 62
     7
370
     0
100
AcDbCircle
 10
5.4049940976
 20
7.0781137667
 30
0.0
 40
0.0191672195181095
100
AcDbArc
 50
124.0887861965
 51
205.0652121994
  0
SPLINE
  5
122
330
1F
100
AcDbEntity
  8
0
  6
Continuous
 62
     7
370
     0
100
AcDbSpline
210
0.0
220
0.0
230
1.0
 70
     8
 71
     3
 72
     9
 73
     5
 74
     0
 42
0.00000001
 43
0.00000001
 40
0.0
 40
0.0
 40
0.0
 40
0.0
 40
0.4993318956962425
 40
1.0
 40
1.0
 40
1.0
 40
1.0
 10
5.380078700885912
 20
7.075813646869765
 30
0.0
 10
5.381468725353684
 20
7.075111207182974
 30
0.0
 10
5.384252493984834
 20
7.073704448085778
 30
0.0
 10
5.386504447084988
 20
7.071231639699884
 30
0.0
 10
5.387631928174624
 20
7.069993583413011
 30
0.0
  0
SPLINE
  5
123
330
1F
100
AcDbEntity
  8
0
  6
Continuous
 62
     7
370
     0
100
AcDbSpline
210
0.0
220
0.0
230
1.0
 70
     8
 71
     3
 72
     9
 73
     5
 74
     0
 42
0.00000001
 43
0.00000001
 40
0.0
 40
0.0
 40
0.0
 40
0.0
 40
0.5001300021535787
 40
1.0
 40
1.0
 40
1.0
 40
1.0
 10
5.369719224828018
 20
7.075051139520714
 30
0.0
 10
5.371348457036268
 20
7.075784973972963
 30
0.0
 10
5.374606074458209
 20
7.077252261376416
 30
0.0
 10
5.378254808305517
 20
7.076293101910117
 30
0.0
 10
5.380078700885912
 20
7.075813646869765
 30
0.0
  0
SPLINE
  5
124
330
1F
100
AcDbEntity
  8
0
  6
Continuous
 62
     7
370
     0
100
AcDbSpline
210
0.0
220
0.0
230
1.0
 70
     8
 71
     3
 72
    13
 73
     9
 74
     0
 42
0.00000001
 43
0.00000001
 40
0.0
 40
0.0
 40
0.0
 40
0.0
 40
0.2502329787227285
 40
0.4994066255428397
 40
0.6257013607211174
 40
0.7496002874250296
 40
0.874037117176377
 40
0.9999999999999999
 40
0.9999999999999999
 40
0.9999999999999999
 40
0.9999999999999999
 10
5.366360697499215
 20
7.045901341134176
 30
0.0
 10
5.365234638312978
 20
7.0485380090417
 30
0.0
 10
5.36298728697971
 20
7.05380018283308
 30
0.0
 10
5.362142195835506
 20
7.061084783050131
 30
0.0
 10
5.363077764093649
 20
7.066450310865861
 30
0.0
 10
5.364568184970346
 20
7.07005044815882
 30
0.0
 10
5.366775624845145
 20
7.073063927936291
 30
0.0
 10
5.368734046321292
 20
7.074386049782747
 30
0.0
 10
5.369719224828018
 20
7.075051139520714
 30
0.0
  0
ARC
  5
125
330
1F
100
AcDbEntity
  8
0
  6
Continuous
 62
     7
370
     0
100
AcDbCircle
 10
4.4571632923
 20
6.617613975
 30
0.0
 40
1.005022382692033
100
AcDbArc
 50
22.6379439955
 51
25.2232922421
  0
LINE
  5
126
330
1F
100
AcDbEntity
  8
0
  6
Continuous
 62
     7
370
     0
100
AcDbLine
 10
5.4413227866
 20
7.03711008
 30
0.0
 11
5.3847542441
 21
7.0044537555
 31
0.0
  0
ARC
  5
127
330
1F
100
AcDbEntity
  8
0
  6
Continuous
 62
     7
370
     0
100
AcDbCircle
 10
4.5146239471
 20
6.6506576287
 30
0.0
 40
1.004049917164465
100
AcDbArc
 50
22.6371389419
 51
25.0382789976
  0
SPLINE
  5
128
330
1F
100
AcDbEntity
  8
0
  6
Continuous
 62
     7
370
     0
100
AcDbSpline
210
0.0
220
0.0
230
1.0
 70
    24
 71
     1
 72
     4
 73
     2
 74
     0
 42
0.00000001
 43
0.00000001
 40
0.0
 40
0.0
 40
1.0
 40
1.0
 10
5.277394531183907
 20
7.199118342248605
 30
0.0
 10
5.316657752270141
 20
7.255674469466962
 30
0.0
  0
ARC
  5
129
330
1F
100
AcDbEntity
  8
0
  6
Continuous
 62
     7
370
     0
100
AcDbCircle
 10
4.4410159675
 20
6.6119855343
 30
0.0
 40
1.021887486915745
100
AcDbArc
 50
33.5000788719
 51
35.0686281791
  0
SPLINE
  5
12A
330
1F
100
AcDbEntity
  8
0
  6
Continuous
 62
     7
370
     0
100
AcDbSpline
210
0.0
220
0.0
230
1.0
 70
    24
 71
     1
 72
     4
 73
     2
 74
     0
 42
0.00000001
 43
0.00000001
 40
0.0
 40
0.0
 40
1.0
 40
1.0
 10
5.365518819547138
 20
7.184042479710121
 30
0.0
 10
5.293152678222704
 20
7.176004206155104
 30
0.0
  0
ARC
  5
12B
330
1F
100
AcDbEntity
  8
0
  6
Continuous
 62
     7
370
     0
100
AcDbCircle
 10
4.4884847277
 20
6.6386241702
 30
0.0
 40
1.032797139125482
100
AcDbArc
 50
31.8770476541
 51
33.2790589169
  0
SPLINE
  5
12C
330
1F
100
AcDbEntity
  8
0
  6
Continuous
 62
     7
370
     0
100
AcDbSpline
210
0.0
220
0.0
230
1.0
 70
    24
 71
     1
 72
     4
 73
     2
 74
     0
 42
0.00000001
 43
0.00000001
 40
0.0
 40
0.0
 40
1.0
 40
1.0
 10
5.340143905362599
 20
7.203187584167728
 30
0.0
 10
5.351911365696956
 20
7.205337829299425
 30
0.0
  0
ARC
  5
12D
330
1F
100
AcDbEntity
  8
0
  6
Continuous
 62
     7
370
     0
100
AcDbCircle
 10
4.4879996373
 20
6.6391053856
 30
0.0
 40
1.021928852863207
100
AcDbArc
 50
33.5028150648
 51
35.0559364031
  0
SPLINE
  5
12E
330
1F
100
AcDbEntity
  8
0
  6
Continuous
 62
     7
370
     0
100
AcDbSpline
210
0.0
220
0.0
230
1.0
 70
    24
 71
     1
 72
     4
 73
     2
 74
     0
 42
0.00000001
 43
0.00000001
 40
0.0
 40
0.0
 40
1.0
 40
1.0
 10
5.331782965343391
 20
7.234867788674597
 30
0.0
 10
5.324542099990463
 20
7.226076669774419
 30
0.0
  0
ARC
  5
12F
330
1F
100
AcDbEntity
  8
0
  6
Continuous
 62
     7
370
     0
100
AcDbCircle
 10
4.5107767821
 20
6.653946278
 30
0.0
 40
1.005743980634356
100
AcDbArc
 50
35.2821801846
 51
36.7476413896
  0
LINE
  5
130
330
1F
100
AcDbEntity
  8
0
  6
Continuous
 62
     7
370
     0
100
AcDbLine
 10
5.1872497048
 20
7.3823910453
 30
0.0
 11
5.196800238
 21
7.3879044508
 31
0.0
  0
ARC
  5
131
330
1F
100
AcDbEntity
  8
0
  6
Continuous
 62
     7
370
     0
100
AcDbCircle
 10
4.658251315
 20
6.7938421577
 30
0.0
 40
0.7913463777225459
100
AcDbArc
 50
48.0502228638
 51
48.7371549318
  0
LINE
  5
132
330
1F
100
AcDbEntity
  8
0
  6
Continuous
 62
     7
370
     0
100
AcDbLine
 10
5.1669317938
 20
7.3810569299
 30
0.0
 11
5.180155609
 21
7.3886908758
 31
0.0
  0
ARC
  5
133
330
1F
100
AcDbEntity
  8
0
  6
Continuous
 62
     7
370
     0
100
AcDbCircle
 10
4.6450274999
 20
6.7862082117
 30
0.0
 40
0.7913463777170522
100
AcDbArc
 50
48.0502228638
 51
48.7371549318
  0
LINE
  5
134
330
1F
100
AcDbEntity
  8
0
  6
Continuous
 62
     7
370
     0
100
AcDbLine
 10
5.1394970391
 20
7.3548240182
 30
0.0
 11
5.1740258897
 21
7.3747570993
 31
0.0
  0
ARC
  5
135
330
1F
100
AcDbEntity
  8
0
  6
Continuous
 62
     7
370
     0
100
AcDbCircle
 10
4.5968630535
 20
6.7511573288
 30
0.0
 40
0.8117050659513105
100
AcDbArc
 50
46.7644849025
 51
48.047732267
  0
SPLINE
  5
136
330
1F
100
AcDbEntity
  8
0
  6
Continuous
 62
     7
370
     0
100
AcDbSpline
210
0.0
220
0.0
230
1.0
 70
    24
 71
     1
 72
     4
 73
     2
 74
     0
 42
0.00000001
 43
0.00000001
 40
0.0
 40
0.0
 40
1.0
 40
1.0
 10
5.214512718307514
 20
7.335924022270059
 30
0.0
 10
5.152880073627763
 20
7.342520320098044
 30
0.0
  0
LINE
  5
137
330
1F
100
AcDbEntity
  8
0
  6
Continuous
 62
     7
370
     0
100
AcDbLine
 10
5.2276561804
 20
7.3435115814
 30
0.0
 11
5.2145127183
 21
7.3359240223
 31
0.0
  0
ARC
  5
138
330
1F
100
AcDbEntity
  8
0
  6
Continuous
 62
     7
370
     0
100
AcDbCircle
 10
4.6177292448
 20
6.7503374908
 30
0.0
 40
0.8508033665585817
100
AcDbArc
 50
44.2022238701
 51
46.7548538385
  0
LINE
  5
139
330
1F
100
AcDbEntity
  8
0
  6
Continuous
 62
     7
370
     0
100
AcDbLine
 10
5.2101832725
 20
7.3756007527
 30
0.0
 11
5.2006327394
 21
7.3700873473
 31
0.0
  0
ARC
  5
13A
330
1F
100
AcDbEntity
  8
0
  6
Continuous
 62
     7
370
     0
100
AcDbCircle
 10
4.6541662524
 20
6.7842377614
 30
0.0
 40
0.8117050659606057
100
AcDbArc
 50
46.7644849025
 51
48.047732267
  0
ARC
  5
13B
330
1F
100
AcDbEntity
  8
0
  6
Continuous
 62
     7
370
     0
100
AcDbCircle
 10
5.0860873004
 20
7.4156700467
 30
0.0
 40
0.046748618066423
100
AcDbArc
 50
58.083295726
 51
127.1834597829
  0
SPLINE
  5
13C
330
1F
100
AcDbEntity
  8
0
  6
Continuous
 62
     7
370
     0
100
AcDbSpline
210
0.0
220
0.0
230
1.0
 70
    24
 71
     1
 72
     4
 73
     2
 74
     0
 42
0.00000001
 43
0.00000001
 40
0.0
 40
0.0
 40
1.0
 40
1.0
 10
5.046354786849556
 20
7.444413790036695
 30
0.0
 10
5.057833878000289
 20
7.452914877358447
 30
0.0
  0
SPLINE
  5
13D
330
1F
100
AcDbEntity
  8
0
  6
Continuous
 62
     7
370
     0
100
AcDbSpline
210
0.0
220
0.0
230
1.0
 70
     8
 71
     3
 72
    12
 73
     8
 74
     0
 42
0.00000001
 43
0.00000001
 40
0.0
 40
0.0
 40
0.0
 40
0.0
 40
0.2503309494299799
 40
0.4997648043321451
 40
0.6249322238031007
 40
0.7501904501281037
 40
1.0
 40
1.0
 40
1.0
 40
1.0
 10
5.052340904856646
 20
7.422122287366334
 30
0.0
 10
5.05001075385204
 20
7.4237307943087
 30
0.0
 10
5.045358802251439
 20
7.426942043893093
 30
0.0
 10
5.042003691152564
 20
7.431885251674934
 30
0.0
 10
5.041628060553705
 20
7.435940669090622
 30
0.0
 10
5.04237234018347
 20
7.439969639901289
 30
0.0
 10
5.044762709224813
 20
7.442637135486156
 30
0.0
 10
5.046354786849556
 20
7.444413790036695
 30
0.0
  0
ARC
  5
13E
330
1F
100
AcDbEntity
  8
0
  6
Continuous
 62
     7
370
     0
100
AcDbCircle
 10
5.0783615564
 20
7.4605889682
 30
0.0
 40
0.0464409284876539
100
AcDbArc
 50
235.9237516055
 51
304.8924711621
  0
ARC
  5
13F
330
1F
100
AcDbEntity
  8
0
  6
Continuous
 62
     7
370
     0
100
AcDbCircle
 10
5.0899312076
 20
7.4546849336
 30
0.0
 40
0.0355100242536355
100
AcDbArc
 50
294.9806753577
 51
330.7824278685
  0
ARC
  5
140
330
1F
100
AcDbEntity
  8
0
  6
Continuous
 62
     7
370
     0
100
AcDbCircle
 10
5.1046467021
 20
7.4400446405
 30
0.0
 40
0.0164979711343379
100
AcDbArc
 50
350.6050196563
 51
68.0910602193
  0
ARC
  5
141
330
1F
100
AcDbEntity
  8
0
  6
Continuous
 62
     7
370
     0
100
AcDbCircle
 10
4.9609489318
 20
7.6726520029
 30
0.0
 40
0.1988276068010306
100
AcDbArc
 50
276.2553574809
 51
294.685924692
  0
ARC
  5
142
330
1F
100
AcDbEntity
  8
0
  6
Continuous
 62
     7
370
     0
100
AcDbCircle
 10
4.8414851386
 20
7.0619092291
 30
0.0
 40
0.4753748876274062
100
AcDbArc
 50
64.7869261767
 51
66.813162202
  0
ARC
  5
143
330
1F
100
AcDbEntity
  8
0
  6
Continuous
 62
     7
370
     0
100
AcDbCircle
 10
4.9533059234
 20
7.6461194276
 30
0.0
 40
0.1653938167064915
100
AcDbArc
 50
289.4650762921
 51
297.1017964241
  0
ARC
  5
144
330
1F
100
AcDbEntity
  8
0
  6
Continuous
 62
     7
370
     0
100
AcDbCircle
 10
4.946394059
 20
7.6681638385
 30
0.0
 40
0.1884833539546337
100
AcDbArc
 50
281.4566288388
 51
289.2130451607
  0
ARC
  5
145
330
1F
100
AcDbEntity
  8
0
  6
Continuous
 62
     7
370
     0
100
AcDbCircle
 10
4.9469312197
 20
7.6706089163
 30
0.0
 40
0.1907757050235273
100
AcDbArc
 50
274.6296010873
 51
281.1526585455
  0
LINE
  5
146
330
1F
100
AcDbEntity
  8
0
  6
Continuous
 62
     7
370
     0
100
AcDbLine
 10
4.9517573035
 20
7.4743524722
 30
0.0
 11
4.9623294682
 21
7.4804556529
 31
0.0
  0
ARC
  5
147
330
1F
100
AcDbEntity
  8
0
  6
Continuous
 62
     7
370
     0
100
AcDbCircle
 10
4.7893198127
 20
7.0384206
 30
0.0
 40
0.4652123554240549
100
AcDbArc
 50
63.4942046187
 51
69.5635359439
  0
LINE
  5
148
330
1F
100
AcDbEntity
  8
0
  6
Continuous
 62
     7
370
     0
100
AcDbLine
 10
5.010162474
 20
7.4623680701
 30
0.0
 11
4.9969386588
 21
7.4547341241
 31
0.0
  0
ARC
  5
149
330
1F
100
AcDbEntity
  8
0
  6
Continuous
 62
     7
370
     0
100
AcDbCircle
 10
4.7956268893
 20
7.0311266682
 30
0.0
 40
0.4816582437026887
100
AcDbArc
 50
63.5504018137
 51
67.1566122535
  0
ARC
  5
14A
330
1F
100
AcDbEntity
  8
0
  6
Continuous
 62
     7
370
     0
100
AcDbCircle
 10
4.9257256213
 20
7.4454719792
 30
0.0
 40
0.0821178379178613
100
AcDbArc
 50
87.4924864431
 51
125.3667771535
  0
SPLINE
  5
14B
330
1F
100
AcDbEntity
  8
0
  6
Continuous
 62
     7
370
     0
100
AcDbSpline
210
0.0
220
0.0
230
1.0
 70
    24
 71
     1
 72
     4
 73
     2
 74
     0
 42
0.00000001
 43
0.00000001
 40
0.0
 40
0.0
 40
1.0
 40
1.0
 10
4.866572395925639
 20
7.504803989603576
 30
0.0
 10
4.878195124877545
 20
7.512436083164779
 30
0.0
  0
SPLINE
  5
14C
330
1F
100
AcDbEntity
  8
0
  6
Continuous
 62
     7
370
     0
100
AcDbSpline
210
0.0
220
0.0
230
1.0
 70
     8
 71
     3
 72
    12
 73
     8
 74
     0
 42
0.00000001
 43
0.00000001
 40
0.0
 40
0.0
 40
0.0
 40
0.0
 40
0.2503309494299789
 40
0.4997648043321467
 40
0.6249322238031036
 40
0.7501904501281063
 40
0.9999999999999999
 40
0.9999999999999999
 40
0.9999999999999999
 40
0.9999999999999999
 10
4.870884941968627
 20
7.494056226598042
 30
0.0
 10
4.868722133687985
 20
7.494372818628347
 30
0.0
 10
4.864404267840217
 20
7.495004868138961
 30
0.0
 10
4.861501746564118
 20
7.496856332071346
 30
0.0
 10
4.86142326892217
 20
7.498970737845585
 30
0.0
 10
4.862427563063855
 20
7.501351745428136
 30
0.0
 10
4.864915400563029
 20
7.503423873015029
 30
0.0
 10
4.866572395925639
 20
7.504803989603576
 30
0.0
  0
ARC
  5
14D
330
1F
100
AcDbEntity
  8
0
  6
Continuous
 62
     7
370
     0
100
AcDbCircle
 10
4.8780117323
 20
7.5736593917
 30
0.0
 40
0.0799215555345894
100
AcDbArc
 50
264.8840071066
 51
303.5308831866
  0
ARC
  5
14E
330
1F
100
AcDbEntity
  8
0
  6
Continuous
 62
     7
370
     0
100
AcDbCircle
 10
4.9002760312
 20
7.551985948
 30
0.0
 40
0.0499922052520239
100
AcDbArc
 50
295.9593802649
 51
319.610825005
  0
SPLINE
  5
14F
330
1F
100
AcDbEntity
  8
0
  6
Continuous
 62
     7
370
     0
100
AcDbSpline
210
0.0
220
0.0
230
1.0
 70
     8
 71
     3
 72
    13
 73
     9
 74
     0
 42
0.00000001
 43
0.00000001
 40
0.0
 40
0.0
 40
0.0
 40
0.0
 40
0.1642852522977048
 40
0.3377332377151351
 40
0.5003699049563445
 40
0.749797121819134
 40
0.8748630895912676
 40
1.0
 40
1.0
 40
1.0
 40
1.0
 10
4.929318309415254
 20
7.527511188736333
 30
0.0
 10
4.930417289929115
 20
7.527350630296154
 30
0.0
 10
4.93267654474317
 20
7.527020558539342
 30
0.0
 10
4.935540864317562
 20
7.526212174439708
 30
0.0
 10
4.938148730781386
 20
7.524879400502085
 30
0.0
 10
4.939177094639324
 20
7.523096604781693
 30
0.0
 10
4.939093826459139
 20
7.521170157560202
 30
0.0
 10
4.938600076440522
 20
7.520118284119403
 30
0.0
 10
4.938353131432163
 20
7.519592198274669
 30
0.0
  0
LINE
  5
150
330
1F
100
AcDbEntity
  8
0
  6
Continuous
 62
     7
370
     0
100
AcDbLine
 10
4.819907657
 20
7.5116895659
 30
0.0
 11
4.8406157842
 21
7.5236441133
 31
0.0
  0
ARC
  5
151
330
1F
100
AcDbEntity
  8
0
  6
Continuous
 62
     7
370
     0
100
AcDbCircle
 10
4.7891405888
 20
7.5614836174
 30
0.0
 40
0.0585325554689453
100
AcDbArc
 50
286.6359607172
 51
301.7113558171
  0
SPLINE
  5
152
330
1F
100
AcDbEntity
  8
0
  6
Continuous
 62
     7
370
     0
100
AcDbSpline
210
0.0
220
0.0
230
1.0
 70
     8
 71
     3
 72
    11
 73
     7
 74
     0
 42
0.00000001
 43
0.00000001
 40
0.0
 40
0.0
 40
0.0
 40
0.0
 40
0.2500620333659266
 40
0.4999138376966931
 40
0.7498401673007651
 40
1.0
 40
1.0
 40
1.0
 40
1.0
 10
4.805333047795923
 20
7.506318750544545
 30
0.0
 10
4.805026169211166
 20
7.506087243259561
 30
0.0
 10
4.80441267003679
 20
7.505624423319513
 30
0.0
 10
4.804247353657529
 20
7.505235637814329
 30
0.0
 10
4.804709225421069
 20
7.505132565676783
 30
0.0
 10
4.805501526238472
 20
7.505311530408093
 30
0.0
 10
4.80589786161999
 20
7.505401054555366
 30
0.0
  0
SPLINE
  5
153
330
1F
100
AcDbEntity
  8
0
  6
Continuous
 62
     7
370
     0
100
AcDbSpline
210
0.0
220
0.0
230
1.0
 70
    24
 71
     1
 72
     4
 73
     2
 74
     0
 42
0.00000001
 43
0.00000001
 40
0.0
 40
0.0
 40
1.0
 40
1.0
 10
4.808713218057549
 20
7.508348446637817
 30
0.0
 10
4.805333047795923
 20
7.506318750544545
 30
0.0
  0
LINE
  5
154
330
1F
100
AcDbEntity
  8
0
  6
Continuous
 62
     7
370
     0
100
AcDbLine
 10
4.8310628431
 20
7.5212506105
 30
0.0
 11
4.8087132181
 21
7.5083484466
 31
0.0
  0
ARC
  5
155
330
1F
100
AcDbEntity
  8
0
  6
Continuous
 62
     7
370
     0
100
AcDbCircle
 10
4.8868336305
 20
7.3183451833
 30
0.0
 40
0.2104304947483609
100
AcDbArc
 50
105.3688464914
 51
108.8575004928
  0
LINE
  5
156
330
1F
100
AcDbEntity
  8
0
  6
Continuous
 62
     7
370
     0
100
AcDbLine
 10
4.7978241171
 20
7.5053606838
 30
0.0
 11
4.8188192194
 21
7.5174808984
 31
0.0
  0
ARC
  5
157
330
1F
100
AcDbEntity
  8
0
  6
Continuous
 62
     7
370
     0
100
AcDbCircle
 10
4.7505860365
 20
7.5840180261
 30
0.0
 40
0.0917519141502148
100
AcDbArc
 50
291.6182050664
 51
300.9871434435
  0
SPLINE
  5
158
330
1F
100
AcDbEntity
  8
0
  6
Continuous
 62
     7
370
     0
100
AcDbSpline
210
0.0
220
0.0
230
1.0
 70
     8
 71
     3
 72
    10
 73
     6
 74
     0
 42
0.00000001
 43
0.00000001
 40
0.0
 40
0.0
 40
0.0
 40
0.0
 40
0.498822657303295
 40
0.7491700015752246
 40
0.9999999999999999
 40
0.9999999999999999
 40
0.9999999999999999
 40
0.9999999999999999
 10
4.783320472343226
 20
7.498729454070292
 30
0.0
 10
4.783163520910309
 20
7.498557664046682
 30
0.0
 10
4.782927799249465
 20
7.498299656655927
 30
0.0
 10
4.783545407362701
 20
7.498422750650015
 30
0.0
 10
4.78410780393888
 20
7.498620846647418
 30
0.0
 10
4.784389273032351
 20
7.498719990033367
 30
0.0
  0
SPLINE
  5
159
330
1F
100
AcDbEntity
  8
0
  6
Continuous
 62
     7
370
     0
100
AcDbSpline
210
0.0
220
0.0
230
1.0
 70
     8
 71
     3
 72
     9
 73
     5
 74
     0
 42
0.00000001
 43
0.00000001
 40
0.0
 40
0.0
 40
0.0
 40
0.0
 40
0.5015771373280874
 40
1.0
 40
1.0
 40
1.0
 40
1.0
 10
4.786548237774582
 20
7.500753606737619
 30
0.0
 10
4.785825565376942
 20
7.500334528259132
 30
0.0
 10
4.784384765260954
 20
7.499499006766428
 30
0.0
 10
4.783674489847891
 20
7.498985431650012
 30
0.0
 10
4.783320472343226
 20
7.498729454070292
 30
0.0
  0
LINE
  5
15A
330
1F
100
AcDbEntity
  8
0
  6
Continuous
 62
     7
370
     0
100
AcDbLine
 10
4.8097243513
 20
7.5141328923
 30
0.0
 11
4.7865482378
 21
7.5007536067
 31
0.0
  0
ARC
  5
15B
330
1F
100
AcDbEntity
  8
0
  6
Continuous
 62
     7
370
     0
100
AcDbCircle
 10
4.8842282554
 20
7.3255420394
 30
0.0
 40
0.2027741144795695
100
AcDbArc
 50
111.5567838636
 51
115.1327190493
  0
LINE
  5
15C
330
1F
100
AcDbEntity
  8
0
  6
Continuous
 62
     7
370
     0
100
AcDbLine
 10
4.7723822937
 20
7.49426839
 30
0.0
 11
4.7981067466
 21
7.5091188006
 31
0.0
  0
SPLINE
  5
15D
330
1F
100
AcDbEntity
  8
0
  6
Continuous
 62
     7
370
     0
100
AcDbSpline
210
0.0
220
0.0
230
1.0
 70
     8
 71
     3
 72
    13
 73
     9
 74
     0
 42
0.00000001
 43
0.00000001
 40
0.0
 40
0.0
 40
0.0
 40
0.0
 40
0.249355101100407
 40
0.375864320641182
 40
0.499491262330561
 40
0.6184449072846455
 40
0.7497843925020165
 40
1.0
 40
1.0
 40
1.0
 40
1.0
 10
4.766849271667229
 20
7.489560668109019
 30
0.0
 10
4.765439778550197
 20
7.489009118466063
 30
0.0
 10
4.763315185267186
 20
7.488177742524948
 30
0.0
 10
4.76254007645063
 20
7.488110011855453
 30
0.0
 10
4.762960610541267
 20
7.488565371461483
 30
0.0
 10
4.764407844464582
 20
7.489541311204781
 30
0.0
 10
4.767378386792129
 20
7.491361927183485
 30
0.0
 10
4.770400474038737
 20
7.493117272433843
 30
0.0
 10
4.772382293730725
 20
7.494268390022292
 30
0.0
  0
ARC
  5
15E
330
1F
100
AcDbEntity
  8
0
  6
Continuous
 62
     7
370
     0
100
AcDbCircle
 10
4.6646769405
 20
7.7413244697
 30
0.0
 40
0.2717060857890172
100
AcDbArc
 50
292.0886000162
 51
296.2915387117
  0
SPLINE
  5
15F
330
1F
100
AcDbEntity
  8
0
  6
Continuous
 62
     7
370
     0
100
AcDbSpline
210
0.0
220
0.0
230
1.0
 70
     8
 71
     3
 72
    12
 73
     8
 74
     0
 42
0.00000001
 43
0.00000001
 40
0.0
 40
0.0
 40
0.0
 40
0.0
 40
0.2503533688407801
 40
0.4999961943216252
 40
0.7494886161542228
 40
0.8747044873187696
 40
1.0
 40
1.0
 40
1.0
 40
1.0
 10
4.787960700890096
 20
7.496735138721982
 30
0.0
 10
4.786988879948988
 20
7.496471689593646
 30
0.0
 10
4.785047996251812
 20
7.495945539048218
 30
0.0
 10
4.783244682308816
 20
7.49570306651834
 30
0.0
 10
4.78334600674533
 20
7.496266867534159
 30
0.0
 10
4.784100458520108
 20
7.497011577859316
 30
0.0
 10
4.784717491974725
 20
7.497487725656431
 30
0.0
 10
4.785026106784363
 20
7.497725875242432
 30
0.0
  0
ARC
  5
160
330
1F
100
AcDbEntity
  8
0
  6
Continuous
 62
     7
370
     0
100
AcDbCircle
 10
4.7455951411
 20
7.6383810414
 30
0.0
 40
0.1478458737906627
100
AcDbArc
 50
286.6516531744
 51
294.3936355351
  0
LINE
  5
161
330
1F
100
AcDbEntity
  8
0
  6
Continuous
 62
     7
370
     0
100
AcDbLine
 10
4.8003425166
 20
7.5000887572
 30
0.0
 11
4.8066559701
 21
7.5037334363
 31
0.0
  0
ARC
  5
162
330
1F
100
AcDbEntity
  8
0
  6
Continuous
 62
     7
370
     0
100
AcDbCircle
 10
4.8487830834
 20
7.2820252053
 30
0.0
 40
0.2233790526304379
100
AcDbArc
 50
99.4013148182
 51
102.5243006483
  0
LINE
  5
163
330
1F
100
AcDbEntity
  8
0
  6
Continuous
 62
     7
370
     0
100
AcDbLine
 10
4.8534351856
 20
7.526153977
 30
0.0
 11
4.8122944275
 21
7.5024039229
 31
0.0
  0
ARC
  5
164
330
1F
100
AcDbEntity
  8
0
  6
Continuous
 62
     7
370
     0
100
AcDbCircle
 10
4.889870791
 20
7.3060619967
 30
0.0
 40
0.2230875011071475
100
AcDbArc
 50
99.3999022677
 51
102.7553106497
  0
ARC
  5
165
330
1F
100
AcDbEntity
  8
0
  6
Continuous
 62
     7
370
     0
100
AcDbCircle
 10
5.2449950248
 20
6.9371846945
 30
0.0
 40
0.0351878091975749
100
AcDbArc
 50
30.9387123789
 51
83.2455854338
  0
LINE
  5
166
330
1F
100
AcDbEntity
  8
0
  6
Continuous
 62
     7
370
     0
100
AcDbLine
 10
5.2884000479
 20
6.9629094284
 30
0.0
 11
5.2751762327
 21
6.9552754824
 31
0.0
  0
ARC
  5
167
330
1F
100
AcDbEntity
  8
0
  6
Continuous
 62
     7
370
     0
100
AcDbCircle
 10
5.236807554
 20
6.9253088743
 30
0.0
 40
0.0638403249858414
100
AcDbArc
 50
36.084525463
 51
58.3117600715
  0
LINE
  5
168
330
1F
100
AcDbEntity
  8
0
  6
Continuous
 62
     7
370
     0
100
AcDbLine
 10
5.3081660112
 20
7.0014667573
 30
0.0
 11
5.2703426858
 21
6.9796318163
 31
0.0
  0
ARC
  5
169
330
1F
100
AcDbEntity
  8
0
  6
Continuous
 62
     7
370
     0
100
AcDbCircle
 10
4.3825152862
 20
6.5759688392
 30
0.0
 40
1.018762849156087
100
AcDbArc
 50
24.6870297107
 51
25.9640347888
  0
LINE
  5
16A
330
1F
100
AcDbEntity
  8
0
  6
Continuous
 62
     7
370
     0
100
AcDbLine
 10
5.2411502239
 20
6.9889097882
 30
0.0
 11
5.2984534228
 21
7.0219902208
 31
0.0
  0
ARC
  5
16B
330
1F
100
AcDbEntity
  8
0
  6
Continuous
 62
     7
370
     0
100
AcDbCircle
 10
4.3243064807
 20
6.5424549591
 30
0.0
 40
1.019766818343026
100
AcDbArc
 50
24.9195116699
 51
25.9636537643
  0
LINE
  5
16C
330
1F
100
AcDbEntity
  8
0
  6
Continuous
 62
     7
370
     0
100
AcDbLine
 10
5.2349572543
 20
7.0415187764
 30
0.0
 11
5.251119695
 21
7.0508491549
 31
0.0
  0
ARC
  5
16D
330
1F
100
AcDbEntity
  8
0
  6
Continuous
 62
     7
370
     0
100
AcDbCircle
 10
4.326332044
 20
6.544711309
 30
0.0
 40
1.035575894124532
100
AcDbArc
 50
27.4627093393
 51
28.668440544
  0
LINE
  5
16E
330
1F
100
AcDbEntity
  8
0
  6
Continuous
 62
     7
370
     0
100
AcDbLine
 10
5.261372545
 20
7.0316194746
 30
0.0
 11
5.2452101043
 21
7.0222890962
 31
0.0
  0
ARC
  5
16F
330
1F
100
AcDbEntity
  8
0
  6
Continuous
 62
     7
370
     0
100
AcDbCircle
 10
4.3424944847
 20
6.5540416874
 30
0.0
 40
1.035575894117316
100
AcDbArc
 50
27.4627093393
 51
28.668440544
  0
LINE
  5
170
330
1F
100
AcDbEntity
  8
0
  6
Continuous
 62
     7
370
     0
100
AcDbLine
 10
5.1521501886
 20
7.1654037073
 30
0.0
 11
5.1954604789
 21
7.1904062057
 31
0.0
  0
SPLINE
  5
171
330
1F
100
AcDbEntity
  8
0
  6
Continuous
 62
     7
370
     0
100
AcDbSpline
210
0.0
220
0.0
230
1.0
 70
    24
 71
     1
 72
     4
 73
     2
 74
     0
 42
0.00000001
 43
0.00000001
 40
0.0
 40
0.0
 40
1.0
 40
1.0
 10
5.186417434563934
 20
7.202227382318396
 30
0.0
 10
5.152150188577181
 20
7.165403707260886
 30
0.0
  0
ARC
  5
172
330
1F
100
AcDbEntity
  8
0
  6
Continuous
 62
     7
370
     0
100
AcDbCircle
 10
4.415511652
 20
6.6032600309
 30
0.0
 40
0.9762466971191226
100
AcDbArc
 50
37.8459813456
 51
38.912531419
  0
SPLINE
  5
173
330
1F
100
AcDbEntity
  8
0
  6
Continuous
 62
     7
370
     0
100
AcDbSpline
210
0.0
220
0.0
230
1.0
 70
    24
 71
     1
 72
     4
 73
     2
 74
     0
 42
0.00000001
 43
0.00000001
 40
0.0
 40
0.0
 40
1.0
 40
1.0
 10
5.12246492295144
 20
7.202884432545044
 30
0.0
 10
5.175134854898523
 20
7.216473047129581
 30
0.0
  0
LINE
  5
174
330
1F
100
AcDbEntity
  8
0
  6
Continuous
 62
     7
370
     0
100
AcDbLine
 10
5.1657752133
 20
7.227886931
 30
0.0
 11
5.122464923
 21
7.2028844325
 31
0.0
  0
ARC
  5
175
330
1F
100
AcDbEntity
  8
0
  6
Continuous
 62
     7
370
     0
100
AcDbCircle
 10
4.4395233659
 20
6.6229890718
 30
0.0
 40
0.9451683267362441
100
AcDbArc
 50
39.7910408283
 51
41.0114658155
  0
LINE
  5
176
330
1F
100
AcDbEntity
  8
0
  6
Continuous
 62
     7
370
     0
100
AcDbLine
 10
5.0961583109
 20
7.2105616981
 30
0.0
 11
5.1527268534
 21
7.2432180225
 31
0.0
  0
ARC
  5
177
330
1F
100
AcDbEntity
  8
0
  6
Continuous
 62
     7
370
     0
100
AcDbCircle
 10
4.3785214781
 20
6.5865484405
 30
0.0
 40
0.9509969344751703
100
AcDbArc
 50
39.0692743786
 51
41.0082335033
  0
SPLINE
  5
178
330
1F
100
AcDbEntity
  8
0
  6
Continuous
 62
     7
370
     0
100
AcDbSpline
210
0.0
220
0.0
230
1.0
 70
    24
 71
     1
 72
     4
 73
     2
 74
     0
 42
0.00000001
 43
0.00000001
 40
0.0
 40
0.0
 40
1.0
 40
1.0
 10
5.158532644084434
 20
7.196593362390045
 30
0.0
 10
5.116860761082139
 20
7.185923342028196
 30
0.0
  0
SPLINE
  5
179
330
1F
100
AcDbEntity
  8
0
  6
Continuous
 62
     7
370
     0
100
AcDbSpline
210
0.0
220
0.0
230
1.0
 70
    24
 71
     1
 72
     4
 73
     2
 74
     0
 42
0.00000001
 43
0.00000001
 40
0.0
 40
0.0
 40
1.0
 40
1.0
 10
5.131440809722155
 20
7.167516674914745
 30
0.0
 10
5.158532644084434
 20
7.196593362390045
 30
0.0
  0
ARC
  5
17A
330
1F
100
AcDbEntity
  8
0
  6
Continuous
 62
     7
370
     0
100
AcDbCircle
 10
4.3422159654
 20
6.5577000609
 30
0.0
 40
0.9973726272639519
100
AcDbArc
 50
35.807657317
 51
37.6924700443
  0
LINE
  5
17B
330
1F
100
AcDbEntity
  8
0
  6
Continuous
 62
     7
370
     0
100
AcDbLine
 10
5.2076393812
 20
7.1738852634
 30
0.0
 11
5.1510708387
 21
7.1412289389
 31
0.0
  0
ARC
  5
17C
330
1F
100
AcDbEntity
  8
0
  6
Continuous
 62
     7
370
     0
100
AcDbCircle
 10
4.395410395
 20
6.5878760808
 30
0.0
 40
1.001560127055662
100
AcDbArc
 50
35.8097975478
 51
36.9839703763
  0
ARC
  5
17D
330
1F
100
AcDbEntity
  8
0
  6
Continuous
 62
     7
370
     0
100
AcDbCircle
 10
4.4815934049
 20
6.6783805143
 30
0.0
 40
0.8302795111362223
100
AcDbArc
 50
46.2351181973
 51
46.7673476411
  0
LINE
  5
17E
330
1F
100
AcDbEntity
  8
0
  6
Continuous
 62
     7
370
     0
100
AcDbLine
 10
5.0676527903
 20
7.2847810937
 30
0.0
 11
5.055898288
 21
7.2779953639
 31
0.0
  0
ARC
  5
17F
330
1F
100
AcDbEntity
  8
0
  6
Continuous
 62
     7
370
     0
100
AcDbCircle
 10
4.4933479072
 20
6.6851662441
 30
0.0
 40
0.8302795111337866
100
AcDbArc
 50
46.2351181973
 51
46.7673476411
  0
LINE
  5
180
330
1F
100
AcDbEntity
  8
0
  6
Continuous
 62
     7
370
     0
100
AcDbLine
 10
5.0763380604
 20
7.2983335564
 30
0.0
 11
5.0620581767
 21
7.290089955
 31
0.0
  0
SPLINE
  5
181
330
1F
100
AcDbEntity
  8
0
  6
Continuous
 62
     7
370
     0
100
AcDbSpline
210
0.0
220
0.0
230
1.0
 70
     8
 71
     3
 72
    13
 73
     9
 74
     0
 42
0.00000001
 43
0.00000001
 40
0.0
 40
0.0
 40
0.0
 40
0.0
 40
0.2500945475838973
 40
0.3790132877199131
 40
0.4995783988416226
 40
0.6244157670478071
 40
0.7495373859022043
 40
0.9999999999999999
 40
0.9999999999999999
 40
0.9999999999999999
 40
0.9999999999999999
 10
5.078663347282538
 20
7.319901333999372
 30
0.0
 10
5.080634629245337
 20
7.318048365986414
 30
0.0
 10
5.083622067655976
 20
7.315240230001781
 30
0.0
 10
5.085938828806314
 20
7.310870568697377
 30
0.0
 10
5.086082263042488
 20
7.307529802273985
 30
0.0
 10
5.084742800960286
 20
7.304597799039582
 30
0.0
 10
5.081463835785088
 20
7.301445072123898
 30
0.0
 10
5.078388729763387
 20
7.299578380744189
 30
0.0
 10
5.076338060365557
 20
7.298333556383484
 30
0.0
  0
SPLINE
  5
182
330
1F
100
AcDbEntity
  8
0
  6
Continuous
 62
     7
370
     0
100
AcDbSpline
210
0.0
220
0.0
230
1.0
 70
    24
 71
     1
 72
     4
 73
     2
 74
     0
 42
0.00000001
 43
0.00000001
 40
0.0
 40
0.0
 40
1.0
 40
1.0
 10
5.0668800896168
 20
7.328456621780942
 30
0.0
 10
5.078663347282538
 20
7.319901333999372
 30
0.0
  0
SPLINE
  5
183
330
1F
100
AcDbEntity
  8
0
  6
Continuous
 62
     7
370
     0
100
AcDbSpline
210
0.0
220
0.0
230
1.0
 70
    24
 71
     1
 72
     4
 73
     2
 74
     0
 42
0.00000001
 43
0.00000001
 40
0.0
 40
0.0
 40
1.0
 40
1.0
 10
5.057293333707473
 20
7.321248763842943
 30
0.0
 10
5.0668800896168
 20
7.328456621780942
 30
0.0
  0
SPLINE
  5
184
330
1F
100
AcDbEntity
  8
0
  6
Continuous
 62
     7
370
     0
100
AcDbSpline
210
0.0
220
0.0
230
1.0
 70
    24
 71
     1
 72
     4
 73
     2
 74
     0
 42
0.00000001
 43
0.00000001
 40
0.0
 40
0.0
 40
1.0
 40
1.0
 10
5.063157701856502
 20
7.317539144259993
 30
0.0
 10
5.057293333707473
 20
7.321248763842943
 30
0.0
  0
SPLINE
  5
185
330
1F
100
AcDbEntity
  8
0
  6
Continuous
 62
     7
370
     0
100
AcDbSpline
210
0.0
220
0.0
230
1.0
 70
     8
 71
     3
 72
    10
 73
     6
 74
     0
 42
0.00000001
 43
0.00000001
 40
0.0
 40
0.0
 40
0.0
 40
0.0
 40
0.2505976234532419
 40
0.5007350246834492
 40
1.0
 40
1.0
 40
1.0
 40
1.0
 10
5.064564734146372
 20
7.314386664523469
 30
0.0
 10
5.064625212285611
 20
7.314651743879949
 30
0.0
 10
5.064746057496061
 20
7.315181415775003
 30
0.0
 10
5.064374367285605
 20
7.316323872769394
 30
0.0
 10
5.06364417123886
 20
7.317053232227576
 30
0.0
 10
5.063157701856502
 20
7.317539144259993
 30
0.0
  0
SPLINE
  5
186
330
1F
100
AcDbEntity
  8
0
  6
Continuous
 62
     7
370
     0
100
AcDbSpline
210
0.0
220
0.0
230
1.0
 70
     8
 71
     3
 72
     9
 73
     5
 74
     0
 42
0.00000001
 43
0.00000001
 40
0.0
 40
0.0
 40
0.0
 40
0.0
 40
0.5017738075812888
 40
1.0
 40
1.0
 40
1.0
 40
1.0
 10
5.061630700276894
 20
7.311960040554363
 30
0.0
 10
5.062222652525977
 20
7.312295621699082
 30
0.0
 10
5.063402371834039
 20
7.312964411380106
 30
0.0
 10
5.064178197485877
 20
7.313913702715793
 30
0.0
 10
5.064564734146372
 20
7.314386664523469
 30
0.0
  0
LINE
  5
187
330
1F
100
AcDbEntity
  8
0
  6
Continuous
 62
     7
370
     0
100
AcDbLine
 10
5.0472589845
 20
7.3036634257
 30
0.0
 11
5.0616307003
 21
7.3119600406
 31
0.0
  0
ARC
  5
188
330
1F
100
AcDbEntity
  8
0
  6
Continuous
 62
     7
370
     0
100
AcDbCircle
 10
4.5225136571
 20
6.7170461905
 30
0.0
 40
0.7870688910523032
100
AcDbArc
 50
48.1864880612
 51
49.0137897381
  0
LINE
  5
189
330
1F
100
AcDbEntity
  8
0
  6
Continuous
 62
     7
370
     0
100
AcDbLine
 10
5.0269798284
 20
7.3043931524
 30
0.0
 11
5.0387343308
 21
7.3111788822
 31
0.0
  0
ARC
  5
18A
330
1F
100
AcDbEntity
  8
0
  6
Continuous
 62
     7
370
     0
100
AcDbCircle
 10
4.5107591547
 20
6.7102604607
 30
0.0
 40
0.787068891050183
100
AcDbArc
 50
48.1864880612
 51
49.0137897381
  0
LINE
  5
18B
330
1F
100
AcDbEntity
  8
0
  6
Continuous
 62
     7
370
     0
100
AcDbLine
 10
5.0200766979
 20
7.2879714256
 30
0.0
 11
5.0355044822
 21
7.2968776959
 31
0.0
  0
SPLINE
  5
18C
330
1F
100
AcDbEntity
  8
0
  6
Continuous
 62
     7
370
     0
100
AcDbSpline
210
0.0
220
0.0
230
1.0
 70
    24
 71
     1
 72
     4
 73
     2
 74
     0
 42
0.00000001
 43
0.00000001
 40
0.0
 40
0.0
 40
1.0
 40
1.0
 10
5.042853799314888
 20
7.279003503930667
 30
0.0
 10
5.020076697875997
 20
7.287971425580351
 30
0.0
  0
LINE
  5
18D
330
1F
100
AcDbEntity
  8
0
  6
Continuous
 62
     7
370
     0
100
AcDbLine
 10
5.0503036743
 20
7.2833042252
 30
0.0
 11
5.0428537993
 21
7.2790035039
 31
0.0
  0
LINE
  5
18E
330
1F
100
AcDbEntity
  8
0
  6
Continuous
 62
     7
370
     0
100
AcDbLine
 10
4.973956619
 20
7.3736860259
 30
0.0
 11
4.9934938875
 21
7.384964651
 31
0.0
  0
ARC
  5
18F
330
1F
100
AcDbEntity
  8
0
  6
Continuous
 62
     7
370
     0
100
AcDbCircle
 10
4.9646427908
 20
7.3862299354
 30
0.0
 40
0.0156236058747805
100
AcDbArc
 50
240.5843359943
 51
306.5938139966
  0
SPLINE
  5
190
330
1F
100
AcDbEntity
  8
0
  6
Continuous
 62
     7
370
     0
100
AcDbSpline
210
0.0
220
0.0
230
1.0
 70
     8
 71
     3
 72
    13
 73
     9
 74
     0
 42
0.00000001
 43
0.00000001
 40
0.0
 40
0.0
 40
0.0
 40
0.0
 40
0.2859863846208532
 40
0.4003931588104046
 40
0.50026710777113
 40
0.6204346281882176
 40
0.750439297266677
 40
1.0
 40
1.0
 40
1.0
 40
1.0
 10
4.957916839928202
 20
7.38048629865431
 30
0.0
 10
4.956944322508827
 20
7.379867816539438
 30
0.0
 10
4.955582756565546
 20
7.379001915150567
 30
0.0
 10
4.954451736662004
 20
7.377672565409187
 30
0.0
 10
4.954023627996716
 20
7.376698472434568
 30
0.0
 10
4.954104942670057
 20
7.375626965917109
 30
0.0
 10
4.954883472408089
 20
7.374147311952453
 30
0.0
 10
4.956141947428983
 20
7.37322617225901
 30
0.0
 10
4.956969383053806
 20
7.372620531475412
 30
0.0
  0
LINE
  5
191
330
1F
100
AcDbEntity
  8
0
  6
Continuous
 62
     7
370
     0
100
AcDbLine
 10
4.980289423
 20
7.3934017159
 30
0.0
 11
4.9579168399
 21
7.3804862987
 31
0.0
  0
ARC
  5
192
330
1F
100
AcDbEntity
  8
0
  6
Continuous
 62
     7
370
     0
100
AcDbCircle
 10
4.6730677016
 20
6.8987686317
 30
0.0
 40
0.5822774888962068
100
AcDbArc
 50
58.1551568358
 51
59.9250947147
  0
LINE
  5
193
330
1F
100
AcDbEntity
  8
0
  6
Continuous
 62
     7
370
     0
100
AcDbLine
 10
4.9388425405
 20
7.3876319754
 30
0.0
 11
4.9648654476
 21
7.4026546799
 31
0.0
  0
SPLINE
  5
194
330
1F
100
AcDbEntity
  8
0
  6
Continuous
 62
     7
370
     0
100
AcDbSpline
210
0.0
220
0.0
230
1.0
 70
     8
 71
     3
 72
    13
 73
     9
 74
     0
 42
0.00000001
 43
0.00000001
 40
0.0
 40
0.0
 40
0.0
 40
0.0
 40
0.249453307750362
 40
0.3744959777605291
 40
0.4995513164956941
 40
0.6197807958379036
 40
0.7498057006250065
 40
1.0
 40
1.0
 40
1.0
 40
1.0
 10
4.937278341097493
 20
7.369930955016319
 30
0.0
 10
4.9353890199551
 20
7.371270482457111
 30
0.0
 10
4.932552644783714
 20
7.373281470578295
 30
0.0
 10
4.930830649392362
 20
7.376549675018374
 30
0.0
 10
4.930547648616444
 20
7.379047435691842
 30
0.0
 10
4.931470023042198
 20
7.381509734618467
 30
0.0
 10
4.933950835640331
 20
7.38453092526397
 30
0.0
 10
4.93690115338145
 20
7.386401251363677
 30
0.0
 10
4.938842540539416
 20
7.387631975438096
 30
0.0
  0
ARC
  5
195
330
1F
100
AcDbEntity
  8
0
  6
Continuous
 62
     7
370
     0
100
AcDbCircle
 10
4.9570286213
 20
7.4025531511
 30
0.0
 40
0.038135039585282
100
AcDbArc
 50
238.8082557811
 51
271.3400412925
  0
LINE
  5
196
330
1F
100
AcDbEntity
  8
0
  6
Continuous
 62
     7
370
     0
100
AcDbLine
 10
4.936925345
 20
7.3523083265
 30
0.0
 11
4.9579204473
 21
7.3644285411
 31
0.0
  0
ARC
  5
197
330
1F
100
AcDbEntity
  8
0
  6
Continuous
 62
     7
370
     0
100
AcDbCircle
 10
4.5850548431
 20
6.8168934302
 30
0.0
 40
0.6406886617259004
100
AcDbArc
 50
55.0267415124
 51
56.6873941163
  0
LINE
  5
198
330
1F
100
AcDbEntity
  8
0
  6
Continuous
 62
     7
370
     0
100
AcDbLine
 10
5.0088623164
 20
7.3745426393
 30
0.0
 11
4.9522937739
 21
7.3418863149
 31
0.0
  0
ARC
  5
199
330
1F
100
AcDbEntity
  8
0
  6
Continuous
 62
     7
370
     0
100
AcDbCircle
 10
4.6416233856
 20
6.8495497547
 30
0.0
 40
0.6406886617294258
100
AcDbArc
 50
55.0267415124
 51
56.6873941163
  0
LINE
  5
19A
330
1F
100
AcDbEntity
  8
0
  6
Continuous
 62
     7
370
     0
100
AcDbLine
 10
4.7878748058
 20
7.4468386563
 30
0.0
 11
4.8084451849
 21
7.4587136834
 31
0.0
  0
ARC
  5
19B
330
1F
100
AcDbEntity
  8
0
  6
Continuous
 62
     7
370
     0
100
AcDbCircle
 10
4.7521278948
 20
7.1523515361
 30
0.0
 40
0.2966487916355826
100
AcDbArc
 50
83.0788977951
 51
84.7821360498
  0
ARC
  5
19C
330
1F
100
AcDbEntity
  8
0
  6
Continuous
 62
     7
370
     0
100
AcDbCircle
 10
4.7756682735
 20
7.3837266385
 30
0.0
 40
0.064136604112748
100
AcDbArc
 50
86.9274260723
 51
121.8208121611
  0
SPLINE
  5
19D
330
1F
100
AcDbEntity
  8
0
  6
Continuous
 62
     7
370
     0
100
AcDbSpline
210
0.0
220
0.0
230
1.0
 70
     8
 71
     3
 72
    13
 73
     9
 74
     0
 42
0.00000001
 43
0.00000001
 40
0.0
 40
0.0
 40
0.0
 40
0.0
 40
0.2500373757117106
 40
0.3803456645284219
 40
0.5001717611999908
 40
0.6231396697103383
 40
0.7503495306896024
 40
1.0
 40
1.0
 40
1.0
 40
1.0
 10
4.74144831929822
 20
7.427136350798656
 30
0.0
 10
4.739308239285981
 20
7.427385046500462
 30
0.0
 10
4.736052845359045
 20
7.427763351270697
 30
0.0
 10
4.733580277944795
 20
7.429001520516762
 30
0.0
 10
4.73285927976991
 20
7.430315135765136
 30
0.0
 10
4.733495806338128
 20
7.432001081326357
 30
0.0
 10
4.736021600168016
 20
7.434639037707536
 30
0.0
 10
4.739528308010941
 20
7.436795226276148
 30
0.0
 10
4.741851320512809
 20
7.43822358963735
 30
0.0
  0
ARC
  5
19E
330
1F
100
AcDbEntity
  8
0
  6
Continuous
 62
     7
370
     0
100
AcDbCircle
 10
4.715136188
 20
7.1222425591
 30
0.0
 40
0.3060270453429684
100
AcDbArc
 50
79.9755309092
 51
85.0676328625
  0
LINE
  5
19F
330
1F
100
AcDbEntity
  8
0
  6
Continuous
 62
     7
370
     0
100
AcDbLine
 10
4.8249744727
 20
7.4562539682
 30
0.0
 11
4.7684059302
 21
7.4235976437
 31
0.0
  0
ARC
  5
1A0
330
1F
100
AcDbEntity
  8
0
  6
Continuous
 62
     7
370
     0
100
AcDbCircle
 10
4.7706709963
 20
7.148102836
 30
0.0
 40
0.3128993253879647
100
AcDbArc
 50
80.0057493746
 51
83.0661612227
  0
LINE
  5
1A1
330
1F
100
AcDbEntity
  8
0
  6
Continuous
 62
     7
370
     0
100
AcDbLine
 10
4.6735536346
 20
7.4295913667
 30
0.0
 11
4.7146943928
 21
7.4533414209
 31
0.0
  0
ARC
  5
1A2
330
1F
100
AcDbEntity
  8
0
  6
Continuous
 62
     7
370
     0
100
AcDbCircle
 10
4.729020214
 20
7.2183204324
 30
0.0
 40
0.2184306505208983
100
AcDbArc
 50
101.3073879919
 51
104.7103232244
  0
LINE
  5
1A3
330
1F
100
AcDbEntity
  8
0
  6
Continuous
 62
     7
370
     0
100
AcDbLine
 10
4.7273327093
 20
7.4562612637
 30
0.0
 11
4.6861919511
 21
7.4325112095
 31
0.0
  0
ARC
  5
1A4
330
1F
100
AcDbEntity
  8
0
  6
Continuous
 62
     7
370
     0
100
AcDbCircle
 10
4.7701609722
 20
7.2420704866
 30
0.0
 40
0.2184306505243752
100
AcDbArc
 50
101.307387992
 51
104.7103232243
  0
LINE
  5
1A5
330
1F
100
AcDbEntity
  8
0
  6
Continuous
 62
     7
370
     0
100
AcDbLine
 10
4.6802143063
 20
7.4388307045
 30
0.0
 11
4.6938054497
 21
7.4466767045
 31
0.0
  0
ARC
  5
1A6
330
1F
100
AcDbEntity
  8
0
  6
Continuous
 62
     7
370
     0
100
AcDbCircle
 10
4.4993690366
 20
7.7479592696
 30
0.0
 40
0.3581417056415645
100
AcDbArc
 50
297.5501743198
 51
300.3283327213
  0
ARC
  5
1A7
330
1F
100
AcDbEntity
  8
0
  6
Continuous
 62
     7
370
     0
100
AcDbCircle
 10
4.6243802372
 20
7.5084457875
 30
0.0
 40
0.0879667694227762
100
AcDbArc
 50
293.0032779423
 51
297.51456139
  0
SPLINE
  5
1A8
330
1F
100
AcDbEntity
  8
0
  6
Continuous
 62
     7
370
     0
100
AcDbSpline
210
0.0
220
0.0
230
1.0
 70
    24
 71
     1
 72
     4
 73
     2
 74
     0
 42
0.00000001
 43
0.00000001
 40
0.0
 40
0.0
 40
1.0
 40
1.0
 10
4.656494784312946
 20
7.426693300589172
 30
0.0
 10
4.658756224779838
 20
7.427473915900674
 30
0.0
  0
SPLINE
  5
1A9
330
1F
100
AcDbEntity
  8
0
  6
Continuous
 62
     7
370
     0
100
AcDbSpline
210
0.0
220
0.0
230
1.0
 70
    24
 71
     1
 72
     4
 73
     2
 74
     0
 42
0.00000001
 43
0.00000001
 40
0.0
 40
0.0
 40
1.0
 40
1.0
 10
4.641149745336499
 20
7.418323626232981
 30
0.0
 10
4.656494784312946
 20
7.426693300589172
 30
0.0
  0
ARC
  5
1AA
330
1F
100
AcDbEntity
  8
0
  6
Continuous
 62
     7
370
     0
100
AcDbCircle
 10
4.6332134238
 20
7.4458881383
 30
0.0
 40
0.0286842731534272
100
AcDbArc
 50
286.0620665424
 51
294.1787986362
  0
ARC
  5
1AB
330
1F
100
AcDbEntity
  8
0
  6
Continuous
 62
     7
370
     0
100
AcDbCircle
 10
4.5652925637
 20
7.6030995512
 30
0.0
 40
0.1999379590416838
100
AcDbArc
 50
293.4826417001
 51
298.4304584587
  0
LINE
  5
1AC
330
1F
100
AcDbEntity
  8
0
  6
Continuous
 62
     7
370
     0
100
AcDbLine
 10
4.6534791854
 20
7.423232708
 30
0.0
 11
4.6604813792
 21
7.4272749884
 31
0.0
  0
ARC
  5
1AD
330
1F
100
AcDbEntity
  8
0
  6
Continuous
 62
     7
370
     0
100
AcDbCircle
 10
4.7261406056
 20
7.2285514377
 30
0.0
 40
0.207799131348592
100
AcDbArc
 50
107.1900113128
 51
110.4672198618
  0
LINE
  5
1AE
330
1F
100
AcDbEntity
  8
0
  6
Continuous
 62
     7
370
     0
100
AcDbLine
 10
4.7058680954
 20
7.4508182153
 30
0.0
 11
4.6647273373
 21
7.4270681611
 31
0.0
  0
ARC
  5
1AF
330
1F
100
AcDbEntity
  8
0
  6
Continuous
 62
     7
370
     0
100
AcDbCircle
 10
4.7672296657
 20
7.2524575908
 30
0.0
 40
0.2076347264404552
100
AcDbArc
 50
107.1891131054
 51
110.709016156
  0
ARC
  5
1B0
330
1F
100
AcDbEntity
  8
0
  6
Continuous
 62
     7
370
     0
100
AcDbCircle
 10
5.0733292951
 20
7.2561181564
 30
0.0
 40
0.1173176954877891
100
AcDbArc
 50
245.0657632844
 51
253.8043177245
  0
ARC
  5
1B1
330
1F
100
AcDbEntity
  8
0
  6
Continuous
 62
     7
370
     0
100
AcDbCircle
 10
5.0040897205
 20
7.11513312
 30
0.0
 40
0.0398573206552312
100
AcDbArc
 50
60.2447249938
 51
108.6245062216
  0
SPLINE
  5
1B2
330
1F
100
AcDbEntity
  8
0
  6
Continuous
 62
     7
370
     0
100
AcDbSpline
210
0.0
220
0.0
230
1.0
 70
     8
 71
     3
 72
    13
 73
     9
 74
     0
 42
0.00000001
 43
0.00000001
 40
0.0
 40
0.0
 40
0.0
 40
0.0
 40
0.250551333413035
 40
0.4997574289384303
 40
0.6245242524994565
 40
0.7498907040621398
 40
0.8749266421754784
 40
1.0
 40
1.0
 40
1.0
 40
1.0
 10
4.995206448791361
 20
7.119628903719238
 30
0.0
 10
4.992961864979407
 20
7.122474127568862
 30
0.0
 10
4.988484748774842
 20
7.12814929894581
 30
0.0
 10
4.98464046040296
 20
7.136058056278887
 30
0.0
 10
4.98424230997638
 20
7.142297695342807
 30
0.0
 10
4.985304081560434
 20
7.146603476075271
 30
0.0
 10
4.987630117493132
 20
7.150341620552946
 30
0.0
 10
4.990117049213713
 20
7.152049247366483
 30
0.0
 10
4.991360701113203
 20
7.15290318851521
 30
0.0
  0
ARC
  5
1B3
330
1F
100
AcDbEntity
  8
0
  6
Continuous
 62
     7
370
     0
100
AcDbCircle
 10
5.0225206657
 20
7.1347376046
 30
0.0
 40
0.0312144083461265
100
AcDbArc
 50
208.9489209151
 51
288.984011233
  0
SPLINE
  5
1B4
330
1F
100
AcDbEntity
  8
0
  6
Continuous
 62
     7
370
     0
100
AcDbSpline
210
0.0
220
0.0
230
1.0
 70
    24
 71
     1
 72
     4
 73
     2
 74
     0
 42
0.00000001
 43
0.00000001
 40
0.0
 40
0.0
 40
1.0
 40
1.0
 10
5.020689166913904
 20
7.122769029958908
 30
0.0
 10
5.032674846609693
 20
7.105220966949105
 30
0.0
  0
ARC
  5
1B5
330
1F
100
AcDbEntity
  8
0
  6
Continuous
 62
     7
370
     0
100
AcDbCircle
 10
5.0155136559
 20
7.1336496558
 30
0.0
 40
0.0120488145550354
100
AcDbArc
 50
216.8769244228
 51
295.4387038483
  0
SPLINE
  5
1B6
330
1F
100
AcDbEntity
  8
0
  6
Continuous
 62
     7
370
     0
100
AcDbSpline
210
0.0
220
0.0
230
1.0
 70
     8
 71
     3
 72
    14
 73
    10
 74
     0
 42
0.00000001
 43
0.00000001
 40
0.0
 40
0.0
 40
0.0
 40
0.0
 40
0.1251988702828434
 40
0.2501891755466315
 40
0.372882974388056
 40
0.5004529894618454
 40
0.749567108474147
 40
0.8747153475525565
 40
1.0
 40
1.0
 40
1.0
 40
1.0
 10
5.005866456289733
 20
7.137296951160283
 30
0.0
 10
5.005459521005157
 20
7.137022266282483
 30
0.0
 10
5.004646328337214
 20
7.136473354116131
 30
0.0
 10
5.003825965031322
 20
7.13530119256709
 30
0.0
 10
5.00336260508163
 20
7.133932569741043
 30
0.0
 10
5.003206552799864
 20
7.131949544618036
 30
0.0
 10
5.003713128553994
 20
7.129820090697784
 30
0.0
 10
5.004807525157042
 20
7.127822008339567
 30
0.0
 10
5.005519373081632
 20
7.126886962518435
 30
0.0
 10
5.005875490919367
 20
7.126419184943337
 30
0.0
  0
SPLINE
  5
1B7
330
1F
100
AcDbEntity
  8
0
  6
Continuous
 62
     7
370
     0
100
AcDbSpline
210
0.0
220
0.0
230
1.0
 70
     8
 71
     3
 72
    12
 73
     8
 74
     0
 42
0.00000001
 43
0.00000001
 40
0.0
 40
0.0
 40
0.0
 40
0.0
 40
0.500433529576986
 40
0.7500508073441522
 40
0.8749738419200987
 40
0.9374517669915636
 40
1.0
 40
1.0
 40
1.0
 40
1.0
 10
5.028130664891313
 20
7.132658255397009
 30
0.0
 10
5.024408950710979
 20
7.13417055707481
 30
0.0
 10
5.018830837813502
 20
7.136437197951852
 30
0.0
 10
5.012069025065305
 20
7.138188359759433
 30
0.0
 10
5.008766307685826
 20
7.138201194427245
 30
0.0
 10
5.00700330141923
 20
7.137855135623341
 30
0.0
 10
5.006245546706297
 20
7.137483082388829
 30
0.0
 10
5.005866456289733
 20
7.137296951160283
 30
0.0
  0
ARC
  5
1B8
330
1F
100
AcDbEntity
  8
0
  6
Continuous
 62
     7
370
     0
100
AcDbCircle
 10
5.0584806575
 20
7.1850103178
 30
0.0
 40
0.0605133083921495
100
AcDbArc
 50
239.897900135
 51
284.1982304225
  0
ARC
  5
1B9
330
1F
100
AcDbEntity
  8
0
  6
Continuous
 62
     7
370
     0
100
AcDbCircle
 10
4.307247756
 20
6.5429448093
 30
0.0
 40
0.9629267775866192
100
AcDbArc
 50
37.2908933912
 51
41.2078902297
  0
LINE
  5
1BA
330
1F
100
AcDbEntity
  8
0
  6
Continuous
 62
     7
370
     0
100
AcDbLine
 10
5.018457052
 20
7.1696803507
 30
0.0
 11
5.0316808672
 21
7.1773142967
 31
0.0
  0
ARC
  5
1BB
330
1F
100
AcDbEntity
  8
0
  6
Continuous
 62
     7
370
     0
100
AcDbCircle
 10
4.3049705619
 20
6.54456873
 30
0.0
 40
0.948592383432124
100
AcDbArc
 50
39.1493040793
 51
41.2227875531
  0
LINE
  5
1BC
330
1F
100
AcDbEntity
  8
0
  6
Continuous
 62
     7
370
     0
100
AcDbLine
 10
4.9415249187
 20
7.2006715522
 30
0.0
 11
4.9540140774
 21
7.2078813901
 31
0.0
  0
ARC
  5
1BD
330
1F
100
AcDbEntity
  8
0
  6
Continuous
 62
     7
370
     0
100
AcDbCircle
 10
4.3210928018
 20
6.5688876373
 30
0.0
 40
0.8854868304111536
100
AcDbArc
 50
41.8868736737
 51
45.5193930452
  0
LINE
  5
1BE
330
1F
100
AcDbEntity
  8
0
  6
Continuous
 62
     7
370
     0
100
AcDbLine
 10
4.9927954936
 20
7.1673033993
 30
0.0
 11
4.9803063348
 21
7.1600935614
 31
0.0
  0
ARC
  5
1BF
330
1F
100
AcDbEntity
  8
0
  6
Continuous
 62
     7
370
     0
100
AcDbCircle
 10
4.3335819605
 20
6.5760974752
 30
0.0
 40
0.88548683041198
100
AcDbArc
 50
41.8868736737
 51
45.5193930452
  0
ARC
  5
1C0
330
1F
100
AcDbEntity
  8
0
  6
Continuous
 62
     7
370
     0
100
AcDbCircle
 10
4.9024927167
 20
7.166572631
 30
0.0
 40
0.0541325334759377
100
AcDbArc
 50
56.2766132163
 51
93.8785337347
  0
LINE
  5
1C1
330
1F
100
AcDbEntity
  8
0
  6
Continuous
 62
     7
370
     0
100
AcDbLine
 10
4.9457700464
 20
7.219230098
 30
0.0
 11
4.9325462313
 21
7.211596152
 31
0.0
  0
ARC
  5
1C2
330
1F
100
AcDbEntity
  8
0
  6
Continuous
 62
     7
370
     0
100
AcDbCircle
 10
4.9009893912
 20
7.1448213293
 30
0.0
 40
0.0868445273873619
100
AcDbArc
 50
58.9596467379
 51
76.5797259044
  0
LINE
  5
1C3
330
1F
100
AcDbEntity
  8
0
  6
Continuous
 62
     7
370
     0
100
AcDbLine
 10
4.9589686458
 20
7.2511294048
 30
0.0
 11
4.9211453204
 21
7.2292944638
 31
0.0
  0
ARC
  5
1C4
330
1F
100
AcDbEntity
  8
0
  6
Continuous
 62
     7
370
     0
100
AcDbCircle
 10
4.4365058781
 20
6.6692370376
 30
0.0
 40
0.7820268988697671
100
AcDbArc
 50
48.0803351876
 51
49.603556754
  0
LINE
  5
1C5
330
1F
100
AcDbEntity
  8
0
  6
Continuous
 62
     7
370
     0
100
AcDbLine
 10
4.886012905
 20
7.2317315085
 30
0.0
 11
4.9433161039
 21
7.2648119411
 31
0.0
  0
ARC
  5
1C6
330
1F
100
AcDbEntity
  8
0
  6
Continuous
 62
     7
370
     0
100
AcDbCircle
 10
4.3810703084
 20
6.6383159077
 30
0.0
 40
0.779172061287928
100
AcDbArc
 50
48.3559265603
 51
49.6052451953
  0
ARC
  5
1C7
330
1F
100
AcDbEntity
  8
0
  6
Continuous
 62
     7
370
     0
100
AcDbCircle
 10
4.8281183735
 20
7.2890266497
 30
0.0
 40
0.048755965410794
100
AcDbArc
 50
61.1140278397
 51
127.127978841
  0
SPLINE
  5
1C8
330
1F
100
AcDbEntity
  8
0
  6
Continuous
 62
     7
370
     0
100
AcDbSpline
210
0.0
220
0.0
230
1.0
 70
    24
 71
     1
 72
     4
 73
     2
 74
     0
 42
0.00000001
 43
0.00000001
 40
0.0
 40
0.0
 40
1.0
 40
1.0
 10
4.787209051469343
 20
7.319493671991664
 30
0.0
 10
4.798689399803923
 20
7.327899257895215
 30
0.0
  0
SPLINE
  5
1C9
330
1F
100
AcDbEntity
  8
0
  6
Continuous
 62
     7
370
     0
100
AcDbSpline
210
0.0
220
0.0
230
1.0
 70
     8
 71
     3
 72
    12
 73
     8
 74
     0
 42
0.00000001
 43
0.00000001
 40
0.0
 40
0.0
 40
0.0
 40
0.0
 40
0.2503309494299793
 40
0.4997648043321499
 40
0.6249322238031035
 40
0.7501904501281064
 40
1.0
 40
1.0
 40
1.0
 40
1.0
 10
4.793208274818916
 20
7.298463167102998
 30
0.0
 10
4.790874121002307
 20
7.299931200359238
 30
0.0
 10
4.786214178122312
 20
7.302862005977675
 30
0.0
 10
4.782856111087619
 20
7.307467340337013
 30
0.0
 10
4.782480278858871
 20
7.311310214869359
 30
0.0
 10
4.783225369087599
 20
7.315158480061983
 30
0.0
 10
4.785616479837921
 20
7.317760576071262
 30
0.0
 10
4.787209051469343
 20
7.319493671991664
 30
0.0
  0
ARC
  5
1CA
330
1F
100
AcDbEntity
  8
0
  6
Continuous
 62
     7
370
     0
100
AcDbCircle
 10
4.8182038144
 20
7.3399387331
 30
0.0
 40
0.0484251956834587
100
AcDbArc
 50
238.9244378177
 51
304.8490029723
  0
ARC
  5
1CB
330
1F
100
AcDbEntity
  8
0
  6
Continuous
 62
     7
370
     0
100
AcDbCircle
 10
4.8306631739
 20
7.3328744579
 30
0.0
 40
0.0360435504231602
100
AcDbArc
 50
294.9629846033
 51
329.9140613912
  0
SPLINE
  5
1CC
330
1F
100
AcDbEntity
  8
0
  6
Continuous
 62
     7
370
     0
100
AcDbSpline
210
0.0
220
0.0
230
1.0
 70
     8
 71
     3
 72
    13
 73
     9
 74
     0
 42
0.00000001
 43
0.00000001
 40
0.0
 40
0.0
 40
0.0
 40
0.0
 40
0.1642852522956429
 40
0.3377332377279552
 40
0.5003699049563776
 40
0.7497971218191493
 40
0.8748630895912709
 40
1.0
 40
1.0
 40
1.0
 40
1.0
 10
4.851670821500629
 20
7.331716535524448
 30
0.0
 10
4.852851356234541
 20
7.330983680907606
 30
0.0
 10
4.855278268038025
 20
7.329477097942482
 30
0.0
 10
4.858373728833599
 20
7.326945509292313
 30
0.0
 10
4.861231016601798
 20
7.323665199053096
 30
0.0
 10
4.862450159319253
 20
7.320293138442691
 30
0.0
 10
4.862508577693449
 20
7.317131392817813
 30
0.0
 10
4.862070059399255
 20
7.315581199961688
 30
0.0
 10
4.861850738083321
 20
7.314805883762435
 30
0.0
  0
LINE
  5
1CD
330
1F
100
AcDbEntity
  8
0
  6
Continuous
 62
     7
370
     0
100
AcDbLine
 10
4.7054661138
 20
7.3716141948
 30
0.0
 11
4.726174241
 21
7.3835687421
 31
0.0
  0
ARC
  5
1CE
330
1F
100
AcDbEntity
  8
0
  6
Continuous
 62
     7
370
     0
100
AcDbCircle
 10
4.6933297728
 20
7.3893204768
 30
0.0
 40
0.0214663270377302
100
AcDbArc
 50
262.5182048074
 51
304.4277418519
  0
SPLINE
  5
1CF
330
1F
100
AcDbEntity
  8
0
  6
Continuous
 62
     7
370
     0
100
AcDbSpline
210
0.0
220
0.0
230
1.0
 70
     8
 71
     3
 72
    11
 73
     7
 74
     0
 42
0.00000001
 43
0.00000001
 40
0.0
 40
0.0
 40
0.0
 40
0.0
 40
0.2500620333659254
 40
0.4999138376966861
 40
0.7498401673007706
 40
0.9999999999999999
 40
0.9999999999999999
 40
0.9999999999999999
 40
0.9999999999999999
 10
4.68925910171264
 20
7.370989290915155
 30
0.0
 10
4.688984767722451
 20
7.370665624549002
 30
0.0
 10
4.688436330376723
 20
7.370018563925445
 30
0.0
 10
4.688442975914849
 20
7.369140418343028
 30
0.0
 10
4.689116299156778
 20
7.368432109781621
 30
0.0
 10
4.690061697414938
 20
7.368168682898403
 30
0.0
 10
4.690534617259404
 20
7.368036907956399
 30
0.0
  0
SPLINE
  5
1D0
330
1F
100
AcDbEntity
  8
0
  6
Continuous
 62
     7
370
     0
100
AcDbSpline
210
0.0
220
0.0
230
1.0
 70
    24
 71
     1
 72
     4
 73
     2
 74
     0
 42
0.00000001
 43
0.00000001
 40
0.0
 40
0.0
 40
1.0
 40
1.0
 10
4.692592101425721
 20
7.37315240383669
 30
0.0
 10
4.68925910171264
 20
7.370989290915155
 30
0.0
  0
LINE
  5
1D1
330
1F
100
AcDbEntity
  8
0
  6
Continuous
 62
     7
370
     0
100
AcDbLine
 10
4.7149417265
 20
7.3860545677
 30
0.0
 11
4.6925921014
 21
7.3731524038
 31
0.0
  0
ARC
  5
1D2
330
1F
100
AcDbEntity
  8
0
  6
Continuous
 62
     7
370
     0
100
AcDbCircle
 10
4.6497847891
 20
7.0665905591
 30
0.0
 40
0.3260409166025753
100
AcDbArc
 50
78.4722320648
 51
81.0776207311
  0
LINE
  5
1D3
330
1F
100
AcDbEntity
  8
0
  6
Continuous
 62
     7
370
     0
100
AcDbLine
 10
4.6793574147
 20
7.376565958
 30
0.0
 11
4.7003525171
 21
7.3886861725
 31
0.0
  0
ARC
  5
1D4
330
1F
100
AcDbEntity
  8
0
  6
Continuous
 62
     7
370
     0
100
AcDbCircle
 10
4.6662894811
 20
7.3959448984
 30
0.0
 40
0.0233733656977535
100
AcDbArc
 50
266.5657698323
 51
303.9932392119
  0
SPLINE
  5
1D5
330
1F
100
AcDbEntity
  8
0
  6
Continuous
 62
     7
370
     0
100
AcDbSpline
210
0.0
220
0.0
230
1.0
 70
     8
 71
     3
 72
    10
 73
     6
 74
     0
 42
0.00000001
 43
0.00000001
 40
0.0
 40
0.0
 40
0.0
 40
0.0
 40
0.4988226573033012
 40
0.7491700015752168
 40
1.0
 40
1.0
 40
1.0
 40
1.0
 10
4.663147823054993
 20
7.374334532944181
 30
0.0
 10
4.663082553736099
 20
7.373931116865856
 30
0.0
 10
4.662984527283165
 20
7.373325235758393
 30
0.0
 10
4.663851361712959
 20
7.37281371840275
 30
0.0
 10
4.664543133464528
 20
7.372680286437606
 30
0.0
 10
4.664889352442471
 20
7.372613506204832
 30
0.0
  0
SPLINE
  5
1D6
330
1F
100
AcDbEntity
  8
0
  6
Continuous
 62
     7
370
     0
100
AcDbSpline
210
0.0
220
0.0
230
1.0
 70
     8
 71
     3
 72
     9
 73
     5
 74
     0
 42
0.00000001
 43
0.00000001
 40
0.0
 40
0.0
 40
0.0
 40
0.0
 40
0.501577137328079
 40
1.0
 40
1.0
 40
1.0
 40
1.0
 10
4.666188634320358
 20
7.376829161035098
 30
0.0
 10
4.665468415854167
 20
7.376403993619557
 30
0.0
 10
4.664032508169003
 20
7.375556332544324
 30
0.0
 10
4.663442097320338
 20
7.374740942155817
 30
0.0
 10
4.663147823054993
 20
7.374334532944181
 30
0.0
  0
LINE
  5
1D7
330
1F
100
AcDbEntity
  8
0
  6
Continuous
 62
     7
370
     0
100
AcDbLine
 10
4.6893647478
 20
7.3902084466
 30
0.0
 11
4.6661886343
 21
7.376829161
 31
0.0
  0
ARC
  5
1D8
330
1F
100
AcDbEntity
  8
0
  6
Continuous
 62
     7
370
     0
100
AcDbCircle
 10
4.6543641318
 20
7.0994664165
 30
0.0
 40
0.2928412047018416
100
AcDbArc
 50
83.1355524037
 51
85.9343270885
  0
LINE
  5
1D9
330
1F
100
AcDbEntity
  8
0
  6
Continuous
 62
     7
370
     0
100
AcDbLine
 10
4.6494020747
 20
7.3767202581
 30
0.0
 11
4.6751265275
 21
7.3915706686
 31
0.0
  0
SPLINE
  5
1DA
330
1F
100
AcDbEntity
  8
0
  6
Continuous
 62
     7
370
     0
100
AcDbSpline
210
0.0
220
0.0
230
1.0
 70
     8
 71
     3
 72
    13
 73
     9
 74
     0
 42
0.00000001
 43
0.00000001
 40
0.0
 40
0.0
 40
0.0
 40
0.0
 40
0.2493551011003229
 40
0.3758643206454741
 40
0.4994912623303759
 40
0.6184449072948915
 40
0.7497843925020969
 40
0.9999999999999999
 40
0.9999999999999999
 40
0.9999999999999999
 40
0.9999999999999999
 10
4.646273346829989
 20
7.366177864736103
 30
0.0
 10
4.644520544308414
 20
7.366477357568421
 30
0.0
 10
4.641878465096519
 20
7.366928796778851
 30
0.0
 10
4.640480774101276
 20
7.368367179971957
 30
0.0
 10
4.640518971553604
 20
7.369739444349725
 30
0.0
 10
4.641689449426224
 20
7.371373867813757
 30
0.0
 10
4.644438253201689
 20
7.373719423140552
 30
0.0
 10
4.647436131003222
 20
7.375531763986602
 30
0.0
 10
4.649402074662884
 20
7.376720258058513
 30
0.0
  0
ARC
  5
1DB
330
1F
100
AcDbEntity
  8
0
  6
Continuous
 62
     7
370
     0
100
AcDbCircle
 10
4.6509479068
 20
7.4190451913
 30
0.0
 40
0.0530735879047676
100
AcDbArc
 50
264.9470146957
 51
287.3403124474
  0
SPLINE
  5
1DC
330
1F
100
AcDbEntity
  8
0
  6
Continuous
 62
     7
370
     0
100
AcDbSpline
210
0.0
220
0.0
230
1.0
 70
     8
 71
     3
 72
    12
 73
     8
 74
     0
 42
0.00000001
 43
0.00000001
 40
0.0
 40
0.0
 40
0.0
 40
0.0
 40
0.2503533688407832
 40
0.4999961943216341
 40
0.7494886161542231
 40
0.8747044873187583
 40
1.0
 40
1.0
 40
1.0
 40
1.0
 10
4.671614573470705
 20
7.362172809680853
 30
0.0
 10
4.670453098459564
 20
7.362438963012487
 30
0.0
 10
4.668133444891255
 20
7.362970514289542
 30
0.0
 10
4.665764054271346
 20
7.364273904047383
 30
0.0
 10
4.665479992934591
 20
7.365875201774212
 30
0.0
 10
4.665988275862642
 20
7.367277331016205
 30
0.0
 10
4.666506908249836
 20
7.368014850292878
 30
0.0
 10
4.666766306884139
 20
7.368383727165715
 30
0.0
  0
ARC
  5
1DD
330
1F
100
AcDbEntity
  8
0
  6
Continuous
 62
     7
370
     0
100
AcDbCircle
 10
4.679496024
 20
7.4120704973
 30
0.0
 40
0.0505162993171541
100
AcDbArc
 50
261.0241599629
 51
284.7536933307
  0
LINE
  5
1DE
330
1F
100
AcDbEntity
  8
0
  6
Continuous
 62
     7
370
     0
100
AcDbLine
 10
4.6860472678
 20
7.3595750653
 30
0.0
 11
4.6923607212
 21
7.3632197444
 31
0.0
  0
ARC
  5
1DF
330
1F
100
AcDbEntity
  8
0
  6
Continuous
 62
     7
370
     0
100
AcDbCircle
 10
4.6001989465
 20
7.0049375777
 30
0.0
 40
0.364880366571129
100
AcDbArc
 50
74.1404013339
 51
76.3919897716
  0
LINE
  5
1E0
330
1F
100
AcDbEntity
  8
0
  6
Continuous
 62
     7
370
     0
100
AcDbLine
 10
4.7410545732
 20
7.3796785533
 30
0.0
 11
4.699913815
 21
7.3559284991
 31
0.0
  0
ARC
  5
1E1
330
1F
100
AcDbEntity
  8
0
  6
Continuous
 62
     7
370
     0
100
AcDbCircle
 10
4.6415439476
 20
7.0294456235
 30
0.0
 40
0.3640954129058184
100
AcDbArc
 50
74.1387212298
 51
76.5592397427
  0
LWPOLYLINE
  5
1E2
330
1F
100
AcDbEntity
  8
0
  6
Continuous
 62
     7
370
     0
100
AcDbPolyline
 90
       70
 70
   128
 43
0.0
 10
5.9374660577
 20
6.7820873553
 10
5.9381289094
 20
6.7824717061
 10
5.9516336085
 20
6.7910778056
 10
5.9644679102
 20
6.8007736342
 10
5.9766044255
 20
6.8115385005
 10
5.9880172544
 20
6.8233494317
 10
5.9986820415
 20
6.8361812227
 10
6.0085760275
 20
6.8500064898
 10
6.0176780981
 20
6.8647957292
 10
6.0259688291
 20
6.88051738
 10
6.0334305277
 20
6.8971378912
 10
6.0400472701
 20
6.914621794
 10
6.045804936
 20
6.9329317767
 10
6.0506912381
 20
6.952028765
 10
6.0546957489
 20
6.9718720049
 10
6.0578099226
 20
6.9924191499
 10
6.0600271133
 20
7.0136263515
 10
6.0613425894
 20
7.0354483523
 10
6.0617535437
 20
7.0578385831
 10
6.0612590991
 20
7.0807492621
 10
6.0598603109
 20
7.1041314966
 10
6.0575601641
 20
7.1279353879
 10
6.0543635673
 20
7.1521101372
 10
6.0502773422
 20
7.1766041544
 10
6.0453102091
 20
7.201365168
 10
6.039472768
 20
7.2263403368
 10
6.0327774764
 20
7.2514763624
 10
6.0252386223
 20
7.2767196034
 10
6.0168722941
 20
7.3020161895
 10
6.0076963458
 20
7.3273121363
 10
5.9977303595
 20
7.3525534611
 10
5.9869956031
 20
7.3776862977
 10
5.975514985
 20
7.4026570113
 10
5.9633130055
 20
7.4274123131
 10
5.9504157042
 20
7.451899374
 10
5.9368506046
 20
7.4760659375
 10
5.9226466553
 20
7.4998604309
 10
5.9078341683
 20
7.5232320755
 10
5.8924447542
 20
7.5461309951
 10
5.8765112547
 20
7.5685083222
 10
5.8600676727
 20
7.5903163025
 10
5.8431490997
 20
7.6115083966
 10
5.8257916407
 20
7.6320393796
 10
5.8080323375
 20
7.6518654373
 10
5.7899090893
 20
7.6709442598
 10
5.771460572
 20
7.6892351321
 10
5.7527261557
 20
7.7066990205
 10
5.7337458205
 20
7.7232986561
 10
5.7145600715
 20
7.7389986145
 10
5.6952098521
 20
7.7537653913
 10
5.6757364565
 20
7.7675674733
 10
5.6561814419
 20
7.7803754061
 10
5.6365865398
 20
7.7921618572
 10
5.6169935667
 20
7.8029016735
 10
5.597444335
 20
7.8125719357
 10
5.5779805636
 20
7.8211520071
 10
5.5586437893
 20
7.8286235773
 10
5.5394752777
 20
7.8349707016
 10
5.5205159354
 20
7.8401798349
 10
5.5018062227
 20
7.8442398607
 10
5.4833860668
 20
7.8471421147
 10
5.4652947775
 20
7.8488804033
 10
5.4475709623
 20
7.8494510169
 10
5.4302524449
 20
7.8488527379
 10
5.4133761838
 20
7.8470868429
 10
5.3969781939
 20
7.8441571004
 10
5.3810934692
 20
7.8400697628
 10
5.3657559085
 20
7.8348335525
 10
5.350998243
 20
7.828459644
 10
5.3375148181
 20
7.8213459902
  0
LINE
  5
1E3
330
1F
100
AcDbEntity
  8
0
  6
Continuous
 62
     7
370
     0
100
AcDbLine
 10
4.7832425903
 20
7.3441432166
 30
0.0
 11
4.8039507175
 21
7.3560977639
 31
0.0
  0
ARC
  5
1E4
330
1F
100
AcDbEntity
  8
0
  6
Continuous
 62
     7
370
     0
100
AcDbCircle
 10
4.7736751816
 20
7.3577241787
 30
0.0
 40
0.0166125808083599
100
AcDbArc
 50
250.2793938029
 51
305.1636268368
  0
SPLINE
  5
1E5
330
1F
100
AcDbEntity
  8
0
  6
Continuous
 62
     7
370
     0
100
AcDbSpline
210
0.0
220
0.0
230
1.0
 70
     8
 71
     3
 72
    11
 73
     7
 74
     0
 42
0.00000001
 43
0.00000001
 40
0.0
 40
0.0
 40
0.0
 40
0.0
 40
0.2500620333659257
 40
0.499913837696673
 40
0.7498401673007664
 40
1.0
 40
1.0
 40
1.0
 40
1.0
 10
4.76660067124567
 20
7.346183054663384
 30
0.0
 10
4.766335319673426
 20
7.345807463892636
 30
0.0
 10
4.765804839612005
 20
7.345056598113132
 30
0.0
 10
4.765858642519348
 20
7.343902915900443
 30
0.0
 10
4.766589508551062
 20
7.34285408592063
 30
0.0
 10
4.767576039130771
 20
7.342342067137418
 30
0.0
 10
4.768069534738879
 20
7.342085938208441
 30
0.0
  0
SPLINE
  5
1E6
330
1F
100
AcDbEntity
  8
0
  6
Continuous
 62
     7
370
     0
100
AcDbSpline
210
0.0
220
0.0
230
1.0
 70
    24
 71
     1
 72
     4
 73
     2
 74
     0
 42
0.00000001
 43
0.00000001
 40
0.0
 40
0.0
 40
1.0
 40
1.0
 10
4.769920631468204
 20
7.348421349414524
 30
0.0
 10
4.76660067124567
 20
7.346183054663384
 30
0.0
  0
LINE
  5
1E7
330
1F
100
AcDbEntity
  8
0
  6
Continuous
 62
     7
370
     0
100
AcDbLine
 10
4.7922702565
 20
7.3613235133
 30
0.0
 11
4.7699206315
 21
7.3484213494
 31
0.0
  0
ARC
  5
1E8
330
1F
100
AcDbEntity
  8
0
  6
Continuous
 62
     7
370
     0
100
AcDbCircle
 10
4.6142383089
 20
6.9486262896
 30
0.0
 40
0.4494600903354602
100
AcDbArc
 50
66.6652922105
 51
68.7686877694
  0
LINE
  5
1E9
330
1F
100
AcDbEntity
  8
0
  6
Continuous
 62
     7
370
     0
100
AcDbLine
 10
4.7560080015
 20
7.3554595263
 30
0.0
 11
4.7770031039
 21
7.3675797409
 31
0.0
  0
ARC
  5
1EA
330
1F
100
AcDbEntity
  8
0
  6
Continuous
 62
     7
370
     0
100
AcDbCircle
 10
4.7460861358
 20
7.3697052855
 30
0.0
 40
0.0173604456568575
100
AcDbArc
 50
253.7377883631
 51
304.8563840997
  0
SPLINE
  5
1EB
330
1F
100
AcDbEntity
  8
0
  6
Continuous
 62
     7
370
     0
100
AcDbSpline
210
0.0
220
0.0
230
1.0
 70
     8
 71
     3
 72
    10
 73
     6
 74
     0
 42
0.00000001
 43
0.00000001
 40
0.0
 40
0.0
 40
0.0
 40
0.0
 40
0.4988226573032948
 40
0.7491700015752195
 40
1.0
 40
1.0
 40
1.0
 40
1.0
 10
4.739272882312841
 20
7.355739229735673
 30
0.0
 10
4.739236469071873
 20
7.355203220207808
 30
0.0
 10
4.739181780882806
 20
7.354398200121096
 30
0.0
 10
4.740126427120749
 20
7.353523817432056
 30
0.0
 10
4.74085832558039
 20
7.353200994707581
 30
0.0
 10
4.741224627234194
 20
7.353039427899639
 30
0.0
  0
SPLINE
  5
1EC
330
1F
100
AcDbEntity
  8
0
  6
Continuous
 62
     7
370
     0
100
AcDbSpline
210
0.0
220
0.0
230
1.0
 70
     8
 71
     3
 72
     9
 73
     5
 74
     0
 42
0.00000001
 43
0.00000001
 40
0.0
 40
0.0
 40
0.0
 40
0.0
 40
0.5015771373280987
 40
1.0
 40
1.0
 40
1.0
 40
1.0
 10
4.74225461731529
 20
7.358503334197819
 30
0.0
 10
4.741535185241349
 20
7.358074671930601
 30
0.0
 10
4.740100845395292
 20
7.357220043130132
 30
0.0
 10
4.739548289035485
 20
7.356231795131954
 30
0.0
 10
4.739272882312841
 20
7.355739229735673
 30
0.0
  0
LINE
  5
1ED
330
1F
100
AcDbEntity
  8
0
  6
Continuous
 62
     7
370
     0
100
AcDbLine
 10
4.7654307308
 20
7.3718826197
 30
0.0
 11
4.7422546173
 21
7.3585033342
 31
0.0
  0
ARC
  5
1EE
330
1F
100
AcDbEntity
  8
0
  6
Continuous
 62
     7
370
     0
100
AcDbCircle
 10
4.630410784
 20
6.9920886483
 30
0.0
 40
0.403080447008714
100
AcDbArc
 50
70.4292728313
 51
72.6910803254
  0
LINE
  5
1EF
330
1F
100
AcDbEntity
  8
0
  6
Continuous
 62
     7
370
     0
100
AcDbLine
 10
4.7246122387
 20
7.3620649825
 30
0.0
 11
4.7503366916
 21
7.376915393
 31
0.0
  0
SPLINE
  5
1F0
330
1F
100
AcDbEntity
  8
0
  6
Continuous
 62
     7
370
     0
100
AcDbSpline
210
0.0
220
0.0
230
1.0
 70
     8
 71
     3
 72
    13
 73
     9
 74
     0
 42
0.00000001
 43
0.00000001
 40
0.0
 40
0.0
 40
0.0
 40
0.0
 40
0.2493551011004579
 40
0.3758643206428228
 40
0.4994912623307752
 40
0.6184449072822346
 40
0.7497843925019633
 40
0.9999999999999999
 40
0.9999999999999999
 40
0.9999999999999999
 40
0.9999999999999999
 10
4.722270626586768
 20
7.348162506777045
 30
0.0
 10
4.720407703539503
 20
7.348950539369867
 30
0.0
 10
4.717599634635036
 20
7.350138376850788
 30
0.0
 10
4.715997520630496
 20
7.352444517825946
 30
0.0
 10
4.715909161465959
 20
7.354345764195029
 30
0.0
 10
4.716987368382969
 20
7.356360541382733
 30
0.0
 10
4.719661909039626
 20
7.359009547199729
 30
0.0
 10
4.722651638527389
 20
7.360854863702154
 30
0.0
 10
4.724612238698408
 20
7.36206498249887
 30
0.0
  0
ARC
  5
1F1
330
1F
100
AcDbEntity
  8
0
  6
Continuous
 62
     7
370
     0
100
AcDbCircle
 10
4.7351461103
 20
7.3878241409
 30
0.0
 40
0.0416992002940484
100
AcDbArc
 50
252.0148480817
 51
281.5270448803
  0
SPLINE
  5
1F2
330
1F
100
AcDbEntity
  8
0
  6
Continuous
 62
     7
370
     0
100
AcDbSpline
210
0.0
220
0.0
230
1.0
 70
     8
 71
     3
 72
    12
 73
     8
 74
     0
 42
0.00000001
 43
0.00000001
 40
0.0
 40
0.0
 40
0.0
 40
0.0
 40
0.250353368840787
 40
0.499996194321627
 40
0.7494886161542254
 40
0.8747044873187592
 40
1.0
 40
1.0
 40
1.0
 40
1.0
 10
4.748880559990814
 20
7.337799062044841
 30
0.0
 10
4.747665794032141
 20
7.338364161443906
 30
0.0
 10
4.745239709817094
 20
7.339492756398527
 30
0.0
 10
4.742706831655513
 20
7.34167138448325
 30
0.0
 10
4.742309574084721
 20
7.343861249248492
 30
0.0
 10
4.742744880535716
 20
7.34563674478863
 30
0.0
 10
4.74323416209006
 20
7.346522816428975
 30
0.0
 10
4.743478880642389
 20
7.346965993097218
 30
0.0
  0
ARC
  5
1F3
330
1F
100
AcDbEntity
  8
0
  6
Continuous
 62
     7
370
     0
100
AcDbCircle
 10
4.7637937041
 20
7.3762266287
 30
0.0
 40
0.0412198950681306
100
AcDbArc
 50
248.7895375451
 51
278.9051704853
  0
LINE
  5
1F4
330
1F
100
AcDbEntity
  8
0
  6
Continuous
 62
     7
370
     0
100
AcDbLine
 10
4.7638610715
 20
7.3318589233
 30
0.0
 11
4.770174525
 21
7.3355036024
 31
0.0
  0
ARC
  5
1F5
330
1F
100
AcDbEntity
  8
0
  6
Continuous
 62
     7
370
     0
100
AcDbCircle
 10
4.5522599615
 20
6.8784081231
 30
0.0
 40
0.5003925038938547
100
AcDbArc
 50
63.1599854729
 51
64.9840676887
  0
LINE
  5
1F6
330
1F
100
AcDbEntity
  8
0
  6
Continuous
 62
     7
370
     0
100
AcDbLine
 10
4.8193283353
 20
7.3486437543
 30
0.0
 11
4.7781875771
 21
7.3248937001
 31
0.0
  0
ARC
  5
1F7
330
1F
100
AcDbEntity
  8
0
  6
Continuous
 62
     7
370
     0
100
AcDbCircle
 10
4.5938434984
 20
6.9030576723
 30
0.0
 40
0.4993899960042274
100
AcDbArc
 50
63.1587183479
 51
65.1194593945
  0
ARC
  5
1F8
330
1F
100
AcDbEntity
  8
0
  6
Continuous
 62
     7
370
     0
100
AcDbCircle
 10
4.8783069829
 20
7.2609598463
 30
0.0
 40
0.0442478784784941
100
AcDbArc
 50
53.8915928713
 51
127.2235511528
  0
SPLINE
  5
1F9
330
1F
100
AcDbEntity
  8
0
  6
Continuous
 62
     7
370
     0
100
AcDbSpline
210
0.0
220
0.0
230
1.0
 70
    24
 71
     1
 72
     4
 73
     2
 74
     0
 42
0.00000001
 43
0.00000001
 40
0.0
 40
0.0
 40
1.0
 40
1.0
 10
4.840055620884589
 20
7.287559336797131
 30
0.0
 10
4.851540269847503
 20
7.296193606000365
 30
0.0
  0
SPLINE
  5
1FA
330
1F
100
AcDbEntity
  8
0
  6
Continuous
 62
     7
370
     0
100
AcDbSpline
210
0.0
220
0.0
230
1.0
 70
     8
 71
     3
 72
    12
 73
     8
 74
     0
 42
0.00000001
 43
0.00000001
 40
0.0
 40
0.0
 40
0.0
 40
0.0
 40
0.2503309494299791
 40
0.4997648043321523
 40
0.6249322238031076
 40
0.750190450128109
 40
1.0
 40
1.0
 40
1.0
 40
1.0
 10
4.845924313610309
 20
7.263513152287023
 30
0.0
 10
4.843611013671501
 20
7.265316799372389
 30
0.0
 10
4.838992703814442
 20
7.268917629931915
 30
0.0
 10
4.835668232191541
 20
7.274331061454979
 30
0.0
 10
4.835309417821676
 20
7.278682492868882
 30
0.0
 10
4.836066538813811
 20
7.282963264289668
 30
0.0
 10
4.83846089059925
 20
7.285721947670707
 30
0.0
 10
4.840055620884589
 20
7.287559336797131
 30
0.0
  0
ARC
  5
1FB
330
1F
100
AcDbEntity
  8
0
  6
Continuous
 62
     7
370
     0
100
AcDbCircle
 10
4.8731227304
 20
7.2980336253
 30
0.0
 40
0.0439478888647117
100
AcDbArc
 50
231.7656952168
 51
304.9310886953
  0
ARC
  5
1FC
330
1F
100
AcDbEntity
  8
0
  6
Continuous
 62
     7
370
     0
100
AcDbCircle
 10
4.8834605153
 20
7.2937257009
 30
0.0
 40
0.035016140355595
100
AcDbArc
 50
295.0504027477
 51
331.8379469709
  0
ARC
  5
1FD
330
1F
100
AcDbEntity
  8
0
  6
Continuous
 62
     7
370
     0
100
AcDbCircle
 10
4.896273313
 20
7.2802814808
 30
0.0
 40
0.0183191587476594
100
AcDbArc
 50
350.31377687
 51
63.7247224372
  0
LINE
  5
1FE
330
1F
100
AcDbEntity
  8
0
  6
Continuous
 62
     7
370
     0
100
AcDbLine
 10
4.960625985
 20
7.2116983631
 30
0.0
 11
4.9731151437
 21
7.218908201
 31
0.0
  0
ARC
  5
1FF
330
1F
100
AcDbEntity
  8
0
  6
Continuous
 62
     7
370
     0
100
AcDbCircle
 10
4.3401938681
 20
6.5799144482
 30
0.0
 40
0.8854868304122889
100
AcDbArc
 50
41.8868736737
 51
45.5193930452
  0
LINE
  5
200
330
1F
100
AcDbEntity
  8
0
  6
Continuous
 62
     7
370
     0
100
AcDbLine
 10
5.0118965599
 20
7.1783302101
 30
0.0
 11
4.9994074011
 21
7.1711203723
 31
0.0
  0
ARC
  5
201
330
1F
100
AcDbEntity
  8
0
  6
Continuous
 62
     7
370
     0
100
AcDbCircle
 10
4.3526830268
 20
6.5871242861
 30
0.0
 40
0.8854868304101893
100
AcDbArc
 50
41.8868736737
 51
45.5193930452
  0
LINE
  5
202
330
1F
100
AcDbEntity
  8
0
  6
Continuous
 62
     7
370
     0
100
AcDbLine
 10
5.0765438043
 20
7.0774783509
 30
0.0
 11
5.0993181526
 21
7.0906257023
 31
0.0
  0
ARC
  5
203
330
1F
100
AcDbEntity
  8
0
  6
Continuous
 62
     7
370
     0
100
AcDbCircle
 10
4.2475922425
 20
6.5015795549
 30
0.0
 40
1.009366194695732
100
AcDbArc
 50
34.7889274593
 51
36.5410648629
  0
LINE
  5
204
330
1F
100
AcDbEntity
  8
0
  6
Continuous
 62
     7
370
     0
100
AcDbLine
 10
5.0467931597
 20
7.0957692178
 30
0.0
 11
5.058547662
 21
7.1025549476
 31
0.0
  0
ARC
  5
205
330
1F
100
AcDbEntity
  8
0
  6
Continuous
 62
     7
370
     0
100
AcDbCircle
 10
4.2358377402
 20
6.4947938251
 30
0.0
 40
1.009366194699629
100
AcDbArc
 50
34.7889274593
 51
36.5410648629
  0
LINE
  5
206
330
1F
100
AcDbEntity
  8
0
  6
Continuous
 62
     7
370
     0
100
AcDbLine
 10
5.0559734252
 20
7.0656033238
 30
0.0
 11
5.0647893019
 21
7.0706926212
 31
0.0
  0
ARC
  5
207
330
1F
100
AcDbEntity
  8
0
  6
Continuous
 62
     7
370
     0
100
AcDbCircle
 10
4.228287155
 20
6.4906044353
 30
0.0
 40
1.007813615566379
100
AcDbArc
 50
34.7879530597
 51
36.8341902373
  0
LINE
  5
208
330
1F
100
AcDbEntity
  8
0
  6
Continuous
 62
     7
370
     0
100
AcDbLine
 10
5.0216909245
 20
7.0871560762
 30
0.0
 11
5.0349147397
 21
7.0947900222
 31
0.0
  0
ARC
  5
209
330
1F
100
AcDbEntity
  8
0
  6
Continuous
 62
     7
370
     0
100
AcDbCircle
 10
4.2097454512
 20
6.4791177725
 30
0.0
 40
1.01437962830591
100
AcDbArc
 50
33.3940810125
 51
36.828289529
  0
LINE
  5
20A
330
1F
100
AcDbEntity
  8
0
  6
Continuous
 62
     7
370
     0
100
AcDbLine
 10
5.11322434
 20
7.0700830577
 30
0.0
 11
5.0566557975
 21
7.0374267333
 31
0.0
  0
ARC
  5
20B
330
1F
100
AcDbEntity
  8
0
  6
Continuous
 62
     7
370
     0
100
AcDbCircle
 10
4.2588805281
 20
6.5067196598
 30
0.0
 40
1.02336780638084
100
AcDbArc
 50
33.4012829589
 51
34.7901926718
  0
LINE
  5
20C
330
1F
100
AcDbEntity
  8
0
  6
Continuous
 62
     7
370
     0
100
AcDbLine
 10
4.6581258503
 20
7.4206850964
 30
0.0
 11
4.6684110398
 21
7.4266226099
 31
0.0
  0
ARC
  5
20D
330
1F
100
AcDbEntity
  8
0
  6
Continuous
 62
     7
370
     0
100
AcDbCircle
 10
4.7135924297
 20
7.2094141621
 30
0.0
 40
0.2184306505230469
100
AcDbArc
 50
101.307387992
 51
104.7103232244
  0
LINE
  5
20E
330
1F
100
AcDbEntity
  8
0
  6
Continuous
 62
     7
370
     0
100
AcDbLine
 10
4.6810493563
 20
7.4295424527
 30
0.0
 11
4.6707641668
 21
7.4236049392
 31
0.0
  0
ARC
  5
20F
330
1F
100
AcDbEntity
  8
0
  6
Continuous
 62
     7
370
     0
100
AcDbCircle
 10
4.7238776192
 20
7.2153516757
 30
0.0
 40
0.2184306505218957
100
AcDbArc
 50
101.307387992
 51
104.7103232244
  0
SPLINE
  5
210
330
1F
100
AcDbEntity
  8
0
  6
Continuous
 62
     7
370
     0
100
AcDbSpline
210
0.0
220
0.0
230
1.0
 70
     8
 71
     3
 72
    13
 73
     9
 74
     0
 42
0.00000001
 43
0.00000001
 40
0.0
 40
0.0
 40
0.0
 40
0.0
 40
0.2502499937364415
 40
0.3875326883099369
 40
0.5000553989275778
 40
0.614852255171184
 40
0.7498927631184095
 40
1.0
 40
1.0
 40
1.0
 40
1.0
 10
4.722738486865585
 20
7.444620850375894
 30
0.0
 10
4.722060749283927
 20
7.444219059819262
 30
0.0
 10
4.721011216922039
 20
7.443596854111187
 30
0.0
 10
4.720012278597084
 20
7.442856153770813
 30
0.0
 10
4.719592792190462
 20
7.442393358237773
 30
0.0
 10
4.719720443537311
 20
7.442120902407128
 30
0.0
 10
4.720404275352942
 20
7.441964129215852
 30
0.0
 10
4.721298948694961
 20
7.442024097734332
 30
0.0
 10
4.721879931656663
 20
7.442063040089982
 30
0.0
  0
ARC
  5
211
330
1F
100
AcDbEntity
  8
0
  6
Continuous
 62
     7
370
     0
100
AcDbCircle
 10
4.7639958616
 20
7.2716362752
 30
0.0
 40
0.177836537948155
100
AcDbArc
 50
97.1825048699
 51
103.4146162144
  0
ARC
  5
212
330
1F
100
AcDbEntity
  8
0
  6
Continuous
 62
     7
370
     0
100
AcDbCircle
 10
4.7324416629
 20
7.5288982266
 30
0.0
 40
0.0813564247397023
100
AcDbArc
 50
276.5775759667
 51
286.0877917632
  0
SPLINE
  5
213
330
1F
100
AcDbEntity
  8
0
  6
Continuous
 62
     7
370
     0
100
AcDbSpline
210
0.0
220
0.0
230
1.0
 70
     8
 71
     3
 72
     9
 73
     5
 74
     0
 42
0.00000001
 43
0.00000001
 40
0.0
 40
0.0
 40
0.0
 40
0.0
 40
0.5005138828869266
 40
1.0
 40
1.0
 40
1.0
 40
1.0
 10
4.764632265733511
 20
7.45487791207095
 30
0.0
 10
4.763208680788481
 20
7.45410602185041
 30
0.0
 10
4.760364434117801
 20
7.452563826425004
 30
0.0
 10
4.756777806646007
 20
7.451339432174431
 30
0.0
 10
4.75498633601659
 20
7.450727864244397
 30
0.0
  0
SPLINE
  5
214
330
1F
100
AcDbEntity
  8
0
  6
Continuous
 62
     7
370
     0
100
AcDbSpline
210
0.0
220
0.0
230
1.0
 70
     8
 71
     3
 72
    13
 73
     9
 74
     0
 42
0.00000001
 43
0.00000001
 40
0.0
 40
0.0
 40
0.0
 40
0.0
 40
0.2503342404082426
 40
0.49976007102372
 40
0.6241777149147242
 40
0.7517673256865567
 40
0.8742692938063874
 40
1.0
 40
1.0
 40
1.0
 40
1.0
 10
4.762285665778959
 20
7.460905681225213
 30
0.0
 10
4.763746324996392
 20
7.460933425161791
 30
0.0
 10
4.766662343009172
 20
7.460988812358093
 30
0.0
 10
4.768923811916062
 20
7.460215043719289
 30
0.0
 10
4.769143414976655
 20
7.458966590289594
 30
0.0
 10
4.768593363924248
 20
7.4577996294042
 30
0.0
 10
4.767076887849188
 20
7.456384371279881
 30
0.0
 10
4.765454175259957
 20
7.455384400647276
 30
0.0
 10
4.764632265733511
 20
7.45487791207095
 30
0.0
  0
ARC
  5
215
330
1F
100
AcDbEntity
  8
0
  6
Continuous
 62
     7
370
     0
100
AcDbCircle
 10
4.7654331041
 20
7.4060419389
 30
0.0
 40
0.0549539496879005
100
AcDbArc
 50
93.2833612951
 51
104.0845265307
  0
SPLINE
  5
216
330
1F
100
AcDbEntity
  8
0
  6
Continuous
 62
     7
370
     0
100
AcDbSpline
210
0.0
220
0.0
230
1.0
 70
    24
 71
     1
 72
     4
 73
     2
 74
     0
 42
0.00000001
 43
0.00000001
 40
0.0
 40
0.0
 40
1.0
 40
1.0
 10
4.742481089151983
 20
7.456380588021828
 30
0.0
 10
4.75205989139712
 20
7.459343850418777
 30
0.0
  0
SPLINE
  5
217
330
1F
100
AcDbEntity
  8
0
  6
Continuous
 62
     7
370
     0
100
AcDbSpline
210
0.0
220
0.0
230
1.0
 70
     8
 71
     3
 72
     9
 73
     5
 74
     0
 42
0.00000001
 43
0.00000001
 40
0.0
 40
0.0
 40
0.0
 40
0.0
 40
0.4998712278477518
 40
1.0
 40
1.0
 40
1.0
 40
1.0
 10
4.746221983367116
 20
7.459219904559045
 30
0.0
 10
4.745775351442419
 20
7.458789704858743
 30
0.0
 10
4.744881857478745
 20
7.457929083810092
 30
0.0
 10
4.743281482650044
 20
7.456896841900591
 30
0.0
 10
4.742481089151983
 20
7.456380588021828
 30
0.0
  0
ARC
  5
218
330
1F
100
AcDbEntity
  8
0
  6
Continuous
 62
     7
370
     0
100
AcDbCircle
 10
4.7725253747
 20
7.2292225233
 30
0.0
 40
0.2314965740383265
100
AcDbArc
 50
96.5242221539
 51
99.6663276216
  0
SPLINE
  5
219
330
1F
100
AcDbEntity
  8
0
  6
Continuous
 62
     7
370
     0
100
AcDbSpline
210
0.0
220
0.0
230
1.0
 70
     8
 71
     3
 72
     9
 73
     5
 74
     0
 42
0.00000001
 43
0.00000001
 40
0.0
 40
0.0
 40
0.0
 40
0.0
 40
0.5000538352470613
 40
1.0
 40
1.0
 40
1.0
 40
1.0
 10
4.726601934648655
 20
7.452679428095872
 30
0.0
 10
4.728111137953583
 20
7.453556862931387
 30
0.0
 10
4.731129219605096
 20
7.455311543675073
 30
0.0
 10
4.732812981236511
 20
7.456725487182966
 30
0.0
 10
4.733654771406495
 20
7.457432382816914
 30
0.0
  0
LINE
  5
21A
330
1F
100
AcDbEntity
  8
0
  6
Continuous
 62
     7
370
     0
100
AcDbLine
 10
4.7085110209
 20
7.4422357659
 30
0.0
 11
4.7266019346
 21
7.4526794281
 31
0.0
  0
ARC
  5
21B
330
1F
100
AcDbEntity
  8
0
  6
Continuous
 62
     7
370
     0
100
AcDbCircle
 10
4.7141974991
 20
7.427480632
 30
0.0
 40
0.0158129697070631
100
AcDbArc
 50
111.0761541876
 51
145.4029846095
  0
ARC
  5
21C
330
1F
100
AcDbEntity
  8
0
  6
Continuous
 62
     7
370
     0
100
AcDbCircle
 10
4.7076758629
 20
7.448048197
 30
0.0
 40
0.0132849359918401
100
AcDbArc
 50
240.731412151
 51
293.6401124057
  0
SPLINE
  5
21D
330
1F
100
AcDbEntity
  8
0
  6
Continuous
 62
     7
370
     0
100
AcDbSpline
210
0.0
220
0.0
230
1.0
 70
     8
 71
     3
 72
     9
 73
     5
 74
     0
 42
0.00000001
 43
0.00000001
 40
0.0
 40
0.0
 40
0.0
 40
0.0
 40
0.4987757766930815
 40
1.0
 40
1.0
 40
1.0
 40
1.0
 10
4.728342612522397
 20
7.438216961571952
 30
0.0
 10
4.725419387728111
 20
7.437617344040889
 30
0.0
 10
4.719558588284991
 20
7.436415165508804
 30
0.0
 10
4.715191757167655
 20
7.43605741599356
 30
0.0
 10
4.713002995632555
 20
7.435878103270645
 30
0.0
  0
ARC
  5
21E
330
1F
100
AcDbEntity
  8
0
  6
Continuous
 62
     7
370
     0
100
AcDbCircle
 10
4.7072995292
 20
7.5204404318
 30
0.0
 40
0.0848734965475042
100
AcDbArc
 50
284.3553308776
 51
297.4393149618
  0
SPLINE
  5
21F
330
1F
100
AcDbEntity
  8
0
  6
Continuous
 62
     7
370
     0
100
AcDbSpline
210
0.0
220
0.0
230
1.0
 70
    24
 71
     1
 72
     4
 73
     2
 74
     0
 42
0.00000001
 43
0.00000001
 40
0.0
 40
0.0
 40
1.0
 40
1.0
 10
4.733582985708184
 20
7.445512966740704
 30
0.0
 10
4.746409989512522
 20
7.44511525469834
 30
0.0
  0
SPLINE
  5
220
330
1F
100
AcDbEntity
  8
0
  6
Continuous
 62
     7
370
     0
100
AcDbSpline
210
0.0
220
0.0
230
1.0
 70
     8
 71
     3
 72
     9
 73
     5
 74
     0
 42
0.00000001
 43
0.00000001
 40
0.0
 40
0.0
 40
0.0
 40
0.0
 40
0.498362482836699
 40
1.0
 40
1.0
 40
1.0
 40
1.0
 10
4.727802044331399
 20
7.443175303096294
 30
0.0
 10
4.728804520034503
 20
7.4435239186017
 30
0.0
 10
4.730816059300857
 20
7.444223440570974
 30
0.0
 10
4.732658665373028
 20
7.445082187209223
 30
0.0
 10
4.733582985708184
 20
7.445512966740704
 30
0.0
  0
SPLINE
  5
221
330
1F
100
AcDbEntity
  8
0
  6
Continuous
 62
     7
370
     0
100
AcDbSpline
210
0.0
220
0.0
230
1.0
 70
     8
 71
     3
 72
     9
 73
     5
 74
     0
 42
0.00000001
 43
0.00000001
 40
0.0
 40
0.0
 40
0.0
 40
0.0
 40
0.5014167496225501
 40
1.0
 40
1.0
 40
1.0
 40
1.0
 10
4.721879931656663
 20
7.442063040089982
 30
0.0
 10
4.722710073325737
 20
7.442141696659112
 30
0.0
 10
4.72436566554458
 20
7.442298565310165
 30
0.0
 10
4.726658750554007
 20
7.442883609741903
 30
0.0
 10
4.7278020443314
 20
7.443175303096294
 30
0.0
  0
LINE
  5
222
330
1F
100
AcDbEntity
  8
0
  6
Continuous
 62
     7
370
     0
100
AcDbLine
 10
4.8386514944
 20
7.4217749683
 30
0.0
 11
4.819320848
 21
7.4106156237
 31
0.0
  0
SPLINE
  5
223
330
1F
100
AcDbEntity
  8
0
  6
Continuous
 62
     7
370
     0
100
AcDbSpline
210
0.0
220
0.0
230
1.0
 70
     8
 71
     3
 72
    11
 73
     7
 74
     0
 42
0.00000001
 43
0.00000001
 40
0.0
 40
0.0
 40
0.0
 40
0.0
 40
0.4989693492838167
 40
0.7492892892638007
 40
0.8746232027899209
 40
1.0
 40
1.0
 40
1.0
 40
1.0
 10
4.845802719079314
 20
7.414990752386249
 30
0.0
 10
4.843796088458419
 20
7.415875660228883
 30
0.0
 10
4.840782783465031
 20
7.417204503311976
 30
0.0
 10
4.839177391775454
 20
7.419396401175673
 30
0.0
 10
4.838688803150871
 20
7.420726455765744
 30
0.0
 10
4.838663932071751
 20
7.421425424271081
 30
0.0
 10
4.838651494405111
 20
7.421774968302497
 30
0.0
  0
ARC
  5
224
330
1F
100
AcDbEntity
  8
0
  6
Continuous
 62
     7
370
     0
100
AcDbCircle
 10
4.8590286545
 20
7.4586077949
 30
0.0
 40
0.0455781939252937
100
AcDbArc
 50
253.131195005
 51
302.9587752218
  0
SPLINE
  5
225
330
1F
100
AcDbEntity
  8
0
  6
Continuous
 62
     7
370
     0
100
AcDbSpline
210
0.0
220
0.0
230
1.0
 70
     8
 71
     3
 72
    13
 73
     9
 74
     0
 42
0.00000001
 43
0.00000001
 40
0.0
 40
0.0
 40
0.0
 40
0.0
 40
0.1251834461243086
 40
0.2502299178031928
 40
0.3715684377487988
 40
0.5002574982631033
 40
0.7499110761102106
 40
1.0
 40
1.0
 40
1.0
 40
1.0
 10
4.888514405958129
 20
7.439551883821093
 30
0.0
 10
4.889732489728988
 20
7.439042916670095
 30
0.0
 10
4.892167324455909
 20
7.438025539274745
 30
0.0
 10
4.894522853270995
 20
7.435886447335277
 30
0.0
 10
4.895457450310738
 20
7.433332988822236
 30
0.0
 10
4.894609127182498
 20
7.429687940106809
 30
0.0
 10
4.891176738924855
 20
7.425063238881592
 30
0.0
 10
4.886276874682848
 20
7.421931891676821
 30
0.0
 10
4.883824808326212
 20
7.420364854152407
 30
0.0
  0
ARC
  5
226
330
1F
100
AcDbEntity
  8
0
  6
Continuous
 62
     7
370
     0
100
AcDbCircle
 10
4.8786989899
 20
7.4117501173
 30
0.0
 40
0.0294835651771228
100
AcDbArc
 50
70.5544164423
 51
88.7054698208
  0
SPLINE
  5
227
330
1F
100
AcDbEntity
  8
0
  6
Continuous
 62
     7
370
     0
100
AcDbSpline
210
0.0
220
0.0
230
1.0
 70
    24
 71
     1
 72
     4
 73
     2
 74
     0
 42
0.00000001
 43
0.00000001
 40
0.0
 40
0.0
 40
1.0
 40
1.0
 10
4.868900708740851
 20
7.440235151839474
 30
0.0
 10
4.879365079365668
 20
7.441226157395153
 30
0.0
  0
LINE
  5
228
330
1F
100
AcDbEntity
  8
0
  6
Continuous
 62
     7
370
     0
100
AcDbLine
 10
4.8747894389
 20
7.4436346434
 30
0.0
 11
4.8689007087
 21
7.4402351518
 31
0.0
  0
ARC
  5
229
330
1F
100
AcDbEntity
  8
0
  6
Continuous
 62
     7
370
     0
100
AcDbCircle
 10
4.7535671644
 20
7.0744328076
 30
0.0
 40
0.3885934062704979
100
AcDbArc
 50
71.8231269644
 51
73.9718071005
  0
LINE
  5
22A
330
1F
100
AcDbEntity
  8
0
  6
Continuous
 62
     7
370
     0
100
AcDbLine
 10
4.8042932716
 20
7.4152636898
 30
0.0
 11
4.8608618141
 21
7.4479200143
 31
0.0
  0
ARC
  5
22B
330
1F
100
AcDbEntity
  8
0
  6
Continuous
 62
     7
370
     0
100
AcDbCircle
 10
4.6967416082
 20
7.040923681
 30
0.0
 40
0.3894840208154839
100
AcDbArc
 50
71.6559602828
 51
73.9701072759
  0
ARC
  5
22C
330
1F
100
AcDbEntity
  8
0
  6
Continuous
 62
     7
370
     0
100
AcDbCircle
 10
4.9146279267
 20
7.4371025734
 30
0.0
 40
0.0476863168615239
100
AcDbArc
 50
242.186413847
 51
298.0188435791
  0
SPLINE
  5
22D
330
1F
100
AcDbEntity
  8
0
  6
Continuous
 62
     7
370
     0
100
AcDbSpline
210
0.0
220
0.0
230
1.0
 70
     8
 71
     3
 72
    18
 73
    14
 74
     0
 42
0.00000001
 43
0.00000001
 40
0.0
 40
0.0
 40
0.0
 40
0.0
 40
0.0900867709944613
 40
0.168972461886954
 40
0.2502162937108453
 40
0.3750514675976213
 40
0.435982737661184
 40
0.5001070381601485
 40
0.6237637372807485
 40
0.7500568082058463
 40
0.832170893710806
 40
0.9167822886099908
 40
1.0
 40
1.0
 40
1.0
 40
1.0
 10
4.934438148659428
 20
7.41979555145469
 30
0.0
 10
4.935507367577224
 20
7.419246511183451
 30
0.0
 10
4.937512862400069
 20
7.418216696425056
 30
0.0
 10
4.940225171617161
 20
7.416520336072794
 30
0.0
 10
4.94299649100424
 20
7.414424460816867
 30
0.0
 10
4.945031403797711
 20
7.412198728858357
 30
0.0
 10
4.946076157288884
 20
7.409917689150836
 30
0.0
 10
4.946592088204778
 20
7.407569215130186
 30
0.0
 10
4.946213031644847
 20
7.404532292013332
 30
0.0
 10
4.944689870602959
 20
7.40139750419509
 30
0.0
 10
4.942416135628294
 20
7.398833849323542
 30
0.0
 10
4.939972634377981
 20
7.396809294868993
 30
0.0
 10
4.938004859619605
 20
7.395603373406543
 30
0.0
 10
4.937029142620666
 20
7.395005419771204
 30
0.0
  0
ARC
  5
22E
330
1F
100
AcDbEntity
  8
0
  6
Continuous
 62
     7
370
     0
100
AcDbCircle
 10
4.9120173128
 20
7.3766214371
 30
0.0
 40
0.0486487207366897
100
AcDbArc
 50
62.5566061001
 51
104.7578011332
  0
SPLINE
  5
22F
330
1F
100
AcDbEntity
  8
0
  6
Continuous
 62
     7
370
     0
100
AcDbSpline
210
0.0
220
0.0
230
1.0
 70
    24
 71
     1
 72
     4
 73
     2
 74
     0
 42
0.00000001
 43
0.00000001
 40
0.0
 40
0.0
 40
1.0
 40
1.0
 10
4.914223381898911
 20
7.415547149593887
 30
0.0
 10
4.899624848323772
 20
7.423665298077915
 30
0.0
  0
SPLINE
  5
230
330
1F
100
AcDbEntity
  8
0
  6
Continuous
 62
     7
370
     0
100
AcDbSpline
210
0.0
220
0.0
230
1.0
 70
    24
 71
     1
 72
     4
 73
     2
 74
     0
 42
0.00000001
 43
0.00000001
 40
0.0
 40
0.0
 40
1.0
 40
1.0
 10
4.919413639082699
 20
7.415742492236636
 30
0.0
 10
4.914223381898911
 20
7.415547149593887
 30
0.0
  0
ARC
  5
231
330
1F
100
AcDbEntity
  8
0
  6
Continuous
 62
     7
370
     0
100
AcDbCircle
 10
4.9180135105
 20
7.3994780656
 30
0.0
 40
0.0163245806177274
100
AcDbArc
 50
65.4063616572
 51
85.0798039788
  0
SPLINE
  5
232
330
1F
100
AcDbEntity
  8
0
  6
Continuous
 62
     7
370
     0
100
AcDbSpline
210
0.0
220
0.0
230
1.0
 70
     8
 71
     3
 72
    10
 73
     6
 74
     0
 42
0.00000001
 43
0.00000001
 40
0.0
 40
0.0
 40
0.0
 40
0.0
 40
0.2550650714566995
 40
0.5011546383380373
 40
1.0
 40
1.0
 40
1.0
 40
1.0
 10
4.927974733546336
 20
7.409934390801529
 30
0.0
 10
4.927989590699034
 20
7.410360697065532
 30
0.0
 10
4.928018782194932
 20
7.411198308269364
 30
0.0
 10
4.927276344225182
 20
7.412816319486322
 30
0.0
 10
4.925797667243387
 20
7.413717945058046
 30
0.0
 10
4.924807471824295
 20
7.414321718243027
 30
0.0
  0
SPLINE
  5
233
330
1F
100
AcDbEntity
  8
0
  6
Continuous
 62
     7
370
     0
100
AcDbSpline
210
0.0
220
0.0
230
1.0
 70
     8
 71
     3
 72
     9
 73
     5
 74
     0
 42
0.00000001
 43
0.00000001
 40
0.0
 40
0.0
 40
0.0
 40
0.0
 40
0.5011160372996355
 40
1.0
 40
1.0
 40
1.0
 40
1.0
 10
4.924470483089041
 20
7.405751384395134
 30
0.0
 10
4.925331395769121
 20
7.406389480249174
 30
0.0
 10
4.927049386445928
 20
7.407662829746185
 30
0.0
 10
4.927666743842121
 20
7.409178331353962
 30
0.0
 10
4.927974733546336
 20
7.409934390801528
 30
0.0
  0
ARC
  5
234
330
1F
100
AcDbEntity
  8
0
  6
Continuous
 62
     7
370
     0
100
AcDbCircle
 10
4.6997072347
 20
6.9699522649
 30
0.0
 40
0.4903461943554245
100
AcDbArc
 50
62.7175944728
 51
66.7817225357
  0
LINE
  5
235
330
1F
100
AcDbEntity
  8
0
  6
Continuous
 62
     7
370
     0
100
AcDbLine
 10
4.8912626256
 20
7.4195712533
 30
0.0
 11
4.8930189135
 21
7.4205851368
 31
0.0
  0
SPLINE
  5
236
330
1F
100
AcDbEntity
  8
0
  6
Continuous
 62
     7
370
     0
100
AcDbSpline
210
0.0
220
0.0
230
1.0
 70
     8
 71
     3
 72
    17
 73
    13
 74
     0
 42
0.00000001
 43
0.00000001
 40
0.0
 40
0.0
 40
0.0
 40
0.0
 40
0.0908521423140676
 40
0.1695689558356293
 40
0.2503021573773854
 40
0.3752041434802366
 40
0.5000255273056355
 40
0.624802254221821
 40
0.6861556722013006
 40
0.7498793112425615
 40
0.8748852267650541
 40
1.0
 40
1.0
 40
1.0
 40
1.0
 10
4.892377663782383
 20
7.394925439557138
 30
0.0
 10
4.891229310248595
 20
7.395515145462411
 30
0.0
 10
4.889085991393419
 20
7.396615788904163
 30
0.0
 10
4.886194809788843
 20
7.398345227388505
 30
0.0
 10
4.883279783720553
 20
7.400443908855205
 30
0.0
 10
4.88070651285527
 20
7.403152247706753
 30
0.0
 10
4.87951260276818
 20
7.406567346472093
 30
0.0
 10
4.880095767189153
 20
7.409511984932502
 30
0.0
 10
4.881439187280513
 20
7.411818079804943
 30
0.0
 10
4.8833503680776
 20
7.414055506966799
 30
0.0
 10
4.886558723444441
 20
7.416708791156221
 30
0.0
 10
4.889694203307549
 20
7.418616822465958
 30
0.0
 10
4.891262625552044
 20
7.419571253328231
 30
0.0
  0
ARC
  5
237
330
1F
100
AcDbEntity
  8
0
  6
Continuous
 62
     7
370
     0
100
AcDbCircle
 10
5.017233094
 20
7.347671201
 30
0.0
 40
0.0160848152187086
100
AcDbArc
 50
234.88823835
 51
305.2207579768
  0
SPLINE
  5
238
330
1F
100
AcDbEntity
  8
0
  6
Continuous
 62
     7
370
     0
100
AcDbSpline
210
0.0
220
0.0
230
1.0
 70
     8
 71
     3
 72
    12
 73
     8
 74
     0
 42
0.00000001
 43
0.00000001
 40
0.0
 40
0.0
 40
0.0
 40
0.0
 40
0.250016165840571
 40
0.3794861107413678
 40
0.5003609948063183
 40
0.7497424986443644
 40
0.9999999999999999
 40
0.9999999999999999
 40
0.9999999999999999
 40
0.9999999999999999
 10
5.006447728651644
 20
7.342649323824549
 30
0.0
 10
5.005936427569819
 20
7.34204287831224
 30
0.0
 10
5.005160351117693
 20
7.341122387238916
 30
0.0
 10
5.00478146833419
 20
7.339700069354822
 30
0.0
 10
5.004845540662839
 20
7.338225597416991
 30
0.0
 10
5.005800391227793
 20
7.336371128080613
 30
0.0
 10
5.007253640758583
 20
7.335133307996106
 30
0.0
 10
5.007981539486747
 20
7.33451331284309
 30
0.0
  0
SPLINE
  5
239
330
1F
100
AcDbEntity
  8
0
  6
Continuous
 62
     7
370
     0
100
AcDbSpline
210
0.0
220
0.0
230
1.0
 70
    24
 71
     1
 72
     4
 73
     2
 74
     0
 42
0.00000001
 43
0.00000001
 40
0.0
 40
0.0
 40
1.0
 40
1.0
 10
4.988244194649255
 20
7.353248344245547
 30
0.0
 10
5.006447728651644
 20
7.342649323824549
 30
0.0
  0
SPLINE
  5
23A
330
1F
100
AcDbEntity
  8
0
  6
Continuous
 62
     7
370
     0
100
AcDbSpline
210
0.0
220
0.0
230
1.0
 70
     8
 71
     3
 72
    12
 73
     8
 74
     0
 42
0.00000001
 43
0.00000001
 40
0.0
 40
0.0
 40
0.0
 40
0.0
 40
0.250461560820075
 40
0.500156899710224
 40
0.6235742345098049
 40
0.7505262250100679
 40
1.0
 40
1.0
 40
1.0
 40
1.0
 10
4.9969277923437
 20
7.328178249613552
 30
0.0
 10
4.994627874162219
 20
7.330084768585095
 30
0.0
 10
4.99003507380008
 20
7.333891974029806
 30
0.0
 10
4.985863243330805
 20
7.3392890665095
 30
0.0
 10
4.984671907797587
 20
7.343821354906339
 30
0.0
 10
4.984857948164093
 20
7.348317731205276
 30
0.0
 10
4.986894489722085
 20
7.35128307894558
 30
0.0
 10
4.988244194649255
 20
7.353248344245547
 30
0.0
  0
ARC
  5
23B
330
1F
100
AcDbEntity
  8
0
  6
Continuous
 62
     7
370
     0
100
AcDbCircle
 10
5.0338809376
 20
7.3736357314
 30
0.0
 40
0.0585825707407785
100
AcDbArc
 50
230.8917634565
 51
246.4513658688
  0
SPLINE
  5
23C
330
1F
100
AcDbEntity
  8
0
  6
Continuous
 62
     7
370
     0
100
AcDbSpline
210
0.0
220
0.0
230
1.0
 70
     8
 71
     3
 72
     9
 73
     5
 74
     0
 42
0.00000001
 43
0.00000001
 40
0.0
 40
0.0
 40
0.0
 40
0.0
 40
0.4986120697345117
 40
1.0
 40
1.0
 40
1.0
 40
1.0
 10
5.029422155721295
 20
7.317036945513369
 30
0.0
 10
5.026228359989643
 20
7.316974066138235
 30
0.0
 10
5.019822988107346
 20
7.316847957327495
 30
0.0
 10
5.013597155619038
 20
7.318901980185223
 30
0.0
 10
5.010475598353546
 20
7.319931842454578
 30
0.0
  0
SPLINE
  5
23D
330
1F
100
AcDbEntity
  8
0
  6
Continuous
 62
     7
370
     0
100
AcDbSpline
210
0.0
220
0.0
230
1.0
 70
     8
 71
     3
 72
     9
 73
     5
 74
     0
 42
0.00000001
 43
0.00000001
 40
0.0
 40
0.0
 40
0.0
 40
0.0
 40
0.5005615848306298
 40
1.0
 40
1.0
 40
1.0
 40
1.0
 10
5.042014151669818
 20
7.321278520100515
 30
0.0
 10
5.040153563744286
 20
7.320273896243779
 30
0.0
 10
5.03643656271601
 20
7.31826690272454
 30
0.0
 10
5.031758539981797
 20
7.317446624146421
 30
0.0
 10
5.029422155721295
 20
7.317036945513369
 30
0.0
  0
SPLINE
  5
23E
330
1F
100
AcDbEntity
  8
0
  6
Continuous
 62
     7
370
     0
100
AcDbSpline
210
0.0
220
0.0
230
1.0
 70
     8
 71
     3
 72
    14
 73
    10
 74
     0
 42
0.00000001
 43
0.00000001
 40
0.0
 40
0.0
 40
0.0
 40
0.0
 40
0.2500577725992577
 40
0.3796673456290647
 40
0.49997553498675
 40
0.6255852466905972
 40
0.7499501153976382
 40
0.8610382006684363
 40
1.0
 40
1.0
 40
1.0
 40
1.0
 10
5.038475378033691
 20
7.353607216922238
 30
0.0
 10
5.041477030489723
 20
7.351118441424876
 30
0.0
 10
5.046034494985372
 20
7.347339687510817
 30
0.0
 10
5.050105713186977
 20
7.341455364651111
 30
0.0
 10
5.051654391184721
 20
7.336761392762678
 30
0.0
 10
5.051564722115438
 20
7.332156441905227
 30
0.0
 10
5.05004912717206
 20
7.327924767011981
 30
0.0
 10
5.046736327041544
 20
7.324226515858141
 30
0.0
 10
5.043700995570696
 20
7.322331595912426
 30
0.0
 10
5.042014151669818
 20
7.321278520100515
 30
0.0
  0
ARC
  5
23F
330
1F
100
AcDbEntity
  8
0
  6
Continuous
 62
     7
370
     0
100
AcDbCircle
 10
5.0124466353
 20
7.3228602169
 30
0.0
 40
0.0402849036356378
100
AcDbArc
 50
49.7505580612
 51
106.8954420772
  0
SPLINE
  5
240
330
1F
100
AcDbEntity
  8
0
  6
Continuous
 62
     7
370
     0
100
AcDbSpline
210
0.0
220
0.0
230
1.0
 70
    24
 71
     1
 72
     4
 73
     2
 74
     0
 42
0.00000001
 43
0.00000001
 40
0.0
 40
0.0
 40
1.0
 40
1.0
 10
5.015272971011874
 20
7.348716459794491
 30
0.0
 10
5.000738791728493
 20
7.361406291424772
 30
0.0
  0
ARC
  5
241
330
1F
100
AcDbEntity
  8
0
  6
Continuous
 62
     7
370
     0
100
AcDbCircle
 10
5.0196267024
 20
7.3345301866
 30
0.0
 40
0.0148393168430245
100
AcDbArc
 50
52.3674453873
 51
107.0611174286
  0
SPLINE
  5
242
330
1F
100
AcDbEntity
  8
0
  6
Continuous
 62
     7
370
     0
100
AcDbSpline
210
0.0
220
0.0
230
1.0
 70
     8
 71
     3
 72
    13
 73
     9
 74
     0
 42
0.00000001
 43
0.00000001
 40
0.0
 40
0.0
 40
0.0
 40
0.0
 40
0.250340652542607
 40
0.4995871881529674
 40
0.625906253060327
 40
0.7464326647536422
 40
0.8687151858313222
 40
1.0
 40
1.0
 40
1.0
 40
1.0
 10
5.026509662508632
 20
7.334530936287432
 30
0.0
 10
5.027637875962019
 20
7.335252267108217
 30
0.0
 10
5.029889371997877
 20
7.336691776164472
 30
0.0
 10
5.031589899829347
 20
7.339213291140979
 30
0.0
 10
5.03181199565439
 20
7.341455378958475
 30
0.0
 10
5.031381160198017
 20
7.343155270014526
 30
0.0
 10
5.030346218890802
 20
7.344811167995143
 30
0.0
 10
5.029253351808896
 20
7.345780305244237
 30
0.0
 10
5.028687518470703
 20
7.346282077302249
 30
0.0
  0
SPLINE
  5
243
330
1F
100
AcDbEntity
  8
0
  6
Continuous
 62
     7
370
     0
100
AcDbSpline
210
0.0
220
0.0
230
1.0
 70
     8
 71
     3
 72
    13
 73
     9
 74
     0
 42
0.00000001
 43
0.00000001
 40
0.0
 40
0.0
 40
0.0
 40
0.0
 40
0.2502499937361911
 40
0.3875326882978182
 40
0.5000553989277919
 40
0.6148522551709674
 40
0.7498927631186844
 40
1.0
 40
1.0
 40
1.0
 40
1.0
 10
5.092070252471941
 20
7.266337616829371
 30
0.0
 10
5.091394378064257
 20
7.265908640914398
 30
0.0
 10
5.090347730980474
 20
7.265244336444048
 30
0.0
 10
5.089377288262169
 20
7.264082554923293
 30
0.0
 10
5.088995537275732
 20
7.263055685994639
 30
0.0
 10
5.089180789541744
 20
7.261904524693761
 30
0.0
 10
5.089953344457865
 20
7.260359605206595
 30
0.0
 10
5.090915309730526
 20
7.25929463115934
 30
0.0
 10
5.091539990725161
 20
7.258603058328172
 30
0.0
  0
ARC
  5
244
330
1F
100
AcDbEntity
  8
0
  6
Continuous
 62
     7
370
     0
100
AcDbCircle
 10
5.0082297215
 20
7.1287859372
 30
0.0
 40
0.1610891032445272
100
AcDbArc
 50
49.8894599393
 51
58.6368474565
  0
ARC
  5
245
330
1F
100
AcDbEntity
  8
0
  6
Continuous
 62
     7
370
     0
100
AcDbCircle
 10
5.1360479607
 20
7.278086312
 30
0.0
 40
0.0354796029242661
100
AcDbArc
 50
227.3583358815
 51
252.7038506799
  0
SPLINE
  5
246
330
1F
100
AcDbEntity
  8
0
  6
Continuous
 62
     7
370
     0
100
AcDbSpline
210
0.0
220
0.0
230
1.0
 70
     8
 71
     3
 72
     9
 73
     5
 74
     0
 42
0.00000001
 43
0.00000001
 40
0.0
 40
0.0
 40
0.0
 40
0.0
 40
0.5005138828869239
 40
1.0
 40
1.0
 40
1.0
 40
1.0
 10
5.135179196876145
 20
7.245551628545175
 30
0.0
 10
5.133755163046553
 20
7.244875736326732
 30
0.0
 10
5.130910019528501
 20
7.243525339781193
 30
0.0
 10
5.127301766945968
 20
7.243982649223942
 30
0.0
 10
5.125499494873957
 20
7.244211068941818
 30
0.0
  0
SPLINE
  5
247
330
1F
100
AcDbEntity
  8
0
  6
Continuous
 62
     7
370
     0
100
AcDbSpline
210
0.0
220
0.0
230
1.0
 70
     8
 71
     3
 72
    13
 73
     9
 74
     0
 42
0.00000001
 43
0.00000001
 40
0.0
 40
0.0
 40
0.0
 40
0.0
 40
0.250334240408269
 40
0.4997600710237676
 40
0.6241777149156807
 40
0.7517673256858133
 40
0.8742692938046601
 40
1.0
 40
1.0
 40
1.0
 40
1.0
 10
5.132458216199029
 20
7.266978752213466
 30
0.0
 10
5.133983843940598
 20
7.265213080644065
 30
0.0
 10
5.137029563244673
 20
7.261688144752397
 30
0.0
 10
5.139389142332726
 20
7.256605791861046
 30
0.0
 10
5.139655916229195
 20
7.252576981216516
 30
0.0
 10
5.139127868413059
 20
7.249720605734833
 30
0.0
 10
5.137622163414147
 20
7.247244277028878
 30
0.0
 10
5.13600054977871
 20
7.24612071605558
 30
0.0
 10
5.135179196876145
 20
7.245551628545175
 30
0.0
  0
ARC
  5
248
330
1F
100
AcDbEntity
  8
0
  6
Continuous
 62
     7
370
     0
100
AcDbCircle
 10
5.1005771768
 20
7.2380437432
 30
0.0
 40
0.0430538664687208
100
AcDbArc
 50
42.2266652676
 51
60.5576808334
  0
SPLINE
  5
249
330
1F
100
AcDbEntity
  8
0
  6
Continuous
 62
     7
370
     0
100
AcDbSpline
210
0.0
220
0.0
230
1.0
 70
    24
 71
     1
 72
     4
 73
     2
 74
     0
 42
0.00000001
 43
0.00000001
 40
0.0
 40
0.0
 40
1.0
 40
1.0
 10
5.11174820060811
 20
7.279034661597995
 30
0.0
 10
5.121740180293838
 20
7.275537245330191
 30
0.0
  0
SPLINE
  5
24A
330
1F
100
AcDbEntity
  8
0
  6
Continuous
 62
     7
370
     0
100
AcDbSpline
210
0.0
220
0.0
230
1.0
 70
     8
 71
     3
 72
     9
 73
     5
 74
     0
 42
0.00000001
 43
0.00000001
 40
0.0
 40
0.0
 40
0.0
 40
0.0
 40
0.4998712278477558
 40
1.0
 40
1.0
 40
1.0
 40
1.0
 10
5.115361897145684
 20
7.283654626068474
 30
0.0
 10
5.114947953839581
 20
7.282771201938574
 30
0.0
 10
5.114119853954964
 20
7.281003898519842
 30
0.0
 10
5.112538887446702
 20
7.279691186599103
 30
0.0
 10
5.11174820060811
 20
7.279034661597995
 30
0.0
  0
ARC
  5
24B
330
1F
100
AcDbEntity
  8
0
  6
Continuous
 62
     7
370
     0
100
AcDbCircle
 10
4.5039103779
 20
6.6827207402
 30
0.0
 40
0.8573181997496592
100
AcDbArc
 50
44.5029626004
 51
45.8155746002
  0
SPLINE
  5
24C
330
1F
100
AcDbEntity
  8
0
  6
Continuous
 62
     7
370
     0
100
AcDbSpline
210
0.0
220
0.0
230
1.0
 70
     8
 71
     3
 72
     9
 73
     5
 74
     0
 42
0.00000001
 43
0.00000001
 40
0.0
 40
0.0
 40
0.0
 40
0.0
 40
0.5000538352470616
 40
1.0
 40
1.0
 40
1.0
 40
1.0
 10
5.094589913211431
 20
7.290654191028974
 30
0.0
 10
5.096097699837074
 20
7.291548852413006
 30
0.0
 10
5.099112948435054
 20
7.293337982544545
 30
0.0
 10
5.100661448778391
 20
7.296115226237308
 30
0.0
 10
5.101435615586161
 20
7.297503698570089
 30
0.0
  0
LINE
  5
24D
330
1F
100
AcDbEntity
  8
0
  6
Continuous
 62
     7
370
     0
100
AcDbLine
 10
5.0764989995
 20
7.2802105288
 30
0.0
 11
5.0945899132
 21
7.290654191
 31
0.0
  0
ARC
  5
24E
330
1F
100
AcDbEntity
  8
0
  6
Continuous
 62
     7
370
     0
100
AcDbCircle
 10
5.0818360952
 20
7.2691732525
 30
0.0
 40
0.0122599371709112
100
AcDbArc
 50
115.8061762021
 51
176.8309935495
  0
ARC
  5
24F
330
1F
100
AcDbEntity
  8
0
  6
Continuous
 62
     7
370
     0
100
AcDbCircle
 10
5.1041063065
 20
7.2782861109
 30
0.0
 40
0.0355272838670061
100
AcDbArc
 50
193.7346887307
 51
233.1657486607
  0
SPLINE
  5
250
330
1F
100
AcDbEntity
  8
0
  6
Continuous
 62
     7
370
     0
100
AcDbSpline
210
0.0
220
0.0
230
1.0
 70
     8
 71
     3
 72
     9
 73
     5
 74
     0
 42
0.00000001
 43
0.00000001
 40
0.0
 40
0.0
 40
0.0
 40
0.0
 40
0.4987757766930719
 40
1.0
 40
1.0
 40
1.0
 40
1.0
 10
5.098734534946214
 20
7.237592100900629
 30
0.0
 10
5.095743102437518
 20
7.239312832185256
 30
0.0
 10
5.089745552739878
 20
7.242762741673716
 30
0.0
 10
5.085124037999175
 20
7.247484411931675
 30
0.0
 10
5.082807622862764
 20
7.249851027439433
 30
0.0
  0
ARC
  5
251
330
1F
100
AcDbEntity
  8
0
  6
Continuous
 62
     7
370
     0
100
AcDbCircle
 10
5.1082117057
 20
7.2592546417
 30
0.0
 40
0.0236449242082843
100
AcDbArc
 50
246.3710460064
 51
291.6650711787
  0
SPLINE
  5
252
330
1F
100
AcDbEntity
  8
0
  6
Continuous
 62
     7
370
     0
100
AcDbSpline
210
0.0
220
0.0
230
1.0
 70
    24
 71
     1
 72
     4
 73
     2
 74
     0
 42
0.00000001
 43
0.00000001
 40
0.0
 40
0.0
 40
1.0
 40
1.0
 10
5.103644982958013
 20
7.254240156140979
 30
0.0
 10
5.116940945148355
 20
7.237280046876317
 30
0.0
  0
SPLINE
  5
253
330
1F
100
AcDbEntity
  8
0
  6
Continuous
 62
     7
370
     0
100
AcDbSpline
210
0.0
220
0.0
230
1.0
 70
     8
 71
     3
 72
     9
 73
     5
 74
     0
 42
0.00000001
 43
0.00000001
 40
0.0
 40
0.0
 40
0.0
 40
0.0
 40
0.4983624828367163
 40
1.0
 40
1.0
 40
1.0
 40
1.0
 10
5.097757310562559
 20
7.254206829368437
 30
0.0
 10
5.098785062539276
 20
7.254022235117398
 30
0.0
 10
5.100847320458185
 20
7.253651833537431
 30
0.0
 10
5.102710394913806
 20
7.254043620900775
 30
0.0
 10
5.103644982958013
 20
7.254240156140979
 30
0.0
  0
SPLINE
  5
254
330
1F
100
AcDbEntity
  8
0
  6
Continuous
 62
     7
370
     0
100
AcDbSpline
210
0.0
220
0.0
230
1.0
 70
     8
 71
     3
 72
     9
 73
     5
 74
     0
 42
0.00000001
 43
0.00000001
 40
0.0
 40
0.0
 40
0.0
 40
0.0
 40
0.5014167496225708
 40
0.9999999999999999
 40
0.9999999999999999
 40
0.9999999999999999
 40
0.9999999999999999
 10
5.091539990725161
 20
7.258603058328172
 30
0.0
 10
5.092425848889017
 20
7.257707647473962
 30
0.0
 10
5.094192559244271
 20
7.255921885720125
 30
0.0
 10
5.096571306849645
 20
7.254777433884529
 30
0.0
 10
5.097757310562559
 20
7.254206829368437
 30
0.0
  0
ARC
  5
255
330
1F
100
AcDbEntity
  8
0
  6
Continuous
 62
     7
370
     0
100
AcDbCircle
 10
5.2776385878
 20
7.1865372394
 30
0.0
 40
0.0981503597219363
100
AcDbArc
 50
238.1595694093
 51
248.1940469561
  0
ARC
  5
256
330
1F
100
AcDbEntity
  8
0
  6
Continuous
 62
     7
370
     0
100
AcDbCircle
 10
5.2054810485
 20
7.0766231143
 30
0.0
 40
0.0334555514646425
100
AcDbArc
 50
52.4755190363
 51
107.8336851055
  0
SPLINE
  5
257
330
1F
100
AcDbEntity
  8
0
  6
Continuous
 62
     7
370
     0
100
AcDbSpline
210
0.0
220
0.0
230
1.0
 70
     8
 71
     3
 72
    13
 73
     9
 74
     0
 42
0.00000001
 43
0.00000001
 40
0.0
 40
0.0
 40
0.0
 40
0.0
 40
0.2505513334131496
 40
0.4997574289386534
 40
0.6245242524965262
 40
0.7498907040620237
 40
0.8749266421754203
 40
0.9999999999999999
 40
0.9999999999999999
 40
0.9999999999999999
 40
0.9999999999999999
 10
5.195992457111079
 20
7.071796878690638
 30
0.0
 10
5.194116994963559
 20
7.075020714566619
 30
0.0
 10
5.19037614023272
 20
7.081451077186336
 30
0.0
 10
5.187410227430714
 20
7.090335870258799
 30
0.0
 10
5.187566188198976
 20
7.097213252006026
 30
0.0
 10
5.188941745558418
 20
7.101888193599135
 30
0.0
 10
5.191470163611193
 20
7.105868159567085
 30
0.0
 10
5.193980007879979
 20
7.107603373279576
 30
0.0
 10
5.195235117767585
 20
7.108471109941465
 30
0.0
  0
SPLINE
  5
258
330
1F
100
AcDbEntity
  8
0
  6
Continuous
 62
     7
370
     0
100
AcDbSpline
210
0.0
220
0.0
230
1.0
 70
     8
 71
     3
 72
    13
 73
     9
 74
     0
 42
0.00000001
 43
0.00000001
 40
0.0
 40
0.0
 40
0.0
 40
0.0
 40
0.2498065080895941
 40
0.3757603943665593
 40
0.4996346049887206
 40
0.624667307357689
 40
0.749765202270075
 40
1.0
 40
1.0
 40
1.0
 40
1.0
 10
5.230136084015891
 20
7.054324260198746
 30
0.0
 10
5.227097691833782
 20
7.053382729656237
 30
0.0
 10
5.222527324739183
 20
7.051966473968317
 30
0.0
 10
5.215826993822756
 20
7.052666840340431
 30
0.0
 10
5.210901284600438
 20
7.054764070238358
 30
0.0
 10
5.206388363750351
 20
7.058044009395674
 30
0.0
 10
5.201171428220525
 20
7.063657834114864
 30
0.0
 10
5.198064110142873
 20
7.068541159356626
 30
0.0
 10
5.195992457111079
 20
7.071796878690638
 30
0.0
  0
SPLINE
  5
259
330
1F
100
AcDbEntity
  8
0
  6
Continuous
 62
     7
370
     0
100
AcDbSpline
210
0.0
220
0.0
230
1.0
 70
    24
 71
     1
 72
     4
 73
     2
 74
     0
 42
0.00000001
 43
0.00000001
 40
0.0
 40
0.0
 40
1.0
 40
1.0
 10
5.220428045882695
 20
7.073911321468121
 30
0.0
 10
5.230136084015891
 20
7.054324260198746
 30
0.0
  0
ARC
  5
25A
330
1F
100
AcDbEntity
  8
0
  6
Continuous
 62
     7
370
     0
100
AcDbCircle
 10
5.2159912294
 20
7.0832825687
 30
0.0
 40
0.010368491479754
100
AcDbArc
 50
206.5735603295
 51
295.3352119544
  0
SPLINE
  5
25B
330
1F
100
AcDbEntity
  8
0
  6
Continuous
 62
     7
370
     0
100
AcDbSpline
210
0.0
220
0.0
230
1.0
 70
     8
 71
     3
 72
    14
 73
    10
 74
     0
 42
0.00000001
 43
0.00000001
 40
0.0
 40
0.0
 40
0.0
 40
0.0
 40
0.1251988702827616
 40
0.2501891755464747
 40
0.3728829743727096
 40
0.5004529894621764
 40
0.7495671084743197
 40
0.8747153475526416
 40
1.0
 40
1.0
 40
1.0
 40
1.0
 10
5.207674993186569
 20
7.09052550416942
 30
0.0
 10
5.207264561024759
 20
7.090247085510299
 30
0.0
 10
5.20644438042769
 20
7.089690712001296
 30
0.0
 10
5.205562543293283
 20
7.088453048505562
 30
0.0
 10
5.205002128384845
 20
7.08698149939051
 30
0.0
 10
5.204678881315793
 20
7.084822250195175
 30
0.0
 10
5.204970701424234
 20
7.082469050807268
 30
0.0
 10
5.205830773040306
 20
7.080230320859103
 30
0.0
 10
5.20642218861664
 20
7.07917313967307
 30
0.0
 10
5.206718057479878
 20
7.078644261151328
 30
0.0
  0
SPLINE
  5
25C
330
1F
100
AcDbEntity
  8
0
  6
Continuous
 62
     7
370
     0
100
AcDbSpline
210
0.0
220
0.0
230
1.0
 70
     8
 71
     3
 72
    12
 73
     8
 74
     0
 42
0.00000001
 43
0.00000001
 40
0.0
 40
0.0
 40
0.0
 40
0.0
 40
0.500433529576979
 40
0.7500508073441529
 40
0.8749738419200921
 40
0.9374517669915616
 40
1.0
 40
1.0
 40
1.0
 40
1.0
 10
5.228378162810071
 20
7.08429138337059
 30
0.0
 10
5.224986176087385
 20
7.086131408032031
 30
0.0
 10
5.219902259384199
 20
7.088889240793585
 30
0.0
 10
5.213640669620485
 20
7.091165248090456
 30
0.0
 10
5.210507115736092
 20
7.091357539860152
 30
0.0
 10
5.20880321074616
 20
7.091074479199158
 30
0.0
 10
5.208051206668548
 20
7.090708564436212
 30
0.0
 10
5.207674993186569
 20
7.09052550416942
 30
0.0
  0
ARC
  5
25D
330
1F
100
AcDbEntity
  8
0
  6
Continuous
 62
     7
370
     0
100
AcDbCircle
 10
5.2589266918
 20
7.1239607845
 30
0.0
 40
0.0500686928745576
100
AcDbArc
 50
232.4009270074
 51
283.4376972735
  0
ARC
  5
25E
330
1F
100
AcDbEntity
  8
0
  6
Continuous
 62
     7
370
     0
100
AcDbCircle
 10
4.3659794691
 20
6.5676983588
 30
0.0
 40
1.037251810896724
100
AcDbArc
 50
29.2969355573
 51
33.0244509672
  0
LINE
  5
25F
330
1F
100
AcDbEntity
  8
0
  6
Continuous
 62
     7
370
     0
100
AcDbLine
 10
5.2224270572
 20
7.1253634218
 30
0.0
 11
5.2356508724
 21
7.1329973678
 31
0.0
  0
ARC
  5
260
330
1F
100
AcDbEntity
  8
0
  6
Continuous
 62
     7
370
     0
100
AcDbCircle
 10
4.3546464127
 20
6.5612509498
 30
0.0
 40
1.035019868445562
100
AcDbArc
 50
31.0700462551
 51
33.0264227825
  0
LINE
  5
261
330
1F
100
AcDbEntity
  8
0
  6
Continuous
 62
     7
370
     0
100
AcDbLine
 10
5.2599355717
 20
7.0559384522
 30
0.0
 11
5.2760980124
 21
7.0652688306
 31
0.0
  0
ARC
  5
262
330
1F
100
AcDbEntity
  8
0
  6
Continuous
 62
     7
370
     0
100
AcDbCircle
 10
4.3513103614
 20
6.5591309847
 30
0.0
 40
1.035575894131869
100
AcDbArc
 50
27.4627093393
 51
28.668440544
  0
LINE
  5
263
330
1F
100
AcDbEntity
  8
0
  6
Continuous
 62
     7
370
     0
100
AcDbLine
 10
5.2863508624
 20
7.0460391503
 30
0.0
 11
5.2701884217
 21
7.0367087719
 31
0.0
  0
ARC
  5
264
330
1F
100
AcDbEntity
  8
0
  6
Continuous
 62
     7
370
     0
100
AcDbCircle
 10
4.3674728021
 20
6.5684613632
 30
0.0
 40
1.035575894139502
100
AcDbArc
 50
27.4627093393
 51
28.668440544
  0
LINE
  5
265
330
1F
100
AcDbEntity
  8
0
  6
Continuous
 62
     7
370
     0
100
AcDbLine
 10
4.8669107249
 20
7.5179868604
 30
0.0
 11
4.8864479934
 21
7.5292654854
 31
0.0
  0
ARC
  5
266
330
1F
100
AcDbEntity
  8
0
  6
Continuous
 62
     7
370
     0
100
AcDbCircle
 10
4.8462235287
 20
7.5493713539
 30
0.0
 40
0.0375891808820469
100
AcDbArc
 50
276.9199268199
 51
303.3910103477
  0
SPLINE
  5
267
330
1F
100
AcDbEntity
  8
0
  6
Continuous
 62
     7
370
     0
100
AcDbSpline
210
0.0
220
0.0
230
1.0
 70
     8
 71
     3
 72
    13
 73
     9
 74
     0
 42
0.00000001
 43
0.00000001
 40
0.0
 40
0.0
 40
0.0
 40
0.0
 40
0.2859863846303913
 40
0.4003931588175316
 40
0.5002671077720015
 40
0.6204346281984247
 40
0.7504392972669058
 40
1.0
 40
1.0
 40
1.0
 40
1.0
 10
4.852453797512658
 20
7.515774618950463
 30
0.0
 10
4.851475156642138
 20
7.515188769132361
 30
0.0
 10
4.850105017605618
 20
7.514368554353376
 30
0.0
 10
4.848902073087217
 20
7.51342523437645
 30
0.0
 10
4.848397100380837
 20
7.512865475761952
 30
0.0
 10
4.848361249905834
 20
7.512430103950896
 30
0.0
 10
4.848940064052703
 20
7.51204474995766
 30
0.0
 10
4.850033456709655
 20
7.512051532184084
 30
0.0
 10
4.850752352215156
 20
7.512055991434896
 30
0.0
  0
LINE
  5
268
330
1F
100
AcDbEntity
  8
0
  6
Continuous
 62
     7
370
     0
100
AcDbLine
 10
4.8748263806
 20
7.5286900362
 30
0.0
 11
4.8524537975
 21
7.515774619
 31
0.0
  0
ARC
  5
269
330
1F
100
AcDbEntity
  8
0
  6
Continuous
 62
     7
370
     0
100
AcDbCircle
 10
4.8921911843
 20
7.2901386661
 30
0.0
 40
0.2391825507966422
100
AcDbArc
 50
94.1633725536
 51
97.3664998583
  0
LINE
  5
26A
330
1F
100
AcDbEntity
  8
0
  6
Continuous
 62
     7
370
     0
100
AcDbLine
 10
4.8355013056
 20
7.512324371
 30
0.0
 11
4.8615242126
 21
7.5273470754
 31
0.0
  0
SPLINE
  5
26B
330
1F
100
AcDbEntity
  8
0
  6
Continuous
 62
     7
370
     0
100
AcDbSpline
210
0.0
220
0.0
230
1.0
 70
     8
 71
     3
 72
    13
 73
     9
 74
     0
 42
0.00000001
 43
0.00000001
 40
0.0
 40
0.0
 40
0.0
 40
0.0
 40
0.2494610831736619
 40
0.3766049575064414
 40
0.4996281366117362
 40
0.6186892926613283
 40
0.749872723826303
 40
1.0
 40
1.0
 40
1.0
 40
1.0
 10
4.832031423223206
 20
7.504446991938519
 30
0.0
 10
4.830395519828035
 20
7.504382153586045
 30
0.0
 10
4.827925838702688
 20
7.504284268799097
 30
0.0
 10
4.826655814173344
 20
7.505040727838828
 30
0.0
 10
4.82669198923851
 20
7.505970383798658
 30
0.0
 10
4.82783469193983
 20
7.507282118799039
 30
0.0
 10
4.830551433364863
 20
7.509373567702339
 30
0.0
 10
4.833540546027034
 20
7.511155489133988
 30
0.0
 10
4.835501305570303
 20
7.512324370955232
 30
0.0
  0
ARC
  5
26C
330
1F
100
AcDbEntity
  8
0
  6
Continuous
 62
     7
370
     0
100
AcDbCircle
 10
4.8227468126
 20
7.5895307874
 30
0.0
 40
0.08558887916645
100
AcDbArc
 50
276.2276538437
 51
290.8018599612
  0
LINE
  5
26D
330
1F
100
AcDbEntity
  8
0
  6
Continuous
 62
     7
370
     0
100
AcDbLine
 10
4.8462437341
 20
7.505538452
 30
0.0
 11
4.8531426168
 21
7.5095210922
 31
0.0
  0
ARC
  5
26E
330
1F
100
AcDbEntity
  8
0
  6
Continuous
 62
     7
370
     0
100
AcDbCircle
 10
4.8521825449
 20
7.2421551517
 30
0.0
 40
0.2634502463679849
100
AcDbArc
 50
88.4940298157
 51
91.29169597
  0
LINE
  5
26F
330
1F
100
AcDbEntity
  8
0
  6
Continuous
 62
     7
370
     0
100
AcDbLine
 10
4.9002470685
 20
7.5292644544
 30
0.0
 11
4.8591063103
 21
7.5055144003
 31
0.0
  0
ARC
  5
270
330
1F
100
AcDbEntity
  8
0
  6
Continuous
 62
     7
370
     0
100
AcDbCircle
 10
4.8933278901
 20
7.2663939344
 30
0.0
 40
0.2629615662594526
100
AcDbArc
 50
88.4922303114
 51
91.4992077922
  0
ARC
  5
271
330
1F
100
AcDbEntity
  8
0
  6
Continuous
 62
     7
370
     0
100
AcDbCircle
 10
4.9663211493
 20
7.4529126352
 30
0.0
 40
0.0655430952137018
100
AcDbArc
 50
78.260813014
 51
126.2545176487
  0
SPLINE
  5
272
330
1F
100
AcDbEntity
  8
0
  6
Continuous
 62
     7
370
     0
100
AcDbSpline
210
0.0
220
0.0
230
1.0
 70
    24
 71
     1
 72
     4
 73
     2
 74
     0
 42
0.00000001
 43
0.00000001
 40
0.0
 40
0.0
 40
1.0
 40
1.0
 10
4.916009236341637
 20
7.497877144246518
 30
0.0
 10
4.92756071722722
 20
7.505766454689057
 30
0.0
  0
SPLINE
  5
273
330
1F
100
AcDbEntity
  8
0
  6
Continuous
 62
     7
370
     0
100
AcDbSpline
210
0.0
220
0.0
230
1.0
 70
     8
 71
     3
 72
    12
 73
     8
 74
     0
 42
0.00000001
 43
0.00000001
 40
0.0
 40
0.0
 40
0.0
 40
0.0
 40
0.2503309494299766
 40
0.4997648043321506
 40
0.6249322238031074
 40
0.7501904501281074
 40
1.0
 40
1.0
 40
1.0
 40
1.0
 10
4.921206803462165
 20
7.483697383284437
 30
0.0
 10
4.918950176125885
 20
7.484399353186206
 30
0.0
 10
4.914445008380007
 20
7.485800777386466
 30
0.0
 10
4.911304311036496
 20
7.488571147511127
 30
0.0
 10
4.911072895581991
 20
7.491261607840837
 30
0.0
 10
4.911945318212727
 20
7.494131200822459
 30
0.0
 10
4.91438458856495
 20
7.496379614408947
 30
0.0
 10
4.916009236341637
 20
7.497877144246518
 30
0.0
  0
ARC
  5
274
330
1F
100
AcDbEntity
  8
0
  6
Continuous
 62
     7
370
     0
100
AcDbCircle
 10
4.9370193587
 20
7.5462945638
 30
0.0
 40
0.0645634874159289
100
AcDbArc
 50
255.8231997761
 51
304.2034792738
  0
ARC
  5
275
330
1F
100
AcDbEntity
  8
0
  6
Continuous
 62
     7
370
     0
100
AcDbCircle
 10
4.9550544361
 20
7.5313732654
 30
0.0
 40
0.0425880582848184
100
AcDbArc
 50
295.386170795
 51
323.6733695199
  0
SPLINE
  5
276
330
1F
100
AcDbEntity
  8
0
  6
Continuous
 62
     7
370
     0
100
AcDbSpline
210
0.0
220
0.0
230
1.0
 70
     8
 71
     3
 72
    13
 73
     9
 74
     0
 42
0.00000001
 43
0.00000001
 40
0.0
 40
0.0
 40
0.0
 40
0.0
 40
0.1642852522965557
 40
0.3377332377115725
 40
0.5003699049563277
 40
0.7497971218191283
 40
0.8748630895912627
 40
1.0
 40
1.0
 40
1.0
 40
1.0
 10
4.979656349514519
 20
7.517084823638527
 30
0.0
 10
4.98080087243415
 20
7.516732502155254
 30
0.0
 10
4.983153752110678
 20
7.516008209051653
 30
0.0
 10
4.986150853444649
 20
7.514621539395715
 30
0.0
 10
4.988905226704139
 20
7.512634476273228
 30
0.0
 10
4.990049299065859
 20
7.510316976695469
 30
0.0
 10
4.990053978080905
 20
7.507974513828133
 30
0.0
 10
4.989595125686391
 20
7.506754702210968
 30
0.0
 10
4.989365634437527
 20
7.506144623469419
 30
0.0
  0
LINE
  5
277
330
1F
100
AcDbEntity
  8
0
  6
Continuous
 62
     7
370
     0
100
AcDbLine
 10
5.0314571033
 20
7.4691127195
 30
0.0
 11
5.0439462621
 21
7.4763225574
 31
0.0
  0
ARC
  5
278
330
1F
100
AcDbEntity
  8
0
  6
Continuous
 62
     7
370
     0
100
AcDbCircle
 10
4.7853916228
 20
6.9878587522
 30
0.0
 40
0.5405123511455856
100
AcDbArc
 50
60.0850459573
 51
62.9193086459
  0
LINE
  5
279
330
1F
100
AcDbEntity
  8
0
  6
Continuous
 62
     7
370
     0
100
AcDbLine
 10
5.0674418477
 20
7.4635666513
 30
0.0
 11
5.0549526889
 21
7.4563568134
 31
0.0
  0
ARC
  5
27A
330
1F
100
AcDbEntity
  8
0
  6
Continuous
 62
     7
370
     0
100
AcDbCircle
 10
4.7978807815
 20
6.9950685901
 30
0.0
 40
0.5405123511461662
100
AcDbArc
 50
60.0850459573
 51
62.9193086459
  0
ARC
  5
27B
330
1F
100
AcDbEntity
  8
0
  6
Continuous
 62
     7
370
     0
100
AcDbCircle
 10
5.1364129646
 20
7.3841494132
 30
0.0
 40
0.042723251552681
100
AcDbArc
 50
51.096676667
 51
127.2329682298
  0
SPLINE
  5
27C
330
1F
100
AcDbEntity
  8
0
  6
Continuous
 62
     7
370
     0
100
AcDbSpline
210
0.0
220
0.0
230
1.0
 70
    24
 71
     1
 72
     4
 73
     2
 74
     0
 42
0.00000001
 43
0.00000001
 40
0.0
 40
0.0
 40
1.0
 40
1.0
 10
5.099069339955601
 20
7.409441574676952
 30
0.0
 10
5.110562947567602
 20
7.418164892712569
 30
0.0
  0
SPLINE
  5
27D
330
1F
100
AcDbEntity
  8
0
  6
Continuous
 62
     7
370
     0
100
AcDbSpline
210
0.0
220
0.0
230
1.0
 70
     8
 71
     3
 72
    12
 73
     8
 74
     0
 42
0.00000001
 43
0.00000001
 40
0.0
 40
0.0
 40
0.0
 40
0.0
 40
0.2503309494299804
 40
0.4997648043321503
 40
0.6249322238031055
 40
0.7501904501281056
 40
1.0
 40
1.0
 40
1.0
 40
1.0
 10
5.104788421707886
 20
7.384224923776233
 30
0.0
 10
5.10249446949381
 20
7.386158503043672
 30
0.0
 10
5.097914785751043
 20
7.390018732337942
 30
0.0
 10
5.094629815341191
 20
7.395745879891275
 30
0.0
 10
5.094294101604773
 20
7.400294955280136
 30
0.0
 10
5.095069827483033
 20
7.404743941410311
 30
0.0
 10
5.097470439869459
 20
7.407563584225313
 30
0.0
 10
5.099069339955601
 20
7.409441574676952
 30
0.0
  0
ARC
  5
27E
330
1F
100
AcDbEntity
  8
0
  6
Continuous
 62
     7
370
     0
100
AcDbCircle
 10
5.13262238
 20
7.4162307268
 30
0.0
 40
0.0424158067476039
100
AcDbArc
 50
228.9880333015
 51
304.9493133016
  0
ARC
  5
27F
330
1F
100
AcDbEntity
  8
0
  6
Continuous
 62
     7
370
     0
100
AcDbCircle
 10
5.142128735
 20
7.4130049009
 30
0.0
 40
0.0348368475066358
100
AcDbArc
 50
295.1251296752
 51
332.4390218445
  0
ARC
  5
280
330
1F
100
AcDbEntity
  8
0
  6
Continuous
 62
     7
370
     0
100
AcDbCircle
 10
5.1537224575
 20
7.4002806197
 30
0.0
 40
0.0195861893375084
100
AcDbArc
 50
350.0197342163
 51
60.9147217268
  0
ARC
  5
281
330
1F
100
AcDbEntity
  8
0
  6
Continuous
 62
     7
370
     0
100
AcDbCircle
 10
4.515169691
 20
6.6616169325
 30
0.0
 40
0.9715148525005298
100
AcDbArc
 50
38.6487883673
 51
38.7751688125
  0
ARC
  5
282
330
1F
100
AcDbEntity
  8
0
  6
Continuous
 62
     7
370
     0
100
AcDbCircle
 10
5.2809176743
 20
7.2770589983
 30
0.0
 40
0.0109026515116323
100
AcDbArc
 50
188.7322729341
 51
220.0498057649
  0
SPLINE
  5
283
330
1F
100
AcDbEntity
  8
0
  6
Continuous
 62
     7
370
     0
100
AcDbSpline
210
0.0
220
0.0
230
1.0
 70
    24
 71
     1
 72
     4
 73
     2
 74
     0
 42
0.00000001
 43
0.00000001
 40
0.0
 40
0.0
 40
1.0
 40
1.0
 10
5.271704431149501
 20
7.281284971054748
 30
0.0
 10
5.27014140051334
 20
7.27540378411788
 30
0.0
  0
SPLINE
  5
284
330
1F
100
AcDbEntity
  8
0
  6
Continuous
 62
     7
370
     0
100
AcDbSpline
210
0.0
220
0.0
230
1.0
 70
    24
 71
     1
 72
     4
 73
     2
 74
     0
 42
0.00000001
 43
0.00000001
 40
0.0
 40
0.0
 40
1.0
 40
1.0
 10
5.280674999716472
 20
7.301013025294232
 30
0.0
 10
5.271704431149501
 20
7.281284971054749
 30
0.0
  0
ARC
  5
285
330
1F
100
AcDbEntity
  8
0
  6
Continuous
 62
     7
370
     0
100
AcDbCircle
 10
4.5656822894
 20
6.6978953841
 30
0.0
 40
0.9353958867104641
100
AcDbArc
 50
40.1486282051
 51
41.8124415999
  0
SPLINE
  5
286
330
1F
100
AcDbEntity
  8
0
  6
Continuous
 62
     7
370
     0
100
AcDbSpline
210
0.0
220
0.0
230
1.0
 70
    24
 71
     1
 72
     4
 73
     2
 74
     0
 42
0.00000001
 43
0.00000001
 40
0.0
 40
0.0
 40
1.0
 40
1.0
 10
5.254607152048742
 20
7.30329297130024
 30
0.0
 10
5.262862071811398
 20
7.321518520232568
 30
0.0
  0
SPLINE
  5
287
330
1F
100
AcDbEntity
  8
0
  6
Continuous
 62
     7
370
     0
100
AcDbSpline
210
0.0
220
0.0
230
1.0
 70
     8
 71
     3
 72
     9
 73
     5
 74
     0
 42
0.00000001
 43
0.00000001
 40
0.0
 40
0.0
 40
0.0
 40
0.0
 40
0.4997943743867885
 40
1.0
 40
1.0
 40
1.0
 40
1.0
 10
5.252667234489645
 20
7.294115529245381
 30
0.0
 10
5.252787462244471
 20
7.295717801950134
 30
0.0
 10
5.253028016682428
 20
7.298923665775069
 30
0.0
 10
5.254080629297228
 20
7.301836136872747
 30
0.0
 10
5.254607152048742
 20
7.30329297130024
 30
0.0
  0
SPLINE
  5
288
330
1F
100
AcDbEntity
  8
0
  6
Continuous
 62
     7
370
     0
100
AcDbSpline
210
0.0
220
0.0
230
1.0
 70
    24
 71
     1
 72
     4
 73
     2
 74
     0
 42
0.00000001
 43
0.00000001
 40
0.0
 40
0.0
 40
1.0
 40
1.0
 10
5.254553498716438
 20
7.288187967443436
 30
0.0
 10
5.252667234489645
 20
7.294115529245381
 30
0.0
  0
SPLINE
  5
289
330
1F
100
AcDbEntity
  8
0
  6
Continuous
 62
     7
370
     0
100
AcDbSpline
210
0.0
220
0.0
230
1.0
 70
    24
 71
     1
 72
     4
 73
     2
 74
     0
 42
0.00000001
 43
0.00000001
 40
0.0
 40
0.0
 40
1.0
 40
1.0
 10
5.24669596910167
 20
7.293446876830601
 30
0.0
 10
5.254553498716438
 20
7.288187967443436
 30
0.0
  0
ARC
  5
28A
330
1F
100
AcDbEntity
  8
0
  6
Continuous
 62
     7
370
     0
100
AcDbCircle
 10
5.2363338696
 20
7.2735659754
 30
0.0
 40
0.0224192628637302
100
AcDbArc
 50
62.4710807177
 51
117.3089422934
  0
SPLINE
  5
28B
330
1F
100
AcDbEntity
  8
0
  6
Continuous
 62
     7
370
     0
100
AcDbSpline
210
0.0
220
0.0
230
1.0
 70
     8
 71
     3
 72
    14
 73
    10
 74
     0
 42
0.00000001
 43
0.00000001
 40
0.0
 40
0.0
 40
0.0
 40
0.0
 40
0.2503552942231871
 40
0.3755117362839661
 40
0.5003668258907519
 40
0.624877519032656
 40
0.7504411376317153
 40
0.8747830016591431
 40
1.0
 40
1.0
 40
1.0
 40
1.0
 10
5.22991251947929
 20
7.261407882529563
 30
0.0
 10
5.227676927694008
 20
7.264183415458094
 30
0.0
 10
5.224323729370326
 20
7.268346479763721
 30
0.0
 10
5.220644534387644
 20
7.274199938579003
 30
0.0
 10
5.218794171218524
 20
7.278818449404139
 30
0.0
 10
5.218556048171229
 20
7.283409475936485
 30
0.0
 10
5.21975874108414
 20
7.287568473880908
 30
0.0
 10
5.222324892456372
 20
7.291044572304304
 30
0.0
 10
5.224804183106996
 20
7.292670632486742
 30
0.0
 10
5.22604817552762
 20
7.293486513650946
 30
0.0
  0
ARC
  5
28C
330
1F
100
AcDbEntity
  8
0
  6
Continuous
 62
     7
370
     0
100
AcDbCircle
 10
4.4781725746
 20
6.6394790441
 30
0.0
 40
0.975657944530498
100
AcDbArc
 50
37.2147677519
 51
39.6016050292
  0
LINE
  5
28D
330
1F
100
AcDbEntity
  8
0
  6
Continuous
 62
     7
370
     0
100
AcDbLine
 10
5.3117297942
 20
7.2622175835
 30
0.0
 11
5.2551612517
 21
7.229561259
 31
0.0
  0
ARC
  5
28E
330
1F
100
AcDbEntity
  8
0
  6
Continuous
 62
     7
370
     0
100
AcDbCircle
 10
4.5294235134
 20
6.6680025508
 30
0.0
 40
0.9823922953907273
100
AcDbArc
 50
37.2191512153
 51
38.6464197824
  0
LINE
  5
28F
330
1F
100
AcDbEntity
  8
0
  6
Continuous
 62
     7
370
     0
100
AcDbLine
 10
5.2739120504
 20
7.2683715293
 30
0.0
 11
5.2966863986
 21
7.2815188807
 31
0.0
  0
SPLINE
  5
290
330
1F
100
AcDbEntity
  8
0
  6
Continuous
 62
     7
370
     0
100
AcDbSpline
210
0.0
220
0.0
230
1.0
 70
    24
 71
     1
 72
     4
 73
     2
 74
     0
 42
0.00000001
 43
0.00000001
 40
0.0
 40
0.0
 40
1.0
 40
1.0
 10
5.37783923895312
 20
7.161915339415778
 30
0.0
 10
5.384187883037949
 20
7.152815603605713
 30
0.0
  0
SPLINE
  5
291
330
1F
100
AcDbEntity
  8
0
  6
Continuous
 62
     7
370
     0
100
AcDbSpline
210
0.0
220
0.0
230
1.0
 70
    24
 71
     1
 72
     4
 73
     2
 74
     0
 42
0.00000001
 43
0.00000001
 40
0.0
 40
0.0
 40
1.0
 40
1.0
 10
5.371147099550603
 20
7.168864884907495
 30
0.0
 10
5.37783923895312
 20
7.161915339415778
 30
0.0
  0
ARC
  5
292
330
1F
100
AcDbEntity
  8
0
  6
Continuous
 62
     7
370
     0
100
AcDbCircle
 10
5.3604523985
 20
7.1538851156
 30
0.0
 40
0.0184057088423174
100
AcDbArc
 50
54.4753275754
 51
118.2455985785
  0
ARC
  5
293
330
1F
100
AcDbEntity
  8
0
  6
Continuous
 62
     7
370
     0
100
AcDbCircle
 10
5.3613489396
 20
7.1556491254
 30
0.0
 40
0.0173522542013774
100
AcDbArc
 50
123.6177961982
 51
210.8329153519
  0
SPLINE
  5
294
330
1F
100
AcDbEntity
  8
0
  6
Continuous
 62
     7
370
     0
100
AcDbSpline
210
0.0
220
0.0
230
1.0
 70
     8
 71
     3
 72
     9
 73
     5
 74
     0
 42
0.00000001
 43
0.00000001
 40
0.0
 40
0.0
 40
0.0
 40
0.0
 40
0.4993318956962332
 40
1.0
 40
1.0
 40
1.0
 40
1.0
 10
5.338221359168794
 20
7.152255349628355
 30
0.0
 10
5.339710460310545
 20
7.151601245684679
 30
0.0
 10
5.342692647418131
 20
7.150291287419819
 30
0.0
 10
5.345195871456711
 20
7.147935122832653
 30
0.0
 10
5.346449155890754
 20
7.146755466375369
 30
0.0
  0
SPLINE
  5
295
330
1F
100
AcDbEntity
  8
0
  6
Continuous
 62
     7
370
     0
100
AcDbSpline
210
0.0
220
0.0
230
1.0
 70
     8
 71
     3
 72
     9
 73
     5
 74
     0
 42
0.00000001
 43
0.00000001
 40
0.0
 40
0.0
 40
0.0
 40
0.0
 40
0.5001300021535848
 40
1.0
 40
1.0
 40
1.0
 40
1.0
 10
5.327520120852936
 20
7.151322464153895
 30
0.0
 10
5.329162766753851
 20
7.152063244660802
 30
0.0
 10
5.332447204587697
 20
7.153544420562501
 30
0.0
 10
5.336296974627359
 20
7.152684965452393
 30
0.0
 10
5.338221359168794
 20
7.152255349628355
 30
0.0
  0
SPLINE
  5
296
330
1F
100
AcDbEntity
  8
0
  6
Continuous
 62
     7
370
     0
100
AcDbSpline
210
0.0
220
0.0
230
1.0
 70
     8
 71
     3
 72
    13
 73
     9
 74
     0
 42
0.00000001
 43
0.00000001
 40
0.0
 40
0.0
 40
0.0
 40
0.0
 40
0.2502329787226683
 40
0.499406625542711
 40
0.625701360721228
 40
0.7496002874249698
 40
0.8740371171818052
 40
1.0
 40
1.0
 40
1.0
 40
1.0
 10
5.3259735818472
 20
7.123014355792276
 30
0.0
 10
5.324625136263318
 20
7.12555490692636
 30
0.0
 10
5.321933953581435
 20
7.130625254069923
 30
0.0
 10
5.320572887848424
 20
7.137666921196733
 30
0.0
 10
5.321190597151761
 20
7.14287772409447
 30
0.0
 10
5.322501449034978
 20
7.146388592842373
 30
0.0
 10
5.324595294184745
 20
7.14934478600409
 30
0.0
 10
5.326541225491446
 20
7.15066056511269
 30
0.0
 10
5.327520120852936
 20
7.151322464153895
 30
0.0
  0
ARC
  5
297
330
1F
100
AcDbEntity
  8
0
  6
Continuous
 62
     7
370
     0
100
AcDbCircle
 10
4.4279549658
 20
6.603449254
 30
0.0
 40
1.037489917888991
100
AcDbArc
 50
27.5211955117
 51
30.0523133066
  0
LINE
  5
298
330
1F
100
AcDbEntity
  8
0
  6
Continuous
 62
     7
370
     0
100
AcDbLine
 10
5.4046110227
 20
7.1155055114
 30
0.0
 11
5.3480424802
 21
7.0828491869
 31
0.0
  0
ARC
  5
299
330
1F
100
AcDbEntity
  8
0
  6
Continuous
 62
     7
370
     0
100
AcDbCircle
 10
4.4846779317
 20
6.6361888683
 30
0.0
 40
1.037314482792889
100
AcDbArc
 50
27.5210569082
 51
29.8705794818
  0
LINE
  5
29A
330
1F
100
AcDbEntity
  8
0
  6
Continuous
 62
     7
370
     0
100
AcDbLine
 10
5.4735231023
 20
7.7931260219
 30
0.0
 11
5.4942312294
 21
7.8050805693
 31
0.0
  0
ARC
  5
29B
330
1F
100
AcDbEntity
  8
0
  6
Continuous
 62
     7
370
     0
100
AcDbCircle
 10
5.4624367297
 20
7.8091140522
 30
0.0
 40
0.0194557130489765
100
AcDbArc
 50
258.2847267765
 51
304.7380983995
  0
SPLINE
  5
29C
330
1F
100
AcDbEntity
  8
0
  6
Continuous
 62
     7
370
     0
100
AcDbSpline
210
0.0
220
0.0
230
1.0
 70
     8
 71
     3
 72
    11
 73
     7
 74
     0
 42
0.00000001
 43
0.00000001
 40
0.0
 40
0.0
 40
0.0
 40
0.0
 40
0.2500620333659169
 40
0.4999138376966556
 40
0.7498401673007502
 40
0.9999999999999999
 40
0.9999999999999999
 40
0.9999999999999999
 40
0.9999999999999999
 10
5.457127754459284
 20
7.793403436480621
 30
0.0
 10
5.456857254250181
 20
7.793062203038444
 30
0.0
 10
5.456316481243537
 20
7.792380023031613
 30
0.0
 10
5.456343306848256
 20
7.791408642596068
 30
0.0
 10
5.457041331884048
 20
7.790585087814451
 30
0.0
 10
5.458004480622457
 20
7.79023750109361
 30
0.0
 10
5.458486279851124
 20
7.790063626584599
 30
0.0
  0
SPLINE
  5
29D
330
1F
100
AcDbEntity
  8
0
  6
Continuous
 62
     7
370
     0
100
AcDbSpline
210
0.0
220
0.0
230
1.0
 70
    24
 71
     1
 72
     4
 73
     2
 74
     0
 42
0.00000001
 43
0.00000001
 40
0.0
 40
0.0
 40
1.0
 40
1.0
 10
5.460455192308626
 20
7.795591983922047
 30
0.0
 10
5.457127754459284
 20
7.793403436480621
 30
0.0
  0
LINE
  5
29E
330
1F
100
AcDbEntity
  8
0
  6
Continuous
 62
     7
370
     0
100
AcDbLine
 10
5.4828048174
 20
7.8084941478
 30
0.0
 11
5.4604551923
 21
7.7955919839
 31
0.0
  0
ARC
  5
29F
330
1F
100
AcDbEntity
  8
0
  6
Continuous
 62
     7
370
     0
100
AcDbCircle
 10
5.3842806752
 20
7.4591147529
 30
0.0
 40
0.3630054658241459
100
AcDbArc
 50
74.2516767964
 51
76.677038361
  0
LINE
  5
2A0
330
1F
100
AcDbEntity
  8
0
  6
Continuous
 62
     7
370
     0
100
AcDbLine
 10
5.446936453
 20
7.8002302931
 30
0.0
 11
5.4679315553
 21
7.8123505077
 31
0.0
  0
ARC
  5
2A1
330
1F
100
AcDbEntity
  8
0
  6
Continuous
 62
     7
370
     0
100
AcDbCircle
 10
5.4351887001
 20
7.8174163088
 30
0.0
 40
0.0208175126288749
100
AcDbArc
 50
262.1322151767
 51
304.3551313422
  0
SPLINE
  5
2A2
330
1F
100
AcDbEntity
  8
0
  6
Continuous
 62
     7
370
     0
100
AcDbSpline
210
0.0
220
0.0
230
1.0
 70
     8
 71
     3
 72
    10
 73
     6
 74
     0
 42
0.00000001
 43
0.00000001
 40
0.0
 40
0.0
 40
0.0
 40
0.0
 40
0.4988226573033097
 40
0.7491700015752224
 40
1.0
 40
1.0
 40
1.0
 40
1.0
 10
5.430512046267617
 20
7.798845698762487
 30
0.0
 10
5.43045847693726
 20
7.798397601267099
 30
0.0
 10
5.430378022421571
 20
7.797724614191608
 30
0.0
 10
5.431276502240161
 20
7.797090783515626
 30
0.0
 10
5.431984633960738
 20
7.796893497828825
 30
0.0
 10
5.432339040800843
 20
7.796794759988359
 30
0.0
  0
SPLINE
  5
2A3
330
1F
100
AcDbEntity
  8
0
  6
Continuous
 62
     7
370
     0
100
AcDbSpline
210
0.0
220
0.0
230
1.0
 70
     8
 71
     3
 72
     9
 73
     5
 74
     0
 42
0.00000001
 43
0.00000001
 40
0.0
 40
0.0
 40
0.0
 40
0.0
 40
0.5015771373280992
 40
1.0
 40
1.0
 40
1.0
 40
1.0
 10
5.433528940091423
 20
7.801431122233542
 30
0.0
 10
5.432809038340145
 20
7.801004777895577
 30
0.0
 10
5.431373762093081
 20
7.800154770376822
 30
0.0
 10
5.430798680220712
 20
7.799281137407822
 30
0.0
 10
5.430512046267617
 20
7.798845698762487
 30
0.0
  0
LINE
  5
2A4
330
1F
100
AcDbEntity
  8
0
  6
Continuous
 62
     7
370
     0
100
AcDbLine
 10
5.4567050536
 20
7.8148104078
 30
0.0
 11
5.4335289401
 21
7.8014311222
 31
0.0
  0
ARC
  5
2A5
330
1F
100
AcDbEntity
  8
0
  6
Continuous
 62
     7
370
     0
100
AcDbCircle
 10
5.3924166641
 20
7.4961520251
 30
0.0
 40
0.3250787010731689
100
AcDbArc
 50
78.5938511557
 51
81.2043788376
  0
LINE
  5
2A6
330
1F
100
AcDbEntity
  8
0
  6
Continuous
 62
     7
370
     0
100
AcDbLine
 10
5.4164000963
 20
7.802557413
 30
0.0
 11
5.4421245492
 21
7.8174078235
 31
0.0
  0
SPLINE
  5
2A7
330
1F
100
AcDbEntity
  8
0
  6
Continuous
 62
     7
370
     0
100
AcDbSpline
210
0.0
220
0.0
230
1.0
 70
     8
 71
     3
 72
    13
 73
     9
 74
     0
 42
0.00000001
 43
0.00000001
 40
0.0
 40
0.0
 40
0.0
 40
0.0
 40
0.2493551011002513
 40
0.3758643206370043
 40
0.499491262330857
 40
0.6184449072894491
 40
0.7497843925021759
 40
0.9999999999999999
 40
0.9999999999999999
 40
0.9999999999999999
 40
0.9999999999999999
 10
5.413585890205212
 20
7.790884413809866
 30
0.0
 10
5.411788752645638
 20
7.791348420994782
 30
0.0
 10
5.409079845208254
 20
7.79204784019479
 30
0.0
 10
5.407600557425763
 20
7.793778173496349
 30
0.0
 10
5.407588387338712
 20
7.79532835134483
 30
0.0
 10
5.408722238632825
 20
7.797090661660882
 30
0.0
 10
5.411441612086643
 20
7.799538227103798
 30
0.0
 10
5.414436266482945
 20
7.801361650938127
 30
0.0
 10
5.41640009630289
 20
7.802557412994902
 30
0.0
  0
ARC
  5
2A8
330
1F
100
AcDbEntity
  8
0
  6
Continuous
 62
     7
370
     0
100
AcDbCircle
 10
5.4215959853
 20
7.838192834
 30
0.0
 40
0.0479817490324697
100
AcDbArc
 50
260.3900218719
 51
285.4410294805
  0
SPLINE
  5
2A9
330
1F
100
AcDbEntity
  8
0
  6
Continuous
 62
     7
370
     0
100
AcDbSpline
210
0.0
220
0.0
230
1.0
 70
     8
 71
     3
 72
    12
 73
     8
 74
     0
 42
0.00000001
 43
0.00000001
 40
0.0
 40
0.0
 40
0.0
 40
0.0
 40
0.2503533688407835
 40
0.4999961943216204
 40
0.7494886161542171
 40
0.8747044873187644
 40
1.0
 40
1.0
 40
1.0
 40
1.0
 10
5.439451046472718
 20
7.78473325188116
 30
0.0
 10
5.438266990439915
 20
7.785100497409052
 30
0.0
 10
5.435902238916875
 20
7.785833946162619
 30
0.0
 10
5.433464327614813
 20
7.787433084213233
 30
0.0
 10
5.433133137546093
 20
7.789233164545904
 30
0.0
 10
5.433611146475266
 20
7.79076135942925
 30
0.0
 10
5.434117631848772
 20
7.791549027351499
 30
0.0
 10
5.434370955045366
 20
7.791942986518645
 30
0.0
  0
ARC
  5
2AA
330
1F
100
AcDbEntity
  8
0
  6
Continuous
 62
     7
370
     0
100
AcDbCircle
 10
5.4501255901
 20
7.8299807109
 30
0.0
 40
0.046489551858253
100
AcDbArc
 50
256.7257897831
 51
282.8112358513
  0
LINE
  5
2AB
330
1F
100
AcDbEntity
  8
0
  6
Continuous
 62
     7
370
     0
100
AcDbLine
 10
5.454120717
 20
7.781003796
 30
0.0
 11
5.4604341704
 21
7.7846484751
 31
0.0
  0
ARC
  5
2AC
330
1F
100
AcDbEntity
  8
0
  6
Continuous
 62
     7
370
     0
100
AcDbCircle
 10
5.3306834798
 20
7.3938513072
 30
0.0
 40
0.406354280357578
100
AcDbArc
 50
70.220323284
 51
72.3159688958
  0
LINE
  5
2AD
330
1F
100
AcDbEntity
  8
0
  6
Continuous
 62
     7
370
     0
100
AcDbLine
 10
5.5093362172
 20
7.7999810898
 30
0.0
 11
5.468195459
 21
7.7762310357
 31
0.0
  0
ARC
  5
2AE
330
1F
100
AcDbEntity
  8
0
  6
Continuous
 62
     7
370
     0
100
AcDbCircle
 10
5.3721076077
 20
7.4184217944
 30
0.0
 40
0.4054863588354474
100
AcDbArc
 50
70.218770835
 51
72.4716221425
  0
ARC
  5
2AF
330
1F
100
AcDbEntity
  8
0
  6
Continuous
 62
     7
370
     0
100
AcDbCircle
 10
5.5956045851
 20
7.7046886987
 30
0.0
 40
0.0463389107910371
100
AcDbArc
 50
57.4291061303
 51
127.1922797053
  0
SPLINE
  5
2B0
330
1F
100
AcDbEntity
  8
0
  6
Continuous
 62
     7
370
     0
100
AcDbSpline
210
0.0
220
0.0
230
1.0
 70
    24
 71
     1
 72
     4
 73
     2
 74
     0
 42
0.00000001
 43
0.00000001
 40
0.0
 40
0.0
 40
1.0
 40
1.0
 10
5.556113716534288
 20
7.733080995708367
 30
0.0
 10
5.567593094409498
 20
7.741602802266478
 30
0.0
  0
SPLINE
  5
2B1
330
1F
100
AcDbEntity
  8
0
  6
Continuous
 62
     7
370
     0
100
AcDbSpline
210
0.0
220
0.0
230
1.0
 70
     8
 71
     3
 72
    12
 73
     8
 74
     0
 42
0.00000001
 43
0.00000001
 40
0.0
 40
0.0
 40
0.0
 40
0.0
 40
0.250330949429977
 40
0.4997648043321488
 40
0.6249322238031069
 40
0.7501904501281085
 40
1.0
 40
1.0
 40
1.0
 40
1.0
 10
5.562089403957245
 20
7.710516211317309
 30
0.0
 10
5.559760983721624
 20
7.712155136320349
 30
0.0
 10
5.555112487456549
 20
7.715427113018893
 30
0.0
 10
5.551760046877603
 20
7.720443549774769
 30
0.0
 10
5.551385725360712
 20
7.724545049090756
 30
0.0
 10
5.55213089831484
 20
7.728613208826507
 30
0.0
 10
5.554521490372265
 20
7.731294891807138
 30
0.0
 10
5.556113716534288
 20
7.733080995708367
 30
0.0
  0
ARC
  5
2B2
330
1F
100
AcDbEntity
  8
0
  6
Continuous
 62
     7
370
     0
100
AcDbCircle
 10
5.5883119213
 20
7.7483516502
 30
0.0
 40
0.0460341270121382
100
AcDbArc
 50
235.2754236507
 51
304.8998992777
  0
ARC
  5
2B3
330
1F
100
AcDbEntity
  8
0
  6
Continuous
 62
     7
370
     0
100
AcDbCircle
 10
5.5996898456
 20
7.7426963378
 30
0.0
 40
0.0354146903306414
100
AcDbArc
 50
294.9881301654
 51
330.9586587861
  0
ARC
  5
2B4
330
1F
100
AcDbEntity
  8
0
  6
Continuous
 62
     7
370
     0
100
AcDbCircle
 10
5.6141030537
 20
7.7282528796
 30
0.0
 40
0.016775432995451
100
AcDbArc
 50
350.5708999035
 51
67.396197827
  0
LINE
  5
2B5
330
1F
100
AcDbEntity
  8
0
  6
Continuous
 62
     7
370
     0
100
AcDbLine
 10
5.6587665179
 20
7.6530237482
 30
0.0
 11
5.6712556766
 21
7.6602335861
 31
0.0
  0
ARC
  5
2B6
330
1F
100
AcDbEntity
  8
0
  6
Continuous
 62
     7
370
     0
100
AcDbCircle
 10
5.0962606426
 20
7.0300592439
 30
0.0
 40
0.8393435728720349
100
AcDbArc
 50
44.1550423214
 51
47.9195378822
  0
LINE
  5
2B7
330
1F
100
AcDbEntity
  8
0
  6
Continuous
 62
     7
370
     0
100
AcDbLine
 10
5.7109430791
 20
7.6219577935
 30
0.0
 11
5.6984539204
 21
7.6147479556
 31
0.0
  0
ARC
  5
2B8
330
1F
100
AcDbEntity
  8
0
  6
Continuous
 62
     7
370
     0
100
AcDbCircle
 10
5.1087498013
 20
7.0372690818
 30
0.0
 40
0.8393435728712471
100
AcDbArc
 50
44.1550423214
 51
47.9195378822
  0
ARC
  5
2B9
330
1F
100
AcDbEntity
  8
0
  6
Continuous
 62
     7
370
     0
100
AcDbCircle
 10
5.7149396931
 20
7.5261254015
 30
0.0
 40
0.0489782782519711
100
AcDbArc
 50
48.7837801932
 51
90.0969825702
  0
LINE
  5
2BA
330
1F
100
AcDbEntity
  8
0
  6
Continuous
 62
     7
370
     0
100
AcDbLine
 10
5.760435415
 20
7.5706021999
 30
0.0
 11
5.7472115999
 21
7.5629682539
 31
0.0
  0
ARC
  5
2BB
330
1F
100
AcDbEntity
  8
0
  6
Continuous
 62
     7
370
     0
100
AcDbCircle
 10
5.7100185456
 20
7.5057265303
 30
0.0
 40
0.0821627241391735
100
AcDbArc
 50
52.1481268846
 51
70.8439869642
  0
LINE
  5
2BC
330
1F
100
AcDbEntity
  8
0
  6
Continuous
 62
     7
370
     0
100
AcDbLine
 10
5.7748028735
 20
7.6051747277
 30
0.0
 11
5.7369795481
 21
7.5833397868
 31
0.0
  0
ARC
  5
2BD
330
1F
100
AcDbEntity
  8
0
  6
Continuous
 62
     7
370
     0
100
AcDbCircle
 10
5.0820009241
 20
6.9994303697
 30
0.0
 40
0.920272116455805
100
AcDbArc
 50
41.164496081
 51
42.5310650402
  0
LINE
  5
2BE
330
1F
100
AcDbEntity
  8
0
  6
Continuous
 62
     7
370
     0
100
AcDbLine
 10
5.7028563083
 20
7.5884445477
 30
0.0
 11
5.7601595072
 21
7.6215249803
 31
0.0
  0
ARC
  5
2BF
330
1F
100
AcDbEntity
  8
0
  6
Continuous
 62
     7
370
     0
100
AcDbCircle
 10
5.0263342209
 20
6.9678295258
 30
0.0
 40
0.918065978137444
100
AcDbArc
 50
41.4121615921
 51
42.5320591843
  0
LINE
  5
2C0
330
1F
100
AcDbEntity
  8
0
  6
Continuous
 62
     7
370
     0
100
AcDbLine
 10
5.7973326295
 20
7.5360988619
 30
0.0
 11
5.8201069778
 21
7.5492462133
 31
0.0
  0
ARC
  5
2C1
330
1F
100
AcDbEntity
  8
0
  6
Continuous
 62
     7
370
     0
100
AcDbCircle
 10
5.0100992779
 20
6.9451699029
 30
0.0
 40
0.9843441392662765
100
AcDbArc
 50
36.8933641841
 51
38.6750720253
  0
LINE
  5
2C2
330
1F
100
AcDbEntity
  8
0
  6
Continuous
 62
     7
370
     0
100
AcDbLine
 10
5.7668245691
 20
7.5535038292
 30
0.0
 11
5.7785790715
 21
7.560289559
 31
0.0
  0
ARC
  5
2C3
330
1F
100
AcDbEntity
  8
0
  6
Continuous
 62
     7
370
     0
100
AcDbCircle
 10
4.9983447755
 20
6.9383841731
 30
0.0
 40
0.9843441392582284
100
AcDbArc
 50
36.8933641841
 51
38.6750720253
  0
LINE
  5
2C4
330
1F
100
AcDbEntity
  8
0
  6
Continuous
 62
     7
370
     0
100
AcDbLine
 10
5.7767622504
 20
7.5242238348
 30
0.0
 11
5.7855781272
 21
7.5293131321
 31
0.0
  0
ARC
  5
2C5
330
1F
100
AcDbEntity
  8
0
  6
Continuous
 62
     7
370
     0
100
AcDbCircle
 10
4.9911495292
 20
6.9345400803
 30
0.0
 40
0.9823005029056775
100
AcDbArc
 50
36.8920256521
 51
38.9735453457
  0
LINE
  5
2C6
330
1F
100
AcDbEntity
  8
0
  6
Continuous
 62
     7
370
     0
100
AcDbLine
 10
5.7416019289
 20
7.5447353316
 30
0.0
 11
5.754825744
 21
7.5523692776
 31
0.0
  0
ARC
  5
2C7
330
1F
100
AcDbEntity
  8
0
  6
Continuous
 62
     7
370
     0
100
AcDbCircle
 10
4.9708653348
 20
6.9213810348
 30
0.0
 40
0.9912645846358062
100
AcDbArc
 50
35.4777432793
 51
38.9651473079
  0
LINE
  5
2C8
330
1F
100
AcDbEntity
  8
0
  6
Continuous
 62
     7
370
     0
100
AcDbLine
 10
5.8346613029
 20
7.5293541069
 30
0.0
 11
5.7780927604
 21
7.4966977825
 31
0.0
  0
ARC
  5
2C9
330
1F
100
AcDbEntity
  8
0
  6
Continuous
 62
     7
370
     0
100
AcDbCircle
 10
5.0173075584
 20
6.9465968173
 30
0.0
 40
1.003829269518542
100
AcDbArc
 50
35.4881289463
 51
36.8950039254
  0
LWPOLYLINE
  5
2CA
330
1F
100
AcDbEntity
  8
0
  6
Continuous
 62
     7
370
     0
100
AcDbPolyline
 90
      127
 70
   128
 43
0.0
 10
5.0974040487
 20
6.5152606318
 10
5.0944804223
 20
6.4962131045
 10
5.0906653814
 20
6.47787424
 10
5.0859684106
 20
6.4602896317
 10
5.0804011874
 20
6.4435029975
 10
5.0739775528
 20
6.4275560717
 10
5.0667134769
 20
6.412488501
 10
5.0586270195
 20
6.3983377456
 10
5.0497382846
 20
6.3851389865
 10
5.0400693712
 20
6.372925038
 10
5.0296443176
 20
6.3617262659
 10
5.0184890422
 20
6.351570512
 10
5.0066312787
 20
6.3424830252
 10
4.9941005074
 20
6.3344863984
 10
4.9809278818
 20
6.3276005125
 10
4.9671461511
 20
6.3218424869
 10
4.9527895788
 20
6.3172266368
 10
4.9378938578
 20
6.3137644382
 10
4.9224960209
 20
6.3114644984
 10
4.9066343498
 20
6.3103325356
 10
4.8903482791
 20
6.310371364
 10
4.8736782984
 20
6.311580887
 10
4.8566658519
 20
6.3139580976
 10
4.8393532354
 20
6.3174970856
 10
4.8217834906
 20
6.3221890527
 10
4.8040002988
 20
6.3280223337
 10
4.7860478717
 20
6.3349824263
 10
4.7679708419
 20
6.3430520266
 10
4.7498141518
 20
6.3522110722
 10
4.7316229417
 20
6.3624367924
 10
4.7134424379
 20
6.3737037644
 10
4.69531784
 20
6.3859839767
 10
4.6772942085
 20
6.3992468987
 10
4.6594163531
 20
6.4134595568
 10
4.6417287209
 20
6.4285866161
 10
4.6242752862
 20
6.4445904683
 10
4.6070994409
 20
6.4614313253
 10
4.5902438869
 20
6.479067318
 10
4.5737505298
 20
6.4974546007
 10
4.5576603747
 20
6.5165474596
 10
4.5420134242
 20
6.536298427
 10
4.526848579
 20
6.5566583986
 10
4.5122035415
 20
6.5775767566
 10
4.4981147214
 20
6.5990014945
 10
4.4846171459
 20
6.620879347
 10
4.4717443719
 20
6.6431559225
 10
4.4595284032
 20
6.6657758377
 10
4.4479996108
 20
6.6886828561
 10
4.4371866568
 20
6.7118200271
 10
4.4271164242
 20
6.7351298281
 10
4.4178139489
 20
6.7585543073
 10
4.4093023586
 20
6.7820352278
 10
4.4016028142
 20
6.8055142122
 10
4.3947344582
 20
6.8289328881
 10
4.3887143663
 20
6.852233033
 10
4.3835575054
 20
6.8753567191
 10
4.3792766963
 20
6.8982464572
 10
4.3758825817
 20
6.9208453398
 10
4.3733836
 20
6.9430971826
 10
4.3717859639
 20
6.964946664
 10
4.3710936456
 20
6.9863394627
 10
4.3713083662
 20
7.0072223928
 10
4.3724295918
 20
7.0275435361
 10
4.374454535
 20
7.047252371
 10
4.3773781614
 20
7.0662998983
 10
4.3811932024
 20
7.0846387628
 10
4.3858901732
 20
7.1022233712
 10
4.3914573964
 20
7.1190100054
 10
4.397881031
 20
7.1349569312
 10
4.4051451068
 20
7.1500245019
 10
4.4132315642
 20
7.1641752573
 10
4.4221202991
 20
7.1773740164
 10
4.4317892125
 20
7.1895879648
 10
4.4422142661
 20
7.200786737
 10
4.4533695416
 20
7.2109424908
 10
4.465227305
 20
7.2200299776
 10
4.4777580763
 20
7.2280266044
 10
4.4909307019
 20
7.2349124904
 10
4.5047124326
 20
7.240670516
 10
4.5190690049
 20
7.2452863661
 10
4.533964726
 20
7.2487485647
 10
4.5493625628
 20
7.2510485045
 10
4.5652242339
 20
7.2521804673
 10
4.5815103047
 20
7.2521416389
 10
4.5981802854
 20
7.2509321159
 10
4.6151927318
 20
7.2485549053
 10
4.6325053484
 20
7.2450159172
 10
4.6500750931
 20
7.2403239502
 10
4.667858285
 20
7.2344906691
 10
4.6858107121
 20
7.2275305765
 10
4.7038877418
 20
7.2194609763
 10
4.7220444319
 20
7.2103019306
 10
4.740235642
 20
7.2000762105
 10
4.7584161458
 20
7.1888092385
 10
4.7765407437
 20
7.1765290262
 10
4.7945643752
 20
7.1632661042
 10
4.8124422306
 20
7.149053446
 10
4.8301298628
 20
7.1339263868
 10
4.8475832975
 20
7.1179225346
 10
4.8647591428
 20
7.1010816776
 10
4.8816146968
 20
7.0834456849
 10
4.8981080539
 20
7.0650584022
 10
4.914198209
 20
7.0459655432
 10
4.9298451596
 20
7.0262145759
 10
4.9450100047
 20
7.0058546042
 10
4.9596550422
 20
6.9849362463
 10
4.9737438623
 20
6.9635115084
 10
4.9872414379
 20
6.9416336558
 10
5.0001142118
 20
6.9193570804
 10
5.0123301805
 20
6.8967371652
 10
5.023858973
 20
6.8738301468
 10
5.0346719269
 20
6.8506929758
 10
5.0447421596
 20
6.8273831748
 10
5.0540446348
 20
6.8039586955
 10
5.0625562251
 20
6.7804777751
 10
5.0702557695
 20
6.7569987907
 10
5.0771241255
 20
6.7335801148
 10
5.0831442174
 20
6.7102799698
 10
5.0883010783
 20
6.6871562838
 10
5.0925818875
 20
6.6642665457
 10
5.095976002
 20
6.641667663
 10
5.0984749838
 20
6.6194158202
 10
5.1000726198
 20
6.5975663389
 10
5.1007649381
 20
6.5761735402
 10
5.1005502175
 20
6.5552906101
 10
5.0994289919
 20
6.5349694668
 10
5.0974040487
 20
6.5152606318
  0
LWPOLYLINE
  5
2CB
330
1F
100
AcDbEntity
  8
0
  6
Continuous
 62
     7
370
     0
100
AcDbPolyline
 90
       81
 70
   128
 43
0.0
 10
4.6132286138
 20
7.2488861575
 10
4.6075652241
 20
7.2494266396
 10
4.5912120294
 20
7.2502289541
 10
4.5752553412
 20
7.2498644637
 10
4.5597354675
 20
7.2483340891
 10
4.5446916128
 20
7.2456416962
 10
4.5301617791
 20
7.2417940861
 10
4.5161826702
 20
7.2368009784
 10
4.5027895985
 20
7.2306749859
 10
4.4900163959
 20
7.2234315836
 10
4.4778953288
 20
7.2150890688
 10
4.466457016
 20
7.2056685155
 10
4.4557303517
 20
7.1951937208
 10
4.4457424323
 20
7.183691145
 10
4.4365184883
 20
7.1711898445
 10
4.42808182
 20
7.1577213988
 10
4.4204537393
 20
7.1433198302
 10
4.4136535153
 20
7.1280215184
 10
4.407698326
 20
7.1118651084
 10
4.4026032148
 20
7.0948914124
 10
4.3983810522
 20
7.0771433077
 10
4.395042504
 20
7.0586656274
 10
4.3925960035
 20
7.0395050478
 10
4.3910477307
 20
7.0197099701
 10
4.3904015969
 20
6.9993303985
 10
4.3906592341
 20
6.9784178135
 10
4.3918199915
 20
6.9570250421
 10
4.393880937
 20
6.9352061243
 10
4.3968368645
 20
6.9130161766
 10
4.400680307
 20
6.8905112527
 10
4.4054015557
 20
6.867748202
 10
4.4109886842
 20
6.844784526
 10
4.417427579
 20
6.8216782328
 10
4.4247019749
 20
6.7984876911
 10
4.4327934961
 20
6.7752714821
 10
4.4416817028
 20
6.7520882519
 10
4.4513441425
 20
6.7289965635
 10
4.4617564072
 20
6.7060547484
 10
4.4728921944
 20
6.6833207596
 10
4.4847233743
 20
6.6608520253
 10
4.4972200603
 20
6.6387053033
 10
4.5103506847
 20
6.6169365381
 10
4.5240820783
 20
6.5956007197
 10
4.5383795544
 20
6.5747517441
 10
4.5532069965
 20
6.5544422776
 10
4.5685269491
 20
6.5347236237
 10
4.5843007126
 20
6.5156455935
 10
4.6004884412
 20
6.4972563796
 10
4.6170492432
 20
6.479602435
 10
4.6339412847
 20
6.4627283548
 10
4.6511218949
 20
6.4466767646
 10
4.668547674
 20
6.4314882121
 10
4.6861746031
 20
6.4172010648
 10
4.7039581549
 20
6.4038514133
 10
4.7218534068
 20
6.39147298
 10
4.7398151536
 20
6.3800970339
 10
4.7577980226
 20
6.3697523117
 10
4.7757565873
 20
6.3604649449
 10
4.793645483
 20
6.3522583944
 10
4.8114195207
 20
6.3451533905
 10
4.8290338016
 20
6.339167881
 10
4.8464438306
 20
6.334316986
 10
4.8636056284
 20
6.3306129592
 10
4.8804758427
 20
6.3280651573
 10
4.8970118581
 20
6.3266800163
 10
4.9131719031
 20
6.3264610351
 10
4.9289151559
 20
6.3274087669
 10
4.9442018479
 20
6.3295208177
 10
4.9589933633
 20
6.3327918522
 10
4.9732523378
 20
6.3372136075
 10
4.9869427517
 20
6.342774914
 10
5.0000300219
 20
6.3494617231
 10
5.0124810889
 20
6.3572571436
 10
5.0242645002
 20
6.3661414834
 10
5.0353504898
 20
6.3760922999
 10
5.0457110537
 20
6.3870844566
 10
5.05532002
 20
6.3990901863
 10
5.0641531158
 20
6.4120791615
 10
5.0721880278
 20
6.4260185709
 10
5.0794044591
 20
6.4408732023
 10
5.0795262008
 20
6.4411475252
  0
SPLINE
  5
2CC
330
1F
100
AcDbEntity
  8
0
  6
Continuous
 62
     7
370
     0
100
AcDbSpline
210
0.0
220
0.0
230
1.0
 70
     8
 71
     3
 72
    16
 73
    12
 74
     0
 42
0.00000001
 43
0.00000001
 40
0.0
 40
0.0
 40
0.0
 40
0.0
 40
0.1814043438935551
 40
0.3425102030973382
 40
0.5005166786405493
 40
0.6281012479225709
 40
0.7515435373903506
 40
0.8128968252559072
 40
0.8750099158374031
 40
0.9377687550994822
 40
1.0
 40
1.0
 40
1.0
 40
1.0
 10
4.8832665923228
 20
7.273967162868879
 30
0.0
 10
4.88457808850457
 20
7.274745916026084
 30
0.0
 10
4.887054329227024
 20
7.276216282701502
 30
0.0
 10
4.890463633109631
 20
7.278516625424053
 30
0.0
 10
4.893207299343489
 20
7.280756929553985
 30
0.0
 10
4.89528698874836
 20
7.283045331363864
 30
0.0
 10
4.896074590230356
 20
7.285094655152754
 30
0.0
 10
4.896036477961362
 20
7.286795047907372
 30
0.0
 10
4.895556136568736
 20
7.288071131229999
 30
0.0
 10
4.894682536477116
 20
7.289288154003104
 30
0.0
 10
4.893816836083044
 20
7.289983347085069
 30
0.0
 10
4.893385812985533
 20
7.290329476389859
 30
0.0
  0
SPLINE
  5
2CD
330
1F
100
AcDbEntity
  8
0
  6
Continuous
 62
     7
370
     0
100
AcDbSpline
210
0.0
220
0.0
230
1.0
 70
     8
 71
     3
 72
    13
 73
     9
 74
     0
 42
0.00000001
 43
0.00000001
 40
0.0
 40
0.0
 40
0.0
 40
0.0
 40
0.1246091732983634
 40
0.1867338934556747
 40
0.2497493975586407
 40
0.3745255218346011
 40
0.4996502570873134
 40
1.0
 40
1.0
 40
1.0
 40
1.0
 10
4.893385812985532
 20
7.290329476389859
 30
0.0
 10
4.89239666863104
 20
7.290940742138238
 30
0.0
 10
4.890914379874805
 20
7.291856758432301
 30
0.0
 10
4.888443100904077
 20
7.292501181722801
 30
0.0
 10
4.88589605427565
 20
7.292828349606164
 30
0.0
 10
4.882722295448649
 20
7.292568994546884
 30
0.0
 10
4.875876978612733
 20
7.29076912902426
 30
0.0
 10
4.871317727186732
 20
7.288121030788387
 30
0.0
 10
4.867670543554931
 20
7.286002678532972
 30
0.0
  0
SPLINE
  5
2CE
330
1F
100
AcDbEntity
  8
0
  6
Continuous
 62
     7
370
     0
100
AcDbSpline
210
0.0
220
0.0
230
1.0
 70
     8
 71
     3
 72
    17
 73
    13
 74
     0
 42
0.00000001
 43
0.00000001
 40
0.0
 40
0.0
 40
0.0
 40
0.0
 40
0.181724183274494
 40
0.3427751466486102
 40
0.5004247573761235
 40
0.5684883448993642
 40
0.6255188445358777
 40
0.7501316822624439
 40
0.8123103604860041
 40
0.8750483850463036
 40
0.9374912846493865
 40
1.0
 40
1.0
 40
1.0
 40
1.0
 10
4.867670543554931
 20
7.286002678532972
 30
0.0
 10
4.8663249220378
 20
7.285205673175143
 30
0.0
 10
4.863786758957042
 20
7.283702331003027
 30
0.0
 10
4.860287618590086
 20
7.281368316675837
 30
0.0
 10
4.857827300278108
 20
7.279413938915917
 30
0.0
 10
4.856285965334535
 20
7.277857950572828
 30
0.0
 10
4.855124747747015
 20
7.276400277984182
 30
0.0
 10
4.854514467424218
 20
7.274780018256467
 30
0.0
 10
4.854638855953063
 20
7.273047612663936
 30
0.0
 10
4.855195760089144
 20
7.271760436717093
 30
0.0
 10
4.856140716116083
 20
7.270540028381972
 30
0.0
 10
4.857032491402445
 20
7.269834215373095
 30
0.0
 10
4.857478613907965
 20
7.269481122982261
 30
0.0
  0
SPLINE
  5
2CF
330
1F
100
AcDbEntity
  8
0
  6
Continuous
 62
     7
370
     0
100
AcDbSpline
210
0.0
220
0.0
230
1.0
 70
     8
 71
     3
 72
    18
 73
    14
 74
     0
 42
0.00000001
 43
0.00000001
 40
0.0
 40
0.0
 40
0.0
 40
0.0
 40
0.0624861101702574
 40
0.124929424740994
 40
0.1862493802192234
 40
0.249697628550306
 40
0.3096853456181035
 40
0.3746599601424962
 40
0.4325872048309242
 40
0.4997193828801067
 40
0.6572145803173367
 40
0.8144913372753797
 40
1.0
 40
1.0
 40
1.0
 40
1.0
 10
4.857478613907965
 20
7.269481122982261
 30
0.0
 10
4.857949779886513
 20
7.269156600305896
 30
0.0
 10
4.858891789150608
 20
7.26850777721284
 30
0.0
 10
4.860584648080509
 20
7.267759536011916
 30
0.0
 10
4.862438815317407
 20
7.267238062507474
 30
0.0
 10
4.864353593605717
 20
7.267017032381793
 30
0.0
 10
4.866279502689095
 20
7.267053026774142
 30
0.0
 10
4.868068257004277
 20
7.267312135720265
 30
0.0
 10
4.869823175899613
 20
7.267744702692735
 30
0.0
 10
4.872314635161706
 20
7.268538958334053
 30
0.0
 10
4.875469159001695
 20
7.269846748357187
 30
0.0
 10
4.879361038030944
 20
7.271770627199136
 30
0.0
 10
4.881895170272076
 20
7.273195856870402
 30
0.0
 10
4.8832665923228
 20
7.273967162868879
 30
0.0
  0
SPLINE
  5
2D0
330
1F
100
AcDbEntity
  8
0
  6
Continuous
 62
     7
370
     0
100
AcDbSpline
210
0.0
220
0.0
230
1.0
 70
     8
 71
     3
 72
    16
 73
    12
 74
     0
 42
0.00000001
 43
0.00000001
 40
0.0
 40
0.0
 40
0.0
 40
0.0
 40
0.1814043439003979
 40
0.3425102031029726
 40
0.5005166786406193
 40
0.628101247922127
 40
0.7515435373928739
 40
0.8128968252562722
 40
0.8750099158377155
 40
0.9377687550968514
 40
1.0
 40
1.0
 40
1.0
 40
1.0
 10
4.830639174481706
 20
7.310080550823252
 30
0.0
 10
4.83195047883565
 20
7.310857066794505
 30
0.0
 10
4.834426357367234
 20
7.31232320943094
 30
0.0
 10
4.837832723627525
 20
7.314589202544429
 30
0.0
 10
4.840570636962719
 20
7.316761548490154
 30
0.0
 10
4.842640924160325
 20
7.318937119522992
 30
0.0
 10
4.84341509378759
 20
7.320820483152352
 30
0.0
 10
4.843362997807381
 20
7.322340784312384
 30
0.0
 10
4.842870410209116
 20
7.323453864938898
 30
0.0
 10
4.841983664908236
 20
7.324489581188542
 30
0.0
 10
4.841109279149953
 20
7.325058209202885
 30
0.0
 10
4.840673931701168
 20
7.32534132309513
 30
0.0
  0
ARC
  5
2D1
330
1F
100
AcDbEntity
  8
0
  6
Continuous
 62
     7
370
     0
100
AcDbCircle
 10
4.8320043499
 20
7.3026690683
 30
0.0
 40
0.0242732937083872
100
AcDbArc
 50
69.0737818587
 51
134.827638585
  0
SPLINE
  5
2D2
330
1F
100
AcDbEntity
  8
0
  6
Continuous
 62
     7
370
     0
100
AcDbSpline
210
0.0
220
0.0
230
1.0
 70
     8
 71
     3
 72
    17
 73
    13
 74
     0
 42
0.00000001
 43
0.00000001
 40
0.0
 40
0.0
 40
0.0
 40
0.0
 40
0.18172418328515
 40
0.34277514663765
 40
0.500424757375918
 40
0.5684883448883495
 40
0.6255188445357645
 40
0.7501316822623004
 40
0.8123103604791905
 40
0.8750483850463295
 40
0.9374912846494001
 40
1.0
 40
1.0
 40
1.0
 40
1.0
 10
4.814892250348248
 20
7.319884434561208
 30
0.0
 10
4.813546738320406
 20
7.319089627682731
 30
0.0
 10
4.811008781762788
 20
7.317590432367099
 30
0.0
 10
4.807511354804757
 20
7.315290584453237
 30
0.0
 10
4.80505398502062
 20
7.313394263118119
 30
0.0
 10
4.803516415964044
 20
7.311910554081774
 30
0.0
 10
4.802359718613948
 20
7.310538190720044
 30
0.0
 10
4.801756893132819
 20
7.309055039768106
 30
0.0
 10
4.80189249678174
 20
7.307516761341936
 30
0.0
 10
4.802459814027955
 20
7.30640201256193
 30
0.0
 10
4.803416664098289
 20
7.305370147166682
 30
0.0
 10
4.804317125066282
 20
7.304793915785514
 30
0.0
 10
4.804767592700122
 20
7.30450564833579
 30
0.0
  0
ARC
  5
2D3
330
1F
100
AcDbEntity
  8
0
  6
Continuous
 62
     7
370
     0
100
AcDbCircle
 10
4.8127781134
 20
7.3301499174
 30
0.0
 40
0.0268662795958459
100
AcDbArc
 50
252.6527199566
 51
311.6680069893
  0
SPLINE
  5
2D4
330
1F
100
AcDbEntity
  8
0
  6
Continuous
 62
     7
370
     0
100
AcDbSpline
210
0.0
220
0.0
230
1.0
 70
     8
 71
     3
 72
     9
 73
     5
 74
     0
 42
0.00000001
 43
0.00000001
 40
0.0
 40
0.0
 40
0.0
 40
0.0
 40
0.4999994377870657
 40
1.0
 40
1.0
 40
1.0
 40
1.0
 10
5.100151472828358
 20
7.271002806039785
 30
0.0
 10
5.101492653269006
 20
7.270127736225217
 30
0.0
 10
5.104175017166422
 20
7.268377594628176
 30
0.0
 10
5.106742064811701
 20
7.266491995395362
 30
0.0
 10
5.108025590077568
 20
7.265549194718847
 30
0.0
  0
ARC
  5
2D5
330
1F
100
AcDbEntity
  8
0
  6
Continuous
 62
     7
370
     0
100
AcDbCircle
 10
5.1309005078
 20
7.2943015208
 30
0.0
 40
0.0367417761355967
100
AcDbArc
 50
231.4947706778
 51
245.4169259501
  0
ARC
  5
2D6
330
1F
100
AcDbEntity
  8
0
  6
Continuous
 62
     7
370
     0
100
AcDbCircle
 10
5.1172947189
 20
7.2648335745
 30
0.0
 40
0.0042861625620546
100
AcDbArc
 50
246.9346325257
 51
296.1772231815
  0
SPLINE
  5
2D7
330
1F
100
AcDbEntity
  8
0
  6
Continuous
 62
     7
370
     0
100
AcDbSpline
210
0.0
220
0.0
230
1.0
 70
     8
 71
     3
 72
    13
 73
     9
 74
     0
 42
0.00000001
 43
0.00000001
 40
0.0
 40
0.0
 40
0.0
 40
0.0
 40
0.1250915069580578
 40
0.2499455687836129
 40
0.3709820857168622
 40
0.5001127109825346
 40
0.7496528854791658
 40
1.0
 40
1.0
 40
1.0
 40
1.0
 10
5.119185555828087
 20
7.26098702733823
 30
0.0
 10
5.119454142028257
 20
7.26117116960592
 30
0.0
 10
5.119990804605928
 20
7.261539104607698
 30
0.0
 10
5.12042783457847
 20
7.26235521812762
 30
0.0
 10
5.120560193673368
 20
7.263284374082307
 30
0.0
 10
5.120357006203561
 20
7.264587328201717
 30
0.0
 10
5.119502495665404
 20
7.266208064771975
 30
0.0
 10
5.118489586886391
 20
7.267341216011803
 30
0.0
 10
5.117982314955958
 20
7.267908706222976
 30
0.0
  0
ARC
  5
2D8
330
1F
100
AcDbEntity
  8
0
  6
Continuous
 62
     7
370
     0
100
AcDbCircle
 10
5.1074717634
 20
7.2603829177
 30
0.0
 40
0.0129270718820468
100
AcDbArc
 50
35.6035052419
 51
114.0370460113
  0
LINE
  5
2D9
330
1F
100
AcDbEntity
  8
0
  6
Continuous
 62
     7
370
     0
100
AcDbLine
 10
5.1022062149
 20
7.2721889834
 30
0.0
 11
5.1001514728
 21
7.271002806
 31
0.0
  0
ARC
  5
2DA
330
1F
100
AcDbEntity
  8
0
  6
Continuous
 62
     7
370
     0
100
AcDbCircle
 10
4.4483641744
 20
6.6152417851
 30
0.0
 40
1.038518984681309
100
AcDbArc
 50
28.8974260063
 51
29.4534920283
  0
SPLINE
  5
2DB
330
1F
100
AcDbEntity
  8
0
  6
Continuous
 62
     7
370
     0
100
AcDbSpline
210
0.0
220
0.0
230
1.0
 70
     8
 71
     3
 72
    13
 73
     9
 74
     0
 42
0.00000001
 43
0.00000001
 40
0.0
 40
0.0
 40
0.0
 40
0.0
 40
0.2505627277009939
 40
0.5000471093110278
 40
0.6243230553650491
 40
0.7497534526001336
 40
0.8747558534752746
 40
1.0
 40
1.0
 40
1.0
 40
1.0
 10
5.352659895316316
 20
7.125899136668986
 30
0.0
 10
5.352078229924987
 20
7.12687080030171
 30
0.0
 10
5.350917402454001
 20
7.128809945821172
 30
0.0
 10
5.349047590740679
 20
7.130995503619865
 30
0.0
 10
5.347158442767424
 20
7.132046936603486
 30
0.0
 10
5.345666230099622
 20
7.132299224994608
 30
0.0
 10
5.344235391530214
 20
7.1321048381128
 30
0.0
 10
5.343407335348366
 20
7.131682445849918
 30
0.0
 10
5.342992907293923
 20
7.131471045696698
 30
0.0
  0
SPLINE
  5
2DC
330
1F
100
AcDbEntity
  8
0
  6
Continuous
 62
     7
370
     0
100
AcDbSpline
210
0.0
220
0.0
230
1.0
 70
     8
 71
     3
 72
    13
 73
     9
 74
     0
 42
0.00000001
 43
0.00000001
 40
0.0
 40
0.0
 40
0.0
 40
0.0
 40
0.1251815832453111
 40
0.250177843134195
 40
0.3742188627435963
 40
0.4998769269690365
 40
0.7494759856933553
 40
0.9999999999999999
 40
0.9999999999999999
 40
0.9999999999999999
 40
0.9999999999999999
 10
5.342992907293923
 20
7.131471045696698
 30
0.0
 10
5.342614896792803
 20
7.131223113478773
 30
0.0
 10
5.341859435411021
 20
7.130727616090774
 30
0.0
 10
5.341049349786799
 20
7.129576491459623
 30
0.0
 10
5.340574978694446
 20
7.128177595760203
 30
0.0
 10
5.340583683112413
 20
7.126066468301849
 30
0.0
 10
5.341488339453735
 20
7.123423180094217
 30
0.0
 10
5.342520488794343
 20
7.12148421248163
 30
0.0
 10
5.343037517922006
 20
7.120512935657765
 30
0.0
  0
ARC
  5
2DD
330
1F
100
AcDbEntity
  8
0
  6
Continuous
 62
     7
370
     0
100
AcDbCircle
 10
4.438808529
 20
6.609725536
 30
0.0
 40
1.038524834553798
100
AcDbArc
 50
28.8974270606
 51
29.4615498382
  0
LINE
  5
2DE
330
1F
100
AcDbEntity
  8
0
  6
Continuous
 62
     7
370
     0
100
AcDbLine
 10
5.3480227197
 20
7.1115854642
 30
0.0
 11
5.3575732528
 21
7.1170988697
 31
0.0
  0
ARC
  5
2DF
330
1F
100
AcDbEntity
  8
0
  6
Continuous
 62
     7
370
     0
100
AcDbCircle
 10
4.470325426
 20
6.6279213608
 30
0.0
 40
1.038608760126098
100
AcDbArc
 50
28.8974439184
 51
29.5833075283
  0
SPLINE
  5
2E0
330
1F
100
AcDbEntity
  8
0
  6
Continuous
 62
     7
370
     0
100
AcDbSpline
210
0.0
220
0.0
230
1.0
 70
     8
 71
     3
 72
    13
 73
     9
 74
     0
 42
0.00000001
 43
0.00000001
 40
0.0
 40
0.0
 40
0.0
 40
0.0
 40
0.2504598900566435
 40
0.4998947466964554
 40
0.6257393024579407
 40
0.7498233176505912
 40
0.8747960687617353
 40
1.0
 40
1.0
 40
1.0
 40
1.0
 10
5.373539898674918
 20
7.140670590940773
 30
0.0
 10
5.372855200975841
 20
7.141805086890614
 30
0.0
 10
5.371488607774965
 20
7.144069435746418
 30
0.0
 10
5.369254422040633
 20
7.146585908863933
 30
0.0
 10
5.367048458301683
 20
7.147821556759175
 30
0.0
 10
5.365304050201265
 20
7.148192810896222
 30
0.0
 10
5.363608866561528
 20
7.148050431132451
 30
0.0
 10
5.362633149626482
 20
7.147567501677344
 30
0.0
 10
5.362144840344832
 20
7.147325813820097
 30
0.0
  0
SPLINE
  5
2E1
330
1F
100
AcDbEntity
  8
0
  6
Continuous
 62
     7
370
     0
100
AcDbSpline
210
0.0
220
0.0
230
1.0
 70
     8
 71
     3
 72
    13
 73
     9
 74
     0
 42
0.00000001
 43
0.00000001
 40
0.0
 40
0.0
 40
0.0
 40
0.0
 40
0.1295610237634888
 40
0.2496774389484441
 40
0.3752077547161686
 40
0.4998009282121101
 40
0.7495742841112962
 40
1.0
 40
1.0
 40
1.0
 40
1.0
 10
5.362144840344832
 20
7.147325813820097
 30
0.0
 10
5.361688831749785
 20
7.147011990527627
 30
0.0
 10
5.360810056213421
 20
7.146407220715919
 30
0.0
 10
5.359922859824326
 20
7.144978167281223
 30
0.0
 10
5.35948083937992
 20
7.14329163540556
 30
0.0
 10
5.359586700087481
 20
7.140791474446377
 30
0.0
 10
5.360702276269937
 20
7.137697599027833
 30
0.0
 10
5.361929620998413
 20
7.135411272547487
 30
0.0
 10
5.36254409371459
 20
7.134266618392993
 30
0.0
  0
ARC
  5
2E2
330
1F
100
AcDbEntity
  8
0
  6
Continuous
 62
     7
370
     0
100
AcDbCircle
 10
4.4593071183
 20
6.6215605962
 30
0.0
 40
1.038606999317851
100
AcDbArc
 50
28.8974435302
 51
29.5806217889
  0
LINE
  5
2E3
330
1F
100
AcDbEntity
  8
0
  6
Continuous
 62
     7
370
     0
100
AcDbLine
 10
5.3685930987
 20
7.1234604913
 30
0.0
 11
5.3796129447
 21
7.129822113
 31
0.0
  0
SPLINE
  5
2E4
330
1F
100
AcDbEntity
  8
0
  6
Continuous
 62
     7
370
     0
100
AcDbSpline
210
0.0
220
0.0
230
1.0
 70
    24
 71
     1
 72
     4
 73
     2
 74
     0
 42
0.00000001
 43
0.00000001
 40
0.0
 40
0.0
 40
1.0
 40
1.0
 10
5.299958322842945
 20
7.195756372907859
 30
0.0
 10
5.324742972866749
 20
7.200351884812156
 30
0.0
  0
ARC
  5
2E5
330
1F
100
AcDbEntity
  8
0
  6
Continuous
 62
     7
370
     0
100
AcDbCircle
 10
4.4754485241
 20
6.6318636017
 30
0.0
 40
1.021998037539708
100
AcDbArc
 50
33.7969813787
 51
34.7608650488
  0
SPLINE
  5
2E6
330
1F
100
AcDbEntity
  8
0
  6
Continuous
 62
     7
370
     0
100
AcDbSpline
210
0.0
220
0.0
230
1.0
 70
    24
 71
     1
 72
     4
 73
     2
 74
     0
 42
0.00000001
 43
0.00000001
 40
0.0
 40
0.0
 40
1.0
 40
1.0
 10
5.315059600426389
 20
7.214558401102215
 30
0.0
 10
5.299958322842945
 20
7.195756372907859
 30
0.0
  0
ARC
  5
2E7
330
1F
100
AcDbEntity
  8
0
  6
Continuous
 62
     7
370
     0
100
AcDbCircle
 10
4.4744389337
 20
6.6280545188
 30
0.0
 40
1.009459304508094
100
AcDbArc
 50
24.043854967
 51
24.610542288
  0
SPLINE
  5
2E8
330
1F
100
AcDbEntity
  8
0
  6
Continuous
 62
     7
370
     0
100
AcDbSpline
210
0.0
220
0.0
230
1.0
 70
     8
 71
     3
 72
    13
 73
     9
 74
     0
 42
0.00000001
 43
0.00000001
 40
0.0
 40
0.0
 40
0.0
 40
0.0
 40
0.2505627277008525
 40
0.5000471093107186
 40
0.6243230553565717
 40
0.7497534526003009
 40
0.8747558534753507
 40
1.0
 40
1.0
 40
1.0
 40
1.0
 10
5.392198449267194
 20
7.0484419104859
 30
0.0
 10
5.391705958436979
 20
7.049448433226665
 30
0.0
 10
5.390723096307918
 20
7.051457146939171
 30
0.0
 10
5.389074563819316
 20
7.053732449780923
 30
0.0
 10
5.387330159484948
 20
7.054843580590735
 30
0.0
 10
5.385913069579588
 20
7.055127167913512
 30
0.0
 10
5.384524790098946
 20
7.054950617015677
 30
0.0
 10
5.383700480811378
 20
7.054529799243402
 30
0.0
 10
5.383287928013881
 20
7.054319187095987
 30
0.0
  0
SPLINE
  5
2E9
330
1F
100
AcDbEntity
  8
0
  6
Continuous
 62
     7
370
     0
100
AcDbSpline
210
0.0
220
0.0
230
1.0
 70
     8
 71
     3
 72
    13
 73
     9
 74
     0
 42
0.00000001
 43
0.00000001
 40
0.0
 40
0.0
 40
0.0
 40
0.0
 40
0.1251815832449875
 40
0.2501778431335297
 40
0.3742188627320369
 40
0.4998769269703791
 40
0.749475985694018
 40
1.0
 40
1.0
 40
1.0
 40
1.0
 10
5.38328792801388
 20
7.054319187095988
 30
0.0
 10
5.382907916590915
 20
7.054070413839836
 30
0.0
 10
5.382148456327674
 20
7.053573235620487
 30
0.0
 10
5.381292315726538
 20
7.052402814464815
 30
0.0
 10
5.380742050781503
 20
7.050972315709533
 30
0.0
 10
5.380607747357481
 20
7.048802233839432
 30
0.0
 10
5.381297857028093
 20
7.046071947330397
 30
0.0
 10
5.382157149966702
 20
7.044065338923584
 30
0.0
 10
5.382587591048217
 20
7.043060179153271
 30
0.0
  0
ARC
  5
2EA
330
1F
100
AcDbEntity
  8
0
  6
Continuous
 62
     7
370
     0
100
AcDbCircle
 10
4.4648506139
 20
6.6225241042
 30
0.0
 40
1.009500742691315
100
AcDbArc
 50
24.0438627784
 51
24.6187471739
  0
LINE
  5
2EB
330
1F
100
AcDbEntity
  8
0
  6
Continuous
 62
     7
370
     0
100
AcDbLine
 10
5.3867608262
 20
7.0338309362
 30
0.0
 11
5.3963113593
 21
7.0393443417
 31
0.0
  0
ARC
  5
2EC
330
1F
100
AcDbEntity
  8
0
  6
Continuous
 62
     7
370
     0
100
AcDbCircle
 10
4.4958737136
 20
6.6405052079
 30
0.0
 40
1.010122779000992
100
AcDbArc
 50
24.0439935322
 51
24.742691885
  0
SPLINE
  5
2ED
330
1F
100
AcDbEntity
  8
0
  6
Continuous
 62
     7
370
     0
100
AcDbSpline
210
0.0
220
0.0
230
1.0
 70
     8
 71
     3
 72
    13
 73
     9
 74
     0
 42
0.00000001
 43
0.00000001
 40
0.0
 40
0.0
 40
0.0
 40
0.0
 40
0.2504598900566749
 40
0.499894746696496
 40
0.6257393024590311
 40
0.7498233176505688
 40
0.8747960687617318
 40
1.0
 40
1.0
 40
1.0
 40
1.0
 10
5.413263753478849
 20
7.063285935142695
 30
0.0
 10
5.412683019054895
 20
7.064461933216481
 30
0.0
 10
5.411523926923636
 20
7.066809116468367
 30
0.0
 10
5.40954649867709
 20
7.069432518795367
 30
0.0
 10
5.407509208602832
 20
7.070739773856149
 30
0.0
 10
5.405857255058509
 20
7.071150743327896
 30
0.0
 10
5.404218087353208
 20
7.071032608976186
 30
0.0
 10
5.403247748530942
 20
7.070552015705088
 30
0.0
 10
5.402762130790554
 20
7.070311497019242
 30
0.0
  0
SPLINE
  5
2EE
330
1F
100
AcDbEntity
  8
0
  6
Continuous
 62
     7
370
     0
100
AcDbSpline
210
0.0
220
0.0
230
1.0
 70
     8
 71
     3
 72
    13
 73
     9
 74
     0
 42
0.00000001
 43
0.00000001
 40
0.0
 40
0.0
 40
0.0
 40
0.0
 40
0.1295610237595139
 40
0.2496774389521187
 40
0.3752077547459386
 40
0.4998009282123569
 40
0.7495742841113955
 40
1.0
 40
1.0
 40
1.0
 40
1.0
 10
5.402762130790554
 20
7.070311497019242
 30
0.0
 10
5.402302736690831
 20
7.069996202886568
 30
0.0
 10
5.401417436938171
 20
7.069388598614247
 30
0.0
 10
5.400468815967685
 20
7.067932972189388
 30
0.0
 10
5.399930764690254
 20
7.066205225585636
 30
0.0
 10
5.399864402197071
 20
7.063632053080496
 30
0.0
 10
5.400727763509091
 20
7.060433300019588
 30
0.0
 10
5.401751556687023
 20
7.058065761967211
 30
0.0
 10
5.402264120891887
 20
7.056880449068608
 30
0.0
  0
ARC
  5
2EF
330
1F
100
AcDbEntity
  8
0
  6
Continuous
 62
     7
370
     0
100
AcDbCircle
 10
4.4848662993
 20
6.6341491932
 30
0.0
 40
1.010109141455768
100
AcDbArc
 50
24.0439903933
 51
24.7399586198
  0
LINE
  5
2F0
330
1F
100
AcDbEntity
  8
0
  6
Continuous
 62
     7
370
     0
100
AcDbLine
 10
5.4073312053
 20
7.0457059633
 30
0.0
 11
5.4183510512
 21
7.052067585
 31
0.0
  0
ARC
  5
2F1
330
1F
100
AcDbEntity
  8
0
  6
Continuous
 62
     7
370
     0
100
AcDbCircle
 10
4.5069350593
 20
6.6574924252
 30
0.0
 40
0.9679424527469745
100
AcDbArc
 50
38.6483343368
 51
39.2592656116
  0
SPLINE
  5
2F2
330
1F
100
AcDbEntity
  8
0
  6
Continuous
 62
     7
370
     0
100
AcDbSpline
210
0.0
220
0.0
230
1.0
 70
    24
 71
     1
 72
     4
 73
     2
 74
     0
 42
0.00000001
 43
0.00000001
 40
0.0
 40
0.0
 40
1.0
 40
1.0
 10
5.256403526699406
 20
7.270035981387679
 30
0.0
 10
5.251559260983772
 20
7.274605663164242
 30
0.0
  0
ARC
  5
2F3
330
1F
100
AcDbEntity
  8
0
  6
Continuous
 62
     7
370
     0
100
AcDbCircle
 10
5.2464125512
 20
7.2696360221
 30
0.0
 40
0.0071544359615954
100
AcDbArc
 50
43.9972416722
 51
116.691866784
  0
SPLINE
  5
2F4
330
1F
100
AcDbEntity
  8
0
  6
Continuous
 62
     7
370
     0
100
AcDbSpline
210
0.0
220
0.0
230
1.0
 70
     8
 71
     3
 72
    12
 73
     8
 74
     0
 42
0.00000001
 43
0.00000001
 40
0.0
 40
0.0
 40
0.0
 40
0.0
 40
0.1254669244528613
 40
0.2506002708974901
 40
0.3754476425714198
 40
0.5006747216460934
 40
1.0
 40
1.0
 40
1.0
 40
1.0
 10
5.243198834516214
 20
7.276028046747935
 30
0.0
 10
5.242744042866335
 20
7.275725032978958
 30
0.0
 10
5.241835668717861
 20
7.275119811061531
 30
0.0
 10
5.240929455533743
 20
7.273799105659611
 30
0.0
 10
5.240574527457891
 20
7.272194095721276
 30
0.0
 10
5.241324027786541
 20
7.268703718722978
 30
0.0
 10
5.243429695881486
 20
7.266092690917962
 30
0.0
 10
5.245113162920116
 20
7.264005192295913
 30
0.0
  0
ARC
  5
2F5
330
1F
100
AcDbEntity
  8
0
  6
Continuous
 62
     7
370
     0
100
AcDbCircle
 10
4.496062901
 20
6.6512497862
 30
0.0
 40
0.9677528003413871
100
AcDbArc
 50
38.6482935993
 51
39.2846459881
  0
LINE
  5
2F6
330
1F
100
AcDbEntity
  8
0
  6
Continuous
 62
     7
370
     0
100
AcDbLine
 10
5.2518723585
 20
7.255648286
 30
0.0
 11
5.2628922044
 21
7.2620099077
 31
0.0
  0
SPLINE
  5
2F7
330
1F
100
AcDbEntity
  8
0
  6
Continuous
 62
     7
370
     0
100
AcDbSpline
210
0.0
220
0.0
230
1.0
 70
    24
 71
     1
 72
     4
 73
     2
 74
     0
 42
0.00000001
 43
0.00000001
 40
0.0
 40
0.0
 40
1.0
 40
1.0
 10
5.169627943656191
 20
7.352188659669062
 30
0.0
 10
5.201737002111656
 20
7.348657844871624
 30
0.0
  0
ARC
  5
2F8
330
1F
100
AcDbEntity
  8
0
  6
Continuous
 62
     7
370
     0
100
AcDbCircle
 10
4.6128933336
 20
6.7514226119
 30
0.0
 40
0.8387054246962655
100
AcDbArc
 50
45.4053635943
 51
46.7641701784
  0
LINE
  5
2F9
330
1F
100
AcDbEntity
  8
0
  6
Continuous
 62
     7
370
     0
100
AcDbLine
 10
5.1874089242
 20
7.3624534013
 30
0.0
 11
5.1696279437
 21
7.3521886597
 31
0.0
  0
ARC
  5
2FA
330
1F
100
AcDbEntity
  8
0
  6
Continuous
 62
     7
370
     0
100
AcDbCircle
 10
4.9082871795
 20
7.4157350736
 30
0.0
 40
0.0165336089053977
100
AcDbArc
 50
244.863594324
 51
275.1811756122
  0
SPLINE
  5
2FB
330
1F
100
AcDbEntity
  8
0
  6
Continuous
 62
     7
370
     0
100
AcDbSpline
210
0.0
220
0.0
230
1.0
 70
     8
 71
     3
 72
     9
 73
     5
 74
     0
 42
0.00000001
 43
0.00000001
 40
0.0
 40
0.0
 40
0.0
 40
0.0
 40
0.4990303792096886
 40
1.0
 40
1.0
 40
1.0
 40
1.0
 10
4.909780253360278
 20
7.39926901902554
 30
0.0
 10
4.910982911520803
 20
7.399446560183795
 30
0.0
 10
4.913392901394424
 20
7.399802332428633
 30
0.0
 10
4.915366275514806
 20
7.400669482258467
 30
0.0
 10
4.916354875999572
 20
7.401103897979886
 30
0.0
  0
ARC
  5
2FC
330
1F
100
AcDbEntity
  8
0
  6
Continuous
 62
     7
370
     0
100
AcDbCircle
 10
4.6848578524
 20
6.9515716199
 30
0.0
 40
0.5056383499678676
100
AcDbArc
 50
62.752751482
 51
64.6929646705
  0
SPLINE
  5
2FD
330
1F
100
AcDbEntity
  8
0
  6
Continuous
 62
     7
370
     0
100
AcDbSpline
210
0.0
220
0.0
230
1.0
 70
     8
 71
     3
 72
    14
 73
    10
 74
     0
 42
0.00000001
 43
0.00000001
 40
0.0
 40
0.0
 40
0.0
 40
0.0
 40
0.2498680581560824
 40
0.3817391960309705
 40
0.4998759012707973
 40
0.6215720652110163
 40
0.7497806842473326
 40
0.8748255772342648
 40
1.0
 40
1.0
 40
1.0
 40
1.0
 10
4.90100250760788
 20
7.408683891661959
 30
0.0
 10
4.900183487978453
 20
7.408042348331496
 30
0.0
 10
4.898932220020563
 20
7.407062222112093
 30
0.0
 10
4.897942062562515
 20
7.405623835240877
 30
0.0
 10
4.897669613367968
 20
7.404514657382488
 30
0.0
 10
4.89795330988118
 20
7.403441246650438
 30
0.0
 10
4.898711169219128
 20
7.402435511959402
 30
0.0
 10
4.899830646875311
 20
7.401524919565954
 30
0.0
 10
4.900786130880335
 20
7.401019868793926
 30
0.0
 10
4.901264120193154
 20
7.400767212684363
 30
0.0
  0
SPLINE
  5
2FE
330
1F
100
AcDbEntity
  8
0
  6
Continuous
 62
     7
370
     0
100
AcDbSpline
210
0.0
220
0.0
230
1.0
 70
     8
 71
     3
 72
    16
 73
    12
 74
     0
 42
0.00000001
 43
0.00000001
 40
0.0
 40
0.0
 40
0.0
 40
0.0
 40
0.1814043439005448
 40
0.342510203103845
 40
0.5005166786405817
 40
0.6281012479206027
 40
0.7515435373876432
 40
0.8128968252548301
 40
0.8750099158366149
 40
0.937768755098782
 40
0.9999999999999999
 40
0.9999999999999999
 40
0.9999999999999999
 40
0.9999999999999999
 10
5.142056669857684
 20
7.394229385096608
 30
0.0
 10
5.143368317528908
 20
7.39500900163283
 30
0.0
 10
5.145844844279105
 20
7.396480998457287
 30
0.0
 10
5.149256470841149
 20
7.39879459784459
 30
0.0
 10
5.152004707183726
 20
7.401061132376442
 30
0.0
 10
5.154091920667226
 20
7.403393092200956
 30
0.0
 10
5.154890419611529
 20
7.405506505107431
 30
0.0
 10
5.154863880380559
 20
7.40727647487569
 30
0.0
 10
5.154393838805597
 20
7.408615554368594
 30
0.0
 10
5.153531492112212
 20
7.409902671976682
 30
0.0
 10
5.152673438091745
 20
7.41064682181849
 30
0.0
 10
5.152246222043019
 20
7.411017326177765
 30
0.0
  0
SPLINE
  5
2FF
330
1F
100
AcDbEntity
  8
0
  6
Continuous
 62
     7
370
     0
100
AcDbSpline
210
0.0
220
0.0
230
1.0
 70
     8
 71
     3
 72
    13
 73
     9
 74
     0
 42
0.00000001
 43
0.00000001
 40
0.0
 40
0.0
 40
0.0
 40
0.0
 40
0.1246091732983822
 40
0.1867338934532744
 40
0.2497493975585406
 40
0.3745255218345145
 40
0.4996502570872418
 40
1.0
 40
1.0
 40
1.0
 40
1.0
 10
5.152246222043019
 20
7.411017326177765
 30
0.0
 10
5.151264529892666
 20
7.411677232637745
 30
0.0
 10
5.14979340868581
 20
7.412666139789001
 30
0.0
 10
5.147334743216853
 20
7.413396559447266
 30
0.0
 10
5.14479850019218
 20
7.41379862487922
 30
0.0
 10
5.141633990157698
 20
7.41360516964494
 30
0.0
 10
5.134801136014811
 20
7.411895807589468
 30
0.0
 10
5.130241760400414
 20
7.409247087771729
 30
0.0
 10
5.126594477423822
 20
7.407128238280475
 30
0.0
  0
SPLINE
  5
300
330
1F
100
AcDbEntity
  8
0
  6
Continuous
 62
     7
370
     0
100
AcDbSpline
210
0.0
220
0.0
230
1.0
 70
     8
 71
     3
 72
    17
 73
    13
 74
     0
 42
0.00000001
 43
0.00000001
 40
0.0
 40
0.0
 40
0.0
 40
0.0
 40
0.1817241832853359
 40
0.3427751466395164
 40
0.5004247573759723
 40
0.5684883448895851
 40
0.6255188445358114
 40
0.7501316822623637
 40
0.8123103604810153
 40
0.8750483850463143
 40
0.9374912846493937
 40
1.0
 40
1.0
 40
1.0
 40
1.0
 10
5.126594477423822
 20
7.407128238280475
 30
0.0
 10
5.125248740728026
 20
7.406330380377793
 30
0.0
 10
5.122710360393059
 20
7.404825430102902
 30
0.0
 10
5.119209424995161
 20
7.402478167051811
 30
0.0
 10
5.11674604072097
 20
7.40050127865345
 30
0.0
 10
5.115200848193237
 20
7.398917269864901
 30
0.0
 10
5.11403504543297
 20
7.397426529453909
 30
0.0
 10
5.113417314856744
 20
7.395753133068035
 30
0.0
 10
5.11353087342373
 20
7.3939455275557
 30
0.0
 10
5.114077965640135
 20
7.392591581170247
 30
0.0
 10
5.115011976235642
 20
7.391298188112698
 30
0.0
 10
5.115896011026096
 20
7.390542240771832
 30
0.0
 10
5.116338261245087
 20
7.390164068011378
 30
0.0
  0
SPLINE
  5
301
330
1F
100
AcDbEntity
  8
0
  6
Continuous
 62
     7
370
     0
100
AcDbSpline
210
0.0
220
0.0
230
1.0
 70
     8
 71
     3
 72
    18
 73
    14
 74
     0
 42
0.00000001
 43
0.00000001
 40
0.0
 40
0.0
 40
0.0
 40
0.0
 40
0.0624861101702513
 40
0.1249294247409869
 40
0.1862493802206131
 40
0.2496976285504807
 40
0.3096853456205921
 40
0.3746599601425693
 40
0.4325872048305863
 40
0.4997193828801788
 40
0.6572145803109583
 40
0.8144913372654916
 40
1.0
 40
1.0
 40
1.0
 40
1.0
 10
5.116338261245087
 20
7.390164068011378
 30
0.0
 10
5.116805605803171
 20
7.389815113850968
 30
0.0
 10
5.117739974843556
 20
7.389117444522501
 30
0.0
 10
5.119421540765258
 20
7.388298961001991
 30
0.0
 10
5.121265140934577
 20
7.387712952344103
 30
0.0
 10
5.12317099175984
 20
7.387438368385725
 30
0.0
 10
5.12508958478267
 20
7.387431061831852
 30
0.0
 10
5.126873035343996
 20
7.387659114866739
 30
0.0
 10
5.128623952269616
 20
7.388068412839302
 30
0.0
 10
5.131110952527843
 20
7.388836888439637
 30
0.0
 10
5.134261899975753
 20
7.390124173097506
 30
0.0
 10
5.138151522405036
 20
7.392035166527486
 30
0.0
 10
5.140685390667127
 20
7.393458892740083
 30
0.0
 10
5.142056669857684
 20
7.394229385096608
 30
0.0
  0
SPLINE
  5
302
330
1F
100
AcDbEntity
  8
0
  6
Continuous
 62
     7
370
     0
100
AcDbSpline
210
0.0
220
0.0
230
1.0
 70
     8
 71
     3
 72
    13
 73
     9
 74
     0
 42
0.00000001
 43
0.00000001
 40
0.0
 40
0.0
 40
0.0
 40
0.0
 40
0.2503907102768533
 40
0.4999495678156767
 40
0.6253606354930207
 40
0.7501944146350263
 40
0.870021056737518
 40
1.0
 40
1.0
 40
1.0
 40
1.0
 10
4.854965683707439
 20
7.431294941116528
 30
0.0
 10
4.853853903837672
 20
7.430618786805579
 30
0.0
 10
4.85163403767418
 20
7.429268724516283
 30
0.0
 10
4.849708945525404
 20
7.427362484053537
 30
0.0
 10
4.849173534865717
 20
7.425834536752875
 30
0.0
 10
4.849391264464548
 20
7.424767078842351
 30
0.0
 10
4.850241224814937
 20
7.423816759971469
 30
0.0
 10
4.851283973729771
 20
7.423372823834026
 30
0.0
 10
4.851826537267093
 20
7.423141834803348
 30
0.0
  0
ARC
  5
303
330
1F
100
AcDbEntity
  8
0
  6
Continuous
 62
     7
370
     0
100
AcDbCircle
 10
4.8557662169
 20
7.4441318214
 30
0.0
 40
0.0213565122303846
100
AcDbArc
 50
259.3696466338
 51
306.3341949192
  0
SPLINE
  5
304
330
1F
100
AcDbEntity
  8
0
  6
Continuous
 62
     7
370
     0
100
AcDbSpline
210
0.0
220
0.0
230
1.0
 70
     8
 71
     3
 72
    13
 73
     9
 74
     0
 42
0.00000001
 43
0.00000001
 40
0.0
 40
0.0
 40
0.0
 40
0.0
 40
0.2504308113691288
 40
0.500165064026746
 40
0.6247953729412199
 40
0.7514764919580198
 40
0.8754581573959461
 40
1.0
 40
1.0
 40
1.0
 40
1.0
 10
4.868419823567098
 20
7.426927553013293
 30
0.0
 10
4.869507961933333
 20
7.427588778357431
 30
0.0
 10
4.871681212072334
 20
7.428909389885936
 30
0.0
 10
4.873740127289218
 20
7.430769411093663
 30
0.0
 10
4.874441686805378
 20
7.432310803871877
 30
0.0
 10
4.874416051306369
 20
7.433424214733141
 30
0.0
 10
4.873736164331311
 20
7.434430747771994
 30
0.0
 10
4.872716437037012
 20
7.434865937360961
 30
0.0
 10
4.872205424146576
 20
7.435084022618646
 30
0.0
  0
ARC
  5
305
330
1F
100
AcDbEntity
  8
0
  6
Continuous
 62
     7
370
     0
100
AcDbCircle
 10
4.867900856
 20
7.4135555183
 30
0.0
 40
0.0219546306341641
100
AcDbArc
 50
78.6929663258
 51
126.0986561525
  0
SPLINE
  5
306
330
1F
100
AcDbEntity
  8
0
  6
Continuous
 62
     7
370
     0
100
AcDbSpline
210
0.0
220
0.0
230
1.0
 70
     8
 71
     3
 72
    16
 73
    12
 74
     0
 42
0.00000001
 43
0.00000001
 40
0.0
 40
0.0
 40
0.0
 40
0.0
 40
0.1814043439007061
 40
0.3425102031040205
 40
0.5005166786405569
 40
0.6281012479206792
 40
0.7515435373901254
 40
0.812896825257068
 40
0.8750099158382816
 40
0.9377687550992209
 40
0.9999999999999999
 40
0.9999999999999999
 40
0.9999999999999999
 40
0.9999999999999999
 10
5.089751361233087
 20
7.433252377004163
 30
0.0
 10
5.091062713508662
 20
7.434029830516081
 30
0.0
 10
5.093538682521254
 20
7.435497743326464
 30
0.0
 10
5.096945781474499
 20
7.437778131211393
 30
0.0
 10
5.099685120674951
 20
7.439978954873752
 30
0.0
 10
5.101757715189472
 20
7.442201804127162
 30
0.0
 10
5.102535118696975
 20
7.444154699533544
 30
0.0
 10
5.102486293957858
 20
7.445750440187772
 30
0.0
 10
5.101996502083215
 20
7.446931792914418
 30
0.0
 10
5.101112674972919
 20
7.44804343728054
 30
0.0
 10
5.100240128901777
 20
7.448665057925646
 30
0.0
 10
5.099805697413834
 20
7.448974556289939
 30
0.0
  0
SPLINE
  5
307
330
1F
100
AcDbEntity
  8
0
  6
Continuous
 62
     7
370
     0
100
AcDbSpline
210
0.0
220
0.0
230
1.0
 70
     8
 71
     3
 72
    13
 73
     9
 74
     0
 42
0.00000001
 43
0.00000001
 40
0.0
 40
0.0
 40
0.0
 40
0.0
 40
0.1246091732983827
 40
0.1867338934541032
 40
0.2497493975585092
 40
0.3745255218344871
 40
0.4996502570872208
 40
1.0
 40
1.0
 40
1.0
 40
1.0
 10
5.099805697413834
 20
7.448974556289939
 30
0.0
 10
5.098809953270022
 20
7.449512743316598
 30
0.0
 10
5.097317774356251
 20
7.450319247013191
 30
0.0
 10
5.094835609700391
 20
7.450834540525445
 30
0.0
 10
5.092279335781218
 20
7.451049267883439
 30
0.0
 10
5.089097816042375
 20
7.45069101348077
 30
0.0
 10
5.08224217383435
 20
7.44875535560483
 30
0.0
 10
5.07768304707916
 20
7.446108194995885
 30
0.0
 10
5.074035963178058
 20
7.443990592797281
 30
0.0
  0
SPLINE
  5
308
330
1F
100
AcDbEntity
  8
0
  6
Continuous
 62
     7
370
     0
100
AcDbSpline
210
0.0
220
0.0
230
1.0
 70
     8
 71
     3
 72
    17
 73
    13
 74
     0
 42
0.00000001
 43
0.00000001
 40
0.0
 40
0.0
 40
0.0
 40
0.0
 40
0.1817241832843167
 40
0.3427751466514285
 40
0.5004247573760875
 40
0.5684883449031706
 40
0.6255188445359129
 40
0.7501316822624821
 40
0.8123103604825742
 40
0.8750483850462994
 40
0.9374912846493844
 40
1.0
 40
1.0
 40
1.0
 40
1.0
 10
5.074035963178058
 20
7.443990592797281
 30
0.0
 10
5.072690435833573
 20
7.443194866319019
 30
0.0
 10
5.070152450385
 20
7.441693936418821
 30
0.0
 10
5.066654780629904
 20
7.439379796811679
 30
0.0
 10
5.064196983375853
 20
7.43745918986685
 30
0.0
 10
5.062658843917164
 20
7.435945243572312
 30
0.0
 10
5.061501442990142
 20
7.434537190384874
 30
0.0
 10
5.060897410347082
 20
7.432996674700314
 30
0.0
 10
5.061031039381373
 20
7.431377161335071
 30
0.0
 10
5.061596421122458
 20
7.430190248420899
 30
0.0
 10
5.062550950635767
 20
7.429079463075094
 30
0.0
 10
5.063449611184931
 20
7.428448980532449
 30
0.0
 10
5.063899178135189
 20
7.428133573214132
 30
0.0
  0
ARC
  5
309
330
1F
100
AcDbEntity
  8
0
  6
Continuous
 62
     7
370
     0
100
AcDbCircle
 10
5.0725742285
 20
7.4521625801
 30
0.0
 40
0.025547009071666
100
AcDbArc
 50
250.1491965639
 51
312.2505206124
  0
ARC
  5
30A
330
1F
100
AcDbEntity
  8
0
  6
Continuous
 62
     7
370
     0
100
AcDbCircle
 10
4.7400121892
 20
7.1424037843
 30
0.0
 40
0.2998312988560595
100
AcDbArc
 50
83.0831897922
 51
83.7944982957
  0
ARC
  5
30B
330
1F
100
AcDbEntity
  8
0
  6
Continuous
 62
     7
370
     0
100
AcDbCircle
 10
4.769669659
 20
7.4178702872
 30
0.0
 40
0.0227749310449723
100
AcDbArc
 50
83.0578532913
 51
119.6988495936
  0
SPLINE
  5
30C
330
1F
100
AcDbEntity
  8
0
  6
Continuous
 62
     7
370
     0
100
AcDbSpline
210
0.0
220
0.0
230
1.0
 70
     8
 71
     3
 72
    13
 73
     9
 74
     0
 42
0.00000001
 43
0.00000001
 40
0.0
 40
0.0
 40
0.0
 40
0.0
 40
0.2485126094997232
 40
0.3782641238769661
 40
0.4992248968173486
 40
0.5972187856318955
 40
0.7114003712053536
 40
1.0
 40
1.0
 40
1.0
 40
1.0
 10
4.758386019227949
 20
7.437653536559737
 30
0.0
 10
4.757515731721957
 20
7.437090382930327
 30
0.0
 10
4.756191056319618
 20
7.436233199809254
 30
0.0
 10
4.755439507231142
 20
7.435192517914244
 30
0.0
 10
4.755358884455796
 20
7.434561864923646
 30
0.0
 10
4.755813494678996
 20
7.434121415473496
 30
0.0
 10
4.756972749677574
 20
7.433645380349236
 30
0.0
 10
4.758350550733642
 20
7.43346312772034
 30
0.0
 10
4.759337768754618
 20
7.433332540594699
 30
0.0
  0
ARC
  5
30D
330
1F
100
AcDbEntity
  8
0
  6
Continuous
 62
     7
370
     0
100
AcDbCircle
 10
4.7275666083
 20
7.135567128
 30
0.0
 40
0.2994555853127739
100
AcDbArc
 50
83.0828681984
 51
83.909661312
  0
LINE
  5
30E
330
1F
100
AcDbEntity
  8
0
  6
Continuous
 62
     7
370
     0
100
AcDbLine
 10
4.7636311447
 20
7.4328430887
 30
0.0
 11
4.7761203035
 21
7.4400529265
 31
0.0
  0
SPLINE
  5
30F
330
1F
100
AcDbEntity
  8
0
  6
Continuous
 62
     7
370
     0
100
AcDbSpline
210
0.0
220
0.0
230
1.0
 70
     8
 71
     3
 72
    16
 73
    12
 74
     0
 42
0.00000001
 43
0.00000001
 40
0.0
 40
0.0
 40
0.0
 40
0.0
 40
0.1814043438997918
 40
0.3425102031039354
 40
0.5005166786405777
 40
0.6281012479205887
 40
0.7515435373896673
 40
0.8128968252566089
 40
0.8750099158379434
 40
0.9377687550985926
 40
1.0
 40
1.0
 40
1.0
 40
1.0
 10
4.958399140410065
 20
7.497979665694662
 30
0.0
 10
4.959710863971961
 20
7.498751044682466
 30
0.0
 10
4.962187534011622
 20
7.500207488161732
 30
0.0
 10
4.96560035097245
 20
7.502394612795441
 30
0.0
 10
4.968351135496779
 20
7.504410957222659
 30
0.0
 10
4.970443068551713
 20
7.506327605442049
 30
0.0
 10
4.97124981119704
 20
7.507830354718256
 30
0.0
 10
4.971234155282496
 20
7.508937973499989
 30
0.0
 10
4.970775308521639
 20
7.509677767840635
 30
0.0
 10
4.969926972547738
 20
7.510298555330237
 30
0.0
 10
4.969080306300636
 20
7.510577816013991
 30
0.0
 10
4.968658760104182
 20
7.510716856963667
 30
0.0
  0
ARC
  5
310
330
1F
100
AcDbEntity
  8
0
  6
Continuous
 62
     7
370
     0
100
AcDbCircle
 10
4.9651140923
 20
7.4774455266
 30
0.0
 40
0.0334596188481951
100
AcDbArc
 50
83.9187493884
 51
131.0395894817
  0
SPLINE
  5
311
330
1F
100
AcDbEntity
  8
0
  6
Continuous
 62
     7
370
     0
100
AcDbSpline
210
0.0
220
0.0
230
1.0
 70
     8
 71
     3
 72
    17
 73
    13
 74
     0
 42
0.00000001
 43
0.00000001
 40
0.0
 40
0.0
 40
0.0
 40
0.0
 40
0.1817241832771031
 40
0.3427751466465287
 40
0.5004247573760375
 40
0.5684883449035018
 40
0.6255188445358375
 40
0.75013168226238
 40
0.8123103604818948
 40
0.8750483850463231
 40
0.9374912846493932
 40
0.9999999999999999
 40
0.9999999999999999
 40
0.9999999999999999
 40
0.9999999999999999
 10
4.943145163944414
 20
7.502682647734147
 30
0.0
 10
4.94179909397189
 20
7.501892843418626
 30
0.0
 10
4.939260084997367
 20
7.500403084129614
 30
0.0
 10
4.935754008937747
 20
7.498180987518887
 30
0.0
 10
4.933282010853592
 20
7.49641680450372
 30
0.0
 10
4.931726405347912
 20
7.495097660295906
 30
0.0
 10
4.930548559511799
 20
7.493919571654919
 30
0.0
 10
4.9299120951304
 20
7.492748768012818
 30
0.0
 10
4.93000129024792
 20
7.49165311085703
 30
0.0
 10
4.930528221035357
 20
7.490931766387818
 30
0.0
 10
4.931441847902466
 20
7.490330367139017
 30
0.0
 10
4.932313546828058
 20
7.490050280761725
 30
0.0
 10
4.932749625865784
 20
7.489910163808148
 30
0.0
  0
ARC
  5
312
330
1F
100
AcDbEntity
  8
0
  6
Continuous
 62
     7
370
     0
100
AcDbCircle
 10
4.9350363647
 20
7.5274407935
 30
0.0
 40
0.0376002306263955
100
AcDbArc
 50
266.5132823695
 51
308.4145376436
  0
SPLINE
  5
313
330
1F
100
AcDbEntity
  8
0
  6
Continuous
 62
     7
370
     0
100
AcDbSpline
210
0.0
220
0.0
230
1.0
 70
     8
 71
     3
 72
     9
 73
     5
 74
     0
 42
0.00000001
 43
0.00000001
 40
0.0
 40
0.0
 40
0.0
 40
0.0
 40
0.4999994377870688
 40
1.0
 40
1.0
 40
1.0
 40
1.0
 10
4.730819707222003
 20
7.449286039586308
 30
0.0
 10
4.732084102838811
 20
7.449564155333881
 30
0.0
 10
4.734612896915868
 20
7.450120387454468
 30
0.0
 10
4.737046972085921
 20
7.450566060946258
 30
0.0
 10
4.738264011039417
 20
7.450788897942716
 30
0.0
  0
ARC
  5
314
330
1F
100
AcDbEntity
  8
0
  6
Continuous
 62
     7
370
     0
100
AcDbCircle
 10
4.7245993833
 20
7.5327625104
 30
0.0
 40
0.0831047242490738
100
AcDbArc
 50
279.4639264315
 51
284.5986597039
  0
ARC
  5
315
330
1F
100
AcDbEntity
  8
0
  6
Continuous
 62
     7
370
     0
100
AcDbCircle
 10
4.741085832
 20
7.4682613425
 30
0.0
 40
0.0165333958460819
100
AcDbArc
 50
285.6491789605
 51
298.8311057144
  0
SPLINE
  5
316
330
1F
100
AcDbEntity
  8
0
  6
Continuous
 62
     7
370
     0
100
AcDbSpline
210
0.0
220
0.0
230
1.0
 70
     8
 71
     3
 72
    13
 73
     9
 74
     0
 42
0.00000001
 43
0.00000001
 40
0.0
 40
0.0
 40
0.0
 40
0.0
 40
0.1250915069581313
 40
0.249945568783753
 40
0.3709820856972986
 40
0.5001127109822913
 40
0.7496528854790414
 40
1.0
 40
1.0
 40
1.0
 40
1.0
 10
4.749058720655751
 20
7.453777343568109
 30
0.0
 10
4.749328121723848
 20
7.45394167314292
 30
0.0
 10
4.749866412490616
 20
7.454270020366828
 30
0.0
 10
4.750319429858143
 20
7.454701945173046
 30
0.0
 10
4.750476547518253
 20
7.45504947291437
 30
0.0
 10
4.750315899706485
 20
7.455382449060897
 30
0.0
 10
4.749527696341469
 20
7.455556460432585
 30
0.0
 10
4.748573975183836
 20
7.455508799251618
 30
0.0
 10
4.748096344835724
 20
7.455484930192748
 30
0.0
  0
ARC
  5
317
330
1F
100
AcDbEntity
  8
0
  6
Continuous
 62
     7
370
     0
100
AcDbCircle
 10
4.7521022431
 20
7.4177021859
 30
0.0
 40
0.0379945126369933
100
AcDbArc
 50
96.0521486514
 51
120.4022510477
  0
LINE
  5
318
330
1F
100
AcDbEntity
  8
0
  6
Continuous
 62
     7
370
     0
100
AcDbLine
 10
4.7328744493
 20
7.450472217
 30
0.0
 11
4.7308197072
 21
7.4492860396
 31
0.0
  0
SPLINE
  5
319
330
1F
100
AcDbEntity
  8
0
  6
Continuous
 62
     7
370
     0
100
AcDbSpline
210
0.0
220
0.0
230
1.0
 70
     8
 71
     3
 72
    16
 73
    12
 74
     0
 42
0.00000001
 43
0.00000001
 40
0.0
 40
0.0
 40
0.0
 40
0.0
 40
0.1814043439032517
 40
0.3425102031168271
 40
0.5005166786405882
 40
0.6281012479286072
 40
0.7515435373963154
 40
0.812896825257048
 40
0.8750099158382594
 40
0.9377687550989958
 40
1.0
 40
1.0
 40
1.0
 40
1.0
 10
4.907764131187207
 20
7.509683244144691
 30
0.0
 10
4.90907644112069
 20
7.510452025571584
 30
0.0
 10
4.911554218290727
 20
7.511903564586648
 30
0.0
 10
4.914976044044741
 20
7.514050810609263
 30
0.0
 10
4.917744695375098
 20
7.515988290115929
 30
0.0
 10
4.919866402951655
 20
7.517774080129571
 30
0.0
 10
4.920717234022761
 20
7.519084568814811
 30
0.0
 10
4.920749857918613
 20
7.519983877150988
 30
0.0
 10
4.920335013044769
 20
7.520535350354611
 30
0.0
 10
4.919535971778529
 20
7.520946928112621
 30
0.0
 10
4.918724079517935
 20
7.521080411579827
 30
0.0
 10
4.918319846922675
 20
7.521146871590584
 30
0.0
  0
ARC
  5
31A
330
1F
100
AcDbEntity
  8
0
  6
Continuous
 62
     7
370
     0
100
AcDbCircle
 10
4.9196438477
 20
7.4788875146
 30
0.0
 40
0.0422800926424632
100
AcDbArc
 50
91.7945102117
 51
128.8452338725
  0
SPLINE
  5
31B
330
1F
100
AcDbEntity
  8
0
  6
Continuous
 62
     7
370
     0
100
AcDbSpline
210
0.0
220
0.0
230
1.0
 70
     8
 71
     3
 72
    17
 73
    13
 74
     0
 42
0.00000001
 43
0.00000001
 40
0.0
 40
0.0
 40
0.0
 40
0.0
 40
0.1817241832881491
 40
0.3427751466395323
 40
0.5004247573759771
 40
0.5684883448904938
 40
0.6255188445358288
 40
0.7501316822623831
 40
0.8123103604815326
 40
0.8750483850463139
 40
0.9374912846493948
 40
1.0
 40
1.0
 40
1.0
 40
1.0
 10
4.893124974975308
 20
7.511817070070181
 30
0.0
 10
4.891778270395477
 20
7.511029775510282
 30
0.0
 10
4.88923806440044
 20
7.509544750219014
 30
0.0
 10
4.885722134704001
 20
7.507361663967981
 30
0.0
 10
4.883233420454361
 20
7.505663788435691
 30
0.0
 10
4.881657073794177
 20
7.504427247509925
 30
0.0
 10
4.880454803514587
 20
7.503346694129299
 30
0.0
 10
4.879779224549741
 20
7.502332751938145
 30
0.0
 10
4.879813526480762
 20
7.50145954708111
 30
0.0
 10
4.880292033853319
 20
7.50093603365073
 30
0.0
 10
4.881153086528852
 20
7.50055123095492
 30
0.0
 10
4.88198902995706
 20
7.500420284140171
 30
0.0
 10
4.882407221829348
 20
7.500354776245997
 30
0.0
  0
ARC
  5
31C
330
1F
100
AcDbEntity
  8
0
  6
Continuous
 62
     7
370
     0
100
AcDbCircle
 10
4.8792947876
 20
7.5479422579
 30
0.0
 40
0.0476891565666096
100
AcDbArc
 50
273.7420705173
 51
306.6537175142
  0
ARC
  5
31D
330
1F
100
AcDbEntity
  8
0
  6
Continuous
 62
     7
370
     0
100
AcDbCircle
 10
5.1580184039
 20
7.0249233592
 30
0.0
 40
0.9046224302681265
100
AcDbArc
 50
2.5365098924
 51
57.4581135749
  0
SPLINE
  5
31E
330
1F
100
AcDbEntity
  8
0
  6
Continuous
 62
     7
370
     0
100
AcDbSpline
210
0.0
220
0.0
230
1.0
 70
     8
 71
     3
 72
    16
 73
    12
 74
     0
 42
0.00000001
 43
0.00000001
 40
0.0
 40
0.0
 40
0.0
 40
0.0
 40
0.1814043438908977
 40
0.3425102031003552
 40
0.5005166786405977
 40
0.6281012479211885
 40
0.7515435373905144
 40
0.8128968252572618
 40
0.875009915838426
 40
0.937768755098602
 40
0.9999999999999999
 40
0.9999999999999999
 40
0.9999999999999999
 40
0.9999999999999999
 10
5.599492389510333
 20
7.721540847681496
 30
0.0
 10
5.600803758080813
 20
7.722318503997492
 30
0.0
 10
5.603279757859984
 20
7.723786799723058
 30
0.0
 10
5.606687106312648
 20
7.726070301443604
 30
0.0
 10
5.609426933817129
 20
7.7282772855584
 30
0.0
 10
5.611500325611168
 20
7.730510362883551
 30
0.0
 10
5.612278865999688
 20
7.732478302230407
 30
0.0
 10
5.612231221631561
 20
7.734090367375775
 30
0.0
 10
5.611742461136408
 20
7.735286495260665
 30
0.0
 10
5.610859738329836
 20
7.736414573561258
 30
0.0
 10
5.609987918918347
 20
7.73704766592108
 30
0.0
 10
5.60955384922658
 20
7.737362875931166
 30
0.0
  0
SPLINE
  5
31F
330
1F
100
AcDbEntity
  8
0
  6
Continuous
 62
     7
370
     0
100
AcDbSpline
210
0.0
220
0.0
230
1.0
 70
     8
 71
     3
 72
    13
 73
     9
 74
     0
 42
0.00000001
 43
0.00000001
 40
0.0
 40
0.0
 40
0.0
 40
0.0
 40
0.1246091732983652
 40
0.1867338934541248
 40
0.2497493975586065
 40
0.3745255218345747
 40
0.4996502570872884
 40
1.0
 40
1.0
 40
1.0
 40
1.0
 10
5.60955384922658
 20
7.737362875931166
 30
0.0
 10
5.608558796770279
 20
7.737912456314629
 30
0.0
 10
5.607067654389365
 20
7.738736033600745
 30
0.0
 10
5.60458659512377
 20
7.739271453783783
 30
0.0
 10
5.602031245876969
 20
7.739503704830046
 30
0.0
 10
5.598850485997914
 20
7.739160861298977
 30
0.0
 10
5.591995837337819
 20
7.73724636082856
 30
0.0
 10
5.587436695688372
 20
7.734599053763462
 30
0.0
 10
5.583789599872576
 20
7.732481334406923
 30
0.0
  0
SPLINE
  5
320
330
1F
100
AcDbEntity
  8
0
  6
Continuous
 62
     7
370
     0
100
AcDbSpline
210
0.0
220
0.0
230
1.0
 70
     8
 71
     3
 72
    17
 73
    13
 74
     0
 42
0.00000001
 43
0.00000001
 40
0.0
 40
0.0
 40
0.0
 40
0.0
 40
0.1817241832850006
 40
0.3427751466564171
 40
0.500424757376043
 40
0.5684883449024892
 40
0.6255188445358
 40
0.7501316822623566
 40
0.8123103604861058
 40
0.8750483850463164
 40
0.9374912846493921
 40
1.0
 40
1.0
 40
1.0
 40
1.0
 10
5.583789599872576
 20
7.732481334406923
 30
0.0
 10
5.582444063633131
 20
7.731685408691332
 30
0.0
 10
5.579906061406517
 20
7.730184102982003
 30
0.0
 10
5.576408252348833
 20
7.727866867032929
 30
0.0
 10
5.573950215049903
 20
7.725940998679218
 30
0.0
 10
5.572411768180078
 20
7.724420501946263
 30
0.0
 10
5.571253997626142
 20
7.723004717405764
 30
0.0
 10
5.570649353811036
 20
7.721451775770511
 30
0.0
 10
5.57078205804865
 20
7.719814668484037
 30
0.0
 10
5.571346577685053
 20
7.718612128007887
 30
0.0
 10
5.572300118785715
 20
7.717484254109482
 30
0.0
 10
5.573198053974667
 20
7.716842026586186
 30
0.0
 10
5.573647258053786
 20
7.71652074368433
 30
0.0
  0
ARC
  5
321
330
1F
100
AcDbEntity
  8
0
  6
Continuous
 62
     7
370
     0
100
AcDbCircle
 10
5.5824552685
 20
7.7402138671
 30
0.0
 40
0.0252773642580226
100
AcDbArc
 50
249.6071875079
 51
312.3770870611
  0
LWPOLYLINE
  5
322
330
1F
100
AcDbEntity
  8
0
  6
Continuous
 62
     7
370
     0
100
AcDbPolyline
 90
       22
 70
   128
 43
0.0
 10
4.5566553298
 20
7.2478834473
 10
4.5495791008
 20
7.2402135132
 10
4.539929353
 20
7.2281841398
 10
4.531069275
 20
7.2151536273
 10
4.5230219156
 20
7.2011558737
 10
4.5158082096
 20
7.1862272934
 10
4.5094469231
 20
7.1704067223
 10
4.5039546046
 20
7.1537353166
 10
4.4993455421
 20
7.1362564461
 10
4.4956317257
 20
7.118015581
 10
4.4928228168
 20
7.099060174
 10
4.4909261225
 20
7.0794395365
 10
4.4899465771
 20
7.0592047103
 10
4.4898867287
 20
7.0384083353
 10
4.490746733
 20
7.0171045121
 10
4.4925243528
 20
6.9953486613
 10
4.4952149638
 20
6.9731973796
 10
4.4988115663
 20
6.9507082922
 10
4.5033048041
 20
6.9279399032
 10
4.5086829883
 20
6.9049514433
 10
4.5149321279
 20
6.8818027157
 10
4.522035966
 20
6.8585539404
  0
SPLINE
  5
323
330
1F
100
AcDbEntity
  8
0
  6
Continuous
 62
     7
370
     0
100
AcDbSpline
210
0.0
220
0.0
230
1.0
 70
    24
 71
     1
 72
     4
 73
     2
 74
     0
 42
0.00000001
 43
0.00000001
 40
0.0
 40
0.0
 40
1.0
 40
1.0
 10
4.522035965959643
 20
6.85855394038454
 30
0.0
 10
4.520697335434343
 20
6.860023053392584
 30
0.0
  0
LWPOLYLINE
  5
324
330
1F
100
AcDbEntity
  8
0
  6
Continuous
 62
     7
370
     0
100
AcDbPolyline
 90
       26
 70
   128
 43
0.0
 10
4.6397556306
 20
7.2432113608
 10
4.6352930951
 20
7.2414115809
 10
4.6227020255
 20
7.2354039339
 10
4.6107448692
 20
7.2282705773
 10
4.5994559584
 20
7.2200319929
 10
4.5888677067
 20
7.2107118358
 10
4.5790105157
 20
7.2003368669
 10
4.5699126882
 20
7.1889368754
 10
4.5616003464
 20
7.1765445938
 10
4.5540973574
 20
7.1631956037
 10
4.5474252642
 20
7.1489282336
 10
4.5416032242
 20
7.1337834491
 10
4.5366479541
 20
7.1178047348
 10
4.5325736819
 20
7.1010379701
 10
4.5293921058
 20
7.0835312968
 10
4.527112361
 20
7.0653349814
 10
4.5257409933
 20
7.0465012703
 10
4.5252819402
 20
7.0270842403
 10
4.5257365198
 20
7.007139643
 10
4.527103427
 20
6.9867247445
 10
4.5293787368
 20
6.9658981617
 10
4.5325559164
 20
6.9447196933
 10
4.5366258431
 20
6.9232501485
 10
4.5415768311
 20
6.901551172
 10
4.5473946648
 20
6.8796850675
 10
4.5540626396
 20
6.8577146186
  0
LINE
  5
325
330
1F
100
AcDbEntity
  8
0
  6
Continuous
 62
     7
370
     0
100
AcDbLine
 10
4.522035966
 20
6.8585539404
 30
0.0
 11
4.5540626396
 21
6.8577146186
 31
0.0
  0
LWPOLYLINE
  5
326
330
1F
100
AcDbEntity
  8
0
  6
Continuous
 62
     7
370
     0
100
AcDbPolyline
 90
       39
 70
   128
 43
0.0
 10
4.5586308375
 20
6.8440235561
 10
4.5666359972
 20
6.8220180636
 10
4.575436051
 20
6.8000738042
 10
4.5850057314
 20
6.7782537858
 10
4.5953175614
 20
6.7566206596
 10
4.6063419328
 20
6.7352365402
 10
4.6180471918
 20
6.7141628271
 10
4.6303997294
 20
6.6934600286
 10
4.6433640781
 20
6.6731875882
 10
4.6569030137
 20
6.6534037135
 10
4.6709776623
 20
6.6341652093
 10
4.6855476117
 20
6.6155273145
 10
4.7005710278
 20
6.5975435437
 10
4.7160047741
 20
6.5802655331
 10
4.7318045363
 20
6.5637428926
 10
4.747924949
 20
6.548023063
 10
4.764319726
 20
6.5331511804
 10
4.7809417935
 20
6.5191699458
 10
4.7977434252
 20
6.5061195033
 10
4.8146763789
 20
6.4940373241
 10
4.8316920355
 20
6.4829580995
 10
4.8487415386
 20
6.4729136409
 10
4.8657759343
 20
6.4639327887
 10
4.8827463124
 20
6.4560413293
 10
4.8996039462
 20
6.4492619212
 10
4.9163004329
 20
6.4436140301
 10
4.9327878324
 20
6.4391138724
 10
4.9490188049
 20
6.4357743694
 10
4.964946747
 20
6.4336051096
 10
4.9805259251
 20
6.4326123217
 10
4.9957116072
 20
6.4327988561
 10
5.0104601912
 20
6.4341641773
 10
5.0247293298
 20
6.4367043651
 10
5.0384780525
 20
6.4404121259
 10
5.0516668829
 20
6.4452768137
 10
5.0642579525
 20
6.4512844607
 10
5.0762151088
 20
6.4584178173
 10
5.0875040196
 20
6.4666564018
 10
5.0878776131
 20
6.4669572104
  0
LINE
  5
327
330
1F
100
AcDbEntity
  8
0
  6
Continuous
 62
     7
370
     0
100
AcDbLine
 10
4.5586308375
 20
6.8440235561
 30
0.0
 11
4.576308507
 21
6.8542286575
 31
0.0
  0
ARC
  5
328
330
1F
100
AcDbEntity
  8
0
  6
Continuous
 62
     7
370
     0
100
AcDbCircle
 10
5.2325678259
 20
7.0808056108
 30
0.0
 40
0.6942718555250432
100
AcDbArc
 50
197.8563692541
 51
199.0475008118
  0
LINE
  5
329
330
1F
100
AcDbEntity
  8
0
  6
Continuous
 62
     7
370
     0
100
AcDbLine
 10
4.5540626396
 20
6.8577146186
 30
0.0
 11
4.5717403091
 21
6.86791972
 31
0.0
  0
LWPOLYLINE
  5
32A
330
1F
100
AcDbEntity
  8
0
  6
Continuous
 62
     7
370
     0
100
AcDbPolyline
 90
       36
 70
   128
 43
0.0
 10
4.5266041638
 20
6.8448628779
 10
4.5350263554
 20
6.8215795525
 10
4.5442509716
 20
6.7983528467
 10
4.5542540149
 20
6.7752431833
 10
4.5650094632
 20
6.7523106808
 10
4.5764893368
 20
6.7296149968
 10
4.5886637712
 20
6.7072151729
 10
4.6015010956
 20
6.6851694808
 10
4.6149679143
 20
6.6635352713
 10
4.6290291941
 20
6.6423688245
 10
4.6436483555
 20
6.6217252036
 10
4.6587873675
 20
6.601658112
 10
4.6744068468
 20
6.5822197529
 10
4.6904661603
 20
6.5634606942
 10
4.7069235305
 20
6.5454297365
 10
4.7237361446
 20
6.5281737863
 10
4.7408602655
 20
6.511737734
 10
4.7582513458
 20
6.4961643371
 10
4.7758641435
 20
6.4814941087
 10
4.79365284
 20
6.4677652128
 10
4.8115711589
 20
6.4550133642
 10
4.8295724869
 20
6.4432717361
 10
4.8476099945
 20
6.4325708738
 10
4.8656367581
 20
6.4229386149
 10
4.8836058821
 20
6.4144000172
 10
4.9014706208
 20
6.4069772933
 10
4.9191845003
 20
6.4006897531
 10
4.9367014388
 20
6.3955537533
 10
4.953975867
 20
6.3915826547
 10
4.9709628464
 20
6.3887867881
 10
4.9876181865
 20
6.3871734267
 10
5.0038985592
 20
6.3867467676
 10
5.0197616122
 20
6.3875079207
 10
5.0351660785
 20
6.389454906
 10
5.0500718845
 20
6.3925826584
 10
5.050366636
 20
6.3926577151
  0
SPLINE
  5
32B
330
1F
100
AcDbEntity
  8
0
  6
Continuous
 62
     7
370
     0
100
AcDbSpline
210
0.0
220
0.0
230
1.0
 70
    24
 71
     1
 72
     4
 73
     2
 74
     0
 42
0.00000001
 43
0.00000001
 40
0.0
 40
0.0
 40
1.0
 40
1.0
 10
4.525265533303807
 20
6.846331990871258
 30
0.0
 10
4.526604163829107
 20
6.844862877863215
 30
0.0
  0
LINE
  5
32C
330
1F
100
AcDbEntity
  8
0
  6
Continuous
 62
     7
370
     0
100
AcDbLine
 10
4.5266041638
 20
6.8448628779
 30
0.0
 11
4.5586308375
 21
6.8440235561
 31
0.0
  0
LINE
  5
32D
330
1F
100
AcDbEntity
  8
0
  6
Continuous
 62
     7
370
     0
100
AcDbLine
 10
4.5405669904
 20
6.855165334
 30
0.0
 11
4.576308507
 21
6.8542286575
 31
0.0
  0
LINE
  5
32E
330
1F
100
AcDbEntity
  8
0
  6
Continuous
 62
     7
370
     0
100
AcDbLine
 10
6.9847942586
 20
4.3814512656
 30
0.0
 11
3.1257124052
 21
4.3814512656
 31
0.0
  0
LINE
  5
32F
330
1F
100
AcDbEntity
  8
0
  6
Continuous
 62
     7
370
     0
100
AcDbLine
 10
3.1257124052
 20
4.3814512656
 30
0.0
 11
6.9938443087
 21
4.6836020525
 31
0.0
  0
LINE
  5
330
330
1F
100
AcDbEntity
  8
0
  6
Continuous
 62
     7
370
     0
100
AcDbLine
 10
7.8394501246
 20
4.3814512656
 30
0.0
 11
9.5431927202
 21
4.3814512656
 31
0.0
  0
LINE
  5
331
330
1F
100
AcDbEntity
  8
0
  6
Continuous
 62
     7
370
     0
100
AcDbLine
 10
9.5431927202
 20
4.3814512656
 30
0.0
 11
7.8354660337
 21
4.6836020525
 31
0.0
  0
LINE
  5
332
330
1F
100
AcDbEntity
  8
0
  6
Continuous
 62
     7
370
     0
100
AcDbLine
 10
9.5431927202
 20
4.3814512656
 30
0.0
 11
7.835192165
 21
4.0690899196
 31
0.0
  0
LINE
  5
333
330
1F
100
AcDbEntity
  8
0
  6
Continuous
 62
     7
370
     0
100
AcDbLine
 10
7.8394501246
 20
4.3814512656
 30
0.0
 11
6.9847942586
 21
4.3814512656
 31
0.0
  0
LINE
  5
334
330
1F
100
AcDbEntity
  8
0
  6
Continuous
 62
     7
370
     0
100
AcDbLine
 10
3.1257124052
 20
4.3814512656
 30
0.0
 11
6.9944668958
 21
4.0690899196
 31
0.0
  0
LINE
  5
335
330
1F
100
AcDbEntity
  8
0
  6
Continuous
 62
     7
370
     0
100
AcDbLine
 10
7.8470279876
 20
3.8639512656
 30
0.0
 11
7.8997074795
 21
3.8639512656
 31
0.0
  0
LINE
  5
336
330
1F
100
AcDbEntity
  8
0
  6
Continuous
 62
     7
370
     0
100
AcDbLine
 10
7.8997074795
 20
4.8989512656
 30
0.0
 11
7.8470279876
 21
4.8989512656
 31
0.0
  0
LINE
  5
337
330
1F
100
AcDbEntity
  8
0
  6
Continuous
 62
     7
370
     0
100
AcDbLine
 10
7.8297074795
 20
4.8889512656
 30
0.0
 11
7.8470279876
 21
4.8989512656
 31
0.0
  0
LINE
  5
338
330
1F
100
AcDbEntity
  8
0
  6
Continuous
 62
     7
370
     0
100
AcDbLine
 10
7.8470279876
 20
3.8639512656
 30
0.0
 11
7.8297074795
 21
3.8739512656
 31
0.0
  0
LINE
  5
339
330
1F
100
AcDbEntity
  8
0
  6
Continuous
 62
     7
370
     0
100
AcDbLine
 10
7.9097074795
 20
4.7925508349
 30
0.0
 11
7.8847074795
 21
4.7925508349
 31
0.0
  0
LINE
  5
33A
330
1F
100
AcDbEntity
  8
0
  6
Continuous
 62
     7
370
     0
100
AcDbLine
 10
7.8847074795
 20
4.7862225519
 30
0.0
 11
7.8847074795
 21
4.7925508349
 31
0.0
  0
LINE
  5
33B
330
1F
100
AcDbEntity
  8
0
  6
Continuous
 62
     7
370
     0
100
AcDbLine
 10
7.9097074795
 20
4.7862225519
 30
0.0
 11
7.8847074795
 21
4.7862225519
 31
0.0
  0
LINE
  5
33C
330
1F
100
AcDbEntity
  8
0
  6
Continuous
 62
     7
370
     0
100
AcDbLine
 10
7.9097074795
 20
3.9314512656
 30
0.0
 11
7.9097074795
 21
4.7862225519
 31
0.0
  0
LINE
  5
33D
330
1F
100
AcDbEntity
  8
0
  6
Continuous
 62
     7
370
     0
100
AcDbLine
 10
7.8297074795
 20
3.9314512656
 30
0.0
 11
7.9097074795
 21
3.9314512656
 31
0.0
  0
LINE
  5
33E
330
1F
100
AcDbEntity
  8
0
  6
Continuous
 62
     7
370
     0
100
AcDbLine
 10
7.9097074795
 20
4.8314512656
 30
0.0
 11
7.8297074795
 21
4.8314512656
 31
0.0
  0
LINE
  5
33F
330
1F
100
AcDbEntity
  8
0
  6
Continuous
 62
     7
370
     0
100
AcDbLine
 10
7.9097074795
 20
4.7925508349
 30
0.0
 11
7.9097074795
 21
4.8314512656
 31
0.0
  0
LINE
  5
340
330
1F
100
AcDbEntity
  8
0
  6
Continuous
 62
     7
370
     0
100
AcDbLine
 10
7.9097074795
 20
3.8812717737
 30
0.0
 11
7.8997074795
 21
3.8639512656
 31
0.0
  0
LINE
  5
341
330
1F
100
AcDbEntity
  8
0
  6
Continuous
 62
     7
370
     0
100
AcDbLine
 10
7.8997074795
 20
4.8989512656
 30
0.0
 11
7.9097074795
 21
4.8816307575
 31
0.0
  0
LINE
  5
342
330
1F
100
AcDbEntity
  8
0
  6
Continuous
 62
     7
370
     0
100
AcDbLine
 10
7.9097074795
 20
4.8816307575
 30
0.0
 11
7.9097074795
 21
4.8314512656
 31
0.0
  0
LINE
  5
343
330
1F
100
AcDbEntity
  8
0
  6
Continuous
 62
     7
370
     0
100
AcDbLine
 10
7.8297074795
 20
4.8889512656
 30
0.0
 11
7.8297074795
 21
4.8314512656
 31
0.0
  0
LINE
  5
344
330
1F
100
AcDbEntity
  8
0
  6
Continuous
 62
     7
370
     0
100
AcDbLine
 10
7.9097074795
 20
3.9314512656
 30
0.0
 11
7.9097074795
 21
3.8812717737
 31
0.0
  0
LINE
  5
345
330
1F
100
AcDbEntity
  8
0
  6
Continuous
 62
     7
370
     0
100
AcDbLine
 10
7.8297074795
 20
3.9314512656
 30
0.0
 11
7.8297074795
 21
3.8739512656
 31
0.0
  0
LINE
  5
346
330
1F
100
AcDbEntity
  8
0
  6
Continuous
 62
     7
370
     0
100
AcDbLine
 10
7.9097074795
 20
4.7925508349
 30
0.0
 11
7.9097074795
 21
4.7862225519
 31
0.0
  0
LINE
  5
347
330
1F
100
AcDbEntity
  8
0
  6
Continuous
 62
     7
370
     0
100
AcDbLine
 10
7.0054892251
 20
3.8739512656
 30
0.0
 11
6.988168717
 21
3.8639512656
 31
0.0
  0
LINE
  5
348
330
1F
100
AcDbEntity
  8
0
  6
Continuous
 62
     7
370
     0
100
AcDbLine
 10
6.988168717
 20
4.8989512656
 30
0.0
 11
7.0054892251
 21
4.8889512656
 31
0.0
  0
LINE
  5
349
330
1F
100
AcDbEntity
  8
0
  6
Continuous
 62
     7
370
     0
100
AcDbLine
 10
6.988168717
 20
4.8989512656
 30
0.0
 11
6.9354892251
 21
4.8989512656
 31
0.0
  0
LINE
  5
34A
330
1F
100
AcDbEntity
  8
0
  6
Continuous
 62
     7
370
     0
100
AcDbLine
 10
6.9354892251
 20
3.8639512656
 30
0.0
 11
6.988168717
 21
3.8639512656
 31
0.0
  0
LINE
  5
34B
330
1F
100
AcDbEntity
  8
0
  6
Continuous
 62
     7
370
     0
100
AcDbLine
 10
6.9254892251
 20
4.1808972286
 30
0.0
 11
6.9504892251
 21
4.1808972286
 31
0.0
  0
LINE
  5
34C
330
1F
100
AcDbEntity
  8
0
  6
Continuous
 62
     7
370
     0
100
AcDbLine
 10
6.9504892251
 20
4.1944347001
 30
0.0
 11
6.9504892251
 21
4.1808972286
 31
0.0
  0
LINE
  5
34D
330
1F
100
AcDbEntity
  8
0
  6
Continuous
 62
     7
370
     0
100
AcDbLine
 10
6.9254892251
 20
4.1944347001
 30
0.0
 11
6.9504892251
 21
4.1944347001
 31
0.0
  0
LINE
  5
34E
330
1F
100
AcDbEntity
  8
0
  6
Continuous
 62
     7
370
     0
100
AcDbLine
 10
6.9254892251
 20
4.8314512656
 30
0.0
 11
6.9254892251
 21
4.1944347001
 31
0.0
  0
LINE
  5
34F
330
1F
100
AcDbEntity
  8
0
  6
Continuous
 62
     7
370
     0
100
AcDbLine
 10
7.0054892251
 20
4.8314512656
 30
0.0
 11
6.9254892251
 21
4.8314512656
 31
0.0
  0
LINE
  5
350
330
1F
100
AcDbEntity
  8
0
  6
Continuous
 62
     7
370
     0
100
AcDbLine
 10
6.9254892251
 20
3.9314512656
 30
0.0
 11
7.0054892251
 21
3.9314512656
 31
0.0
  0
LINE
  5
351
330
1F
100
AcDbEntity
  8
0
  6
Continuous
 62
     7
370
     0
100
AcDbLine
 10
6.9254892251
 20
4.1808972286
 30
0.0
 11
6.9254892251
 21
3.9314512656
 31
0.0
  0
LINE
  5
352
330
1F
100
AcDbEntity
  8
0
  6
Continuous
 62
     7
370
     0
100
AcDbLine
 10
6.9254892251
 20
4.8816307575
 30
0.0
 11
6.9354892251
 21
4.8989512656
 31
0.0
  0
LINE
  5
353
330
1F
100
AcDbEntity
  8
0
  6
Continuous
 62
     7
370
     0
100
AcDbLine
 10
6.9354892251
 20
3.8639512656
 30
0.0
 11
6.9254892251
 21
3.8812717737
 31
0.0
  0
LINE
  5
354
330
1F
100
AcDbEntity
  8
0
  6
Continuous
 62
     7
370
     0
100
AcDbLine
 10
6.9254892251
 20
3.8812717737
 30
0.0
 11
6.9254892251
 21
3.9314512656
 31
0.0
  0
LINE
  5
355
330
1F
100
AcDbEntity
  8
0
  6
Continuous
 62
     7
370
     0
100
AcDbLine
 10
7.0054892251
 20
3.8739512656
 30
0.0
 11
7.0054892251
 21
3.9314512656
 31
0.0
  0
LINE
  5
356
330
1F
100
AcDbEntity
  8
0
  6
Continuous
 62
     7
370
     0
100
AcDbLine
 10
6.9254892251
 20
4.8314512656
 30
0.0
 11
6.9254892251
 21
4.8816307575
 31
0.0
  0
LINE
  5
357
330
1F
100
AcDbEntity
  8
0
  6
Continuous
 62
     7
370
     0
100
AcDbLine
 10
7.0054892251
 20
4.8314512656
 30
0.0
 11
7.0054892251
 21
4.8889512656
 31
0.0
  0
LINE
  5
358
330
1F
100
AcDbEntity
  8
0
  6
Continuous
 62
     7
370
     0
100
AcDbLine
 10
6.9254892251
 20
4.1808972286
 30
0.0
 11
6.9254892251
 21
4.1944347001
 31
0.0
  0
LINE
  5
359
330
1F
100
AcDbEntity
  8
0
  6
Continuous
 62
     7
370
     0
100
AcDbLine
 10
6.9283895706
 20
3.7814512656
 30
0.0
 11
8.0483895706
 21
3.7814512656
 31
0.0
  0
LINE
  5
35A
330
1F
100
AcDbEntity
  8
0
  6
Continuous
 62
     7
370
     0
100
AcDbLine
 10
8.0483895706
 20
4.9814512656
 30
0.0
 11
7.9783895706
 21
4.9814512656
 31
0.0
  0
LINE
  5
35B
330
1F
100
AcDbEntity
  8
0
  6
Continuous
 62
     7
370
     0
100
AcDbLine
 10
7.9202077524
 20
4.9814512656
 30
0.0
 11
6.9289217574
 21
4.9814512656
 31
0.0
  0
LINE
  5
35C
330
1F
100
AcDbEntity
  8
0
  6
Continuous
 62
     7
370
     0
100
AcDbLine
 10
6.8477764693
 20
4.9814512656
 30
0.0
 11
6.7833895706
 21
4.9814512656
 31
0.0
  0
LINE
  5
35D
330
1F
100
AcDbEntity
  8
0
  6
Continuous
 62
     7
370
     0
100
AcDbLine
 10
6.7833895706
 20
3.7814512656
 30
0.0
 11
6.8480648952
 21
3.7814512656
 31
0.0
  0
LINE
  5
35E
330
1F
100
AcDbEntity
  8
0
  6
Continuous
 62
     7
370
     0
100
AcDbLine
 10
8.0583895706
 20
3.7914512656
 30
0.0
 11
8.0483895706
 21
3.7814512656
 31
0.0
  0
LINE
  5
35F
330
1F
100
AcDbEntity
  8
0
  6
Continuous
 62
     7
370
     0
100
AcDbLine
 10
8.0483895706
 20
4.9814512656
 30
0.0
 11
8.0583895706
 21
4.9714512656
 31
0.0
  0
LINE
  5
360
330
1F
100
AcDbEntity
  8
0
  6
Continuous
 62
     7
370
     0
100
AcDbLine
 10
6.7733895706
 20
4.9714512656
 30
0.0
 11
6.7833895706
 21
4.9814512656
 31
0.0
  0
LINE
  5
361
330
1F
100
AcDbEntity
  8
0
  6
Continuous
 62
     7
370
     0
100
AcDbLine
 10
6.7833895706
 20
3.7814512656
 30
0.0
 11
6.7733895706
 21
3.7914512656
 31
0.0
  0
LINE
  5
362
330
1F
100
AcDbEntity
  8
0
  6
Continuous
 62
     7
370
     0
100
AcDbLine
 10
7.4683895706
 20
3.8564512656
 30
0.0
 11
7.4883895706
 21
3.8564512656
 31
0.0
  0
LINE
  5
363
330
1F
100
AcDbEntity
  8
0
  6
Continuous
 62
     7
370
     0
100
AcDbLine
 10
7.4883895706
 20
4.9064512656
 30
0.0
 11
7.4683895706
 21
4.9064512656
 31
0.0
  0
LINE
  5
364
330
1F
100
AcDbEntity
  8
0
  6
Continuous
 62
     7
370
     0
100
AcDbLine
 10
7.1783895706
 20
4.9064512656
 30
0.0
 11
7.1983895706
 21
4.9064512656
 31
0.0
  0
LINE
  5
365
330
1F
100
AcDbEntity
  8
0
  6
Continuous
 62
     7
370
     0
100
AcDbLine
 10
7.1983895706
 20
3.8564512656
 30
0.0
 11
7.1783895706
 21
3.8564512656
 31
0.0
  0
LINE
  5
366
330
1F
100
AcDbEntity
  8
0
  6
Continuous
 62
     7
370
     0
100
AcDbLine
 10
8.0583895706
 20
4.8974512656
 30
0.0
 11
8.0410690625
 21
4.8874512656
 31
0.0
  0
LINE
  5
367
330
1F
100
AcDbEntity
  8
0
  6
Continuous
 62
     7
370
     0
100
AcDbLine
 10
8.0410690625
 20
3.8754512656
 30
0.0
 11
8.0583895706
 21
3.8654512656
 31
0.0
  0
LINE
  5
368
330
1F
100
AcDbEntity
  8
0
  6
Continuous
 62
     7
370
     0
100
AcDbLine
 10
8.0410690625
 20
3.8754512656
 30
0.0
 11
8.0410690625
 21
4.8874512656
 31
0.0
  0
LINE
  5
369
330
1F
100
AcDbEntity
  8
0
  6
Continuous
 62
     7
370
     0
100
AcDbLine
 10
8.0583895706
 20
4.8974512656
 30
0.0
 11
8.0583895706
 21
3.8654512656
 31
0.0
  0
LINE
  5
36A
330
1F
100
AcDbEntity
  8
0
  6
Continuous
 62
     7
370
     0
100
AcDbLine
 10
6.7733895706
 20
3.8654512656
 30
0.0
 11
6.7907100786
 21
3.8754512656
 31
0.0
  0
LINE
  5
36B
330
1F
100
AcDbEntity
  8
0
  6
Continuous
 62
     7
370
     0
100
AcDbLine
 10
6.7907100786
 20
4.8874512656
 30
0.0
 11
6.7733895706
 21
4.8974512656
 31
0.0
  0
LINE
  5
36C
330
1F
100
AcDbEntity
  8
0
  6
Continuous
 62
     7
370
     0
100
AcDbLine
 10
6.7907100786
 20
4.8874512656
 30
0.0
 11
6.7907100786
 21
3.8754512656
 31
0.0
  0
LINE
  5
36D
330
1F
100
AcDbEntity
  8
0
  6
Continuous
 62
     7
370
     0
100
AcDbLine
 10
6.7733895706
 20
3.8654512656
 30
0.0
 11
6.7733895706
 21
4.8974512656
 31
0.0
  0
LINE
  5
36E
330
1F
100
AcDbEntity
  8
0
  6
Continuous
 62
     7
370
     0
100
AcDbLine
 10
7.7573895706
 20
3.8754512656
 30
0.0
 11
7.7573895706
 21
3.8814512656
 31
0.0
  0
LINE
  5
36F
330
1F
100
AcDbEntity
  8
0
  6
Continuous
 62
     7
370
     0
100
AcDbLine
 10
7.7573895706
 20
4.8814512656
 30
0.0
 11
7.7573895706
 21
4.8874512656
 31
0.0
  0
LINE
  5
370
330
1F
100
AcDbEntity
  8
0
  6
Continuous
 62
     7
370
     0
100
AcDbLine
 10
7.7573895706
 20
4.8874512656
 30
0.0
 11
8.0410690625
 21
4.8874512656
 31
0.0
  0
LINE
  5
371
330
1F
100
AcDbEntity
  8
0
  6
Continuous
 62
     7
370
     0
100
AcDbLine
 10
8.0410690625
 20
3.8754512656
 30
0.0
 11
7.7573895706
 21
3.8754512656
 31
0.0
  0
LINE
  5
372
330
1F
100
AcDbEntity
  8
0
  6
Continuous
 62
     7
370
     0
100
AcDbLine
 10
7.75623487
 20
4.8854512656
 30
0.0
 11
7.75623487
 21
4.8814512656
 31
0.0
  0
LINE
  5
373
330
1F
100
AcDbEntity
  8
0
  6
Continuous
 62
     7
370
     0
100
AcDbLine
 10
7.75623487
 20
3.8814512656
 30
0.0
 11
7.75623487
 21
3.8774512656
 31
0.0
  0
LINE
  5
374
330
1F
100
AcDbEntity
  8
0
  6
Continuous
 62
     7
370
     0
100
AcDbLine
 10
7.75623487
 20
4.8854512656
 30
0.0
 11
7.7573895706
 21
4.8874512656
 31
0.0
  0
LINE
  5
375
330
1F
100
AcDbEntity
  8
0
  6
Continuous
 62
     7
370
     0
100
AcDbLine
 10
7.7573895706
 20
3.8754512656
 30
0.0
 11
7.75623487
 21
3.8774512656
 31
0.0
  0
LINE
  5
376
330
1F
100
AcDbEntity
  8
0
  6
Continuous
 62
     7
370
     0
100
AcDbLine
 10
7.0743895706
 20
4.8874512656
 30
0.0
 11
7.0743895706
 21
4.8814512656
 31
0.0
  0
LINE
  5
377
330
1F
100
AcDbEntity
  8
0
  6
Continuous
 62
     7
370
     0
100
AcDbLine
 10
7.0743895706
 20
3.8814512656
 30
0.0
 11
7.0743895706
 21
3.8754512656
 31
0.0
  0
LINE
  5
378
330
1F
100
AcDbEntity
  8
0
  6
Continuous
 62
     7
370
     0
100
AcDbLine
 10
7.0743895706
 20
3.8754512656
 30
0.0
 11
6.7907100786
 21
3.8754512656
 31
0.0
  0
LINE
  5
379
330
1F
100
AcDbEntity
  8
0
  6
Continuous
 62
     7
370
     0
100
AcDbLine
 10
6.7907100786
 20
4.8874512656
 30
0.0
 11
7.0743895706
 21
4.8874512656
 31
0.0
  0
LINE
  5
37A
330
1F
100
AcDbEntity
  8
0
  6
Continuous
 62
     7
370
     0
100
AcDbLine
 10
7.0755442711
 20
3.8774512656
 30
0.0
 11
7.0755442711
 21
3.8814512656
 31
0.0
  0
LINE
  5
37B
330
1F
100
AcDbEntity
  8
0
  6
Continuous
 62
     7
370
     0
100
AcDbLine
 10
7.0755442711
 20
4.8814512656
 30
0.0
 11
7.0755442711
 21
4.8854512656
 31
0.0
  0
LINE
  5
37C
330
1F
100
AcDbEntity
  8
0
  6
Continuous
 62
     7
370
     0
100
AcDbLine
 10
7.0755442711
 20
3.8774512656
 30
0.0
 11
7.0743895706
 21
3.8754512656
 31
0.0
  0
LINE
  5
37D
330
1F
100
AcDbEntity
  8
0
  6
Continuous
 62
     7
370
     0
100
AcDbLine
 10
7.0743895706
 20
4.8874512656
 30
0.0
 11
7.0755442711
 21
4.8854512656
 31
0.0
  0
LINE
  5
37E
330
1F
100
AcDbEntity
  8
0
  6
Continuous
 62
     7
370
     0
100
AcDbLine
 10
7.4883895706
 20
3.8774512656
 30
0.0
 11
7.75623487
 21
3.8774512656
 31
0.0
  0
LINE
  5
37F
330
1F
100
AcDbEntity
  8
0
  6
Continuous
 62
     7
370
     0
100
AcDbLine
 10
7.75623487
 20
4.8854512656
 30
0.0
 11
7.4883895706
 21
4.8854512656
 31
0.0
  0
LINE
  5
380
330
1F
100
AcDbEntity
  8
0
  6
Continuous
 62
     7
370
     0
100
AcDbLine
 10
7.4883895706
 20
3.8774512656
 30
0.0
 11
7.4883895706
 21
3.8814512656
 31
0.0
  0
LINE
  5
381
330
1F
100
AcDbEntity
  8
0
  6
Continuous
 62
     7
370
     0
100
AcDbLine
 10
7.4883895706
 20
4.8814512656
 30
0.0
 11
7.4883895706
 21
4.8854512656
 31
0.0
  0
LINE
  5
382
330
1F
100
AcDbEntity
  8
0
  6
Continuous
 62
     7
370
     0
100
AcDbLine
 10
7.1783895706
 20
4.8854512656
 30
0.0
 11
7.0755442711
 21
4.8854512656
 31
0.0
  0
LINE
  5
383
330
1F
100
AcDbEntity
  8
0
  6
Continuous
 62
     7
370
     0
100
AcDbLine
 10
7.0755442711
 20
3.8774512656
 30
0.0
 11
7.1783895706
 21
3.8774512656
 31
0.0
  0
LINE
  5
384
330
1F
100
AcDbEntity
  8
0
  6
Continuous
 62
     7
370
     0
100
AcDbLine
 10
7.1783895706
 20
4.8854512656
 30
0.0
 11
7.1783895706
 21
4.8814512656
 31
0.0
  0
LINE
  5
385
330
1F
100
AcDbEntity
  8
0
  6
Continuous
 62
     7
370
     0
100
AcDbLine
 10
7.1783895706
 20
3.8814512656
 30
0.0
 11
7.1783895706
 21
3.8774512656
 31
0.0
  0
LINE
  5
386
330
1F
100
AcDbEntity
  8
0
  6
Continuous
 62
     7
370
     0
100
AcDbLine
 10
7.4683895706
 20
4.8324512656
 30
0.0
 11
7.1983895706
 21
4.8324512656
 31
0.0
  0
LINE
  5
387
330
1F
100
AcDbEntity
  8
0
  6
Continuous
 62
     7
370
     0
100
AcDbLine
 10
7.1983895706
 20
3.9304512656
 30
0.0
 11
7.4683895706
 21
3.9304512656
 31
0.0
  0
LINE
  5
388
330
1F
100
AcDbEntity
  8
0
  6
Continuous
 62
     7
370
     0
100
AcDbLine
 10
6.8667723631
 20
4.9814512656
 30
0.0
 11
6.8477764693
 21
4.9814512656
 31
0.0
  0
LINE
  5
389
330
1F
100
AcDbEntity
  8
0
  6
Continuous
 62
     7
370
     0
100
AcDbLine
 10
6.9100868448
 20
4.9814512656
 30
0.0
 11
6.8667723631
 21
4.9814512656
 31
0.0
  0
LINE
  5
38A
330
1F
100
AcDbEntity
  8
0
  6
Continuous
 62
     7
370
     0
100
AcDbLine
 10
6.9289217574
 20
4.9814512656
 30
0.0
 11
6.9100868448
 21
4.9814512656
 31
0.0
  0
LINE
  5
38B
330
1F
100
AcDbEntity
  8
0
  6
Continuous
 62
     7
370
     0
100
AcDbLine
 10
7.9783895706
 20
4.9814512656
 30
0.0
 11
7.9202077524
 21
4.9814512656
 31
0.0
  0
LINE
  5
38C
330
1F
100
AcDbEntity
  8
0
  6
Continuous
 62
     7
370
     0
100
AcDbLine
 10
7.1983895706
 20
4.8324512656
 30
0.0
 11
7.1983895706
 21
4.9064512656
 31
0.0
  0
LINE
  5
38D
330
1F
100
AcDbEntity
  8
0
  6
Continuous
 62
     7
370
     0
100
AcDbLine
 10
7.1783895706
 20
4.8854512656
 30
0.0
 11
7.1783895706
 21
4.9064512656
 31
0.0
  0
LINE
  5
38E
330
1F
100
AcDbEntity
  8
0
  6
Continuous
 62
     7
370
     0
100
AcDbLine
 10
7.4883895706
 20
4.9064512656
 30
0.0
 11
7.4883895706
 21
4.8854512656
 31
0.0
  0
LINE
  5
38F
330
1F
100
AcDbEntity
  8
0
  6
Continuous
 62
     7
370
     0
100
AcDbLine
 10
7.4683895706
 20
4.8324512656
 30
0.0
 11
7.4683895706
 21
4.9064512656
 31
0.0
  0
LINE
  5
390
330
1F
100
AcDbEntity
  8
0
  6
Continuous
 62
     7
370
     0
100
AcDbLine
 10
6.7733895706
 20
4.8974512656
 30
0.0
 11
6.7733895706
 21
4.9714512656
 31
0.0
  0
LINE
  5
391
330
1F
100
AcDbEntity
  8
0
  6
Continuous
 62
     7
370
     0
100
AcDbLine
 10
8.0583895706
 20
4.9714512656
 30
0.0
 11
8.0583895706
 21
4.8974512656
 31
0.0
  0
LINE
  5
392
330
1F
100
AcDbEntity
  8
0
  6
Continuous
 62
     7
370
     0
100
AcDbLine
 10
6.911133077
 20
3.7814512656
 30
0.0
 11
6.9283895706
 21
3.7814512656
 31
0.0
  0
LINE
  5
393
330
1F
100
AcDbEntity
  8
0
  6
Continuous
 62
     7
370
     0
100
AcDbLine
 10
6.8948506095
 20
3.7814512656
 30
0.0
 11
6.911133077
 21
3.7814512656
 31
0.0
  0
LINE
  5
394
330
1F
100
AcDbEntity
  8
0
  6
Continuous
 62
     7
370
     0
100
AcDbLine
 10
6.8795746355
 20
3.7814512656
 30
0.0
 11
6.8948506095
 21
3.7814512656
 31
0.0
  0
LINE
  5
395
330
1F
100
AcDbEntity
  8
0
  6
Continuous
 62
     7
370
     0
100
AcDbLine
 10
6.8643473628
 20
3.7814512656
 30
0.0
 11
6.8795746355
 21
3.7814512656
 31
0.0
  0
LINE
  5
396
330
1F
100
AcDbEntity
  8
0
  6
Continuous
 62
     7
370
     0
100
AcDbLine
 10
6.8480648952
 20
3.7814512656
 30
0.0
 11
6.8643473628
 21
3.7814512656
 31
0.0
  0
LINE
  5
397
330
1F
100
AcDbEntity
  8
0
  6
Continuous
 62
     7
370
     0
100
AcDbLine
 10
7.1983895706
 20
3.8564512656
 30
0.0
 11
7.1983895706
 21
3.9304512656
 31
0.0
  0
LINE
  5
398
330
1F
100
AcDbEntity
  8
0
  6
Continuous
 62
     7
370
     0
100
AcDbLine
 10
7.1783895706
 20
3.8564512656
 30
0.0
 11
7.1783895706
 21
3.8774512656
 31
0.0
  0
LINE
  5
399
330
1F
100
AcDbEntity
  8
0
  6
Continuous
 62
     7
370
     0
100
AcDbLine
 10
7.4883895706
 20
3.8774512656
 30
0.0
 11
7.4883895706
 21
3.8564512656
 31
0.0
  0
LINE
  5
39A
330
1F
100
AcDbEntity
  8
0
  6
Continuous
 62
     7
370
     0
100
AcDbLine
 10
7.4683895706
 20
3.8564512656
 30
0.0
 11
7.4683895706
 21
3.9304512656
 31
0.0
  0
LINE
  5
39B
330
1F
100
AcDbEntity
  8
0
  6
Continuous
 62
     7
370
     0
100
AcDbLine
 10
6.7733895706
 20
3.7914512656
 30
0.0
 11
6.7733895706
 21
3.8654512656
 31
0.0
  0
LINE
  5
39C
330
1F
100
AcDbEntity
  8
0
  6
Continuous
 62
     7
370
     0
100
AcDbLine
 10
8.0583895706
 20
3.8654512656
 30
0.0
 11
8.0583895706
 21
3.7914512656
 31
0.0
  0
LINE
  5
39D
330
1F
100
AcDbEntity
  8
0
  6
Continuous
 62
     7
370
     0
100
AcDbLine
 10
7.0096154735
 20
3.8814512656
 30
0.0
 11
7.1540739414
 21
3.8814512656
 31
0.0
  0
LINE
  5
39E
330
1F
100
AcDbEntity
  8
0
  6
Continuous
 62
     7
370
     0
100
AcDbLine
 10
7.1540739414
 20
4.8814512656
 30
0.0
 11
7.0096154735
 21
4.8814512656
 31
0.0
  0
ARC
  5
39F
330
1F
100
AcDbEntity
  8
0
  6
Continuous
 62
     7
370
     0
100
AcDbCircle
 10
8.8828257547
 20
4.3814512656
 30
0.0
 40
1.799606299212597
100
AcDbArc
 50
163.8687552727
 51
196.1312447273
  0
ARC
  5
3A0
330
1F
100
AcDbEntity
  8
0
  6
Continuous
 62
     7
370
     0
100
AcDbCircle
 10
12.0332194555
 20
4.3814512656
 30
0.0
 40
5.048425196850356
100
AcDbArc
 50
174.3160626373
 51
185.6839373627
  0
ARC
  5
3A1
330
1F
100
AcDbEntity
  8
0
  6
Continuous
 62
     7
370
     0
100
AcDbCircle
 10
4.7702273295
 20
4.3814512656
 30
0.0
 40
2.470472440944877
100
AcDbArc
 50
348.3232197246
 51
11.6767802754
  0
LINE
  5
3A2
330
1F
100
AcDbEntity
  8
0
  6
Continuous
 62
     7
370
     0
100
AcDbLine
 10
7.1540739414
 20
3.8814512656
 30
0.0
 11
7.1895731257
 21
3.8814512656
 31
0.0
  0
ARC
  5
3A3
330
1F
100
AcDbEntity
  8
0
  6
Continuous
 62
     7
370
     0
100
AcDbCircle
 10
8.8828257547
 20
4.3814512656
 30
0.0
 40
1.799606299212596
100
AcDbArc
 50
163.8687552727
 51
196.1312447273
  0
LINE
  5
3A4
330
1F
100
AcDbEntity
  8
0
  6
Continuous
 62
     7
370
     0
100
AcDbLine
 10
7.1895731257
 20
4.8814512656
 30
0.0
 11
7.1540739414
 21
4.8814512656
 31
0.0
  0
ARC
  5
3A5
330
1F
100
AcDbEntity
  8
0
  6
Continuous
 62
     7
370
     0
100
AcDbCircle
 10
6.8638595734
 20
4.3814512656
 30
0.0
 40
0.8771653543307085
100
AcDbArc
 50
325.2485222972
 51
34.7514777028
  0
LINE
  5
3A6
330
1F
100
AcDbEntity
  8
0
  6
Continuous
 62
     7
370
     0
100
AcDbLine
 10
7.4856557028
 20
3.8814512656
 30
0.0
 11
7.5845669057
 21
3.8814512656
 31
0.0
  0
ARC
  5
3A7
330
1F
100
AcDbEntity
  8
0
  6
Continuous
 62
     7
370
     0
100
AcDbCircle
 10
8.6992926443
 20
4.3814512656
 30
0.0
 40
1.312598425196854
100
AcDbArc
 50
157.609082359
 51
202.390917641
  0
LINE
  5
3A8
330
1F
100
AcDbEntity
  8
0
  6
Continuous
 62
     7
370
     0
100
AcDbLine
 10
7.5845669057
 20
4.8814512656
 30
0.0
 11
7.4856557028
 21
4.8814512656
 31
0.0
  0
ARC
  5
3A9
330
1F
100
AcDbEntity
  8
0
  6
Continuous
 62
     7
370
     0
100
AcDbCircle
 10
-3.6199986943
 20
4.3814512656
 30
0.0
 40
11.45944881889772
100
AcDbArc
 50
357.4992700088
 51
2.5007299912
  0
LINE
  5
3AA
330
1F
100
AcDbEntity
  8
0
  6
Continuous
 62
     7
370
     0
100
AcDbLine
 10
7.5845669057
 20
3.8814512656
 30
0.0
 11
7.8285368991
 21
3.8814512656
 31
0.0
  0
ARC
  5
3AB
330
1F
100
AcDbEntity
  8
0
  6
Continuous
 62
     7
370
     0
100
AcDbCircle
 10
6.8638595734
 20
4.3814512656
 30
0.0
 40
0.8771653543307085
100
AcDbArc
 50
325.2485222972
 51
34.7514777028
  0
LINE
  5
3AC
330
1F
100
AcDbEntity
  8
0
  6
Continuous
 62
     7
370
     0
100
AcDbLine
 10
7.8285368991
 20
4.8814512656
 30
0.0
 11
7.5845669057
 21
4.8814512656
 31
0.0
  0
DIMENSION
  5
3AD
330
1F
100
AcDbEntity
  8
0
  6
Continuous
 62
     7
370
     0
100
AcDbDimension
  2
*D8
 10
8.0583895706
 20
3.2978236544
 30
0.0
 11
8.9245313028
 21
3.2978236544
 31
0.0
 70
   160
 71
     1
 42
-1.0
  3
SLDDIMSTYLE1
100
AcDbAlignedDimension
 13
9.5431927202
 23
4.3814512656
 33
0.0
 14
8.0583895706
 24
3.7914512656
 34
0.0
100
AcDbRotatedDimension
  0
DIMENSION
  5
3C0
330
1F
100
AcDbEntity
  8
0
  6
Continuous
 62
     7
370
     0
100
AcDbDimension
  2
*D9
 10
6.7733895706
 20
3.2978236544
 30
0.0
 11
4.9623659485
 21
3.2978236544
 31
0.0
 70
   160
 71
     1
 42
-1.0
  3
SLDDIMSTYLE1
100
AcDbAlignedDimension
 13
3.1257124052
 23
4.3814512656
 33
0.0
 14
6.7733895706
 24
3.7914512656
 34
0.0
 50
0.0
100
AcDbRotatedDimension
  0
DIMENSION
  5
3D2
330
1F
100
AcDbEntity
  8
0
  6
Continuous
 62
     7
370
     0
100
AcDbDimension
  2
*D10
 10
7.8394501246
 20
5.1193997351
 30
0.0
 11
8.7593868016
 21
5.1193997351
 31
0.0
 70
   160
 71
     1
 42
-1.0
  3
SLDDIMSTYLE1
100
AcDbAlignedDimension
 13
9.5431927202
 23
4.3814512656
 33
0.0
 14
7.8394501246
 24
4.3814512656
 34
0.0
100
AcDbRotatedDimension
  0
DIMENSION
  5
3E4
330
1F
100
AcDbEntity
  8
0
  6
Continuous
 62
     7
370
     0
100
AcDbDimension
  2
*D11
 10
6.9847942586
 20
5.1193997351
 30
0.0
 11
4.9623659485
 21
5.1193997351
 31
0.0
 70
   160
 71
     1
 42
-1.0
  3
SLDDIMSTYLE1
100
AcDbAlignedDimension
 13
3.1257124052
 23
4.3814512656
 33
0.0
 14
6.9847942586
 24
4.3814512656
 34
0.0
100
AcDbRotatedDimension
  0
DIMENSION
  5
3F6
330
1F
100
AcDbEntity
  8
0
  6
Continuous
 62
     7
370
     0
100
AcDbDimension
  2
*D12
 10
8.0583895706
 20
2.4842121607
 30
0.0
 11
7.3435297011
 21
2.4842121607
 31
0.0
 70
   160
 71
     1
 42
-1.0
  3
SLDDIMSTYLE1
100
AcDbAlignedDimension
 13
6.7733895706
 23
3.7914512656
 33
0.0
 14
8.0583895706
 24
3.7914512656
 34
0.0
100
AcDbRotatedDimension
  0
DIMENSION
  5
408
330
1F
100
AcDbEntity
  8
0
  6
Continuous
 62
     7
370
     0
100
AcDbDimension
  2
*D13
 10
7.3866942191
 20
3.4055439944
 30
0.0
 11
7.8511085658
 21
3.4055439944
 31
0.0
 70
   160
 71
     1
 42
-1.0
  3
SLDDIMSTYLE2
100
AcDbAlignedDimension
 13
7.2406997705
 23
4.3814512656
 33
0.0
 14
7.3866942191
 24
4.3814512656
 34
0.0
100
AcDbRotatedDimension
  0
DIMENSION
  5
41B
330
1F
100
AcDbEntity
  8
0
  6
Continuous
 62
     7
370
     0
100
AcDbDimension
  2
*D14
 10
7.8394501246
 20
5.3172060798
 30
0.0
 11
7.4349842183
 21
5.3172060798
 31
0.0
 70
   160
 71
     1
 42
-1.0
  3
SLDDIMSTYLE2
100
AcDbAlignedDimension
 13
6.9847942586
 23
4.3814512656
 33
0.0
 14
7.8394501246
 24
4.3814512656
 34
0.0
100
AcDbRotatedDimension
  0
MTEXT
  5
42D
330
1F
100
AcDbEntity
  8
0
  6
Continuous
 62
     7
370
     0
100
AcDbMText
 10
6.8948992605
 20
3.024095193
 30
0.0
 40
0.09
 41
0.0
 71
     1
 72
     1
  1
SECTION A-A
  7
SLDTEXTSTYLE0
 73
     1
 44
1.0
  0
INSERT
  5
434
102
{ACAD_REACTORS
330
436
330
437
102
}
330
1F
100
AcDbEntity
  8
0
  6
Continuous
 62
     7
370
     0
100
AcDbBlockReference
  2
SW_NOTE_5
 10
6.3189099421
 20
3.5837488327
 30
0.0
  0
LEADER
  5
436
330
1F
100
AcDbEntity
  8
0
  6
Continuous
 62
     7
370
     0
100
AcDbLeader
  3
SLDDIMSTYLE3
 73
     2
 76
     3
 10
6.7907100786
 20
3.8754512656
 30
0.0
 10
6.5689099421
 20
3.5837488327
 30
0.0
 10
6.3189099421
 20
3.5837488327
 30
0.0
340
434
  0
LEADER
  5
437
330
1F
100
AcDbEntity
  8
0
  6
Continuous
 62
     7
370
     0
100
AcDbLeader
  3
SLDDIMSTYLE3
 73
     2
 76
     3
 10
7.9275882564
 20
3.8754512656
 30
0.0
 10
6.5689099421
 20
3.5837488327
 30
0.0
 10
6.3189099421
 20
3.5837488327
 30
0.0
340
434
  0
INSERT
  5
43D
330
1F
100
AcDbEntity
  8
0
  6
Continuous
 62
     7
370
     0
100
AcDbBlockReference
  2
SW_NOTE_6
 10
8.6753815868
 20
4.7886907064
 30
0.0
  0
LEADER
  5
43E
330
1F
100
AcDbEntity
  8
0
  6
Continuous
 62
     7
370
     0
100
AcDbLeader
  3
SLDDIMSTYLE3
 76
     2
 10
7.6729586524
 20
4.7202399008
 30
0.0
 10
8.6753815868
 20
4.7886907064
 30
0.0
  0
INSERT
  5
444
102
{ACAD_REACTORS
330
445
102
}
330
1F
100
AcDbEntity
  8
0
  6
Continuous
 62
     7
370
     0
100
AcDbBlockReference
  2
SW_NOTE_7
 10
6.2040219275
 20
4.7885495739
 30
0.0
  0
LEADER
  5
445
330
1F
100
AcDbEntity
  8
0
  6
Continuous
 62
     7
370
     0
100
AcDbLeader
  3
SLDDIMSTYLE3
 73
     2
 76
     2
 10
7.1163629562
 20
4.7252419196
 30
0.0
 10
6.2040219275
 20
4.7885495739
 30
0.0
340
444
  0
INSERT
  5
44B
330
1F
100
AcDbEntity
  8
0
  6
Continuous
 62
     7
370
     0
100
AcDbBlockReference
  2
SW_NOTE_8
 10
8.8480920807
 20
3.6041455648
 30
0.0
  0
LEADER
  5
44C
330
1F
100
AcDbEntity
  8
0
  6
Continuous
 62
     7
370
     0
100
AcDbLeader
  3
SLDDIMSTYLE3
 76
     2
 10
8.0583895706
 20
3.7914512656
 30
0.0
 10
8.8480920807
 20
3.6041455648
 30
0.0
  0
INSERT
  5
452
330
1F
100
AcDbEntity
  8
0
  6
Continuous
 62
     7
370
     0
100
AcDbBlockReference
  2
SW_NOTE_9
 10
8.8407350865
 20
3.9988387454
 30
0.0
  0
LEADER
  5
453
330
1F
100
AcDbEntity
  8
0
  6
Continuous
 62
     7
370
     0
100
AcDbLeader
  3
SLDDIMSTYLE3
 76
     2
 10
7.9097074795
 20
3.9314512656
 30
0.0
 10
8.8407350865
 20
3.9988387454
 30
0.0
  0
INSERT
  5
459
102
{ACAD_REACTORS
330
45A
102
}
330
1F
100
AcDbEntity
  8
0
  6
Continuous
 62
     7
370
     0
100
AcDbBlockReference
  2
SW_NOTE_10
 10
6.1076934449
 20
3.9273606469
 30
0.0
  0
LEADER
  5
45A
330
1F
100
AcDbEntity
  8
0
  6
Continuous
 62
     7
370
     0
100
AcDbLeader
  3
SLDDIMSTYLE3
 73
     2
 76
     2
 10
6.9283895706
 20
3.9366610264
 30
0.0
 10
6.1076934449
 20
3.9273606469
 30
0.0
340
459
  0
HATCH
  5
45B
330
1F
100
AcDbEntity
  8
0
  6
Continuous
 62
     7
370
     0
100
AcDbHatch
 10
0.0
 20
0.0
 30
0.0
210
0.0
220
0.0
230
1.0
  2
ANSI35
 70
     0
 71
     0
 91
        1
 92
        0
 93
        4
 72
     1
 10
7.189573125688604
 20
4.881451265609384
 11
7.154073941359386
 21
4.881451265609383
 72
     2
 10
8.882825754710758
 20
4.381451265609383
 40
1.799606299212595
 50
163.8687552727385
 51
196.1312447272623
 73
     1
 72
     1
 10
7.154073941359386
 20
3.881451265609383
 11
7.189573125688604
 21
3.881451265609382
 72
     2
 10
4.770227329513915
 20
4.381451265609383
 40
2.470472440944878
 50
348.3232197245635
 51
371.6767802754381
 73
     1
 97
        0
 75
     0
 76
     1
 52
0.0
 41
1.0
 77
     0
 78
     2
 53
45.0
 43
0.0
 44
0.0
 45
-0.1767766952966369
 46
0.1767766952966369
 79
     0
 53
45.0
 43
0.176776695
 44
0.0
 45
-0.1767766952966369
 46
0.1767766952966369
 79
     4
 49
0.3125
 49
-0.0625
 49
0.0
 49
-0.0625
 98
        1
 10
0.0
 20
0.0
  0
HATCH
  5
45C
330
1F
100
AcDbEntity
  8
0
  6
Continuous
 62
     7
370
     0
100
AcDbHatch
 10
0.0
 20
0.0
 30
0.0
210
0.0
220
0.0
230
1.0
  2
ANSI35
 70
     0
 71
     0
 91
        1
 92
        0
 93
        4
 72
     1
 10
7.584566905739687
 20
4.881451265609383
 11
7.485655702777899
 21
4.881451265609383
 72
     2
 10
8.699292644300883
 20
4.381451265609383
 40
1.312598425196854
 50
157.6090823589619
 51
202.3909176410389
 73
     1
 72
     1
 10
7.485655702777899
 20
3.881451265609383
 11
7.584566905739687
 21
3.881451265609383
 72
     2
 10
6.863859573434738
 20
4.381451265609383
 40
0.8771653543307086
 50
325.2485222972108
 51
394.7514777027908
 73
     1
 97
        0
 75
     0
 76
     1
 52
0.0
 41
1.0
 77
     0
 78
     2
 53
45.0
 43
0.0
 44
0.0
 45
-0.1767766952966369
 46
0.1767766952966369
 79
     0
 53
45.0
 43
0.176776695
 44
0.0
 45
-0.1767766952966369
 46
0.1767766952966369
 79
     4
 49
0.3125
 49
-0.0625
 49
0.0
 49
-0.0625
 98
        1
 10
0.0
 20
0.0
  0
HATCH
  5
45D
330
1F
100
AcDbEntity
  8
0
  6
Continuous
 62
     7
370
     0
100
AcDbHatch
 10
0.0
 20
0.0
 30
0.0
210
0.0
220
0.0
230
1.0
  2
ANSI35
 70
     0
 71
     0
 91
        1
 92
        0
 93
        4
 72
     1
 10
7.828536899100199
 20
4.881451265609378
 11
7.584566905739687
 21
4.881451265609383
 72
     2
 10
6.863859573434738
 20
4.381451265609383
 40
0.8771653543307086
 50
325.2485222972108
 51
394.7514777027908
 73
     0
 72
     1
 10
7.584566905739687
 20
3.881451265609383
 11
7.828536899100199
 21
3.881451265609387
 72
     2
 10
-3.619998694281877
 20
4.381451265609383
 40
11.45944881889772
 50
357.4992700087739
 51
362.5007299912277
 73
     1
 97
        0
 75
     0
 76
     1
 52
0.0
 41
1.0
 77
     0
 78
     2
 53
45.0
 43
0.0
 44
0.0
 45
-0.1767766952966369
 46
0.1767766952966369
 79
     0
 53
45.0
 43
0.176776695
 44
0.0
 45
-0.1767766952966369
 46
0.1767766952966369
 79
     4
 49
0.3125
 49
-0.0625
 49
0.0
 49
-0.0625
 98
        1
 10
0.0
 20
0.0
  0
HATCH
  5
45E
330
1F
100
AcDbEntity
  8
0
  6
Continuous
 62
     7
370
     0
100
AcDbHatch
 10
0.0
 20
0.0
 30
0.0
210
0.0
220
0.0
230
1.0
  2
ANSI31
 70
     0
 71
     0
 91
        1
 92
        0
 93
        6
 72
     1
 10
7.847027987596291
 20
4.898951265609384
 11
7.829707479520602
 21
4.888951265609383
 72
     1
 10
7.829707479520602
 20
4.888951265609383
 11
7.829707479520602
 21
4.831451265609383
 72
     1
 10
7.829707479520602
 20
4.831451265609383
 11
7.909707479520602
 21
4.831451265609383
 72
     1
 10
7.909707479520602
 20
4.831451265609383
 11
7.909707479520602
 21
4.881630757533695
 72
     1
 10
7.909707479520602
 20
4.881630757533695
 11
7.899707479520598
 21
4.898951265609393
 72
     1
 10
7.899707479520598
 20
4.898951265609393
 11
7.847027987596291
 21
4.898951265609384
 97
        0
 75
     0
 76
     1
 52
0.0
 41
1.0
 77
     0
 78
     1
 53
45.0
 43
0.0
 44
0.0
 45
-0.0883883476483184
 46
0.0883883476483184
 79
     0
 98
        1
 10
0.0
 20
0.0
  0
HATCH
  5
45F
330
1F
100
AcDbEntity
  8
0
  6
Continuous
 62
     7
370
     0
100
AcDbHatch
 10
0.0
 20
0.0
 30
0.0
210
0.0
220
0.0
230
1.0
  2
ANSI31
 70
     0
 71
     0
 91
        1
 92
        0
 93
        6
 72
     1
 10
7.909707479520602
 20
3.881271773685071
 11
7.909707479520602
 21
3.931451265609383
 72
     1
 10
7.909707479520602
 20
3.931451265609383
 11
7.829707479520602
 21
3.931451265609383
 72
     1
 10
7.829707479520602
 20
3.931451265609383
 11
7.829707479520602
 21
3.873951265609382
 72
     1
 10
7.829707479520602
 20
3.873951265609382
 11
7.847027987596291
 21
3.863951265609382
 72
     1
 10
7.847027987596291
 20
3.863951265609382
 11
7.899707479520603
 21
3.863951265609382
 72
     1
 10
7.899707479520603
 20
3.863951265609382
 11
7.909707479520602
 21
3.881271773685071
 97
        0
 75
     0
 76
     1
 52
0.0
 41
1.0
 77
     0
 78
     1
 53
45.0
 43
0.0
 44
0.0
 45
-0.0883883476483184
 46
0.0883883476483184
 79
     0
 98
        1
 10
0.0
 20
0.0
  0
HATCH
  5
460
330
1F
100
AcDbEntity
  8
0
  6
Continuous
 62
     7
370
     0
100
AcDbHatch
 10
0.0
 20
0.0
 30
0.0
210
0.0
220
0.0
230
1.0
  2
ANSI31
 70
     0
 71
     0
 91
        1
 92
        0
 93
        6
 72
     1
 10
6.925489225083192
 20
4.831451265609383
 11
7.005489225083192
 21
4.831451265609383
 72
     1
 10
7.005489225083192
 20
4.831451265609383
 11
7.005489225083192
 21
4.888951265609383
 72
     1
 10
7.005489225083192
 20
4.888951265609383
 11
6.988168717007503
 21
4.898951265609383
 72
     1
 10
6.988168717007503
 20
4.898951265609383
 11
6.935489225083192
 21
4.898951265609383
 72
     1
 10
6.935489225083192
 20
4.898951265609383
 11
6.925489225083192
 21
4.881630757533694
 72
     1
 10
6.925489225083192
 20
4.881630757533694
 11
6.925489225083192
 21
4.831451265609383
 97
        0
 75
     0
 76
     1
 52
0.0
 41
1.0
 77
     0
 78
     1
 53
45.0
 43
0.0
 44
0.0
 45
-0.0883883476483184
 46
0.0883883476483184
 79
     0
 98
        1
 10
0.0
 20
0.0
  0
HATCH
  5
461
330
1F
100
AcDbEntity
  8
0
  6
Continuous
 62
     7
370
     0
100
AcDbHatch
 10
0.0
 20
0.0
 30
0.0
210
0.0
220
0.0
230
1.0
  2
ANSI31
 70
     0
 71
     0
 91
        1
 92
        0
 93
        6
 72
     1
 10
6.925489225083192
 20
3.931451265609383
 11
6.925489225083192
 21
3.881271773685072
 72
     1
 10
6.925489225083192
 20
3.881271773685072
 11
6.935489225083191
 21
3.863951265609383
 72
     1
 10
6.935489225083191
 20
3.863951265609383
 11
6.988168717007503
 21
3.863951265609383
 72
     1
 10
6.988168717007503
 20
3.863951265609383
 11
7.005489225083192
 21
3.873951265609382
 72
     1
 10
7.005489225083192
 20
3.873951265609382
 11
7.005489225083192
 21
3.931451265609383
 72
     1
 10
7.005489225083192
 20
3.931451265609383
 11
6.925489225083192
 21
3.931451265609383
 97
        0
 75
     0
 76
     1
 52
0.0
 41
1.0
 77
     0
 78
     1
 53
45.0
 43
0.0
 44
0.0
 45
-0.0883883476483184
 46
0.0883883476483184
 79
     0
 98
        1
 10
0.0
 20
0.0
  0
HATCH
  5
462
330
1F
100
AcDbEntity
  8
0
  6
Continuous
 62
     7
370
     0
100
AcDbHatch
 10
0.0
 20
0.0
 30
0.0
210
0.0
220
0.0
230
1.0
  2
ANSI31
 70
     0
 71
     0
 91
        1
 92
        0
 93
       26
 72
     1
 10
7.488389570552152
 20
4.885451265609382
 11
7.756234870013773
 21
4.885451265609382
 72
     1
 10
7.756234870013773
 20
4.885451265609382
 11
7.757389570552152
 21
4.887451265609382
 72
     1
 10
7.757389570552152
 20
4.887451265609382
 11
8.041069062476463
 21
4.887451265609382
 72
     1
 10
8.041069062476463
 20
4.887451265609382
 11
8.058389570552151
 21
4.897451265609383
 72
     1
 10
8.058389570552151
 20
4.897451265609383
 11
8.058389570552151
 21
4.971451265609383
 72
     1
 10
8.058389570552151
 20
4.971451265609383
 11
8.048389570552153
 21
4.981451265609383
 72
     1
 10
8.048389570552153
 20
4.981451265609383
 11
7.978389570552152
 21
4.981451265609383
 72
     1
 10
7.978389570552152
 20
4.981451265609383
 11
7.920207752370334
 21
4.981451265609383
 72
     1
 10
7.920207752370334
 20
4.981451265609383
 11
6.928921757415614
 21
4.981451265609383
 72
     1
 10
6.928921757415614
 20
4.981451265609383
 11
6.910086844824858
 21
4.981451265609383
 72
     1
 10
6.910086844824858
 20
4.981451265609383
 11
6.86677236309305
 21
4.981451265609383
 72
     1
 10
6.86677236309305
 20
4.981451265609383
 11
6.847776469300597
 21
4.981451265609383
 72
     1
 10
6.847776469300597
 20
4.981451265609383
 11
6.783389570552152
 21
4.981451265609383
 72
     1
 10
6.783389570552152
 20
4.981451265609383
 11
6.773389570552153
 21
4.971451265609383
 72
     1
 10
6.773389570552153
 20
4.971451265609383
 11
6.773389570552153
 21
4.897451265609383
 72
     1
 10
6.773389570552153
 20
4.897451265609383
 11
6.790710078627841
 21
4.887451265609382
 72
     1
 10
6.790710078627841
 20
4.887451265609382
 11
7.074389570552151
 21
4.887451265609382
 72
     1
 10
7.074389570552151
 20
4.887451265609382
 11
7.075544271090531
 21
4.885451265609383
 72
     1
 10
7.075544271090531
 20
4.885451265609383
 11
7.178389570552152
 21
4.885451265609382
 72
     1
 10
7.178389570552152
 20
4.885451265609382
 11
7.178389570552152
 21
4.906451265609384
 72
     1
 10
7.178389570552152
 20
4.906451265609384
 11
7.198389570552153
 21
4.906451265609383
 72
     1
 10
7.198389570552153
 20
4.906451265609383
 11
7.198389570552153
 21
4.832451265609383
 72
     1
 10
7.198389570552153
 20
4.832451265609383
 11
7.468389570552151
 21
4.832451265609383
 72
     1
 10
7.468389570552151
 20
4.832451265609383
 11
7.468389570552151
 21
4.906451265609384
 72
     1
 10
7.468389570552151
 20
4.906451265609384
 11
7.488389570552152
 21
4.906451265609383
 72
     1
 10
7.488389570552152
 20
4.906451265609383
 11
7.488389570552152
 21
4.885451265609382
 97
        0
 75
     0
 76
     1
 52
0.0
 41
1.0
 77
     0
 78
     1
 53
45.0
 43
0.0
 44
0.0
 45
-0.0883883476483184
 46
0.0883883476483184
 79
     0
 98
        1
 10
0.0
 20
0.0
  0
HATCH
  5
463
330
1F
100
AcDbEntity
  8
0
  6
Continuous
 62
     7
370
     0
100
AcDbHatch
 10
0.0
 20
0.0
 30
0.0
210
0.0
220
0.0
230
1.0
  2
ANSI31
 70
     0
 71
     0
 91
        1
 92
        0
 93
       26
 72
     1
 10
8.041069062476463
 20
3.875451265609383
 11
7.757389570552152
 21
3.875451265609383
 72
     1
 10
7.757389570552152
 20
3.875451265609383
 11
7.756234870013773
 21
3.877451265609382
 72
     1
 10
7.756234870013773
 20
3.877451265609382
 11
7.488389570552152
 21
3.877451265609382
 72
     1
 10
7.488389570552152
 20
3.877451265609382
 11
7.488389570552152
 21
3.856451265609382
 72
     1
 10
7.488389570552152
 20
3.856451265609382
 11
7.468389570552151
 21
3.856451265609381
 72
     1
 10
7.468389570552151
 20
3.856451265609381
 11
7.468389570552151
 21
3.930451265609383
 72
     1
 10
7.468389570552151
 20
3.930451265609383
 11
7.198389570552153
 21
3.930451265609383
 72
     1
 10
7.198389570552153
 20
3.930451265609383
 11
7.198389570552153
 21
3.856451265609382
 72
     1
 10
7.198389570552153
 20
3.856451265609382
 11
7.178389570552152
 21
3.856451265609381
 72
     1
 10
7.178389570552152
 20
3.856451265609381
 11
7.178389570552152
 21
3.877451265609382
 72
     1
 10
7.178389570552152
 20
3.877451265609382
 11
7.075544271090531
 21
3.877451265609382
 72
     1
 10
7.075544271090531
 20
3.877451265609382
 11
7.074389570552151
 21
3.875451265609383
 72
     1
 10
7.074389570552151
 20
3.875451265609383
 11
6.790710078627841
 21
3.875451265609383
 72
     1
 10
6.790710078627841
 20
3.875451265609383
 11
6.773389570552153
 21
3.865451265609383
 72
     1
 10
6.773389570552153
 20
3.865451265609383
 11
6.773389570552153
 21
3.791451265609382
 72
     1
 10
6.773389570552153
 20
3.791451265609382
 11
6.783389570552152
 21
3.781451265609383
 72
     1
 10
6.783389570552152
 20
3.781451265609383
 11
6.848064895227477
 21
3.781451265609383
 72
     1
 10
6.848064895227477
 20
3.781451265609383
 11
6.864347362759944
 21
3.781451265609383
 72
     1
 10
6.864347362759944
 20
3.781451265609383
 11
6.879574635487217
 21
3.781451265609383
 72
     1
 10
6.879574635487217
 20
3.781451265609383
 11
6.894850609513191
 21
3.781451265609383
 72
     1
 10
6.894850609513191
 20
3.781451265609383
 11
6.911133077045659
 21
3.781451265609383
 72
     1
 10
6.911133077045659
 20
3.781451265609383
 11
6.928389570552151
 21
3.781451265609383
 72
     1
 10
6.928389570552151
 20
3.781451265609383
 11
8.048389570552153
 21
3.781451265609383
 72
     1
 10
8.048389570552153
 20
3.781451265609383
 11
8.058389570552151
 21
3.791451265609382
 72
     1
 10
8.058389570552151
 20
3.791451265609382
 11
8.058389570552151
 21
3.865451265609383
 72
     1
 10
8.058389570552151
 20
3.865451265609383
 11
8.041069062476463
 21
3.875451265609383
 97
        0
 75
     0
 76
     1
 52
0.0
 41
1.0
 77
     0
 78
     1
 53
45.0
 43
0.0
 44
0.0
 45
-0.0883883476483184
 46
0.0883883476483184
 79
     0
 98
        1
 10
0.0
 20
0.0
  0
HATCH
  5
464
330
1F
100
AcDbEntity
  8
0
  6
Continuous
 62
     7
370
     0
100
AcDbHatch
 10
0.0
 20
0.0
 30
0.0
210
0.0
220
0.0
230
1.0
  2
ANSI35
 70
     0
 71
     0
 91
        1
 92
        0
 93
        4
 72
     1
 10
7.154073941359386
 20
4.881451265609384
 11
7.0096154734755
 21
4.881451265609383
 72
     2
 10
12.03321945549812
 20
4.381451265609383
 40
5.048425196850355
 50
174.316062637307
 51
185.6839373626938
 73
     1
 72
     1
 10
7.0096154734755
 20
3.881451265609383
 11
7.154073941359386
 21
3.881451265609382
 72
     2
 10
8.882825754710758
 20
4.381451265609383
 40
1.799606299212595
 50
163.8687552727385
 51
196.1312447272624
 73
     0
 97
        0
 75
     0
 76
     1
 52
0.0
 41
1.0
 77
     0
 78
     2
 53
45.0
 43
0.0
 44
0.0
 45
-0.1767766952966369
 46
0.1767766952966369
 79
     0
 53
45.0
 43
0.176776695
 44
0.0
 45
-0.1767766952966369
 46
0.1767766952966369
 79
     4
 49
0.3125
 49
-0.0625
 49
0.0
 49
-0.0625
 98
        1
 10
0.0
 20
0.0
  0
ENDSEC
  0
SECTION
  2
OBJECTS
  0
DICTIONARY
  5
C
330
0
100
AcDbDictionary
281
     1
  3
ACAD_GROUP
350
D
  3
ACAD_LAYOUT
350
1A
  3
ACAD_MLINESTYLE
350
17
  3
ACAD_PLOTSETTINGS
350
19
  3
ACAD_PLOTSTYLENAME
350
E
  0
DICTIONARY
  5
D
102
{ACAD_REACTORS
330
C
102
}
330
C
100
AcDbDictionary
281
     1
  0
DICTIONARY
  5
1A
102
{ACAD_REACTORS
330
C
102
}
330
C
100
AcDbDictionary
281
     1
  3
Layout1
350
1E
  3
Layout2
350
26
  3
Model
350
22
  0
DICTIONARY
  5
17
102
{ACAD_REACTORS
330
C
102
}
330
C
100
AcDbDictionary
281
     1
  3
Standard
350
18
  0
DICTIONARY
  5
19
102
{ACAD_REACTORS
330
C
102
}
330
C
100
AcDbDictionary
281
     1
  0
ACDBDICTIONARYWDFLT
  5
E
102
{ACAD_REACTORS
330
C
102
}
330
C
100
AcDbDictionary
281
     1
  3
Normal
350
F
100
AcDbDictionaryWithDefault
340
F
  0
LAYOUT
  5
1E
102
{ACAD_REACTORS
330
1A
102
}
330
1A
100
AcDbPlotSettings
  1

  2
none_device
  4

  6

 40
0.0
 41
0.0
 42
0.0
 43
0.0
 44
0.0
 45
0.0
 46
0.0
 47
0.0
 48
0.0
 49
0.0
140
0.0
141
0.0
142
1.0
143
1.0
 70
   688
 72
     0
 73
     0
 74
     5
  7

 75
    16
147
1.0
148
0.0
149
0.0
100
AcDbLayout
  1
Layout1
 70
     1
 71
     1
 10
0.0
 20
0.0
 11
12.0
 21
9.0
 12
0.0
 22
0.0
 32
0.0
 14
1.0000000000E+20
 24
1.0000000000E+20
 34
1.0000000000E+20
 15
-1.0000000000E+20
 25
-1.0000000000E+20
 35
-1.0000000000E+20
146
0.0
 13
0.0
 23
0.0
 33
0.0
 16
1.0
 26
0.0
 36
0.0
 17
0.0
 27
1.0
 37
0.0
 76
     0
330
1B
  0
LAYOUT
  5
26
102
{ACAD_REACTORS
330
1A
102
}
330
1A
100
AcDbPlotSettings
  1

  2
none_device
  4

  6

 40
0.0
 41
0.0
 42
0.0
 43
0.0
 44
0.0
 45
0.0
 46
0.0
 47
0.0
 48
0.0
 49
0.0
140
0.0
141
0.0
142
1.0
143
1.0
 70
   688
 72
     0
 73
     0
 74
     5
  7

 75
    16
147
1.0
148
0.0
149
0.0
100
AcDbLayout
  1
Layout2
 70
     1
 71
     2
 10
0.0
 20
0.0
 11
0.0
 21
0.0
 12
0.0
 22
0.0
 32
0.0
 14
0.0
 24
0.0
 34
0.0
 15
0.0
 25
0.0
 35
0.0
146
0.0
 13
0.0
 23
0.0
 33
0.0
 16
1.0
 26
0.0
 36
0.0
 17
0.0
 27
1.0
 37
0.0
 76
     0
330
23
  0
LAYOUT
  5
22
102
{ACAD_REACTORS
330
1A
102
}
330
1A
100
AcDbPlotSettings
  1

  2
none_device
  4

  6

 40
0.0
 41
0.0
 42
0.0
 43
0.0
 44
0.0
 45
0.0
 46
0.0
 47
0.0
 48
0.0
 49
0.0
140
0.0
141
0.0
142
1.0
143
1.0
 70
  1712
 72
     0
 73
     0
 74
     0
  7

 75
     0
147
1.0
148
0.0
149
0.0
100
AcDbLayout
  1
Model
 70
     1
 71
     0
 10
0.0
 20
0.0
 11
0.0
 21
0.0
 12
0.0
 22
0.0
 32
0.0
 14
0.0
 24
0.0
 34
0.0
 15
11.0
 25
8.5
 35
0.0
146
0.0
 13
0.0
 23
0.0
 33
0.0
 16
1.0
 26
0.0
 36
0.0
 17
0.0
 27
1.0
 37
0.0
 76
     0
330
1F
  0
MLINESTYLE
  5
18
102
{ACAD_REACTORS
330
17
102
}
330
17
100
AcDbMlineStyle
  2
Standard
 70
     0
  3

 62
   256
 51
90.0
 52
90.0
 71
     2
 49
0.5
 62
   256
  6
BYLAYER
 49
-0.5
 62
   256
  6
BYLAYER
  0
ACDBPLACEHOLDER
  5
F
102
{ACAD_REACTORS
330
E
102
}
330
E
  0
ENDSEC
  0
EOF
