  0
SECTION
  2
HEADER
  9
$ACADVER
  1
AC1015
  9
$ACADMAINTVER
 70
     6
  9
$DWGCODEPAGE
  3
ANSI_1252
  9
$INSBASE
 10
0.0
 20
0.0
 30
0.0
  9
$EXTMIN
 10
0.0
 20
0.0
 30
0.0
  9
$EXTMAX
 10
279.4
 20
215.9
 30
0.0
  9
$LIMMIN
 10
0.0
 20
0.0
  9
$LIMMAX
 10
279.4
 20
215.9
  9
$ORTHOMODE
 70
     0
  9
$REGENMODE
 70
     1
  9
$FILLMODE
 70
     1
  9
$QTEXTMODE
 70
     0
  9
$MIRRTEXT
 70
     1
  9
$LTSCALE
 40
1.0
  9
$ATTMODE
 70
     1
  9
$TEXTSIZE
 40
2.8222222222
  9
$TRACEWID
 40
1.0
  9
$TEXTSTYLE
  7
Standard
  9
$CLAYER
  8
0
  9
$CELTYPE
  6
ByLayer
  9
$CECOLOR
 62
   256
  9
$CELTSCALE
 40
1.0
  9
$DISPSILH
 70
     0
  9
$DIMSCALE
 40
1.0
  9
$DIMASZ
 40
3.175
  9
$DIMEXO
 40
1.27
  9
$DIMDLI
 40
3.75
  9
$DIMRND
 40
0.0
  9
$DIMDLE
 40
0.0
  9
$DIMEXE
 40
1.778
  9
$DIMTP
 40
0.0
  9
$DIMTM
 40
0.0
  9
$DIMTXT
 40
2.8222222222
  9
$DIMCEN
 40
2.5
  9
$DIMTSZ
 40
0.0
  9
$DIMTOL
 70
     0
  9
$DIMLIM
 70
     0
  9
$DIMTIH
 70
     1
  9
$DIMTOH
 70
     1
  9
$DIMSE1
 70
     0
  9
$DIMSE2
 70
     0
  9
$DIMTAD
 70
     1
  9
$DIMZIN
 70
     1
  9
$DIMBLK
  1

  9
$DIMASO
 70
     1
  9
$DIMSHO
 70
     1
  9
$DIMPOST
  1

  9
$DIMAPOST
  1

  9
$DIMALT
 70
     0
  9
$DIMALTD
 70
     3
  9
$DIMALTF
 40
0.0393700787
  9
$DIMLFAC
 40
1.0
  9
$DIMTOFL
 70
     1
  9
$DIMTVP
 40
0.0
  9
$DIMTIX
 70
     0
  9
$DIMSOXD
 70
     0
  9
$DIMSAH
 70
     0
  9
$DIMBLK1
  1

  9
$DIMBLK2
  1

  9
$DIMSTYLE
  2
ISO-25
  9
$DIMCLRD
 70
     0
  9
$DIMCLRE
 70
     0
  9
$DIMCLRT
 70
     0
  9
$DIMTFAC
 40
1.0
  9
$DIMGAP
 40
2.54
  9
$DIMJUST
 70
     0
  9
$DIMSD1
 70
     0
  9
$DIMSD2
 70
     0
  9
$DIMTOLJ
 70
     0
  9
$DIMTZIN
 70
     1
  9
$DIMALTZ
 70
     0
  9
$DIMALTTZ
 70
     0
  9
$DIMUPT
 70
     0
  9
$DIMDEC
 70
     1
  9
$DIMTDEC
 70
     1
  9
$DIMALTU
 70
     2
  9
$DIMALTTD
 70
     3
  9
$DIMTXSTY
  7
Standard
  9
$DIMAUNIT
 70
     0
  9
$DIMADEC
 70
     0
  9
$DIMALTRND
 40
0.0
  9
$DIMAZIN
 70
     0
  9
$DIMDSEP
 70
    44
  9
$DIMATFIT
 70
     3
  9
$DIMFRAC
 70
     0
  9
$DIMLDRBLK
  1

  9
$DIMLUNIT
 70
     2
  9
$DIMLWD
 70
    -2
  9
$DIMLWE
 70
    -2
  9
$DIMTMOVE
 70
     0
  9
$LUNITS
 70
     2
  9
$LUPREC
 70
     1
  9
$SKETCHINC
 40
1.0
  9
$FILLETRAD
 40
10.0
  9
$AUNITS
 70
     0
  9
$AUPREC
 70
     0
  9
$MENU
  1
.
  9
$ELEVATION
 40
0.0
  9
$PELEVATION
 40
0.0
  9
$THICKNESS
 40
0.0
  9
$LIMCHECK
 70
     0
  9
$CHAMFERA
 40
10.0
  9
$CHAMFERB
 40
10.0
  9
$CHAMFERC
 40
20.0
  9
$CHAMFERD
 40
0.0
  9
$SKPOLY
 70
     0
  9
$TDCREATE
 40
2455665.495484514
  9
$TDUCREATE
 40
2455665.662151181
  9
$TDUPDATE
 40
2455665.495484525
  9
$TDUUPDATE
 40
2455665.662151192
  9
$TDINDWG
 40
0.0000000116
  9
$TDUSRTIMER
 40
0.0000000116
  9
$USRTIMER
 70
     1
  9
$ANGBASE
 50
0.0
  9
$ANGDIR
 70
     0
  9
$PDMODE
 70
     0
  9
$PDSIZE
 40
-1.0
  9
$PLINEWID
 40
0.0
  9
$SPLFRAME
 70
     0
  9
$SPLINETYPE
 70
     6
  9
$SPLINESEGS
 70
     8
  9
$HANDSEED
  5
21D
  9
$SURFTAB1
 70
     6
  9
$SURFTAB2
 70
     6
  9
$SURFTYPE
 70
     6
  9
$SURFU
 70
     6
  9
$SURFV
 70
     6
  9
$UCSBASE
  2

  9
$UCSNAME
  2

  9
$UCSORG
 10
0.0
 20
0.0
 30
0.0
  9
$UCSXDIR
 10
1.0
 20
0.0
 30
0.0
  9
$UCSYDIR
 10
0.0
 20
1.0
 30
0.0
  9
$UCSORTHOREF
  2

  9
$UCSORTHOVIEW
 70
     0
  9
$UCSORGTOP
 10
0.0
 20
0.0
 30
0.0
  9
$UCSORGBOTTOM
 10
0.0
 20
0.0
 30
0.0
  9
$UCSORGLEFT
 10
0.0
 20
0.0
 30
0.0
  9
$UCSORGRIGHT
 10
0.0
 20
0.0
 30
0.0
  9
$UCSORGFRONT
 10
0.0
 20
0.0
 30
0.0
  9
$UCSORGBACK
 10
0.0
 20
0.0
 30
0.0
  9
$PUCSBASE
  2

  9
$PUCSNAME
  2

  9
$PUCSORG
 10
0.0
 20
0.0
 30
0.0
  9
$PUCSXDIR
 10
1.0
 20
0.0
 30
0.0
  9
$PUCSYDIR
 10
0.0
 20
1.0
 30
0.0
  9
$PUCSORTHOREF
  2

  9
$PUCSORTHOVIEW
 70
     0
  9
$PUCSORGTOP
 10
0.0
 20
0.0
 30
0.0
  9
$PUCSORGBOTTOM
 10
0.0
 20
0.0
 30
0.0
  9
$PUCSORGLEFT
 10
0.0
 20
0.0
 30
0.0
  9
$PUCSORGRIGHT
 10
0.0
 20
0.0
 30
0.0
  9
$PUCSORGFRONT
 10
0.0
 20
0.0
 30
0.0
  9
$PUCSORGBACK
 10
0.0
 20
0.0
 30
0.0
  9
$USERI1
 70
     0
  9
$USERI2
 70
     0
  9
$USERI3
 70
     0
  9
$USERI4
 70
     0
  9
$USERI5
 70
     0
  9
$USERR1
 40
0.0
  9
$USERR2
 40
0.0
  9
$USERR3
 40
0.0
  9
$USERR4
 40
0.0
  9
$USERR5
 40
0.0
  9
$WORLDVIEW
 70
     1
  9
$SHADEDGE
 70
     3
  9
$SHADEDIF
 70
    70
  9
$TILEMODE
 70
     1
  9
$MAXACTVP
 70
    64
  9
$PINSBASE
 10
0.0
 20
0.0
 30
0.0
  9
$PLIMCHECK
 70
     0
  9
$PEXTMIN
 10
1.0000000000E+20
 20
1.0000000000E+20
 30
1.0000000000E+20
  9
$PEXTMAX
 10
-1.0000000000E+20
 20
-1.0000000000E+20
 30
-1.0000000000E+20
  9
$PLIMMIN
 10
0.0
 20
0.0
  9
$PLIMMAX
 10
420.0
 20
297.0
  9
$UNITMODE
 70
     0
  9
$VISRETAIN
 70
     1
  9
$PLINEGEN
 70
     0
  9
$PSLTSCALE
 70
     1
  9
$TREEDEPTH
 70
  3020
  9
$CMLSTYLE
  2
Standard
  9
$CMLJUST
 70
     0
  9
$CMLSCALE
 40
20.0
  9
$PROXYGRAPHICS
 70
     1
  9
$MEASUREMENT
 70
     1
  9
$CELWEIGHT
370
    -1
  9
$ENDCAPS
280
     0
  9
$JOINSTYLE
280
     0
  9
$LWDISPLAY
290
     1
  9
$INSUNITS
 70
     4
  9
$HYPERLINKBASE
  1

  9
$STYLESHEET
  1

  9
$XEDIT
290
     1
  9
$CEPSNTYPE
380
     0
  9
$PSTYLEMODE
290
     1
  9
$FINGERPRINTGUID
  2
{15E7C6A0-53A4-4197-B2E4-387668B1994C}
  9
$VERSIONGUID
  2
{FAEB1C32-E019-11D5-929B-00C0DF256EC4}
  9
$EXTNAMES
290
     1
  9
$PSVPSCALE
 40
0.0
  9
$OLESTARTUP
290
     0
  0
ENDSEC
  0
SECTION
  2
CLASSES
  0
CLASS
  1
ACDBDICTIONARYWDFLT
  2
AcDbDictionaryWithDefault
  3
ObjectDBX Classes
 90
        0
280
     0
281
     0
  0
CLASS
  1
VISUALSTYLE
  2
AcDbVisualStyle
  3
ObjectDBX Classes
 90
     4095
280
     0
281
     0
  0
CLASS
  1
MATERIAL
  2
AcDbMaterial
  3
ObjectDBX Classes
 90
     1153
280
     0
281
     0
  0
CLASS
  1
ACDBPLACEHOLDER
  2
AcDbPlaceHolder
  3
ObjectDBX Classes
 90
        0
280
     0
281
     0
  0
CLASS
  1
LAYOUT
  2
AcDbLayout
  3
ObjectDBX Classes
 90
        0
280
     0
281
     0
  0
ENDSEC
  0
SECTION
  2
TABLES
  0
TABLE
  2
VPORT
  5
8
330
0
100
AcDbSymbolTable
 70
     1
  0
VPORT
  5
29
330
8
100
AcDbSymbolTableRecord
100
AcDbViewportTableRecord
  2
*Active
 70
     0
 10
0.0
 20
0.0
 11
1.0
 21
1.0
 12
139.7
 22
107.95
 13
0.0
 23
0.0
 14
10.0
 24
10.0
 15
10.0
 25
10.0
 16
0.0
 26
0.0
 36
1.0
 17
0.0
 27
0.0
 37
0.0
 40
215.9
 41
1.2941176471
 42
50.0
 43
0.0
 44
0.0
 50
0.0
 51
0.0
 71
     0
 72
  2000
 73
     1
 74
     3
 75
     0
 76
     0
 77
     0
 78
     0
281
     0
 65
     1
110
0.0
120
0.0
130
0.0
111
1.0
121
0.0
131
0.0
112
0.0
122
1.0
132
0.0
 79
     0
146
0.0
  0
ENDTAB
  0
TABLE
  2
LTYPE
  5
5
330
0
100
AcDbSymbolTable
 70
     6
  0
LTYPE
  5
14
330
5
100
AcDbSymbolTableRecord
100
AcDbLinetypeTableRecord
  2
ByBlock
 70
     0
  3

 72
    65
 73
     0
 40
0.0
  0
LTYPE
  5
15
330
5
100
AcDbSymbolTableRecord
100
AcDbLinetypeTableRecord
  2
ByLayer
 70
     0
  3

 72
    65
 73
     0
 40
0.0
  0
LTYPE
  5
16
330
5
100
AcDbSymbolTableRecord
100
AcDbLinetypeTableRecord
  2
Continuous
 70
     0
  3
Solid line
 72
    65
 73
     0
 40
0.0
  0
LTYPE
  5
3F
330
5
100
AcDbSymbolTableRecord
100
AcDbLinetypeTableRecord
  2
HIDDEN
 70
     0
  3
Hidden __ __ __ __ __ __ __ __ __ __ __ __ __ __
 72
    65
 73
     2
 40
1.905
 49
1.27
 74
     0
 49
-0.635
 74
     0
  0
LTYPE
  5
40
330
5
100
AcDbSymbolTableRecord
100
AcDbLinetypeTableRecord
  2
PHANTOM
 70
     0
  3
Phantom ______  __  __  ______  __  __  ______
 72
    65
 73
     6
 40
12.7
 49
6.35
 74
     0
 49
-1.27
 74
     0
 49
1.27
 74
     0
 49
-1.27
 74
     0
 49
1.27
 74
     0
 49
-1.27
 74
     0
  0
LTYPE
  5
41
330
5
100
AcDbSymbolTableRecord
100
AcDbLinetypeTableRecord
  2
CENTER
 70
     0
  3
Center ____ _ ____ _ ____ _ ____ _ ____ _ ____
 72
    65
 73
     4
 40
10.16
 49
6.35
 74
     0
 49
-1.27
 74
     0
 49
1.27
 74
     0
 49
-1.27
 74
     0
  0
LTYPE
  5
42
330
5
100
AcDbSymbolTableRecord
100
AcDbLinetypeTableRecord
  2
CENTERX2
 70
     0
  3
Center (2x) ________  __  ________  __  _____
 72
    65
 73
     4
 40
20.32
 49
12.7
 74
     0
 49
-2.54
 74
     0
 49
2.54
 74
     0
 49
-2.54
 74
     0
  0
LTYPE
  5
43
330
5
100
AcDbSymbolTableRecord
100
AcDbLinetypeTableRecord
  2
DOT2
 70
     0
  3
Dot (.5x) ........................................
 72
    65
 73
     2
 40
0.635
 49
0.0
 74
     0
 49
-0.635
 74
     0
  0
ENDTAB
  0
TABLE
  2
LAYER
  5
2
330
0
100
AcDbSymbolTable
 70
     2
  0
LAYER
  5
10
330
2
100
AcDbSymbolTableRecord
100
AcDbLayerTableRecord
  2
0
 70
     0
 62
     7
  6
Continuous
370
    -3
390
F
  0
LAYER
  5
44
330
2
100
AcDbSymbolTableRecord
100
AcDbLayerTableRecord
  2
FORMAT
 70
     0
 62
     7
  6
Continuous
370
    -3
390
F
  0
ENDTAB
  0
TABLE
  2
STYLE
  5
3
330
0
100
AcDbSymbolTable
 70
     5
  0
STYLE
  5
11
330
3
100
AcDbSymbolTableRecord
100
AcDbTextStyleTableRecord
  2
Standard
 70
     0
 40
0.0
 41
1.0
 50
0.0
 71
     0
 42
2.5
  3
txt
  4

  0
STYLE
  5
6B
330
3
100
AcDbSymbolTableRecord
100
AcDbTextStyleTableRecord
  2
SLDTEXTSTYLE0
 70
     0
 40
0.0
 41
0.75
 50
0.0
 71
     0
 42
0.2
  3
TXT
  4

  0
STYLE
  5
75
330
3
100
AcDbSymbolTableRecord
100
AcDbTextStyleTableRecord
  2
SLDTEXTSTYLE1
 70
     0
 40
0.0
 41
0.6
 50
0.0
 71
     0
 42
0.2
  3
TXT
  4

  0
STYLE
  5
9E
330
3
100
AcDbSymbolTableRecord
100
AcDbTextStyleTableRecord
  2
SLDTEXTSTYLE2
 70
     0
 40
0.0
 41
0.75
 50
0.0
 71
     0
 42
0.2
  3
TXT
  4
bigfont
  0
STYLE
  5
B2
330
3
100
AcDbSymbolTableRecord
100
AcDbTextStyleTableRecord
  2
SLDTEXTSTYLE3
 70
     0
 40
0.0
 41
0.7
 50
0.0
 71
     0
 42
0.2
  3
TXT
  4

  0
ENDTAB
  0
TABLE
  2
VIEW
  5
6
330
0
100
AcDbSymbolTable
 70
     0
  0
ENDTAB
  0
TABLE
  2
UCS
  5
7
330
0
100
AcDbSymbolTable
 70
     0
  0
ENDTAB
  0
TABLE
  2
APPID
  5
9
330
0
100
AcDbSymbolTable
 70
     1
  0
APPID
  5
12
330
9
100
AcDbSymbolTableRecord
100
AcDbRegAppTableRecord
  2
ACAD
 70
     0
  0
ENDTAB
  0
TABLE
  2
DIMSTYLE
  5
A
330
0
100
AcDbSymbolTable
 70
     5
100
AcDbDimStyleTable
  0
DIMSTYLE
105
27
330
A
100
AcDbSymbolTableRecord
100
AcDbDimStyleTableRecord
  2
ISO-25
 70
     0
 41
2.5
 42
0.625
 43
3.75
 44
1.25
 73
     0
 74
     0
 77
     1
 78
     8
140
2.5
141
2.5
143
0.0393700787
147
0.625
171
     3
172
     1
178
     0
271
     2
272
     2
274
     3
278
    44
283
     0
284
     8
340
11
  0
DIMSTYLE
105
BB
102
{ACAD_REACTORS
330
BA
102
}
330
A
100
AcDbSymbolTableRecord
100
AcDbDimStyleTableRecord
  2
SLDDIMSTYLE0
 70
     0
 41
3.175
 44
0.0
 45
0.000000001
 78
    12
 79
     3
140
2.1166666667
141
0.0
143
0.0393700787
147
0.5291666667
148
0.000000001
170
     1
173
     1
178
     0
271
     1
272
     1
276
     2
284
    12
340
6B
  0
DIMSTYLE
105
1E4
102
{ACAD_REACTORS
330
1E3
102
}
330
A
100
AcDbSymbolTableRecord
100
AcDbDimStyleTableRecord
  2
SLDDIMSTYLE1
 70
     0
 41
3.175
 44
0.0
 45
0.000000001
 78
     4
 79
     1
140
2.1166666667
141
0.0
143
0.0393700787
147
0.5291666667
148
0.000000001
170
     1
173
     1
178
     0
271
     1
272
     1
276
     2
284
    12
340
6B
  0
DIMSTYLE
105
1F5
102
{ACAD_REACTORS
330
1F4
102
}
330
A
100
AcDbSymbolTableRecord
100
AcDbDimStyleTableRecord
  2
SLDDIMSTYLE2
 70
     0
 41
3.175
 44
0.0
 45
0.000000001
 78
     4
 79
     1
140
2.1166666667
143
0.0393700787
147
0.5291666667
148
0.000000001
170
     1
172
     1
173
     1
178
     0
271
     1
272
     1
276
     2
284
    12
289
     0
340
6B
  0
DIMSTYLE
105
208
102
{ACAD_REACTORS
330
207
102
}
330
A
100
AcDbSymbolTableRecord
100
AcDbDimStyleTableRecord
  2
SLDDIMSTYLE3
 70
     0
 41
3.175
 44
0.0
 45
0.000000001
 78
    12
 79
     3
140
2.1166666667
143
0.0393700787
147
0.5291666667
148
0.000000001
170
     1
172
     1
173
     1
178
     0
271
     1
272
     1
276
     2
284
    12
289
     0
340
6B
  0
ENDTAB
  0
TABLE
  2
BLOCK_RECORD
  5
1
330
0
100
AcDbSymbolTable
 70
    12
  0
BLOCK_RECORD
  5
1F
330
1
100
AcDbSymbolTableRecord
100
AcDbBlockTableRecord
  2
*Model_Space
340
22
  0
BLOCK_RECORD
  5
1B
330
1
100
AcDbSymbolTableRecord
100
AcDbBlockTableRecord
  2
*Paper_Space
340
1E
  0
BLOCK_RECORD
  5
23
330
1
100
AcDbSymbolTableRecord
100
AcDbBlockTableRecord
  2
*Paper_Space0
340
26
  0
BLOCK_RECORD
  5
45
330
1
100
AcDbSymbolTableRecord
100
AcDbBlockTableRecord
  2
Third Angle Projection Block
340
0
102
{BLKREFS
331
6A
102
}
  0
BLOCK_RECORD
  5
7B
330
1
100
AcDbSymbolTableRecord
100
AcDbBlockTableRecord
  2
SW_NOTE_0
340
0
102
{BLKREFS
331
80
102
}
  0
BLOCK_RECORD
  5
81
330
1
100
AcDbSymbolTableRecord
100
AcDbBlockTableRecord
  2
SW_NOTE_1
340
0
102
{BLKREFS
331
86
102
}
  0
BLOCK_RECORD
  5
88
330
1
100
AcDbSymbolTableRecord
100
AcDbBlockTableRecord
  2
SW_NOTE_2
340
0
102
{BLKREFS
331
8D
102
}
  0
BLOCK_RECORD
  5
8F
330
1
100
AcDbSymbolTableRecord
100
AcDbBlockTableRecord
  2
SW_NOTE_3
340
0
102
{BLKREFS
331
95
102
}
  0
BLOCK_RECORD
  5
96
330
1
100
AcDbSymbolTableRecord
100
AcDbBlockTableRecord
  2
SW_NOTE_4
340
0
102
{BLKREFS
331
B5
102
}
  0
BLOCK_RECORD
  5
BC
330
1
100
AcDbSymbolTableRecord
100
AcDbBlockTableRecord
  2
*D7
340
0
  0
BLOCK_RECORD
  5
CB
330
1
100
AcDbSymbolTableRecord
100
AcDbBlockTableRecord
  2
SW_CENTERMARKSYMBOL_0
340
0
102
{BLKREFS
331
D2
102
}
  0
BLOCK_RECORD
  5
1E5
330
1
100
AcDbSymbolTableRecord
100
AcDbBlockTableRecord
  2
*D9
340
0
  0
BLOCK_RECORD
  5
1F6
330
1
100
AcDbSymbolTableRecord
100
AcDbBlockTableRecord
  2
*D10
340
0
  0
BLOCK_RECORD
  5
209
330
1
100
AcDbSymbolTableRecord
100
AcDbBlockTableRecord
  2
*D11
340
0
  0
ENDTAB
  0
ENDSEC
  0
SECTION
  2
BLOCKS
  0
BLOCK
  5
20
330
1F
100
AcDbEntity
  8
0
100
AcDbBlockBegin
  2
*Model_Space
 70
     0
 10
0.0
 20
0.0
 30
0.0
  3
*Model_Space
  1

  0
ENDBLK
  5
21
330
1F
100
AcDbEntity
  8
0
100
AcDbBlockEnd
  0
BLOCK
  5
1C
330
1B
100
AcDbEntity
 67
     1
  8
0
100
AcDbBlockBegin
  2
*Paper_Space
 70
     0
 10
0.0
 20
0.0
 30
0.0
  3
*Paper_Space
  1

  0
ENDBLK
  5
1D
330
1B
100
AcDbEntity
 67
     1
  8
0
100
AcDbBlockEnd
  0
BLOCK
  5
24
330
23
100
AcDbEntity
  8
0
100
AcDbBlockBegin
  2
*Paper_Space0
 70
     0
 10
0.0
 20
0.0
 30
0.0
  3
*Paper_Space0
  1

  0
ENDBLK
  5
25
330
23
100
AcDbEntity
  8
0
100
AcDbBlockEnd
  0
BLOCK
  5
46
330
45
100
AcDbEntity
  8
0
100
AcDbBlockBegin
  2
Third Angle Projection Block
 70
     0
 10
0.0
 20
0.0
 30
0.0
  3
Third Angle Projection Block
  1

  0
CIRCLE
  5
48
330
45
100
AcDbEntity
  8
0
  6
Continuous
 62
     7
370
    30
100
AcDbCircle
 10
101.4766388944
 20
18.9404083667
 30
0.0
 40
1.768227153674871
  0
CIRCLE
  5
49
330
45
100
AcDbEntity
  8
0
  6
Continuous
 62
     7
370
    30
100
AcDbCircle
 10
101.4766388944
 20
18.9404083667
 30
0.0
 40
3.901228248531818
  0
LINE
  5
4A
330
45
100
AcDbEntity
  8
0
  6
CENTERX2
 62
     7
370
     0
100
AcDbLine
 10
110.1367822585
 20
18.9404083667
 30
0.0
 11
119.4527334874
 21
18.9404083667
 31
0.0
  0
LINE
  5
4B
330
45
100
AcDbEntity
  8
0
  6
Continuous
 62
     7
370
    30
100
AcDbLine
 10
111.0016388944
 20
20.7086355204
 30
0.0
 11
111.0016388944
 21
17.172181213
 31
0.0
  0
LINE
  5
4C
330
45
100
AcDbEntity
  8
0
  6
Continuous
 62
     7
370
    30
100
AcDbLine
 10
111.0016388944
 20
17.172181213
 30
0.0
 11
118.6216388944
 21
15.1304083667
 31
0.0
  0
LINE
  5
4D
330
45
100
AcDbEntity
  8
0
  6
Continuous
 62
     7
370
    30
100
AcDbLine
 10
118.6216388944
 20
15.1304083667
 30
0.0
 11
118.6216388944
 21
22.7504083667
 31
0.0
  0
LINE
  5
4E
330
45
100
AcDbEntity
  8
0
  6
Continuous
 62
     7
370
    30
100
AcDbLine
 10
118.6216388944
 20
22.7504083667
 30
0.0
 11
111.0016388944
 21
20.7086355204
 31
0.0
  0
LINE
  5
4F
330
45
100
AcDbEntity
  8
0
  6
CENTERX2
 62
     7
370
     0
100
AcDbLine
 10
96.6025854619
 20
18.9404083667
 30
0.0
 11
106.3506923269
 21
18.9404083667
 31
0.0
  0
LINE
  5
50
330
45
100
AcDbEntity
  8
0
  6
CENTERX2
 62
     7
370
     0
100
AcDbLine
 10
101.4766388944
 20
23.8144617992
 30
0.0
 11
101.4766388944
 21
14.0663549342
 31
0.0
  0
POINT
  5
51
330
45
100
AcDbEntity
  8
0
  6
Continuous
 62
     7
370
     0
100
AcDbPoint
 10
101.4766388944
 20
18.9404083667
 30
0.0
  0
ENDBLK
  5
47
330
45
100
AcDbEntity
  8
0
100
AcDbBlockEnd
  0
BLOCK
  5
7C
330
7B
100
AcDbEntity
  8
0
100
AcDbBlockBegin
  2
SW_NOTE_0
 70
     0
 10
0.0
 20
0.0
 30
0.0
  3
SW_NOTE_0
  1

  0
MTEXT
  5
7E
330
7B
100
AcDbEntity
  8
0
  6
Continuous
 62
     0
370
     0
100
AcDbMText
 10
19.90725
 20
1.9645392354
 30
0.0
 40
1.524
 41
0.0
 71
     2
 72
     1
  1
VALUES IN PARENTHESIS ARE CALCULATED
  7
SLDTEXTSTYLE0
 73
     1
 44
1.0
  0
MTEXT
  5
7F
330
7B
100
AcDbEntity
  8
0
  6
Continuous
 62
     0
370
     0
100
AcDbMText
 10
19.8778795174
 20
-0.5594606586
 30
0.0
 40
1.524
 41
0.0
 71
     2
 72
     1
  1
AND MAY CONTAIN ROUNDOFF ERRORS
  7
SLDTEXTSTYLE0
 73
     1
 44
1.0
  0
ENDBLK
  5
7D
330
7B
100
AcDbEntity
  8
0
100
AcDbBlockEnd
  0
BLOCK
  5
82
330
81
100
AcDbEntity
  8
0
100
AcDbBlockBegin
  2
SW_NOTE_1
 70
     0
 10
0.0
 20
0.0
 30
0.0
  3
SW_NOTE_1
  1

  0
MTEXT
  5
84
330
81
100
AcDbEntity
  8
0
  6
Continuous
 62
     0
370
     0
100
AcDbMText
 10
0.0
 20
2.7285267159
 30
0.0
 40
2.1166666667
 41
0.0
 71
     1
 72
     1
  1
DRAWING
  7
SLDTEXTSTYLE0
 73
     1
 44
1.0
  0
MTEXT
  5
85
330
81
100
AcDbEntity
  8
0
  6
Continuous
 62
     0
370
     0
100
AcDbMText
 10
0.0
 20
-0.0936954723
 30
0.0
 40
2.1166666667
 41
0.0
 71
     1
 72
     1
  1
PROJECTION
  7
SLDTEXTSTYLE0
 73
     1
 44
1.0
  0
ENDBLK
  5
83
330
81
100
AcDbEntity
  8
0
100
AcDbBlockEnd
  0
BLOCK
  5
89
330
88
100
AcDbEntity
  8
0
100
AcDbBlockBegin
  2
SW_NOTE_2
 70
     0
 10
0.0
 20
0.0
 30
0.0
  3
SW_NOTE_2
  1

  0
MTEXT
  5
8B
330
88
100
AcDbEntity
  8
0
  6
Continuous
 62
     0
370
     0
100
AcDbMText
 10
25.052734375
 20
4.0927900738
 30
0.0
 40
3.175
 41
0.0
 71
     2
 72
     1
  1
FOR INFORMATION ONLY
  7
SLDTEXTSTYLE0
 73
     1
 44
1.0
  0
MTEXT
  5
8C
330
88
100
AcDbEntity
  8
0
  6
Continuous
 62
     0
370
     0
100
AcDbMText
 10
25.3768468589
 20
-0.1405432084
 30
0.0
 40
3.175
 41
0.0
 71
     2
 72
     1
  1
NOT FOR MANUFACTURING PURPOSES
  7
SLDTEXTSTYLE0
 73
     1
 44
1.0
  0
ENDBLK
  5
8A
330
88
100
AcDbEntity
  8
0
100
AcDbBlockEnd
  0
BLOCK
  5
90
330
8F
100
AcDbEntity
  8
0
100
AcDbBlockBegin
  2
SW_NOTE_3
 70
     0
 10
0.0
 20
0.0
 30
0.0
  3
SW_NOTE_3
  1

  0
MTEXT
  5
92
330
8F
100
AcDbEntity
  8
0
  6
Continuous
 62
     0
370
     0
100
AcDbMText
 10
1.9016927083
 20
3.4106583948
 30
0.0
 40
2.6458333333
 41
0.0
 71
     2
 72
     1
  1
%%c
  7
SLDTEXTSTYLE0
 73
     1
 44
1.0
  0
MTEXT
  5
93
330
8F
100
AcDbEntity
  8
0
  6
Continuous
 62
     0
370
     0
100
AcDbMText
 10
30.4934129218
 20
3.4106583948
 30
0.0
 40
2.6458333333
 41
0.0
 71
     2
 72
     1
  1
50.8mm, f= 100.0mm CONCAVE
  7
SLDTEXTSTYLE0
 73
     1
 44
1.0
  0
MTEXT
  5
94
330
8F
100
AcDbEntity
  8
0
  6
Continuous
 62
     0
370
     0
100
AcDbMText
 10
28.540947477
 20
-0.1171193403
 30
0.0
 40
2.6458333333
 41
0.0
 71
     2
 72
     1
  1
UV ENHANCED ALUMINUM MIRROR
  7
SLDTEXTSTYLE0
 73
     1
 44
1.0
  0
ENDBLK
  5
91
330
8F
100
AcDbEntity
  8
0
100
AcDbBlockEnd
  0
BLOCK
  5
97
330
96
100
AcDbEntity
  8
0
100
AcDbBlockBegin
  2
SW_NOTE_4
 70
     0
 10
0.0
 20
0.0
 30
0.0
  3
SW_NOTE_4
  1

  0
MTEXT
  5
99
330
96
100
AcDbEntity
  8
0
  6
Continuous
 62
     0
370
     0
100
AcDbMText
 10
0.0
 20
3.0695925553
 30
0.0
 40
2.38125
 41
0.0
 71
     1
 72
     1
  1
NOTES/SPECIFICATIONS:
  7
SLDTEXTSTYLE0
 73
     1
 44
1.0
  0
MTEXT
  5
9A
330
96
100
AcDbEntity
  8
0
  6
Continuous
 62
     0
370
     0
100
AcDbMText
 10
9.9999997765
 20
-3.2804073679
 30
0.0
 40
2.38125
 41
0.0
 71
     1
 72
     1
  1
CLEAR APERTURE: >90% DIAMETER
  7
SLDTEXTSTYLE0
 73
     1
 44
1.0
  0
MTEXT
  5
9B
330
96
100
AcDbEntity
  8
0
  6
Continuous
 62
     0
370
     0
100
AcDbMText
 10
0.0
 20
-3.2804073679
 30
0.0
 40
2.38125
 41
0.0
 71
     1
 72
     1
  1
1.
  7
SLDTEXTSTYLE0
 73
     1
 44
1.0
  0
MTEXT
  5
9C
330
96
100
AcDbEntity
  8
0
  6
Continuous
 62
     0
370
     0
100
AcDbMText
 10
9.9999997765
 20
-6.5976282029
 30
0.0
 40
2.38125
 41
0.0
 71
     1
 72
     1
  1
SURFACE ACCURACY
  7
SLDTEXTSTYLE0
 73
     1
 44
1.0
  0
MTEXT
  5
9D
330
96
100
AcDbEntity
  8
0
  6
Continuous
 62
     0
370
     0
100
AcDbMText
 10
42.9582651705
 20
-6.6891910621
 30
0.0
 40
2.286
 41
0.0
 71
     1
 72
     1
  1
:
  7
SLDTEXTSTYLE0
 73
     1
 44
1.0
  0
MTEXT
  5
9F
330
96
100
AcDbEntity
  8
0
  6
Continuous
 62
     0
370
     0
100
AcDbMText
 10
44.6957833081
 20
-6.5976282029
 30
0.0
 40
2.38125
 41
0.0
 71
     1
 72
     1
  1
\M+183C9/
  7
SLDTEXTSTYLE2
 73
     1
 44
1.0
  0
MTEXT
  5
A0
330
96
100
AcDbEntity
  8
0
  6
Continuous
 62
     0
370
     0
100
AcDbMText
 10
47.7715637535
 20
-6.6891910621
 30
0.0
 40
2.286
 41
0.0
 71
     1
 72
     1
  1
4
  7
SLDTEXTSTYLE0
 73
     1
 44
1.0
  0
MTEXT
  5
A1
330
96
100
AcDbEntity
  8
0
  6
Continuous
 62
     0
370
     0
100
AcDbMText
 10
50.3052156419
 20
-6.5976282029
 30
0.0
 40
2.38125
 41
0.0
 71
     1
 72
     1
  1
AT 632.8nm OVER CLEAR APERTURE
  7
SLDTEXTSTYLE0
 73
     1
 44
1.0
  0
MTEXT
  5
A2
330
96
100
AcDbEntity
  8
0
  6
Continuous
 62
     0
370
     0
100
AcDbMText
 10
0.0
 20
-6.5976282029
 30
0.0
 40
2.38125
 41
0.0
 71
     1
 72
     1
  1
2.
  7
SLDTEXTSTYLE0
 73
     1
 44
1.0
  0
MTEXT
  5
A3
330
96
100
AcDbEntity
  8
0
  6
Continuous
 62
     0
370
     0
100
AcDbMText
 10
9.9999997765
 20
-9.7726281646
 30
0.0
 40
2.38125
 41
0.0
 71
     1
 72
     1
  1
SURFACE QUALITY: 40-20 SCRATCH-DIG
  7
SLDTEXTSTYLE0
 73
     1
 44
1.0
  0
MTEXT
  5
A4
330
96
100
AcDbEntity
  8
0
  6
Continuous
 62
     0
370
     0
100
AcDbMText
 10
0.0
 20
-9.7726281646
 30
0.0
 40
2.38125
 41
0.0
 71
     1
 72
     1
  1
3.
  7
SLDTEXTSTYLE0
 73
     1
 44
1.0
  0
MTEXT
  5
A5
330
96
100
AcDbEntity
  8
0
  6
Continuous
 62
     0
370
     0
100
AcDbMText
 10
9.9999997765
 20
-12.9476281262
 30
0.0
 40
2.38125
 41
0.0
 71
     1
 72
     1
  1
BACK SURFACE: FINE GROUND
  7
SLDTEXTSTYLE0
 73
     1
 44
1.0
  0
MTEXT
  5
A6
330
96
100
AcDbEntity
  8
0
  6
Continuous
 62
     0
370
     0
100
AcDbMText
 10
0.0
 20
-12.9476281262
 30
0.0
 40
2.38125
 41
0.0
 71
     1
 72
     1
  1
4.
  7
SLDTEXTSTYLE0
 73
     1
 44
1.0
  0
MTEXT
  5
A7
330
96
100
AcDbEntity
  8
0
  6
Continuous
 62
     0
370
     0
100
AcDbMText
 10
9.9999997765
 20
-16.1226280878
 30
0.0
 40
2.38125
 41
0.0
 71
     1
 72
     1
  1
THICKNESS TOLERANCE:
  7
SLDTEXTSTYLE0
 73
     1
 44
1.0
  0
MTEXT
  5
A8
330
96
100
AcDbEntity
  8
0
  6
Continuous
 62
     0
370
     0
100
AcDbMText
 10
46.741804108
 20
-16.1226280878
 30
0.0
 40
2.38125
 41
0.0
 71
     1
 72
     1
  1
%%p
  7
SLDTEXTSTYLE0
 73
     1
 44
1.0
  0
MTEXT
  5
A9
330
96
100
AcDbEntity
  8
0
  6
Continuous
 62
     0
370
     0
100
AcDbMText
 10
49.0119289607
 20
-16.1226280878
 30
0.0
 40
2.38125
 41
0.0
 71
     1
 72
     1
  1
0.2 mm
  7
SLDTEXTSTYLE0
 73
     1
 44
1.0
  0
MTEXT
  5
AA
330
96
100
AcDbEntity
  8
0
  6
Continuous
 62
     0
370
     0
100
AcDbMText
 10
0.0
 20
-16.1226280878
 30
0.0
 40
2.38125
 41
0.0
 71
     1
 72
     1
  1
5.
  7
SLDTEXTSTYLE0
 73
     1
 44
1.0
  0
MTEXT
  5
AB
330
96
100
AcDbEntity
  8
0
  6
Continuous
 62
     0
370
     0
100
AcDbMText
 10
9.9999997765
 20
-19.2976280495
 30
0.0
 40
2.38125
 41
0.0
 71
     1
 72
     1
  1
DIAMETER TOLERANCE: + 0.0/-0.2 mm
  7
SLDTEXTSTYLE0
 73
     1
 44
1.0
  0
MTEXT
  5
AC
330
96
100
AcDbEntity
  8
0
  6
Continuous
 62
     0
370
     0
100
AcDbMText
 10
0.0
 20
-19.2976280495
 30
0.0
 40
2.38125
 41
0.0
 71
     1
 72
     1
  1
6.
  7
SLDTEXTSTYLE0
 73
     1
 44
1.0
  0
MTEXT
  5
AD
330
96
100
AcDbEntity
  8
0
  6
Continuous
 62
     0
370
     0
100
AcDbMText
 10
9.9999997765
 20
-22.4726280111
 30
0.0
 40
2.38125
 41
0.0
 71
     1
 72
     1
  1
COATING: UV ENHANCED ALUMINUM
  7
SLDTEXTSTYLE0
 73
     1
 44
1.0
  0
MTEXT
  5
AE
330
96
100
AcDbEntity
  8
0
  6
Continuous
 62
     0
370
     0
100
AcDbMText
 10
0.0
 20
-22.4726280111
 30
0.0
 40
2.38125
 41
0.0
 71
     1
 72
     1
  1
7.
  7
SLDTEXTSTYLE0
 73
     1
 44
1.0
  0
MTEXT
  5
AF
330
96
100
AcDbEntity
  8
0
  6
Continuous
 62
     0
370
     0
100
AcDbMText
 10
10.0
 20
-25.6476279727
 30
0.0
 40
2.38125
 41
0.0
 71
     1
 72
     1
  1
Ravg: >90% FROM 250nm - 450nm
  7
SLDTEXTSTYLE0
 73
     1
 44
1.0
  0
MTEXT
  5
B0
330
96
100
AcDbEntity
  8
0
  6
Continuous
 62
     0
370
     0
100
AcDbMText
 10
10.0
 20
-28.8226279343
 30
0.0
 40
2.38125
 41
0.0
 71
     1
 72
     1
  1
AOI: 0
  7
SLDTEXTSTYLE0
 73
     1
 44
1.0
  0
MTEXT
  5
B1
330
96
100
AcDbEntity
  8
0
  6
Continuous
 62
     0
370
     0
100
AcDbMText
 10
19.344201535
 20
-28.8226279343
 30
0.0
 40
2.38125
 41
0.0
 71
     1
 72
     1
  1
%%d
  7
SLDTEXTSTYLE0
 73
     1
 44
1.0
  0
MTEXT
  5
B3
330
96
100
AcDbEntity
  8
0
  6
Continuous
 62
     0
370
     0
100
AcDbMText
 10
21.7505871639
 20
-28.8226279343
 30
0.0
 40
2.38125
 41
0.0
 71
     1
 72
     1
  1
TO 45
  7
SLDTEXTSTYLE3
 73
     1
 44
1.0
  0
MTEXT
  5
B4
330
96
100
AcDbEntity
  8
0
  6
Continuous
 62
     0
370
     0
100
AcDbMText
 10
30.2459171414
 20
-28.8226279343
 30
0.0
 40
2.38125
 41
0.0
 71
     1
 72
     1
  1
%%d
  7
SLDTEXTSTYLE0
 73
     1
 44
1.0
  0
ENDBLK
  5
98
330
96
100
AcDbEntity
  8
0
100
AcDbBlockEnd
  0
BLOCK
  5
BD
330
BC
100
AcDbEntity
  8
0
100
AcDbBlockBegin
  2
*D7
 70
     1
 10
0.0
 20
0.0
 30
0.0
  3
*D7
  1

  0
SOLID
  5
BF
330
BC
100
AcDbEntity
  8
0
  6
Continuous
 62
     7
370
     0
100
AcDbTrace
 10
76.1381545949
 20
88.561143275
 30
0.0
 11
78.0231747508
 21
85.9562655404
 31
0.0
 12
78.7418251438
 22
86.6744560531
 32
0.0
 13
78.7418251438
 23
86.6744560531
 33
0.0
  0
LINE
  5
C0
330
BC
100
AcDbEntity
  8
0
  6
Continuous
 62
     7
370
     0
100
AcDbLine
 10
91.7641803763
 20
77.4195810307
 30
0.0
 11
91.7641803763
 21
74.5616957498
 31
0.0
  0
LINE
  5
C1
330
BC
100
AcDbEntity
  8
0
  6
Continuous
 62
     7
370
     0
100
AcDbLine
 10
91.7641803763
 20
74.5616957498
 30
0.0
 11
92.1928267808
 21
74.5616957498
 31
0.0
  0
LINE
  5
C2
330
BC
100
AcDbEntity
  8
0
  6
Continuous
 62
     7
370
     0
100
AcDbLine
 10
91.7641803763
 20
77.4195810307
 30
0.0
 11
92.1928267808
 21
77.4195810307
 31
0.0
  0
LINE
  5
C3
330
BC
100
AcDbEntity
  8
0
  6
Continuous
 62
     7
370
     0
100
AcDbLine
 10
101.2336999268
 20
77.4195810307
 30
0.0
 11
101.2336999268
 21
74.5616957498
 31
0.0
  0
LINE
  5
C4
330
BC
100
AcDbEntity
  8
0
  6
Continuous
 62
     7
370
     0
100
AcDbLine
 10
101.2336999268
 20
74.5616957498
 30
0.0
 11
100.8050535223
 21
74.5616957498
 31
0.0
  0
LINE
  5
C5
330
BC
100
AcDbEntity
  8
0
  6
Continuous
 62
     7
370
     0
100
AcDbLine
 10
101.2336999268
 20
77.4195810307
 30
0.0
 11
100.8050535223
 21
77.4195810307
 31
0.0
  0
LINE
  5
C6
330
BC
100
AcDbEntity
  8
0
  6
Continuous
 62
     7
370
     0
100
AcDbLine
 10
76.1381545949
 20
88.561143275
 30
0.0
 11
85.3405489156
 21
79.3528563677
 31
0.0
  0
LINE
  5
C7
330
BC
100
AcDbEntity
  8
0
  6
Continuous
 62
     7
370
     0
100
AcDbLine
 10
85.3405489156
 20
79.3528563677
 30
0.0
 11
89.1505489156
 21
79.3528563677
 31
0.0
  0
MTEXT
  5
C8
330
BC
100
AcDbEntity
  8
0
  6
Continuous
 62
     7
370
     0
100
AcDbMText
 10
90.9068875673
 20
80.4002739784
 30
0.0
 40
2.1166666667
 41
0.0
 71
     1
 72
     1
  1
%%c
  7
SLDTEXTSTYLE0
 73
     1
 44
1.0
  0
MTEXT
  5
C9
330
BC
100
AcDbEntity
  8
0
  6
Continuous
 62
     7
370
     0
100
AcDbMText
 10
93.932883747
 20
80.4002739784
 30
0.0
 40
2.1166666667
 41
0.0
 71
     1
 72
     1
  1
50.8mm
  7
SLDTEXTSTYLE0
 73
     1
 44
1.0
  0
MTEXT
  5
CA
330
BC
100
AcDbEntity
  8
0
  6
Continuous
 62
     7
370
     0
100
AcDbMText
 10
92.6214731852
 20
77.0380560009
 30
0.0
 40
2.1166666667
 41
0.0
 71
     1
 72
     1
  1
2.00in
  7
SLDTEXTSTYLE0
 73
     1
 44
1.0
  0
ENDBLK
  5
BE
330
BC
100
AcDbEntity
  8
0
100
AcDbBlockEnd
  0
BLOCK
  5
CC
330
CB
100
AcDbEntity
  8
0
100
AcDbBlockBegin
  2
SW_CENTERMARKSYMBOL_0
 70
     0
 10
0.0
 20
0.0
 30
0.0
  3
SW_CENTERMARKSYMBOL_0
  1

  0
LINE
  5
CE
330
CB
100
AcDbEntity
  8
0
  6
Continuous
 62
     0
370
     0
100
AcDbLine
 10
0.0
 20
0.0
 30
0.0
 11
0.0
 21
2.0
 31
0.0
  0
LINE
  5
CF
330
CB
100
AcDbEntity
  8
0
  6
Continuous
 62
     0
370
     0
100
AcDbLine
 10
0.0
 20
0.0
 30
0.0
 11
-2.0
 21
0.0
 31
0.0
  0
LINE
  5
D0
330
CB
100
AcDbEntity
  8
0
  6
Continuous
 62
     0
370
     0
100
AcDbLine
 10
0.0
 20
0.0
 30
0.0
 11
0.0
 21
-2.0
 31
0.0
  0
LINE
  5
D1
330
CB
100
AcDbEntity
  8
0
  6
Continuous
 62
     0
370
     0
100
AcDbLine
 10
0.0
 20
0.0
 30
0.0
 11
2.0
 21
0.0
 31
0.0
  0
ENDBLK
  5
CD
330
CB
100
AcDbEntity
  8
0
100
AcDbBlockEnd
  0
BLOCK
  5
1E6
330
1E5
100
AcDbEntity
  8
0
100
AcDbBlockBegin
  2
*D9
 70
     1
 10
0.0
 20
0.0
 30
0.0
  3
*D9
  1

  0
SOLID
  5
1E8
330
1E5
100
AcDbEntity
  8
0
  6
Continuous
 62
     7
370
     0
100
AcDbTrace
 10
134.6053557684
 20
91.4412272421
 30
0.0
 11
137.7329914112
 21
90.6951814757
 31
0.0
 12
137.8096291846
 22
91.7082869251
 32
0.0
 13
137.8096291846
 23
91.7082869251
 33
0.0
  0
LINE
  5
1E9
330
1E5
100
AcDbEntity
  8
0
  6
Continuous
 62
     7
370
     0
100
AcDbLine
 10
160.1206887467
 20
88.0509615068
 30
0.0
 11
160.1206887467
 21
85.1930762259
 31
0.0
  0
LINE
  5
1EA
330
1E5
100
AcDbEntity
  8
0
  6
Continuous
 62
     7
370
     0
100
AcDbLine
 10
160.1206887467
 20
85.1930762259
 30
0.0
 11
160.5493351512
 21
85.1930762259
 31
0.0
  0
LINE
  5
1EB
330
1E5
100
AcDbEntity
  8
0
  6
Continuous
 62
     7
370
     0
100
AcDbLine
 10
160.1206887467
 20
88.0509615068
 30
0.0
 11
160.5493351512
 21
88.0509615068
 31
0.0
  0
LINE
  5
1EC
330
1E5
100
AcDbEntity
  8
0
  6
Continuous
 62
     7
370
     0
100
AcDbLine
 10
169.5902082973
 20
88.0509615068
 30
0.0
 11
169.5902082973
 21
85.1930762259
 31
0.0
  0
LINE
  5
1ED
330
1E5
100
AcDbEntity
  8
0
  6
Continuous
 62
     7
370
     0
100
AcDbLine
 10
169.5902082973
 20
85.1930762259
 30
0.0
 11
169.1615618928
 21
85.1930762259
 31
0.0
  0
LINE
  5
1EE
330
1E5
100
AcDbEntity
  8
0
  6
Continuous
 62
     7
370
     0
100
AcDbLine
 10
169.5902082973
 20
88.0509615068
 30
0.0
 11
169.1615618928
 21
88.0509615068
 31
0.0
  0
LINE
  5
1EF
330
1E5
100
AcDbEntity
  8
0
  6
Continuous
 62
     7
370
     0
100
AcDbLine
 10
134.6053557684
 20
91.4412272421
 30
0.0
 11
153.8658959377
 21
89.9842368438
 31
0.0
  0
LINE
  5
1F0
330
1E5
100
AcDbEntity
  8
0
  6
Continuous
 62
     7
370
     0
100
AcDbLine
 10
153.8658959377
 20
89.9842368438
 30
0.0
 11
157.6758959377
 21
89.9842368438
 31
0.0
  0
MTEXT
  5
1F1
330
1E5
100
AcDbEntity
  8
0
  6
Continuous
 62
     7
370
     0
100
AcDbMText
 10
159.2633959377
 20
91.0316544545
 30
0.0
 40
2.1166666667
 41
0.0
 71
     1
 72
     1
  1
R
  7
SLDTEXTSTYLE0
 73
     1
 44
1.0
  0
MTEXT
  5
1F2
330
1E5
100
AcDbEntity
  8
0
  6
Continuous
 62
     7
370
     0
100
AcDbMText
 10
160.9750705445
 20
91.0316544545
 30
0.0
 40
2.1166666667
 41
0.0
 71
     1
 72
     1
  1
200.0mm
  7
SLDTEXTSTYLE0
 73
     1
 44
1.0
  0
MTEXT
  5
1F3
330
1E5
100
AcDbEntity
  8
0
  6
Continuous
 62
     7
370
     0
100
AcDbMText
 10
160.9779815557
 20
87.669436477
 30
0.0
 40
2.1166666667
 41
0.0
 71
     1
 72
     1
  1
7.87in
  7
SLDTEXTSTYLE0
 73
     1
 44
1.0
  0
ENDBLK
  5
1E7
330
1E5
100
AcDbEntity
  8
0
100
AcDbBlockEnd
  0
BLOCK
  5
1F7
330
1F6
100
AcDbEntity
  8
0
100
AcDbBlockBegin
  2
*D10
 70
     1
 10
0.0
 20
0.0
 30
0.0
  3
*D10
  1

  0
SOLID
  5
1F9
330
1F6
100
AcDbEntity
  8
0
  6
Continuous
 62
     7
370
     0
100
AcDbTrace
 10
144.1751491848
 20
141.9274031008
 30
0.0
 11
147.3501491848
 21
141.4194031008
 31
0.0
 12
147.3501491848
 22
142.4354031008
 32
0.0
 13
147.3501491848
 23
142.4354031008
 33
0.0
  0
SOLID
  5
1FA
330
1F6
100
AcDbEntity
  8
0
  6
Continuous
 62
     7
370
     0
100
AcDbTrace
 10
135.1751491848
 20
141.9274031008
 30
0.0
 11
132.0001491848
 21
142.4354031008
 31
0.0
 12
132.0001491848
 22
141.4194031008
 32
0.0
 13
132.0001491848
 23
141.4194031008
 33
0.0
  0
LINE
  5
1FB
330
1F6
100
AcDbEntity
  8
0
  6
Continuous
 62
     7
370
     0
100
AcDbLine
 10
153.6640500546
 20
141.6752367525
 30
0.0
 11
153.6640500546
 21
138.8173514716
 31
0.0
  0
LINE
  5
1FC
330
1F6
100
AcDbEntity
  8
0
  6
Continuous
 62
     7
370
     0
100
AcDbLine
 10
153.6640500546
 20
138.8173514716
 30
0.0
 11
154.0926964591
 21
138.8173514716
 31
0.0
  0
LINE
  5
1FD
330
1F6
100
AcDbEntity
  8
0
  6
Continuous
 62
     7
370
     0
100
AcDbLine
 10
153.6640500546
 20
141.6752367525
 30
0.0
 11
154.0926964591
 21
141.6752367525
 31
0.0
  0
LINE
  5
1FE
330
1F6
100
AcDbEntity
  8
0
  6
Continuous
 62
     7
370
     0
100
AcDbLine
 10
163.1335696051
 20
141.6752367525
 30
0.0
 11
163.1335696051
 21
138.8173514716
 31
0.0
  0
LINE
  5
1FF
330
1F6
100
AcDbEntity
  8
0
  6
Continuous
 62
     7
370
     0
100
AcDbLine
 10
163.1335696051
 20
138.8173514716
 30
0.0
 11
162.7049232006
 21
138.8173514716
 31
0.0
  0
LINE
  5
200
330
1F6
100
AcDbEntity
  8
0
  6
Continuous
 62
     7
370
     0
100
AcDbLine
 10
163.1335696051
 20
141.6752367525
 30
0.0
 11
162.7049232006
 21
141.6752367525
 31
0.0
  0
LINE
  5
201
330
1F6
100
AcDbEntity
  8
0
  6
Continuous
 62
     7
370
     0
100
AcDbLine
 10
144.1751491848
 20
132.9974031008
 30
0.0
 11
144.1751491848
 21
143.7054031008
 31
0.0
  0
LINE
  5
202
330
1F6
100
AcDbEntity
  8
0
  6
Continuous
 62
     7
370
     0
100
AcDbLine
 10
135.1751491848
 20
107.7974031008
 30
0.0
 11
135.1751491848
 21
143.7054031008
 31
0.0
  0
LINE
  5
203
330
1F6
100
AcDbEntity
  8
0
  6
Continuous
 62
     7
370
     0
100
AcDbLine
 10
144.1751491848
 20
141.9274031008
 30
0.0
 11
150.7898830883
 21
141.9274031008
 31
0.0
  0
LINE
  5
204
330
1F6
100
AcDbEntity
  8
0
  6
Continuous
 62
     7
370
     0
100
AcDbLine
 10
135.1751491848
 20
141.9274031008
 30
0.0
 11
128.8251491848
 21
141.9274031008
 31
0.0
  0
MTEXT
  5
205
330
1F6
100
AcDbEntity
  8
0
  6
Continuous
 62
     7
370
     0
100
AcDbMText
 10
153.7994120771
 20
144.6559297002
 30
0.0
 40
2.1166666667
 41
0.0
 71
     1
 72
     1
  1
9.0mm
  7
SLDTEXTSTYLE0
 73
     1
 44
1.0
  0
MTEXT
  5
206
330
1F6
100
AcDbEntity
  8
0
  6
Continuous
 62
     7
370
     0
100
AcDbMText
 10
154.5213428636
 20
141.2937117227
 30
0.0
 40
2.1166666667
 41
0.0
 71
     1
 72
     1
  1
0.35in
  7
SLDTEXTSTYLE0
 73
     1
 44
1.0
  0
ENDBLK
  5
1F8
330
1F6
100
AcDbEntity
  8
0
100
AcDbBlockEnd
  0
BLOCK
  5
20A
330
209
100
AcDbEntity
  8
0
100
AcDbBlockBegin
  2
*D11
 70
     1
 10
0.0
 20
0.0
 30
0.0
  3
*D11
  1

  0
SOLID
  5
20C
330
209
100
AcDbEntity
  8
0
  6
Continuous
 62
     7
370
     0
100
AcDbTrace
 10
133.5810044954
 20
153.9274031008
 30
0.0
 11
130.4060044954
 21
154.4354031008
 31
0.0
 12
130.4060044954
 22
153.4194031008
 32
0.0
 13
130.4060044954
 23
153.4194031008
 33
0.0
  0
SOLID
  5
20D
330
209
100
AcDbEntity
  8
0
  6
Continuous
 62
     7
370
     0
100
AcDbTrace
 10
144.1751491848
 20
153.9274031008
 30
0.0
 11
147.3501491848
 21
153.4194031008
 31
0.0
 12
147.3501491848
 22
154.4354031008
 32
0.0
 13
147.3501491848
 23
154.4354031008
 33
0.0
  0
LINE
  5
20E
330
209
100
AcDbEntity
  8
0
  6
Continuous
 62
     7
370
     0
100
AcDbLine
 10
150.9771866838
 20
153.6752367525
 30
0.0
 11
150.9771866838
 21
150.8173514716
 31
0.0
  0
LINE
  5
20F
330
209
100
AcDbEntity
  8
0
  6
Continuous
 62
     7
370
     0
100
AcDbLine
 10
150.9771866838
 20
150.8173514716
 30
0.0
 11
151.4058330883
 21
150.8173514716
 31
0.0
  0
LINE
  5
210
330
209
100
AcDbEntity
  8
0
  6
Continuous
 62
     7
370
     0
100
AcDbLine
 10
150.9771866838
 20
153.6752367525
 30
0.0
 11
151.4058330883
 21
153.6752367525
 31
0.0
  0
LINE
  5
211
330
209
100
AcDbEntity
  8
0
  6
Continuous
 62
     7
370
     0
100
AcDbLine
 10
160.4467062344
 20
153.6752367525
 30
0.0
 11
160.4467062344
 21
150.8173514716
 31
0.0
  0
LINE
  5
212
330
209
100
AcDbEntity
  8
0
  6
Continuous
 62
     7
370
     0
100
AcDbLine
 10
160.4467062344
 20
150.8173514716
 30
0.0
 11
160.0180598299
 21
150.8173514716
 31
0.0
  0
LINE
  5
213
330
209
100
AcDbEntity
  8
0
  6
Continuous
 62
     7
370
     0
100
AcDbLine
 10
160.4467062344
 20
153.6752367525
 30
0.0
 11
160.0180598299
 21
153.6752367525
 31
0.0
  0
LINE
  5
214
330
209
100
AcDbEntity
  8
0
  6
Continuous
 62
     7
370
     0
100
AcDbLine
 10
133.5810044954
 20
132.9989224692
 30
0.0
 11
133.5810044954
 21
155.7054031008
 31
0.0
  0
LINE
  5
215
330
209
100
AcDbEntity
  8
0
  6
Continuous
 62
     7
370
     0
100
AcDbLine
 10
144.1751491848
 20
132.9974031008
 30
0.0
 11
144.1751491848
 21
155.7054031008
 31
0.0
  0
LINE
  5
216
330
209
100
AcDbEntity
  8
0
  6
Continuous
 62
     7
370
     0
100
AcDbLine
 10
133.5810044954
 20
153.9274031008
 30
0.0
 11
127.2310044954
 21
153.9274031008
 31
0.0
  0
LINE
  5
217
330
209
100
AcDbEntity
  8
0
  6
Continuous
 62
     7
370
     0
100
AcDbLine
 10
144.1751491848
 20
153.9274031008
 30
0.0
 11
148.1030197175
 21
153.9274031008
 31
0.0
  0
MTEXT
  5
218
330
209
100
AcDbEntity
  8
0
  6
Continuous
 62
     7
370
     0
100
AcDbMText
 10
150.3309421894
 20
156.6559297002
 30
0.0
 40
2.1166666667
 41
0.0
 71
     1
 72
     1
  1
10.6mm
  7
SLDTEXTSTYLE0
 73
     1
 44
1.0
  0
MTEXT
  5
219
330
209
100
AcDbEntity
  8
0
  6
Continuous
 62
     7
370
     0
100
AcDbMText
 10
162.0977490433
 20
156.6559297002
 30
0.0
 40
2.1166666667
 41
0.0
 71
     1
 72
     1
  1
REF
  7
SLDTEXTSTYLE0
 73
     1
 44
1.0
  0
MTEXT
  5
21A
330
209
100
AcDbEntity
  8
0
  6
Continuous
 62
     7
370
     0
100
AcDbMText
 10
151.8344794928
 20
153.2937117227
 30
0.0
 40
2.1166666667
 41
0.0
 71
     1
 72
     1
  1
0.42in
  7
SLDTEXTSTYLE0
 73
     1
 44
1.0
  0
ENDBLK
  5
20B
330
209
100
AcDbEntity
  8
0
100
AcDbBlockEnd
  0
ENDSEC
  0
SECTION
  2
ENTITIES
  0
LINE
  5
52
330
1F
100
AcDbEntity
  8
0
  6
Continuous
 62
     7
370
     0
100
AcDbLine
 10
1.5793501011
 20
214.6453799966
 30
0.0
 11
277.9892068491
 21
214.6453799966
 31
0.0
  0
LINE
  5
53
330
1F
100
AcDbEntity
  8
0
  6
Continuous
 62
     7
370
     0
100
AcDbLine
 10
1.5793501011
 20
214.6453799966
 30
0.0
 11
1.5793501011
 21
0.9031642596
 31
0.0
  0
LINE
  5
54
330
1F
100
AcDbEntity
  8
0
  6
Continuous
 62
     7
370
     0
100
AcDbLine
 10
277.9892068491
 20
0.9031642596
 30
0.0
 11
1.5793501011
 21
0.9031642596
 31
0.0
  0
LINE
  5
55
330
1F
100
AcDbEntity
  8
0
  6
Continuous
 62
     7
370
     0
100
AcDbLine
 10
277.9892068491
 20
0.9031642596
 30
0.0
 11
277.9892068491
 21
214.6453799966
 31
0.0
  0
LINE
  5
56
330
1F
100
AcDbEntity
  8
0
  6
Continuous
 62
     7
370
     0
100
AcDbLine
 10
215.7427640041
 20
12.2958890132
 30
0.0
 11
171.6327596684
 21
12.2958890132
 31
0.0
  0
LINE
  5
57
330
1F
100
AcDbEntity
  8
0
  6
Continuous
 62
     7
370
     0
100
AcDbLine
 10
171.6327596684
 20
12.2958890132
 30
0.0
 11
171.6327596684
 21
26.1661402506
 31
0.0
  0
LINE
  5
58
330
1F
100
AcDbEntity
  8
0
  6
Continuous
 62
     7
370
     0
100
AcDbLine
 10
171.6327596684
 20
0.9031642596
 30
0.0
 11
171.6327596684
 21
26.1661402506
 31
0.0
  0
LINE
  5
59
330
1F
100
AcDbEntity
  8
0
  6
Continuous
 62
     7
370
     0
100
AcDbLine
 10
215.7427640041
 20
17.1604579552
 30
0.0
 11
277.9892068491
 21
17.1604579552
 31
0.0
  0
LINE
  5
5A
330
1F
100
AcDbEntity
  8
0
  6
Continuous
 62
     7
370
     0
100
AcDbLine
 10
215.7427640041
 20
35.2394508358
 30
0.0
 11
215.7427640041
 21
0.9031642596
 31
0.0
  0
LINE
  5
5B
330
1F
100
AcDbEntity
  8
0
  6
Continuous
 62
     7
370
     0
100
AcDbLine
 10
215.7427640041
 20
26.1661402506
 30
0.0
 11
171.6327596684
 21
26.1661402506
 31
0.0
  0
LINE
  5
5C
330
1F
100
AcDbEntity
  8
0
  6
Continuous
 62
     7
370
     0
100
AcDbLine
 10
215.7427640041
 20
9.1409200612
 30
0.0
 11
277.9892068491
 21
9.1409200612
 31
0.0
  0
LINE
  5
5D
330
1F
100
AcDbEntity
  8
0
  6
Continuous
 62
     7
370
     0
100
AcDbLine
 10
215.7427640041
 20
16.9216824031
 30
0.0
 11
171.6327596684
 21
16.9216824031
 31
0.0
  0
LINE
  5
5E
330
1F
100
AcDbEntity
  8
0
  6
Continuous
 62
     7
370
     0
100
AcDbLine
 10
215.7427640041
 20
21.4874005542
 30
0.0
 11
171.6327596684
 21
21.4874005542
 31
0.0
  0
LINE
  5
5F
330
1F
100
AcDbEntity
  8
0
  6
Continuous
 62
     7
370
     0
100
AcDbLine
 10
186.1338100705
 20
26.1661402506
 30
0.0
 11
186.1338100705
 21
12.2958890132
 31
0.0
  0
LINE
  5
60
330
1F
100
AcDbEntity
  8
0
  6
Continuous
 62
     7
370
     0
100
AcDbLine
 10
198.2145906188
 20
26.1661402506
 30
0.0
 11
198.2145906188
 21
12.2958890132
 31
0.0
  0
LINE
  5
61
330
1F
100
AcDbEntity
  8
0
  6
Continuous
 62
     7
370
     0
100
AcDbLine
 10
253.7490408369
 20
9.1409200612
 30
0.0
 11
253.7490408369
 21
0.9031642596
 31
0.0
  0
LINE
  5
62
330
1F
100
AcDbEntity
  8
0
  6
Continuous
 62
     7
370
     0
100
AcDbLine
 10
171.6327596684
 20
12.2958890132
 30
0.0
 11
171.6327596684
 21
7.5627342528
 31
0.0
  0
LINE
  5
63
330
1F
100
AcDbEntity
  8
0
  6
Continuous
 62
     7
370
     0
100
AcDbLine
 10
171.6327596684
 20
7.5627342528
 30
0.0
 11
215.7427640041
 21
7.5627342528
 31
0.0
  0
LINE
  5
64
330
1F
100
AcDbEntity
  8
0
  6
Continuous
 62
     7
370
     0
100
AcDbLine
 10
171.6327596684
 20
7.5627342528
 30
0.0
 11
171.6327596684
 21
35.2394508358
 31
0.0
  0
LINE
  5
65
330
1F
100
AcDbEntity
  8
0
  6
Continuous
 62
     7
370
     0
100
AcDbLine
 10
171.6327596684
 20
35.2394508358
 30
0.0
 11
215.7427640041
 21
35.2394508358
 31
0.0
  0
LINE
  5
66
330
1F
100
AcDbEntity
  8
0
  6
Continuous
 62
     7
370
     0
100
AcDbLine
 10
270.1683598194
 20
17.1604579552
 30
0.0
 11
270.1683598194
 21
9.1409200612
 31
0.0
  0
LINE
  5
67
330
1F
100
AcDbEntity
  8
0
  6
Continuous
 62
     7
370
     0
100
AcDbLine
 10
215.7427640041
 20
35.2394508358
 30
0.0
 11
277.9892068491
 21
35.2394508358
 31
0.0
  0
LINE
  5
68
330
1F
100
AcDbEntity
  8
0
  6
Continuous
 62
     7
370
     0
100
AcDbLine
 10
277.9892068491
 20
35.2394508358
 30
0.0
 11
277.9892068491
 21
50.0331356147
 31
0.0
  0
LINE
  5
69
330
1F
100
AcDbEntity
  8
0
  6
Continuous
 62
     7
370
     0
100
AcDbLine
 10
215.7427640041
 20
24.8927335446
 30
0.0
 11
277.9892068491
 21
24.8927335446
 31
0.0
  0
INSERT
  5
6A
330
1F
100
AcDbEntity
  8
0
  6
Continuous
 62
     7
100
AcDbBlockReference
  2
Third Angle Projection Block
 10
117.7262204235
 20
15.5162339489
 30
0.0
 41
0.8
 42
0.8
 43
0.8
  0
MTEXT
  5
6C
330
1F
100
AcDbEntity
  8
0
  6
Continuous
 62
     7
370
     0
100
AcDbMText
 10
273.7514466724
 20
13.1125292762
 30
0.0
 40
3.175
 41
0.0
 71
     2
 72
     1
  1
A
  7
SLDTEXTSTYLE0
 73
     1
 44
1.0
  0
MTEXT
  5
6D
330
1F
100
AcDbEntity
  8
0
  6
Continuous
 62
     7
370
     0
100
AcDbMText
 10
234.6333162404
 20
5.1306563898
 30
0.0
 40
3.175
 41
0.0
 71
     2
 72
     1
  1
CM508-100-F01
  7
SLDTEXTSTYLE0
 73
     1
 44
1.0
  0
MTEXT
  5
6E
330
1F
100
AcDbEntity
  8
0
  6
Continuous
 62
     7
370
     0
100
AcDbMText
 10
216.4199766059
 20
16.8243178599
 30
0.0
 40
2.1166666667
 41
0.0
 71
     1
 72
     1
  1
MATERIAL
  7
SLDTEXTSTYLE0
 73
     1
 44
1.0
  0
MTEXT
  5
6F
330
1F
100
AcDbEntity
  8
0
  6
Continuous
 62
     7
370
     0
100
AcDbMText
 10
174.230946566
 20
20.054553926
 30
0.0
 40
1.8520833333
 41
0.0
 71
     1
 72
     1
  1
DRAWN
  7
SLDTEXTSTYLE0
 73
     1
 44
1.0
  0
MTEXT
  5
70
330
1F
100
AcDbEntity
  8
0
  6
Continuous
 62
     7
370
     0
100
AcDbMText
 10
172.3960124543
 20
15.5787169747
 30
0.0
 40
1.8520833333
 41
0.0
 71
     1
 72
     1
  1
APPROVAL
  7
SLDTEXTSTYLE0
 73
     1
 44
1.0
  0
MTEXT
  5
71
330
1F
100
AcDbEntity
  8
0
  6
Continuous
 62
     7
370
     0
100
AcDbMText
 10
271.321689486
 20
16.0237652193
 30
0.0
 40
2.1166666667
 41
0.0
 71
     1
 72
     1
  1
REV
  7
SLDTEXTSTYLE0
 73
     1
 44
1.0
  0
MTEXT
  5
72
330
1F
100
AcDbEntity
  8
0
  6
Continuous
 62
     7
370
     0
100
AcDbMText
 10
190.2958696448
 20
20.3177146903
 30
0.0
 40
2.1166666667
 41
0.0
 71
     1
 72
     1
  1
MG
  7
SLDTEXTSTYLE0
 73
     1
 44
1.0
  0
MTEXT
  5
73
330
1F
100
AcDbEntity
  8
0
  6
Continuous
 62
     7
370
     0
100
AcDbMText
 10
199.8662436873
 20
20.3177146903
 30
0.0
 40
2.1166666667
 41
0.0
 71
     1
 72
     1
  1
07/APR/11
  7
SLDTEXTSTYLE0
 73
     1
 44
1.0
  0
MTEXT
  5
74
330
1F
100
AcDbEntity
  8
0
  6
Continuous
 62
     7
370
     0
100
AcDbMText
 10
203.6145073853
 20
24.8221395769
 30
0.0
 40
2.1166666667
 41
0.0
 71
     1
 72
     1
  1
DATE
  7
SLDTEXTSTYLE0
 73
     1
 44
1.0
  0
MTEXT
  5
76
330
1F
100
AcDbEntity
  8
0
  6
Continuous
 62
     7
370
     0
100
AcDbMText
 10
229.402906477
 20
27.7957480569
 30
0.0
 40
2.1166666667
 41
0.0
 71
     1
 72
     1
  1
w w w . t h o r  l a b s . c o m
  7
SLDTEXTSTYLE1
 73
     1
 44
1.0
  0
MTEXT
  5
77
330
1F
100
AcDbEntity
  8
0
  6
Continuous
 62
     7
370
     0
100
AcDbMText
 10
216.7004035316
 20
8.3494791871
 30
0.0
 40
2.1166666667
 41
0.0
 71
     1
 72
     1
  1
ITEM #
  7
SLDTEXTSTYLE0
 73
     1
 44
1.0
  0
MTEXT
  5
78
330
1F
100
AcDbEntity
  8
0
  6
Continuous
 62
     7
370
     0
100
AcDbMText
 10
254.5318000914
 20
8.3494791871
 30
0.0
 40
2.1166666667
 41
0.0
 71
     1
 72
     1
  1
APPROX WEIGHT
  7
SLDTEXTSTYLE0
 73
     1
 44
1.0
  0
MTEXT
  5
79
330
1F
100
AcDbEntity
  8
0
  6
Continuous
 62
     7
370
     0
100
AcDbMText
 10
243.7058359879
 20
13.1125292762
 30
0.0
 40
3.175
 41
0.0
 71
     2
 72
     1
  1
N-BK7
  7
SLDTEXTSTYLE0
 73
     1
 44
1.0
  0
MTEXT
  5
7A
330
1F
100
AcDbEntity
  8
0
  6
Continuous
 62
     7
370
     0
100
AcDbMText
 10
266.1678480997
 20
5.1306563898
 30
0.0
 40
3.175
 41
0.0
 71
     2
 72
     1
  1
0.05 kg
  7
SLDTEXTSTYLE0
 73
     1
 44
1.0
  0
INSERT
  5
80
330
1F
100
AcDbEntity
  8
0
  6
Continuous
 62
     7
370
     0
100
AcDbBlockReference
  2
SW_NOTE_0
 10
174.8430140051
 20
4.4558554801
 30
0.0
  0
INSERT
  5
86
330
1F
100
AcDbEntity
  8
0
  6
Continuous
 62
     7
370
     0
100
AcDbBlockReference
  2
SW_NOTE_1
 10
174.5483650337
 20
30.4835322715
 30
0.0
  0
MTEXT
  5
87
330
1F
100
AcDbEntity
  8
0
  6
Continuous
 62
     7
370
     0
100
AcDbMText
 10
187.9273588276
 20
24.8221395769
 30
0.0
 40
2.1166666667
 41
0.0
 71
     1
 72
     1
  1
NAME
  7
SLDTEXTSTYLE0
 73
     1
 44
1.0
  0
INSERT
  5
8D
330
1F
100
AcDbEntity
  8
0
  6
Continuous
 62
     7
370
     0
100
AcDbBlockReference
  2
SW_NOTE_2
 10
58.6204667508
 20
8.1776609732
 30
0.0
  0
MTEXT
  5
8E
330
1F
100
AcDbEntity
  8
0
  6
Continuous
 62
     7
370
     0
100
AcDbMText
 10
179.1174811218
 20
10.6680638482
 30
0.0
 40
1.5875
 41
0.0
 71
     1
 72
     1
  1
COPYRIGHT © 2010 BY THORLABS
  7
SLDTEXTSTYLE0
 73
     1
 44
1.0
  0
INSERT
  5
95
330
1F
100
AcDbEntity
  8
0
  6
Continuous
 62
     7
370
     0
100
AcDbBlockReference
  2
SW_NOTE_3
 10
218.0010743732
 20
20.5867261075
 30
0.0
  0
INSERT
  5
B5
330
1F
100
AcDbEntity
  8
0
  6
Continuous
 62
     7
370
     0
100
AcDbBlockReference
  2
SW_NOTE_4
 10
6.9966167511
 20
53.3990952253
 30
0.0
  0
MTEXT
  5
B6
330
1F
100
AcDbEntity
  8
0
  6
Continuous
 62
     7
370
     0
100
AcDbMText
 10
199.6159223835
 20
15.6431224409
 30
0.0
 40
2.1166666667
 41
0.0
 71
     1
 72
     1
  1
12/APR/11
  7
SLDTEXTSTYLE0
 73
     1
 44
1.0
  0
MTEXT
  5
B7
330
1F
100
AcDbEntity
  8
0
  6
Continuous
 62
     7
370
     0
100
AcDbMText
 10
190.045548341
 20
15.6431224409
 30
0.0
 40
2.1166666667
 41
0.0
 71
     1
 72
     1
  1
DD
  7
SLDTEXTSTYLE0
 73
     1
 44
1.0
  0
CIRCLE
  5
B8
330
1F
100
AcDbEntity
  8
0
  6
Continuous
 62
     7
370
     0
100
AcDbCircle
 10
58.1833917764
 20
106.5274031008
 30
0.0
 40
25.4
  0
CIRCLE
  5
B9
330
1F
100
AcDbEntity
  8
0
  6
Continuous
 62
     7
370
     0
100
AcDbCircle
 10
58.1833917764
 20
106.5274031008
 30
0.0
 40
25.20151936846451
  0
DIMENSION
  5
BA
330
1F
100
AcDbEntity
  8
0
  6
Continuous
 62
     7
370
     0
100
AcDbDimension
  2
*D7
 10
40.2286289578
 20
124.4936629266
 30
0.0
 11
97.6313235223
 21
79.3528563677
 31
0.0
 70
   163
  1
<>
 71
     1
 42
-1.0
  3
SLDDIMSTYLE0
100
AcDbDiametricDimension
 15
76.1381545949
 25
88.561143275
 35
0.0
 40
0.0
  0
INSERT
  5
D2
330
1F
100
AcDbEntity
  8
0
  6
Continuous
 62
     7
370
     0
100
AcDbBlockReference
  2
SW_CENTERMARKSYMBOL_0
 10
58.1833917764
 20
106.5274031008
 30
0.0
  0
LINE
  5
D3
330
1F
100
AcDbEntity
  8
0
  6
PHANTOM
 62
     7
370
    30
100
AcDbLine
 10
58.1833917764
 20
139.1064318477
 30
0.0
 11
58.1833917764
 21
74.8915222669
 31
0.0
  0
LINE
  5
D4
330
1F
100
AcDbEntity
  8
0
  6
Continuous
 62
     7
370
    30
100
AcDbLine
 10
58.1833917764
 20
139.1064318477
 30
0.0
 11
49.2933917764
 21
139.1064318477
 31
0.0
  0
SOLID
  5
D5
330
1F
100
AcDbEntity
  8
0
  6
Continuous
 62
     7
370
    30
100
AcDbTrace
 10
49.2933917764
 20
139.1064318477
 30
0.0
 11
53.1033917764
 21
138.4714318477
 31
0.0
 12
53.1033917764
 22
139.7414318477
 32
0.0
 13
53.1033917764
 23
139.7414318477
 33
0.0
  0
LINE
  5
D6
330
1F
100
AcDbEntity
  8
0
  6
Continuous
 62
     7
370
    30
100
AcDbLine
 10
58.1833917764
 20
74.8915222669
 30
0.0
 11
49.2933917764
 21
74.8915222669
 31
0.0
  0
SOLID
  5
D7
330
1F
100
AcDbEntity
  8
0
  6
Continuous
 62
     7
370
    30
100
AcDbTrace
 10
49.2933917764
 20
74.8915222669
 30
0.0
 11
53.1033917764
 21
74.2565222669
 31
0.0
 12
53.1033917764
 22
75.5265222669
 32
0.0
 13
53.1033917764
 23
75.5265222669
 33
0.0
  0
MTEXT
  5
D8
330
1F
100
AcDbEntity
  8
0
  6
Continuous
 62
     7
100
AcDbMText
 10
45.8889641359
 20
141.2067264544
 30
0.0
 40
2.6458333333
 41
0.0
 71
     1
 72
     1
  1
A
  7
SLDTEXTSTYLE0
 73
     1
 44
1.0
  0
MTEXT
  5
D9
330
1F
100
AcDbEntity
  8
0
  6
Continuous
 62
     7
100
AcDbMText
 10
45.8889641359
 20
76.9918168737
 30
0.0
 40
2.6458333333
 41
0.0
 71
     1
 72
     1
  1
A
  7
SLDTEXTSTYLE0
 73
     1
 44
1.0
  0
LINE
  5
DA
330
1F
100
AcDbEntity
  8
0
  6
Continuous
 62
     7
370
     0
100
AcDbLine
 10
215.9756834612
 20
182.1092621175
 30
0.0
 11
215.9909805221
 21
181.9816551326
 31
0.0
  0
LINE
  5
DB
330
1F
100
AcDbEntity
  8
0
  6
Continuous
 62
     7
370
     0
100
AcDbLine
 10
230.9930222187
 20
155.9945409388
 30
0.0
 11
231.0958773481
 21
155.917480151
 31
0.0
  0
LINE
  5
DC
330
1F
100
AcDbEntity
  8
0
  6
Continuous
 62
     7
370
     0
100
AcDbLine
 10
228.2680861041
 20
201.0738722963
 30
0.0
 11
221.0418390428
 21
196.9022486633
 31
0.0
  0
LINE
  5
DD
330
1F
100
AcDbEntity
  8
0
  6
Continuous
 62
     7
370
     0
100
AcDbLine
 10
246.4397748518
 20
152.9069664543
 30
0.0
 11
253.6660219131
 21
157.0785900873
 31
0.0
  0
LINE
  5
DE
330
1F
100
AcDbEntity
  8
0
  6
Continuous
 62
     7
370
     0
100
AcDbLine
 10
258.9275662508
 20
168.7078481717
 30
0.0
 11
258.9275662508
 21
168.871129794
 31
0.0
  0
LINE
  5
DF
330
1F
100
AcDbEntity
  8
0
  6
Continuous
 62
     7
370
     0
100
AcDbLine
 10
241.1113714683
 20
199.7330283058
 30
0.0
 11
240.969973097
 21
199.8146823859
 31
0.0
  0
LWPOLYLINE
  5
E0
330
1F
100
AcDbEntity
  8
0
  6
Continuous
 62
     7
370
     0
100
AcDbPolyline
 90
       47
 70
   128
 43
0.0
 10
251.7013191894
 20
164.5362245387
 10
251.688455059
 20
163.758813446
 10
251.6498810956
 20
162.997368596
 10
251.585652556
 20
162.2529807511
 10
251.4958614469
 20
161.5267162397
 10
251.3806363933
 20
160.8196154288
 10
251.2401424539
 20
160.1326912335
 10
251.074580885
 20
159.466927666
 10
250.8841888519
 20
158.8232784262
 10
250.6692390893
 20
158.2026655355
 10
250.4300395108
 20
157.6059780159
 10
250.1669327673
 20
157.0340706165
 10
249.8802957569
 20
156.4877625891
 10
249.5705390842
 20
155.9678365147
 10
249.2381064727
 20
155.4750371824
 10
248.8834741289
 20
155.0100705225
 10
248.5071500603
 20
154.5736025953
 10
248.1096733474
 20
154.1662586369
 10
247.6916133717
 20
153.7886221635
 10
247.2535690003
 20
153.4412341358
 10
246.7961677273
 20
153.1245921838
 10
246.3200647758
 20
152.839149894
 10
245.8259421587
 20
152.5853161598
 10
245.3145077017
 20
152.3634545955
 10
244.78649403
 20
152.1738830157
 10
244.2426575178
 20
152.0168729798
 10
243.6837772059
 20
151.8926494032
 10
243.1106536849
 20
151.8013902351
 10
242.5241079487
 20
151.7432262032
 10
241.9249802184
 20
151.718240627
 10
241.3141287387
 20
151.7264692981
 10
240.6924285485
 20
151.767900429
 10
240.0607702273
 20
151.8424746699
 10
239.4200586196
 20
151.9500851941
 10
238.7712115386
 20
152.0905778505
 10
238.1151584515
 20
152.2637513846
 10
237.452839148
 20
152.4693577271
 10
236.7852023941
 20
152.707102349
 10
236.1132045731
 20
152.9766446831
 10
235.4378083153
 20
153.2775986129
 10
234.7599811194
 20
153.6095330247
 10
234.0806939663
 20
153.9719724256
 10
233.4009199283
 20
154.3643976248
 10
232.7216327752
 20
154.7862464767
 10
232.0438055793
 20
155.2369146872
 10
231.3684093215
 20
155.7157566782
 10
231.0958773481
 20
155.917480151
  0
LWPOLYLINE
  5
E1
330
1F
100
AcDbEntity
  8
0
  6
Continuous
 62
     7
370
     0
100
AcDbPolyline
 90
       89
 70
   128
 43
0.0
 10
215.9756834612
 20
182.1092621175
 10
215.8959613386
 20
182.856200939
 10
215.831732799
 20
183.6747454773
 10
215.7931588355
 20
184.4807268775
 10
215.7802947051
 20
185.272990579
 10
215.7931588355
 20
186.0504016716
 10
215.831732799
 20
186.8118465216
 10
215.8959613386
 20
187.5562343665
 10
215.9857524477
 20
188.2824988779
 10
216.1009775013
 20
188.9895996888
 10
216.2414714407
 20
189.6765238841
 10
216.4070330096
 20
190.3422874516
 10
216.5974250427
 20
190.9859366914
 10
216.8123748053
 20
191.6065495821
 10
217.0515743838
 20
192.2032371017
 10
217.3146811272
 20
192.7751445011
 10
217.6013181377
 20
193.3214525285
 10
217.9110748104
 20
193.8413786029
 10
218.2435074219
 20
194.3341779352
 10
218.5981397656
 20
194.7991445951
 10
218.9744638343
 20
195.2356125223
 10
219.3719405472
 20
195.6429564807
 10
219.7900005229
 20
196.0205929541
 10
220.2280448943
 20
196.3679809818
 10
220.6854461672
 20
196.6846229338
 10
221.1615491187
 20
196.9700652236
 10
221.6556717359
 20
197.2238989578
 10
222.1671061928
 20
197.4457605221
 10
222.6951198646
 20
197.635332102
 10
223.2389563767
 20
197.7923421378
 10
223.7978366886
 20
197.9165657144
 10
224.3709602097
 20
198.0078248825
 10
224.9575059459
 20
198.0659889144
 10
225.5566336762
 20
198.0909744906
 10
226.1674851559
 20
198.0827458195
 10
226.7891853461
 20
198.0413146887
 10
227.4208436672
 20
197.9667404477
 10
228.0615552749
 20
197.8591299235
 10
228.7104023559
 20
197.7186372671
 10
229.3664554431
 20
197.545463733
 10
230.0287747466
 20
197.3398573905
 10
230.6964115005
 20
197.1021127687
 10
231.3684093215
 20
196.8325704345
 10
232.0438055793
 20
196.5316165047
 10
232.7216327752
 20
196.1996820929
 10
233.4009199283
 20
195.837242692
 10
234.0806939663
 20
195.4448174928
 10
234.7599811194
 20
195.0229686409
 10
235.4378083153
 20
194.5723004304
 10
236.1132045731
 20
194.0934584394
 10
236.7852023941
 20
193.5871286043
 10
237.452839148
 20
193.0540362378
 10
238.1151584515
 20
192.4949449895
 10
238.7712115386
 20
191.9106557523
 10
239.4200586196
 20
191.3020055149
 10
240.0607702273
 20
190.6698661629
 10
240.6924285485
 20
190.0151432297
 10
241.3141287387
 20
189.3387745998
 10
241.9249802184
 20
188.6417291647
 10
242.5241079487
 20
187.9250054351
 10
243.1106536849
 20
187.189630111
 10
243.6837772059
 20
186.4366566105
 10
244.2426575178
 20
185.6671635607
 10
244.78649403
 20
184.8822532532
 10
245.3145077017
 20
184.0830500643
 10
245.8259421587
 20
183.270698845
 10
246.3200647758
 20
182.4463632804
 10
246.7961677273
 20
181.6112242235
 10
247.2535690003
 20
180.7664780027
 10
247.6916133717
 20
179.9133347091
 10
248.1096733474
 20
179.053016462
 10
248.5071500603
 20
178.1867556591
 10
248.8834741289
 20
177.3157932107
 10
249.2381064727
 20
176.4413767621
 10
249.5705390842
 20
175.5647589064
 10
249.8802957569
 20
174.6871953903
 10
250.1669327673
 20
173.8099433149
 10
250.4300395108
 20
172.9342593356
 10
250.6692390893
 20
172.0613978611
 10
250.8841888519
 20
171.1926092572
 10
251.074580885
 20
170.329138055
 10
251.2401424539
 20
169.4722211688
 10
251.3806363933
 20
168.6230861238
 10
251.4958614469
 20
167.7829492978
 10
251.585652556
 20
166.9530141786
 10
251.6498810956
 20
166.1344696403
 10
251.688455059
 20
165.3284882402
 10
251.7013191894
 20
164.5362245387
 10
251.7013191894
 20
164.5362245387
  0
LWPOLYLINE
  5
E2
330
1F
100
AcDbEntity
  8
0
  6
Continuous
 62
     7
370
     0
100
AcDbPolyline
 90
      166
 70
   128
 43
0.0
 10
251.4374490557
 20
164.5459367505
 10
251.4245302877
 20
165.3368162656
 10
251.3857927148
 20
166.1414647729
 10
251.3212925026
 20
166.9587156093
 10
251.2311231703
 20
167.7873838389
 10
251.1154154548
 20
168.6262679722
 10
250.9743371213
 20
169.4741517074
 10
250.8080927199
 20
170.329805694
 10
250.616923289
 20
171.1919893156
 10
250.4011060061
 20
172.0594524885
 10
250.1609537855
 20
172.9309374738
 10
249.896814825
 20
173.8051807017
 10
249.609072101
 20
174.6809146031
 10
249.2981428127
 20
175.5568694476
 10
248.964477778
 20
176.4317751843
 10
248.6085607793
 20
177.3043632836
 10
248.2309078621
 20
178.1733685762
 10
247.8320665871
 20
179.0375310875
 10
247.4126152361
 20
179.8955978645
 10
246.9731619734
 20
180.7463247923
 10
246.5143439641
 20
181.5884783982
 10
246.0368264506
 20
182.4208376401
 10
245.5413017876
 20
183.2421956765
 10
245.0284884385
 20
184.0513616169
 10
244.4991299337
 20
184.8471622481
 10
243.9539937922
 20
185.6284437351
 10
243.3938704095
 20
186.3940732945
 10
242.8195719109
 20
187.1429408367
 10
242.2319309742
 20
187.8739605752
 10
241.6317996228
 20
188.5860726014
 10
241.0200479896
 20
189.278244421
 10
240.3975630561
 20
189.9494724508
 10
239.7652473659
 20
190.5987834746
 10
239.1240177163
 20
191.2252360533
 10
238.474803829
 20
191.8279218906
 10
237.8185470021
 20
192.4059671496
 10
237.1561987451
 20
192.9585337201
 10
236.4887193999
 20
193.4848204332
 10
235.8170767475
 20
193.9840642236
 10
235.1422446057
 20
194.4555412356
 10
234.4652014166
 20
194.8985678724
 10
233.786928828
 20
195.3125017879
 10
233.1084102703
 20
195.6967428174
 10
232.4306295306
 20
196.0507338482
 10
231.7545693262
 20
196.3739616271
 10
231.0812098797
 20
196.6659575048
 10
230.411527498
 20
196.9262981151
 10
229.7464931564
 20
197.1546059891
 10
229.0870710913
 20
197.3505501021
 10
228.4342174015
 20
197.5138463539
 10
227.7888786625
 20
197.6442579806
 10
227.1519905538
 20
197.7415958978
 10
226.5244765022
 20
197.8057189748
 10
225.9072463431
 20
197.8365342392
 10
225.3011950013
 20
197.833997012
 10
224.7072011933
 20
197.7981109717
 10
224.1261261532
 20
197.7289281498
 10
223.5588123844
 20
197.6265488548
 10
223.0060824375
 20
197.4911215267
 10
222.4687377182
 20
197.3228425223
 10
221.9475573249
 20
197.1219558301
 10
221.4432969194
 20
196.8887527166
 10
220.9566876311
 20
196.6235713039
 10
220.4884349968
 20
196.3267960799
 10
220.0392179382
 20
195.9988573401
 10
219.6096877771
 20
195.6402305644
 10
219.200467291
 20
195.2514357273
 10
218.8121498107
 20
194.8330365443
 10
218.4452983593
 20
194.385639654
 10
218.1004448363
 20
193.9098937393
 10
217.7780892464
 20
193.4064885862
 10
217.4786989744
 20
192.876154084
 10
217.2027081076
 20
192.3196591672
 10
216.9505168063
 20
191.7378107
 10
216.7224907238
 20
191.1314523073
 10
216.5189604761
 20
190.5014631506
 10
216.3402211626
 20
189.848756654
 10
216.1865319383
 20
189.1742791796
 10
216.0581156378
 20
188.4790086551
 10
215.9551584525
 20
187.7639531565
 10
215.8778096604
 20
187.0301494458
 10
215.82618141
 20
186.2786614682
 10
215.8003485572
 20
185.5105788094
 10
215.8003485572
 20
184.727015116
 10
215.82618141
 20
183.9291064802
 10
215.8778096604
 20
183.1180097935
 10
215.9551584525
 20
182.2949010683
 10
216.0581156378
 20
181.4609737338
 10
216.1865319383
 20
180.6174369047
 10
216.3402211626
 20
179.765513629
 10
216.5189604761
 20
178.9064391137
 10
216.7224907238
 20
178.041458935
 10
216.9505168063
 20
177.1718272313
 10
217.2027081076
 20
176.2988048854
 10
217.4786989744
 20
175.4236576964
 10
217.7780892464
 20
174.547654544
 10
218.1004448363
 20
173.672065549
 10
218.4452983593
 20
172.7981602317
 10
218.8121498107
 20
171.9272056713
 10
219.200467291
 20
171.0604646687
 10
219.6096877771
 20
170.1991939154
 10
220.0392179382
 20
169.3446421717
 10
220.4884349968
 20
168.4980484559
 10
220.9566876311
 20
167.660640248
 10
221.4432969194
 20
166.8336317099
 10
221.9475573249
 20
166.0182219248
 10
222.4687377182
 20
165.2155931589
 10
223.0060824375
 20
164.4269091473
 10
223.5588123844
 20
163.6533134064
 10
224.1261261532
 20
162.8959275761
 10
224.7072011933
 20
162.1558497933
 10
225.3011950013
 20
161.4341531002
 10
225.9072463431
 20
160.7318838879
 10
226.5244765022
 20
160.0500603796
 10
227.1519905538
 20
159.3896711543
 10
227.7888786625
 20
158.7516737132
 10
228.4342174015
 20
158.1369930916
 10
229.0870710913
 20
157.5465205176
 10
229.7464931564
 20
156.98111212
 10
230.411527498
 20
156.441587687
 10
231.0812098797
 20
155.9287294774
 10
231.7545693262
 20
155.4432810865
 10
232.4306295306
 20
154.9859463682
 10
233.1084102703
 20
154.557388414
 10
233.786928828
 20
154.158228592
 10
234.4652014166
 20
153.7890456457
 10
235.1422446057
 20
153.4503748553
 10
235.8170767475
 20
153.1427072608
 10
236.4887193999
 20
152.866488951
 10
237.1561987451
 20
152.622120416
 10
237.8185470021
 20
152.4099559668
 10
238.474803829
 20
152.2303032215
 10
239.1240177163
 20
152.0834226595
 10
239.7652473659
 20
151.9695272435
 10
240.3975630561
 20
151.888782111
 10
241.0200479896
 20
151.8413043347
 10
241.6317996228
 20
151.8271627529
 10
242.2319309742
 20
151.8463778695
 10
242.8195719109
 20
151.8989218244
 10
243.3938704095
 20
151.9847184339
 10
243.9539937922
 20
152.1036433011
 10
244.4991299337
 20
152.2555239964
 10
245.0284884385
 20
152.4401403072
 10
245.5413017876
 20
152.6572245575
 10
246.0368264506
 20
152.906461996
 10
246.5143439641
 20
153.1874912522
 10
246.9731619734
 20
153.4999048605
 10
247.4126152361
 20
153.8432498511
 10
247.8320665871
 20
154.2170284065
 10
248.2309078621
 20
154.6206985836
 10
248.6085607793
 20
155.0536750991
 10
248.964477778
 20
155.5153301787
 10
249.2981428127
 20
156.0049944664
 10
249.609072101
 20
156.521957996
 10
249.896814825
 20
157.0654712197
 10
250.1609537855
 20
157.6347460954
 10
250.4011060061
 20
158.2289572287
 10
250.616923289
 20
158.8472430706
 10
250.8080927199
 20
159.4887071654
 10
250.9743371213
 20
160.1524194517
 10
251.1154154548
 20
160.8374176102
 10
251.2311231703
 20
161.5427084588
 10
251.3212925026
 20
162.2672693934
 10
251.3857927148
 20
163.0100498699
 10
251.4245302877
 20
163.7699729275
 10
251.4374490557
 20
164.5459367505
  0
LWPOLYLINE
  5
E3
330
1F
100
AcDbEntity
  8
0
  6
Continuous
 62
     7
370
     0
100
AcDbPolyline
 90
       85
 70
   128
 43
0.0
 10
253.6660219131
 20
157.0785900873
 10
254.0224147887
 20
157.2962158168
 10
254.4798160616
 20
157.6128577688
 10
254.917860433
 20
157.9602457965
 10
255.3359204087
 20
158.3378822699
 10
255.7333971216
 20
158.7452262283
 10
256.1097211903
 20
159.1816941555
 10
256.464353534
 20
159.6466608154
 10
256.7967861455
 20
160.1394601477
 10
257.1065428182
 20
160.6593862221
 10
257.3931798287
 20
161.2056942495
 10
257.6562865721
 20
161.7776016489
 10
257.8954861506
 20
162.3742891685
 10
258.1104359132
 20
162.9949020592
 10
258.3008279463
 20
163.638551299
 10
258.4663895152
 20
164.3043148665
 10
258.6068834546
 20
164.9912390618
 10
258.7221085082
 20
165.6983398727
 10
258.8118996173
 20
166.4246043841
 10
258.8761281569
 20
167.168992229
 10
258.9147021204
 20
167.930437079
 10
258.9275662508
 20
168.7078481717
 10
258.9147021204
 20
169.5001118732
 10
258.8761281569
 20
170.3060932733
 10
258.8118996173
 20
171.1246378116
 10
258.7221085082
 20
171.9545729308
 10
258.6068834546
 20
172.7947097568
 10
258.4663895152
 20
173.6438448018
 10
258.3008279463
 20
174.500761688
 10
258.1104359132
 20
175.3642328902
 10
257.8954861506
 20
176.2330214941
 10
257.6562865721
 20
177.1058829686
 10
257.3931798287
 20
177.9815669479
 10
257.1065428182
 20
178.8588190233
 10
256.7967861455
 20
179.7363825394
 10
256.464353534
 20
180.6130003951
 10
256.1097211903
 20
181.4874168437
 10
255.7333971216
 20
182.3583792921
 10
255.3359204087
 20
183.224640095
 10
254.917860433
 20
184.0849583421
 10
254.4798160616
 20
184.9381016357
 10
254.0224147887
 20
185.7828478565
 10
253.5463118372
 20
186.6179869134
 10
253.05218922
 20
187.442322478
 10
252.5407547631
 20
188.2546736973
 10
252.0127410913
 20
189.0538768862
 10
251.4689045792
 20
189.8387871937
 10
250.9100242673
 20
190.6082802435
 10
250.3369007462
 20
191.361253744
 10
249.75035501
 20
192.0966290681
 10
249.1512272797
 20
192.8133527977
 10
248.5403758
 20
193.5103982328
 10
247.9186756098
 20
194.1867668627
 10
247.2870172887
 20
194.8414897959
 10
246.646305681
 20
195.4736291479
 10
245.9974586
 20
196.0822793853
 10
245.3414055128
 20
196.6665686225
 10
244.6790862093
 20
197.2256598708
 10
244.0114494554
 20
197.7587522373
 10
243.3394516344
 20
198.2650820724
 10
242.6640553766
 20
198.7439240634
 10
241.9862281807
 20
199.1945922739
 10
241.3069410276
 20
199.6164411258
 10
240.6271669896
 20
200.008866325
 10
239.9478798365
 20
200.3713057259
 10
239.2700526406
 20
200.7032401377
 10
238.5946563829
 20
201.0041940675
 10
237.9226585618
 20
201.2737364017
 10
237.2550218079
 20
201.5114810235
 10
236.5927025044
 20
201.717087366
 10
235.9366494173
 20
201.8902609001
 10
235.2878023363
 20
202.0307535565
 10
234.6470907286
 20
202.1383640807
 10
234.0154324074
 20
202.2129383217
 10
233.3937322172
 20
202.2543694525
 10
232.7828807375
 20
202.2625981236
 10
232.1837530072
 20
202.2376125474
 10
231.597207271
 20
202.1794485155
 10
231.02408375
 20
202.0881893474
 10
230.4652034381
 20
201.9639657708
 10
229.9213669259
 20
201.806955735
 10
229.3933532542
 20
201.6173841551
 10
228.8819187972
 20
201.3955225908
 10
228.3877961801
 20
201.1416888566
 10
228.2680861041
 20
201.0738722963
  0
ARC
  5
E4
330
1F
100
AcDbEntity
  8
0
  6
Continuous
 62
     7
370
     0
100
AcDbCircle
 10
220.3262428224
 20
167.1605445265
 30
0.0
 40
38.63920641500562
100
AcDbArc
 50
2.5373543706
 51
57.4572690967
  0
SPLINE
  5
E5
330
1F
100
AcDbEntity
  8
0
  6
Continuous
 62
     7
370
     0
100
AcDbSpline
210
0.0
220
0.0
230
1.0
 70
     8
 71
     3
 72
    15
 73
    11
 74
     0
 42
0.00000001
 43
0.00000001
 40
0.0
 40
0.0
 40
0.0
 40
0.0
 40
0.1426572507006123
 40
0.2811689939054435
 40
0.416977192367973
 40
0.5508524927475571
 40
0.6783641702618121
 40
0.795032443007094
 40
0.9019981783473521
 40
1.0
 40
1.0
 40
1.0
 40
1.0
 10
232.4733049215995
 20
105.6073866995332
 30
0.0
 10
232.5062213175187
 20
105.6243387093317
 30
0.0
 10
232.5710975847826
 20
105.6577501168578
 30
0.0
 10
232.6627537216442
 20
105.7154562107254
 30
0.0
 10
232.7483245849738
 20
105.7780119919925
 30
0.0
 10
232.8263936382057
 20
105.8454036107925
 30
0.0
 10
232.8963775697653
 20
105.9142899428158
 30
0.0
 10
232.9553540451807
 20
105.9837989576463
 30
0.0
 10
233.0047018069005
 20
106.0513827550603
 30
0.0
 10
233.0294605138037
 20
106.0985149587584
 30
0.0
 10
233.041298476913
 20
106.1210504365124
 30
0.0
  0
LINE
  5
E6
330
1F
100
AcDbEntity
  8
0
  6
Continuous
 62
     7
370
     0
100
AcDbLine
 10
232.4733049216
 20
105.3645488752
 30
0.0
 11
232.4733049216
 21
105.6073866995
 31
0.0
  0
SPLINE
  5
E7
330
1F
100
AcDbEntity
  8
0
  6
Continuous
 62
     7
370
     0
100
AcDbSpline
210
0.0
220
0.0
230
1.0
 70
     8
 71
     3
 72
    15
 73
    11
 74
     0
 42
0.00000001
 43
0.00000001
 40
0.0
 40
0.0
 40
0.0
 40
0.0
 40
0.111670300101588
 40
0.2320944808560175
 40
0.3627434591045548
 40
0.5025575097108851
 40
0.6415251033312812
 40
0.7710984952996689
 40
0.890161757373254
 40
1.0
 40
1.0
 40
1.0
 40
1.0
 10
232.9474560634264
 20
105.6674787713273
 30
0.0
 10
232.9322884719282
 20
105.6528514954273
 30
0.0
 10
232.9007642952096
 20
105.6224503054667
 30
0.0
 10
232.8474760047265
 20
105.5794250302082
 30
0.0
 10
232.7879994623734
 20
105.5358170899589
 30
0.0
 10
232.7231070088979
 20
105.4938831802602
 30
0.0
 10
232.6569601303
 20
105.4544069264839
 30
0.0
 10
232.5930376883121
 20
105.4189041053341
 30
0.0
 10
232.5324068953283
 20
105.3888601046499
 30
0.0
 10
232.4924690645185
 20
105.3724319262172
 30
0.0
 10
232.4733049215995
 20
105.3645488751601
 30
0.0
  0
LINE
  5
E8
330
1F
100
AcDbEntity
  8
0
  6
Continuous
 62
     7
370
     0
100
AcDbLine
 10
232.9474560634
 20
104.0663954886
 30
0.0
 11
232.9474560634
 21
105.6674787713
 31
0.0
  0
LINE
  5
E9
330
1F
100
AcDbEntity
  8
0
  6
Continuous
 62
     7
370
     0
100
AcDbLine
 10
233.2108733644
 20
104.0663954886
 30
0.0
 11
232.9474560634
 21
104.0663954886
 31
0.0
  0
LINE
  5
EA
330
1F
100
AcDbEntity
  8
0
  6
Continuous
 62
     7
370
     0
100
AcDbLine
 10
233.2108733644
 20
106.1210504365
 30
0.0
 11
233.2108733644
 21
104.0663954886
 31
0.0
  0
LINE
  5
EB
330
1F
100
AcDbEntity
  8
0
  6
Continuous
 62
     7
370
     0
100
AcDbLine
 10
233.0412984769
 20
106.1210504365
 30
0.0
 11
233.2108733644
 21
106.1210504365
 31
0.0
  0
LINE
  5
EC
330
1F
100
AcDbEntity
  8
0
  6
Continuous
 62
     7
370
     0
100
AcDbLine
 10
230.2869413232
 20
104.9883560421
 30
0.0
 11
229.3649807696
 21
104.9883560421
 31
0.0
  0
LINE
  5
ED
330
1F
100
AcDbEntity
  8
0
  6
Continuous
 62
     7
370
     0
100
AcDbLine
 10
230.2869413232
 20
105.2254316131
 30
0.0
 11
230.2869413232
 21
104.9883560421
 31
0.0
  0
LINE
  5
EE
330
1F
100
AcDbEntity
  8
0
  6
Continuous
 62
     7
370
     0
100
AcDbLine
 10
229.3649807696
 20
105.2254316131
 30
0.0
 11
230.2869413232
 21
105.2254316131
 31
0.0
  0
LINE
  5
EF
330
1F
100
AcDbEntity
  8
0
  6
Continuous
 62
     7
370
     0
100
AcDbLine
 10
229.3649807696
 20
105.8839748656
 30
0.0
 11
229.3649807696
 21
105.2254316131
 31
0.0
  0
LINE
  5
F0
330
1F
100
AcDbEntity
  8
0
  6
Continuous
 62
     7
370
     0
100
AcDbLine
 10
230.4449917038
 20
105.8839748656
 30
0.0
 11
229.3649807696
 21
105.8839748656
 31
0.0
  0
LINE
  5
F1
330
1F
100
AcDbEntity
  8
0
  6
Continuous
 62
     7
370
     0
100
AcDbLine
 10
230.4449917038
 20
106.1210504365
 30
0.0
 11
230.4449917038
 21
105.8839748656
 31
0.0
  0
LINE
  5
F2
330
1F
100
AcDbEntity
  8
0
  6
Continuous
 62
     7
370
     0
100
AcDbLine
 10
229.0752217385
 20
106.1210504365
 30
0.0
 11
230.4449917038
 21
106.1210504365
 31
0.0
  0
LINE
  5
F3
330
1F
100
AcDbEntity
  8
0
  6
Continuous
 62
     7
370
     0
100
AcDbLine
 10
229.0752217385
 20
104.0663954886
 30
0.0
 11
229.0752217385
 21
106.1210504365
 31
0.0
  0
LINE
  5
F4
330
1F
100
AcDbEntity
  8
0
  6
Continuous
 62
     7
370
     0
100
AcDbLine
 10
229.3649807696
 20
104.0663954886
 30
0.0
 11
229.0752217385
 21
104.0663954886
 31
0.0
  0
LINE
  5
F5
330
1F
100
AcDbEntity
  8
0
  6
Continuous
 62
     7
370
     0
100
AcDbLine
 10
229.3649807696
 20
104.9883560421
 30
0.0
 11
229.3649807696
 21
104.0663954886
 31
0.0
  0
SPLINE
  5
F6
330
1F
100
AcDbEntity
  8
0
  6
Continuous
 62
     7
370
     0
100
AcDbSpline
210
0.0
220
0.0
230
1.0
 70
     8
 71
     3
 72
    31
 73
    27
 74
     0
 42
0.00000001
 43
0.00000001
 40
0.0
 40
0.0
 40
0.0
 40
0.0
 40
0.0628739462114324
 40
0.1228366299919128
 40
0.1796565674430314
 40
0.2339600122308621
 40
0.2855950186955588
 40
0.3345131060783808
 40
0.3809048259061763
 40
0.4248945919393346
 40
0.4665290347654872
 40
0.5064882940692463
 40
0.5450315536447542
 40
0.5818311798231344
 40
0.617448279949443
 40
0.6520669127690463
 40
0.6858797142465102
 40
0.7191745547913923
 40
0.7521816462063928
 40
0.7852401639180908
 40
0.8186564497770833
 40
0.8525477406533113
 40
0.8876263422585189
 40
0.923635078068751
 40
0.9610218444769891
 40
1.0
 40
1.0
 40
1.0
 40
1.0
 10
227.7581352334317
 20
105.0797289184376
 30
0.0
 10
227.7578648691957
 20
105.0505039350947
 30
0.0
 10
227.7573366594424
 20
104.993407177507
 30
0.0
 10
227.754198943166
 20
104.9099350666282
 30
0.0
 10
227.7482307236891
 20
104.8306271973456
 30
0.0
 10
227.7408867205833
 20
104.7553018984051
 30
0.0
 10
227.7297767821669
 20
104.6841602529032
 30
0.0
 10
227.7178052215766
 20
104.6168999988095
 30
0.0
 10
227.7029993582514
 20
104.5538265569132
 30
0.0
 10
227.6857243918023
 20
104.4949122837503
 30
0.0
 10
227.6662688568624
 20
104.4398456618606
 30
0.0
 10
227.6449328522214
 20
104.3882105283273
 30
0.0
 10
227.6213011784178
 20
104.3400421660879
 30
0.0
 10
227.5946704675864
 20
104.2958103851879
 30
0.0
 10
227.5662591953874
 20
104.2549280827898
 30
0.0
 10
227.5358592794589
 20
104.217241900187
 30
0.0
 10
227.5028262059934
 20
104.1832942504783
 30
0.0
 10
227.4671933538208
 20
104.1532756780608
 30
0.0
 10
227.4296830834996
 20
104.1262351745065
 30
0.0
 10
227.3895492261342
 20
104.1030826934439
 30
0.0
 10
227.3469674413631
 20
104.083901265023
 30
0.0
 10
227.302222234487
 20
104.0675020966847
 30
0.0
 10
227.2548596008299
 20
104.0554857479881
 30
0.0
 10
227.2052530377132
 20
104.0462874208295
 30
0.0
 10
227.1532197683349
 20
104.0408707796816
 30
0.0
 10
227.1177145443403
 20
104.0403298563721
 30
0.0
 10
227.0995919808944
 20
104.0400537584942
 30
0.0
  0
SPLINE
  5
F7
330
1F
100
AcDbEntity
  8
0
  6
Continuous
 62
     7
370
     0
100
AcDbSpline
210
0.0
220
0.0
230
1.0
 70
     8
 71
     3
 72
    27
 73
    23
 74
     0
 42
0.00000001
 43
0.00000001
 40
0.0
 40
0.0
 40
0.0
 40
0.0
 40
0.0567243372181508
 40
0.1114372357370108
 40
0.1643678222229016
 40
0.2164353724620903
 40
0.2676414903219249
 40
0.3173597799690282
 40
0.3674730633322807
 40
0.4182103970528084
 40
0.4714042826470199
 40
0.5279657201290494
 40
0.5880611158232139
 40
0.6521342629937146
 40
0.6863448363353056
 40
0.7232636803169653
 40
0.762610250771542
 40
0.8047389366452182
 40
0.84943033879095
 40
0.8967112583864923
 40
0.9468896380534765
 40
1.0
 40
1.0
 40
1.0
 40
1.0
 10
227.0995919808944
 20
106.1210504365124
 30
0.0
 10
227.1259791700037
 20
106.1202746718276
 30
0.0
 10
227.1778178614265
 20
106.1187506509876
 30
0.0
 10
227.2535026186044
 20
106.1063210135622
 30
0.0
 10
227.3248306242497
 20
106.0850582030547
 30
0.0
 10
227.3917555370764
 20
106.0563737544079
 30
0.0
 10
227.453133286068
 20
106.0199389838301
 30
0.0
 10
227.5079462029012
 20
105.9756469691815
 30
0.0
 10
227.5556030417299
 20
105.9239627678692
 30
0.0
 10
227.5955837019023
 20
105.8642739390547
 30
0.0
 10
227.6305307896205
 20
105.7982270992422
 30
0.0
 10
227.6615770151957
 20
105.7255258058496
 30
0.0
 10
227.6896419013703
 20
105.6462515288861
 30
0.0
 10
227.7095573555539
 20
105.5752899842107
 30
0.0
 10
227.7237630326708
 20
105.5140334609155
 30
0.0
 10
227.733166062237
 20
105.463510813335
 30
0.0
 10
227.7409724618914
 20
105.4089965921661
 30
0.0
 10
227.7469532190213
 20
105.3506226819846
 30
0.0
 10
227.751860289133
 20
105.288454554325
 30
0.0
 10
227.7556497944911
 20
105.2224535021219
 30
0.0
 10
227.7575733564653
 20
105.1524545669742
 30
0.0
 10
227.7579444299784
 20
105.1044252589451
 30
0.0
 10
227.7581352334317
 20
105.0797289184376
 30
0.0
  0
SPLINE
  5
F8
330
1F
100
AcDbEntity
  8
0
  6
Continuous
 62
     7
370
     0
100
AcDbSpline
210
0.0
220
0.0
230
1.0
 70
     8
 71
     3
 72
    31
 73
    27
 74
     0
 42
0.00000001
 43
0.00000001
 40
0.0
 40
0.0
 40
0.0
 40
0.0
 40
0.0631144583947934
 40
0.1236146457694899
 40
0.1809737111859575
 40
0.2352614550083221
 40
0.2871007018338719
 40
0.3360307363034435
 40
0.3823823485850661
 40
0.4263340836597072
 40
0.4682106947981602
 40
0.5082496012618051
 40
0.546628336606585
 40
0.5836495392304462
 40
0.6189943150301618
 40
0.653583018620596
 40
0.6871561361903314
 40
0.7204221919788074
 40
0.7532302188118172
 40
0.7862601560778999
 40
0.8195039834988841
 40
0.8535452747120185
 40
0.8883082803397299
 40
0.9239958607406952
 40
0.961350304754645
 40
1.0
 40
1.0
 40
1.0
 40
1.0
 10
226.441048728357
 20
105.0797289184376
 30
0.0
 10
226.4413141213453
 20
105.1090918236398
 30
0.0
 10
226.4418339144495
 20
105.166601389873
 30
0.0
 10
226.4450580222148
 20
105.2507482165192
 30
0.0
 10
226.4506870531197
 20
105.3306589735586
 30
0.0
 10
226.4590896466223
 20
105.4062642622325
 30
0.0
 10
226.4690398915648
 20
105.4777347385349
 30
0.0
 10
226.4819752727635
 20
105.5449684067253
 30
0.0
 10
226.4965294571073
 20
105.6081161163698
 30
0.0
 10
226.5139918665306
 20
105.6671120462108
 30
0.0
 10
226.5331773378761
 20
105.722463453851
 30
0.0
 10
226.5549438671942
 20
105.7740815431363
 30
0.0
 10
226.5794341653883
 20
105.8219115867425
 30
0.0
 10
226.6054446865242
 20
105.8664496090481
 30
0.0
 10
226.6343446777575
 20
105.9070028605073
 30
0.0
 10
226.6643897935666
 20
105.9447094313705
 30
0.0
 10
226.697763533577
 20
105.9781864745562
 30
0.0
 10
226.7330781460875
 20
106.0082953574194
 30
0.0
 10
226.7708536479232
 20
106.0348646918921
 30
0.0
 10
226.8108901691757
 20
106.0577908228255
 30
0.0
 10
226.8530336602026
 20
106.0780329433758
 30
0.0
 10
226.8980873293375
 20
106.0932712064379
 30
0.0
 10
226.9451158710683
 20
106.1056936212003
 30
0.0
 10
226.9944812867209
 20
106.1148317001214
 30
0.0
 10
227.0462379762221
 20
106.1202189060386
 30
0.0
 10
227.0816063982088
 20
106.1207701284046
 30
0.0
 10
227.0995919808944
 20
106.1210504365124
 30
0.0
  0
SPLINE
  5
F9
330
1F
100
AcDbEntity
  8
0
  6
Continuous
 62
     7
370
     0
100
AcDbSpline
210
0.0
220
0.0
230
1.0
 70
     8
 71
     3
 72
    15
 73
    11
 74
     0
 42
0.00000001
 43
0.00000001
 40
0.0
 40
0.0
 40
0.0
 40
0.0
 40
0.0974206681772145
 40
0.2008855880393207
 40
0.3111719701726506
 40
0.4297979458253727
 40
0.5577399263645875
 40
0.6947152693641585
 40
0.8421299102060552
 40
1.0
 40
1.0
 40
1.0
 40
1.0
 10
226.6406696517823
 20
104.2380283237883
 30
0.0
 10
226.6243858948637
 20
104.2615178820363
 30
0.0
 10
226.5908080910434
 20
104.3099543566542
 30
0.0
 10
226.551508183034
 20
104.392543038937
 30
0.0
 10
226.5164519692939
 20
104.4834615824366
 30
0.0
 10
226.488939268882
 20
104.5844937981985
 30
0.0
 10
226.4673899661129
 20
104.694835583997
 30
0.0
 10
226.4518259893167
 20
104.8147034539199
 30
0.0
 10
226.4430183107079
 20
104.9440456210931
 30
0.0
 10
226.4417200765301
 20
105.0334801623188
 30
0.0
 10
226.441048728357
 20
105.0797289184376
 30
0.0
  0
SPLINE
  5
FA
330
1F
100
AcDbEntity
  8
0
  6
Continuous
 62
     7
370
     0
100
AcDbSpline
210
0.0
220
0.0
230
1.0
 70
     8
 71
     3
 72
    15
 73
    11
 74
     0
 42
0.00000001
 43
0.00000001
 40
0.0
 40
0.0
 40
0.0
 40
0.0
 40
0.1379032299933934
 40
0.2688733426002937
 40
0.3951781273461133
 40
0.5170892381308875
 40
0.6367430265135479
 40
0.756221816463797
 40
0.8766283594636795
 40
1.0
 40
1.0
 40
1.0
 40
1.0
 10
227.0995919808944
 20
104.0400537584942
 30
0.0
 10
227.0758311989566
 20
104.0407315360554
 30
0.0
 10
227.0295042139927
 20
104.0420530157511
 30
0.0
 10
226.9618470684071
 20
104.0510316563135
 30
0.0
 10
226.8983472284838
 20
104.0668344852663
 30
0.0
 10
226.8384691094375
 20
104.0880283071909
 30
0.0
 10
226.7828857576982
 20
104.1163762644716
 30
0.0
 10
226.7313317848631
 20
104.1508670900015
 30
0.0
 10
226.682771251014
 20
104.1906983182956
 30
0.0
 10
226.6548168555282
 20
104.2221242431069
 30
0.0
 10
226.6406696517823
 20
104.2380283237883
 30
0.0
  0
SPLINE
  5
FB
330
1F
100
AcDbEntity
  8
0
  6
Continuous
 62
     7
370
     0
100
AcDbSpline
210
0.0
220
0.0
230
1.0
 70
     8
 71
     3
 72
    15
 73
    11
 74
     0
 42
0.00000001
 43
0.00000001
 40
0.0
 40
0.0
 40
0.0
 40
0.0
 40
0.1426572507006138
 40
0.2811689939054436
 40
0.416977192367974
 40
0.5508524927475579
 40
0.678364170261812
 40
0.7950324430070947
 40
0.9019981783473519
 40
1.0
 40
1.0
 40
1.0
 40
1.0
 10
223.4644332268879
 20
105.6073866995332
 30
0.0
 10
223.4973496228071
 20
105.6243387093317
 30
0.0
 10
223.5622258900711
 20
105.6577501168578
 30
0.0
 10
223.6538820269326
 20
105.7154562107254
 30
0.0
 10
223.7394528902622
 20
105.7780119919925
 30
0.0
 10
223.8175219434942
 20
105.8454036107925
 30
0.0
 10
223.8875058750538
 20
105.9142899428158
 30
0.0
 10
223.9464823504692
 20
105.9837989576463
 30
0.0
 10
223.995830112189
 20
106.0513827550603
 30
0.0
 10
224.0205888190922
 20
106.0985149587584
 30
0.0
 10
224.0324267822014
 20
106.1210504365124
 30
0.0
  0
LINE
  5
FC
330
1F
100
AcDbEntity
  8
0
  6
Continuous
 62
     7
370
     0
100
AcDbLine
 10
223.4644332269
 20
105.3645488752
 30
0.0
 11
223.4644332269
 21
105.6073866995
 31
0.0
  0
SPLINE
  5
FD
330
1F
100
AcDbEntity
  8
0
  6
Continuous
 62
     7
370
     0
100
AcDbSpline
210
0.0
220
0.0
230
1.0
 70
     8
 71
     3
 72
    15
 73
    11
 74
     0
 42
0.00000001
 43
0.00000001
 40
0.0
 40
0.0
 40
0.0
 40
0.0
 40
0.1116703001015866
 40
0.232094480856018
 40
0.3627434591045532
 40
0.5025575097108851
 40
0.6415251033312813
 40
0.7710984952996682
 40
0.8901617573732524
 40
1.0
 40
1.0
 40
1.0
 40
1.0
 10
223.9385843687149
 20
105.6674787713273
 30
0.0
 10
223.9234167772166
 20
105.6528514954273
 30
0.0
 10
223.8918926004981
 20
105.6224503054667
 30
0.0
 10
223.838604310015
 20
105.5794250302082
 30
0.0
 10
223.7791277676618
 20
105.5358170899589
 30
0.0
 10
223.7142353141864
 20
105.4938831802602
 30
0.0
 10
223.6480884355885
 20
105.4544069264839
 30
0.0
 10
223.5841659936006
 20
105.4189041053341
 30
0.0
 10
223.5235352006167
 20
105.3888601046499
 30
0.0
 10
223.483597369807
 20
105.3724319262172
 30
0.0
 10
223.4644332268879
 20
105.3645488751601
 30
0.0
  0
LINE
  5
FE
330
1F
100
AcDbEntity
  8
0
  6
Continuous
 62
     7
370
     0
100
AcDbLine
 10
223.9385843687
 20
104.0663954886
 30
0.0
 11
223.9385843687
 21
105.6674787713
 31
0.0
  0
LINE
  5
FF
330
1F
100
AcDbEntity
  8
0
  6
Continuous
 62
     7
370
     0
100
AcDbLine
 10
224.2020016697
 20
104.0663954886
 30
0.0
 11
223.9385843687
 21
104.0663954886
 31
0.0
  0
LINE
  5
100
330
1F
100
AcDbEntity
  8
0
  6
Continuous
 62
     7
370
     0
100
AcDbLine
 10
224.2020016697
 20
106.1210504365
 30
0.0
 11
224.2020016697
 21
104.0663954886
 31
0.0
  0
LINE
  5
101
330
1F
100
AcDbEntity
  8
0
  6
Continuous
 62
     7
370
     0
100
AcDbLine
 10
224.0324267822
 20
106.1210504365
 30
0.0
 11
224.2020016697
 21
106.1210504365
 31
0.0
  0
SPLINE
  5
102
330
1F
100
AcDbEntity
  8
0
  6
Continuous
 62
     7
370
     0
100
AcDbSpline
210
0.0
220
0.0
230
1.0
 70
     8
 71
     3
 72
    23
 73
    19
 74
     0
 42
0.00000001
 43
0.00000001
 40
0.0
 40
0.0
 40
0.0
 40
0.0
 40
0.0635999003471699
 40
0.1252966507935535
 40
0.1855687201945882
 40
0.2446982110006627
 40
0.303716806189989
 40
0.3629196509481438
 40
0.4233003138688771
 40
0.4851773095450755
 40
0.5470834132243567
 40
0.608524799634247
 40
0.6699648532447271
 40
0.7322993779782991
 40
0.7956502934901157
 40
0.8610554709467161
 40
0.929122115173219
 40
1.0
 40
1.0
 40
1.0
 40
1.0
 10
222.0683215315086
 20
104.6644350798062
 30
0.0
 10
222.0677980458587
 20
104.642862813906
 30
0.0
 10
222.066766739232
 20
104.6003638060055
 30
0.0
 10
222.0577053548081
 20
104.5379802498666
 30
0.0
 10
222.0439950790468
 20
104.4780523317698
 30
0.0
 10
222.0240039141966
 20
104.4208332094245
 30
0.0
 10
221.99847022985
 20
104.3662824340547
 30
0.0
 10
221.9668847536176
 20
104.3144792193472
 30
0.0
 10
221.9295578233458
 20
104.2654768543172
 30
0.0
 10
221.8875905187795
 20
104.2191230241178
 30
0.0
 10
221.8406710973378
 20
104.1772211692247
 30
0.0
 10
221.78991297448
 20
104.140296389533
 30
0.0
 10
221.7351256992144
 20
104.1093671786078
 30
0.0
 10
221.6769740285448
 20
104.0837579031578
 30
0.0
 10
221.6151795122457
 20
104.0639108096257
 30
0.0
 10
221.5498215828743
 20
104.050013636034
 30
0.0
 10
221.4809219893928
 20
104.0417384807395
 30
0.0
 10
221.433810581432
 20
104.0406228566523
 30
0.0
 10
221.4097782789713
 20
104.0400537584942
 30
0.0
  0
SPLINE
  5
103
330
1F
100
AcDbEntity
  8
0
  6
Continuous
 62
     7
370
     0
100
AcDbSpline
210
0.0
220
0.0
230
1.0
 70
     8
 71
     3
 72
    23
 73
    19
 74
     0
 42
0.00000001
 43
0.00000001
 40
0.0
 40
0.0
 40
0.0
 40
0.0
 40
0.0690130029109932
 40
0.1352355440560497
 40
0.1996111851157138
 40
0.2624185195032886
 40
0.3237234972102992
 40
0.3837653656042444
 40
0.4437730350956272
 40
0.5037949564977896
 40
0.5638225777168209
 40
0.6234843128834681
 40
0.6834691722744386
 40
0.7435907624559172
 40
0.8057272199738402
 40
0.8686162107352969
 40
0.933278202847215
 40
1.0
 40
1.0
 40
1.0
 40
1.0
 10
221.6847200869056
 20
105.1933276295003
 30
0.0
 10
221.7000590737364
 20
105.1881207702948
 30
0.0
 10
221.7301168330258
 20
105.1779175852748
 30
0.0
 10
221.7726095367676
 20
105.1580794491533
 30
0.0
 10
221.8126151401323
 20
105.1366892295217
 30
0.0
 10
221.8503592391318
 20
105.1135343037913
 30
0.0
 10
221.8844486060754
 20
105.0868926952964
 30
0.0
 10
221.916020562387
 20
105.058339611954
 30
0.0
 10
221.9449423656107
 20
105.0274726846737
 30
0.0
 10
221.9708189746208
 20
104.9940293869874
 30
0.0
 10
221.993921515825
 20
104.9587116365798
 30
0.0
 10
222.0136991249343
 20
104.9214333271775
 30
0.0
 10
222.0304958685421
 20
104.8827250667544
 30
0.0
 10
222.044850944051
 20
104.8424073577601
 30
0.0
 10
222.0553361919928
 20
104.8001962070784
 30
0.0
 10
222.0626725794859
 20
104.7562855972506
 30
0.0
 10
222.0673273105121
 20
104.710906952581
 30
0.0
 10
222.0679866787018
 20
104.6800867680027
 30
0.0
 10
222.0683215315086
 20
104.6644350798062
 30
0.0
  0
SPLINE
  5
104
330
1F
100
AcDbEntity
  8
0
  6
Continuous
 62
     7
370
     0
100
AcDbSpline
210
0.0
220
0.0
230
1.0
 70
     8
 71
     3
 72
    15
 73
    11
 74
     0
 42
0.00000001
 43
0.00000001
 40
0.0
 40
0.0
 40
0.0
 40
0.0
 40
0.1248350921668871
 40
0.2447781332833286
 40
0.3609889778410595
 40
0.4779641722472781
 40
0.5969221175582977
 40
0.7215907566966706
 40
0.8550978657574203
 40
1.0
 40
1.0
 40
1.0
 40
1.0
 10
221.9892963412042
 20
105.5962737821467
 30
0.0
 10
221.9885435179717
 20
105.5736869800977
 30
0.0
 10
221.9870673732247
 20
105.5293985100337
 30
0.0
 10
221.9720247980989
 20
105.465556312307
 30
0.0
 10
221.948579658031
 20
105.4059564209448
 30
0.0
 10
221.9146943559487
 20
105.3517347062802
 30
0.0
 10
221.8717798811191
 20
105.3023311794883
 30
0.0
 10
221.8185264404136
 20
105.2593841518868
 30
0.0
 10
221.7557427836965
 20
105.2219247390157
 30
0.0
 10
221.7090316005822
 20
105.2031165990904
 30
0.0
 10
221.6847200869056
 20
105.1933276295003
 30
0.0
  0
SPLINE
  5
105
330
1F
100
AcDbEntity
  8
0
  6
Continuous
 62
     7
370
     0
100
AcDbSpline
210
0.0
220
0.0
230
1.0
 70
     8
 71
     3
 72
    23
 73
    19
 74
     0
 42
0.00000001
 43
0.00000001
 40
0.0
 40
0.0
 40
0.0
 40
0.0
 40
0.0732007449685414
 40
0.1425867913224124
 40
0.2096247814680876
 40
0.274882926768208
 40
0.3379306095315751
 40
0.4004618221882003
 40
0.4625006206857345
 40
0.5250054581372535
 40
0.5866888527108447
 40
0.6468127657705337
 40
0.7052153157505644
 40
0.7628810210075593
 40
0.8207275416930105
 40
0.8792954957245831
 40
0.9385111654136069
 40
0.9999999999999999
 40
0.9999999999999999
 40
0.9999999999999999
 40
0.9999999999999999
 10
221.4064855627086
 20
106.1210504365124
 30
0.0
 10
221.4279075291832
 20
106.1205677190908
 30
0.0
 10
221.4696351026492
 20
106.1196274400227
 30
0.0
 10
221.5306579762741
 20
106.1125476354909
 30
0.0
 10
221.5885439520892
 20
106.1006814420402
 30
0.0
 10
221.6432589498723
 20
106.0838463008414
 30
0.0
 10
221.6948892296599
 20
106.0623215591374
 30
0.0
 10
221.7430955293019
 20
106.0358648260487
 30
0.0
 10
221.7883741033883
 20
106.0049124572918
 30
0.0
 10
221.8295676471601
 20
105.9690953348614
 30
0.0
 10
221.8670488618736
 20
105.9302095874877
 30
0.0
 10
221.8995227940926
 20
105.8885497901108
 30
0.0
 10
221.9273746521698
 20
105.8450880459254
 30
0.0
 10
221.9503900282053
 20
105.799560314829
 30
0.0
 10
221.9674168904182
 20
105.7514481578697
 30
0.0
 10
221.9803951814637
 20
105.7016580303599
 30
0.0
 10
221.987923191885
 20
105.6495983285409
 30
0.0
 10
221.9888329139907
 20
105.6142704017438
 30
0.0
 10
221.9892963412042
 20
105.5962737821467
 30
0.0
  0
SPLINE
  5
106
330
1F
100
AcDbEntity
  8
0
  6
Continuous
 62
     7
370
     0
100
AcDbSpline
210
0.0
220
0.0
230
1.0
 70
     8
 71
     3
 72
    23
 73
    19
 74
     0
 42
0.00000001
 43
0.00000001
 40
0.0
 40
0.0
 40
0.0
 40
0.0
 40
0.0621313717366117
 40
0.1219658247853497
 40
0.1805702366487598
 40
0.2385759705888209
 40
0.2960002420906481
 40
0.3543589964435931
 40
0.4137812280524365
 40
0.4750979653520684
 40
0.5372798973856026
 40
0.5989179536770425
 40
0.6612351129787322
 40
0.7243219805737479
 40
0.7892171825086325
 40
0.8563966620881328
 40
0.9265077687361052
 40
1.0
 40
1.0
 40
1.0
 40
1.0
 10
220.8302602167383
 20
105.602859214672
 30
0.0
 10
220.8307122190559
 20
105.6208591427554
 30
0.0
 10
220.8315995137336
 20
105.6561935642143
 30
0.0
 10
220.8392659416756
 20
105.708040845709
 30
0.0
 10
220.8515448305504
 20
105.7577235126269
 30
0.0
 10
220.8689714467984
 20
105.8051013407061
 30
0.0
 10
220.8908041408198
 20
105.8505642928786
 30
0.0
 10
220.9183533187932
 20
105.893279467664
 30
0.0
 10
220.9500193877532
 20
105.9344540823522
 30
0.0
 10
220.9871146827882
 20
105.9724237336962
 30
0.0
 10
221.0279930566246
 20
106.0072002594197
 30
0.0
 10
221.0722707149139
 20
106.0381479517292
 30
0.0
 10
221.1202864708972
 20
106.0634556404063
 30
0.0
 10
221.1712397651472
 20
106.0846150007351
 30
0.0
 10
221.2253825365409
 20
106.1011805425987
 30
0.0
 10
221.2829055050765
 20
106.112462599478
 30
0.0
 10
221.3436058897065
 20
106.1196388246355
 30
0.0
 10
221.3851992348134
 20
106.1205725709028
 30
0.0
 10
221.4064855627086
 20
106.1210504365124
 30
0.0
  0
SPLINE
  5
107
330
1F
100
AcDbEntity
  8
0
  6
Continuous
 62
     7
370
     0
100
AcDbSpline
210
0.0
220
0.0
230
1.0
 70
     8
 71
     3
 72
    15
 73
    11
 74
     0
 42
0.00000001
 43
0.00000001
 40
0.0
 40
0.0
 40
0.0
 40
0.0
 40
0.1453591950554989
 40
0.2787017789350165
 40
0.4036022344180536
 40
0.5216687911804251
 40
0.6375206936077398
 40
0.7537041507630958
 40
0.8732127703640606
 40
1.0
 40
1.0
 40
1.0
 40
1.0
 10
221.1414219035623
 20
105.1933276295003
 30
0.0
 10
221.1164282531474
 20
105.2031052870906
 30
0.0
 10
221.0685071372521
 20
105.2218522990232
 30
0.0
 10
221.0038739065624
 20
105.259370346828
 30
0.0
 10
220.9491722080524
 20
105.3025299199858
 30
0.0
 10
220.9050737062703
 20
105.3523717833712
 30
0.0
 10
220.8714626306077
 20
105.4078655693755
 30
0.0
 10
220.8472613272941
 20
105.4683037342586
 30
0.0
 10
220.8330861994854
 20
105.5340229855577
 30
0.0
 10
220.8312205886871
 20
105.5794661548357
 30
0.0
 10
220.8302602167383
 20
105.602859214672
 30
0.0
  0
SPLINE
  5
108
330
1F
100
AcDbEntity
  8
0
  6
Continuous
 62
     7
370
     0
100
AcDbSpline
210
0.0
220
0.0
230
1.0
 70
     8
 71
     3
 72
    23
 73
    19
 74
     0
 42
0.00000001
 43
0.00000001
 40
0.0
 40
0.0
 40
0.0
 40
0.0
 40
0.0698340680322546
 40
0.1370265239564767
 40
0.2014822968650622
 40
0.2645399492437557
 40
0.3259725932884495
 40
0.3863863095292152
 40
0.4457607667910172
 40
0.5056119070745054
 40
0.5651144217391008
 40
0.6247503916637622
 40
0.6841789512645825
 40
0.7442191416569944
 40
0.8051791454666236
 40
0.8683948608225696
 40
0.9332039334133245
 40
1.0
 40
1.0
 40
1.0
 40
1.0
 10
220.7512350264339
 20
104.6714321018645
 30
0.0
 10
220.75159233754
 20
104.6879026499796
 30
0.0
 10
220.7522934437511
 20
104.7202207150654
 30
0.0
 10
220.7565762640445
 20
104.76762252233
 30
0.0
 10
220.7651118426212
 20
104.8128014270589
 30
0.0
 10
220.7761062114827
 20
104.8560236682613
 30
0.0
 10
220.7900656198663
 20
104.8973973763066
 30
0.0
 10
220.8072872071362
 20
104.9365976432517
 30
0.0
 10
220.8281814293614
 20
104.9735297262677
 30
0.0
 10
220.8519186358864
 20
105.0084339408727
 30
0.0
 10
220.8787983630687
 20
105.0410652465645
 30
0.0
 10
220.9083849527324
 20
105.071137884028
 30
0.0
 10
220.9407858768714
 20
105.098309797204
 30
0.0
 10
220.9752730291707
 20
105.1233745958298
 30
0.0
 10
221.0132919874544
 20
105.1445592682193
 30
0.0
 10
221.0534288387219
 20
105.1640001523275
 30
0.0
 10
221.0963736417922
 20
105.18057962174
 30
0.0
 10
221.1262554297437
 20
105.1890357363542
 30
0.0
 10
221.1414219035623
 20
105.1933276295003
 30
0.0
  0
SPLINE
  5
109
330
1F
100
AcDbEntity
  8
0
  6
Continuous
 62
     7
370
     0
100
AcDbSpline
210
0.0
220
0.0
230
1.0
 70
     8
 71
     3
 72
    23
 73
    19
 74
     0
 42
0.00000001
 43
0.00000001
 40
0.0
 40
0.0
 40
0.0
 40
0.0
 40
0.0704416310595481
 40
0.1380893247200281
 40
0.2031777335235315
 40
0.2661387238052539
 40
0.3279287813674604
 40
0.3891903607612971
 40
0.4502535751031184
 40
0.5123465781279282
 40
0.5738427205586503
 40
0.6339325568070916
 40
0.6934598075975581
 40
0.7524794354833053
 40
0.8123859308429278
 40
0.8730704652319968
 40
0.9351843065837712
 40
1.0
 40
1.0
 40
1.0
 40
1.0
 10
221.4097782789713
 20
104.0400537584942
 30
0.0
 10
221.3857483803248
 20
104.0406351213709
 30
0.0
 10
221.3386416846497
 20
104.0417747884377
 30
0.0
 10
221.269679140943
 20
104.049880770883
 30
0.0
 10
221.2044147225318
 20
104.0644079405019
 30
0.0
 10
221.1427005539693
 20
104.0842752083009
 30
0.0
 10
221.0842018568611
 20
104.109191109618
 30
0.0
 10
221.0297825304703
 20
104.1408172342746
 30
0.0
 10
220.9786928563955
 20
104.1776952328584
 30
0.0
 10
220.9317408106069
 20
104.2198562626816
 30
0.0
 10
220.889424905019
 20
104.2662051483838
 30
0.0
 10
220.8525900261129
 20
104.3159312025363
 30
0.0
 10
220.821192056153
 20
104.3682691566855
 30
0.0
 10
220.795352208232
 20
104.4235140525467
 30
0.0
 10
220.7756563518693
 20
104.4816663934718
 30
0.0
 10
220.7618335662582
 20
104.542507854867
 30
0.0
 10
220.7527557805976
 20
104.6059919446341
 30
0.0
 10
220.7517490873916
 20
104.6493113471092
 30
0.0
 10
220.7512350264339
 20
104.6714321018645
 30
0.0
  0
SPLINE
  5
10A
330
1F
100
AcDbEntity
  8
0
  6
Continuous
 62
     7
370
     0
100
AcDbSpline
210
0.0
220
0.0
230
1.0
 70
     8
 71
     3
 72
    15
 73
    11
 74
     0
 42
0.00000001
 43
0.00000001
 40
0.0
 40
0.0
 40
0.0
 40
0.0
 40
0.1324616222426385
 40
0.26164950103549
 40
0.3875466984163659
 40
0.5107816292933464
 40
0.6326753605997106
 40
0.7546603541381373
 40
0.8765227798028644
 40
1.0
 40
1.0
 40
1.0
 40
1.0
 10
218.9073139193292
 20
104.7710367688107
 30
0.0
 10
218.9068475136699
 20
104.7482427162238
 30
0.0
 10
218.9059262294069
 20
104.7032179582224
 30
0.0
 10
218.8983761143278
 20
104.6368656538929
 30
0.0
 10
218.885939094089
 20
104.5729299860427
 30
0.0
 10
218.8692893558315
 20
104.5112216214957
 30
0.0
 10
218.8467933250636
 20
104.4520910160264
 30
0.0
 10
218.8195077453711
 20
104.395347172984
 30
0.0
 10
218.7880322987362
 20
104.3403979895814
 30
0.0
 10
218.7627906239401
 20
104.3065249893906
 30
0.0
 10
218.7500867177859
 20
104.2894770153928
 30
0.0
  0
SPLINE
  5
10B
330
1F
100
AcDbEntity
  8
0
  6
Continuous
 62
     7
370
     0
100
AcDbSpline
210
0.0
220
0.0
230
1.0
 70
     8
 71
     3
 72
    23
 73
    19
 74
     0
 42
0.00000001
 43
0.00000001
 40
0.0
 40
0.0
 40
0.0
 40
0.0
 40
0.0619974190757221
 40
0.1220879540822937
 40
0.1813753107870036
 40
0.2395080083953663
 40
0.2978356978967516
 40
0.3568799706531185
 40
0.4172818251154289
 40
0.4796404090798165
 40
0.5425000674783568
 40
0.6049624196481908
 40
0.6669910330782646
 40
0.7302162430101637
 40
0.794172863251256
 40
0.8604581431502615
 40
0.9285781799847829
 40
1.0
 40
1.0
 40
1.0
 40
1.0
 10
218.3043352537246
 20
105.4361654538735
 30
0.0
 10
218.3250804737936
 20
105.435621912651
 30
0.0
 10
218.3659328433434
 20
105.4345515481615
 30
0.0
 10
218.4261302244216
 20
105.4257571561569
 30
0.0
 10
218.4836890470222
 20
105.4108280927226
 30
0.0
 10
218.5390607977353
 20
105.3907208208035
 30
0.0
 10
218.5915153354074
 20
105.364065197022
 30
0.0
 10
218.6415839867759
 20
105.3317908966198
 30
0.0
 10
218.6890646073725
 20
105.2936318915697
 30
0.0
 10
218.7336887755884
 20
105.2503081635476
 30
0.0
 10
218.7741646708378
 20
105.2022142708878
 30
0.0
 10
218.8103919181269
 20
105.1509187300961
 30
0.0
 10
218.8399803548798
 20
105.0953947455965
 30
0.0
 10
218.8648662609413
 20
105.0370920581124
 30
0.0
 10
218.8836357441488
 20
104.9750536078538
 30
0.0
 10
218.8978824370068
 20
104.9101598471347
 30
0.0
 10
218.9054996707109
 20
104.8415994557985
 30
0.0
 10
218.9066997048814
 20
104.7949257889716
 30
0.0
 10
218.9073139193292
 20
104.7710367688107
 30
0.0
  0
SPLINE
  5
10C
330
1F
100
AcDbEntity
  8
0
  6
Continuous
 62
     7
370
     0
100
AcDbSpline
210
0.0
220
0.0
230
1.0
 70
     8
 71
     3
 72
    15
 73
    11
 74
     0
 42
0.00000001
 43
0.00000001
 40
0.0
 40
0.0
 40
0.0
 40
0.0
 40
0.1367294018595733
 40
0.2685149167908308
 40
0.3955294046848096
 40
0.5199999535658124
 40
0.640496476841269
 40
0.7612361017625323
 40
0.8801067171759528
 40
1.0
 40
1.0
 40
1.0
 40
1.0
 10
217.9380205695007
 20
105.2991061394392
 30
0.0
 10
217.952555230721
 20
105.3100131529425
 30
0.0
 10
217.9810990062009
 20
105.3314328021435
 30
0.0
 10
218.0256221796492
 20
105.3594790093792
 30
0.0
 10
218.0707819877641
 20
105.3831200919334
 30
0.0
 10
218.116315543802
 20
105.402480150557
 30
0.0
 10
218.1625845404022
 20
105.4175616021682
 30
0.0
 10
218.2093097690208
 20
105.4280394983367
 30
0.0
 10
218.256650321209
 20
105.4351210771047
 30
0.0
 10
218.2883949536207
 20
105.435816335646
 30
0.0
 10
218.3043352537246
 20
105.4361654538735
 30
0.0
  0
LINE
  5
10D
330
1F
100
AcDbEntity
  8
0
  6
Continuous
 62
     7
370
     0
100
AcDbLine
 10
218.0425643108
 20
105.8312914054
 30
0.0
 11
217.9380205695
 21
105.2991061394
 31
0.0
  0
LINE
  5
10E
330
1F
100
AcDbEntity
  8
0
  6
Continuous
 62
     7
370
     0
100
AcDbLine
 10
218.8019469989
 20
105.8312914054
 30
0.0
 11
218.0425643108
 21
105.8312914054
 31
0.0
  0
LINE
  5
10F
330
1F
100
AcDbEntity
  8
0
  6
Continuous
 62
     7
370
     0
100
AcDbLine
 10
218.8019469989
 20
106.0947087064
 30
0.0
 11
218.8019469989
 21
105.8312914054
 31
0.0
  0
LINE
  5
110
330
1F
100
AcDbEntity
  8
0
  6
Continuous
 62
     7
370
     0
100
AcDbLine
 10
217.8273029852
 20
106.0947087064
 30
0.0
 11
218.8019469989
 21
106.0947087064
 31
0.0
  0
LINE
  5
111
330
1F
100
AcDbEntity
  8
0
  6
Continuous
 62
     7
370
     0
100
AcDbLine
 10
217.6165691444
 20
105.0410395024
 30
0.0
 11
217.8273029852
 21
106.0947087064
 31
0.0
  0
LINE
  5
112
330
1F
100
AcDbEntity
  8
0
  6
Continuous
 62
     7
370
     0
100
AcDbLine
 10
217.8799864454
 20
105.0146977722
 30
0.0
 11
217.6165691444
 21
105.0410395024
 31
0.0
  0
SPLINE
  5
113
330
1F
100
AcDbEntity
  8
0
  6
Continuous
 62
     7
370
     0
100
AcDbSpline
210
0.0
220
0.0
230
1.0
 70
     8
 71
     3
 72
    15
 73
    11
 74
     0
 42
0.00000001
 43
0.00000001
 40
0.0
 40
0.0
 40
0.0
 40
0.0
 40
0.1478596367312514
 40
0.283561321939547
 40
0.4123693961385312
 40
0.5342363558879457
 40
0.6526916293119823
 40
0.7686630594981229
 40
0.8836524018604046
 40
1.0
 40
1.0
 40
1.0
 40
1.0
 10
218.2314839064127
 20
105.1990898829601
 30
0.0
 10
218.2109991375472
 20
105.198490663431
 30
0.0
 10
218.17171398666
 20
105.1973414959806
 30
0.0
 10
218.1152652647294
 20
105.187673962272
 30
0.0
 10
218.0638779494294
 20
105.172057293092
 30
0.0
 10
218.0181338461477
 20
105.1487825476084
 30
0.0
 10
217.977263750272
 20
105.120977041119
 30
0.0
 10
217.9404186075505
 20
105.089513849114
 30
0.0
 10
217.9072945923606
 20
105.0544142434879
 30
0.0
 10
217.8891247214768
 20
105.0279883144555
 30
0.0
 10
217.8799864453708
 20
105.0146977722496
 30
0.0
  0
SPLINE
  5
114
330
1F
100
AcDbEntity
  8
0
  6
Continuous
 62
     7
370
     0
100
AcDbSpline
210
0.0
220
0.0
230
1.0
 70
     8
 71
     3
 72
    23
 73
    19
 74
     0
 42
0.00000001
 43
0.00000001
 40
0.0
 40
0.0
 40
0.0
 40
0.0
 40
0.0728659334565351
 40
0.1418868719641256
 40
0.2074526264147115
 40
0.2704376800000974
 40
0.3316408722476697
 40
0.3901075774931577
 40
0.4480692869488358
 40
0.505502951924537
 40
0.5624881528337238
 40
0.6190843288847293
 40
0.6764155306922391
 40
0.7354523604507931
 40
0.7962407694486783
 40
0.8604056780892032
 40
0.9283049272851064
 40
1.0
 40
1.0
 40
1.0
 40
1.0
 10
218.6438966183142
 20
104.755396366563
 30
0.0
 10
218.6435942277243
 20
104.772145974917
 30
0.0
 10
218.6430054031133
 20
104.8047613470564
 30
0.0
 10
218.6380465392371
 20
104.8522547517571
 30
0.0
 10
218.6296803520767
 20
104.8969129250202
 30
0.0
 10
218.6188552892407
 20
104.9392280778628
 30
0.0
 10
218.6039343054846
 20
104.9785389839071
 30
0.0
 10
218.5862371785795
 20
105.0154156128557
 30
0.0
 10
218.5645574543373
 20
105.0490753340751
 30
0.0
 10
218.5404373305265
 20
105.0805661893863
 30
0.0
 10
218.5128891039775
 20
105.1087964722713
 30
0.0
 10
218.4815406027787
 20
105.1326333705391
 30
0.0
 10
218.4476216101229
 20
105.153495470432
 30
0.0
 10
218.41044896275
 20
105.1704133319925
 30
0.0
 10
218.3700007716019
 20
105.1829826674076
 30
0.0
 10
218.3266789802424
 20
105.1926536400055
 30
0.0
 10
218.2800340609156
 20
105.1977401755876
 30
0.0
 10
218.2479580264865
 20
105.1986318979846
 30
0.0
 10
218.2314839064127
 20
105.1990898829601
 30
0.0
  0
SPLINE
  5
115
330
1F
100
AcDbEntity
  8
0
  6
Continuous
 62
     7
370
     0
100
AcDbSpline
210
0.0
220
0.0
230
1.0
 70
     8
 71
     3
 72
    23
 73
    19
 74
     0
 42
0.00000001
 43
0.00000001
 40
0.0
 40
0.0
 40
0.0
 40
0.0
 40
0.0658010376094729
 40
0.1286767959489733
 40
0.1886758749524341
 40
0.2475984367338953
 40
0.304849420118827
 40
0.3617858992828986
 40
0.4195227063685901
 40
0.4786818154207406
 40
0.5387695030440189
 40
0.5987990560131542
 40
0.6601842815006784
 40
0.722951530610966
 40
0.7879926891048739
 40
0.8554037684344735
 40
0.9261530612840038
 40
1.0
 40
1.0
 40
1.0
 40
1.0
 10
218.2302491378142
 20
104.2771293294077
 30
0.0
 10
218.2459104169066
 20
104.2775077513727
 30
0.0
 10
218.2765367305223
 20
104.2782477720129
 30
0.0
 10
218.3210922153062
 20
104.2845065692705
 30
0.0
 10
218.3631784791758
 20
104.2948266008523
 30
0.0
 10
218.4025941457599
 20
104.3092687184124
 30
0.0
 10
218.4398012873309
 20
104.3272292004623
 30
0.0
 10
218.4735655796462
 20
104.3504847530166
 30
0.0
 10
218.505728038008
 20
104.3766262919942
 30
0.0
 10
218.5342190009343
 20
104.4077920235864
 30
0.0
 10
218.5601537819588
 20
104.4417211282783
 30
0.0
 10
218.5825374477521
 20
104.4787561893253
 30
0.0
 10
218.6013813318484
 20
104.5183773903372
 30
0.0
 10
218.617245822616
 20
104.5605771351989
 30
0.0
 10
218.6289605913308
 20
104.6055964964088
 30
0.0
 10
218.6375777499783
 20
104.6531959795502
 30
0.0
 10
218.6431096218417
 20
104.7034059055391
 30
0.0
 10
218.6436305661406
 20
104.7378204616533
 30
0.0
 10
218.6438966183142
 20
104.755396366563
 30
0.0
  0
SPLINE
  5
116
330
1F
100
AcDbEntity
  8
0
  6
Continuous
 62
     7
370
     0
100
AcDbSpline
210
0.0
220
0.0
230
1.0
 70
     8
 71
     3
 72
    23
 73
    19
 74
     0
 42
0.00000001
 43
0.00000001
 40
0.0
 40
0.0
 40
0.0
 40
0.0
 40
0.0773613371189763
 40
0.1504798322806808
 40
0.2199772368520745
 40
0.2866809968624412
 40
0.3496784941856625
 40
0.4106796250174853
 40
0.4694271135192907
 40
0.5267557014271297
 40
0.5831419808348373
 40
0.638824427778626
 40
0.6952634704038125
 40
0.7526958048985354
 40
0.810849183334895
 40
0.8713563036360844
 40
0.9344364309841281
 40
1.0
 40
1.0
 40
1.0
 40
1.0
 10
217.8536447152693
 20
104.6459135508286
 30
0.0
 10
217.8562529600994
 20
104.6310714316084
 30
0.0
 10
217.8613264019399
 20
104.6022012014117
 30
0.0
 10
217.8709944060911
 20
104.5604106868876
 30
0.0
 10
217.8835503914214
 20
104.5215861307976
 30
0.0
 10
217.8976584232737
 20
104.4853912903106
 30
0.0
 10
217.9144281992086
 20
104.4522088805446
 30
0.0
 10
217.9325983903707
 20
104.4215149686073
 30
0.0
 10
217.9540264174069
 20
104.3943990926889
 30
0.0
 10
217.9765551107732
 20
104.3694430669044
 30
0.0
 10
218.0012820731661
 20
104.347452394663
 30
0.0
 10
218.0284459012592
 20
104.3289134993255
 30
0.0
 10
218.0572887064411
 20
104.3127394357472
 30
0.0
 10
218.088161783206
 20
104.2994968310553
 30
0.0
 10
218.12111244814
 20
104.2898039418407
 30
0.0
 10
218.1557213273383
 20
104.2821385304683
 30
0.0
 10
218.1924340727355
 20
104.2782759658304
 30
0.0
 10
218.2174829283509
 20
104.2775164291184
 30
0.0
 10
218.2302491378142
 20
104.2771293294077
 30
0.0
  0
LINE
  5
117
330
1F
100
AcDbEntity
  8
0
  6
Continuous
 62
     7
370
     0
100
AcDbLine
 10
217.5902274143
 20
104.6195718207
 30
0.0
 11
217.8536447153
 21
104.6459135508
 31
0.0
  0
SPLINE
  5
118
330
1F
100
AcDbEntity
  8
0
  6
Continuous
 62
     7
370
     0
100
AcDbSpline
210
0.0
220
0.0
230
1.0
 70
     8
 71
     3
 72
    23
 73
    19
 74
     0
 42
0.00000001
 43
0.00000001
 40
0.0
 40
0.0
 40
0.0
 40
0.0
 40
0.0692980234597528
 40
0.135560844101282
 40
0.1996709556470567
 40
0.2617162384956084
 40
0.3226619299471026
 40
0.3829069237782244
 40
0.4430320330728902
 40
0.503500787350163
 40
0.5637242810171083
 40
0.6239800220534739
 40
0.6836293869955233
 40
0.7438482724857305
 40
0.80519184622951
 40
0.8676487429597676
 40
0.9327780842312613
 40
1.0
 40
1.0
 40
1.0
 40
1.0
 10
218.2286027796828
 20
104.0400537584942
 30
0.0
 10
218.2064917667808
 20
104.0405022767866
 30
0.0
 10
218.1632381871939
 20
104.0413796685977
 30
0.0
 10
218.0999072508786
 20
104.0490072974294
 30
0.0
 10
218.0396720414749
 20
104.0611706758216
 30
0.0
 10
217.982513688277
 20
104.0786167257912
 30
0.0
 10
217.9282599885045
 20
104.100661442601
 30
0.0
 10
217.8775415707693
 20
104.1286657919884
 30
0.0
 10
217.8294782715833
 20
104.1607010234507
 30
0.0
 10
217.7851273233497
 20
104.1977541365638
 30
0.0
 10
217.7447178349411
 20
104.239082602631
 30
0.0
 10
217.7085101126474
 20
104.2838107605278
 30
0.0
 10
217.6769941455998
 20
104.3319677762771
 30
0.0
 10
217.6501851449337
 20
104.3832654889734
 30
0.0
 10
217.6278410808434
 20
104.4376547026845
 30
0.0
 10
217.6107469883911
 20
104.495506644561
 30
0.0
 10
217.5972070446293
 20
104.5562536979492
 30
0.0
 10
217.5925783521012
 20
104.5982444776975
 30
0.0
 10
217.5902274142544
 20
104.6195718207271
 30
0.0
  0
SPLINE
  5
119
330
1F
100
AcDbEntity
  8
0
  6
Continuous
 62
     7
370
     0
100
AcDbSpline
210
0.0
220
0.0
230
1.0
 70
     8
 71
     3
 72
    15
 73
    11
 74
     0
 42
0.00000001
 43
0.00000001
 40
0.0
 40
0.0
 40
0.0
 40
0.0
 40
0.1278926194654212
 40
0.2515785135038573
 40
0.3727928197023035
 40
0.4927776986078535
 40
0.6135900692425712
 40
0.7378086492801463
 40
0.8661799015391671
 40
0.9999999999999999
 40
0.9999999999999999
 40
0.9999999999999999
 40
0.9999999999999999
 10
218.7500867177859
 20
104.2894770153928
 30
0.0
 10
218.7339467611971
 20
104.2695766644677
 30
0.0
 10
218.7021977337427
 20
104.2304305376243
 30
0.0
 10
218.6472246392741
 20
104.1796212079771
 30
0.0
 10
218.5881277833145
 20
104.1364402703793
 30
0.0
 10
218.5245554732959
 20
104.1013588879594
 30
0.0
 10
218.4569344907096
 20
104.073168026519
 30
0.0
 10
218.3844341303213
 20
104.054408066786
 30
0.0
 10
218.3079304342604
 20
104.0418100107339
 30
0.0
 10
218.2554091625998
 20
104.0406472308499
 30
0.0
 10
218.2286027796828
 20
104.0400537584942
 30
0.0
  0
SPLINE
  5
11A
330
1F
100
AcDbEntity
  8
0
  6
Continuous
 62
     7
370
     0
100
AcDbSpline
210
0.0
220
0.0
230
1.0
 70
     8
 71
     3
 72
    27
 73
    23
 74
     0
 42
0.00000001
 43
0.00000001
 40
0.0
 40
0.0
 40
0.0
 40
0.0
 40
0.0467628351215619
 40
0.091968696607212
 40
0.1358043853805056
 40
0.1782315801839235
 40
0.2194414332265379
 40
0.2601769432685921
 40
0.3002796061140319
 40
0.3405476414666171
 40
0.3803111902076692
 40
0.4196419535698123
 40
0.4590173240985177
 40
0.4981819588897615
 40
0.5376702145628715
 40
0.5779133315743612
 40
0.6186488416164155
 40
0.6607616027603175
 40
0.7452991770631804
 40
0.8297447416906314
 40
0.9146020866092538
 40
1.0
 40
1.0
 40
1.0
 40
1.0
 10
214.1238203687107
 20
105.9103165957004
 30
0.0
 10
214.1056947910151
 20
105.910053611571
 30
0.0
 10
214.070047128687
 20
105.9095363993972
 30
0.0
 10
214.0176764243708
 20
105.9038755695321
 30
0.0
 10
213.9673823328962
 20
105.8955377195285
 30
0.0
 10
213.9195396944067
 20
105.8830343966856
 30
0.0
 10
213.873886710568
 20
105.8674460045186
 30
0.0
 10
213.830694294202
 20
105.8480356981012
 30
0.0
 10
213.7895950313606
 20
105.8252845421551
 30
0.0
 10
213.7510476107558
 20
105.7990559132211
 30
0.0
 10
213.7153759886025
 20
105.7695698865516
 30
0.0
 10
213.681612140323
 20
105.7383985428784
 30
0.0
 10
213.6513771052306
 20
105.7040881219198
 30
0.0
 10
213.6235179308936
 20
105.6677699741504
 30
0.0
 10
213.5988458755067
 20
105.6288023315984
 30
0.0
 10
213.5766368926778
 20
105.5877159807288
 30
0.0
 10
213.5570325477385
 20
105.5441741866494
 30
0.0
 10
213.5356624805346
 20
105.4828924094312
 30
0.0
 10
213.5138728327826
 20
105.4039628976444
 30
0.0
 10
213.494970286487
 20
105.3073787577006
 30
0.0
 10
213.4829298101519
 20
105.2092729412323
 30
0.0
 10
213.481589700635
 20
105.1432851810723
 30
0.0
 10
213.4809175184211
 20
105.1101865438675
 30
0.0
  0
SPLINE
  5
11B
330
1F
100
AcDbEntity
  8
0
  6
Continuous
 62
     7
370
     0
100
AcDbSpline
210
0.0
220
0.0
230
1.0
 70
     8
 71
     3
 72
    23
 73
    19
 74
     0
 42
0.00000001
 43
0.00000001
 40
0.0
 40
0.0
 40
0.0
 40
0.0
 40
0.0772311103286299
 40
0.1511651795217243
 40
0.2207847057253997
 40
0.2871495176777684
 40
0.3506324812950841
 40
0.4113067715078916
 40
0.4699644151376497
 40
0.5267072266832779
 40
0.5824983333641278
 40
0.6385087274080254
 40
0.6949179812139084
 40
0.7524203526591543
 40
0.8112509754155086
 40
0.8718561089908092
 40
0.9346441878526878
 40
1.0
 40
1.0
 40
1.0
 40
1.0
 10
214.6399536428869
 20
105.4880257350108
 30
0.0
 10
214.6342632278109
 20
105.5057973885829
 30
0.0
 10
214.623125324797
 20
105.5405820134729
 30
0.0
 10
214.6033488884894
 20
105.5901562858195
 30
0.0
 10
214.5819909966576
 20
105.63617740736
 30
0.0
 10
214.5585428867651
 20
105.6783325472028
 30
0.0
 10
214.5329537418513
 20
105.7166318027517
 30
0.0
 10
214.5058128119447
 20
105.7515406445254
 30
0.0
 10
214.4764698275624
 20
105.7824074936482
 30
0.0
 10
214.4455216495278
 20
105.8099440629068
 30
0.0
 10
214.4121691050242
 20
105.8334025847668
 30
0.0
 10
214.3771941225326
 20
105.8541906956428
 30
0.0
 10
214.3398592549655
 20
105.8713896873797
 30
0.0
 10
214.3007015918924
 20
105.8859364813982
 30
0.0
 10
214.2593551307928
 20
105.8970081591008
 30
0.0
 10
214.2159882399674
 20
105.9047975211171
 30
0.0
 10
214.1705628162415
 20
105.9093056222309
 30
0.0
 10
214.1396079413545
 20
105.9099751326848
 30
0.0
 10
214.1238203687107
 20
105.9103165957004
 30
0.0
  0
LINE
  5
11C
330
1F
100
AcDbEntity
  8
0
  6
Continuous
 62
     7
370
     0
100
AcDbLine
 10
214.929712674
 20
105.5501757545
 30
0.0
 11
214.6399536429
 21
105.488025735
 31
0.0
  0
SPLINE
  5
11D
330
1F
100
AcDbEntity
  8
0
  6
Continuous
 62
     7
370
     0
100
AcDbSpline
210
0.0
220
0.0
230
1.0
 70
     8
 71
     3
 72
    23
 73
    19
 74
     0
 42
0.00000001
 43
0.00000001
 40
0.0
 40
0.0
 40
0.0
 40
0.0
 40
0.0686494919759957
 40
0.134937373785155
 40
0.1988418982006104
 40
0.2614093284183097
 40
0.3225167637069052
 40
0.3823768656987784
 40
0.4424709047536874
 40
0.5022278334792912
 40
0.5621014330908561
 40
0.62173160809488
 40
0.6818513124344153
 40
0.7420491672939588
 40
0.8039081304743815
 40
0.8671621602461707
 40
0.9323605979385298
 40
1.0
 40
1.0
 40
1.0
 40
1.0
 10
214.1378144128271
 20
106.1473921666139
 30
0.0
 10
214.1623903064365
 20
106.1469289231786
 30
0.0
 10
214.2106966586997
 20
106.1460183723385
 30
0.0
 10
214.2815776241214
 20
106.1385289120651
 30
0.0
 10
214.3494630823791
 20
106.1259848865193
 30
0.0
 10
214.4146471933794
 20
106.1095283112728
 30
0.0
 10
214.4764522501046
 20
106.0869958340995
 30
0.0
 10
214.5355492531404
 20
106.0602073084412
 30
0.0
 10
214.591350304335
 20
106.0280241398426
 30
0.0
 10
214.6442895834777
 20
105.9913307799807
 30
0.0
 10
214.6935053203864
 20
105.9500595577224
 30
0.0
 10
214.7396862370021
 20
105.9051964312762
 30
0.0
 10
214.7809493181441
 20
105.8556201497478
 30
0.0
 10
214.8189288326711
 20
105.8025305474889
 30
0.0
 10
214.8524298184073
 20
105.7451914528891
 30
0.0
 10
214.8826847427325
 20
105.6841028012853
 30
0.0
 10
214.9087030970924
 20
105.6188104683986
 30
0.0
 10
214.9226242124555
 20
105.5733325525615
 30
0.0
 10
214.9297126740033
 20
105.550175754469
 30
0.0
  0
SPLINE
  5
11E
330
1F
100
AcDbEntity
  8
0
  6
Continuous
 62
     7
370
     0
100
AcDbSpline
210
0.0
220
0.0
230
1.0
 70
     8
 71
     3
 72
    31
 73
    27
 74
     0
 42
0.00000001
 43
0.00000001
 40
0.0
 40
0.0
 40
0.0
 40
0.0
 40
0.0494014326173349
 40
0.0976047534771127
 40
0.1442547055445423
 40
0.1894721438466749
 40
0.2339150059350921
 40
0.2772371111508619
 40
0.3198588355644323
 40
0.3619566544332702
 40
0.4034857542265475
 40
0.4439336363338552
 40
0.4836491750513743
 40
0.5228932833172718
 40
0.5618583840947368
 40
0.6007948668981946
 40
0.6401043361891355
 40
0.6796434268265384
 40
0.7193997691904886
 40
0.7588541926680972
 40
0.7983154646830742
 40
0.8378024081343659
 40
0.8774685864444087
 40
0.9176827969423332
 40
0.9583928898538524
 40
0.9999999999999999
 40
0.9999999999999999
 40
0.9999999999999999
 40
0.9999999999999999
 10
213.1911584873046
 20
105.108951775269
 30
0.0
 10
213.1916233456788
 20
105.1350263110429
 30
0.0
 10
213.1925417884165
 20
105.1865430080577
 30
0.0
 10
213.1977263827746
 20
105.2625573898898
 30
0.0
 10
213.2072486033463
 20
105.3359205675447
 30
0.0
 10
213.2204721980252
 20
105.4066807977483
 30
0.0
 10
213.2372053354756
 20
105.4748953861207
 30
0.0
 10
213.2578605179523
 20
105.5405975665158
 30
0.0
 10
213.2821764582676
 20
105.603703273697
 30
0.0
 10
213.3100790253606
 20
105.6642820943517
 30
0.0
 10
213.3417535989307
 20
105.7216578090935
 30
0.0
 10
213.3762548225538
 20
105.7759119821484
 30
0.0
 10
213.414405682902
 20
105.8261537841289
 30
0.0
 10
213.4550750637144
 20
105.8733430984982
 30
0.0
 10
213.4992787100319
 20
105.9166941702079
 30
0.0
 10
213.5468816433478
 20
105.956305199587
 30
0.0
 10
213.5974731658181
 20
105.9925374894241
 30
0.0
 10
213.6510458929891
 20
106.0250546737448
 30
0.0
 10
213.7068995669323
 20
106.0535868016519
 30
0.0
 10
213.7642045808328
 20
106.0790006165984
 30
0.0
 10
213.8231888610935
 20
106.0998306925172
 30
0.0
 10
213.8833847636799
 20
106.1171500632898
 30
0.0
 10
213.9449218849078
 20
106.1309378913178
 30
0.0
 10
214.0079440129385
 20
106.1401578549215
 30
0.0
 10
214.0723929143041
 20
106.1461662975549
 30
0.0
 10
214.1158493970477
 20
106.1469805858058
 30
0.0
 10
214.1378144128271
 20
106.1473921666139
 30
0.0
  0
SPLINE
  5
11F
330
1F
100
AcDbEntity
  8
0
  6
Continuous
 62
     7
370
     0
100
AcDbSpline
210
0.0
220
0.0
230
1.0
 70
     8
 71
     3
 72
    31
 73
    27
 74
     0
 42
0.00000001
 43
0.00000001
 40
0.0
 40
0.0
 40
0.0
 40
0.0
 40
0.0491959188678573
 40
0.0962478839423339
 40
0.1413486305545651
 40
0.18465611934875
 40
0.226058682310063
 40
0.2661730836384071
 40
0.3052898413966903
 40
0.3432450951047079
 40
0.3808772760868657
 40
0.4184957931350257
 40
0.4563187508918002
 40
0.494236737091876
 40
0.533023528957667
 40
0.572473194333944
 40
0.613078809089891
 40
0.6549344546107934
 40
0.6973967795046183
 40
0.7398840686663997
 40
0.7821947798191174
 40
0.8250615348667028
 40
0.8679874655774052
 40
0.9114105439600777
 40
0.9553719455228146
 40
1.0
 40
1.0
 40
1.0
 40
1.0
 10
214.1435766662868
 20
104.0400537584942
 30
0.0
 10
214.1169492764494
 20
104.0404406066577
 30
0.0
 10
214.0648549160687
 20
104.0411974441757
 30
0.0
 10
213.9885396814901
 20
104.0473533594649
 30
0.0
 10
213.9159563996168
 20
104.0580298365343
 30
0.0
 10
213.8472406180755
 20
104.0728632734367
 30
0.0
 10
213.7821610477224
 20
104.0912038960259
 30
0.0
 10
213.7209875557972
 20
104.1142780244307
 30
0.0
 10
213.6638272897772
 20
104.1419191702871
 30
0.0
 10
213.6102034570905
 20
104.1733542967409
 30
0.0
 10
213.5603438164408
 20
104.2090660159478
 30
0.0
 10
213.5131145421859
 20
104.2480905656666
 30
0.0
 10
213.46966220407
 20
104.2915022486378
 30
0.0
 10
213.4289003292916
 20
104.3382760747676
 30
0.0
 10
213.3917167263098
 20
104.3890290558052
 30
0.0
 10
213.3567434022421
 20
104.443071691186
 30
0.0
 10
213.3256873848865
 20
104.5013562098707
 30
0.0
 10
213.2973977622345
 20
104.5628020153963
 30
0.0
 10
213.2725673557689
 20
104.6268142019729
 30
0.0
 10
213.2506011312498
 20
104.6921283520985
 30
0.0
 10
213.232642541841
 20
104.7588746112642
 30
0.0
 10
213.2171813552376
 20
104.8264913213046
 30
0.0
 10
213.2059495523344
 20
104.8955474303514
 30
0.0
 10
213.197031848575
 20
104.9655248062562
 30
0.0
 10
213.192128715758
 20
105.0368524708715
 30
0.0
 10
213.191483515209
 20
105.0847984063017
 30
0.0
 10
213.1911584873046
 20
105.108951775269
 30
0.0
  0
SPLINE
  5
120
330
1F
100
AcDbEntity
  8
0
  6
Continuous
 62
     7
370
     0
100
AcDbSpline
210
0.0
220
0.0
230
1.0
 70
     8
 71
     3
 72
    23
 73
    19
 74
     0
 42
0.00000001
 43
0.00000001
 40
0.0
 40
0.0
 40
0.0
 40
0.0
 40
0.0715783870982365
 40
0.140016209075356
 40
0.206197439946981
 40
0.2701561038056544
 40
0.332001040268831
 40
0.3927550109285566
 40
0.4525790344906382
 40
0.512252798847904
 40
0.5715322524285594
 40
0.6301517528722204
 40
0.6887691695485558
 40
0.7481639008503609
 40
0.8087033721996508
 40
0.8702562984804197
 40
0.9339000275070017
 40
1.0
 40
1.0
 40
1.0
 40
1.0
 10
214.9823961342063
 20
104.7241155620675
 30
0.0
 10
214.9751368616299
 20
104.6969572530171
 30
0.0
 10
214.9609368234898
 20
104.6438322297764
 30
0.0
 10
214.932861623179
 20
104.5678044409236
 30
0.0
 10
214.9013506539225
 20
104.4964556040685
 30
0.0
 10
214.8656393169182
 20
104.4299736647122
 30
0.0
 10
214.8253367548697
 20
104.3687408527196
 30
0.0
 10
214.7815108228504
 20
104.311970208334
 30
0.0
 10
214.7324256373932
 20
104.2608522656828
 30
0.0
 10
214.6798821925914
 20
104.2142072493341
 30
0.0
 10
214.6234713803738
 20
104.1730664693794
 30
0.0
 10
214.563873321862
 20
104.1375406511526
 30
0.0
 10
214.5013761012564
 20
104.1073153912633
 30
0.0
 10
214.4357271242741
 20
104.0824599934393
 30
0.0
 10
214.3668838301105
 20
104.0637541755348
 30
0.0
 10
214.2952006940076
 20
104.0501202795558
 30
0.0
 10
214.2204686926775
 20
104.041722593702
 30
0.0
 10
214.1695287980316
 20
104.0406170136613
 30
0.0
 10
214.1435766662868
 20
104.0400537584942
 30
0.0
  0
LINE
  5
121
330
1F
100
AcDbEntity
  8
0
  6
Continuous
 62
     7
370
     0
100
AcDbLine
 10
214.6926371031
 20
104.7916162455
 30
0.0
 11
214.9823961342
 21
104.7241155621
 31
0.0
  0
SPLINE
  5
122
330
1F
100
AcDbEntity
  8
0
  6
Continuous
 62
     7
370
     0
100
AcDbSpline
210
0.0
220
0.0
230
1.0
 70
     8
 71
     3
 72
    23
 73
    19
 74
     0
 42
0.00000001
 43
0.00000001
 40
0.0
 40
0.0
 40
0.0
 40
0.0
 40
0.0633358805656859
 40
0.1251107589802108
 40
0.1846884118917139
 40
0.2432104439678636
 40
0.3008880404131166
 40
0.3583701155312993
 40
0.4157614077031932
 40
0.4743866229897766
 40
0.5339662649724071
 40
0.5940075641988068
 40
0.6550724073076799
 40
0.7186100426051375
 40
0.7843747830517751
 40
0.8529914722129185
 40
0.9249004292977558
 40
0.9999999999999999
 40
0.9999999999999999
 40
0.9999999999999999
 40
0.9999999999999999
 10
214.1164117571197
 20
104.2771293294077
 30
0.0
 10
214.1342678626536
 20
104.2775038094995
 30
0.0
 10
214.1695399848034
 20
104.2782435400928
 30
0.0
 10
214.2212533945866
 20
104.2847184435843
 30
0.0
 10
214.2711044087071
 20
104.2942600608024
 30
0.0
 10
214.3184890890971
 20
104.3089837396663
 30
0.0
 10
214.3640448132749
 20
104.3270111593695
 30
0.0
 10
214.4073983301172
 20
104.3492421206784
 30
0.0
 10
214.4484132995291
 20
104.3759794786335
 30
0.0
 10
214.4875721477015
 20
104.4063372371381
 30
0.0
 10
214.5241527508746
 20
104.4408791785986
 30
0.0
 10
214.5576769071188
 20
104.4793270163659
 30
0.0
 10
214.5877518629661
 20
104.5218560285024
 30
0.0
 10
214.6156389152367
 20
104.5677836864473
 30
0.0
 10
214.6390691645159
 20
104.6184820189816
 30
0.0
 10
214.6607711076763
 20
104.6724399319828
 30
0.0
 10
214.6788547344279
 20
104.7305442716955
 30
0.0
 10
214.6879769849906
 20
104.7709664850778
 30
0.0
 10
214.6926371030899
 20
104.7916162454525
 30
0.0
  0
SPLINE
  5
123
330
1F
100
AcDbEntity
  8
0
  6
Continuous
 62
     7
370
     0
100
AcDbSpline
210
0.0
220
0.0
230
1.0
 70
     8
 71
     3
 72
    27
 73
    23
 74
     0
 42
0.00000001
 43
0.00000001
 40
0.0
 40
0.0
 40
0.0
 40
0.0
 40
0.1053432609984026
 40
0.2043754661654294
 40
0.2980686612490644
 40
0.3870699389029767
 40
0.429725727732517
 40
0.4709012389537418
 40
0.5111216710274202
 40
0.5501787824700682
 40
0.5883543698960263
 40
0.6266830105708967
 40
0.6644516852874771
 40
0.7025148539501567
 40
0.7404811716294022
 40
0.7776181215946409
 40
0.8147160450669567
 40
0.8515265100150812
 40
0.8880984508373161
 40
0.9251116757437154
 40
0.9621036957071506
 40
1.0
 40
1.0
 40
1.0
 40
1.0
 10
213.4809175184211
 20
105.1101865438675
 30
0.0
 10
213.4816756445575
 20
105.068570546639
 30
0.0
 10
213.4831464779178
 20
104.9878317432937
 30
0.0
 10
213.4976599880186
 20
104.870827880828
 30
0.0
 10
213.5197878243989
 20
104.761694771135
 30
0.0
 10
213.5464929349241
 20
104.676549200893
 30
0.0
 10
213.5732808439535
 20
104.6137442251432
 30
0.0
 10
213.5949455588113
 20
104.5697609948683
 30
0.0
 10
213.6196749665284
 20
104.529061047322
 30
0.0
 10
213.6468539566021
 20
104.4914132425485
 30
0.0
 10
213.6768326229515
 20
104.4569273980842
 30
0.0
 10
213.709193302062
 20
104.4254203226998
 30
0.0
 10
213.7439432224266
 20
104.3965888441529
 30
0.0
 10
213.7814941383368
 20
104.3717826163491
 30
0.0
 10
213.8204006678318
 20
104.3497568491225
 30
0.0
 10
213.8601718418577
 20
104.3301711162857
 30
0.0
 10
213.9008327007821
 20
104.3136063702996
 30
0.0
 10
213.9425472939975
 20
104.3007385392005
 30
0.0
 10
213.9847298370269
 20
104.2896189441638
 30
0.0
 10
214.0278449271094
 20
104.2823551028001
 30
0.0
 10
214.0718802694973
 20
104.2782556195891
 30
0.0
 10
214.1014489130933
 20
104.2775077695904
 30
0.0
 10
214.1164117571196
 20
104.2771293294077
 30
0.0
  0
SPLINE
  5
124
330
1F
100
AcDbEntity
  8
0
  6
Continuous
 62
     7
370
     0
100
AcDbSpline
210
0.0
220
0.0
230
1.0
 70
     8
 71
     3
 72
    23
 73
    19
 74
     0
 42
0.00000001
 43
0.00000001
 40
0.0
 40
0.0
 40
0.0
 40
0.0
 40
0.0704642259291749
 40
0.137956965604269
 40
0.2035785636142838
 40
0.2676916802449431
 40
0.3301858648593746
 40
0.3915337640898192
 40
0.4526637734870356
 40
0.5131537880892133
 40
0.5734535531000283
 40
0.6329675593891928
 40
0.6923319074206212
 40
0.75147419157163
 40
0.8121874455294295
 40
0.872961717848316
 40
0.935420306759491
 40
1.0
 40
1.0
 40
1.0
 40
1.0
 10
228.6615742580065
 20
108.3074140349365
 30
0.0
 10
228.6767324427049
 20
108.3026688730739
 30
0.0
 10
228.7064095893349
 20
108.2933786534875
 30
0.0
 10
228.749073570614
 20
108.2763788546864
 30
0.0
 10
228.7891220192082
 20
108.2570221508261
 30
0.0
 10
228.8266421095341
 20
108.2352767333681
 30
0.0
 10
228.8613803230869
 20
108.2109412290354
 30
0.0
 10
228.8932386415566
 20
108.1839777001091
 30
0.0
 10
228.9224379567583
 20
108.1548034001732
 30
0.0
 10
228.9489261012525
 20
108.1234360756022
 30
0.0
 10
228.9721931572183
 20
108.0900775818237
 30
0.0
 10
228.9930607997844
 20
108.0554570037675
 30
0.0
 10
229.0102923912712
 20
108.0191574333815
 30
0.0
 10
229.0244164993121
 20
107.9812731134333
 30
0.0
 10
229.0354354033668
 20
107.9420381359648
 30
0.0
 10
229.0433481759092
 20
107.901301596237
 30
0.0
 10
229.0478582542379
 20
107.8591583165255
 30
0.0
 10
229.0485356535994
 20
107.8305295282417
 30
0.0
 10
229.048880008405
 20
107.8159761327305
 30
0.0
  0
SPLINE
  5
125
330
1F
100
AcDbEntity
  8
0
  6
Continuous
 62
     7
370
     0
100
AcDbSpline
210
0.0
220
0.0
230
1.0
 70
     8
 71
     3
 72
    15
 73
    11
 74
     0
 42
0.00000001
 43
0.00000001
 40
0.0
 40
0.0
 40
0.0
 40
0.0
 40
0.1158426906010177
 40
0.230568548482884
 40
0.3473546045205447
 40
0.468252746734463
 40
0.5923025714800847
 40
0.7199701656206966
 40
0.8556003811349102
 40
1.0
 40
1.0
 40
1.0
 40
1.0
 10
228.9698548181005
 20
108.7494611932023
 30
0.0
 10
228.9688961214021
 20
108.7274278135498
 30
0.0
 10
228.966987970745
 20
108.6835734767911
 30
0.0
 10
228.9518012263863
 20
108.6189733714223
 30
0.0
 10
228.9278318975534
 20
108.5562470713412
 30
0.0
 10
228.8939385879987
 20
108.4961571394862
 30
0.0
 10
228.8506186899832
 20
108.4398029074935
 30
0.0
 10
228.7969143870126
 20
108.3890910820691
 30
0.0
 10
228.7335974050352
 20
108.3439129819766
 30
0.0
 10
228.6860780121661
 20
108.3198317265017
 30
0.0
 10
228.6615742580065
 20
108.3074140349365
 30
0.0
  0
SPLINE
  5
126
330
1F
100
AcDbEntity
  8
0
  6
Continuous
 62
     7
370
     0
100
AcDbSpline
210
0.0
220
0.0
230
1.0
 70
     8
 71
     3
 72
    23
 73
    19
 74
     0
 42
0.00000001
 43
0.00000001
 40
0.0
 40
0.0
 40
0.0
 40
0.0
 40
0.058732037100865
 40
0.1146029008469815
 40
0.1676568100446119
 40
0.2179667070908431
 40
0.2657752056293756
 40
0.3111706510536959
 40
0.3537918046646694
 40
0.3947449080003074
 40
0.4728059510824632
 40
0.5491923665616071
 40
0.6247801075795555
 40
0.7026247640242252
 40
0.7797414321940389
 40
0.8540634639886253
 40
0.92715526641035
 40
1.0
 40
1.0
 40
1.0
 40
1.0
 10
228.2903204993885
 20
109.2820580486919
 30
0.0
 10
228.3093968958578
 20
109.281984867034
 30
0.0
 10
228.3466203684464
 20
109.2818420688153
 30
0.0
 10
228.4009743355635
 20
109.2782708332231
 30
0.0
 10
228.4524516011906
 20
109.2733861235543
 30
0.0
 10
228.5011629839327
 20
109.2670895829932
 30
0.0
 10
228.5468977101584
 20
109.2579534304999
 30
0.0
 10
228.5896131603039
 20
109.2468855924796
 30
0.0
 10
228.6295316246255
 20
109.2341191988978
 30
0.0
 10
228.6783258642464
 20
109.214671846365
 30
0.0
 10
228.7345558758647
 20
109.1847382370484
 30
0.0
 10
228.7947835601316
 20
109.1400725685316
 30
0.0
 10
228.8471839854413
 20
109.0864451226901
 30
0.0
 10
228.8903018294349
 20
109.024958219354
 30
0.0
 10
228.9258262825645
 20
108.9592786103744
 30
0.0
 10
228.9510127039526
 20
108.8906575546649
 30
0.0
 10
228.9671157473058
 20
108.8205890998226
 30
0.0
 10
228.9689428255763
 20
108.7731437205868
 30
0.0
 10
228.9698548181005
 20
108.7494611932023
 30
0.0
  0
LINE
  5
127
330
1F
100
AcDbEntity
  8
0
  6
Continuous
 62
     7
370
     0
100
AcDbLine
 10
227.5210596625
 20
109.2820580487
 30
0.0
 11
228.2903204994
 21
109.2820580487
 31
0.0
  0
LINE
  5
128
330
1F
100
AcDbEntity
  8
0
  6
Continuous
 62
     7
370
     0
100
AcDbLine
 10
227.5210596625
 20
107.2274031008
 30
0.0
 11
227.5210596625
 21
109.2820580487
 31
0.0
  0
LINE
  5
129
330
1F
100
AcDbEntity
  8
0
  6
Continuous
 62
     7
370
     0
100
AcDbLine
 10
228.2923784471
 20
107.2274031008
 30
0.0
 11
227.5210596625
 21
107.2274031008
 31
0.0
  0
SPLINE
  5
12A
330
1F
100
AcDbEntity
  8
0
  6
Continuous
 62
     7
370
     0
100
AcDbSpline
210
0.0
220
0.0
230
1.0
 70
     8
 71
     3
 72
    23
 73
    19
 74
     0
 42
0.00000001
 43
0.00000001
 40
0.0
 40
0.0
 40
0.0
 40
0.0
 40
0.0642545754247028
 40
0.1273603868320974
 40
0.1894718420926419
 40
0.2517207629332009
 40
0.3120272840890018
 40
0.3686746571150508
 40
0.4226814918055483
 40
0.4740604252251505
 40
0.5257737722739171
 40
0.5796221048577144
 40
0.6373752855308656
 40
0.698400381820801
 40
0.7643573310122576
 40
0.8363147679791493
 40
0.9146777942540467
 40
1.0
 40
1.0
 40
1.0
 40
1.0
 10
229.048880008405
 20
107.8159761327305
 30
0.0
 10
229.0481702406449
 20
107.7926108598566
 30
0.0
 10
229.0467633945814
 20
107.7462980459909
 30
0.0
 10
229.0354648523159
 20
107.6781333723433
 30
0.0
 10
229.01637091495
 20
107.6125647012774
 30
0.0
 10
228.990089734025
 20
107.5506521989655
 30
0.0
 10
228.9587746490501
 20
107.4934049754501
 30
0.0
 10
228.9231839578164
 20
107.4423219496829
 30
0.0
 10
228.8842252965949
 20
107.3979287624772
 30
0.0
 10
228.8408016295308
 20
107.360586157125
 30
0.0
 10
228.7931930579065
 20
107.3288932130808
 30
0.0
 10
228.7400549142183
 20
107.3022056815507
 30
0.0
 10
228.6817980529827
 20
107.2786698362814
 30
0.0
 10
228.6172384359873
 20
107.2598685342617
 30
0.0
 10
228.5464054506203
 20
107.244932804444
 30
0.0
 10
228.4683378283453
 20
107.2352290364614
 30
0.0
 10
228.3829156300172
 20
107.228282439442
 30
0.0
 10
228.3234009426931
 20
107.2277044054885
 30
0.0
 10
228.2923784470527
 20
107.2274031007752
 30
0.0
  0
LINE
  5
12B
330
1F
100
AcDbEntity
  8
0
  6
Continuous
 62
     7
370
     0
100
AcDbLine
 10
224.3337103202
 20
107.4644786717
 30
0.0
 11
225.308354334
 21
107.4644786717
 31
0.0
  0
LINE
  5
12C
330
1F
100
AcDbEntity
  8
0
  6
Continuous
 62
     7
370
     0
100
AcDbLine
 10
224.3337103202
 20
109.2820580487
 30
0.0
 11
224.3337103202
 21
107.4644786717
 31
0.0
  0
LINE
  5
12D
330
1F
100
AcDbEntity
  8
0
  6
Continuous
 62
     7
370
     0
100
AcDbLine
 10
224.0439512891
 20
109.2820580487
 30
0.0
 11
224.3337103202
 21
109.2820580487
 31
0.0
  0
LINE
  5
12E
330
1F
100
AcDbEntity
  8
0
  6
Continuous
 62
     7
370
     0
100
AcDbLine
 10
224.0439512891
 20
107.2274031008
 30
0.0
 11
224.0439512891
 21
109.2820580487
 31
0.0
  0
LINE
  5
12F
330
1F
100
AcDbEntity
  8
0
  6
Continuous
 62
     7
370
     0
100
AcDbLine
 10
225.308354334
 20
107.2274031008
 30
0.0
 11
224.0439512891
 21
107.2274031008
 31
0.0
  0
LINE
  5
130
330
1F
100
AcDbEntity
  8
0
  6
Continuous
 62
     7
370
     0
100
AcDbLine
 10
225.308354334
 20
107.4644786717
 30
0.0
 11
225.308354334
 21
107.2274031008
 31
0.0
  0
SPLINE
  5
131
330
1F
100
AcDbEntity
  8
0
  6
Continuous
 62
     7
370
     0
100
AcDbSpline
210
0.0
220
0.0
230
1.0
 70
     8
 71
     3
 72
    31
 73
    27
 74
     0
 42
0.00000001
 43
0.00000001
 40
0.0
 40
0.0
 40
0.0
 40
0.0
 40
0.0430989705688971
 40
0.0855867603450731
 40
0.1269076657436393
 40
0.1679674856215211
 40
0.2084495586010657
 40
0.2490254246415443
 40
0.289280534171679
 40
0.330009848982731
 40
0.3705977240995771
 40
0.4104659863326995
 40
0.4500332158929485
 40
0.4896882096042474
 40
0.5291164230741915
 40
0.5690368070925097
 40
0.6097030542359448
 40
0.6507589174942197
 40
0.6925092624061777
 40
0.7342191213706863
 40
0.7767069111468624
 40
0.8195518402403215
 40
0.8633507288313336
 40
0.9078385251300617
 40
0.9533337036124182
 40
1.0
 40
1.0
 40
1.0
 40
1.0
 10
220.6471028746264
 20
109.3083997787934
 30
0.0
 10
220.6703005996366
 20
109.3079947028432
 30
0.0
 10
220.7163670857913
 20
109.3071902952711
 30
0.0
 10
220.7844722741117
 20
109.3010698279184
 30
0.0
 10
220.8508273986164
 20
109.2901458540039
 30
0.0
 10
220.9153671161412
 20
109.2755065039528
 30
0.0
 10
220.9782671041902
 20
109.2563003133173
 30
0.0
 10
221.0395649254555
 20
109.2336279896956
 30
0.0
 10
221.0987239860051
 20
109.2055337882821
 30
0.0
 10
221.1561378552981
 20
109.1740795341322
 30
0.0
 10
221.2111288051314
 20
109.138896590804
 30
0.0
 10
221.2628091620911
 20
109.1000300647042
 30
0.0
 10
221.3110551353903
 20
109.0577739016495
 30
0.0
 10
221.3565147993143
 20
109.0128226777869
 30
0.0
 10
221.3976712288688
 20
108.9636593520486
 30
0.0
 10
221.4362247008047
 20
108.9117815235657
 30
0.0
 10
221.4710673584664
 20
108.8562693143733
 30
0.0
 10
221.5023228312683
 20
108.7975775530411
 30
0.0
 10
221.5302684001184
 20
108.7366127230865
 30
0.0
 10
221.5541532851447
 20
108.6731221501244
 30
0.0
 10
221.5746628000913
 20
108.6078674480032
 30
0.0
 10
221.5918309944135
 20
108.5404623785965
 30
0.0
 10
221.6041496370493
 20
108.470929985584
 30
0.0
 10
221.6139591053669
 20
108.3995698771771
 30
0.0
 10
221.6191220995592
 20
108.326148824539
 30
0.0
 10
221.6200448710824
 20
108.2765515951127
 30
0.0
 10
221.6205121197832
 20
108.2514378584709
 30
0.0
  0
SPLINE
  5
132
330
1F
100
AcDbEntity
  8
0
  6
Continuous
 62
     7
370
     0
100
AcDbSpline
210
0.0
220
0.0
230
1.0
 70
     8
 71
     3
 72
    23
 73
    19
 74
     0
 42
0.00000001
 43
0.00000001
 40
0.0
 40
0.0
 40
0.0
 40
0.0
 40
0.0752263466908988
 40
0.1465747215268522
 40
0.2145002518264754
 40
0.2795299716530227
 40
0.3424029515883814
 40
0.4034960527288082
 40
0.4637616065030392
 40
0.5238643590795866
 40
0.5832517242549664
 40
0.6413020392831351
 40
0.6988977748564887
 40
0.7562952438113087
 40
0.814627804812969
 40
0.874324768339998
 40
0.9357832838625451
 40
1.0
 40
1.0
 40
1.0
 40
1.0
 10
219.6712240922726
 20
108.2275656655664
 30
0.0
 10
219.6719382112665
 20
108.268759726332
 30
0.0
 10
219.6733296359107
 20
108.3490242646339
 30
0.0
 10
219.686330466245
 20
108.4658997747459
 30
0.0
 10
219.7074404776924
 20
108.5758643415836
 30
0.0
 10
219.7376191069895
 20
108.6789093981276
 30
0.0
 10
219.7758706063504
 20
108.7751964166789
 30
0.0
 10
219.8223726109904
 20
108.8649434244636
 30
0.0
 10
219.8785238704646
 20
108.9471345499652
 30
0.0
 10
219.942045253743
 20
109.0225521993003
 30
0.0
 10
220.0129957212579
 20
109.0892269291338
 30
0.0
 10
220.0885378031624
 20
109.1484436418033
 30
0.0
 10
220.1696147830888
 20
109.1978373810677
 30
0.0
 10
220.2554775719617
 20
109.2386203258999
 30
0.0
 10
220.3464909637268
 20
109.2699322899873
 30
0.0
 10
220.4423994204373
 20
109.2918535140121
 30
0.0
 10
220.5431003686336
 20
109.3059948337684
 30
0.0
 10
220.6119318234976
 20
109.3075864864248
 30
0.0
 10
220.6471028746264
 20
109.3083997787934
 30
0.0
  0
SPLINE
  5
133
330
1F
100
AcDbEntity
  8
0
  6
Continuous
 62
     7
370
     0
100
AcDbSpline
210
0.0
220
0.0
230
1.0
 70
     8
 71
     3
 72
    31
 73
    27
 74
     0
 42
0.00000001
 43
0.00000001
 40
0.0
 40
0.0
 40
0.0
 40
0.0
 40
0.0446969998899166
 40
0.0885335629185872
 40
0.1314091332352273
 40
0.1738139421467782
 40
0.2157145332694449
 40
0.2572471603264206
 40
0.2988479641797117
 40
0.3406041827148141
 40
0.3820294481091343
 40
0.4229697500404856
 40
0.4636322295306196
 40
0.5040475437003945
 40
0.5445912057564575
 40
0.5849639251690936
 40
0.6262652162680831
 40
0.6679794005009904
 40
0.7099427472053506
 40
0.7513818550852256
 40
0.7926185649779642
 40
0.8339484357458206
 40
0.8750080506311037
 40
0.9164455302232758
 40
0.9579066137283071
 40
1.0
 40
1.0
 40
1.0
 40
1.0
 10
220.6458681060279
 20
107.2010613706737
 30
0.0
 10
220.6222535480303
 20
107.2014107509853
 30
0.0
 10
220.5754790226389
 20
107.2021027858841
 30
0.0
 10
220.5063450143653
 20
107.2090104738139
 30
0.0
 10
220.4389309515602
 20
107.2195483923768
 30
0.0
 10
220.373432818903
 20
107.2347619631384
 30
0.0
 10
220.3099401169932
 20
107.2546091410945
 30
0.0
 10
220.2483777194334
 20
107.2786315373034
 30
0.0
 10
220.1885291047737
 20
107.3065080998894
 30
0.0
 10
220.1311368952774
 20
107.3390370261217
 30
0.0
 10
220.0763964305892
 20
107.3752056954992
 30
0.0
 10
220.024838275059
 20
107.4148343151581
 30
0.0
 10
219.9764909384567
 20
107.4575576721969
 30
0.0
 10
219.9321301976168
 20
107.5040819327311
 30
0.0
 10
219.8903193478059
 20
107.5527205742668
 30
0.0
 10
219.8527301746383
 20
107.6052814649583
 30
0.0
 10
219.8181350743766
 20
107.6605725788261
 30
0.0
 10
219.7875577727385
 20
107.7191268982611
 30
0.0
 10
219.7599357566605
 20
107.7792044108982
 30
0.0
 10
219.7366636114746
 20
107.8408243339141
 30
0.0
 10
219.7162119061501
 20
107.9030785534359
 30
0.0
 10
219.69992419309
 20
107.9663507784414
 30
0.0
 10
219.6869448678367
 20
108.03049505432
 30
0.0
 10
219.6782172121505
 20
108.0954046472369
 30
0.0
 10
219.6719140328522
 20
108.1611762289867
 30
0.0
 10
219.6714552298043
 20
108.2053244886279
 30
0.0
 10
219.6712240922726
 20
108.2275656655664
 30
0.0
  0
SPLINE
  5
134
330
1F
100
AcDbEntity
  8
0
  6
Continuous
 62
     7
370
     0
100
AcDbSpline
210
0.0
220
0.0
230
1.0
 70
     8
 71
     3
 72
    31
 73
    27
 74
     0
 42
0.00000001
 43
0.00000001
 40
0.0
 40
0.0
 40
0.0
 40
0.0
 40
0.0475595569054264
 40
0.0939621052432108
 40
0.1391115332408221
 40
0.1836263101269046
 40
0.2274570284004935
 40
0.2707025105518544
 40
0.3136105321155538
 40
0.3562604510849768
 40
0.3983661529550377
 40
0.4395565149792805
 40
0.4800453830214204
 40
0.5198884957050125
 40
0.5596577503171973
 40
0.5994212546627414
 40
0.6392077550883983
 40
0.6796683749857805
 40
0.7200198525128482
 40
0.7598588655624577
 40
0.7995598848323807
 40
0.8391991446364382
 40
0.8789560762302789
 40
0.9187942693024661
 40
0.959083362843275
 40
1.0
 40
1.0
 40
1.0
 40
1.0
 10
221.6205121197832
 20
108.2514378584709
 30
0.0
 10
221.6200840182316
 20
108.2259099957508
 30
0.0
 10
221.6192382297999
 20
108.1754753012411
 30
0.0
 10
221.6135152791844
 20
108.1009678264671
 30
0.0
 10
221.6034523428
 20
108.0285993067678
 30
0.0
 10
221.5901055709885
 20
107.9581539523063
 30
0.0
 10
221.5722213042318
 20
107.889778415657
 30
0.0
 10
221.5509686014969
 20
107.8232766599668
 30
0.0
 10
221.5252622568358
 20
107.7590447829708
 30
0.0
 10
221.4962297945845
 20
107.696927972548
 30
0.0
 10
221.4633795758579
 20
107.6377805504077
 30
0.0
 10
221.4271435555709
 20
107.5820161032317
 30
0.0
 10
221.3874960628316
 20
107.5301562633584
 30
0.0
 10
221.345039338455
 20
107.481564842925
 30
0.0
 10
221.2987819054717
 20
107.437110747414
 30
0.0
 10
221.2492933609343
 20
107.396378298412
 30
0.0
 10
221.1967639880201
 20
107.358983342637
 30
0.0
 10
221.1410173147468
 20
107.3259386524339
 30
0.0
 10
221.0830537912024
 20
107.2969738011307
 30
0.0
 10
221.0240204241392
 20
107.271276759664
 30
0.0
 10
220.9638733622537
 20
107.2493613000992
 30
0.0
 10
220.9024070413064
 20
107.2316009983828
 30
0.0
 10
220.8397891353864
 20
107.2181800360632
 30
0.0
 10
220.7761958587249
 20
107.2081302779197
 30
0.0
 10
220.71141874375
 20
107.2023435926702
 30
0.0
 10
220.6678305991092
 20
107.2014909743008
 30
0.0
 10
220.6458681060279
 20
107.2010613706737
 30
0.0
  0
LINE
  5
135
330
1F
100
AcDbEntity
  8
0
  6
Continuous
 62
     7
370
     0
100
AcDbLine
 10
217.4058353035
 20
109.0449824778
 30
0.0
 11
216.747292051
 21
109.0449824778
 31
0.0
  0
LINE
  5
136
330
1F
100
AcDbEntity
  8
0
  6
Continuous
 62
     7
370
     0
100
AcDbLine
 10
217.4058353035
 20
109.2820580487
 30
0.0
 11
217.4058353035
 21
109.0449824778
 31
0.0
  0
LINE
  5
137
330
1F
100
AcDbEntity
  8
0
  6
Continuous
 62
     7
370
     0
100
AcDbLine
 10
215.7989897674
 20
109.2820580487
 30
0.0
 11
217.4058353035
 21
109.2820580487
 31
0.0
  0
LINE
  5
138
330
1F
100
AcDbEntity
  8
0
  6
Continuous
 62
     7
370
     0
100
AcDbLine
 10
215.7989897674
 20
109.0449824778
 30
0.0
 11
215.7989897674
 21
109.2820580487
 31
0.0
  0
LINE
  5
139
330
1F
100
AcDbEntity
  8
0
  6
Continuous
 62
     7
370
     0
100
AcDbLine
 10
216.4575330199
 20
109.0449824778
 30
0.0
 11
215.7989897674
 21
109.0449824778
 31
0.0
  0
LINE
  5
13A
330
1F
100
AcDbEntity
  8
0
  6
Continuous
 62
     7
370
     0
100
AcDbLine
 10
216.4575330199
 20
107.2274031008
 30
0.0
 11
216.4575330199
 21
109.0449824778
 31
0.0
  0
LINE
  5
13B
330
1F
100
AcDbEntity
  8
0
  6
Continuous
 62
     7
370
     0
100
AcDbLine
 10
216.747292051
 20
107.2274031008
 30
0.0
 11
216.4575330199
 21
107.2274031008
 31
0.0
  0
LINE
  5
13C
330
1F
100
AcDbEntity
  8
0
  6
Continuous
 62
     7
370
     0
100
AcDbLine
 10
216.747292051
 20
109.0449824778
 30
0.0
 11
216.747292051
 21
107.2274031008
 31
0.0
  0
CIRCLE
  5
13D
330
1F
100
AcDbEntity
  8
0
  6
Continuous
 62
     7
370
     0
100
AcDbCircle
 10
223.3985789016
 20
106.5274031008
 30
0.0
 40
25.19999999999996
  0
LINE
  5
13E
330
1F
100
AcDbEntity
  8
0
  6
Continuous
 62
     7
370
     0
100
AcDbLine
 10
219.0126808397
 20
108.2020471145
 30
0.0
 11
218.0116950959
 21
108.2020471145
 31
0.0
  0
LINE
  5
13F
330
1F
100
AcDbEntity
  8
0
  6
Continuous
 62
     7
370
     0
100
AcDbLine
 10
219.0126808397
 20
107.2274031008
 30
0.0
 11
219.0126808397
 21
108.2020471145
 31
0.0
  0
LINE
  5
140
330
1F
100
AcDbEntity
  8
0
  6
Continuous
 62
     7
370
     0
100
AcDbLine
 10
219.3024398709
 20
107.2274031008
 30
0.0
 11
219.0126808397
 21
107.2274031008
 31
0.0
  0
LINE
  5
141
330
1F
100
AcDbEntity
  8
0
  6
Continuous
 62
     7
370
     0
100
AcDbLine
 10
219.3024398709
 20
109.2820580487
 30
0.0
 11
219.3024398709
 21
107.2274031008
 31
0.0
  0
LINE
  5
142
330
1F
100
AcDbEntity
  8
0
  6
Continuous
 62
     7
370
     0
100
AcDbLine
 10
219.0126808397
 20
109.2820580487
 30
0.0
 11
219.3024398709
 21
109.2820580487
 31
0.0
  0
LINE
  5
143
330
1F
100
AcDbEntity
  8
0
  6
Continuous
 62
     7
370
     0
100
AcDbLine
 10
219.0126808397
 20
108.4391226854
 30
0.0
 11
219.0126808397
 21
109.2820580487
 31
0.0
  0
LINE
  5
144
330
1F
100
AcDbEntity
  8
0
  6
Continuous
 62
     7
370
     0
100
AcDbLine
 10
218.0116950959
 20
108.4391226854
 30
0.0
 11
219.0126808397
 21
108.4391226854
 31
0.0
  0
LINE
  5
145
330
1F
100
AcDbEntity
  8
0
  6
Continuous
 62
     7
370
     0
100
AcDbLine
 10
218.0116950959
 20
109.2820580487
 30
0.0
 11
218.0116950959
 21
108.4391226854
 31
0.0
  0
LINE
  5
146
330
1F
100
AcDbEntity
  8
0
  6
Continuous
 62
     7
370
     0
100
AcDbLine
 10
217.7219360648
 20
109.2820580487
 30
0.0
 11
218.0116950959
 21
109.2820580487
 31
0.0
  0
LINE
  5
147
330
1F
100
AcDbEntity
  8
0
  6
Continuous
 62
     7
370
     0
100
AcDbLine
 10
217.7219360648
 20
107.2274031008
 30
0.0
 11
217.7219360648
 21
109.2820580487
 31
0.0
  0
LINE
  5
148
330
1F
100
AcDbEntity
  8
0
  6
Continuous
 62
     7
370
     0
100
AcDbLine
 10
218.0116950959
 20
107.2274031008
 30
0.0
 11
217.7219360648
 21
107.2274031008
 31
0.0
  0
LINE
  5
149
330
1F
100
AcDbEntity
  8
0
  6
Continuous
 62
     7
370
     0
100
AcDbLine
 10
218.0116950959
 20
108.2020471145
 30
0.0
 11
218.0116950959
 21
107.2274031008
 31
0.0
  0
LINE
  5
14A
330
1F
100
AcDbEntity
  8
0
  6
Continuous
 62
     7
370
     0
100
AcDbLine
 10
222.5758114255
 20
108.1493636543
 30
0.0
 11
222.2790553723
 21
108.1493636543
 31
0.0
  0
SPLINE
  5
14B
330
1F
100
AcDbEntity
  8
0
  6
Continuous
 62
     7
370
     0
100
AcDbSpline
210
0.0
220
0.0
230
1.0
 70
     8
 71
     3
 72
    11
 73
     7
 74
     0
 42
0.00000001
 43
0.00000001
 40
0.0
 40
0.0
 40
0.0
 40
0.0
 40
0.1774946570818496
 40
0.4052256231013751
 40
0.6783881083348569
 40
0.9999999999999999
 40
0.9999999999999999
 40
0.9999999999999999
 40
0.9999999999999999
 10
222.7186329933893
 20
108.1398970950723
 30
0.0
 10
222.7102814127375
 20
108.1414031689015
 30
0.0
 10
222.6912145037434
 20
108.1448415806031
 30
0.0
 10
222.6588389398503
 20
108.1470872127673
 30
0.0
 10
222.6196119723051
 20
108.1494706508735
 30
0.0
 10
222.591183520428
 20
108.1494012054812
 30
0.0
 10
222.5758114254953
 20
108.1493636543276
 30
0.0
  0
SPLINE
  5
14C
330
1F
100
AcDbEntity
  8
0
  6
Continuous
 62
     7
370
     0
100
AcDbSpline
210
0.0
220
0.0
230
1.0
 70
     8
 71
     3
 72
    21
 73
    17
 74
     0
 42
0.00000001
 43
0.00000001
 40
0.0
 40
0.0
 40
0.0
 40
0.0
 40
0.0807814705861227
 40
0.1565412257955895
 40
0.227934986843486
 40
0.2943103173046012
 40
0.3568678635548113
 40
0.4147585592592751
 40
0.4676413968340161
 40
0.5167484215300129
 40
0.604729741894053
 40
0.6815706529393896
 40
0.7481095416219826
 40
0.8049410995352804
 40
0.9054060495000024
 40
1.0
 40
1.0
 40
1.0
 40
1.0
 10
223.1499788238013
 20
107.6612184683842
 30
0.0
 10
223.1407740372505
 20
107.6764394019981
 30
0.0
 10
223.1229366723278
 20
107.7059350720867
 30
0.0
 10
223.0971712377332
 20
107.7490120783381
 30
0.0
 10
223.0719090762315
 20
107.788671326198
 30
0.0
 10
223.048478853541
 20
107.826046298553
 30
0.0
 10
223.025929731964
 20
107.8604584712125
 30
0.0
 10
223.0044795887896
 20
107.8920273853598
 30
0.0
 10
222.9847187414833
 20
107.9211671839077
 30
0.0
 10
222.9602423773271
 20
107.9550934927567
 30
0.0
 10
222.9317559547074
 20
107.9926332683183
 30
0.0
 10
222.898514254035
 20
108.0312921483326
 30
0.0
 10
222.8668582991952
 20
108.0621143584045
 30
0.0
 10
222.827873406598
 20
108.0923388140676
 30
0.0
 10
222.7795847191691
 20
108.1206087119095
 30
0.0
 10
222.7385384233276
 20
108.1335979533375
 30
0.0
 10
222.7186329933893
 20
108.1398970950723
 30
0.0
  0
LINE
  5
14D
330
1F
100
AcDbEntity
  8
0
  6
Continuous
 62
     7
370
     0
100
AcDbLine
 10
223.4059875132
 20
107.2274031008
 30
0.0
 11
223.1499788238
 21
107.6612184684
 31
0.0
  0
LINE
  5
14E
330
1F
100
AcDbEntity
  8
0
  6
Continuous
 62
     7
370
     0
100
AcDbLine
 10
223.7381402662
 20
107.2274031008
 30
0.0
 11
223.4059875132
 21
107.2274031008
 31
0.0
  0
LINE
  5
14F
330
1F
100
AcDbEntity
  8
0
  6
Continuous
 62
     7
370
     0
100
AcDbLine
 10
223.4010484388
 20
107.794573477
 30
0.0
 11
223.7381402662
 21
107.2274031008
 31
0.0
  0
SPLINE
  5
150
330
1F
100
AcDbEntity
  8
0
  6
Continuous
 62
     7
370
     0
100
AcDbSpline
210
0.0
220
0.0
230
1.0
 70
     8
 71
     3
 72
    11
 73
     7
 74
     0
 42
0.00000001
 43
0.00000001
 40
0.0
 40
0.0
 40
0.0
 40
0.0
 40
0.2295275697008571
 40
0.4714659343032296
 40
0.7281863484998701
 40
1.0
 40
1.0
 40
1.0
 40
1.0
 10
223.1845523445595
 20
108.0744543593514
 30
0.0
 10
223.2039621544315
 20
108.0554270734727
 30
0.0
 10
223.2438312828236
 20
108.0163436765381
 30
0.0
 10
223.2987726735117
 20
107.9497732026163
 30
0.0
 10
223.3520402386804
 20
107.8756700500449
 30
0.0
 10
223.3844043008519
 20
107.8221154505473
 30
0.0
 10
223.4010484388312
 20
107.7945734770231
 30
0.0
  0
SPLINE
  5
151
330
1F
100
AcDbEntity
  8
0
  6
Continuous
 62
     7
370
     0
100
AcDbSpline
210
0.0
220
0.0
230
1.0
 70
     8
 71
     3
 72
    11
 73
     7
 74
     0
 42
0.00000001
 43
0.00000001
 40
0.0
 40
0.0
 40
0.0
 40
0.0
 40
0.2930762433192213
 40
0.5565623371181898
 40
0.7919136092098108
 40
1.0
 40
1.0
 40
1.0
 40
1.0
 10
223.0248556058192
 20
108.1757053844291
 30
0.0
 10
223.0413974528261
 20
108.1673488081939
 30
0.0
 10
223.0728110158162
 20
108.1514793690779
 30
0.0
 10
223.1163034830339
 20
108.1265962263715
 30
0.0
 10
223.1531705419585
 20
108.1011717862523
 30
0.0
 10
223.1745294973555
 20
108.0829874793547
 30
0.0
 10
223.1845523445595
 20
108.0744543593514
 30
0.0
  0
SPLINE
  5
152
330
1F
100
AcDbEntity
  8
0
  6
Continuous
 62
     7
370
     0
100
AcDbSpline
210
0.0
220
0.0
230
1.0
 70
     8
 71
     3
 72
    23
 73
    19
 74
     0
 42
0.00000001
 43
0.00000001
 40
0.0
 40
0.0
 40
0.0
 40
0.0
 40
0.0614130692946597
 40
0.1212950233845471
 40
0.1792240423087199
 40
0.2359380947348322
 40
0.292216833267361
 40
0.3481966394342069
 40
0.4044447389633588
 40
0.4620255339229974
 40
0.5203342118681488
 40
0.5803829016508381
 40
0.641825904813988
 40
0.7063632097966277
 40
0.7738513938275595
 40
0.8452662573568828
 40
0.920154675768406
 40
1.0
 40
1.0
 40
1.0
 40
1.0
 10
223.5698001472939
 20
108.7280585374948
 30
0.0
 10
223.5693980870181
 20
108.7104826888695
 30
0.0
 10
223.5686039904014
 20
108.6757691825346
 30
0.0
 10
223.5625211304376
 20
108.6247310364673
 30
0.0
 10
223.5515146864587
 20
108.5759661402481
 30
0.0
 10
223.5374010914615
 20
108.5290474196583
 30
0.0
 10
223.5180838855333
 20
108.4846396379737
 30
0.0
 10
223.4957057409242
 20
108.4418357527205
 30
0.0
 10
223.4679824013575
 20
108.4018117008258
 30
0.0
 10
223.4369430570094
 20
108.3635017059597
 30
0.0
 10
223.4013492526871
 20
108.3277262659318
 30
0.0
 10
223.3608878704541
 20
108.2957760706604
 30
0.0
 10
223.3159599947076
 20
108.2670368060577
 30
0.0
 10
223.2663540331886
 20
108.2423013996007
 30
0.0
 10
223.212641000386
 20
108.2196920637706
 30
0.0
 10
223.1541469452858
 20
108.2014859371823
 30
0.0
 10
223.0911079450167
 20
108.1866192387621
 30
0.0
 10
223.0474063797429
 20
108.1794202096667
 30
0.0
 10
223.0248556058192
 20
108.1757053844291
 30
0.0
  0
SPLINE
  5
153
330
1F
100
AcDbEntity
  8
0
  6
Continuous
 62
     7
370
     0
100
AcDbSpline
210
0.0
220
0.0
230
1.0
 70
     8
 71
     3
 72
    27
 73
    23
 74
     0
 42
0.00000001
 43
0.00000001
 40
0.0
 40
0.0
 40
0.0
 40
0.0
 40
0.0621127506505295
 40
0.1202119588785538
 40
0.1743851213884739
 40
0.2254437557784867
 40
0.2723582126361769
 40
0.3163881629634409
 40
0.3568694790582284
 40
0.3939783235063669
 40
0.4295893718770922
 40
0.4646830409549871
 40
0.5000363461428401
 40
0.535482747753064
 40
0.5713634671484438
 40
0.6079085322052602
 40
0.645662298533116
 40
0.6845173397035776
 40
0.7625786223763463
 40
0.8404972886541806
 40
0.9190729926935233
 40
1.0
 40
1.0
 40
1.0
 40
1.0
 10
222.8807992693267
 20
109.2820580486919
 30
0.0
 10
222.9017914335132
 20
109.2818935663986
 30
0.0
 10
222.9424193102622
 20
109.2815752301719
 30
0.0
 10
223.0013381202957
 20
109.2793217712184
 30
0.0
 10
223.0563329228916
 20
109.2744639048622
 30
0.0
 10
223.1075048350916
 20
109.2692107994412
 30
0.0
 10
223.1548447651138
 20
109.2611479842304
 30
0.0
 10
223.1983038736417
 20
109.2519001173272
 30
0.0
 10
223.2379492593412
 20
109.240895015896
 30
0.0
 10
223.2739581610666
 20
109.2278971427218
 30
0.0
 10
223.3073665700894
 20
109.213191996434
 30
0.0
 10
223.3383336417426
 20
109.1950482200738
 30
0.0
 10
223.3681466372827
 20
109.1751665098608
 30
0.0
 10
223.3956990924381
 20
109.1518084674283
 30
0.0
 10
223.4217177059087
 20
109.1262335729687
 30
0.0
 10
223.4461783628259
 20
109.0980943179253
 30
0.0
 10
223.4687189426286
 20
109.0671465108329
 30
0.0
 10
223.4965200484128
 20
109.0228537808607
 30
0.0
 10
223.5263449667438
 20
108.9638651919045
 30
0.0
 10
223.5511938083903
 20
108.8883725795365
 30
0.0
 10
223.5672158969626
 20
108.8094045514834
 30
0.0
 10
223.5689303062168
 20
108.7554390522885
 30
0.0
 10
223.5698001472939
 20
108.7280585374948
 30
0.0
  0
LINE
  5
154
330
1F
100
AcDbEntity
  8
0
  6
Continuous
 62
     7
370
     0
100
AcDbLine
 10
221.9892963412
 20
109.2820580487
 30
0.0
 11
222.8807992693
 21
109.2820580487
 31
0.0
  0
LINE
  5
155
330
1F
100
AcDbEntity
  8
0
  6
Continuous
 62
     7
370
     0
100
AcDbLine
 10
221.9892963412
 20
107.2274031008
 30
0.0
 11
221.9892963412
 21
109.2820580487
 31
0.0
  0
LINE
  5
156
330
1F
100
AcDbEntity
  8
0
  6
Continuous
 62
     7
370
     0
100
AcDbLine
 10
222.2790553723
 20
107.2274031008
 30
0.0
 11
221.9892963412
 21
107.2274031008
 31
0.0
  0
LINE
  5
157
330
1F
100
AcDbEntity
  8
0
  6
Continuous
 62
     7
370
     0
100
AcDbLine
 10
222.2790553723
 20
108.1493636543
 30
0.0
 11
222.2790553723
 21
107.2274031008
 31
0.0
  0
LINE
  5
158
330
1F
100
AcDbEntity
  8
0
  6
Continuous
 62
     7
370
     0
100
AcDbLine
 10
226.7604422058
 20
107.8596046232
 30
0.0
 11
225.88457968
 21
107.8596046232
 31
0.0
  0
LINE
  5
159
330
1F
100
AcDbEntity
  8
0
  6
Continuous
 62
     7
370
     0
100
AcDbLine
 10
226.9942250605
 20
107.2274031008
 30
0.0
 11
226.7604422058
 21
107.8596046232
 31
0.0
  0
LINE
  5
15A
330
1F
100
AcDbEntity
  8
0
  6
Continuous
 62
     7
370
     0
100
AcDbLine
 10
227.3016824415
 20
107.2274031008
 30
0.0
 11
226.9942250605
 21
107.2274031008
 31
0.0
  0
LINE
  5
15B
330
1F
100
AcDbEntity
  8
0
  6
Continuous
 62
     7
370
     0
100
AcDbLine
 10
226.4859119874
 20
109.2820580487
 30
0.0
 11
227.3016824415
 21
107.2274031008
 31
0.0
  0
LINE
  5
15C
330
1F
100
AcDbEntity
  8
0
  6
Continuous
 62
     7
370
     0
100
AcDbLine
 10
226.1591098984
 20
109.2820580487
 30
0.0
 11
226.4859119874
 21
109.2820580487
 31
0.0
  0
LINE
  5
15D
330
1F
100
AcDbEntity
  8
0
  6
Continuous
 62
     7
370
     0
100
AcDbLine
 10
225.3433394443
 20
107.2274031008
 30
0.0
 11
226.1591098984
 21
109.2820580487
 31
0.0
  0
LINE
  5
15E
330
1F
100
AcDbEntity
  8
0
  6
Continuous
 62
     7
370
     0
100
AcDbLine
 10
225.6507968253
 20
107.2274031008
 30
0.0
 11
225.3433394443
 21
107.2274031008
 31
0.0
  0
LINE
  5
15F
330
1F
100
AcDbEntity
  8
0
  6
Continuous
 62
     7
370
     0
100
AcDbLine
 10
225.88457968
 20
107.8596046232
 30
0.0
 11
225.6507968253
 21
107.2274031008
 31
0.0
  0
SPLINE
  5
160
330
1F
100
AcDbEntity
  8
0
  6
Continuous
 62
     7
370
     0
100
AcDbSpline
210
0.0
220
0.0
230
1.0
 70
     8
 71
     3
 72
    23
 73
    19
 74
     0
 42
0.00000001
 43
0.00000001
 40
0.0
 40
0.0
 40
0.0
 40
0.0
 40
0.0749313059818448
 40
0.1470775964339469
 40
0.2163644561730687
 40
0.2825027309006237
 40
0.3466877108244162
 40
0.4088355551310375
 40
0.4692619872876909
 40
0.5284320432534628
 40
0.5870013379727417
 40
0.644416393832067
 40
0.7021887902662974
 40
0.7597671795443349
 40
0.8184897928274489
 40
0.8776328274167843
 40
0.9380195662701677
 40
1.0
 40
1.0
 40
1.0
 40
1.0
 10
230.5627063101754
 20
108.3074140349365
 30
0.0
 10
230.5774792061759
 20
108.3006027811995
 30
0.0
 10
230.6064759253395
 20
108.2872334315635
 30
0.0
 10
230.6475536608915
 20
108.2644072782601
 30
0.0
 10
230.685883644702
 20
108.2407035468843
 30
0.0
 10
230.7211561961183
 20
108.2154840529439
 30
0.0
 10
230.7532572619365
 20
108.1886957478631
 30
0.0
 10
230.7825457695725
 20
108.1606455666832
 30
0.0
 10
230.8091986113337
 20
108.1314911559961
 30
0.0
 10
230.8321403475932
 20
108.1002994049122
 30
0.0
 10
230.8527396729935
 20
108.06833122452
 30
0.0
 10
230.8707654544066
 20
108.0351398184147
 30
0.0
 10
230.8852794674233
 20
108.000529994297
 30
0.0
 10
230.8980091621301
 20
107.9649189414649
 30
0.0
 10
230.9071654639353
 20
107.9279105614212
 30
0.0
 10
230.9143458513641
 20
107.8898786635219
 30
0.0
 10
230.9185340512693
 20
107.8506444867914
 30
0.0
 10
230.9189381598108
 20
107.824080463647
 30
0.0
 10
230.9191428456112
 20
107.8106254688036
 30
0.0
  0
SPLINE
  5
161
330
1F
100
AcDbEntity
  8
0
  6
Continuous
 62
     7
370
     0
100
AcDbSpline
210
0.0
220
0.0
230
1.0
 70
     8
 71
     3
 72
    23
 73
    19
 74
     0
 42
0.00000001
 43
0.00000001
 40
0.0
 40
0.0
 40
0.0
 40
0.0
 40
0.0327432182311376
 40
0.0724096054938576
 40
0.1196114857927605
 40
0.1746729151985131
 40
0.2373450901947014
 40
0.3083524168429164
 40
0.3876300477623598
 40
0.4747836155862522
 40
0.5633323159904144
 40
0.6451362168299873
 40
0.7202025267224655
 40
0.7891341563324459
 40
0.8514970735699654
 40
0.9073306044315619
 40
0.9569686823424192
 40
0.9999999999999999
 40
0.9999999999999999
 40
0.9999999999999999
 40
0.9999999999999999
 10
229.7547560572186
 20
108.5831790219366
 30
0.0
 10
229.7618915342177
 20
108.5770972755886
 30
0.0
 10
229.7776712010445
 20
108.5636478690378
 30
0.0
 10
229.8070317036462
 20
108.5458491541896
 30
0.0
 10
229.8434343724848
 20
108.5278658211862
 30
0.0
 10
229.887122444235
 20
108.5099889965706
 30
0.0
 10
229.9380207520029
 20
108.4920016575547
 30
0.0
 10
229.9960471958119
 20
108.47348148008
 30
0.0
 10
230.0614227915416
 20
108.4550874812896
 30
0.0
 10
230.1321552198889
 20
108.4373618200406
 30
0.0
 10
230.2036114656171
 20
108.4195649002712
 30
0.0
 10
230.2715189221742
 20
108.4018358097671
 30
0.0
 10
230.3338694619431
 20
108.3850335107449
 30
0.0
 10
230.3905641612668
 20
108.3686456203407
 30
0.0
 10
230.4416617009255
 20
108.352718477584
 30
0.0
 10
230.4869844982464
 20
108.336918388304
 30
0.0
 10
230.5268992318009
 20
108.322386313961
 30
0.0
 10
230.5513517216305
 20
108.3121618131865
 30
0.0
 10
230.5627063101754
 20
108.3074140349365
 30
0.0
  0
SPLINE
  5
162
330
1F
100
AcDbEntity
  8
0
  6
Continuous
 62
     7
370
     0
100
AcDbSpline
210
0.0
220
0.0
230
1.0
 70
     8
 71
     3
 72
    11
 73
     7
 74
     0
 42
0.00000001
 43
0.00000001
 40
0.0
 40
0.0
 40
0.0
 40
0.0
 40
0.2627412305282694
 40
0.5099565029432334
 40
0.753326718420451
 40
1.0
 40
1.0
 40
1.0
 40
1.0
 10
229.6810815308409
 20
108.7646900059172
 30
0.0
 10
229.6818303363816
 20
108.7470126578708
 30
0.0
 10
229.6832836988941
 20
108.712702555216
 30
0.0
 10
229.6981246550885
 20
108.6639582418355
 30
0.0
 10
229.7209501495504
 20
108.6195246418766
 30
0.0
 10
229.7434368984548
 20
108.5953485470534
 30
0.0
 10
229.7547560572186
 20
108.5831790219366
 30
0.0
  0
SPLINE
  5
163
330
1F
100
AcDbEntity
  8
0
  6
Continuous
 62
     7
370
     0
100
AcDbSpline
210
0.0
220
0.0
230
1.0
 70
     8
 71
     3
 72
    23
 73
    19
 74
     0
 42
0.00000001
 43
0.00000001
 40
0.0
 40
0.0
 40
0.0
 40
0.0
 40
0.0915110363280375
 40
0.177142860314148
 40
0.257108485228235
 40
0.3311983993883849
 40
0.4005922945239581
 40
0.4656249598049642
 40
0.5269734913138602
 40
0.5854431157040231
 40
0.6413985080863308
 40
0.6950441672657243
 40
0.7467815514927477
 40
0.7969589345766993
 40
0.8475448623598797
 40
0.8974385414187385
 40
0.9476489188871287
 40
1.0
 40
1.0
 40
1.0
 40
1.0
 10
230.1161316670484
 20
109.0713242078799
 30
0.0
 10
230.0978719544481
 20
109.0711865747984
 30
0.0
 10
230.0625256416062
 20
109.0709201510018
 30
0.0
 10
230.0114285379954
 20
109.0660635780917
 30
0.0
 10
229.9640681277604
 20
109.0594001877902
 30
0.0
 10
229.9205257574331
 20
109.0495711204801
 30
0.0
 10
229.8809440661335
 20
109.0367048383694
 30
0.0
 10
229.8447356048257
 20
109.0218472349096
 30
0.0
 10
229.8129137057102
 20
109.0030187708434
 30
0.0
 10
229.7847365454153
 20
108.98204631073
 30
0.0
 10
229.7604301758797
 20
108.958841442147
 30
0.0
 10
229.7394816859216
 20
108.934389121056
 30
0.0
 10
229.7209543645577
 20
108.9094077742289
 30
0.0
 10
229.706558227181
 20
108.8825319048754
 30
0.0
 10
229.6948376075707
 20
108.8547793429835
 30
0.0
 10
229.6872765200565
 20
108.8256284312853
 30
0.0
 10
229.6819230934675
 20
108.7956183859141
 30
0.0
 10
229.6813659281752
 20
108.7751419301649
 30
0.0
 10
229.6810815308409
 20
108.7646900059172
 30
0.0
  0
SPLINE
  5
164
330
1F
100
AcDbEntity
  8
0
  6
Continuous
 62
     7
370
     0
100
AcDbSpline
210
0.0
220
0.0
230
1.0
 70
     8
 71
     3
 72
    23
 73
    19
 74
     0
 42
0.00000001
 43
0.00000001
 40
0.0
 40
0.0
 40
0.0
 40
0.0
 40
0.0671554674490462
 40
0.1314033464826141
 40
0.1927317719102091
 40
0.2512526591565257
 40
0.3077037298841914
 40
0.3626989162982003
 40
0.417778332785431
 40
0.4723043857981144
 40
0.5278725997916964
 40
0.5852299868117375
 40
0.6450565760102912
 40
0.707952356429442
 40
0.7744342720454286
 40
0.84494043137526
 40
0.9204035944750272
 40
1.0
 40
1.0
 40
1.0
 40
1.0
 10
230.5767003542918
 20
108.702539986459
 30
0.0
 10
230.5748592681074
 20
108.7172525977106
 30
0.0
 10
230.5712568080997
 20
108.746040817455
 30
0.0
 10
230.5623195830273
 20
108.7877160965246
 30
0.0
 10
230.5497913918912
 20
108.8264222203896
 30
0.0
 10
230.5351170405965
 20
108.8625201498584
 30
0.0
 10
230.51732865464
 20
108.8956344267373
 30
0.0
 10
230.4965925439017
 20
108.9260830205271
 30
0.0
 10
230.4726561865417
 20
108.9535071948391
 30
0.0
 10
230.446135490217
 20
108.9786316014935
 30
0.0
 10
230.416223435012
 20
109.0005079463215
 30
0.0
 10
230.3830737183663
 20
109.0194972852371
 30
0.0
 10
230.3466303825013
 20
109.0355389283679
 30
0.0
 10
230.3069255339286
 20
109.0486775572896
 30
0.0
 10
230.2639513118637
 20
109.0588647362339
 30
0.0
 10
230.2176099709386
 20
109.0663586195411
 30
0.0
 10
230.1679194228027
 20
109.0701965727068
 30
0.0
 10
230.1336983163664
 20
109.0709417087475
 30
0.0
 10
230.1161316670484
 20
109.0713242078799
 30
0.0
  0
LINE
  5
165
330
1F
100
AcDbEntity
  8
0
  6
Continuous
 62
     7
370
     0
100
AcDbLine
 10
230.8664593854
 20
108.7025399865
 30
0.0
 11
230.5767003543
 21
108.7025399865
 31
0.0
  0
SPLINE
  5
166
330
1F
100
AcDbEntity
  8
0
  6
Continuous
 62
     7
370
     0
100
AcDbSpline
210
0.0
220
0.0
230
1.0
 70
     8
 71
     3
 72
    23
 73
    19
 74
     0
 42
0.00000001
 43
0.00000001
 40
0.0
 40
0.0
 40
0.0
 40
0.0
 40
0.1004750608070148
 40
0.1956443031597846
 40
0.286083379069932
 40
0.3729828804699542
 40
0.4150256681909619
 40
0.4560516735090279
 40
0.4959387495188998
 40
0.5355660888033517
 40
0.5740871099085042
 40
0.6125192874870976
 40
0.651080960134445
 40
0.6895131377130386
 40
0.7662374603277348
 40
0.8423504388672227
 40
0.9199744947371038
 40
1.0
 40
1.0
 40
1.0
 40
1.0
 10
230.104607160129
 20
109.3083997787934
 30
0.0
 10
230.141140927947
 20
109.3075626632982
 30
0.0
 10
230.2122792132999
 20
109.3059326381316
 30
0.0
 10
230.3156451526563
 20
109.2923711256734
 30
0.0
 10
230.4120572766869
 20
109.2690824401823
 30
0.0
 10
230.4876669723018
 20
109.2430130933261
 30
0.0
 10
230.5435643360642
 20
109.2166214167588
 30
0.0
 10
230.5832753797182
 20
109.1960282595151
 30
0.0
 10
230.6201350809037
 20
109.172218818362
 30
0.0
 10
230.6544752512755
 20
109.1464532782332
 30
0.0
 10
230.6866148645436
 20
109.1187434061357
 30
0.0
 10
230.7157278604782
 20
109.0884300757914
 30
0.0
 10
230.7430784065619
 20
109.0565475231766
 30
0.0
 10
230.7752191095068
 20
109.0107741669475
 30
0.0
 10
230.8098736011732
 20
108.9501933889408
 30
0.0
 10
230.8398371263338
 20
108.8717085847807
 30
0.0
 10
230.8604224176245
 20
108.788874318006
 30
0.0
 10
230.8644267304711
 20
108.7316088686449
 30
0.0
 10
230.8664593854082
 20
108.702539986459
 30
0.0
  0
SPLINE
  5
167
330
1F
100
AcDbEntity
  8
0
  6
Continuous
 62
     7
370
     0
100
AcDbSpline
210
0.0
220
0.0
230
1.0
 70
     8
 71
     3
 72
    23
 73
    19
 74
     0
 42
0.00000001
 43
0.00000001
 40
0.0
 40
0.0
 40
0.0
 40
0.0
 40
0.0749954673898322
 40
0.1491654404266561
 40
0.2236642943382247
 40
0.3004120221906725
 40
0.3395704846106348
 40
0.3789205746932795
 40
0.4180957375990935
 40
0.4582296767501551
 40
0.4984267212184583
 40
0.5397075464534805
 40
0.5822159516458436
 40
0.6258238199943749
 40
0.7154812648736979
 40
0.8073840844133601
 40
0.9016341255073719
 40
1.0
 40
1.0
 40
1.0
 40
1.0
 10
229.3913224997245
 20
108.7457568874067
 30
0.0
 10
229.3923004042576
 20
108.7712293463326
 30
0.0
 10
229.3942454492776
 20
108.8218938822928
 30
0.0
 10
229.4114990645708
 20
108.8962409303675
 30
0.0
 10
229.4390189110492
 20
108.9677825661982
 30
0.0
 10
229.4703448540108
 20
109.0245805202905
 30
0.0
 10
229.5008945709619
 20
109.0675308789928
 30
0.0
 10
229.5262205183591
 20
109.0984629421839
 30
0.0
 10
229.554628521721
 20
109.127055476135
 30
0.0
 10
229.5852437132964
 20
109.1537076133337
 30
0.0
 10
229.6186133706574
 20
109.1780211400012
 30
0.0
 10
229.6539095892762
 20
109.2009953115268
 30
0.0
 10
229.6924098951196
 20
109.2207421632727
 30
0.0
 10
229.7465085504253
 20
109.2458754484258
 30
0.0
 10
229.8188795159812
 20
109.2709733839627
 30
0.0
 10
229.9099855097477
 20
109.2928430512598
 30
0.0
 10
230.0058715766758
 20
109.3057216436477
 30
0.0
 10
230.0712297724675
 20
109.3074944399901
 30
0.0
 10
230.104607160129
 20
109.3083997787934
 30
0.0
  0
SPLINE
  5
168
330
1F
100
AcDbEntity
  8
0
  6
Continuous
 62
     7
370
     0
100
AcDbSpline
210
0.0
220
0.0
230
1.0
 70
     8
 71
     3
 72
    15
 73
    11
 74
     0
 42
0.00000001
 43
0.00000001
 40
0.0
 40
0.0
 40
0.0
 40
0.0
 40
0.1448052410584837
 40
0.2795118010254855
 40
0.4063939211311608
 40
0.5275015404829171
 40
0.6453932904726504
 40
0.7618854106740862
 40
0.8789420729184871
 40
1.0
 40
1.0
 40
1.0
 40
1.0
 10
229.6946639854245
 20
108.3016517814768
 30
0.0
 10
229.6704814414266
 20
108.3147158883526
 30
0.0
 10
229.623802837967
 20
108.3399330145764
 30
0.0
 10
229.5609786075731
 20
108.3850213068234
 30
0.0
 10
229.5080428157235
 20
108.4350551123213
 30
0.0
 10
229.4652187881208
 20
108.4899618799497
 30
0.0
 10
229.4316592734272
 20
108.548813004445
 30
0.0
 10
229.4090168156026
 20
108.6117085332717
 30
0.0
 10
229.3935086011257
 20
108.6775067950803
 30
0.0
 10
229.3920593180831
 20
108.7227534160309
 30
0.0
 10
229.3913224997245
 20
108.7457568874067
 30
0.0
  0
SPLINE
  5
169
330
1F
100
AcDbEntity
  8
0
  6
Continuous
 62
     7
370
     0
100
AcDbSpline
210
0.0
220
0.0
230
1.0
 70
     8
 71
     3
 72
    23
 73
    19
 74
     0
 42
0.00000001
 43
0.00000001
 40
0.0
 40
0.0
 40
0.0
 40
0.0
 40
0.031200111153937
 40
0.0704867190162008
 40
0.1172148300204117
 40
0.1715755269954914
 40
0.2341219784876085
 40
0.3039626396728061
 40
0.3821556401561972
 40
0.4676462220680265
 40
0.5543353814021599
 40
0.6350744656665042
 40
0.7100366878785244
 40
0.7790924037748317
 40
0.8429656453505103
 40
0.9010012068505269
 40
0.953246256459026
 40
1.0
 40
1.0
 40
1.0
 40
1.0
 10
230.4104181830261
 20
108.0740427698186
 30
0.0
 10
230.4031795347521
 20
108.07701327219
 30
0.0
 10
230.3868261133035
 20
108.0837241766787
 30
0.0
 10
230.3587971163347
 20
108.0926082587553
 30
0.0
 10
230.3255371617903
 20
108.1040962833922
 30
0.0
 10
230.2862472059921
 20
108.1159270790688
 30
0.0
 10
230.2411375853438
 20
108.1284424062694
 30
0.0
 10
230.1902834028282
 20
108.1426078591846
 30
0.0
 10
230.1337130749326
 20
108.1576720429996
 30
0.0
 10
230.0730310338431
 20
108.1737062258045
 30
0.0
 10
230.0117606640607
 20
108.1900105308535
 30
0.0
 10
229.9532239836868
 20
108.206330104572
 30
0.0
 10
229.8993674549078
 20
108.2228965623562
 30
0.0
 10
229.8497499200461
 20
108.2388477740028
 30
0.0
 10
229.8046271800687
 20
108.2548647952053
 30
0.0
 10
229.7638711662879
 20
108.2705091143417
 30
0.0
 10
229.7274310658392
 20
108.2854633289367
 30
0.0
 10
229.7051748397059
 20
108.2964589335472
 30
0.0
 10
229.6946639854245
 20
108.3016517814768
 30
0.0
  0
SPLINE
  5
16A
330
1F
100
AcDbEntity
  8
0
  6
Continuous
 62
     7
370
     0
100
AcDbSpline
210
0.0
220
0.0
230
1.0
 70
     8
 71
     3
 72
    15
 73
    11
 74
     0
 42
0.00000001
 43
0.00000001
 40
0.0
 40
0.0
 40
0.0
 40
0.0
 40
0.1177675192120368
 40
0.230176448544057
 40
0.3398429589695384
 40
0.4506252599208614
 40
0.5669428888721625
 40
0.6960213064547937
 40
0.8394383602270619
 40
1.0
 40
1.0
 40
1.0
 40
1.0
 10
230.6293838144948
 20
107.7966314246872
 30
0.0
 10
230.6286901193796
 20
107.8114839391157
 30
0.0
 10
230.6273342932652
 20
107.8405131574093
 30
0.0
 10
230.6184987499812
 20
107.8827760729968
 30
0.0
 10
230.6017055514404
 20
107.9214589166463
 30
0.0
 10
230.5799144464593
 20
107.958140541722
 30
0.0
 10
230.5495992987899
 20
107.991677940693
 30
0.0
 10
230.5112995308384
 20
108.0225796623142
 30
0.0
 10
230.4641713026061
 20
108.0505954623878
 30
0.0
 10
230.428997170476
 20
108.0659385475168
 30
0.0
 10
230.4104181830261
 20
108.0740427698186
 30
0.0
  0
SPLINE
  5
16B
330
1F
100
AcDbEntity
  8
0
  6
Continuous
 62
     7
370
     0
100
AcDbSpline
210
0.0
220
0.0
230
1.0
 70
     8
 71
     3
 72
    19
 73
    15
 74
     0
 42
0.00000001
 43
0.00000001
 40
0.0
 40
0.0
 40
0.0
 40
0.0
 40
0.1055838864195047
 40
0.2058681332620123
 40
0.300946717742213
 40
0.3930019285950097
 40
0.4809485116065868
 40
0.5628738662802266
 40
0.6414613436333616
 40
0.7177416181792268
 40
0.7917717603087844
 40
0.8627163930302565
 40
0.9317768462002763
 40
1.0
 40
1.0
 40
1.0
 40
1.0
 10
230.1601717470619
 20
107.4381369415872
 30
0.0
 10
230.1833993289636
 20
107.4385668593889
 30
0.0
 10
230.2286886158847
 20
107.439405115853
 30
0.0
 10
230.2942046316338
 20
107.4494746527703
 30
0.0
 10
230.355855392825
 20
107.4637580203766
 30
0.0
 10
230.4124935145008
 20
107.4853638500911
 30
0.0
 10
230.4639100643931
 20
107.5116001018847
 30
0.0
 10
230.5085595777084
 20
107.5433334636742
 30
0.0
 10
230.5466789571074
 20
107.5791199786681
 30
0.0
 10
230.5765291942267
 20
107.6199022438397
 30
0.0
 10
230.5999789444767
 20
107.6626352378279
 30
0.0
 10
230.6171817604257
 20
107.706560348395
 30
0.0
 10
230.6274291253248
 20
107.7514337710381
 30
0.0
 10
230.6287349061116
 20
107.7816269233037
 30
0.0
 10
230.6293838144948
 20
107.7966314246872
 30
0.0
  0
SPLINE
  5
16C
330
1F
100
AcDbEntity
  8
0
  6
Continuous
 62
     7
370
     0
100
AcDbSpline
210
0.0
220
0.0
230
1.0
 70
     8
 71
     3
 72
    19
 73
    15
 74
     0
 42
0.00000001
 43
0.00000001
 40
0.0
 40
0.0
 40
0.0
 40
0.0
 40
0.0937964706969321
 40
0.1801880710186105
 40
0.2603631916661885
 40
0.3348466760639744
 40
0.4070930058327154
 40
0.4814483792884674
 40
0.5592709137563653
 40
0.6422698113109349
 40
0.7285859445716477
 40
0.8159775452756136
 40
0.9060351298875359
 40
1.0
 40
1.0
 40
1.0
 40
1.0
 10
229.6020563405364
 20
107.9386298135156
 30
0.0
 10
229.6052435217753
 20
107.9126134370112
 30
0.0
 10
229.6113662685605
 20
107.8626345768003
 30
0.0
 10
229.6284860801197
 20
107.7917970661119
 30
0.0
 10
229.6505203822198
 20
107.7281068741112
 30
0.0
 10
229.6779745151915
 20
107.6707187195109
 30
0.0
 10
229.7140893810625
 20
107.620320682826
 30
0.0
 10
229.7576015821677
 20
107.574862423377
 30
0.0
 10
229.8104447822671
 20
107.5354983233136
 30
0.0
 10
229.8700927092137
 20
107.5004668533225
 30
0.0
 10
229.9365238533397
 20
107.4729616087333
 30
0.0
 10
230.00744502445
 20
107.4525715181692
 30
0.0
 10
230.0825179903842
 20
107.44049022704
 30
0.0
 10
230.1339233374833
 20
107.4389323957038
 30
0.0
 10
230.1601717470619
 20
107.4381369415872
 30
0.0
  0
LINE
  5
16D
330
1F
100
AcDbEntity
  8
0
  6
Continuous
 62
     7
370
     0
100
AcDbLine
 10
229.3122973094
 20
107.9386298135
 30
0.0
 11
229.6020563405
 21
107.9386298135
 31
0.0
  0
SPLINE
  5
16E
330
1F
100
AcDbEntity
  8
0
  6
Continuous
 62
     7
370
     0
100
AcDbSpline
210
0.0
220
0.0
230
1.0
 70
     8
 71
     3
 72
    31
 73
    27
 74
     0
 42
0.00000001
 43
0.00000001
 40
0.0
 40
0.0
 40
0.0
 40
0.0
 40
0.0524925849212958
 40
0.1028254751380329
 40
0.1513973394924577
 40
0.1980330772483325
 40
0.2428758954632244
 40
0.2859991683849086
 40
0.3278486614843784
 40
0.3683945968796912
 40
0.4078519911389193
 40
0.4468375528599374
 40
0.4851660451611074
 40
0.5233414044713737
 40
0.5616022144094732
 40
0.5999198855663566
 40
0.6384964264110082
 40
0.6777905770472508
 40
0.7172899891758322
 40
0.7566052415928194
 40
0.7960678905323556
 40
0.8358862309537681
 40
0.8757136832726162
 40
0.9162634539474125
 40
0.9577596754778293
 40
1.0
 40
1.0
 40
1.0
 40
1.0
 10
230.1729310225798
 20
107.2010613706737
 30
0.0
 10
230.1505602773502
 20
107.2012459842674
 30
0.0
 10
230.1067391831733
 20
107.2016076159248
 30
0.0
 10
230.0423489795106
 20
107.2059870893932
 30
0.0
 10
229.9806426704879
 20
107.2123222129964
 30
0.0
 10
229.9216808122474
 20
107.2217584501276
 30
0.0
 10
229.8656483033569
 20
107.234138280856
 30
0.0
 10
229.8123440125306
 20
107.2490040649636
 30
0.0
 10
229.7616415935291
 20
107.2661250801857
 30
0.0
 10
229.7137182022481
 20
107.2862590973385
 30
0.0
 10
229.6686989387711
 20
107.3096526258936
 30
0.0
 10
229.6257743112337
 20
107.3348883242435
 30
0.0
 10
229.5856459512058
 20
107.3634941709838
 30
0.0
 10
229.5482293834899
 20
107.3950206688604
 30
0.0
 10
229.5125765518651
 20
107.4285570454471
 30
0.0
 10
229.4801651601028
 20
107.4654728988133
 30
0.0
 10
229.4498933036811
 20
107.5046886763923
 30
0.0
 10
229.4224526857645
 20
107.5465632959115
 30
0.0
 10
229.3979386712215
 20
107.5905488988189
 30
0.0
 10
229.3758935880321
 20
107.6359067942073
 30
0.0
 10
229.357320296989
 20
107.6829660181848
 30
0.0
 10
229.3423519917415
 20
107.7314887344576
 30
0.0
 10
229.329673079348
 20
107.7811502284053
 30
0.0
 10
229.3208805466308
 20
107.8323648386425
 30
0.0
 10
229.3144159804184
 20
107.8849717697854
 30
0.0
 10
229.3130077045117
 20
107.9206381522682
 30
0.0
 10
229.31229730942
 20
107.9386298135156
 30
0.0
  0
SPLINE
  5
16F
330
1F
100
AcDbEntity
  8
0
  6
Continuous
 62
     7
370
     0
100
AcDbSpline
210
0.0
220
0.0
230
1.0
 70
     8
 71
     3
 72
    23
 73
    19
 74
     0
 42
0.00000001
 43
0.00000001
 40
0.0
 40
0.0
 40
0.0
 40
0.0
 40
0.0748159666505558
 40
0.1485345605139196
 40
0.2238723272963846
 40
0.3012971209351247
 40
0.3408936290197579
 40
0.38034006206544
 40
0.4201265887284643
 40
0.4599499070829665
 40
0.5008311555562169
 40
0.5419071755971084
 40
0.5844387941530512
 40
0.6280801713306066
 40
0.7172666799070602
 40
0.8078600064218678
 40
0.9019246558363443
 40
1.0
 40
1.0
 40
1.0
 40
1.0
 10
230.9191428456112
 20
107.8106254688036
 30
0.0
 10
230.9180705601111
 20
107.7837729560064
 30
0.0
 10
230.915941716996
 20
107.7304617930875
 30
0.0
 10
230.89761161
 20
107.6518786733861
 30
0.0
 10
230.8688159813809
 20
107.575732069025
 30
0.0
 10
230.8350459740056
 20
107.5153055438895
 30
0.0
 10
230.803123110018
 20
107.4691484602706
 30
0.0
 10
230.776306398448
 20
107.4359728580514
 30
0.0
 10
230.7465682070912
 20
107.4052969583446
 30
0.0
 10
230.7146406600343
 20
107.3761597434199
 30
0.0
 10
230.680275869984
 20
107.3491557076901
 30
0.0
 10
230.6431841204432
 20
107.3242756557862
 30
0.0
 10
230.6037568972746
 20
107.3012605885964
 30
0.0
 10
230.5474558140666
 20
107.2732153814821
 30
0.0
 10
230.472678622244
 20
107.2438774317329
 30
0.0
 10
230.3774274915014
 20
107.2194457807192
 30
0.0
 10
230.2770443368172
 20
107.2035963645906
 30
0.0
 10
230.208115066281
 20
107.2019180462815
 30
0.0
 10
230.1729310225798
 20
107.2010613706737
 30
0.0
  0
LINE
  5
170
330
1F
100
AcDbEntity
  8
0
  6
Continuous
 62
     7
370
     0
100
AcDbLine
 10
216.133200468
 20
104.0663954886
 30
0.0
 11
215.5882559265
 21
105.8049496753
 31
0.0
  0
LINE
  5
171
330
1F
100
AcDbEntity
  8
0
  6
Continuous
 62
     7
370
     0
100
AcDbLine
 10
216.4361303642
 20
104.0663954886
 30
0.0
 11
216.133200468
 21
104.0663954886
 31
0.0
  0
LINE
  5
172
330
1F
100
AcDbEntity
  8
0
  6
Continuous
 62
     7
370
     0
100
AcDbLine
 10
216.9843676219
 20
105.8049496753
 30
0.0
 11
216.4361303642
 21
104.0663954886
 31
0.0
  0
LINE
  5
173
330
1F
100
AcDbEntity
  8
0
  6
Continuous
 62
     7
370
     0
100
AcDbLine
 10
216.9843676219
 20
104.0663954886
 30
0.0
 11
216.9843676219
 21
105.8049496753
 31
0.0
  0
LINE
  5
174
330
1F
100
AcDbEntity
  8
0
  6
Continuous
 62
     7
370
     0
100
AcDbLine
 10
217.274126653
 20
104.0663954886
 30
0.0
 11
216.9843676219
 21
104.0663954886
 31
0.0
  0
LINE
  5
175
330
1F
100
AcDbEntity
  8
0
  6
Continuous
 62
     7
370
     0
100
AcDbLine
 10
217.274126653
 20
106.1210504365
 30
0.0
 11
217.274126653
 21
104.0663954886
 31
0.0
  0
LINE
  5
176
330
1F
100
AcDbEntity
  8
0
  6
Continuous
 62
     7
370
     0
100
AcDbLine
 10
216.8419576436
 20
106.1210504365
 30
0.0
 11
217.274126653
 21
106.1210504365
 31
0.0
  0
LINE
  5
177
330
1F
100
AcDbEntity
  8
0
  6
Continuous
 62
     7
370
     0
100
AcDbLine
 10
216.3871512098
 20
104.703947675
 30
0.0
 11
216.8419576436
 21
106.1210504365
 31
0.0
  0
SPLINE
  5
178
330
1F
100
AcDbEntity
  8
0
  6
Continuous
 62
     7
370
     0
100
AcDbSpline
210
0.0
220
0.0
230
1.0
 70
     8
 71
     3
 72
    15
 73
    11
 74
     0
 42
0.00000001
 43
0.00000001
 40
0.0
 40
0.0
 40
0.0
 40
0.0
 40
0.0892047702332451
 40
0.1898334556643485
 40
0.2992325919749813
 40
0.4192609378429058
 40
0.5492073901909386
 40
0.6890743636843492
 40
0.8395791979483176
 40
1.0
 40
1.0
 40
1.0
 40
1.0
 10
216.2863117742303
 20
104.3775571754197
 30
0.0
 10
216.2891801117969
 20
104.3873019637915
 30
0.0
 10
216.2952841175676
 20
104.408039496622
 30
0.0
 10
216.3051796866755
 20
104.4406457121845
 30
0.0
 10
216.3157088539472
 20
104.4767281587363
 30
0.0
 10
216.3283090397512
 20
104.5156666378643
 30
0.0
 10
216.3414432422231
 20
104.5580719720831
 30
0.0
 10
216.3552292970751
 20
104.6039089451324
 30
0.0
 10
216.3711312428857
 20
104.6527199298079
 30
0.0
 10
216.3816988806006
 20
104.6865125247263
 30
0.0
 10
216.3871512097751
 20
104.7039476749585
 30
0.0
  0
SPLINE
  5
179
330
1F
100
AcDbEntity
  8
0
  6
Continuous
 62
     7
370
     0
100
AcDbSpline
210
0.0
220
0.0
230
1.0
 70
     8
 71
     3
 72
    15
 73
    11
 74
     0
 42
0.00000001
 43
0.00000001
 40
0.0
 40
0.0
 40
0.0
 40
0.0
 40
0.1625255217041874
 40
0.3143148980392377
 40
0.4549784905465749
 40
0.5845192373662002
 40
0.7045671033090738
 40
0.8134949897289302
 40
0.911681259682607
 40
1.0
 40
1.0
 40
1.0
 40
1.0
 10
216.1937041293423
 20
104.6792523029883
 30
0.0
 10
216.1987591186442
 20
104.6629192428146
 30
0.0
 10
216.208535173693
 20
104.6313320552187
 30
0.0
 10
216.2230319034835
 20
104.585717249801
 30
0.0
 10
216.2362214972793
 20
104.5433285127556
 30
0.0
 10
216.2481008034087
 20
104.5040309184967
 30
0.0
 10
216.2593114580808
 20
104.468019577783
 30
0.0
 10
216.2690181186004
 20
104.4349989910035
 30
0.0
 10
216.2782980018501
 20
104.4053360902828
 30
0.0
 10
216.2837364281029
 20
104.3864843469718
 30
0.0
 10
216.2863117742303
 20
104.3775571754197
 30
0.0
  0
LINE
  5
17A
330
1F
100
AcDbEntity
  8
0
  6
Continuous
 62
     7
370
     0
100
AcDbLine
 10
215.7343702107
 20
106.1210504365
 30
0.0
 11
216.1937041293
 21
104.679252303
 31
0.0
  0
LINE
  5
17B
330
1F
100
AcDbEntity
  8
0
  6
Continuous
 62
     7
370
     0
100
AcDbLine
 10
215.2984968954
 20
106.1210504365
 30
0.0
 11
215.7343702107
 21
106.1210504365
 31
0.0
  0
LINE
  5
17C
330
1F
100
AcDbEntity
  8
0
  6
Continuous
 62
     7
370
     0
100
AcDbLine
 10
215.2984968954
 20
104.0663954886
 30
0.0
 11
215.2984968954
 21
106.1210504365
 31
0.0
  0
LINE
  5
17D
330
1F
100
AcDbEntity
  8
0
  6
Continuous
 62
     7
370
     0
100
AcDbLine
 10
215.5882559265
 20
104.0663954886
 30
0.0
 11
215.2984968954
 21
104.0663954886
 31
0.0
  0
LINE
  5
17E
330
1F
100
AcDbEntity
  8
0
  6
Continuous
 62
     7
370
     0
100
AcDbLine
 10
215.5882559265
 20
105.8049496753
 30
0.0
 11
215.5882559265
 21
104.0663954886
 31
0.0
  0
SPLINE
  5
17F
330
1F
100
AcDbEntity
  8
0
  6
Continuous
 62
     7
370
     0
100
AcDbSpline
210
0.0
220
0.0
230
1.0
 70
     8
 71
     3
 72
    31
 73
    27
 74
     0
 42
0.00000001
 43
0.00000001
 40
0.0
 40
0.0
 40
0.0
 40
0.0
 40
0.0628739462114324
 40
0.1228366299919128
 40
0.1796565674430314
 40
0.233960012230862
 40
0.2855950186955588
 40
0.3345131060783808
 40
0.3809048259061764
 40
0.4248945919393347
 40
0.4665290347654873
 40
0.5064882940692464
 40
0.5450315536447543
 40
0.5818311798231344
 40
0.617448279949443
 40
0.652066912769046
 40
0.6858797142465105
 40
0.7191745547913924
 40
0.7521816462063929
 40
0.7852401639180909
 40
0.8186564497770833
 40
0.8525477406533113
 40
0.887626342258519
 40
0.923635078068751
 40
0.9610218444769891
 40
1.0
 40
1.0
 40
1.0
 40
1.0
 10
220.4878177254189
 20
105.0797289184376
 30
0.0
 10
220.4875473611829
 20
105.0505039350947
 30
0.0
 10
220.4870191514296
 20
104.993407177507
 30
0.0
 10
220.4838814351532
 20
104.9099350666282
 30
0.0
 10
220.4779132156763
 20
104.8306271973456
 30
0.0
 10
220.4705692125705
 20
104.7553018984051
 30
0.0
 10
220.4594592741541
 20
104.6841602529032
 30
0.0
 10
220.4474877135638
 20
104.6168999988095
 30
0.0
 10
220.4326818502385
 20
104.5538265569132
 30
0.0
 10
220.4154068837895
 20
104.4949122837503
 30
0.0
 10
220.3959513488495
 20
104.4398456618606
 30
0.0
 10
220.3746153442085
 20
104.3882105283273
 30
0.0
 10
220.350983670405
 20
104.3400421660879
 30
0.0
 10
220.3243529595736
 20
104.2958103851879
 30
0.0
 10
220.2959416873746
 20
104.2549280827898
 30
0.0
 10
220.265541771446
 20
104.217241900187
 30
0.0
 10
220.2325086979806
 20
104.1832942504783
 30
0.0
 10
220.196875845808
 20
104.1532756780608
 30
0.0
 10
220.1593655754868
 20
104.1262351745065
 30
0.0
 10
220.1192317181214
 20
104.1030826934439
 30
0.0
 10
220.0766499333503
 20
104.083901265023
 30
0.0
 10
220.0319047264742
 20
104.0675020966847
 30
0.0
 10
219.9845420928171
 20
104.0554857479881
 30
0.0
 10
219.9349355297003
 20
104.0462874208295
 30
0.0
 10
219.8829022603221
 20
104.0408707796816
 30
0.0
 10
219.8473970363274
 20
104.0403298563721
 30
0.0
 10
219.8292744728815
 20
104.0400537584942
 30
0.0
  0
SPLINE
  5
180
330
1F
100
AcDbEntity
  8
0
  6
Continuous
 62
     7
370
     0
100
AcDbSpline
210
0.0
220
0.0
230
1.0
 70
     8
 71
     3
 72
    27
 73
    23
 74
     0
 42
0.00000001
 43
0.00000001
 40
0.0
 40
0.0
 40
0.0
 40
0.0
 40
0.0567243372181508
 40
0.1114372357370108
 40
0.1643678222229016
 40
0.21643537246209
 40
0.2676414903219249
 40
0.3173597799690281
 40
0.3674730633322806
 40
0.4182103970528083
 40
0.4714042826470201
 40
0.5279657201290494
 40
0.5880611158232139
 40
0.6521342629937146
 40
0.6863448363353056
 40
0.7232636803169652
 40
0.762610250771542
 40
0.8047389366452182
 40
0.8494303387909499
 40
0.8967112583864923
 40
0.9468896380534765
 40
1.0
 40
1.0
 40
1.0
 40
1.0
 10
219.8292744728815
 20
106.1210504365124
 30
0.0
 10
219.8556616619909
 20
106.1202746718276
 30
0.0
 10
219.9075003534137
 20
106.1187506509876
 30
0.0
 10
219.9831851105916
 20
106.1063210135622
 30
0.0
 10
220.0545131162368
 20
106.0850582030547
 30
0.0
 10
220.1214380290636
 20
106.0563737544079
 30
0.0
 10
220.1828157780551
 20
106.0199389838301
 30
0.0
 10
220.2376286948884
 20
105.9756469691815
 30
0.0
 10
220.2852855337171
 20
105.9239627678692
 30
0.0
 10
220.3252661938894
 20
105.8642739390547
 30
0.0
 10
220.3602132816077
 20
105.7982270992422
 30
0.0
 10
220.3912595071829
 20
105.7255258058496
 30
0.0
 10
220.4193243933574
 20
105.6462515288861
 30
0.0
 10
220.4392398475411
 20
105.5752899842107
 30
0.0
 10
220.453445524658
 20
105.5140334609155
 30
0.0
 10
220.4628485542242
 20
105.463510813335
 30
0.0
 10
220.4706549538786
 20
105.4089965921661
 30
0.0
 10
220.4766357110085
 20
105.3506226819846
 30
0.0
 10
220.4815427811202
 20
105.288454554325
 30
0.0
 10
220.4853322864783
 20
105.2224535021219
 30
0.0
 10
220.4872558484525
 20
105.1524545669742
 30
0.0
 10
220.4876269219656
 20
105.1044252589451
 30
0.0
 10
220.4878177254189
 20
105.0797289184376
 30
0.0
  0
SPLINE
  5
181
330
1F
100
AcDbEntity
  8
0
  6
Continuous
 62
     7
370
     0
100
AcDbSpline
210
0.0
220
0.0
230
1.0
 70
     8
 71
     3
 72
    31
 73
    27
 74
     0
 42
0.00000001
 43
0.00000001
 40
0.0
 40
0.0
 40
0.0
 40
0.0
 40
0.0631144583947934
 40
0.12361464576949
 40
0.1809737111859576
 40
0.2352614550083222
 40
0.287100701833872
 40
0.3360307363034436
 40
0.3823823485850662
 40
0.4263340836597073
 40
0.4682106947981602
 40
0.5082496012618052
 40
0.5466283366065849
 40
0.5836495392304463
 40
0.6189943150301618
 40
0.6535830186205963
 40
0.6871561361903312
 40
0.7204221919788076
 40
0.7532302188118171
 40
0.7862601560778999
 40
0.8195039834988841
 40
0.8535452747120184
 40
0.8883082803397299
 40
0.9239958607406951
 40
0.961350304754645
 40
1.0
 40
1.0
 40
1.0
 40
1.0
 10
219.1707312203441
 20
105.0797289184376
 30
0.0
 10
219.1709966133325
 20
105.1090918236398
 30
0.0
 10
219.1715164064366
 20
105.166601389873
 30
0.0
 10
219.174740514202
 20
105.2507482165192
 30
0.0
 10
219.1803695451069
 20
105.3306589735586
 30
0.0
 10
219.1887721386095
 20
105.4062642622325
 30
0.0
 10
219.198722383552
 20
105.4777347385349
 30
0.0
 10
219.2116577647507
 20
105.5449684067253
 30
0.0
 10
219.2262119490944
 20
105.6081161163698
 30
0.0
 10
219.2436743585178
 20
105.6671120462108
 30
0.0
 10
219.2628598298633
 20
105.722463453851
 30
0.0
 10
219.2846263591814
 20
105.7740815431363
 30
0.0
 10
219.3091166573755
 20
105.8219115867425
 30
0.0
 10
219.3351271785114
 20
105.8664496090481
 30
0.0
 10
219.3640271697446
 20
105.9070028605073
 30
0.0
 10
219.3940722855538
 20
105.9447094313705
 30
0.0
 10
219.4274460255641
 20
105.9781864745562
 30
0.0
 10
219.4627606380746
 20
106.0082953574194
 30
0.0
 10
219.5005361399104
 20
106.0348646918921
 30
0.0
 10
219.5405726611629
 20
106.0577908228255
 30
0.0
 10
219.5827161521897
 20
106.0780329433758
 30
0.0
 10
219.6277698213247
 20
106.0932712064379
 30
0.0
 10
219.6747983630554
 20
106.1056936212003
 30
0.0
 10
219.7241637787081
 20
106.1148317001214
 30
0.0
 10
219.7759204682093
 20
106.1202189060386
 30
0.0
 10
219.811288890196
 20
106.1207701284046
 30
0.0
 10
219.8292744728815
 20
106.1210504365124
 30
0.0
  0
SPLINE
  5
182
330
1F
100
AcDbEntity
  8
0
  6
Continuous
 62
     7
370
     0
100
AcDbSpline
210
0.0
220
0.0
230
1.0
 70
     8
 71
     3
 72
    15
 73
    11
 74
     0
 42
0.00000001
 43
0.00000001
 40
0.0
 40
0.0
 40
0.0
 40
0.0
 40
0.0974206681772145
 40
0.2008855880393207
 40
0.3111719701726504
 40
0.4297979458253726
 40
0.5577399263645875
 40
0.6947152693641585
 40
0.8421299102060552
 40
1.0
 40
1.0
 40
1.0
 40
1.0
 10
219.3703521437695
 20
104.2380283237883
 30
0.0
 10
219.3540683868509
 20
104.2615178820363
 30
0.0
 10
219.3204905830306
 20
104.3099543566542
 30
0.0
 10
219.2811906750212
 20
104.392543038937
 30
0.0
 10
219.2461344612811
 20
104.4834615824366
 30
0.0
 10
219.2186217608692
 20
104.5844937981985
 30
0.0
 10
219.1970724581001
 20
104.694835583997
 30
0.0
 10
219.1815084813038
 20
104.8147034539199
 30
0.0
 10
219.1727008026951
 20
104.9440456210931
 30
0.0
 10
219.1714025685173
 20
105.0334801623188
 30
0.0
 10
219.1707312203441
 20
105.0797289184376
 30
0.0
  0
SPLINE
  5
183
330
1F
100
AcDbEntity
  8
0
  6
Continuous
 62
     7
370
     0
100
AcDbSpline
210
0.0
220
0.0
230
1.0
 70
     8
 71
     3
 72
    15
 73
    11
 74
     0
 42
0.00000001
 43
0.00000001
 40
0.0
 40
0.0
 40
0.0
 40
0.0
 40
0.1379032299933934
 40
0.2688733426002937
 40
0.3951781273461133
 40
0.5170892381308875
 40
0.6367430265135479
 40
0.7562218164637977
 40
0.87662835946368
 40
1.0
 40
1.0
 40
1.0
 40
1.0
 10
219.8292744728815
 20
104.0400537584942
 30
0.0
 10
219.8055136909438
 20
104.0407315360554
 30
0.0
 10
219.7591867059798
 20
104.0420530157511
 30
0.0
 10
219.6915295603943
 20
104.0510316563135
 30
0.0
 10
219.628029720471
 20
104.0668344852663
 30
0.0
 10
219.5681516014246
 20
104.0880283071909
 30
0.0
 10
219.5125682496854
 20
104.1163762644716
 30
0.0
 10
219.4610142768503
 20
104.1508670900015
 30
0.0
 10
219.4124537430012
 20
104.1906983182956
 30
0.0
 10
219.3844993475154
 20
104.2221242431069
 30
0.0
 10
219.3703521437695
 20
104.2380283237883
 30
0.0
  0
LINE
  5
184
330
1F
100
AcDbEntity
  8
0
  6
Continuous
 62
     7
370
     0
100
AcDbLine
 10
222.2790553723
 20
104.9093308518
 30
0.0
 11
223.0429655453
 21
104.9093308518
 31
0.0
  0
LINE
  5
185
330
1F
100
AcDbEntity
  8
0
  6
Continuous
 62
     7
370
     0
100
AcDbLine
 10
222.2790553723
 20
104.6722552809
 30
0.0
 11
222.2790553723
 21
104.9093308518
 31
0.0
  0
LINE
  5
186
330
1F
100
AcDbEntity
  8
0
  6
Continuous
 62
     7
370
     0
100
AcDbLine
 10
223.0429655453
 20
104.6722552809
 30
0.0
 11
222.2790553723
 21
104.6722552809
 31
0.0
  0
LINE
  5
187
330
1F
100
AcDbEntity
  8
0
  6
Continuous
 62
     7
370
     0
100
AcDbLine
 10
223.0429655453
 20
104.9093308518
 30
0.0
 11
223.0429655453
 21
104.6722552809
 31
0.0
  0
SPLINE
  5
188
330
1F
100
AcDbEntity
  8
0
  6
Continuous
 62
     7
370
     0
100
AcDbSpline
210
0.0
220
0.0
230
1.0
 70
     8
 71
     3
 72
    31
 73
    27
 74
     0
 42
0.00000001
 43
0.00000001
 40
0.0
 40
0.0
 40
0.0
 40
0.0
 40
0.0628739462114324
 40
0.1228366299919128
 40
0.1796565674430314
 40
0.233960012230862
 40
0.2855950186955588
 40
0.3345131060783808
 40
0.3809048259061764
 40
0.4248945919393347
 40
0.4665290347654873
 40
0.5064882940692464
 40
0.5450315536447543
 40
0.5818311798231344
 40
0.617448279949443
 40
0.652066912769046
 40
0.6858797142465105
 40
0.7191745547913924
 40
0.7521816462063929
 40
0.7852401639180909
 40
0.8186564497770833
 40
0.8525477406533113
 40
0.887626342258519
 40
0.923635078068751
 40
0.9610218444769891
 40
1.0
 40
1.0
 40
1.0
 40
1.0
 10
226.177631427342
 20
105.0797289184376
 30
0.0
 10
226.177361063106
 20
105.0505039350947
 30
0.0
 10
226.1768328533526
 20
104.993407177507
 30
0.0
 10
226.1736951370763
 20
104.9099350666282
 30
0.0
 10
226.1677269175994
 20
104.8306271973456
 30
0.0
 10
226.1603829144936
 20
104.7553018984051
 30
0.0
 10
226.1492729760771
 20
104.6841602529032
 30
0.0
 10
226.1373014154869
 20
104.6168999988095
 30
0.0
 10
226.1224955521616
 20
104.5538265569132
 30
0.0
 10
226.1052205857125
 20
104.4949122837503
 30
0.0
 10
226.0857650507726
 20
104.4398456618606
 30
0.0
 10
226.0644290461316
 20
104.3882105283273
 30
0.0
 10
226.0407973723281
 20
104.3400421660879
 30
0.0
 10
226.0141666614967
 20
104.2958103851879
 30
0.0
 10
225.9857553892977
 20
104.2549280827898
 30
0.0
 10
225.9553554733691
 20
104.217241900187
 30
0.0
 10
225.9223223999036
 20
104.1832942504783
 30
0.0
 10
225.8866895477311
 20
104.1532756780608
 30
0.0
 10
225.8491792774099
 20
104.1262351745065
 30
0.0
 10
225.8090454200445
 20
104.1030826934439
 30
0.0
 10
225.7664636352734
 20
104.083901265023
 30
0.0
 10
225.7217184283973
 20
104.0675020966847
 30
0.0
 10
225.6743557947402
 20
104.0554857479881
 30
0.0
 10
225.6247492316234
 20
104.0462874208295
 30
0.0
 10
225.5727159622452
 20
104.0408707796816
 30
0.0
 10
225.5372107382505
 20
104.0403298563721
 30
0.0
 10
225.5190881748046
 20
104.0400537584942
 30
0.0
  0
SPLINE
  5
189
330
1F
100
AcDbEntity
  8
0
  6
Continuous
 62
     7
370
     0
100
AcDbSpline
210
0.0
220
0.0
230
1.0
 70
     8
 71
     3
 72
    27
 73
    23
 74
     0
 42
0.00000001
 43
0.00000001
 40
0.0
 40
0.0
 40
0.0
 40
0.0
 40
0.0567243372181508
 40
0.1114372357370108
 40
0.1643678222229016
 40
0.21643537246209
 40
0.2676414903219249
 40
0.3173597799690281
 40
0.3674730633322806
 40
0.4182103970528083
 40
0.4714042826470201
 40
0.5279657201290494
 40
0.5880611158232139
 40
0.6521342629937146
 40
0.6863448363353056
 40
0.7232636803169652
 40
0.762610250771542
 40
0.8047389366452182
 40
0.8494303387909499
 40
0.8967112583864923
 40
0.9468896380534765
 40
1.0
 40
1.0
 40
1.0
 40
1.0
 10
225.5190881748046
 20
106.1210504365124
 30
0.0
 10
225.5454753639139
 20
106.1202746718276
 30
0.0
 10
225.5973140553368
 20
106.1187506509876
 30
0.0
 10
225.6729988125147
 20
106.1063210135622
 30
0.0
 10
225.7443268181599
 20
106.0850582030547
 30
0.0
 10
225.8112517309866
 20
106.0563737544079
 30
0.0
 10
225.8726294799782
 20
106.0199389838301
 30
0.0
 10
225.9274423968114
 20
105.9756469691815
 30
0.0
 10
225.9750992356402
 20
105.9239627678692
 30
0.0
 10
226.0150798958125
 20
105.8642739390547
 30
0.0
 10
226.0500269835308
 20
105.7982270992422
 30
0.0
 10
226.0810732091059
 20
105.7255258058496
 30
0.0
 10
226.1091380952805
 20
105.6462515288861
 30
0.0
 10
226.1290535494642
 20
105.5752899842107
 30
0.0
 10
226.143259226581
 20
105.5140334609155
 30
0.0
 10
226.1526622561473
 20
105.463510813335
 30
0.0
 10
226.1604686558017
 20
105.4089965921661
 30
0.0
 10
226.1664494129316
 20
105.3506226819846
 30
0.0
 10
226.1713564830433
 20
105.288454554325
 30
0.0
 10
226.1751459884014
 20
105.2224535021219
 30
0.0
 10
226.1770695503756
 20
105.1524545669742
 30
0.0
 10
226.1774406238887
 20
105.1044252589451
 30
0.0
 10
226.177631427342
 20
105.0797289184376
 30
0.0
  0
SPLINE
  5
18A
330
1F
100
AcDbEntity
  8
0
  6
Continuous
 62
     7
370
     0
100
AcDbSpline
210
0.0
220
0.0
230
1.0
 70
     8
 71
     3
 72
    31
 73
    27
 74
     0
 42
0.00000001
 43
0.00000001
 40
0.0
 40
0.0
 40
0.0
 40
0.0
 40
0.0631144583947934
 40
0.12361464576949
 40
0.1809737111859576
 40
0.2352614550083222
 40
0.287100701833872
 40
0.3360307363034436
 40
0.3823823485850663
 40
0.4263340836597073
 40
0.4682106947981602
 40
0.5082496012618052
 40
0.546628336606585
 40
0.5836495392304463
 40
0.6189943150301618
 40
0.6535830186205961
 40
0.6871561361903314
 40
0.7204221919788075
 40
0.753230218811817
 40
0.7862601560779
 40
0.8195039834988841
 40
0.8535452747120184
 40
0.8883082803397299
 40
0.9239958607406952
 40
0.961350304754645
 40
1.0
 40
1.0
 40
1.0
 40
1.0
 10
224.8605449222672
 20
105.0797289184376
 30
0.0
 10
224.8608103152556
 20
105.1090918236398
 30
0.0
 10
224.8613301083597
 20
105.166601389873
 30
0.0
 10
224.864554216125
 20
105.2507482165192
 30
0.0
 10
224.8701832470299
 20
105.3306589735586
 30
0.0
 10
224.8785858405326
 20
105.4062642622325
 30
0.0
 10
224.8885360854751
 20
105.4777347385349
 30
0.0
 10
224.9014714666737
 20
105.5449684067253
 30
0.0
 10
224.9160256510175
 20
105.6081161163698
 30
0.0
 10
224.9334880604408
 20
105.6671120462108
 30
0.0
 10
224.9526735317864
 20
105.722463453851
 30
0.0
 10
224.9744400611044
 20
105.7740815431363
 30
0.0
 10
224.9989303592986
 20
105.8219115867425
 30
0.0
 10
225.0249408804345
 20
105.8664496090481
 30
0.0
 10
225.0538408716677
 20
105.9070028605073
 30
0.0
 10
225.0838859874769
 20
105.9447094313705
 30
0.0
 10
225.1172597274872
 20
105.9781864745562
 30
0.0
 10
225.1525743399977
 20
106.0082953574194
 30
0.0
 10
225.1903498418334
 20
106.0348646918921
 30
0.0
 10
225.230386363086
 20
106.0577908228255
 30
0.0
 10
225.2725298541128
 20
106.0780329433758
 30
0.0
 10
225.3175835232478
 20
106.0932712064379
 30
0.0
 10
225.3646120649785
 20
106.1056936212003
 30
0.0
 10
225.4139774806312
 20
106.1148317001214
 30
0.0
 10
225.4657341701324
 20
106.1202189060386
 30
0.0
 10
225.501102592119
 20
106.1207701284046
 30
0.0
 10
225.5190881748046
 20
106.1210504365124
 30
0.0
  0
SPLINE
  5
18B
330
1F
100
AcDbEntity
  8
0
  6
Continuous
 62
     7
370
     0
100
AcDbSpline
210
0.0
220
0.0
230
1.0
 70
     8
 71
     3
 72
    15
 73
    11
 74
     0
 42
0.00000001
 43
0.00000001
 40
0.0
 40
0.0
 40
0.0
 40
0.0
 40
0.0974206681772144
 40
0.2008855880393207
 40
0.3111719701726504
 40
0.4297979458253727
 40
0.5577399263645875
 40
0.6947152693641585
 40
0.8421299102060553
 40
1.0
 40
1.0
 40
1.0
 40
1.0
 10
225.0601658456926
 20
104.2380283237883
 30
0.0
 10
225.043882088774
 20
104.2615178820363
 30
0.0
 10
225.0103042849537
 20
104.3099543566542
 30
0.0
 10
224.9710043769442
 20
104.392543038937
 30
0.0
 10
224.9359481632042
 20
104.4834615824366
 30
0.0
 10
224.9084354627922
 20
104.5844937981985
 30
0.0
 10
224.8868861600232
 20
104.694835583997
 30
0.0
 10
224.8713221832269
 20
104.8147034539199
 30
0.0
 10
224.8625145046182
 20
104.9440456210931
 30
0.0
 10
224.8612162704404
 20
105.0334801623188
 30
0.0
 10
224.8605449222672
 20
105.0797289184376
 30
0.0
  0
SPLINE
  5
18C
330
1F
100
AcDbEntity
  8
0
  6
Continuous
 62
     7
370
     0
100
AcDbSpline
210
0.0
220
0.0
230
1.0
 70
     8
 71
     3
 72
    15
 73
    11
 74
     0
 42
0.00000001
 43
0.00000001
 40
0.0
 40
0.0
 40
0.0
 40
0.0
 40
0.1379032299933933
 40
0.2688733426002935
 40
0.3951781273461131
 40
0.5170892381308876
 40
0.6367430265135475
 40
0.7562218164637967
 40
0.8766283594636793
 40
1.0
 40
1.0
 40
1.0
 40
1.0
 10
225.5190881748046
 20
104.0400537584942
 30
0.0
 10
225.4953273928669
 20
104.0407315360554
 30
0.0
 10
225.4490004079029
 20
104.0420530157511
 30
0.0
 10
225.3813432623174
 20
104.0510316563135
 30
0.0
 10
225.3178434223941
 20
104.0668344852663
 30
0.0
 10
225.2579653033477
 20
104.0880283071909
 30
0.0
 10
225.2023819516084
 20
104.1163762644716
 30
0.0
 10
225.1508279787734
 20
104.1508670900015
 30
0.0
 10
225.1022674449243
 20
104.1906983182956
 30
0.0
 10
225.0743130494385
 20
104.2221242431069
 30
0.0
 10
225.0601658456926
 20
104.2380283237883
 30
0.0
  0
LINE
  5
18D
330
1F
100
AcDbEntity
  8
0
  6
Continuous
 62
     7
370
     0
100
AcDbLine
 10
227.9688690742
 20
104.9093308518
 30
0.0
 11
228.7327792472
 21
104.9093308518
 31
0.0
  0
LINE
  5
18E
330
1F
100
AcDbEntity
  8
0
  6
Continuous
 62
     7
370
     0
100
AcDbLine
 10
227.9688690742
 20
104.6722552809
 30
0.0
 11
227.9688690742
 21
104.9093308518
 31
0.0
  0
LINE
  5
18F
330
1F
100
AcDbEntity
  8
0
  6
Continuous
 62
     7
370
     0
100
AcDbLine
 10
228.7327792472
 20
104.6722552809
 30
0.0
 11
227.9688690742
 21
104.6722552809
 31
0.0
  0
LINE
  5
190
330
1F
100
AcDbEntity
  8
0
  6
Continuous
 62
     7
370
     0
100
AcDbLine
 10
228.7327792472
 20
104.9093308518
 30
0.0
 11
228.7327792472
 21
104.6722552809
 31
0.0
  0
SPLINE
  5
191
330
1F
100
AcDbEntity
  8
0
  6
Continuous
 62
     7
370
     0
100
AcDbSpline
210
0.0
220
0.0
230
1.0
 70
     8
 71
     3
 72
    31
 73
    27
 74
     0
 42
0.00000001
 43
0.00000001
 40
0.0
 40
0.0
 40
0.0
 40
0.0
 40
0.0628739462114324
 40
0.1228366299919129
 40
0.1796565674430315
 40
0.2339600122308621
 40
0.285595018695559
 40
0.3345131060783808
 40
0.3809048259061764
 40
0.4248945919393348
 40
0.4665290347654876
 40
0.5064882940692463
 40
0.5450315536447548
 40
0.5818311798231349
 40
0.6174482799494435
 40
0.652066912769046
 40
0.685879714246511
 40
0.7191745547913925
 40
0.7521816462063932
 40
0.7852401639180917
 40
0.8186564497770835
 40
0.852547740653311
 40
0.8876263422585192
 40
0.9236350780687517
 40
0.9610218444769894
 40
1.0
 40
1.0
 40
1.0
 40
1.0
 10
232.025495509874
 20
105.0797289184376
 30
0.0
 10
232.025225145638
 20
105.0505039350947
 30
0.0
 10
232.0246969358847
 20
104.993407177507
 30
0.0
 10
232.0215592196083
 20
104.9099350666282
 30
0.0
 10
232.0155910001315
 20
104.8306271973456
 30
0.0
 10
232.0082469970256
 20
104.7553018984051
 30
0.0
 10
231.9971370586092
 20
104.6841602529032
 30
0.0
 10
231.9851654980189
 20
104.6168999988095
 30
0.0
 10
231.9703596346937
 20
104.5538265569132
 30
0.0
 10
231.9530846682446
 20
104.4949122837503
 30
0.0
 10
231.9336291333046
 20
104.4398456618606
 30
0.0
 10
231.9122931286637
 20
104.3882105283273
 30
0.0
 10
231.8886614548601
 20
104.3400421660879
 30
0.0
 10
231.8620307440287
 20
104.2958103851879
 30
0.0
 10
231.8336194718297
 20
104.2549280827898
 30
0.0
 10
231.8032195559012
 20
104.217241900187
 30
0.0
 10
231.7701864824357
 20
104.1832942504783
 30
0.0
 10
231.7345536302631
 20
104.1532756780608
 30
0.0
 10
231.6970433599419
 20
104.1262351745065
 30
0.0
 10
231.6569095025766
 20
104.1030826934439
 30
0.0
 10
231.6143277178054
 20
104.083901265023
 30
0.0
 10
231.5695825109293
 20
104.0675020966847
 30
0.0
 10
231.5222198772722
 20
104.0554857479881
 30
0.0
 10
231.4726133141555
 20
104.0462874208295
 30
0.0
 10
231.4205800447772
 20
104.0408707796816
 30
0.0
 10
231.3850748207826
 20
104.0403298563721
 30
0.0
 10
231.3669522573366
 20
104.0400537584942
 30
0.0
  0
SPLINE
  5
192
330
1F
100
AcDbEntity
  8
0
  6
Continuous
 62
     7
370
     0
100
AcDbSpline
210
0.0
220
0.0
230
1.0
 70
     8
 71
     3
 72
    27
 73
    23
 74
     0
 42
0.00000001
 43
0.00000001
 40
0.0
 40
0.0
 40
0.0
 40
0.0
 40
0.0567243372181508
 40
0.1114372357370111
 40
0.1643678222229013
 40
0.2164353724620895
 40
0.2676414903219251
 40
0.3173597799690279
 40
0.3674730633322808
 40
0.4182103970528078
 40
0.4714042826470199
 40
0.5279657201290492
 40
0.5880611158232136
 40
0.6521342629937142
 40
0.6863448363353056
 40
0.7232636803169652
 40
0.7626102507715418
 40
0.8047389366452182
 40
0.8494303387909499
 40
0.8967112583864923
 40
0.9468896380534765
 40
1.0
 40
1.0
 40
1.0
 40
1.0
 10
231.3669522573366
 20
106.1210504365124
 30
0.0
 10
231.393339446446
 20
106.1202746718276
 30
0.0
 10
231.4451781378688
 20
106.1187506509876
 30
0.0
 10
231.5208628950467
 20
106.1063210135622
 30
0.0
 10
231.592190900692
 20
106.0850582030547
 30
0.0
 10
231.6591158135187
 20
106.0563737544079
 30
0.0
 10
231.7204935625103
 20
106.0199389838301
 30
0.0
 10
231.7753064793435
 20
105.9756469691815
 30
0.0
 10
231.8229633181722
 20
105.9239627678692
 30
0.0
 10
231.8629439783446
 20
105.8642739390547
 30
0.0
 10
231.8978910660628
 20
105.7982270992422
 30
0.0
 10
231.928937291638
 20
105.7255258058496
 30
0.0
 10
231.9570021778126
 20
105.6462515288861
 30
0.0
 10
231.9769176319962
 20
105.5752899842107
 30
0.0
 10
231.991123309113
 20
105.5140334609155
 30
0.0
 10
232.0005263386793
 20
105.463510813335
 30
0.0
 10
232.0083327383337
 20
105.4089965921661
 30
0.0
 10
232.0143134954637
 20
105.3506226819846
 30
0.0
 10
232.0192205655754
 20
105.288454554325
 30
0.0
 10
232.0230100709335
 20
105.2224535021219
 30
0.0
 10
232.0249336329076
 20
105.1524545669742
 30
0.0
 10
232.0253047064207
 20
105.1044252589451
 30
0.0
 10
232.025495509874
 20
105.0797289184376
 30
0.0
  0
SPLINE
  5
193
330
1F
100
AcDbEntity
  8
0
  6
Continuous
 62
     7
370
     0
100
AcDbSpline
210
0.0
220
0.0
230
1.0
 70
     8
 71
     3
 72
    31
 73
    27
 74
     0
 42
0.00000001
 43
0.00000001
 40
0.0
 40
0.0
 40
0.0
 40
0.0
 40
0.0631144583947934
 40
0.1236146457694899
 40
0.1809737111859575
 40
0.235261455008322
 40
0.2871007018338719
 40
0.3360307363034434
 40
0.3823823485850662
 40
0.426334083659707
 40
0.4682106947981599
 40
0.5082496012618049
 40
0.5466283366065846
 40
0.5836495392304459
 40
0.6189943150301614
 40
0.6535830186205956
 40
0.687156136190331
 40
0.7204221919788075
 40
0.7532302188118168
 40
0.7862601560778997
 40
0.8195039834988835
 40
0.8535452747120185
 40
0.8883082803397293
 40
0.9239958607406945
 40
0.9613503047546453
 40
1.0
 40
1.0
 40
1.0
 40
1.0
 10
230.7084090047993
 20
105.0797289184376
 30
0.0
 10
230.7086743977876
 20
105.1090918236398
 30
0.0
 10
230.7091941908918
 20
105.166601389873
 30
0.0
 10
230.7124182986571
 20
105.2507482165192
 30
0.0
 10
230.718047329562
 20
105.3306589735586
 30
0.0
 10
230.7264499230646
 20
105.4062642622325
 30
0.0
 10
230.7364001680071
 20
105.4777347385349
 30
0.0
 10
230.7493355492058
 20
105.5449684067253
 30
0.0
 10
230.7638897335496
 20
105.6081161163698
 30
0.0
 10
230.7813521429729
 20
105.6671120462108
 30
0.0
 10
230.8005376143184
 20
105.722463453851
 30
0.0
 10
230.8223041436365
 20
105.7740815431363
 30
0.0
 10
230.8467944418306
 20
105.8219115867425
 30
0.0
 10
230.8728049629665
 20
105.8664496090481
 30
0.0
 10
230.9017049541998
 20
105.9070028605073
 30
0.0
 10
230.9317500700089
 20
105.9447094313705
 30
0.0
 10
230.9651238100193
 20
105.9781864745562
 30
0.0
 10
231.0004384225297
 20
106.0082953574194
 30
0.0
 10
231.0382139243655
 20
106.0348646918921
 30
0.0
 10
231.078250445618
 20
106.0577908228255
 30
0.0
 10
231.1203939366449
 20
106.0780329433758
 30
0.0
 10
231.1654476057798
 20
106.0932712064379
 30
0.0
 10
231.2124761475106
 20
106.1056936212003
 30
0.0
 10
231.2618415631632
 20
106.1148317001214
 30
0.0
 10
231.3135982526645
 20
106.1202189060386
 30
0.0
 10
231.3489666746511
 20
106.1207701284046
 30
0.0
 10
231.3669522573366
 20
106.1210504365124
 30
0.0
  0
SPLINE
  5
194
330
1F
100
AcDbEntity
  8
0
  6
Continuous
 62
     7
370
     0
100
AcDbSpline
210
0.0
220
0.0
230
1.0
 70
     8
 71
     3
 72
    15
 73
    11
 74
     0
 42
0.00000001
 43
0.00000001
 40
0.0
 40
0.0
 40
0.0
 40
0.0
 40
0.0974206681772145
 40
0.2008855880393207
 40
0.3111719701726504
 40
0.4297979458253726
 40
0.5577399263645875
 40
0.6947152693641585
 40
0.8421299102060552
 40
1.0
 40
1.0
 40
1.0
 40
1.0
 10
230.9080299282247
 20
104.2380283237883
 30
0.0
 10
230.891746171306
 20
104.2615178820363
 30
0.0
 10
230.8581683674858
 20
104.3099543566542
 30
0.0
 10
230.8188684594763
 20
104.392543038937
 30
0.0
 10
230.7838122457362
 20
104.4834615824366
 30
0.0
 10
230.7562995453243
 20
104.5844937981985
 30
0.0
 10
230.7347502425552
 20
104.694835583997
 30
0.0
 10
230.719186265759
 20
104.8147034539199
 30
0.0
 10
230.7103785871503
 20
104.9440456210931
 30
0.0
 10
230.7090803529725
 20
105.0334801623188
 30
0.0
 10
230.7084090047993
 20
105.0797289184376
 30
0.0
  0
SPLINE
  5
195
330
1F
100
AcDbEntity
  8
0
  6
Continuous
 62
     7
370
     0
100
AcDbSpline
210
0.0
220
0.0
230
1.0
 70
     8
 71
     3
 72
    15
 73
    11
 74
     0
 42
0.00000001
 43
0.00000001
 40
0.0
 40
0.0
 40
0.0
 40
0.0
 40
0.1379032299933933
 40
0.2688733426002926
 40
0.3951781273461129
 40
0.5170892381308878
 40
0.6367430265135473
 40
0.7562218164637978
 40
0.87662835946368
 40
1.0
 40
1.0
 40
1.0
 40
1.0
 10
231.3669522573366
 20
104.0400537584942
 30
0.0
 10
231.343191475399
 20
104.0407315360554
 30
0.0
 10
231.296864490435
 20
104.0420530157511
 30
0.0
 10
231.2292073448494
 20
104.0510316563135
 30
0.0
 10
231.1657075049261
 20
104.0668344852663
 30
0.0
 10
231.1058293858798
 20
104.0880283071909
 30
0.0
 10
231.0502460341405
 20
104.1163762644716
 30
0.0
 10
230.9986920613054
 20
104.1508670900015
 30
0.0
 10
230.9501315274563
 20
104.1906983182956
 30
0.0
 10
230.9221771319705
 20
104.2221242431069
 30
0.0
 10
230.9080299282247
 20
104.2380283237883
 30
0.0
  0
CIRCLE
  5
196
330
1F
100
AcDbEntity
  8
0
  6
Continuous
 62
     7
370
     0
100
AcDbCircle
 10
223.3985789016
 20
106.5274031008
 30
0.0
 40
25.40000000000001
  0
SPLINE
  5
197
330
1F
100
AcDbEntity
  8
0
  6
Continuous
 62
     7
370
     0
100
AcDbSpline
210
0.0
220
0.0
230
1.0
 70
     8
 71
     3
 72
    23
 73
    19
 74
     0
 42
0.00000001
 43
0.00000001
 40
0.0
 40
0.0
 40
0.0
 40
0.0
 40
0.1156291309254413
 40
0.2215410391198766
 40
0.3170478562190415
 40
0.4031508756396164
 40
0.4801812167162793
 40
0.5476493661481896
 40
0.6070358428421807
 40
0.6586524080635068
 40
0.7057228903536447
 40
0.7498040879796465
 40
0.7925868153452744
 40
0.8338739610102599
 40
0.8747683933034318
 40
0.9152226988916382
 40
0.9568807037304797
 40
1.0
 40
1.0
 40
1.0
 40
1.0
 10
231.7620782088591
 20
105.0805520975033
 30
0.0
 10
231.7618287572818
 20
105.1192485081197
 30
0.0
 10
231.7613508174998
 20
105.193389366479
 30
0.0
 10
231.7559492221614
 20
105.2993822716775
 30
0.0
 10
231.7474844368189
 20
105.3952441784376
 30
0.0
 10
231.7359059551997
 20
105.4810634625482
 30
0.0
 10
231.7205181552748
 20
105.5567469554113
 30
0.0
 10
231.7018548530379
 20
105.6224557768962
 30
0.0
 10
231.6796147378222
 20
105.6780497922663
 30
0.0
 10
231.6531713201944
 20
105.7240874445006
 30
0.0
 10
231.6237345054147
 20
105.7618508088336
 30
0.0
 10
231.5929849617984
 20
105.7945382865187
 30
0.0
 10
231.5601539476548
 20
105.8223379213597
 30
0.0
 10
231.5246597962052
 20
105.8446391985217
 30
0.0
 10
231.487646550707
 20
105.8626310394392
 30
0.0
 10
231.448263740856
 20
105.8750134825261
 30
0.0
 10
231.4068984685501
 20
105.8826208682499
 30
0.0
 10
231.3785100188265
 20
105.8835183764191
 30
0.0
 10
231.3640711306068
 20
105.8839748655989
 30
0.0
  0
SPLINE
  5
198
330
1F
100
AcDbEntity
  8
0
  6
Continuous
 62
     7
370
     0
100
AcDbSpline
210
0.0
220
0.0
230
1.0
 70
     8
 71
     3
 72
    23
 73
    19
 74
     0
 42
0.00000001
 43
0.00000001
 40
0.0
 40
0.0
 40
0.0
 40
0.0
 40
0.0407818458722593
 40
0.0808695887215865
 40
0.1202681657882668
 40
0.1601868504553522
 40
0.2004597376386395
 40
0.2422651778979073
 40
0.2864592615494687
 40
0.3329520837492632
 40
0.3844305340495304
 40
0.4433891253601053
 40
0.5116814722136831
 40
0.5890200255490079
 40
0.6762451906507722
 40
0.7737051914728236
 40
0.881567767781983
 40
1.0
 40
1.0
 40
1.0
 40
1.0
 10
231.3669522573366
 20
104.2771293294077
 30
0.0
 10
231.3805579249136
 20
104.2776487574248
 30
0.0
 10
231.4075376929377
 20
104.2786787728452
 30
0.0
 10
231.4472543975656
 20
104.2855395425296
 30
0.0
 10
231.4850928149411
 20
104.2983576412463
 30
0.0
 10
231.5213941531811
 20
104.3151173597966
 30
0.0
 10
231.5559709883414
 20
104.3368252194545
 30
0.0
 10
231.5886414785021
 20
104.3635680847662
 30
0.0
 10
231.6199273387775
 20
104.3948941195846
 30
0.0
 10
231.6499362184594
 20
104.4317636292348
 30
0.0
 10
231.6772582708084
 20
104.4766812261806
 30
0.0
 10
231.6999238859516
 20
104.5320369861456
 30
0.0
 10
231.7193532710332
 20
104.5975557725847
 30
0.0
 10
231.7351584531149
 20
104.6737095506341
 30
0.0
 10
231.7471121897287
 20
104.7603591236346
 30
0.0
 10
231.7560623160026
 20
104.8575870845181
 30
0.0
 10
231.7613280995748
 20
104.9655229995292
 30
0.0
 10
231.7618205060785
 20
105.041033431333
 30
0.0
 10
231.7620782088591
 20
105.0805520975033
 30
0.0
  0
SPLINE
  5
199
330
1F
100
AcDbEntity
  8
0
  6
Continuous
 62
     7
370
     0
100
AcDbSpline
210
0.0
220
0.0
230
1.0
 70
     8
 71
     3
 72
    23
 73
    19
 74
     0
 42
0.00000001
 43
0.00000001
 40
0.0
 40
0.0
 40
0.0
 40
0.0
 40
0.1184055081537694
 40
0.2266543328167019
 40
0.324092341928602
 40
0.4117048030053217
 40
0.4890259050064155
 40
0.5569093973430755
 40
0.6162333444927071
 40
0.6673492812770745
 40
0.7135123932013473
 40
0.7576965045209783
 40
0.7994925114422908
 40
0.8399760647439393
 40
0.8798857418167766
 40
0.919148659385742
 40
0.9592273564930833
 40
1.0
 40
1.0
 40
1.0
 40
1.0
 10
230.9718263058142
 20
105.0805520975033
 30
0.0
 10
230.9720878582471
 20
105.0410336096131
 30
0.0
 10
230.9725885274568
 20
104.965386482665
 30
0.0
 10
230.9778193053902
 20
104.8573115104717
 30
0.0
 10
230.9868238743011
 20
104.7598131332419
 30
0.0
 10
230.9987285025505
 20
104.6730263438492
 30
0.0
 10
231.0144474318228
 20
104.596833745999
 30
0.0
 10
231.0341844066555
 20
104.5314295018867
 30
0.0
 10
231.0564326716656
 20
104.4760286123091
 30
0.0
 10
231.0839644780245
 20
104.4313177286551
 30
0.0
 10
231.1141087650782
 20
104.3948718361228
 30
0.0
 10
231.1452306813476
 20
104.3635271898912
 30
0.0
 10
231.1780624179423
 20
104.3368849583066
 30
0.0
 10
231.2123897517488
 20
104.3146707704888
 30
0.0
 10
231.2487452960535
 20
104.2978516469575
 30
0.0
 10
231.2867315090227
 20
104.2856611087696
 30
0.0
 10
231.3263566561318
 20
104.2786456412157
 30
0.0
 10
231.3533431818913
 20
104.2776376505356
 30
0.0
 10
231.3669522573366
 20
104.2771293294077
 30
0.0
  0
SPLINE
  5
19A
330
1F
100
AcDbEntity
  8
0
  6
Continuous
 62
     7
370
     0
100
AcDbSpline
210
0.0
220
0.0
230
1.0
 70
     8
 71
     3
 72
    15
 73
    11
 74
     0
 42
0.00000001
 43
0.00000001
 40
0.0
 40
0.0
 40
0.0
 40
0.0
 40
0.0838881132795455
 40
0.1771540327539698
 40
0.2825136355617228
 40
0.3993998606601629
 40
0.5294908061912204
 40
0.6728021776758327
 40
0.82953576161967
 40
1.0
 40
1.0
 40
1.0
 40
1.0
 10
231.0907756808038
 20
105.7432112453691
 30
0.0
 10
231.0809852564791
 20
105.726842643928
 30
0.0
 10
231.0603099416617
 20
105.6922756040643
 30
0.0
 10
231.037175466561
 20
105.6321966645749
 30
0.0
 10
231.0167393858032
 20
105.5635378724687
 30
0.0
 10
230.9999137158532
 20
105.4852428623617
 30
0.0
 10
230.9877415240216
 20
105.3974459416885
 30
0.0
 10
230.9781320492347
 20
105.300249069975
 30
0.0
 10
230.9731402847655
 20
105.1935165487598
 30
0.0
 10
230.9722763831636
 20
105.1192458229608
 30
0.0
 10
230.9718263058142
 20
105.0805520975033
 30
0.0
  0
SPLINE
  5
19B
330
1F
100
AcDbEntity
  8
0
  6
Continuous
 62
     7
370
     0
100
AcDbSpline
210
0.0
220
0.0
230
1.0
 70
     8
 71
     3
 72
    15
 73
    11
 74
     0
 42
0.00000001
 43
0.00000001
 40
0.0
 40
0.0
 40
0.0
 40
0.0
 40
0.1276647678962228
 40
0.2517385630080477
 40
0.3727533493873867
 40
0.4921467589723859
 40
0.6140696213092441
 40
0.737197324412108
 40
0.8656069906011162
 40
1.0
 40
1.0
 40
1.0
 40
1.0
 10
231.3640711306068
 20
105.8839748655989
 30
0.0
 10
231.3504629098865
 20
105.8836177035205
 30
0.0
 10
231.3236292424174
 20
105.8829134256696
 30
0.0
 10
231.2843412390345
 20
105.8761911007148
 30
0.0
 10
231.2471084597716
 20
105.8649498750713
 30
0.0
 10
231.2115043373338
 20
105.8497225434408
 30
0.0
 10
231.1784177096472
 20
105.829229562742
 30
0.0
 10
231.1465364433397
 20
105.8053025490794
 30
0.0
 10
231.1173537335745
 20
105.7761501535359
 30
0.0
 10
231.0997684887089
 20
105.7543562783142
 30
0.0
 10
231.0907756808038
 20
105.7432112453691
 30
0.0
  0
SPLINE
  5
19C
330
1F
100
AcDbEntity
  8
0
  6
Continuous
 62
     7
370
     0
100
AcDbSpline
210
0.0
220
0.0
230
1.0
 70
     8
 71
     3
 72
    19
 73
    15
 74
     0
 42
0.00000001
 43
0.00000001
 40
0.0
 40
0.0
 40
0.0
 40
0.0
 40
0.0801399024652513
 40
0.1562809906190945
 40
0.2294060490129022
 40
0.3017986969723053
 40
0.3727428627695779
 40
0.4426676099026292
 40
0.5133209646126979
 40
0.5865476923632091
 40
0.6683225082295051
 40
0.763676625525904
 40
0.8740807567185471
 40
1.0
 40
1.0
 40
1.0
 40
1.0
 10
228.7591209772886
 20
107.8200920280589
 30
0.0
 10
228.7585540270479
 20
107.8388005478315
 30
0.0
 10
228.7574484162034
 20
107.8752840711843
 30
0.0
 10
228.746939205977
 20
107.92800461092
 30
0.0
 10
228.7295797105298
 20
107.9769035670164
 30
0.0
 10
228.7051425992177
 20
108.0213037380675
 30
0.0
 10
228.6751692065822
 20
108.0612378692207
 30
0.0
 10
228.6389044280907
 20
108.0951129056253
 30
0.0
 10
228.5966194291975
 20
108.1219944222913
 30
0.0
 10
228.5481842508072
 20
108.1430912103295
 30
0.0
 10
228.4915732293838
 20
108.1581012116694
 30
0.0
 10
228.4252234470722
 20
108.1682845883967
 30
0.0
 10
228.3480736183384
 20
108.1748556773053
 30
0.0
 10
228.2929424831485
 20
108.1754100175319
 30
0.0
 10
228.2635671797542
 20
108.1757053844291
 30
0.0
  0
SPLINE
  5
19D
330
1F
100
AcDbEntity
  8
0
  6
Continuous
 62
     7
370
     0
100
AcDbSpline
210
0.0
220
0.0
230
1.0
 70
     8
 71
     3
 72
    19
 73
    15
 74
     0
 42
0.00000001
 43
0.00000001
 40
0.0
 40
0.0
 40
0.0
 40
0.0
 40
0.0889709576989554
 40
0.1722707767733143
 40
0.2503120304637113
 40
0.3246551996215525
 40
0.3978444501802954
 40
0.473300880718533
 40
0.5518258887444479
 40
0.6347494834982531
 40
0.7217660118923852
 40
0.810392665561119
 40
0.9031752367994191
 40
1.0
 40
1.0
 40
1.0
 40
1.0
 10
228.4726546624348
 20
107.4743568204767
 30
0.0
 10
228.4869965998941
 20
107.4773713504059
 30
0.0
 10
228.5147662987986
 20
107.4832082597294
 30
0.0
 10
228.5539149113084
 20
107.4962356323975
 30
0.0
 10
228.5898092397143
 20
107.5111591821079
 30
0.0
 10
228.621822802749
 20
107.5301253558606
 30
0.0
 10
228.6514665940375
 20
107.5519825718846
 30
0.0
 10
228.6772292549295
 20
107.5792832806905
 30
0.0
 10
228.7009578885106
 20
107.610301508429
 30
0.0
 10
228.7215166604243
 20
107.6457983416915
 30
0.0
 10
228.7381414127323
 20
107.6850672968151
 30
0.0
 10
228.7508474264863
 20
107.7275016407759
 30
0.0
 10
228.7576155748906
 20
107.7729525898037
 30
0.0
 10
228.7586120949674
 20
107.8041571346441
 30
0.0
 10
228.7591209772886
 20
107.8200920280589
 30
0.0
  0
SPLINE
  5
19E
330
1F
100
AcDbEntity
  8
0
  6
Continuous
 62
     7
370
     0
100
AcDbSpline
210
0.0
220
0.0
230
1.0
 70
     8
 71
     3
 72
    11
 73
     7
 74
     0
 42
0.00000001
 43
0.00000001
 40
0.0
 40
0.0
 40
0.0
 40
0.0
 40
0.3293954641291831
 40
0.6051903468528008
 40
0.8278865786947348
 40
1.0
 40
1.0
 40
1.0
 40
1.0
 10
228.2969059319139
 20
107.4644786716887
 30
0.0
 10
228.3162510826402
 20
107.4647009200864
 30
0.0
 10
228.3517934617949
 20
107.4651092517107
 30
0.0
 10
228.4004084925289
 20
107.4663902078889
 30
0.0
 10
228.4397044675796
 20
107.4695191046639
 30
0.0
 10
228.4626512404103
 20
107.472888127708
 30
0.0
 10
228.4726546624348
 20
107.4743568204767
 30
0.0
  0
LINE
  5
19F
330
1F
100
AcDbEntity
  8
0
  6
Continuous
 62
     7
370
     0
100
AcDbLine
 10
227.8108186936
 20
107.4644786717
 30
0.0
 11
228.2969059319
 21
107.4644786717
 31
0.0
  0
LINE
  5
1A0
330
1F
100
AcDbEntity
  8
0
  6
Continuous
 62
     7
370
     0
100
AcDbLine
 10
227.8108186936
 20
108.1757053844
 30
0.0
 11
227.8108186936
 21
107.4644786717
 31
0.0
  0
LINE
  5
1A1
330
1F
100
AcDbEntity
  8
0
  6
Continuous
 62
     7
370
     0
100
AcDbLine
 10
228.2635671798
 20
108.1757053844
 30
0.0
 11
227.8108186936
 21
108.1757053844
 31
0.0
  0
SPLINE
  5
1A2
330
1F
100
AcDbEntity
  8
0
  6
Continuous
 62
     7
370
     0
100
AcDbSpline
210
0.0
220
0.0
230
1.0
 70
     8
 71
     3
 72
    23
 73
    19
 74
     0
 42
0.00000001
 43
0.00000001
 40
0.0
 40
0.0
 40
0.0
 40
0.0
 40
0.0760105192062331
 40
0.1481357362434481
 40
0.2177881778331534
 40
0.2867678984972345
 40
0.3540434632439188
 40
0.4186108400234788
 40
0.4836364388553445
 40
0.5502295626461511
 40
0.5869278113138159
 40
0.6291578250269659
 40
0.6772382242876698
 40
0.7300426397437305
 40
0.7888625661169236
 40
0.8537504514610937
 40
0.9241097665384561
 40
0.9999999999999999
 40
0.9999999999999999
 40
0.9999999999999999
 40
0.9999999999999999
 10
228.6800957869841
 20
108.7239426421664
 30
0.0
 10
228.6795638725771
 20
108.7408532643291
 30
0.0
 10
228.6785272327394
 20
108.7738101167565
 30
0.0
 10
228.669825568161
 20
108.8216691805364
 30
0.0
 10
228.6547676590666
 20
108.8661932511106
 30
0.0
 10
228.6343751266677
 20
108.9073725614865
 30
0.0
 10
228.6085527622874
 20
108.9440074725041
 30
0.0
 10
228.5777328696417
 20
108.9755049206089
 30
0.0
 10
228.5408128136677
 20
108.9993156046111
 30
0.0
 10
228.5063036202521
 20
109.0141687583557
 30
0.0
 10
228.4752653357477
 20
109.0234608074217
 30
0.0
 10
228.4475337186304
 20
109.0289585303657
 30
0.0
 10
228.4160777935153
 20
109.0338025710295
 30
0.0
 10
228.3807940475558
 20
109.0379208133321
 30
0.0
 10
228.3416691339128
 20
109.0411169487933
 30
0.0
 10
228.2985825019057
 20
109.0436560666096
 30
0.0
 10
228.2516367164152
 20
109.0447341143911
 30
0.0
 10
228.2191157614629
 20
109.0448976287015
 30
0.0
 10
228.2022403393617
 20
109.0449824777784
 30
0.0
  0
SPLINE
  5
1A3
330
1F
100
AcDbEntity
  8
0
  6
Continuous
 62
     7
370
     0
100
AcDbSpline
210
0.0
220
0.0
230
1.0
 70
     8
 71
     3
 72
    15
 73
    11
 74
     0
 42
0.00000001
 43
0.00000001
 40
0.0
 40
0.0
 40
0.0
 40
0.0
 40
0.1323768784386573
 40
0.2551949197670689
 40
0.3737221416536693
 40
0.4900113154474171
 40
0.6078124214239343
 40
0.7311098159015433
 40
0.859997377757584
 40
0.9999999999999999
 40
0.9999999999999999
 40
0.9999999999999999
 40
0.9999999999999999
 10
228.4812980426244
 20
108.4370647377798
 30
0.0
 10
228.4970322860534
 20
108.4425764444856
 30
0.0
 10
228.5273646147563
 20
108.4532018616064
 30
0.0
 10
228.56801277248
 20
108.477333252105
 30
0.0
 10
228.6026331878615
 20
108.5062908029308
 30
0.0
 10
228.6311330857797
 20
108.5405858331783
 30
0.0
 10
228.6530338451362
 20
108.5800348101346
 30
0.0
 10
228.669272626021
 20
108.6238196578256
 30
0.0
 10
228.6781637188665
 20
108.6725524478902
 30
0.0
 10
228.6794342576086
 20
108.7063469255272
 30
0.0
 10
228.6800957869841
 20
108.7239426421664
 30
0.0
  0
SPLINE
  5
1A4
330
1F
100
AcDbEntity
  8
0
  6
Continuous
 62
     7
370
     0
100
AcDbSpline
210
0.0
220
0.0
230
1.0
 70
     8
 71
     3
 72
    15
 73
    11
 74
     0
 42
0.00000001
 43
0.00000001
 40
0.0
 40
0.0
 40
0.0
 40
0.0
 40
0.1669801744060311
 40
0.3208066328848195
 40
0.4631345048703185
 40
0.5942480539785212
 40
0.7123671525397443
 40
0.8194549510427519
 40
0.9157522665813541
 40
1.0
 40
1.0
 40
1.0
 40
1.0
 10
228.2343443229228
 20
108.4127809553425
 30
0.0
 10
228.2482031360461
 20
108.4128357860435
 30
0.0
 10
228.2748290465151
 20
108.4129411282053
 30
0.0
 10
228.3132362880108
 20
108.4144099122908
 30
0.0
 10
228.3486843309272
 20
108.4156629954143
 30
0.0
 10
228.3810360574966
 20
108.4188081372279
 30
0.0
 10
228.4104517407867
 20
108.4218886639203
 30
0.0
 10
228.4368136628024
 20
108.4260355330447
 30
0.0
 10
228.4602509456862
 20
108.4307081139899
 30
0.0
 10
228.4746015979699
 20
108.4350422840646
 30
0.0
 10
228.4812980426244
 20
108.4370647377798
 30
0.0
  0
LINE
  5
1A5
330
1F
100
AcDbEntity
  8
0
  6
Continuous
 62
     7
370
     0
100
AcDbLine
 10
227.8108186936
 20
108.4127809553
 30
0.0
 11
228.2343443229
 21
108.4127809553
 31
0.0
  0
LINE
  5
1A6
330
1F
100
AcDbEntity
  8
0
  6
Continuous
 62
     7
370
     0
100
AcDbLine
 10
227.8108186936
 20
109.0449824778
 30
0.0
 11
227.8108186936
 21
108.4127809553
 31
0.0
  0
LINE
  5
1A7
330
1F
100
AcDbEntity
  8
0
  6
Continuous
 62
     7
370
     0
100
AcDbLine
 10
228.2022403394
 20
109.0449824778
 30
0.0
 11
227.8108186936
 21
109.0449824778
 31
0.0
  0
SPLINE
  5
1A8
330
1F
100
AcDbEntity
  8
0
  6
Continuous
 62
     7
370
     0
100
AcDbSpline
210
0.0
220
0.0
230
1.0
 70
     8
 71
     3
 72
    23
 73
    19
 74
     0
 42
0.00000001
 43
0.00000001
 40
0.0
 40
0.0
 40
0.0
 40
0.0
 40
0.1184055081537695
 40
0.226654332816702
 40
0.324092341928602
 40
0.4117048030053218
 40
0.4890259050064158
 40
0.5569093973430759
 40
0.6162333444927074
 40
0.6673492812770747
 40
0.7135123932013476
 40
0.7576965045209786
 40
0.799492511442291
 40
0.8399760647439397
 40
0.8798857418167763
 40
0.9191486593857416
 40
0.9592273564930831
 40
1.0
 40
1.0
 40
1.0
 40
1.0
 10
226.7044660293719
 20
105.0805520975033
 30
0.0
 10
226.7047275818048
 20
105.0410336096131
 30
0.0
 10
226.7052282510144
 20
104.965386482665
 30
0.0
 10
226.7104590289479
 20
104.8573115104717
 30
0.0
 10
226.7194635978589
 20
104.7598131332419
 30
0.0
 10
226.7313682261082
 20
104.6730263438492
 30
0.0
 10
226.7470871553806
 20
104.596833745999
 30
0.0
 10
226.7668241302132
 20
104.5314295018867
 30
0.0
 10
226.7890723952234
 20
104.4760286123091
 30
0.0
 10
226.8166042015822
 20
104.4313177286551
 30
0.0
 10
226.8467484886359
 20
104.3948718361228
 30
0.0
 10
226.8778704049053
 20
104.3635271898912
 30
0.0
 10
226.9107021415
 20
104.3368849583066
 30
0.0
 10
226.9450294753065
 20
104.3146707704888
 30
0.0
 10
226.9813850196112
 20
104.2978516469575
 30
0.0
 10
227.0193712325804
 20
104.2856611087696
 30
0.0
 10
227.0589963796895
 20
104.2786456412157
 30
0.0
 10
227.085982905449
 20
104.2776376505356
 30
0.0
 10
227.0995919808944
 20
104.2771293294077
 30
0.0
  0
SPLINE
  5
1A9
330
1F
100
AcDbEntity
  8
0
  6
Continuous
 62
     7
370
     0
100
AcDbSpline
210
0.0
220
0.0
230
1.0
 70
     8
 71
     3
 72
    15
 73
    11
 74
     0
 42
0.00000001
 43
0.00000001
 40
0.0
 40
0.0
 40
0.0
 40
0.0
 40
0.0838881132795455
 40
0.1771540327539696
 40
0.2825136355617228
 40
0.3993998606601629
 40
0.5294908061912204
 40
0.6728021776758328
 40
0.8295357616196702
 40
1.0
 40
1.0
 40
1.0
 40
1.0
 10
226.8234154043615
 20
105.7432112453691
 30
0.0
 10
226.8136249800368
 20
105.726842643928
 30
0.0
 10
226.7929496652194
 20
105.6922756040643
 30
0.0
 10
226.7698151901187
 20
105.6321966645749
 30
0.0
 10
226.7493791093609
 20
105.5635378724687
 30
0.0
 10
226.7325534394109
 20
105.4852428623617
 30
0.0
 10
226.7203812475793
 20
105.3974459416885
 30
0.0
 10
226.7107717727924
 20
105.300249069975
 30
0.0
 10
226.7057800083232
 20
105.1935165487598
 30
0.0
 10
226.7049161067213
 20
105.1192458229608
 30
0.0
 10
226.7044660293719
 20
105.0805520975033
 30
0.0
  0
SPLINE
  5
1AA
330
1F
100
AcDbEntity
  8
0
  6
Continuous
 62
     7
370
     0
100
AcDbSpline
210
0.0
220
0.0
230
1.0
 70
     8
 71
     3
 72
    15
 73
    11
 74
     0
 42
0.00000001
 43
0.00000001
 40
0.0
 40
0.0
 40
0.0
 40
0.0
 40
0.1276647678962251
 40
0.2517385630080496
 40
0.3727533493873896
 40
0.492146758972386
 40
0.614069621309245
 40
0.7371973244121095
 40
0.8656069906011175
 40
1.0
 40
1.0
 40
1.0
 40
1.0
 10
227.0967108541645
 20
105.8839748655989
 30
0.0
 10
227.0831026334441
 20
105.8836177035205
 30
0.0
 10
227.0562689659751
 20
105.8829134256696
 30
0.0
 10
227.0169809625922
 20
105.8761911007148
 30
0.0
 10
226.9797481833293
 20
105.8649498750713
 30
0.0
 10
226.9441440608915
 20
105.8497225434408
 30
0.0
 10
226.9110574332049
 20
105.829229562742
 30
0.0
 10
226.8791761668974
 20
105.8053025490794
 30
0.0
 10
226.8499934571322
 20
105.7761501535359
 30
0.0
 10
226.8324082122666
 20
105.7543562783142
 30
0.0
 10
226.8234154043615
 20
105.7432112453691
 30
0.0
  0
SPLINE
  5
1AB
330
1F
100
AcDbEntity
  8
0
  6
Continuous
 62
     7
370
     0
100
AcDbSpline
210
0.0
220
0.0
230
1.0
 70
     8
 71
     3
 72
    23
 73
    19
 74
     0
 42
0.00000001
 43
0.00000001
 40
0.0
 40
0.0
 40
0.0
 40
0.0
 40
0.1156291309254414
 40
0.2215410391198768
 40
0.3170478562190418
 40
0.4031508756396167
 40
0.4801812167162794
 40
0.5476493661481898
 40
0.6070358428421809
 40
0.658652408063507
 40
0.7057228903536461
 40
0.7498040879796471
 40
0.7925868153452744
 40
0.8338739610102608
 40
0.874768393303433
 40
0.9152226988916382
 40
0.9568807037304802
 40
1.0
 40
1.0
 40
1.0
 40
1.0
 10
227.4947179324168
 20
105.0805520975033
 30
0.0
 10
227.4944684808395
 20
105.1192485081197
 30
0.0
 10
227.4939905410575
 20
105.193389366479
 30
0.0
 10
227.4885889457191
 20
105.2993822716775
 30
0.0
 10
227.4801241603766
 20
105.3952441784376
 30
0.0
 10
227.4685456787574
 20
105.4810634625482
 30
0.0
 10
227.4531578788325
 20
105.5567469554113
 30
0.0
 10
227.4344945765956
 20
105.6224557768962
 30
0.0
 10
227.4122544613799
 20
105.6780497922663
 30
0.0
 10
227.3858110437521
 20
105.7240874445006
 30
0.0
 10
227.3563742289724
 20
105.7618508088336
 30
0.0
 10
227.3256246853561
 20
105.7945382865187
 30
0.0
 10
227.2927936712125
 20
105.8223379213597
 30
0.0
 10
227.2572995197629
 20
105.8446391985217
 30
0.0
 10
227.2202862742647
 20
105.8626310394392
 30
0.0
 10
227.1809034644137
 20
105.8750134825261
 30
0.0
 10
227.1395381921078
 20
105.8826208682499
 30
0.0
 10
227.1111497423841
 20
105.8835183764191
 30
0.0
 10
227.0967108541645
 20
105.8839748655989
 30
0.0
  0
SPLINE
  5
1AC
330
1F
100
AcDbEntity
  8
0
  6
Continuous
 62
     7
370
     0
100
AcDbSpline
210
0.0
220
0.0
230
1.0
 70
     8
 71
     3
 72
    23
 73
    19
 74
     0
 42
0.00000001
 43
0.00000001
 40
0.0
 40
0.0
 40
0.0
 40
0.0
 40
0.0407818458722597
 40
0.0808695887215869
 40
0.1202681657882672
 40
0.1601868504553522
 40
0.2004597376386391
 40
0.2422651778979083
 40
0.2864592615494685
 40
0.3329520837492635
 40
0.3844305340495303
 40
0.4433891253601059
 40
0.5116814722136834
 40
0.5890200255490085
 40
0.6762451906507723
 40
0.7737051914728238
 40
0.881567767781983
 40
1.0
 40
1.0
 40
1.0
 40
1.0
 10
227.0995919808944
 20
104.2771293294077
 30
0.0
 10
227.1131976484713
 20
104.2776487574248
 30
0.0
 10
227.1401774164954
 20
104.2786787728452
 30
0.0
 10
227.1798941211233
 20
104.2855395425296
 30
0.0
 10
227.2177325384988
 20
104.2983576412463
 30
0.0
 10
227.2540338767388
 20
104.3151173597966
 30
0.0
 10
227.2886107118991
 20
104.3368252194545
 30
0.0
 10
227.3212812020598
 20
104.3635680847662
 30
0.0
 10
227.3525670623352
 20
104.3948941195846
 30
0.0
 10
227.3825759420171
 20
104.4317636292348
 30
0.0
 10
227.4098979943661
 20
104.4766812261806
 30
0.0
 10
227.4325636095093
 20
104.5320369861456
 30
0.0
 10
227.4519929945909
 20
104.5975557725847
 30
0.0
 10
227.4677981766726
 20
104.6737095506341
 30
0.0
 10
227.4797519132864
 20
104.7603591236346
 30
0.0
 10
227.4887020395602
 20
104.8575870845181
 30
0.0
 10
227.4939678231325
 20
104.9655229995292
 30
0.0
 10
227.4944602296362
 20
105.041033431333
 30
0.0
 10
227.4947179324168
 20
105.0805520975033
 30
0.0
  0
SPLINE
  5
1AD
330
1F
100
AcDbEntity
  8
0
  6
Continuous
 62
     7
370
     0
100
AcDbSpline
210
0.0
220
0.0
230
1.0
 70
     8
 71
     3
 72
    15
 73
    11
 74
     0
 42
0.00000001
 43
0.00000001
 40
0.0
 40
0.0
 40
0.0
 40
0.0
 40
0.1531481085926313
 40
0.2994334688329063
 40
0.4364263514567509
 40
0.5656705729563584
 40
0.6865083102878721
 40
0.7992685160630035
 40
0.9033947408013439
 40
1.0
 40
1.0
 40
1.0
 40
1.0
 10
226.473564301451
 20
108.6366856612052
 30
0.0
 10
226.4659115479508
 20
108.6575507365463
 30
0.0
 10
226.4509489699096
 20
108.6983458984603
 30
0.0
 10
226.4286352582131
 20
108.757617824904
 30
0.0
 10
226.4082498107786
 20
108.8139048790305
 30
0.0
 10
226.3882602055597
 20
108.8663999851072
 30
0.0
 10
226.3702152318816
 20
108.9158656873138
 30
0.0
 10
226.353582717112
 20
108.961967867237
 30
0.0
 10
226.3371333003453
 20
109.0043860926584
 30
0.0
 10
226.3272617739485
 20
109.0317926369747
 30
0.0
 10
226.3225109429002
 20
109.0449824777784
 30
0.0
  0
LINE
  5
1AE
330
1F
100
AcDbEntity
  8
0
  6
Continuous
 62
     7
370
     0
100
AcDbLine
 10
226.6731852249
 20
108.0966801941
 30
0.0
 11
226.4735643015
 21
108.6366856612
 31
0.0
  0
LINE
  5
1AF
330
1F
100
AcDbEntity
  8
0
  6
Continuous
 62
     7
370
     0
100
AcDbLine
 10
225.9718366609
 20
108.0966801941
 30
0.0
 11
226.6731852249
 21
108.0966801941
 31
0.0
  0
LINE
  5
1B0
330
1F
100
AcDbEntity
  8
0
  6
Continuous
 62
     7
370
     0
100
AcDbLine
 10
226.1821589122
 20
108.6654969285
 30
0.0
 11
225.9718366609
 21
108.0966801941
 31
0.0
  0
SPLINE
  5
1B1
330
1F
100
AcDbEntity
  8
0
  6
Continuous
 62
     7
370
     0
100
AcDbSpline
210
0.0
220
0.0
230
1.0
 70
     8
 71
     3
 72
    11
 73
     7
 74
     0
 42
0.00000001
 43
0.00000001
 40
0.0
 40
0.0
 40
0.0
 40
0.0
 40
0.2472940500353368
 40
0.4956077709090492
 40
0.746359172773196
 40
1.0
 40
1.0
 40
1.0
 40
1.0
 10
226.3225109429002
 20
109.0449824777784
 30
0.0
 10
226.3146521513521
 20
109.0124574919026
 30
0.0
 10
226.2989021639963
 20
108.9472734094451
 30
0.0
 10
226.2659255251318
 20
108.8517699840756
 30
0.0
 10
226.2282013955954
 20
108.7571399806381
 30
0.0
 10
226.1975649073347
 20
108.6961610523955
 30
0.0
 10
226.1821589122032
 20
108.6654969285037
 30
0.0
  0
SPLINE
  5
1B2
330
1F
100
AcDbEntity
  8
0
  6
Continuous
 62
     7
370
     0
100
AcDbSpline
210
0.0
220
0.0
230
1.0
 70
     8
 71
     3
 72
    23
 73
    19
 74
     0
 42
0.00000001
 43
0.00000001
 40
0.0
 40
0.0
 40
0.0
 40
0.0
 40
0.1156291309254414
 40
0.2215410391198768
 40
0.3170478562190417
 40
0.4031508756396167
 40
0.4801812167162795
 40
0.5476493661481898
 40
0.6070358428421809
 40
0.6586524080635072
 40
0.705722890353646
 40
0.749804087979647
 40
0.7925868153452743
 40
0.8338739610102607
 40
0.8747683933034329
 40
0.9152226988916381
 40
0.9568807037304801
 40
1.0
 40
1.0
 40
1.0
 40
1.0
 10
225.914214126327
 20
105.0805520975033
 30
0.0
 10
225.9139646747498
 20
105.1192485081197
 30
0.0
 10
225.9134867349678
 20
105.193389366479
 30
0.0
 10
225.9080851396293
 20
105.2993822716775
 30
0.0
 10
225.8996203542868
 20
105.3952441784376
 30
0.0
 10
225.8880418726677
 20
105.4810634625482
 30
0.0
 10
225.8726540727427
 20
105.5567469554113
 30
0.0
 10
225.8539907705058
 20
105.6224557768962
 30
0.0
 10
225.8317506552902
 20
105.6780497922663
 30
0.0
 10
225.8053072376624
 20
105.7240874445006
 30
0.0
 10
225.7758704228826
 20
105.7618508088336
 30
0.0
 10
225.7451208792664
 20
105.7945382865187
 30
0.0
 10
225.7122898651227
 20
105.8223379213597
 30
0.0
 10
225.6767957136732
 20
105.8446391985217
 30
0.0
 10
225.639782468175
 20
105.8626310394392
 30
0.0
 10
225.6003996583239
 20
105.8750134825261
 30
0.0
 10
225.5590343860181
 20
105.8826208682499
 30
0.0
 10
225.5306459362944
 20
105.8835183764191
 30
0.0
 10
225.5162070480748
 20
105.8839748655989
 30
0.0
  0
SPLINE
  5
1B3
330
1F
100
AcDbEntity
  8
0
  6
Continuous
 62
     7
370
     0
100
AcDbSpline
210
0.0
220
0.0
230
1.0
 70
     8
 71
     3
 72
    23
 73
    19
 74
     0
 42
0.00000001
 43
0.00000001
 40
0.0
 40
0.0
 40
0.0
 40
0.0
 40
0.0407818458722597
 40
0.0808695887215869
 40
0.1202681657882671
 40
0.1601868504553522
 40
0.2004597376386391
 40
0.2422651778979079
 40
0.2864592615494684
 40
0.3329520837492633
 40
0.3844305340495303
 40
0.4433891253601058
 40
0.5116814722136833
 40
0.5890200255490083
 40
0.6762451906507723
 40
0.7737051914728237
 40
0.881567767781983
 40
1.0
 40
1.0
 40
1.0
 40
1.0
 10
225.5190881748046
 20
104.2771293294077
 30
0.0
 10
225.5326938423815
 20
104.2776487574248
 30
0.0
 10
225.5596736104056
 20
104.2786787728452
 30
0.0
 10
225.5993903150336
 20
104.2855395425296
 30
0.0
 10
225.637228732409
 20
104.2983576412463
 30
0.0
 10
225.673530070649
 20
104.3151173597966
 30
0.0
 10
225.7081069058093
 20
104.3368252194545
 30
0.0
 10
225.7407773959701
 20
104.3635680847662
 30
0.0
 10
225.7720632562454
 20
104.3948941195846
 30
0.0
 10
225.8020721359274
 20
104.4317636292348
 30
0.0
 10
225.8293941882764
 20
104.4766812261806
 30
0.0
 10
225.8520598034196
 20
104.5320369861456
 30
0.0
 10
225.8714891885011
 20
104.5975557725847
 30
0.0
 10
225.8872943705828
 20
104.6737095506341
 30
0.0
 10
225.8992481071967
 20
104.7603591236346
 30
0.0
 10
225.9081982334705
 20
104.8575870845181
 30
0.0
 10
225.9134640170428
 20
104.9655229995292
 30
0.0
 10
225.9139564235464
 20
105.041033431333
 30
0.0
 10
225.914214126327
 20
105.0805520975033
 30
0.0
  0
SPLINE
  5
1B4
330
1F
100
AcDbEntity
  8
0
  6
Continuous
 62
     7
370
     0
100
AcDbSpline
210
0.0
220
0.0
230
1.0
 70
     8
 71
     3
 72
    23
 73
    19
 74
     0
 42
0.00000001
 43
0.00000001
 40
0.0
 40
0.0
 40
0.0
 40
0.0
 40
0.1184055081537695
 40
0.226654332816702
 40
0.324092341928602
 40
0.4117048030053218
 40
0.4890259050064158
 40
0.5569093973430759
 40
0.6162333444927073
 40
0.6673492812770748
 40
0.7135123932013476
 40
0.7576965045209785
 40
0.7994925114422912
 40
0.8399760647439397
 40
0.8798857418167763
 40
0.9191486593857416
 40
0.9592273564930831
 40
1.0
 40
1.0
 40
1.0
 40
1.0
 10
225.1239622232821
 20
105.0805520975033
 30
0.0
 10
225.1242237757151
 20
105.0410336096131
 30
0.0
 10
225.1247244449247
 20
104.965386482665
 30
0.0
 10
225.1299552228581
 20
104.8573115104717
 30
0.0
 10
225.1389597917691
 20
104.7598131332419
 30
0.0
 10
225.1508644200185
 20
104.6730263438492
 30
0.0
 10
225.1665833492908
 20
104.596833745999
 30
0.0
 10
225.1863203241234
 20
104.5314295018867
 30
0.0
 10
225.2085685891336
 20
104.4760286123091
 30
0.0
 10
225.2361003954924
 20
104.4313177286551
 30
0.0
 10
225.2662446825461
 20
104.3948718361228
 30
0.0
 10
225.2973665988156
 20
104.3635271898912
 30
0.0
 10
225.3301983354103
 20
104.3368849583066
 30
0.0
 10
225.3645256692168
 20
104.3146707704888
 30
0.0
 10
225.4008812135214
 20
104.2978516469575
 30
0.0
 10
225.4388674264906
 20
104.2856611087696
 30
0.0
 10
225.4784925735998
 20
104.2786456412157
 30
0.0
 10
225.5054790993592
 20
104.2776376505356
 30
0.0
 10
225.5190881748046
 20
104.2771293294077
 30
0.0
  0
SPLINE
  5
1B5
330
1F
100
AcDbEntity
  8
0
  6
Continuous
 62
     7
370
     0
100
AcDbSpline
210
0.0
220
0.0
230
1.0
 70
     8
 71
     3
 72
    15
 73
    11
 74
     0
 42
0.00000001
 43
0.00000001
 40
0.0
 40
0.0
 40
0.0
 40
0.0
 40
0.0838881132795455
 40
0.1771540327539697
 40
0.2825136355617227
 40
0.3993998606601629
 40
0.5294908061912204
 40
0.6728021776758328
 40
0.82953576161967
 40
1.0
 40
1.0
 40
1.0
 40
1.0
 10
225.2429115982717
 20
105.7432112453691
 30
0.0
 10
225.2331211739471
 20
105.726842643928
 30
0.0
 10
225.2124458591297
 20
105.6922756040643
 30
0.0
 10
225.1893113840289
 20
105.6321966645749
 30
0.0
 10
225.1688753032712
 20
105.5635378724687
 30
0.0
 10
225.1520496333212
 20
105.4852428623617
 30
0.0
 10
225.1398774414895
 20
105.3974459416885
 30
0.0
 10
225.1302679667026
 20
105.300249069975
 30
0.0
 10
225.1252762022334
 20
105.1935165487598
 30
0.0
 10
225.1244123006316
 20
105.1192458229608
 30
0.0
 10
225.1239622232821
 20
105.0805520975033
 30
0.0
  0
SPLINE
  5
1B6
330
1F
100
AcDbEntity
  8
0
  6
Continuous
 62
     7
370
     0
100
AcDbSpline
210
0.0
220
0.0
230
1.0
 70
     8
 71
     3
 72
    15
 73
    11
 74
     0
 42
0.00000001
 43
0.00000001
 40
0.0
 40
0.0
 40
0.0
 40
0.0
 40
0.1276647678962251
 40
0.2517385630080496
 40
0.3727533493873896
 40
0.492146758972386
 40
0.614069621309245
 40
0.7371973244121095
 40
0.8656069906011175
 40
1.0
 40
1.0
 40
1.0
 40
1.0
 10
225.5162070480748
 20
105.8839748655989
 30
0.0
 10
225.5025988273544
 20
105.8836177035205
 30
0.0
 10
225.4757651598854
 20
105.8829134256696
 30
0.0
 10
225.4364771565024
 20
105.8761911007148
 30
0.0
 10
225.3992443772395
 20
105.8649498750713
 30
0.0
 10
225.3636402548018
 20
105.8497225434408
 30
0.0
 10
225.3305536271152
 20
105.829229562742
 30
0.0
 10
225.2986723608077
 20
105.8053025490794
 30
0.0
 10
225.2694896510424
 20
105.7761501535359
 30
0.0
 10
225.2519044061768
 20
105.7543562783142
 30
0.0
 10
225.2429115982717
 20
105.7432112453691
 30
0.0
  0
SPLINE
  5
1B7
330
1F
100
AcDbEntity
  8
0
  6
Continuous
 62
     7
370
     0
100
AcDbSpline
210
0.0
220
0.0
230
1.0
 70
     8
 71
     3
 72
    23
 73
    19
 74
     0
 42
0.00000001
 43
0.00000001
 40
0.0
 40
0.0
 40
0.0
 40
0.0
 40
0.0603255293380428
 40
0.1181599905079977
 40
0.1741866762963808
 40
0.2295388181457999
 40
0.2834498146386372
 40
0.337826511950592
 40
0.3926321025334832
 40
0.4484655764151909
 40
0.5059654091573053
 40
0.5650585322290048
 40
0.6266544786228438
 40
0.6922320330373639
 40
0.7611310781257618
 40
0.8353098773394203
 40
0.9153255598322017
 40
1.0
 40
1.0
 40
1.0
 40
1.0
 10
223.2800411161775
 20
108.7218846945023
 30
0.0
 10
223.2796586885666
 20
108.7334177719024
 30
0.0
 10
223.2789096252203
 20
108.7560076825269
 30
0.0
 10
223.2749827874198
 20
108.78916339949
 30
0.0
 10
223.2673480824249
 20
108.8206689942638
 30
0.0
 10
223.2572664732141
 20
108.8506910089634
 30
0.0
 10
223.2437953975048
 20
108.8790095537944
 30
0.0
 10
223.2277923091284
 20
108.9058440661727
 30
0.0
 10
223.2086956843524
 20
108.9310458183972
 30
0.0
 10
223.1868215994791
 20
108.9546915788671
 30
0.0
 10
223.1617061749071
 20
108.9762069100643
 30
0.0
 10
223.1330184555438
 20
108.9947699743289
 30
0.0
 10
223.1009846997466
 20
109.0105445742979
 30
0.0
 10
223.0655676734868
 20
109.0230643513474
 30
0.0
 10
223.0268789468684
 20
109.0330781350175
 30
0.0
 10
222.9846982734942
 20
109.0397399823097
 30
0.0
 10
222.9392185545912
 20
109.0445604728061
 30
0.0
 10
222.9077037468336
 20
109.0448391814159
 30
0.0
 10
222.8915005971804
 20
109.0449824777784
 30
0.0
  0
LINE
  5
1B8
330
1F
100
AcDbEntity
  8
0
  6
Continuous
 62
     7
370
     0
100
AcDbLine
 10
222.2790553723
 20
108.3864392252
 30
0.0
 11
222.8293505777
 21
108.3864392252
 31
0.0
  0
LINE
  5
1B9
330
1F
100
AcDbEntity
  8
0
  6
Continuous
 62
     7
370
     0
100
AcDbLine
 10
222.2790553723
 20
109.0449824778
 30
0.0
 11
222.2790553723
 21
108.3864392252
 31
0.0
  0
LINE
  5
1BA
330
1F
100
AcDbEntity
  8
0
  6
Continuous
 62
     7
370
     0
100
AcDbLine
 10
222.8915005972
 20
109.0449824778
 30
0.0
 11
222.2790553723
 21
109.0449824778
 31
0.0
  0
SPLINE
  5
1BB
330
1F
100
AcDbEntity
  8
0
  6
Continuous
 62
     7
370
     0
100
AcDbSpline
210
0.0
220
0.0
230
1.0
 70
     8
 71
     3
 72
    19
 73
    15
 74
     0
 42
0.00000001
 43
0.00000001
 40
0.0
 40
0.0
 40
0.0
 40
0.0
 40
0.1288602680417313
 40
0.2408921848092289
 40
0.3380442015575112
 40
0.4201204852136088
 40
0.494058456868551
 40
0.5660947835833202
 40
0.6368049543510103
 40
0.7091484493607204
 40
0.7819418055941272
 40
0.8542853006038369
 40
0.9261704072165587
 40
1.0
 40
1.0
 40
1.0
 40
1.0
 10
222.8293505777222
 20
108.386439225241
 30
0.0
 10
222.85694446377
 20
108.3868709577578
 30
0.0
 10
222.9085286456009
 20
108.3876780412041
 30
0.0
 10
222.9806609633105
 20
108.3945696855275
 30
0.0
 10
223.0421337474503
 20
108.4055208010194
 30
0.0
 10
223.0941622272056
 20
108.4214942855177
 30
0.0
 10
223.1378743627072
 20
108.4436707864201
 30
0.0
 10
223.1758916374845
 20
108.4706969967808
 30
0.0
 10
223.2074844713785
 20
108.5045501387275
 30
0.0
 10
223.2337664456614
 20
108.5427462018922
 30
0.0
 10
223.2541959634305
 20
108.5847790627849
 30
0.0
 10
223.2689328431545
 20
108.6289284205446
 30
0.0
 10
223.2785783872478
 20
108.6748232283837
 30
0.0
 10
223.2795492214433
 20
108.7060585992536
 30
0.0
 10
223.2800411161775
 20
108.7218846945023
 30
0.0
  0
SPLINE
  5
1BC
330
1F
100
AcDbEntity
  8
0
  6
Continuous
 62
     7
370
     0
100
AcDbSpline
210
0.0
220
0.0
230
1.0
 70
     8
 71
     3
 72
    23
 73
    19
 74
     0
 42
0.00000001
 43
0.00000001
 40
0.0
 40
0.0
 40
0.0
 40
0.0
 40
0.0718367171319505
 40
0.1395582629178172
 40
0.2049233526537264
 40
0.2678265586039221
 40
0.3285473200936659
 40
0.3887551463289839
 40
0.4480299679797879
 40
0.5086005276974233
 40
0.5693212891871666
 40
0.6285118954019238
 40
0.687493275539241
 40
0.747078295388978
 40
0.8077025413165653
 40
0.8697098126206608
 40
0.933428331305089
 40
1.0
 40
1.0
 40
1.0
 40
1.0
 10
221.4118362266354
 20
104.2771293294077
 30
0.0
 10
221.4268093401202
 20
104.2773829629935
 30
0.0
 10
221.4558978312405
 20
104.2778757007475
 30
0.0
 10
221.4982997436845
 20
104.2835062866262
 30
0.0
 10
221.5382519316328
 20
104.2920497273082
 30
0.0
 10
221.5759374340712
 20
104.3037641848478
 30
0.0
 10
221.6108015623604
 20
104.3197903381985
 30
0.0
 10
221.6434120646376
 20
104.3385214303129
 30
0.0
 10
221.6734353773706
 20
104.3611593889712
 30
0.0
 10
221.700863001158
 20
104.386995014054
 30
0.0
 10
221.725415586688
 20
104.4155740572704
 30
0.0
 10
221.7464479810156
 20
104.4464046004327
 30
0.0
 10
221.7647947870119
 20
104.4786196099263
 30
0.0
 10
221.7797741153321
 20
104.51291433535
 30
0.0
 10
221.7906065839811
 20
104.5493594954072
 30
0.0
 10
221.7989653635336
 20
104.5872975404426
 30
0.0
 10
221.8040079679441
 20
104.6271197806224
 30
0.0
 10
221.8046011464189
 20
104.6542680160682
 30
0.0
 10
221.8049042304937
 20
104.6681393856018
 30
0.0
  0
SPLINE
  5
1BD
330
1F
100
AcDbEntity
  8
0
  6
Continuous
 62
     7
370
     0
100
AcDbSpline
210
0.0
220
0.0
230
1.0
 70
     8
 71
     3
 72
    19
 73
    15
 74
     0
 42
0.00000001
 43
0.00000001
 40
0.0
 40
0.0
 40
0.0
 40
0.0
 40
0.0798232712797873
 40
0.1598568116661124
 40
0.2397327021152788
 40
0.3213646023254474
 40
0.4025836963489389
 40
0.483265588546352
 40
0.5660170116609762
 40
0.6530713596602558
 40
0.7418556865073695
 40
0.8285909050739395
 40
0.9142807452008549
 40
1.0
 40
1.0
 40
1.0
 40
1.0
 10
221.0146523274488
 20
104.6763711762585
 30
0.0
 10
221.0151078353887
 20
104.6594688796322
 30
0.0
 10
221.0160200511599
 20
104.6256197626368
 30
0.0
 10
221.0240221468717
 20
104.5753466509382
 30
0.0
 10
221.0376000457872
 20
104.5260097164685
 30
0.0
 10
221.0550024869553
 20
104.4775623571039
 30
0.0
 10
221.079549712386
 20
104.4319599930343
 30
0.0
 10
221.1121020940632
 20
104.3912565278581
 30
0.0
 10
221.1529492360332
 20
104.3570355085081
 30
0.0
 10
221.1995989057214
 20
104.3281242926435
 30
0.0
 10
221.2505056893423
 20
104.3053686792685
 30
0.0
 10
221.3035520464127
 20
104.2894844879127
 30
0.0
 10
221.3573688779142
 20
104.2789890071262
 30
0.0
 10
221.393678366764
 20
104.2777492928943
 30
0.0
 10
221.4118362266354
 20
104.2771293294077
 30
0.0
  0
SPLINE
  5
1BE
330
1F
100
AcDbEntity
  8
0
  6
Continuous
 62
     7
370
     0
100
AcDbSpline
210
0.0
220
0.0
230
1.0
 70
     8
 71
     3
 72
    23
 73
    19
 74
     0
 42
0.00000001
 43
0.00000001
 40
0.0
 40
0.0
 40
0.0
 40
0.0
 40
0.0709524654154269
 40
0.1390889271416602
 40
0.2035598239190671
 40
0.2664237811295191
 40
0.3275165661984789
 40
0.3878608717608968
 40
0.4478987850107178
 40
0.5088188285885856
 40
0.5694824568188307
 40
0.6290357116670982
 40
0.6883784585529115
 40
0.7480679615575835
 40
0.8086301697509072
 40
0.8702311456070247
 40
0.933682580472202
 40
1.0
 40
1.0
 40
1.0
 40
1.0
 10
221.4040160255115
 20
105.0673812324526
 30
0.0
 10
221.3893175562927
 20
105.0671156410001
 30
0.0
 10
221.3605039794521
 20
105.0665949990468
 30
0.0
 10
221.3186458169442
 20
105.061054920861
 30
0.0
 10
221.2790189972156
 20
105.0525471982104
 30
0.0
 10
221.2419721587105
 20
105.0400950135786
 30
0.0
 10
221.2070421013626
 20
105.0245347433989
 30
0.0
 10
221.1748676841302
 20
105.0049688171337
 30
0.0
 10
221.1448749176777
 20
104.982258359635
 30
0.0
 10
221.1179799736741
 20
104.9558617726238
 30
0.0
 10
221.0937137644229
 20
104.9271879024491
 30
0.0
 10
221.0727330277602
 20
104.8964496017276
 30
0.0
 10
221.0541986733313
 20
104.8643599069797
 30
0.0
 10
221.0401333432432
 20
104.8298658382993
 30
0.0
 10
221.02822830048
 20
104.7940825259107
 30
0.0
 10
221.0207857656495
 20
104.756315454465
 30
0.0
 10
221.0154950533964
 20
104.7169937240883
 30
0.0
 10
221.0149373418412
 20
104.6901099377376
 30
0.0
 10
221.0146523274488
 20
104.6763711762585
 30
0.0
  0
SPLINE
  5
1BF
330
1F
100
AcDbEntity
  8
0
  6
Continuous
 62
     7
370
     0
100
AcDbSpline
210
0.0
220
0.0
230
1.0
 70
     8
 71
     3
 72
    23
 73
    19
 74
     0
 42
0.00000001
 43
0.00000001
 40
0.0
 40
0.0
 40
0.0
 40
0.0
 40
0.0666161804351809
 40
0.130423869924064
 40
0.1926709575700171
 40
0.2529685047960665
 40
0.312880382805784
 40
0.3722002559180861
 40
0.4319271071459047
 40
0.4924217452545999
 40
0.5527712209075776
 40
0.6132624068156192
 40
0.6735564905563718
 40
0.7343197960333021
 40
0.7968580801403251
 40
0.8617690047507051
 40
0.9288631073150267
 40
0.9999999999999999
 40
0.9999999999999999
 40
0.9999999999999999
 40
0.9999999999999999
 10
221.8049042304937
 20
104.6681393856018
 30
0.0
 10
221.8045914938466
 20
104.682283033793
 30
0.0
 10
221.8039792053078
 20
104.7099740439935
 30
0.0
 10
221.7990647498332
 20
104.7506702999881
 30
0.0
 10
221.7902372635796
 20
104.7892758085189
 30
0.0
 10
221.7788850795064
 20
104.8263737864177
 30
0.0
 10
221.7634996240952
 20
104.8613188350749
 30
0.0
 10
221.7450315389502
 20
104.8946120247521
 30
0.0
 10
221.7224156376425
 20
104.9253758209473
 30
0.0
 10
221.6976154977909
 20
104.9546546594361
 30
0.0
 10
221.6695500442965
 20
104.9811587760397
 30
0.0
 10
221.6385569992582
 20
105.0040142771881
 30
0.0
 10
221.6056186025341
 20
105.0241995554817
 30
0.0
 10
221.5697384377499
 20
105.0396833680589
 30
0.0
 10
221.5317069935598
 20
105.0520862550015
 30
0.0
 10
221.491343589044
 20
105.0610983811528
 30
0.0
 10
221.4484836506809
 20
105.066607254177
 30
0.0
 10
221.419124783167
 20
105.0671182579818
 30
0.0
 10
221.4040160255115
 20
105.0673812324526
 30
0.0
  0
SPLINE
  5
1C0
330
1F
100
AcDbEntity
  8
0
  6
Continuous
 62
     7
370
     0
100
AcDbSpline
210
0.0
220
0.0
230
1.0
 70
     8
 71
     3
 72
    19
 73
    15
 74
     0
 42
0.00000001
 43
0.00000001
 40
0.0
 40
0.0
 40
0.0
 40
0.0
 40
0.0768426979287827
 40
0.1498390532852208
 40
0.2183793964454711
 40
0.2849970207005652
 40
0.3476576708142682
 40
0.4098471591145119
 40
0.4699357615076958
 40
0.5304196066566044
 40
0.6487517360264009
 40
0.7637748930771634
 40
0.8787494877784697
 40
0.9999999999999999
 40
0.9999999999999999
 40
0.9999999999999999
 40
0.9999999999999999
 10
221.4122478161683
 20
105.304456803366
 30
0.0
 10
221.4244739022931
 20
105.3046312210034
 30
0.0
 10
221.4483141007726
 20
105.3049713258457
 30
0.0
 10
221.4828001471356
 20
105.3094099053519
 30
0.0
 10
221.5153893407698
 20
105.3153380460413
 30
0.0
 10
221.5456001090093
 20
105.3243212321139
 30
0.0
 10
221.5737812336288
 20
105.3360019939006
 30
0.0
 10
221.599474360855
 20
105.350401489822
 30
0.0
 10
221.6234483525267
 20
105.3669506428283
 30
0.0
 10
221.6514772917564
 20
105.3926933305878
 30
0.0
 10
221.6815554454442
 20
105.4288754241511
 30
0.0
 10
221.7073338512956
 20
105.4782707656637
 30
0.0
 10
221.7233978565514
 20
105.5323122025338
 30
0.0
 10
221.7250374589152
 20
105.569955213633
 30
0.0
 10
221.7258790401892
 20
105.5892767600885
 30
0.0
  0
SPLINE
  5
1C1
330
1F
100
AcDbEntity
  8
0
  6
Continuous
 62
     7
370
     0
100
AcDbSpline
210
0.0
220
0.0
230
1.0
 70
     8
 71
     3
 72
    19
 73
    15
 74
     0
 42
0.00000001
 43
0.00000001
 40
0.0
 40
0.0
 40
0.0
 40
0.0
 40
0.1273939413394724
 40
0.2461816112928118
 40
0.3612680043537856
 40
0.477140268037225
 40
0.5363265834357714
 40
0.5956719150436505
 40
0.6566189532057533
 40
0.7188356214960797
 40
0.7835815527063736
 40
0.8515878166889451
 40
0.9239265274809916
 40
1.0
 40
1.0
 40
1.0
 40
1.0
 10
221.0936775177533
 20
105.6016244460735
 30
0.0
 10
221.0944593373068
 20
105.5806545821776
 30
0.0
 10
221.0959701595282
 20
105.54013150213
 30
0.0
 10
221.1124005130085
 20
105.4825714358929
 30
0.0
 10
221.1380928176202
 20
105.4308663545576
 30
0.0
 10
221.1682125359224
 20
105.3933710265853
 30
0.0
 10
221.1970897815714
 20
105.3678235203325
 30
0.0
 10
221.2211918198501
 20
105.3507663581755
 30
0.0
 10
221.2475306868004
 20
105.3362851718822
 30
0.0
 10
221.2762971953556
 20
105.3250294806247
 30
0.0
 10
221.3067946193965
 20
105.3150576389858
 30
0.0
 10
221.3400747716545
 20
105.3094841044472
 30
0.0
 10
221.3753554219626
 20
105.3049531520793
 30
0.0
 10
221.399745758848
 20
105.3046250055171
 30
0.0
 10
221.4122478161683
 20
105.304456803366
 30
0.0
  0
SPLINE
  5
1C2
330
1F
100
AcDbEntity
  8
0
  6
Continuous
 62
     7
370
     0
100
AcDbSpline
210
0.0
220
0.0
230
1.0
 70
     8
 71
     3
 72
    19
 73
    15
 74
     0
 42
0.00000001
 43
0.00000001
 40
0.0
 40
0.0
 40
0.0
 40
0.0
 40
0.0762358674075237
 40
0.1486180999543649
 40
0.2182394281414515
 40
0.2842516902686069
 40
0.3482575207850561
 40
0.4106562042500674
 40
0.4728623729995132
 40
0.5341947480221281
 40
0.653476101422413
 40
0.7677667895221957
 40
0.8817126094674202
 40
1.0
 40
1.0
 40
1.0
 40
1.0
 10
221.4097782789713
 20
105.8839748655989
 30
0.0
 10
221.3976881574809
 20
105.8838063169584
 30
0.0
 10
221.3741190561483
 20
105.8834777396162
 30
0.0
 10
221.3397905655742
 20
105.8789262456354
 30
0.0
 10
221.3072967951814
 20
105.8732096617476
 30
0.0
 10
221.2769375209387
 20
105.8640356024169
 30
0.0
 10
221.2488389365242
 20
105.8520472395836
 30
0.0
 10
221.2227075514351
 20
105.8374571448997
 30
0.0
 10
221.1983493967368
 20
105.820761544714
 30
0.0
 10
221.1696242206488
 20
105.7950466653143
 30
0.0
 10
221.1395393312908
 20
105.7588637522492
 30
0.0
 10
221.1130353898591
 20
105.7102573129391
 30
0.0
 10
221.0966550965159
 20
105.6572598894837
 30
0.0
 10
221.0946823375012
 20
105.620399295264
 30
0.0
 10
221.0936775177533
 20
105.6016244460735
 30
0.0
  0
SPLINE
  5
1C3
330
1F
100
AcDbEntity
  8
0
  6
Continuous
 62
     7
370
     0
100
AcDbSpline
210
0.0
220
0.0
230
1.0
 70
     8
 71
     3
 72
    19
 73
    15
 74
     0
 42
0.00000001
 43
0.00000001
 40
0.0
 40
0.0
 40
0.0
 40
0.0
 40
0.1233861213626085
 40
0.2414346864233538
 40
0.3574485461509667
 40
0.4767139204528327
 40
0.5378895868739915
 40
0.5992703938301226
 40
0.6603520522565615
 40
0.7230069362990812
 40
0.7878755372012023
 40
0.855360105861051
 40
0.9253732137563339
 40
0.9999999999999999
 40
0.9999999999999999
 40
0.9999999999999999
 40
0.9999999999999999
 10
221.7258790401892
 20
105.5892767600885
 30
0.0
 10
221.7248650529997
 20
105.6092737333159
 30
0.0
 10
221.7228809426603
 20
105.6484026313417
 30
0.0
 10
221.706856176687
 20
105.7045739281631
 30
0.0
 10
221.6798770799125
 20
105.7554483475806
 30
0.0
 10
221.6490572020167
 20
105.7926012155527
 30
0.0
 10
221.6205324321692
 20
105.8195162808996
 30
0.0
 10
221.5961280373806
 20
105.8366495225515
 30
0.0
 10
221.5698932216828
 20
105.8512314269438
 30
0.0
 10
221.5417281357764
 20
105.8631395149787
 30
0.0
 10
221.5115920511683
 20
105.8727435119321
 30
0.0
 10
221.479403332939
 20
105.8790441965532
 30
0.0
 10
221.4452972384141
 20
105.8834630881259
 30
0.0
 10
221.4218670550193
 20
105.8838006836027
 30
0.0
 10
221.4097782789713
 20
105.8839748655989
 30
0.0
  0
SPLINE
  5
1C4
330
1F
100
AcDbEntity
  8
0
  6
Continuous
 62
     7
370
     0
100
AcDbSpline
210
0.0
220
0.0
230
1.0
 70
     8
 71
     3
 72
    23
 73
    19
 74
     0
 42
0.00000001
 43
0.00000001
 40
0.0
 40
0.0
 40
0.0
 40
0.0
 40
0.0610549117432832
 40
0.1195453450847434
 40
0.1768063562451032
 40
0.2329564830316854
 40
0.2885834899465033
 40
0.3446666617213001
 40
0.4016615108374461
 40
0.4605400973082778
 40
0.520477062322188
 40
0.5812128653554004
 40
0.6434307597220102
 40
0.7079608695212424
 40
0.7753707435336736
 40
0.8464136772813298
 40
0.9211518871893691
 40
1.0
 40
1.0
 40
1.0
 40
1.0
 10
220.6446333374294
 20
107.4381369415872
 30
0.0
 10
220.6690862575368
 20
107.4387489898884
 30
0.0
 10
220.7169650061765
 20
107.4399473787368
 30
0.0
 10
220.7872338641862
 20
107.4499786625538
 30
0.0
 10
220.8539971453793
 20
107.4670564956686
 30
0.0
 10
220.9179165931865
 20
107.4897909601441
 30
0.0
 10
220.97783660583
 20
107.5205240805307
 30
0.0
 10
221.0351585412322
 20
107.5565123963269
 30
0.0
 10
221.0883197960421
 20
107.60048908743
 30
0.0
 10
221.1386253286439
 20
107.649888125802
 30
0.0
 10
221.1837460026631
 20
107.7060392056867
 30
0.0
 10
221.2237811021142
 20
107.7675591470836
 30
0.0
 10
221.2563027989176
 20
107.8353705927195
 30
0.0
 10
221.2843808946951
 20
107.9079797492801
 30
0.0
 10
221.3049412946555
 20
107.9867589574486
 30
0.0
 10
221.3201366901478
 20
108.0708126559722
 30
0.0
 10
221.3292937571748
 20
108.1604112191581
 30
0.0
 10
221.3302580435421
 20
108.2219189702924
 30
0.0
 10
221.3307530886668
 20
108.253495806135
 30
0.0
  0
SPLINE
  5
1C5
330
1F
100
AcDbEntity
  8
0
  6
Continuous
 62
     7
370
     0
100
AcDbSpline
210
0.0
220
0.0
230
1.0
 70
     8
 71
     3
 72
    23
 73
    19
 74
     0
 42
0.00000001
 43
0.00000001
 40
0.0
 40
0.0
 40
0.0
 40
0.0
 40
0.0759644026221998
 40
0.1481252239748712
 40
0.2172006111446031
 40
0.2832999093723612
 40
0.347201868136241
 40
0.4092995407059241
 40
0.4704256161074027
 40
0.531588064052835
 40
0.5917391729173695
 40
0.6502577442905727
 40
0.7073030399522858
 40
0.7642084640229153
 40
0.8211475320101308
 40
0.8791188121552541
 40
0.9384228183936663
 40
1.0
 40
1.0
 40
1.0
 40
1.0
 10
219.960983123389
 20
108.2242729493037
 30
0.0
 10
219.9614271653724
 20
108.1946095087487
 30
0.0
 10
219.9622930159022
 20
108.1367678931446
 30
0.0
 10
219.9721988146188
 20
108.0524378934732
 30
0.0
 10
219.9872292820746
 20
107.9728682442344
 30
0.0
 10
220.0079471948739
 20
107.8978355742941
 30
0.0
 10
220.0357971432462
 20
107.8280819456737
 30
0.0
 10
220.0690953624575
 20
107.7629370937816
 30
0.0
 10
220.1089630113721
 20
107.7028340644153
 30
0.0
 10
220.1545204908607
 20
107.6479409894903
 30
0.0
 10
220.2046284955995
 20
107.5986291642116
 30
0.0
 10
220.2581739838685
 20
107.5555579079861
 30
0.0
 10
220.3151689924288
 20
107.5194887775385
 30
0.0
 10
220.3749816302303
 20
107.4897060104772
 30
0.0
 10
220.438041503506
 20
107.4664578450655
 30
0.0
 10
220.5041597472881
 20
107.4501335690459
 30
0.0
 10
220.5733849415257
 20
107.4399240595355
 30
0.0
 10
220.6205879871014
 20
107.438740069231
 30
0.0
 10
220.6446333374294
 20
107.4381369415872
 30
0.0
  0
SPLINE
  5
1C6
330
1F
100
AcDbEntity
  8
0
  6
Continuous
 62
     7
370
     0
100
AcDbSpline
210
0.0
220
0.0
230
1.0
 70
     8
 71
     3
 72
    23
 73
    19
 74
     0
 42
0.00000001
 43
0.00000001
 40
0.0
 40
0.0
 40
0.0
 40
0.0
 40
0.0559431333569181
 40
0.1103820356898404
 40
0.1640478588828493
 40
0.2167594775435857
 40
0.2696011346144468
 40
0.3230085051908684
 40
0.377581443672136
 40
0.4334493367080536
 40
0.4909218580498926
 40
0.5506247708713252
 40
0.613116872309818
 40
0.6798607463518505
 40
0.7513577440202
 40
0.828261101258994
 40
0.9107950320656292
 40
1.0
 40
1.0
 40
1.0
 40
1.0
 10
220.6487492327577
 20
109.0713242078799
 30
0.0
 10
220.625663312941
 20
109.0708657306218
 30
0.0
 10
220.5801122207472
 20
109.0699611039048
 30
0.0
 10
220.5130555903906
 20
109.0599047733745
 30
0.0
 10
220.448405728154
 20
109.044879241526
 30
0.0
 10
220.3860623043558
 20
109.0238727473677
 30
0.0
 10
220.3265585327225
 20
108.9960568477758
 30
0.0
 10
220.2695861292853
 20
108.9619444536728
 30
0.0
 10
220.2146393804797
 20
108.9224643916673
 30
0.0
 10
220.1625847181921
 20
108.8766547389963
 30
0.0
 10
220.114058387008
 20
108.8240306307017
 30
0.0
 10
220.0730342422803
 20
108.7619884195923
 30
0.0
 10
220.0384579722892
 20
108.6920091835243
 30
0.0
 10
220.0095874237882
 20
108.6142703036093
 30
0.0
 10
219.9875744807718
 20
108.5281697436016
 30
0.0
 10
219.9723607837354
 20
108.4340780346399
 30
0.0
 10
219.9627551658273
 20
108.3318960272285
 30
0.0
 10
219.961588904973
 20
108.2610644375942
 30
0.0
 10
219.960983123389
 20
108.2242729493037
 30
0.0
  0
SPLINE
  5
1C7
330
1F
100
AcDbEntity
  8
0
  6
Continuous
 62
     7
370
     0
100
AcDbSpline
210
0.0
220
0.0
230
1.0
 70
     8
 71
     3
 72
    31
 73
    27
 74
     0
 42
0.00000001
 43
0.00000001
 40
0.0
 40
0.0
 40
0.0
 40
0.0
 40
0.0508516157922844
 40
0.0997524678094164
 40
0.1474376477769318
 40
0.1940857839327043
 40
0.2391709270841438
 40
0.2833398222454338
 40
0.3265771497238438
 40
0.368936281499902
 40
0.4105718726814495
 40
0.4510505934949117
 40
0.4908768629924156
 40
0.5300443324843858
 40
0.5689366633103303
 40
0.6075778621311335
 40
0.6464200964505128
 40
0.6856793513063945
 40
0.7247985849801968
 40
0.7635130084045106
 40
0.8021725263787551
 40
0.8407403615726128
 40
0.8796493769005859
 40
0.9190706128663397
 40
0.9590978622172242
 40
1.0
 40
1.0
 40
1.0
 40
1.0
 10
221.3307530886668
 20
108.253495806135
 30
0.0
 10
221.3305781399104
 20
108.2738102870066
 30
0.0
 10
221.3302349537615
 20
108.3136599469954
 30
0.0
 10
221.3256900189442
 20
108.3723988017805
 30
0.0
 10
221.3198276362239
 20
108.4293105418593
 30
0.0
 10
221.3109020673931
 20
108.4843217307173
 30
0.0
 10
221.2986015010849
 20
108.5372045545127
 30
0.0
 10
221.2849745624659
 20
108.5883616112667
 30
0.0
 10
221.2679345522607
 20
108.6373520575935
 30
0.0
 10
221.2486002859143
 20
108.6843680153059
 30
0.0
 10
221.226965569254
 20
108.7291681133958
 30
0.0
 10
221.2025644862259
 20
108.7713746692003
 30
0.0
 10
221.1756806274721
 20
108.8108235929838
 30
0.0
 10
221.1470393508484
 20
108.848262796369
 30
0.0
 10
221.1150546644131
 20
108.8822432288567
 30
0.0
 10
221.0812666497988
 20
108.9142002396841
 30
0.0
 10
221.0449078134135
 20
108.9434735899817
 30
0.0
 10
221.006341003107
 20
108.9700709264283
 30
0.0
 10
220.9661133390919
 20
108.9940127209705
 30
0.0
 10
220.9243077504211
 20
109.014503790673
 30
0.0
 10
220.8815902596177
 20
109.0325026209521
 30
0.0
 10
220.8372458363183
 20
109.0462994797719
 30
0.0
 10
220.7918867915461
 20
109.0574268489041
 30
0.0
 10
220.7453297598789
 20
109.0658791221215
 30
0.0
 10
220.697401933981
 20
109.070256102548
 30
0.0
 10
220.6650832603447
 20
109.0709656160336
 30
0.0
 10
220.6487492327577
 20
109.0713242078799
 30
0.0
  0
SPLINE
  5
1C8
330
1F
100
AcDbEntity
  8
0
  6
Continuous
 62
     7
370
     0
100
AcDbSpline
210
0.0
220
0.0
230
1.0
 70
     8
 71
     3
 72
    23
 73
    19
 74
     0
 42
0.00000001
 43
0.00000001
 40
0.0
 40
0.0
 40
0.0
 40
0.0
 40
0.1156291309254414
 40
0.2215410391198768
 40
0.3170478562190417
 40
0.4031508756396167
 40
0.4801812167162795
 40
0.5476493661481898
 40
0.6070358428421809
 40
0.6586524080635072
 40
0.705722890353646
 40
0.749804087979647
 40
0.7925868153452743
 40
0.8338739610102607
 40
0.8747683933034329
 40
0.9152226988916381
 40
0.9568807037304801
 40
1.0
 40
1.0
 40
1.0
 40
1.0
 10
220.2244004244039
 20
105.0805520975033
 30
0.0
 10
220.2241509728267
 20
105.1192485081197
 30
0.0
 10
220.2236730330447
 20
105.193389366479
 30
0.0
 10
220.2182714377063
 20
105.2993822716775
 30
0.0
 10
220.2098066523637
 20
105.3952441784376
 30
0.0
 10
220.1982281707446
 20
105.4810634625482
 30
0.0
 10
220.1828403708196
 20
105.5567469554113
 30
0.0
 10
220.1641770685828
 20
105.6224557768962
 30
0.0
 10
220.1419369533671
 20
105.6780497922663
 30
0.0
 10
220.1154935357393
 20
105.7240874445006
 30
0.0
 10
220.0860567209595
 20
105.7618508088336
 30
0.0
 10
220.0553071773433
 20
105.7945382865187
 30
0.0
 10
220.0224761631997
 20
105.8223379213597
 30
0.0
 10
219.9869820117501
 20
105.8446391985217
 30
0.0
 10
219.9499687662519
 20
105.8626310394392
 30
0.0
 10
219.9105859564008
 20
105.8750134825261
 30
0.0
 10
219.869220684095
 20
105.8826208682499
 30
0.0
 10
219.8408322343713
 20
105.8835183764191
 30
0.0
 10
219.8263933461517
 20
105.8839748655989
 30
0.0
  0
SPLINE
  5
1C9
330
1F
100
AcDbEntity
  8
0
  6
Continuous
 62
     7
370
     0
100
AcDbSpline
210
0.0
220
0.0
230
1.0
 70
     8
 71
     3
 72
    23
 73
    19
 74
     0
 42
0.00000001
 43
0.00000001
 40
0.0
 40
0.0
 40
0.0
 40
0.0
 40
0.0407818458722597
 40
0.0808695887215869
 40
0.1202681657882671
 40
0.1601868504553522
 40
0.2004597376386391
 40
0.2422651778979079
 40
0.2864592615494684
 40
0.3329520837492633
 40
0.3844305340495303
 40
0.4433891253601058
 40
0.5116814722136833
 40
0.5890200255490083
 40
0.6762451906507723
 40
0.7737051914728237
 40
0.881567767781983
 40
1.0
 40
1.0
 40
1.0
 40
1.0
 10
219.8292744728815
 20
104.2771293294077
 30
0.0
 10
219.8428801404584
 20
104.2776487574248
 30
0.0
 10
219.8698599084825
 20
104.2786787728452
 30
0.0
 10
219.9095766131105
 20
104.2855395425296
 30
0.0
 10
219.9474150304859
 20
104.2983576412463
 30
0.0
 10
219.9837163687259
 20
104.3151173597966
 30
0.0
 10
220.0182932038862
 20
104.3368252194545
 30
0.0
 10
220.050963694047
 20
104.3635680847662
 30
0.0
 10
220.0822495543223
 20
104.3948941195846
 30
0.0
 10
220.1122584340043
 20
104.4317636292348
 30
0.0
 10
220.1395804863533
 20
104.4766812261806
 30
0.0
 10
220.1622461014965
 20
104.5320369861456
 30
0.0
 10
220.1816754865781
 20
104.5975557725847
 30
0.0
 10
220.1974806686598
 20
104.6737095506341
 30
0.0
 10
220.2094344052736
 20
104.7603591236346
 30
0.0
 10
220.2183845315474
 20
104.8575870845181
 30
0.0
 10
220.2236503151197
 20
104.9655229995292
 30
0.0
 10
220.2241427216234
 20
105.041033431333
 30
0.0
 10
220.2244004244039
 20
105.0805520975033
 30
0.0
  0
SPLINE
  5
1CA
330
1F
100
AcDbEntity
  8
0
  6
Continuous
 62
     7
370
     0
100
AcDbSpline
210
0.0
220
0.0
230
1.0
 70
     8
 71
     3
 72
    23
 73
    19
 74
     0
 42
0.00000001
 43
0.00000001
 40
0.0
 40
0.0
 40
0.0
 40
0.0
 40
0.1184055081537695
 40
0.226654332816702
 40
0.3240923419286021
 40
0.4117048030053219
 40
0.4890259050064157
 40
0.5569093973430759
 40
0.6162333444927074
 40
0.6673492812770747
 40
0.7135123932013476
 40
0.7576965045209786
 40
0.7994925114422912
 40
0.8399760647439397
 40
0.8798857418167761
 40
0.9191486593857416
 40
0.9592273564930831
 40
1.0
 40
1.0
 40
1.0
 40
1.0
 10
219.4341485213591
 20
105.0805520975033
 30
0.0
 10
219.434410073792
 20
105.0410336096131
 30
0.0
 10
219.4349107430016
 20
104.965386482665
 30
0.0
 10
219.440141520935
 20
104.8573115104717
 30
0.0
 10
219.449146089846
 20
104.7598131332419
 30
0.0
 10
219.4610507180954
 20
104.6730263438492
 30
0.0
 10
219.4767696473677
 20
104.596833745999
 30
0.0
 10
219.4965066222003
 20
104.5314295018867
 30
0.0
 10
219.5187548872105
 20
104.4760286123091
 30
0.0
 10
219.5462866935693
 20
104.4313177286551
 30
0.0
 10
219.5764309806231
 20
104.3948718361228
 30
0.0
 10
219.6075528968925
 20
104.3635271898912
 30
0.0
 10
219.6403846334872
 20
104.3368849583066
 30
0.0
 10
219.6747119672937
 20
104.3146707704888
 30
0.0
 10
219.7110675115983
 20
104.2978516469575
 30
0.0
 10
219.7490537245675
 20
104.2856611087696
 30
0.0
 10
219.7886788716767
 20
104.2786456412157
 30
0.0
 10
219.8156653974361
 20
104.2776376505357
 30
0.0
 10
219.8292744728815
 20
104.2771293294077
 30
0.0
  0
SPLINE
  5
1CB
330
1F
100
AcDbEntity
  8
0
  6
Continuous
 62
     7
370
     0
100
AcDbSpline
210
0.0
220
0.0
230
1.0
 70
     8
 71
     3
 72
    15
 73
    11
 74
     0
 42
0.00000001
 43
0.00000001
 40
0.0
 40
0.0
 40
0.0
 40
0.0
 40
0.0838881132795455
 40
0.1771540327539696
 40
0.2825136355617228
 40
0.3993998606601629
 40
0.5294908061912204
 40
0.6728021776758327
 40
0.82953576161967
 40
1.0
 40
1.0
 40
1.0
 40
1.0
 10
219.5530978963486
 20
105.7432112453691
 30
0.0
 10
219.543307472024
 20
105.726842643928
 30
0.0
 10
219.5226321572066
 20
105.6922756040643
 30
0.0
 10
219.4994976821058
 20
105.6321966645749
 30
0.0
 10
219.4790616013481
 20
105.5635378724687
 30
0.0
 10
219.4622359313981
 20
105.4852428623617
 30
0.0
 10
219.4500637395665
 20
105.3974459416885
 30
0.0
 10
219.4404542647795
 20
105.300249069975
 30
0.0
 10
219.4354625003104
 20
105.1935165487598
 30
0.0
 10
219.4345985987085
 20
105.1192458229608
 30
0.0
 10
219.4341485213591
 20
105.0805520975033
 30
0.0
  0
SPLINE
  5
1CC
330
1F
100
AcDbEntity
  8
0
  6
Continuous
 62
     7
370
     0
100
AcDbSpline
210
0.0
220
0.0
230
1.0
 70
     8
 71
     3
 72
    15
 73
    11
 74
     0
 42
0.00000001
 43
0.00000001
 40
0.0
 40
0.0
 40
0.0
 40
0.0
 40
0.1276647678962251
 40
0.2517385630080496
 40
0.3727533493873896
 40
0.492146758972386
 40
0.614069621309245
 40
0.7371973244121095
 40
0.8656069906011175
 40
1.0
 40
1.0
 40
1.0
 40
1.0
 10
219.8263933461517
 20
105.8839748655989
 30
0.0
 10
219.8127851254313
 20
105.8836177035205
 30
0.0
 10
219.7859514579623
 20
105.8829134256696
 30
0.0
 10
219.7466634545794
 20
105.8761911007148
 30
0.0
 10
219.7094306753164
 20
105.8649498750713
 30
0.0
 10
219.6738265528787
 20
105.8497225434408
 30
0.0
 10
219.6407399251921
 20
105.829229562742
 30
0.0
 10
219.6088586588846
 20
105.8053025490794
 30
0.0
 10
219.5796759491193
 20
105.7761501535359
 30
0.0
 10
219.5620907042537
 20
105.7543562783142
 30
0.0
 10
219.5530978963486
 20
105.7432112453691
 30
0.0
  0
LINE
  5
1CD
330
1F
100
AcDbEntity
  8
0
  6
Continuous
 62
     7
370
     0
100
AcDbLine
 10
144.1748491848
 20
107.794573477
 30
0.0
 11
144.1751491848
 21
107.794573477
 31
0.0
  0
LINE
  5
1CE
330
1F
100
AcDbEntity
  8
0
  6
Continuous
 62
     7
370
     0
100
AcDbLine
 10
144.1751491848
 20
107.7986596483
 30
0.0
 11
144.1748491848
 21
107.7986596625
 31
0.0
  0
LINE
  5
1CF
330
1F
100
AcDbEntity
  8
0
  6
Continuous
 62
     7
370
     0
100
AcDbLine
 10
144.1751491848
 20
107.7986596483
 30
0.0
 11
144.1751491848
 21
107.794573477
 31
0.0
  0
LINE
  5
1D0
330
1F
100
AcDbEntity
  8
0
  6
Continuous
 62
     7
370
     0
100
AcDbLine
 10
144.1748491848
 20
108.7280585375
 30
0.0
 11
144.1751491848
 21
108.7280585375
 31
0.0
  0
LINE
  5
1D1
330
1F
100
AcDbEntity
  8
0
  6
Continuous
 62
     7
370
     0
100
AcDbLine
 10
144.1748491848
 20
108.3266279558
 30
0.0
 11
144.1751491848
 21
108.3266279473
 31
0.0
  0
LINE
  5
1D2
330
1F
100
AcDbEntity
  8
0
  6
Continuous
 62
     7
370
     0
100
AcDbLine
 10
144.1751491848
 20
109.1485514553
 30
0.0
 11
144.1748491848
 21
109.1485514551
 31
0.0
  0
LINE
  5
1D3
330
1F
100
AcDbEntity
  8
0
  6
Continuous
 62
     7
370
     0
100
AcDbLine
 10
143.9751491848
 20
131.9274031008
 30
0.0
 11
144.1751491848
 21
131.7274031008
 31
0.0
  0
LINE
  5
1D4
330
1F
100
AcDbEntity
  8
0
  6
Continuous
 62
     7
370
     0
100
AcDbLine
 10
144.1751491848
 20
81.3274031008
 30
0.0
 11
143.9751491848
 21
81.1274031008
 31
0.0
  0
LINE
  5
1D5
330
1F
100
AcDbEntity
  8
0
  6
Continuous
 62
     7
370
     0
100
AcDbLine
 10
143.9751491848
 20
81.1274031008
 30
0.0
 11
133.7556925857
 21
81.1274031008
 31
0.0
  0
LINE
  5
1D6
330
1F
100
AcDbEntity
  8
0
  6
Continuous
 62
     7
370
     0
100
AcDbLine
 10
133.7556925857
 20
81.1274031008
 30
0.0
 11
133.5810044954
 21
81.3258837323
 31
0.0
  0
ARC
  5
1D7
330
1F
100
AcDbEntity
  8
0
  6
Continuous
 62
     7
370
     0
100
AcDbCircle
 10
-64.8248508152
 20
106.5274031008
 30
0.0
 40
200.0
100
AcDbArc
 50
352.76105306
 51
7.23894694
  0
LINE
  5
1D8
330
1F
100
AcDbEntity
  8
0
  6
Continuous
 62
     7
370
     0
100
AcDbLine
 10
133.5810044954
 20
131.7289224692
 30
0.0
 11
133.7556925857
 21
131.9274031008
 31
0.0
  0
LINE
  5
1D9
330
1F
100
AcDbEntity
  8
0
  6
Continuous
 62
     7
370
     0
100
AcDbLine
 10
133.7556925857
 20
131.9274031008
 30
0.0
 11
143.9751491848
 21
131.9274031008
 31
0.0
  0
LINE
  5
1DA
330
1F
100
AcDbEntity
  8
0
  6
Continuous
 62
     7
370
     0
100
AcDbLine
 10
144.1748491848
 20
107.2399572432
 30
0.0
 11
144.1751491848
 21
107.2399572432
 31
0.0
  0
LINE
  5
1DB
330
1F
100
AcDbEntity
  8
0
  6
Continuous
 62
     7
370
     0
100
AcDbLine
 10
144.1748491848
 20
109.1485514551
 30
0.0
 11
144.1748491848
 21
108.3266279558
 31
0.0
  0
LINE
  5
1DC
330
1F
100
AcDbEntity
  8
0
  6
Continuous
 62
     7
370
     0
100
AcDbLine
 10
144.1751491848
 20
107.2399572432
 30
0.0
 11
144.1751491848
 21
81.3274031008
 31
0.0
  0
LINE
  5
1DD
330
1F
100
AcDbEntity
  8
0
  6
Continuous
 62
     7
370
     0
100
AcDbLine
 10
144.1751491848
 20
108.3266279473
 30
0.0
 11
144.1751491848
 21
107.7986596483
 31
0.0
  0
LINE
  5
1DE
330
1F
100
AcDbEntity
  8
0
  6
Continuous
 62
     7
370
     0
100
AcDbLine
 10
144.1751491848
 20
131.7274031008
 30
0.0
 11
144.1751491848
 21
109.1485514553
 31
0.0
  0
LINE
  5
1DF
330
1F
100
AcDbEntity
  8
0
  6
Continuous
 62
     7
370
     0
100
AcDbLine
 10
144.1748491848
 20
107.7986596625
 30
0.0
 11
144.1748491848
 21
107.2399572432
 31
0.0
  0
LINE
  5
1E0
330
1F
100
AcDbEntity
  8
0
  6
Continuous
 62
     7
370
     0
100
AcDbLine
 10
133.5810044954
 20
131.7289224692
 30
0.0
 11
133.5810044954
 21
81.3258837323
 31
0.0
  0
LINE
  5
1E1
330
1F
100
AcDbEntity
  8
0
  6
Continuous
 62
     7
370
     0
100
AcDbLine
 10
144.1751491848
 20
107.794573477
 30
0.0
 11
144.1751491848
 21
107.2399572432
 31
0.0
  0
HATCH
  5
1E2
330
1F
100
AcDbEntity
  8
0
  6
Continuous
 62
     7
370
     0
100
AcDbHatch
 10
0.0
 20
0.0
 30
0.0
210
0.0
220
0.0
230
1.0
  2
ANSI31
 70
     0
 71
     0
 91
        1
 92
        0
 93
       16
 72
     1
 10
143.9751491848439
 20
131.9274031007752
 11
133.7556925856522
 21
131.9274031007752
 72
     1
 10
133.7556925856522
 20
131.9274031007752
 11
133.5810044954191
 21
131.7289224692397
 72
     2
 10
-64.82485081515615
 20
106.5274031007752
 40
200.0
 50
352.7610530600284
 51
367.2389469399732
 73
     0
 72
     1
 10
133.5810044954191
 20
81.3258837323107
 11
133.7556925856522
 21
81.12740310077521
 72
     1
 10
133.7556925856522
 20
81.12740310077521
 11
143.9751491848439
 21
81.12740310077521
 72
     1
 10
143.9751491848439
 20
81.12740310077521
 11
144.1751491848439
 21
81.32740310077523
 72
     1
 10
144.1751491848439
 20
81.32740310077523
 11
144.1751491848439
 21
107.2399572432462
 72
     1
 10
144.1751491848439
 20
107.2399572432462
 11
144.1748491848434
 21
107.2399572432462
 72
     1
 10
144.1748491848434
 20
107.2399572432462
 11
144.1748491848432
 21
107.7986596624766
 72
     1
 10
144.1748491848432
 20
107.7986596624766
 11
144.1751491848439
 21
107.7986596483381
 72
     1
 10
144.1751491848439
 20
107.7986596483381
 11
144.1751491848439
 21
108.3266279473201
 72
     1
 10
144.1751491848439
 20
108.3266279473201
 11
144.1748491848439
 21
108.3266279557779
 72
     1
 10
144.1748491848439
 20
108.3266279557779
 11
144.1748491848439
 21
109.1485514550682
 72
     1
 10
144.1748491848439
 20
109.1485514550682
 11
144.1751491848439
 21
109.1485514552935
 72
     1
 10
144.1751491848439
 20
109.1485514552935
 11
144.1751491848439
 21
131.7274031007752
 72
     1
 10
144.1751491848439
 20
131.7274031007752
 11
143.9751491848439
 21
131.9274031007752
 97
        0
 75
     0
 76
     1
 52
0.0
 41
0.5
 77
     0
 78
     1
 53
45.0
 43
0.0
 44
0.0
 45
-1.122532015133644
 46
1.122532015133644
 79
     0
 98
        1
 10
0.0
 20
0.0
  0
DIMENSION
  5
1E3
330
1F
100
AcDbEntity
  8
0
  6
Continuous
 62
     7
370
     0
100
AcDbDimension
  2
*D9
 10
-64.8248508152
 20
106.5274031008
 30
0.0
 11
166.2818440276
 21
89.9842368438
 31
0.0
 70
   164
  1
<>
 71
     1
 42
-1.0
  3
SLDDIMSTYLE1
100
AcDbRadialDimension
 15
134.6053557684
 25
91.4412272421
 35
0.0
 40
0.0
  0
DIMENSION
  5
1F4
330
1F
100
AcDbEntity
  8
0
  6
Continuous
 62
     7
370
     0
100
AcDbDimension
  2
*D10
 10
135.1751491848
 20
141.9274031008
 30
0.0
 11
158.3988098299
 21
141.9274031008
 31
0.0
 70
   160
 71
     2
 42
-1.0
  3
SLDDIMSTYLE2
100
AcDbAlignedDimension
 13
144.1751491848
 23
131.7274031008
 33
0.0
 14
135.1751491848
 24
106.5274031008
 34
0.0
100
AcDbRotatedDimension
  0
DIMENSION
  5
207
330
1F
100
AcDbEntity
  8
0
  6
Continuous
 62
     7
370
     0
100
AcDbDimension
  2
*D11
 10
144.1751491848
 20
153.9274031008
 30
0.0
 11
158.3988098299
 21
153.9274031008
 31
0.0
 70
   160
  1
<> REF
 71
     2
 42
-1.0
  3
SLDDIMSTYLE3
100
AcDbAlignedDimension
 13
133.5810044954
 23
131.7289224692
 33
0.0
 14
144.1751491848
 24
131.7274031008
 34
0.0
100
AcDbRotatedDimension
  0
MTEXT
  5
21B
330
1F
100
AcDbEntity
  8
0
  6
Continuous
 62
     7
370
     0
100
AcDbMText
 10
138.6970327901
 20
74.542596401
 30
0.0
 40
2.1166666667
 41
0.0
 71
     2
 72
     1
  1
SECTION A-A
  7
SLDTEXTSTYLE0
 73
     1
 44
1.0
  0
OLE2FRAME
  5
21C
330
1F
100
AcDbEntity
  8
0
100
AcDbOle2Frame
 70
     2
  3
Bitmap Image
 10
229.0524258301
 20
33.6996297921
 30
0.0
 11
265.1686469208
 21
28.555479607
 31
0.0
 71
     2
 72
     0
 73
     1
 90
     7296
310
80557333EF78ADA16C40002412788DD94040000000000000000041161DC7B292
310
7040002412788DD94040000000000000000041161DC7B2927040F6DD59E9338E
310
3C4000000000000000007333EF78ADA16C40F6DD59E9338E3C40000000000000
310
00000000000001000000000100000100000001000000000001000000001C0000
310
D0CF11E0A1B11AE1000000000000000000000000000000003E000300FEFF0900
310
0600000000000000000000000100000001000000000000000010000002000000
310
01000000FEFFFFFF0000000000000000FFFFFFFFFFFFFFFFFFFFFFFFFFFFFFFF
310
FFFFFFFFFFFFFFFFFFFFFFFFFFFFFFFFFFFFFFFFFFFFFFFFFFFFFFFFFFFFFFFF
310
FFFFFFFFFFFFFFFFFFFFFFFFFFFFFFFFFFFFFFFFFFFFFFFFFFFFFFFFFFFFFFFF
310
FFFFFFFFFFFFFFFFFFFFFFFFFFFFFFFFFFFFFFFFFFFFFFFFFFFFFFFFFFFFFFFF
310
FFFFFFFFFFFFFFFFFFFFFFFFFFFFFFFFFFFFFFFFFFFFFFFFFFFFFFFFFFFFFFFF
310
FFFFFFFFFFFFFFFFFFFFFFFFFFFFFFFFFFFFFFFFFFFFFFFFFFFFFFFFFFFFFFFF
310
FFFFFFFFFFFFFFFFFFFFFFFFFFFFFFFFFFFFFFFFFFFFFFFFFFFFFFFFFFFFFFFF
310
FFFFFFFFFFFFFFFFFFFFFFFFFFFFFFFFFFFFFFFFFFFFFFFFFFFFFFFFFFFFFFFF
310
FFFFFFFFFFFFFFFFFFFFFFFFFFFFFFFFFFFFFFFFFFFFFFFFFFFFFFFFFFFFFFFF
310
FFFFFFFFFFFFFFFFFFFFFFFFFFFFFFFFFFFFFFFFFFFFFFFFFFFFFFFFFFFFFFFF
310
FFFFFFFFFFFFFFFFFFFFFFFFFFFFFFFFFFFFFFFFFFFFFFFFFFFFFFFFFFFFFFFF
310
FFFFFFFFFFFFFFFFFFFFFFFFFFFFFFFFFFFFFFFFFFFFFFFFFFFFFFFFFFFFFFFF
310
FFFFFFFFFFFFFFFFFFFFFFFFFFFFFFFFFFFFFFFFFFFFFFFFFFFFFFFFFFFFFFFF
310
FFFFFFFFFFFFFFFFFFFFFFFFFFFFFFFFFFFFFFFFFFFFFFFFFFFFFFFFFFFFFFFF
310
FDFFFFFFFEFFFFFFFEFFFFFFFEFFFFFF05000000060000000700000008000000
310
090000000A0000000B0000000C000000FEFFFFFFFFFFFFFFFFFFFFFFFFFFFFFF
310
FFFFFFFFFFFFFFFFFFFFFFFFFFFFFFFFFFFFFFFFFFFFFFFFFFFFFFFFFFFFFFFF
310
FFFFFFFFFFFFFFFFFFFFFFFFFFFFFFFFFFFFFFFFFFFFFFFFFFFFFFFFFFFFFFFF
310
FFFFFFFFFFFFFFFFFFFFFFFFFFFFFFFFFFFFFFFFFFFFFFFFFFFFFFFFFFFFFFFF
310
FFFFFFFFFFFFFFFFFFFFFFFFFFFFFFFFFFFFFFFFFFFFFFFFFFFFFFFFFFFFFFFF
310
FFFFFFFFFFFFFFFFFFFFFFFFFFFFFFFFFFFFFFFFFFFFFFFFFFFFFFFFFFFFFFFF
310
FFFFFFFFFFFFFFFFFFFFFFFFFFFFFFFFFFFFFFFFFFFFFFFFFFFFFFFFFFFFFFFF
310
FFFFFFFFFFFFFFFFFFFFFFFFFFFFFFFFFFFFFFFFFFFFFFFFFFFFFFFFFFFFFFFF
310
FFFFFFFFFFFFFFFFFFFFFFFFFFFFFFFFFFFFFFFFFFFFFFFFFFFFFFFFFFFFFFFF
310
FFFFFFFFFFFFFFFFFFFFFFFFFFFFFFFFFFFFFFFFFFFFFFFFFFFFFFFFFFFFFFFF
310
FFFFFFFFFFFFFFFFFFFFFFFFFFFFFFFFFFFFFFFFFFFFFFFFFFFFFFFFFFFFFFFF
310
FFFFFFFFFFFFFFFFFFFFFFFFFFFFFFFFFFFFFFFFFFFFFFFFFFFFFFFFFFFFFFFF
310
FFFFFFFFFFFFFFFFFFFFFFFFFFFFFFFFFFFFFFFFFFFFFFFFFFFFFFFFFFFFFFFF
310
FFFFFFFFFFFFFFFFFFFFFFFFFFFFFFFFFFFFFFFFFFFFFFFFFFFFFFFFFFFFFFFF
310
FFFFFFFFFFFFFFFFFFFFFFFFFFFFFFFFFFFFFFFFFFFFFFFFFFFFFFFFFFFFFFFF
310
52006F006F007400200045006E00740072007900000000000000000000000000
310
0000000000000000000000000000000000000000000000000000000000000000
310
16000500FFFFFFFFFFFFFFFF020000000A00030000000000C000000000000046
310
000000000000000000000000807E70EFF2F9CB0103000000C000000000000000
310
01004F006C006500000000000000000000000000000000000000000000000000
310
0000000000000000000000000000000000000000000000000000000000000000
310
0A000200FFFFFFFFFFFFFFFFFFFFFFFF00000000000000000000000000000000
310
0000000000000000000000000000000000000000000000001400000000000000
310
010043006F006D0070004F0062006A0000000000000000000000000000000000
310
0000000000000000000000000000000000000000000000000000000000000000
310
120002010100000003000000FFFFFFFF00000000000000000000000000000000
310
0000000000000000000000000000000000000000010000004D00000000000000
310
01004F006C006500310030004E00610074006900760065000000000000000000
310
0000000000000000000000000000000000000000000000000000000000000000
310
1A000200FFFFFFFFFFFFFFFFFFFFFFFF00000000000000000000000000000000
310
000000000000000000000000000000000000000004000000E411000000000000
310
FEFFFFFF02000000FEFFFFFFFFFFFFFFFFFFFFFFFFFFFFFFFFFFFFFFFFFFFFFF
310
FFFFFFFFFFFFFFFFFFFFFFFFFFFFFFFFFFFFFFFFFFFFFFFFFFFFFFFFFFFFFFFF
310
FFFFFFFFFFFFFFFFFFFFFFFFFFFFFFFFFFFFFFFFFFFFFFFFFFFFFFFFFFFFFFFF
310
FFFFFFFFFFFFFFFFFFFFFFFFFFFFFFFFFFFFFFFFFFFFFFFFFFFFFFFFFFFFFFFF
310
FFFFFFFFFFFFFFFFFFFFFFFFFFFFFFFFFFFFFFFFFFFFFFFFFFFFFFFFFFFFFFFF
310
FFFFFFFFFFFFFFFFFFFFFFFFFFFFFFFFFFFFFFFFFFFFFFFFFFFFFFFFFFFFFFFF
310
FFFFFFFFFFFFFFFFFFFFFFFFFFFFFFFFFFFFFFFFFFFFFFFFFFFFFFFFFFFFFFFF
310
FFFFFFFFFFFFFFFFFFFFFFFFFFFFFFFFFFFFFFFFFFFFFFFFFFFFFFFFFFFFFFFF
310
FFFFFFFFFFFFFFFFFFFFFFFFFFFFFFFFFFFFFFFFFFFFFFFFFFFFFFFFFFFFFFFF
310
FFFFFFFFFFFFFFFFFFFFFFFFFFFFFFFFFFFFFFFFFFFFFFFFFFFFFFFFFFFFFFFF
310
FFFFFFFFFFFFFFFFFFFFFFFFFFFFFFFFFFFFFFFFFFFFFFFFFFFFFFFFFFFFFFFF
310
FFFFFFFFFFFFFFFFFFFFFFFFFFFFFFFFFFFFFFFFFFFFFFFFFFFFFFFFFFFFFFFF
310
FFFFFFFFFFFFFFFFFFFFFFFFFFFFFFFFFFFFFFFFFFFFFFFFFFFFFFFFFFFFFFFF
310
FFFFFFFFFFFFFFFFFFFFFFFFFFFFFFFFFFFFFFFFFFFFFFFFFFFFFFFFFFFFFFFF
310
FFFFFFFFFFFFFFFFFFFFFFFFFFFFFFFFFFFFFFFFFFFFFFFFFFFFFFFFFFFFFFFF
310
FFFFFFFFFFFFFFFFFFFFFFFFFFFFFFFFFFFFFFFFFFFFFFFFFFFFFFFFFFFFFFFF
310
010000020000000000000000000000000000000078011500D0DB95155012A015
310
D0789615A80FA015D00FA015501589157812A01510508815585088157001A015
310
0100FEFF030A0000FFFFFFFF0A00030000000000C00000000000004607000000
310
5042727573680007000000504272757368000700000050427275736800F439B2
310
71000000000000000000000000E095154824A015D0939215F002A01520929215
310
7024A01590E09515F0DD9515D820A015D0DD9515E092921540939215F0919215
310
2024A0158056581530DB95156025A0158003A0158825A015F823A01580178915
310
B822A015480B8F15F8558815380B1E0060257115C058581558EA961540849F15
310
C8E39615080B1E0070F0961528E89615680B1E00208E9E1530749F15D8548815
310
9054881558091E00A0249E15B8091E0078249E1550249E15C80B1E0030859F15
310
48859F15088D8F15A0849F1518859F1590719F1528249E1528091E0070849F15
310
480A1E00B8849F1568F58E1500548815780A1E00681689158058581500249E15
310
00859F15D8239E15E8091E00B0239E15E8229E1550249715A0168915B0729F15
310
70538815A8058F1520869F15B0719F1510239E15A8859F1510289715F0859F15
310
403E9E15D0719F15B0739F15683E9E1510729F15C0859F1538869F1590859F15
310
903E9E154059581590739F15B83E9E1540289715E03E9E15083F9E15E0148915
310
E0110000424DDE11000000000000360400002800000096000000170000000100
310
08000000000000000000E7240000E72400000001000000010000000000FF0101
310
01FF020202FF030303FF040404FF050505FF060606FF070707FF080808FF0909
310
09FF0A0A0AFF0B0B0BFF0C0C0CFF0D0D0DFF0E0E0EFF0F0F0FFF101010FF1111
310
11FF121212FF131313FF141414FF151515FF161616FF171717FF181818FF1919
310
19FF1A1A1AFF1B1B1BFF1C1C1CFF1D1D1DFF1E1E1EFF1F1F1FFF202020FF2121
310
21FF222222FF232323FF242424FF252525FF262626FF272727FF282828FF2929
310
29FF2A2A2AFF2B2B2BFF2C2C2CFF2D2D2DFF2E2E2EFF2F2F2FFF303030FF3131
310
31FF323232FF333333FF343434FF353535FF363636FF373737FF383838FF3939
310
39FF3A3A3AFF3B3B3BFF3C3C3CFF3D3D3DFF3E3E3EFF3F3F3FFF404040FF4141
310
41FF424242FF434343FF444444FF454545FF464646FF474747FF484848FF4949
310
49FF4A4A4AFF4B4B4BFF4C4C4CFF4D4D4DFF4E4E4EFF4F4F4FFF505050FF5151
310
51FF525252FF535353FF545454FF555555FF565656FF575757FF585858FF5959
310
59FF5A5A5AFF5B5B5BFF5C5C5CFF5D5D5DFF5E5E5EFF5F5F5FFF606060FF6161
310
61FF626262FF636363FF646464FF656565FF666666FF676767FF686868FF6969
310
69FF6A6A6AFF6B6B6BFF6C6C6CFF6D6D6DFF6E6E6EFF6F6F6FFF707070FF7171
310
71FF727272FF737373FF747474FF757575FF767676FF777777FF787878FF7979
310
79FF7A7A7AFF7B7B7BFF7C7C7CFF7D7D7DFF7E7E7EFF7F7F7FFF808080FF8181
310
81FF828282FF838383FF848484FF858585FF868686FF878787FF888888FF8989
310
89FF8A8A8AFF8B8B8BFF8C8C8CFF8D8D8DFF8E8E8EFF8F8F8FFF909090FF9191
310
91FF929292FF939393FF949494FF959595FF969696FF979797FF989898FF9999
310
99FF9A9A9AFF9B9B9BFF9C9C9CFF9D9D9DFF9E9E9EFF9F9F9FFFA0A0A0FFA1A1
310
A1FFA2A2A2FFA3A3A3FFA4A4A4FFA5A5A5FFA6A6A6FFA7A7A7FFA8A8A8FFA9A9
310
A9FFAAAAAAFFABABABFFACACACFFADADADFFAEAEAEFFAFAFAFFFB0B0B0FFB1B1
310
B1FFB2B2B2FFB3B3B3FFB4B4B4FFB5B5B5FFB6B6B6FFB7B7B7FFB8B8B8FFB9B9
310
B9FFBABABAFFBBBBBBFFBCBCBCFFBDBDBDFFBEBEBEFFBFBFBFFFC0C0C0FFC1C1
310
C1FFC2C2C2FFC3C3C3FFC4C4C4FFC5C5C5FFC6C6C6FFC7C7C7FFC8C8C8FFC9C9
310
C9FFCACACAFFCBCBCBFFCCCCCCFFCDCDCDFFCECECEFFCFCFCFFFD0D0D0FFD1D1
310
D1FFD2D2D2FFD3D3D3FFD4D4D4FFD5D5D5FFD6D6D6FFD7D7D7FFD8D8D8FFD9D9
310
D9FFDADADAFFDBDBDBFFDCDCDCFFDDDDDDFFDEDEDEFFDFDFDFFFE0E0E0FFE1E1
310
E1FFE2E2E2FFE3E3E3FFE4E4E4FFE5E5E5FFE6E6E6FFE7E7E7FFE8E8E8FFE9E9
310
E9FFEAEAEAFFEBEBEBFFECECECFFEDEDEDFFEEEEEEFFEFEFEFFFF0F0F0FFF1F1
310
F1FFF2F2F2FFF3F3F3FFF4F4F4FFF5F5F5FFF6F6F6FFF7F7F7FFF8F8F8FFF9F9
310
F9FFFAFAFAFFFBFBFBFFFCFCFCFFFDFDFDFFFEFEFEFFFFFFFFFFFFFFFFFFFFFF
310
C94E4E4E4F4E4EFFFFFFFFFFC94E4E4E4E4E72FFFFFFFFFFFFFF734E4D4E4E4E
310
C9FFFFFFFFFFAA683516171616265B9BE9FFFFFFFFFF4E4E4E4D4E4EFFFFFFFF
310
FFFFFFFF4E4E4F4E4D4E4E4E4F4E4E4F4D4E4E4E4E4E4D4E4F4E4D4E4E4EAAFF
310
FFFFFFFFFFEA4E4F4F4E4E4E4E4E4D4D4F4F4E4E4E4E4E5B7FAAFFFFFFFFFFFF
310
C9744E1716171616164D8DEAFFFFFFFF0000FFFFFFFFFFFFBA161617161716FF
310
FFFFFFFFB917171616174FFFFFFFFFFFFFFF4E1716161616B9FFFFFFB9341717
310
1716171617171616268CFFFFFFFF161617161617FFFFFFFFFFFFFFB917161717
310
1617167F807F7F7F7F7F7F807F7F807F7F807F7F7F414EFFFFFFFFFFFF8C167F
310
7F807F7F7F7E7F7F807F807F7F807F4E3417258EFFFFEA4E162674AABAEAEBBA
310
AA74341680FFFFFF0000FFFFFFFFFFFFB9171717171617FFFFFFFFFFBB161616
310
16164EFFFFFFFFFFFFFF4E1717171717B9FFFF9C171617171716161616171616
310
171766FFFFFF161717161617FFFFFFFFFFFFFF8E16171717161616FFFFFFFFFF
310
FFFFFFFFFFFFFFFFFFFFFFFFFFAA16D9FFFFFFFFFF3467FFFFFFFFEAFFFFFFFF
310
FFFFFFFFFFFFFFFFFFCA671667EB26278DFFFFFFFFFFFFFFFFFFFF8C2541EAFF
310
0000FFFFFFFFFFFFB9171717171716FFFFFFFFFFBA16171617174EFFFFFFFFFF
310
FFFF4E1717161616BAFF9B1617161616171716171617161616161667FFFF1616
310
16161716FFFFFFFFFFFFFF7F16161617174017FFFFFFFFFFFFFFFFFFFFFFFFFF
310
FFFFFFFFFFFF344E7F7F7F7E7417DAFFFFFFFF80FFFFFFFFFFFFFFFFFFFFFFFF
310
FFFFFF9B163425CAFFFFFFFFFFFFFFFFFFFFFFFFCA2667FF0000FFFFFFFFFFFF
310
BA171717171617FFFFFFFFFFB916171716164EFFFFFFFFFFFFFF4F1716161717
310
B9C91716171616161716161617171616161617168DFF161716161717FFFFFFFF
310
FFFFFF7F17171716164F16FFFFFFFFFFFFFFFFFFFFFFFFFFFFFFFFFFFFFF9B16
310
17161617174EFFFFFFFFFF34FFFFFFFFD9BABABABABADAFFFFFFFFFF7F16AAFF
310
FFFFFFFFFFFFFFFFFFFFFFFFFF9C16BA0000FFFFFFFFFFFFB9161717161717FF
310
FFFFFFFFB917161716174DFFFFFFFFFFFFFF4E1616161616BA4E161617171716
310
419BEAEAAA4E16161617161726E9171717161616FFFFFFFFFFFFFF4F16161717
310
164E16FFFFFFFFFFBAB9B9B9B9B9BABABACAFFFFFFFFFFFFFFFFFFFFFFFFFFFF
310
FFFFBA16FFFFFFFF7F1617161617174DEAFFFFFFEA41FFFFFFFFFFAA4D16174E
310
9BFFFFFFFFFF34730000FFFFFFFFFFFFB9161617171617FFFFFFFFFFBA161616
310
16164EFFFFFFFFFFFFFF4F16161717169B1617161716175BFFFFFFFFFFFF7417
310
16171616168D171717161617FFFFFFFFFFFFEA2616171717167416FFFFFFFFFF
310
16171616171717171717EAFFFFFFFFFFFFFFFFFFFFFFFFFFFFFF6716FFFFFFFF
310
7F4EFFFFFFFFBA2573FFFFFFFFBAFFFFFFFFAA167FB9BB9B269BFFFFFFFF664F
310
0000FFFFFFFFFFFFB9171616161616FFFFFFFFFFBA16161717164EFFFFFFFFFF
310
FFFF4E16161616174E161617171626EAFFFFFFFFFFFFFF4E16161616164E1716
310
16161617FFFFFFFFFFFF671616161716347F16FFFFFFFFFF16B9FFFFFFFFFFFF
310
D9168DFFFFFFFFFFFFFFFFFFFFFFFFFFFFEA1716FFFFFFFF7F4EFFFFFFFFFF7F
310
4EFFFFFFFFFFFFFFFFFF5B66FFFFFFEA347FFFFFFFFF7F4D0000FFFFFFFFFFFF
310
B9171616171617FFFFFFFFFFBA17161716174EFFFFFFFFFFFFFF4D1716161617
310
17161716161673FFFFFFFFFFFFFFFF9B1617161717161616171616174F4E4E4E
310
4E341616171616167E7F16FFFFFFFFFF16BAFFFFFFFFFFFFFF5B41FFFFFFFF34
310
1616171616BAFFFFFF9B1716FFFFFFFF7F4EFFFFFFFFFF4E4EFFFFFFFF734E4E
310
4E4E267EDA9B67164EEAFFFFFFFF744D0000FFFFFFFFFFFFBA171717161617FF
310
FFFFFFFFBA1616171616347F7F7F7F80807F331616161717161717161716B9FF
310
FFFFFFFFFFFFFFE9161616161616171716161716171616161616171616171734
310
EA7F16FFFFFFFFFF16BAFFFFFFFFFFFFFFAA17C9FFFFFF7326BABA5B25FFFFFF
310
FF401716FFFFFFFF7F264F4E4E4E4217AAFFFFFFEA16677F73261616164173CA
310
FFFFFFFFFFFF417F0000FFFFFFFFFFFFBA171616171617FFFFFFFFFFBA161616
310
17171616161616161616161717161616161616161617EAFFFFFFFFFFFFFFFFFF
310
261717161716161617161616161617161617161616174EEAFF8016FFFFFFFFFF
310
17BAFFFFFFFFFFFFFFFF3467FFFFFFC916C9FF3467FFFFFFDA166716FFFFFFFF
310
9C4D4E4E4E4E67AAFFFFFFFF6834FF7F262567AAEAFFFFFFFFFFFFFFFF9B17D9
310
0000FFFFFFFFFFFFB9161616161616FFFFFFFFFFBA1617161717171616161616
310
1716171716161716161617171716FFFFFFFFFFFFFFFFFFFF4E17161716171616
310
1617171616161716171717161616169BFF7F17FFFFFFFFFF17B9FFFFFFFFFFFF
310
FFFF7326FFFFFFFF3473DA16AAFFFFFF7317AA16FFFFFFFFFFFFFFFFFFFFFFFF
310
FFFFEA6725BA4E167FEAFFFFFFFFFFFFFFFFFFFF9C167FFF0000FFFFFFFFFFFF
310
B9161717171716FFFFFFFFFFBA16161716171616171717161617161716161616
310
171617171617EAFFFFFFFFFFFFFFFFFF26161717161616161616161617171616
310
1616161616171616AA8016FFFFFFFFFF16BAFFFFFFFFFFFFFFFFDA179BFFFFFF
310
74348D26FFFFFFFF2566B917FFFFFFFFD8BAB9BAB9BADAFFFFEA41169B7425C9
310
FFFFFFFFFFFFFFFFFFFFAB4F1680FFFF0000FFFFFFFFFFFFBA161717171617FF
310
FFFFFFFFBA17161717161617171617161616161617171616171716171617BBFF
310
FFFFFFFFFFFFFFE9171616161617161617161716FFFFFFFFFFD9671616161617
310
348017FFFFFFFFFF16BAFFFFFFFFFFFFFFFFFF4E5AFFFFFFC916265AFFFFFFAA
310
16AABA16FFFFFFFF7F1617161616179BFFFFEB4127168DFFFFFFFFFFFFFFD99B
310
6734175AC9FFFFFF0000FFFFFFFFFFFFB9161617171617FFFFFFFFFFBB161616
310
1616347F807F7F7F7F8033171716171617171616161672FFFFFFFFFFFFFFFF9C
310
171617171617161716161617FFFFFFFFFFFFFF4117161616174E17FFFFFFFFFF
310
16BAFFFFFFFFFFFFFFFFFF9B16DAFFFFFF34169BFFFFFF5A26FFB917FFFFFFFF
310
7F4EFFFFFFEA5B26FFFFFFEA2616EAFFFFFFFFDA743416331617414E4E4E4ECA
310
0000FFFFFFFFFFFFBA161716161616FFFFFFFFFFBA17171616164EFFFFFFFFFF
310
FFFF4E16161717174E161717171626EBFFFFFFFFFFFFFF4E16161617165B1616
310
16171617FFFFFFFFFFFFFF6716161616161617FFFFFFFFFF16BAFFFFFFFFFFFF
310
FFFFFFEA268CFFFFFF7316EAFFFFEB1774FFB916FFFFFFFF7F4EFFFFFFFF7316
310
FFFFFFFF6826FFFFFFFFEB264D9CEABA257F807F7F6616BA0000FFFFFFFFFFFF
310
BA161716161616FFFFFFFFFFBA16171616164DFFFFFFFFFFFFFF4E1617161617
310
9B1617171717165BEBFFFFFFFFFF671616161617179B171616161616FFFFFFFF
310
FFFFFF3417161617171617FFFFFFFFFF17BAFFFFFFFFFFFFFFFFFFFF6734FFFF
310
FFEBCAFFFFFF8D17C9FFBA17FFFFFFFF7F357F808066174FFFFFFFFF7F16FFFF
310
FFFFD91673B99B415BFFFFFFFFBA16DA00009B7F7F7F807F671617161616167F
310
80807F7E6617161616164EFFFFFFFFFFFFFF4E1616161617B94E171716161616
310
349BC9D9AA4E16171616161634FF161617161717B9B9BAB9BA9B411716171716
310
163416FFFFFFFFFF16B9FFFFFFFFFFFFFFFFFFFFC917CAFFFFFFFFFFFFFF3342
310
FFFFBA17FFFFFFFF9B4E4E4F4E4E66EAFFFFFFFF5B16C9FFFFFFFFAA4E164E73
310
EAFFFFFFFF8D26FF00004E161716161616171617171616171717171617161616
310
17174EFFFFFFFFFFFFFF4E1717171616B9D92616171716171716171717171716
310
16171716AAFF161717171617161617171616161617161716166717FFFFFFFFFF
310
17B9FFFFFFFFFFFFFFFFFFFFFF3467FFFFFFFFFFFFCA168CFFFFBB17FFFFFFFF
310
FFFFFFFFFFFFFFFFFFFFFFEA26265BFFFFFFFFFFFFFFFFFFFFFFFFFFEA3467FF
310
00004D16161616161617161717161617161616171617171616164EFFFFFFFFFF
310
FFFF4D1617161616BAFF9B1616161616161716161616171717161766FFFF1616
310
16171617161617161716171616171717667F16FFFFFFFFFF17BAFFFFFFFFFFFF
310
FFFFFFFFFF8C26EAFFFFFFFFFF6617EAFFFFBA17FFFFFFFFFFFFFFFFFFFFFFFF
310
FFFFEA5A25BA269BFFFFFFFFFFFFFFFFFFFFFFFF6616DAFF00004E1616171616
310
1616161616161716161617171616171616174EFFFFFFFFFFFFFF4D1717171716
310
B9FFFF9C161616161616161716161717171667FFFFFF17161717171716161617
310
1716161616161641E97E16FFFFFFFFFF16B9FFFFFFFFFFFFFFFFFFFFFFEA169B
310
FFFFFFFFEA265BFFFFFFB916FFFFFFFFFFFFFFFFFFFFFFFFFF9B3416AAFF9B17
310
67EAFFFFFFFFFFFFFFFFEA5B169BFFFF00004D17161716161616161717171616
310
161717161716171716174EFFFFFFFFFFFFFF4D1616161616BAFFFFFFBB411616
310
161716161616171634ABFFFFFFFF161716161617171716171617171617267FFF
310
FF7F164E4E4E4E4F17BAFFFFFFFFFFFFFFFFFFFFFFFF66344D4E4E4F4117AAFF
310
FFFFBA174E4E4E4D4E4D4D4E4E4E4E4116174EBBFFFFFFCA342666ABEAFFFFEA
310
AA6725269CFFFFFF0000724F4E4D4D4D4E4D4D4E4E4E4D4E4E4E4E4E4E4E4E4D
310
4E4E74FFFFFFFFFFFFFF734E4E4E4D4ECAFFFFFFFFFFAA663416171717265B9B
310
FFFFFFFFFFFF7F8080807F80807F7F7F7F7F807FBAFFFFFFFF9B4E4E4F4D4D4E
310
4DC9FFFFFFFFFFFFFFFFFFFFFFFFBA4E4E4E4E4D4E4EFFFFFFFFC94E4E4E4F4E
310
4E4E4D4E4E5A807F9CD9FFFFFFFFFFFFFF9B5B2617171716174E8DEAFFFFFFFF
310
0000000000007F43000000000000000000000000000000000000000000000000
  1
OLE
  0
ENDSEC
  0
SECTION
  2
OBJECTS
  0
DICTIONARY
  5
C
330
0
100
AcDbDictionary
281
     1
  3
ACAD_GROUP
350
D
  3
ACAD_LAYOUT
350
1A
  3
ACAD_MLINESTYLE
350
17
  3
ACAD_PLOTSETTINGS
350
19
  3
ACAD_PLOTSTYLENAME
350
E
  0
DICTIONARY
  5
D
102
{ACAD_REACTORS
330
C
102
}
330
C
100
AcDbDictionary
281
     1
  0
DICTIONARY
  5
1A
102
{ACAD_REACTORS
330
C
102
}
330
C
100
AcDbDictionary
281
     1
  3
Layout1
350
1E
  3
Layout2
350
26
  3
Model
350
22
  0
DICTIONARY
  5
17
102
{ACAD_REACTORS
330
C
102
}
330
C
100
AcDbDictionary
281
     1
  3
Standard
350
18
  0
DICTIONARY
  5
19
102
{ACAD_REACTORS
330
C
102
}
330
C
100
AcDbDictionary
281
     1
  0
ACDBDICTIONARYWDFLT
  5
E
102
{ACAD_REACTORS
330
C
102
}
330
C
100
AcDbDictionary
281
     1
  3
Normal
350
F
100
AcDbDictionaryWithDefault
340
F
  0
LAYOUT
  5
1E
102
{ACAD_REACTORS
330
1A
102
}
330
1A
100
AcDbPlotSettings
  1

  2
none_device
  4

  6

 40
0.0
 41
0.0
 42
0.0
 43
0.0
 44
0.0
 45
0.0
 46
0.0
 47
0.0
 48
0.0
 49
0.0
140
0.0
141
0.0
142
1.0
143
1.0
 70
   688
 72
     0
 73
     0
 74
     5
  7

 75
    16
147
1.0
148
0.0
149
0.0
100
AcDbLayout
  1
Layout1
 70
     1
 71
     1
 10
0.0
 20
0.0
 11
420.0
 21
297.0
 12
0.0
 22
0.0
 32
0.0
 14
1.0000000000E+20
 24
1.0000000000E+20
 34
1.0000000000E+20
 15
-1.0000000000E+20
 25
-1.0000000000E+20
 35
-1.0000000000E+20
146
0.0
 13
0.0
 23
0.0
 33
0.0
 16
1.0
 26
0.0
 36
0.0
 17
0.0
 27
1.0
 37
0.0
 76
     0
330
1B
  0
LAYOUT
  5
26
102
{ACAD_REACTORS
330
1A
102
}
330
1A
100
AcDbPlotSettings
  1

  2
none_device
  4

  6

 40
0.0
 41
0.0
 42
0.0
 43
0.0
 44
0.0
 45
0.0
 46
0.0
 47
0.0
 48
0.0
 49
0.0
140
0.0
141
0.0
142
1.0
143
1.0
 70
   688
 72
     0
 73
     0
 74
     5
  7

 75
    16
147
1.0
148
0.0
149
0.0
100
AcDbLayout
  1
Layout2
 70
     1
 71
     2
 10
0.0
 20
0.0
 11
0.0
 21
0.0
 12
0.0
 22
0.0
 32
0.0
 14
0.0
 24
0.0
 34
0.0
 15
0.0
 25
0.0
 35
0.0
146
0.0
 13
0.0
 23
0.0
 33
0.0
 16
1.0
 26
0.0
 36
0.0
 17
0.0
 27
1.0
 37
0.0
 76
     0
330
23
  0
LAYOUT
  5
22
102
{ACAD_REACTORS
330
1A
102
}
330
1A
100
AcDbPlotSettings
  1

  2
none_device
  4

  6

 40
0.0
 41
0.0
 42
0.0
 43
0.0
 44
0.0
 45
0.0
 46
0.0
 47
0.0
 48
0.0
 49
0.0
140
0.0
141
0.0
142
1.0
143
1.0
 70
  1712
 72
     0
 73
     0
 74
     0
  7

 75
     0
147
1.0
148
0.0
149
0.0
100
AcDbLayout
  1
Model
 70
     1
 71
     0
 10
0.0
 20
0.0
 11
279.4
 21
215.9
 12
0.0
 22
0.0
 32
0.0
 14
0.0
 24
0.0
 34
0.0
 15
279.4
 25
215.9
 35
0.0
146
0.0
 13
0.0
 23
0.0
 33
0.0
 16
1.0
 26
0.0
 36
0.0
 17
0.0
 27
1.0
 37
0.0
 76
     0
330
1F
331
29
  0
MLINESTYLE
  5
18
102
{ACAD_REACTORS
330
17
102
}
330
17
100
AcDbMlineStyle
  2
Standard
 70
     0
  3

 62
   256
 51
90.0
 52
90.0
 71
     2
 49
0.5
 62
   256
  6
BYLAYER
 49
-0.5
 62
   256
  6
BYLAYER
  0
ACDBPLACEHOLDER
  5
F
102
{ACAD_REACTORS
330
E
102
}
330
E
  0
ENDSEC
  0
EOF
