  0
SECTION
  2
HEADER
  9
$ACADVER
  1
AC1015
  9
$ACADMAINTVER
 70
     6
  9
$DWGCODEPAGE
  3
ANSI_1252
  9
$INSBASE
 10
0.0
 20
0.0
 30
0.0
  9
$EXTMIN
 10
0.0
 20
0.0
 30
0.0
  9
$EXTMAX
 10
279.4
 20
215.9
 30
0.0
  9
$LIMMIN
 10
0.0
 20
0.0
  9
$LIMMAX
 10
279.4
 20
215.9
  9
$ORTHOMODE
 70
     0
  9
$REGENMODE
 70
     1
  9
$FILLMODE
 70
     1
  9
$QTEXTMODE
 70
     0
  9
$MIRRTEXT
 70
     1
  9
$LTSCALE
 40
1.0
  9
$ATTMODE
 70
     1
  9
$TEXTSIZE
 40
2.8222222222
  9
$TRACEWID
 40
1.0
  9
$TEXTSTYLE
  7
Standard
  9
$CLAYER
  8
0
  9
$CELTYPE
  6
ByLayer
  9
$CECOLOR
 62
   256
  9
$CELTSCALE
 40
1.0
  9
$DISPSILH
 70
     0
  9
$DIMSCALE
 40
1.0
  9
$DIMASZ
 40
3.175
  9
$DIMEXO
 40
1.27
  9
$DIMDLI
 40
3.75
  9
$DIMRND
 40
0.0
  9
$DIMDLE
 40
0.0
  9
$DIMEXE
 40
1.778
  9
$DIMTP
 40
0.0
  9
$DIMTM
 40
0.0
  9
$DIMTXT
 40
2.8222222222
  9
$DIMCEN
 40
2.5
  9
$DIMTSZ
 40
0.0
  9
$DIMTOL
 70
     0
  9
$DIMLIM
 70
     0
  9
$DIMTIH
 70
     1
  9
$DIMTOH
 70
     1
  9
$DIMSE1
 70
     0
  9
$DIMSE2
 70
     0
  9
$DIMTAD
 70
     0
  9
$DIMZIN
 70
     1
  9
$DIMBLK
  1

  9
$DIMASO
 70
     1
  9
$DIMSHO
 70
     1
  9
$DIMPOST
  1

  9
$DIMAPOST
  1

  9
$DIMALT
 70
     0
  9
$DIMALTD
 70
     3
  9
$DIMALTF
 40
0.0393700787
  9
$DIMLFAC
 40
1.0
  9
$DIMTOFL
 70
     1
  9
$DIMTVP
 40
0.0
  9
$DIMTIX
 70
     0
  9
$DIMSOXD
 70
     0
  9
$DIMSAH
 70
     0
  9
$DIMBLK1
  1

  9
$DIMBLK2
  1

  9
$DIMSTYLE
  2
ISO-25
  9
$DIMCLRD
 70
     0
  9
$DIMCLRE
 70
     0
  9
$DIMCLRT
 70
     0
  9
$DIMTFAC
 40
1.0
  9
$DIMGAP
 40
2.54
  9
$DIMJUST
 70
     0
  9
$DIMSD1
 70
     0
  9
$DIMSD2
 70
     0
  9
$DIMTOLJ
 70
     0
  9
$DIMTZIN
 70
     1
  9
$DIMALTZ
 70
     0
  9
$DIMALTTZ
 70
     0
  9
$DIMUPT
 70
     0
  9
$DIMDEC
 70
     1
  9
$DIMTDEC
 70
     1
  9
$DIMALTU
 70
     2
  9
$DIMALTTD
 70
     3
  9
$DIMTXSTY
  7
Standard
  9
$DIMAUNIT
 70
     0
  9
$DIMADEC
 70
     0
  9
$DIMALTRND
 40
0.0
  9
$DIMAZIN
 70
     0
  9
$DIMDSEP
 70
    44
  9
$DIMATFIT
 70
     3
  9
$DIMFRAC
 70
     0
  9
$DIMLDRBLK
  1

  9
$DIMLUNIT
 70
     2
  9
$DIMLWD
 70
    -2
  9
$DIMLWE
 70
    -2
  9
$DIMTMOVE
 70
     0
  9
$LUNITS
 70
     2
  9
$LUPREC
 70
     1
  9
$SKETCHINC
 40
1.0
  9
$FILLETRAD
 40
10.0
  9
$AUNITS
 70
     0
  9
$AUPREC
 70
     0
  9
$MENU
  1
.
  9
$ELEVATION
 40
0.0
  9
$PELEVATION
 40
0.0
  9
$THICKNESS
 40
0.0
  9
$LIMCHECK
 70
     0
  9
$CHAMFERA
 40
0.0
  9
$CHAMFERB
 40
0.0
  9
$CHAMFERC
 40
0.0
  9
$CHAMFERD
 40
0.0
  9
$SKPOLY
 70
     0
  9
$TDCREATE
 40
2458470.639411493
  9
$TDUCREATE
 40
2458470.847744826
  9
$TDUPDATE
 40
2458470.639418704
  9
$TDUUPDATE
 40
2458470.847752037
  9
$TDINDWG
 40
0.0000000116
  9
$TDUSRTIMER
 40
0.0000000116
  9
$USRTIMER
 70
     1
  9
$ANGBASE
 50
0.0
  9
$ANGDIR
 70
     0
  9
$PDMODE
 70
     0
  9
$PDSIZE
 40
-1.0
  9
$PLINEWID
 40
0.0
  9
$SPLFRAME
 70
     0
  9
$SPLINETYPE
 70
     6
  9
$SPLINESEGS
 70
     8
  9
$HANDSEED
  5
26A
  9
$SURFTAB1
 70
     6
  9
$SURFTAB2
 70
     6
  9
$SURFTYPE
 70
     6
  9
$SURFU
 70
     6
  9
$SURFV
 70
     6
  9
$UCSBASE
  2

  9
$UCSNAME
  2

  9
$UCSORG
 10
0.0
 20
0.0
 30
0.0
  9
$UCSXDIR
 10
1.0
 20
0.0
 30
0.0
  9
$UCSYDIR
 10
0.0
 20
1.0
 30
0.0
  9
$UCSORTHOREF
  2

  9
$UCSORTHOVIEW
 70
     0
  9
$UCSORGTOP
 10
0.0
 20
0.0
 30
0.0
  9
$UCSORGBOTTOM
 10
0.0
 20
0.0
 30
0.0
  9
$UCSORGLEFT
 10
0.0
 20
0.0
 30
0.0
  9
$UCSORGRIGHT
 10
0.0
 20
0.0
 30
0.0
  9
$UCSORGFRONT
 10
0.0
 20
0.0
 30
0.0
  9
$UCSORGBACK
 10
0.0
 20
0.0
 30
0.0
  9
$PUCSBASE
  2

  9
$PUCSNAME
  2

  9
$PUCSORG
 10
0.0
 20
0.0
 30
0.0
  9
$PUCSXDIR
 10
1.0
 20
0.0
 30
0.0
  9
$PUCSYDIR
 10
0.0
 20
1.0
 30
0.0
  9
$PUCSORTHOREF
  2

  9
$PUCSORTHOVIEW
 70
     0
  9
$PUCSORGTOP
 10
0.0
 20
0.0
 30
0.0
  9
$PUCSORGBOTTOM
 10
0.0
 20
0.0
 30
0.0
  9
$PUCSORGLEFT
 10
0.0
 20
0.0
 30
0.0
  9
$PUCSORGRIGHT
 10
0.0
 20
0.0
 30
0.0
  9
$PUCSORGFRONT
 10
0.0
 20
0.0
 30
0.0
  9
$PUCSORGBACK
 10
0.0
 20
0.0
 30
0.0
  9
$USERI1
 70
     0
  9
$USERI2
 70
     0
  9
$USERI3
 70
     0
  9
$USERI4
 70
     0
  9
$USERI5
 70
     0
  9
$USERR1
 40
0.0
  9
$USERR2
 40
0.0
  9
$USERR3
 40
0.0
  9
$USERR4
 40
0.0
  9
$USERR5
 40
0.0
  9
$WORLDVIEW
 70
     1
  9
$SHADEDGE
 70
     3
  9
$SHADEDIF
 70
    70
  9
$TILEMODE
 70
     1
  9
$MAXACTVP
 70
    64
  9
$PINSBASE
 10
0.0
 20
0.0
 30
0.0
  9
$PLIMCHECK
 70
     0
  9
$PEXTMIN
 10
1.0000000000E+20
 20
1.0000000000E+20
 30
1.0000000000E+20
  9
$PEXTMAX
 10
-1.0000000000E+20
 20
-1.0000000000E+20
 30
-1.0000000000E+20
  9
$PLIMMIN
 10
0.0
 20
0.0
  9
$PLIMMAX
 10
420.0
 20
297.0
  9
$UNITMODE
 70
     0
  9
$VISRETAIN
 70
     1
  9
$PLINEGEN
 70
     0
  9
$PSLTSCALE
 70
     1
  9
$TREEDEPTH
 70
  3020
  9
$CMLSTYLE
  2
Standard
  9
$CMLJUST
 70
     0
  9
$CMLSCALE
 40
20.0
  9
$PROXYGRAPHICS
 70
     1
  9
$MEASUREMENT
 70
     1
  9
$CELWEIGHT
370
    -1
  9
$ENDCAPS
280
     0
  9
$JOINSTYLE
280
     0
  9
$LWDISPLAY
290
     1
  9
$INSUNITS
 70
     4
  9
$HYPERLINKBASE
  1

  9
$STYLESHEET
  1

  9
$XEDIT
290
     1
  9
$CEPSNTYPE
380
     0
  9
$PSTYLEMODE
290
     1
  9
$FINGERPRINTGUID
  2
{3C5848E6-77C9-47A1-AF25-C6ED6812FE27}
  9
$VERSIONGUID
  2
{FAEB1C32-E019-11D5-929B-00C0DF256EC4}
  9
$EXTNAMES
290
     1
  9
$PSVPSCALE
 40
0.0
  9
$OLESTARTUP
290
     0
  0
ENDSEC
  0
SECTION
  2
CLASSES
  0
CLASS
  1
ACDBDICTIONARYWDFLT
  2
AcDbDictionaryWithDefault
  3
ObjectDBX Classes
 90
        0
280
     0
281
     0
  0
CLASS
  1
VISUALSTYLE
  2
AcDbVisualStyle
  3
ObjectDBX Classes
 90
     4095
280
     0
281
     0
  0
CLASS
  1
MATERIAL
  2
AcDbMaterial
  3
ObjectDBX Classes
 90
     1153
280
     0
281
     0
  0
CLASS
  1
SCALE
  2
AcDbScale
  3
ObjectDBX Classes
 90
     1153
280
     0
281
     0
  0
CLASS
  1
TABLESTYLE
  2
AcDbTableStyle
  3
ObjectDBX Classes
 90
     4095
280
     0
281
     0
  0
CLASS
  1
MLEADERSTYLE
  2
AcDbMLeaderStyle
  3
ACDB_MLEADERSTYLE_CLASS
 90
     4095
280
     0
281
     0
  0
CLASS
  1
SUN
  2
AcDbSun
  3
SCENEOE
 90
     1153
280
     0
281
     0
  0
CLASS
  1
ACDBPLACEHOLDER
  2
AcDbPlaceHolder
  3
ObjectDBX Classes
 90
        0
280
     0
281
     0
  0
CLASS
  1
LAYOUT
  2
AcDbLayout
  3
ObjectDBX Classes
 90
        0
280
     0
281
     0
  0
ENDSEC
  0
SECTION
  2
TABLES
  0
TABLE
  2
VPORT
  5
8
330
0
100
AcDbSymbolTable
 70
     1
  0
VPORT
  5
29
330
8
100
AcDbSymbolTableRecord
100
AcDbViewportTableRecord
  2
*Active
 70
     0
 10
0.0
 20
0.0
 11
1.0
 21
1.0
 12
139.7
 22
107.95
 13
0.0
 23
0.0
 14
10.0
 24
10.0
 15
10.0
 25
10.0
 16
0.0
 26
0.0
 36
1.0
 17
0.0
 27
0.0
 37
0.0
 40
215.9
 41
1.2941176471
 42
50.0
 43
0.0
 44
0.0
 50
0.0
 51
0.0
 71
     0
 72
  2000
 73
     1
 74
     3
 75
     0
 76
     0
 77
     0
 78
     0
281
     0
 65
     1
110
0.0
120
0.0
130
0.0
111
1.0
121
0.0
131
0.0
112
0.0
122
1.0
132
0.0
 79
     0
146
0.0
  0
ENDTAB
  0
TABLE
  2
LTYPE
  5
5
330
0
100
AcDbSymbolTable
 70
     6
  0
LTYPE
  5
14
330
5
100
AcDbSymbolTableRecord
100
AcDbLinetypeTableRecord
  2
ByBlock
 70
     0
  3

 72
    65
 73
     0
 40
0.0
  0
LTYPE
  5
15
330
5
100
AcDbSymbolTableRecord
100
AcDbLinetypeTableRecord
  2
ByLayer
 70
     0
  3

 72
    65
 73
     0
 40
0.0
  0
LTYPE
  5
16
330
5
100
AcDbSymbolTableRecord
100
AcDbLinetypeTableRecord
  2
Continuous
 70
     0
  3
Solid line
 72
    65
 73
     0
 40
0.0
  0
LTYPE
  5
6E
330
5
100
AcDbSymbolTableRecord
100
AcDbLinetypeTableRecord
  2
HIDDEN
 70
     0
  3
Hidden __ __ __ __ __ __ __ __ __ __ __ __ __ __
 72
    65
 73
     2
 40
1.905
 49
1.27
 74
     0
 49
-0.635
 74
     0
  0
LTYPE
  5
6F
330
5
100
AcDbSymbolTableRecord
100
AcDbLinetypeTableRecord
  2
PHANTOM
 70
     0
  3
Phantom ______  __  __  ______  __  __  ______
 72
    65
 73
     6
 40
12.7
 49
6.35
 74
     0
 49
-1.27
 74
     0
 49
1.27
 74
     0
 49
-1.27
 74
     0
 49
1.27
 74
     0
 49
-1.27
 74
     0
  0
LTYPE
  5
70
330
5
100
AcDbSymbolTableRecord
100
AcDbLinetypeTableRecord
  2
CENTER
 70
     0
  3
Center ____ _ ____ _ ____ _ ____ _ ____ _ ____
 72
    65
 73
     4
 40
10.16
 49
6.35
 74
     0
 49
-1.27
 74
     0
 49
1.27
 74
     0
 49
-1.27
 74
     0
  0
LTYPE
  5
71
330
5
100
AcDbSymbolTableRecord
100
AcDbLinetypeTableRecord
  2
CENTERX2
 70
     0
  3
Center (2x) ________  __  ________  __  _____
 72
    65
 73
     4
 40
20.32
 49
12.7
 74
     0
 49
-2.54
 74
     0
 49
2.54
 74
     0
 49
-2.54
 74
     0
  0
LTYPE
  5
72
330
5
100
AcDbSymbolTableRecord
100
AcDbLinetypeTableRecord
  2
DOT2
 70
     0
  3
Dot (.5x) ........................................
 72
    65
 73
     2
 40
0.635
 49
0.0
 74
     0
 49
-0.635
 74
     0
  0
ENDTAB
  0
TABLE
  2
LAYER
  5
2
330
0
100
AcDbSymbolTable
 70
     2
  0
LAYER
  5
10
330
2
100
AcDbSymbolTableRecord
100
AcDbLayerTableRecord
  2
0
 70
     0
 62
     7
  6
Continuous
370
    -3
390
F
  0
LAYER
  5
73
330
2
100
AcDbSymbolTableRecord
100
AcDbLayerTableRecord
  2
FORMAT
 70
     0
 62
     7
  6
Continuous
370
    -3
390
F
  0
ENDTAB
  0
TABLE
  2
STYLE
  5
3
330
0
100
AcDbSymbolTable
 70
     5
  0
STYLE
  5
11
330
3
100
AcDbSymbolTableRecord
100
AcDbTextStyleTableRecord
  2
Standard
 70
     0
 40
0.0
 41
1.0
 50
0.0
 71
     0
 42
2.8222222222
  3
txt
  4

  0
STYLE
  5
9D
330
3
100
AcDbSymbolTableRecord
100
AcDbTextStyleTableRecord
  2
SLDTEXTSTYLE0
 70
     0
 40
0.0
 41
0.75
 50
0.0
 71
     0
 42
2.8222222222
  3
TXT
  4

  0
STYLE
  5
A3
330
3
100
AcDbSymbolTableRecord
100
AcDbTextStyleTableRecord
  2
SLDTEXTSTYLE1
 70
     0
 40
0.0
 41
0.75
 50
0.0
 71
     0
 42
2.8222222222
  3
TXT
  4
bigfont
  0
STYLE
  5
B5
330
3
100
AcDbSymbolTableRecord
100
AcDbTextStyleTableRecord
  2
SLDTEXTSTYLE2
 70
     0
 40
0.0
 41
0.7
 50
0.0
 71
     0
 42
2.8222222222
  3
TXT
  4

  0
STYLE
  5
C4
330
3
100
AcDbSymbolTableRecord
100
AcDbTextStyleTableRecord
  2
SLDTEXTSTYLE3
 70
     0
 40
0.0
 41
0.6
 50
0.0
 71
     0
 42
2.8222222222
  3
TXT
  4

  0
ENDTAB
  0
TABLE
  2
VIEW
  5
6
330
0
100
AcDbSymbolTable
 70
     0
  0
ENDTAB
  0
TABLE
  2
UCS
  5
7
330
0
100
AcDbSymbolTable
 70
     0
  0
ENDTAB
  0
TABLE
  2
APPID
  5
9
330
0
100
AcDbSymbolTable
 70
     1
  0
APPID
  5
12
330
9
100
AcDbSymbolTableRecord
100
AcDbRegAppTableRecord
  2
ACAD
 70
     0
  0
ENDTAB
  0
TABLE
  2
DIMSTYLE
  5
A
330
0
100
AcDbSymbolTable
 70
     6
100
AcDbDimStyleTable
  0
DIMSTYLE
105
27
330
A
100
AcDbSymbolTableRecord
100
AcDbDimStyleTableRecord
  2
ISO-25
 70
     0
 41
2.5
 42
0.625
 43
3.75
 44
1.25
 73
     0
 74
     0
 77
     1
 78
     8
140
2.5
141
2.5
143
0.0393700787
147
0.625
171
     3
172
     1
178
     0
271
     2
272
     2
274
     3
278
    44
283
     0
284
     8
340
11
  0
DIMSTYLE
105
F3
102
{ACAD_REACTORS
330
F2
102
}
330
A
100
AcDbSymbolTableRecord
100
AcDbDimStyleTableRecord
  2
SLDDIMSTYLE0
 70
     0
 41
3.175
 44
0.0
 45
0.000000001
 78
    12
 79
     3
140
2.1166666667
141
0.0
143
0.0393700787
147
0.5291666667
148
0.000000001
170
     1
173
     1
178
     0
271
     1
272
     1
276
     2
284
    12
340
9D
  0
DIMSTYLE
105
116
102
{ACAD_REACTORS
330
115
102
}
330
A
100
AcDbSymbolTableRecord
100
AcDbDimStyleTableRecord
  2
SLDDIMSTYLE1
 70
     0
 41
3.175
 44
0.0
 45
0.000000001
 78
    12
 79
     3
140
2.1166666667
143
0.0393700787
147
0.5291666667
148
0.000000001
170
     1
172
     1
173
     1
178
     0
271
     1
272
     1
276
     2
284
    12
289
     0
340
9D
  0
DIMSTYLE
105
12A
102
{ACAD_REACTORS
330
129
102
}
330
A
100
AcDbSymbolTableRecord
100
AcDbDimStyleTableRecord
  2
SLDDIMSTYLE2
 70
     0
 41
3.175
 44
0.0
 45
0.000000001
 78
     4
 79
     1
140
2.1166666667
141
0.0
143
0.0393700787
147
0.5291666667
148
0.000000001
170
     1
173
     1
178
     0
271
     1
272
     1
276
     2
284
    12
340
9D
  0
DIMSTYLE
105
13B
102
{ACAD_REACTORS
330
13A
102
}
330
A
100
AcDbSymbolTableRecord
100
AcDbDimStyleTableRecord
  2
SLDDIMSTYLE3
 70
     0
 41
3.175
 44
0.0
 45
0.000000001
 78
     4
 79
     1
140
2.1166666667
143
0.0393700787
147
0.5291666667
148
0.000000001
170
     1
172
     1
173
     1
178
     0
271
     1
272
     1
276
     2
284
    12
289
     0
340
9D
  0
DIMSTYLE
105
151
330
A
100
AcDbSymbolTableRecord
100
AcDbDimStyleTableRecord
  2
SLDDIMSTYLE4
 70
     0
 41
3.175
 44
0.0
 45
0.000000001
146
3.175
147
0.0
173
     1
178
     0
271
     0
272
     0
276
     2
340
11
  0
ENDTAB
  0
TABLE
  2
BLOCK_RECORD
  5
1
330
0
100
AcDbSymbolTable
 70
    11
  0
BLOCK_RECORD
  5
1F
330
1
100
AcDbSymbolTableRecord
100
AcDbBlockTableRecord
  2
*Model_Space
340
22
  0
BLOCK_RECORD
  5
1B
330
1
100
AcDbSymbolTableRecord
100
AcDbBlockTableRecord
  2
*Paper_Space
340
1E
  0
BLOCK_RECORD
  5
23
330
1
100
AcDbSymbolTableRecord
100
AcDbBlockTableRecord
  2
*Paper_Space0
340
26
  0
BLOCK_RECORD
  5
74
330
1
100
AcDbSymbolTableRecord
100
AcDbBlockTableRecord
  2
Third Angle Projection Block
340
0
102
{BLKREFS
331
99
102
}
  0
BLOCK_RECORD
  5
9A
330
1
100
AcDbSymbolTableRecord
100
AcDbBlockTableRecord
  2
SW_NOTE_0
340
0
102
{BLKREFS
331
B8
102
}
  0
BLOCK_RECORD
  5
CA
330
1
100
AcDbSymbolTableRecord
100
AcDbBlockTableRecord
  2
SW_NOTE_1
340
0
102
{BLKREFS
331
CF
102
}
  0
BLOCK_RECORD
  5
D0
330
1
100
AcDbSymbolTableRecord
100
AcDbBlockTableRecord
  2
SW_NOTE_2
340
0
102
{BLKREFS
331
D5
102
}
  0
BLOCK_RECORD
  5
D7
330
1
100
AcDbSymbolTableRecord
100
AcDbBlockTableRecord
  2
SW_NOTE_3
340
0
102
{BLKREFS
331
DC
102
}
  0
BLOCK_RECORD
  5
DD
330
1
100
AcDbSymbolTableRecord
100
AcDbBlockTableRecord
  2
SW_NOTE_4
340
0
102
{BLKREFS
331
E3
102
}
  0
BLOCK_RECORD
  5
F4
330
1
100
AcDbSymbolTableRecord
100
AcDbBlockTableRecord
  2
_D
340
0
  0
BLOCK_RECORD
  5
117
330
1
100
AcDbSymbolTableRecord
100
AcDbBlockTableRecord
  2
_D_1
340
0
  0
BLOCK_RECORD
  5
12B
330
1
100
AcDbSymbolTableRecord
100
AcDbBlockTableRecord
  2
_D_2
340
0
  0
BLOCK_RECORD
  5
13C
330
1
100
AcDbSymbolTableRecord
100
AcDbBlockTableRecord
  2
_D_3
340
0
  0
ENDTAB
  0
ENDSEC
  0
SECTION
  2
BLOCKS
  0
BLOCK
  5
20
330
1F
100
AcDbEntity
  8
0
100
AcDbBlockBegin
  2
*Model_Space
 70
     0
 10
0.0
 20
0.0
 30
0.0
  3
*Model_Space
  1

  0
ENDBLK
  5
21
330
1F
100
AcDbEntity
  8
0
100
AcDbBlockEnd
  0
BLOCK
  5
1C
330
1B
100
AcDbEntity
 67
     1
  8
0
100
AcDbBlockBegin
  2
*Paper_Space
 70
     0
 10
0.0
 20
0.0
 30
0.0
  3
*Paper_Space
  1

  0
ENDBLK
  5
1D
330
1B
100
AcDbEntity
 67
     1
  8
0
100
AcDbBlockEnd
  0
BLOCK
  5
24
330
23
100
AcDbEntity
  8
0
100
AcDbBlockBegin
  2
*Paper_Space0
 70
     0
 10
0.0
 20
0.0
 30
0.0
  3
*Paper_Space0
  1

  0
ENDBLK
  5
25
330
23
100
AcDbEntity
  8
0
100
AcDbBlockEnd
  0
BLOCK
  5
75
330
74
100
AcDbEntity
  8
0
100
AcDbBlockBegin
  2
Third Angle Projection Block
 70
     0
 10
0.0
 20
0.0
 30
0.0
  3
Third Angle Projection Block
  1

  0
CIRCLE
  5
77
330
74
100
AcDbEntity
  8
0
  6
Continuous
 62
     7
370
    35
100
AcDbCircle
 10
101.4766388944
 20
18.9404083667
 30
0.0
 40
1.768227153674871
  0
CIRCLE
  5
78
330
74
100
AcDbEntity
  8
0
  6
Continuous
 62
     7
370
    35
100
AcDbCircle
 10
101.4766388944
 20
18.9404083667
 30
0.0
 40
3.901228248531818
  0
LINE
  5
79
330
74
100
AcDbEntity
  8
0
  6
CENTERX2
 62
     7
370
    18
100
AcDbLine
 10
110.1367822585
 20
18.9404083667
 30
0.0
 11
119.4527334874
 21
18.9404083667
 31
0.0
  0
LINE
  5
7A
330
74
100
AcDbEntity
  8
0
  6
Continuous
 62
     7
370
    35
100
AcDbLine
 10
111.0016388944
 20
20.7086355204
 30
0.0
 11
111.0016388944
 21
17.172181213
 31
0.0
  0
LINE
  5
7B
330
74
100
AcDbEntity
  8
0
  6
Continuous
 62
     7
370
    35
100
AcDbLine
 10
111.0016388944
 20
17.172181213
 30
0.0
 11
118.6216388944
 21
15.1304083667
 31
0.0
  0
LINE
  5
7C
330
74
100
AcDbEntity
  8
0
  6
Continuous
 62
     7
370
    35
100
AcDbLine
 10
118.6216388944
 20
15.1304083667
 30
0.0
 11
118.6216388944
 21
22.7504083667
 31
0.0
  0
LINE
  5
7D
330
74
100
AcDbEntity
  8
0
  6
Continuous
 62
     7
370
    35
100
AcDbLine
 10
118.6216388944
 20
22.7504083667
 30
0.0
 11
111.0016388944
 21
20.7086355204
 31
0.0
  0
LINE
  5
7E
330
74
100
AcDbEntity
  8
0
  6
CENTERX2
 62
     7
370
    18
100
AcDbLine
 10
96.6025854619
 20
18.9404083667
 30
0.0
 11
106.3506923269
 21
18.9404083667
 31
0.0
  0
LINE
  5
7F
330
74
100
AcDbEntity
  8
0
  6
CENTERX2
 62
     7
370
    18
100
AcDbLine
 10
101.4766388944
 20
23.8144617992
 30
0.0
 11
101.4766388944
 21
14.0663549342
 31
0.0
  0
POINT
  5
80
330
74
100
AcDbEntity
  8
0
  6
Continuous
 62
     7
370
     0
100
AcDbPoint
 10
101.4766388944
 20
18.9404083667
 30
0.0
  0
ENDBLK
  5
76
330
74
100
AcDbEntity
  8
0
100
AcDbBlockEnd
  0
BLOCK
  5
9B
330
9A
100
AcDbEntity
  8
0
100
AcDbBlockBegin
  2
SW_NOTE_0
 70
     0
 10
0.0
 20
0.0
 30
0.0
  3
SW_NOTE_0
  1

  0
MTEXT
  5
9E
330
9A
100
AcDbEntity
  8
0
  6
Continuous
 62
     0
370
     0
100
AcDbMText
 10
0.0
 20
3.4106583948
 30
0.0
 40
2.6458333333
 41
0.0
 71
     1
 72
     1
  1
NOTES/SPECIFICATIONS:
  7
SLDTEXTSTYLE0
 73
     1
 44
1.0
  0
MTEXT
  5
9F
330
9A
100
AcDbEntity
  8
0
  6
Continuous
 62
     0
370
     0
100
AcDbMText
 10
9.9999997765
 20
-5.6448974033
 30
0.0
 40
2.6458333333
 41
0.0
 71
     1
 72
     1
  1
CLEAR APERTURE: >
  7
SLDTEXTSTYLE0
 73
     1
 44
1.0
  0
MTEXT
  5
A0
330
9A
100
AcDbEntity
  8
0
  6
Continuous
 62
     0
370
     0
100
AcDbMText
 10
42.7789334208
 20
-5.6448974033
 30
0.0
 40
2.6458333333
 41
0.0
 71
     1
 72
     1
  1
%%c
  7
SLDTEXTSTYLE0
 73
     1
 44
1.0
  0
MTEXT
  5
A1
330
9A
100
AcDbEntity
  8
0
  6
Continuous
 62
     0
370
     0
100
AcDbMText
 10
46.7726718634
 20
-5.6448974033
 30
0.0
 40
2.6458333333
 41
0.0
 71
     1
 72
     1
  1
45.72mm
  7
SLDTEXTSTYLE0
 73
     1
 44
1.0
  0
MTEXT
  5
A2
330
9A
100
AcDbEntity
  8
0
  6
Continuous
 62
     0
370
     0
100
AcDbMText
 10
0.0
 20
-5.6448974033
 30
0.0
 40
2.6458333333
 41
0.0
 71
     1
 72
     1
  1
1.
  7
SLDTEXTSTYLE0
 73
     1
 44
1.0
  0
MTEXT
  5
A4
330
9A
100
AcDbEntity
  8
0
  6
Continuous
 62
     0
370
     0
100
AcDbMText
 10
9.9999997765
 20
-10.1726753024
 30
0.0
 40
2.6458333333
 41
0.0
 71
     1
 72
     1
  1
SURFACE IRREGULARITY (S1): \U+2264\M+183C9/4 AT 633nm OVER CLEAR APERTURE
  7
SLDTEXTSTYLE1
 73
     1
 44
1.0
  0
MTEXT
  5
A5
330
9A
100
AcDbEntity
  8
0
  6
Continuous
 62
     0
370
     0
100
AcDbMText
 10
0.0
 20
-10.1726753024
 30
0.0
 40
2.6458333333
 41
0.0
 71
     1
 72
     1
  1
2.
  7
SLDTEXTSTYLE0
 73
     1
 44
1.0
  0
MTEXT
  5
A6
330
9A
100
AcDbEntity
  8
0
  6
Continuous
 62
     0
370
     0
100
AcDbMText
 10
9.9999997765
 20
-14.7004532014
 30
0.0
 40
2.6458333333
 41
0.0
 71
     1
 72
     1
  1
BACK SURFACE (S2): UNIFORM FINE GRIND #12-#20 GRIT
  7
SLDTEXTSTYLE0
 73
     1
 44
1.0
  0
MTEXT
  5
A7
330
9A
100
AcDbEntity
  8
0
  6
Continuous
 62
     0
370
     0
100
AcDbMText
 10
0.0
 20
-14.7004532014
 30
0.0
 40
2.6458333333
 41
0.0
 71
     1
 72
     1
  1
3.
  7
SLDTEXTSTYLE0
 73
     1
 44
1.0
  0
MTEXT
  5
A8
330
9A
100
AcDbEntity
  8
0
  6
Continuous
 62
     0
370
     0
100
AcDbMText
 10
9.9999997765
 20
-19.2282311005
 30
0.0
 40
2.6458333333
 41
0.0
 71
     1
 72
     1
  1
SURFACE QUALITY(S1): 40-20 SCRATCH-DIG
  7
SLDTEXTSTYLE0
 73
     1
 44
1.0
  0
MTEXT
  5
A9
330
9A
100
AcDbEntity
  8
0
  6
Continuous
 62
     0
370
     0
100
AcDbMText
 10
0.0
 20
-19.2282311005
 30
0.0
 40
2.6458333333
 41
0.0
 71
     1
 72
     1
  1
4.
  7
SLDTEXTSTYLE0
 73
     1
 44
1.0
  0
MTEXT
  5
AA
330
9A
100
AcDbEntity
  8
0
  6
Continuous
 62
     0
370
     0
100
AcDbMText
 10
9.9999997765
 20
-23.7560089995
 30
0.0
 40
2.6458333333
 41
0.0
 71
     1
 72
     1
  1
THICKNESS TOLERANCE:
  7
SLDTEXTSTYLE0
 73
     1
 44
1.0
  0
MTEXT
  5
AB
330
9A
100
AcDbEntity
  8
0
  6
Continuous
 62
     0
370
     0
100
AcDbMText
 10
50.8242268115
 20
-23.7560089995
 30
0.0
 40
2.6458333333
 41
0.0
 71
     1
 72
     1
  1
%%p
  7
SLDTEXTSTYLE0
 73
     1
 44
1.0
  0
MTEXT
  5
AC
330
9A
100
AcDbEntity
  8
0
  6
Continuous
 62
     0
370
     0
100
AcDbMText
 10
53.3465910703
 20
-23.7560089995
 30
0.0
 40
2.6458333333
 41
0.0
 71
     1
 72
     1
  1
0.1 mm
  7
SLDTEXTSTYLE0
 73
     1
 44
1.0
  0
MTEXT
  5
AD
330
9A
100
AcDbEntity
  8
0
  6
Continuous
 62
     0
370
     0
100
AcDbMText
 10
0.0
 20
-23.7560089995
 30
0.0
 40
2.6458333333
 41
0.0
 71
     1
 72
     1
  1
5.
  7
SLDTEXTSTYLE0
 73
     1
 44
1.0
  0
MTEXT
  5
AE
330
9A
100
AcDbEntity
  8
0
  6
Continuous
 62
     0
370
     0
100
AcDbMText
 10
9.9999997765
 20
-28.2837868986
 30
0.0
 40
2.6458333333
 41
0.0
 71
     1
 72
     1
  1
DIAMETER TOLERANCE: +0.0/-0.2 mm
  7
SLDTEXTSTYLE0
 73
     1
 44
1.0
  0
MTEXT
  5
AF
330
9A
100
AcDbEntity
  8
0
  6
Continuous
 62
     0
370
     0
100
AcDbMText
 10
0.0
 20
-28.2837868986
 30
0.0
 40
2.6458333333
 41
0.0
 71
     1
 72
     1
  1
6.
  7
SLDTEXTSTYLE0
 73
     1
 44
1.0
  0
MTEXT
  5
B0
330
9A
100
AcDbEntity
  8
0
  6
Continuous
 62
     0
370
     0
100
AcDbMText
 10
9.9999997765
 20
-32.8115647976
 30
0.0
 40
2.6458333333
 41
0.0
 71
     1
 72
     1
  1
COATING(S1): PROTECTED GOLD
  7
SLDTEXTSTYLE0
 73
     1
 44
1.0
  0
MTEXT
  5
B1
330
9A
100
AcDbEntity
  8
0
  6
Continuous
 62
     0
370
     0
100
AcDbMText
 10
0.0
 20
-32.8115647976
 30
0.0
 40
2.6458333333
 41
0.0
 71
     1
 72
     1
  1
7.
  7
SLDTEXTSTYLE0
 73
     1
 44
1.0
  0
MTEXT
  5
B2
330
9A
100
AcDbEntity
  8
0
  6
Continuous
 62
     0
370
     0
100
AcDbMText
 10
34.9609375
 20
-37.3393426967
 30
0.0
 40
2.6458333333
 41
0.0
 71
     1
 72
     1
  1
Ravg: >96% FROM 800nm-20\M+183CAm
  7
SLDTEXTSTYLE1
 73
     1
 44
1.0
  0
MTEXT
  5
B3
330
9A
100
AcDbEntity
  8
0
  6
Continuous
 62
     0
370
     0
100
AcDbMText
 10
34.9609375
 20
-41.8671205958
 30
0.0
 40
2.6458333333
 41
0.0
 71
     1
 72
     1
  1
AOI: 0
  7
SLDTEXTSTYLE0
 73
     1
 44
1.0
  0
MTEXT
  5
B4
330
9A
100
AcDbEntity
  8
0
  6
Continuous
 62
     0
370
     0
100
AcDbMText
 10
45.2576388791
 20
-41.8671205958
 30
0.0
 40
2.6458333333
 41
0.0
 71
     1
 72
     1
  1
%%d
  7
SLDTEXTSTYLE0
 73
     1
 44
1.0
  0
MTEXT
  5
B6
330
9A
100
AcDbEntity
  8
0
  6
Continuous
 62
     0
370
     0
100
AcDbMText
 10
47.9314009994
 20
-41.8671205958
 30
0.0
 40
2.6458333333
 41
0.0
 71
     1
 72
     1
  1
TO 45
  7
SLDTEXTSTYLE2
 73
     1
 44
1.0
  0
MTEXT
  5
B7
330
9A
100
AcDbEntity
  8
0
  6
Continuous
 62
     0
370
     0
100
AcDbMText
 10
57.3706559092
 20
-41.8671205958
 30
0.0
 40
2.6458333333
 41
0.0
 71
     1
 72
     1
  1
%%d
  7
SLDTEXTSTYLE0
 73
     1
 44
1.0
  0
ENDBLK
  5
9C
330
9A
100
AcDbEntity
  8
0
100
AcDbBlockEnd
  0
BLOCK
  5
CB
330
CA
100
AcDbEntity
  8
0
100
AcDbBlockBegin
  2
SW_NOTE_1
 70
     0
 10
0.0
 20
0.0
 30
0.0
  3
SW_NOTE_1
  1

  0
MTEXT
  5
CD
330
CA
100
AcDbEntity
  8
0
  6
Continuous
 62
     0
370
     0
100
AcDbMText
 10
19.90725
 20
1.9645392354
 30
0.0
 40
1.524
 41
0.0
 71
     2
 72
     1
  1
VALUES IN PARENTHESIS ARE CALCULATED
  7
SLDTEXTSTYLE0
 73
     1
 44
1.0
  0
MTEXT
  5
CE
330
CA
100
AcDbEntity
  8
0
  6
Continuous
 62
     0
370
     0
100
AcDbMText
 10
19.8778795174
 20
-0.5594606586
 30
0.0
 40
1.524
 41
0.0
 71
     2
 72
     1
  1
AND MAY CONTAIN ROUNDOFF ERRORS
  7
SLDTEXTSTYLE0
 73
     1
 44
1.0
  0
ENDBLK
  5
CC
330
CA
100
AcDbEntity
  8
0
100
AcDbBlockEnd
  0
BLOCK
  5
D1
330
D0
100
AcDbEntity
  8
0
100
AcDbBlockBegin
  2
SW_NOTE_2
 70
     0
 10
0.0
 20
0.0
 30
0.0
  3
SW_NOTE_2
  1

  0
MTEXT
  5
D3
330
D0
100
AcDbEntity
  8
0
  6
Continuous
 62
     0
370
     0
100
AcDbMText
 10
0.0
 20
2.7285267159
 30
0.0
 40
2.1166666667
 41
0.0
 71
     1
 72
     1
  1
DRAWING
  7
SLDTEXTSTYLE0
 73
     1
 44
1.0
  0
MTEXT
  5
D4
330
D0
100
AcDbEntity
  8
0
  6
Continuous
 62
     0
370
     0
100
AcDbMText
 10
0.0
 20
-0.0936954723
 30
0.0
 40
2.1166666667
 41
0.0
 71
     1
 72
     1
  1
PROJECTION
  7
SLDTEXTSTYLE0
 73
     1
 44
1.0
  0
ENDBLK
  5
D2
330
D0
100
AcDbEntity
  8
0
100
AcDbBlockEnd
  0
BLOCK
  5
D8
330
D7
100
AcDbEntity
  8
0
100
AcDbBlockBegin
  2
SW_NOTE_3
 70
     0
 10
0.0
 20
0.0
 30
0.0
  3
SW_NOTE_3
  1

  0
MTEXT
  5
DA
330
D7
100
AcDbEntity
  8
0
  6
Continuous
 62
     0
370
     0
100
AcDbMText
 10
25.052734375
 20
4.0927900738
 30
0.0
 40
3.175
 41
0.0
 71
     2
 72
     1
  1
FOR INFORMATION ONLY
  7
SLDTEXTSTYLE0
 73
     1
 44
1.0
  0
MTEXT
  5
DB
330
D7
100
AcDbEntity
  8
0
  6
Continuous
 62
     0
370
     0
100
AcDbMText
 10
25.3768468589
 20
-0.1405432084
 30
0.0
 40
3.175
 41
0.0
 71
     2
 72
     1
  1
NOT FOR MANUFACTURING PURPOSES
  7
SLDTEXTSTYLE0
 73
     1
 44
1.0
  0
ENDBLK
  5
D9
330
D7
100
AcDbEntity
  8
0
100
AcDbBlockEnd
  0
BLOCK
  5
DE
330
DD
100
AcDbEntity
  8
0
100
AcDbBlockBegin
  2
SW_NOTE_4
 70
     0
 10
0.0
 20
0.0
 30
0.0
  3
SW_NOTE_4
  1

  0
MTEXT
  5
E0
330
DD
100
AcDbEntity
  8
0
  6
Continuous
 62
     0
370
     0
100
AcDbMText
 10
1.9016927083
 20
3.4106583948
 30
0.0
 40
2.6458333333
 41
0.0
 71
     2
 72
     1
  1
%%c
  7
SLDTEXTSTYLE0
 73
     1
 44
1.0
  0
MTEXT
  5
E1
330
DD
100
AcDbEntity
  8
0
  6
Continuous
 62
     0
370
     0
100
AcDbMText
 10
29.5425665677
 20
3.4106583948
 30
0.0
 40
2.6458333333
 41
0.0
 71
     2
 72
     1
  1
50.8mm, f=1000mm CONCAVE
  7
SLDTEXTSTYLE0
 73
     1
 44
1.0
  0
MTEXT
  5
E2
330
DD
100
AcDbEntity
  8
0
  6
Continuous
 62
     0
370
     0
100
AcDbMText
 10
27.8972506473
 20
-0.1171193403
 30
0.0
 40
2.6458333333
 41
0.0
 71
     2
 72
     1
  1
PROTECTED GOLD MIRROR
  7
SLDTEXTSTYLE0
 73
     1
 44
1.0
  0
ENDBLK
  5
DF
330
DD
100
AcDbEntity
  8
0
100
AcDbBlockEnd
  0
BLOCK
  5
F5
330
F4
100
AcDbEntity
  8
0
100
AcDbBlockBegin
  2
_D
 70
     0
 10
0.0
 20
0.0
 30
0.0
  3
_D
  1

  0
SOLID
  5
F7
330
F4
100
AcDbEntity
  8
0
  6
Continuous
 62
     7
370
    18
100
AcDbTrace
 10
71.5569927965
 20
137.6290601977
 30
0.0
 11
74.1612670716
 21
139.5149139831
 31
0.0
 12
73.4428465819
 22
140.2333344728
 32
0.0
 13
73.4428465819
 23
140.2333344728
 33
0.0
  0
LINE
  5
F8
330
F4
100
AcDbEntity
  8
0
  6
Continuous
 62
     7
370
    18
100
AcDbLine
 10
89.4470457023
 20
148.8503653552
 30
0.0
 11
88.8032262481
 21
148.8503653552
 31
0.0
  0
LINE
  5
F9
330
F4
100
AcDbEntity
  8
0
  6
Continuous
 62
     7
370
    18
100
AcDbLine
 10
88.8032262481
 20
148.8503653552
 30
0.0
 11
88.8032262481
 21
145.4872172787
 31
0.0
  0
LINE
  5
FA
330
F4
100
AcDbEntity
  8
0
  6
Continuous
 62
     7
370
    18
100
AcDbLine
 10
88.8032262481
 20
145.4872172787
 30
0.0
 11
89.4470457023
 21
145.4872172787
 31
0.0
  0
LINE
  5
FB
330
F4
100
AcDbEntity
  8
0
  6
Continuous
 62
     7
370
    18
100
AcDbLine
 10
97.2042372485
 20
148.8503653552
 30
0.0
 11
97.8480567026
 21
148.8503653552
 31
0.0
  0
LINE
  5
FC
330
F4
100
AcDbEntity
  8
0
  6
Continuous
 62
     7
370
    18
100
AcDbLine
 10
97.8480567026
 20
148.8503653552
 30
0.0
 11
97.8480567026
 21
145.4872172787
 31
0.0
  0
LINE
  5
FD
330
F4
100
AcDbEntity
  8
0
  6
Continuous
 62
     7
370
    18
100
AcDbLine
 10
97.8480567026
 20
145.4872172787
 30
0.0
 11
97.2042372485
 21
145.4872172787
 31
0.0
  0
LINE
  5
FE
330
F4
100
AcDbEntity
  8
0
  6
Continuous
 62
     7
370
    18
100
AcDbLine
 10
71.5569927965
 20
137.6290601977
 30
0.0
 11
84.349406794
 21
150.4214741952
 31
0.0
  0
LINE
  5
FF
330
F4
100
AcDbEntity
  8
0
  6
Continuous
 62
     7
370
    18
100
AcDbLine
 10
84.349406794
 20
150.4214741952
 30
0.0
 11
88.159406794
 21
150.4214741952
 31
0.0
  0
MTEXT
  5
100
330
F4
100
AcDbEntity
  8
0
  6
Continuous
 62
     7
370
    18
100
AcDbMText
 10
88.159406794
 20
152.0081050017
 30
0.0
 40
2.1166666667
 41
0.0
 71
     1
 72
     1
  1
%%c
  7
SLDTEXTSTYLE0
 73
     1
 44
1.0
  0
MTEXT
  5
101
330
F4
100
AcDbEntity
  8
0
  6
Continuous
 62
     7
370
    18
100
AcDbMText
 10
91.3543975947
 20
152.0081050017
 30
0.0
 40
2.1166666667
 41
0.0
 71
     1
 72
     1
  1
50.8mm
  7
SLDTEXTSTYLE0
 73
     1
 44
1.0
  0
MTEXT
  5
102
330
F4
100
AcDbEntity
  8
0
  6
Continuous
 62
     7
370
    18
100
AcDbMText
 10
89.4470457023
 20
148.2157438782
 30
0.0
 40
2.1166666667
 41
0.0
 71
     1
 72
     1
  1
2.00in
  7
SLDTEXTSTYLE0
 73
     1
 44
1.0
  0
ENDBLK
  5
F6
330
F4
100
AcDbEntity
  8
0
100
AcDbBlockEnd
  0
BLOCK
  5
118
330
117
100
AcDbEntity
  8
0
100
AcDbBlockBegin
  2
_D_1
 70
     0
 10
0.0
 20
0.0
 30
0.0
  3
_D_1
  1

  0
SOLID
  5
11A
330
117
100
AcDbEntity
  8
0
  6
Continuous
 62
     7
370
    18
100
AcDbTrace
 10
135.2535783098
 20
159.7595329252
 30
0.0
 11
132.0787170212
 21
160.2683991137
 31
0.0
 12
132.0784398348
 22
159.2523991515
 32
0.0
 13
132.0784398348
 23
159.2523991515
 33
0.0
  0
SOLID
  5
11B
330
117
100
AcDbEntity
  8
0
  6
Continuous
 62
     7
370
    18
100
AcDbTrace
 10
144.4123760988
 20
159.7570342106
 30
0.0
 11
147.5872373875
 21
159.2481680221
 31
0.0
 12
147.5875145739
 22
160.2641679843
 32
0.0
 13
147.5875145739
 23
160.2641679843
 33
0.0
  0
LINE
  5
11C
330
117
100
AcDbEntity
  8
0
  6
Continuous
 62
     7
370
    18
100
AcDbLine
 10
157.4278847701
 20
159.751691839
 30
0.0
 11
156.7840653159
 21
159.751691839
 31
0.0
  0
LINE
  5
11D
330
117
100
AcDbEntity
  8
0
  6
Continuous
 62
     7
370
    18
100
AcDbLine
 10
156.7840653159
 20
159.751691839
 30
0.0
 11
156.7840653159
 21
156.3885437625
 31
0.0
  0
LINE
  5
11E
330
117
100
AcDbEntity
  8
0
  6
Continuous
 62
     7
370
    18
100
AcDbLine
 10
156.7840653159
 20
156.3885437625
 30
0.0
 11
157.4278847701
 21
156.3885437625
 31
0.0
  0
LINE
  5
11F
330
117
100
AcDbEntity
  8
0
  6
Continuous
 62
     7
370
    18
100
AcDbLine
 10
165.1850763163
 20
159.751691839
 30
0.0
 11
165.8288957705
 21
159.751691839
 31
0.0
  0
LINE
  5
120
330
117
100
AcDbEntity
  8
0
  6
Continuous
 62
     7
370
    18
100
AcDbLine
 10
165.8288957705
 20
159.751691839
 30
0.0
 11
165.8288957705
 21
156.3885437625
 31
0.0
  0
LINE
  5
121
330
117
100
AcDbEntity
  8
0
  6
Continuous
 62
     7
370
    18
100
AcDbLine
 10
165.8288957705
 20
156.3885437625
 30
0.0
 11
165.1850763163
 21
156.3885437625
 31
0.0
  0
LINE
  5
122
330
117
100
AcDbEntity
  8
0
  6
Continuous
 62
     7
370
    18
100
AcDbLine
 10
135.2498628975
 20
146.1410466229
 30
0.0
 11
135.254063386
 21
161.537532859
 31
0.0
  0
LINE
  5
123
330
117
100
AcDbEntity
  8
0
  6
Continuous
 62
     7
370
    18
100
AcDbLine
 10
144.4086606865
 20
146.1385479083
 30
0.0
 11
144.412861175
 21
161.5350341444
 31
0.0
  0
LINE
  5
124
330
117
100
AcDbEntity
  8
0
  6
Continuous
 62
     7
370
    18
100
AcDbLine
 10
135.2535783098
 20
159.7595329252
 30
0.0
 11
128.9035785461
 21
159.76126534
 31
0.0
  0
LINE
  5
125
330
117
100
AcDbEntity
  8
0
  6
Continuous
 62
     7
370
    18
100
AcDbLine
 10
144.4123760988
 20
159.7570342106
 30
0.0
 11
155.7107323791
 21
159.753951779
 31
0.0
  0
MTEXT
  5
126
330
117
100
AcDbEntity
  8
0
  6
Continuous
 62
     7
370
    18
100
AcDbMText
 10
156.7066501747
 20
162.9094314854
 30
0.0
 40
2.1166666667
 41
0.0
 71
     1
 72
     1
  1
9.2mm
  7
SLDTEXTSTYLE0
 73
     1
 44
1.0
  0
MTEXT
  5
127
330
117
100
AcDbEntity
  8
0
  6
Continuous
 62
     7
370
    18
100
AcDbMText
 10
157.4278847701
 20
159.117070362
 30
0.0
 40
2.1166666667
 41
0.0
 71
     1
 72
     1
  1
0.36in
  7
SLDTEXTSTYLE0
 73
     1
 44
1.0
  0
MTEXT
  5
128
330
117
100
AcDbEntity
  8
0
  6
Continuous
 62
     7
370
    18
100
AcDbMText
 10
167.2664647589
 20
162.9094314854
 30
0.0
 40
2.1166666667
 41
0.0
 71
     1
 72
     1
  1
REF
  7
SLDTEXTSTYLE0
 73
     1
 44
1.0
  0
ENDBLK
  5
119
330
117
100
AcDbEntity
  8
0
100
AcDbBlockEnd
  0
BLOCK
  5
12C
330
12B
100
AcDbEntity
  8
0
100
AcDbBlockBegin
  2
_D_2
 70
     0
 10
0.0
 20
0.0
 30
0.0
  3
_D_2
  1

  0
ARC
  5
12E
330
12B
100
AcDbEntity
  8
0
  6
Continuous
 62
     7
370
    18
100
AcDbCircle
 10
-1864.5916925733
 20
119.6685479556
 30
0.0
 40
2000.000006776844
100
AcDbArc
 50
358.9982807486
 51
359.2415996735
  0
SOLID
  5
12F
330
12B
100
AcDbEntity
  8
0
  6
Continuous
 62
     7
370
    18
100
AcDbTrace
 10
135.1329497505
 20
86.4814723067
 30
0.0
 11
138.2990830923
 21
85.9208577668
 31
0.0
 12
138.3159421267
 22
86.9367178817
 32
0.0
 13
138.3159421267
 23
86.9367178817
 33
0.0
  0
LINE
  5
130
330
12B
100
AcDbEntity
  8
0
  6
Continuous
 62
     7
370
    18
100
AcDbLine
 10
157.6773209644
 20
84.6208205903
 30
0.0
 11
157.0335015103
 21
84.6208205903
 31
0.0
  0
LINE
  5
131
330
12B
100
AcDbEntity
  8
0
  6
Continuous
 62
     7
370
    18
100
AcDbLine
 10
157.0335015103
 20
84.6208205903
 30
0.0
 11
157.0335015103
 21
81.2576725138
 31
0.0
  0
LINE
  5
132
330
12B
100
AcDbEntity
  8
0
  6
Continuous
 62
     7
370
    18
100
AcDbLine
 10
157.0335015103
 20
81.2576725138
 30
0.0
 11
157.6773209644
 21
81.2576725138
 31
0.0
  0
LINE
  5
133
330
12B
100
AcDbEntity
  8
0
  6
Continuous
 62
     7
370
    18
100
AcDbLine
 10
166.9984946174
 20
84.6208205903
 30
0.0
 11
167.6423140715
 21
84.6208205903
 31
0.0
  0
LINE
  5
134
330
12B
100
AcDbEntity
  8
0
  6
Continuous
 62
     7
370
    18
100
AcDbLine
 10
167.6423140715
 20
84.6208205903
 30
0.0
 11
167.6423140715
 21
81.2576725138
 31
0.0
  0
LINE
  5
135
330
12B
100
AcDbEntity
  8
0
  6
Continuous
 62
     7
370
    18
100
AcDbLine
 10
167.6423140715
 20
81.2576725138
 30
0.0
 11
166.9984946174
 21
81.2576725138
 31
0.0
  0
LINE
  5
136
330
12B
100
AcDbEntity
  8
0
  6
Continuous
 62
     7
370
    18
100
AcDbLine
 10
135.1329497505
 20
86.4814723067
 30
0.0
 11
152.5796820562
 21
86.1919294303
 31
0.0
  0
LINE
  5
137
330
12B
100
AcDbEntity
  8
0
  6
Continuous
 62
     7
370
    18
100
AcDbLine
 10
152.5796820562
 20
86.1919294303
 30
0.0
 11
156.3896820562
 21
86.1919294303
 31
0.0
  0
MTEXT
  5
138
330
12B
100
AcDbEntity
  8
0
  6
Continuous
 62
     7
370
    18
100
AcDbMText
 10
156.3896820562
 20
87.7785602367
 30
0.0
 40
2.1166666667
 41
0.0
 71
     1
 72
     1
  1
R2000.0mm
  7
SLDTEXTSTYLE0
 73
     1
 44
1.0
  0
MTEXT
  5
139
330
12B
100
AcDbEntity
  8
0
  6
Continuous
 62
     7
370
    18
100
AcDbMText
 10
157.6773209644
 20
83.9861991133
 30
0.0
 40
2.1166666667
 41
0.0
 71
     1
 72
     1
  1
78.74in
  7
SLDTEXTSTYLE0
 73
     1
 44
1.0
  0
ENDBLK
  5
12D
330
12B
100
AcDbEntity
  8
0
100
AcDbBlockEnd
  0
BLOCK
  5
13D
330
13C
100
AcDbEntity
  8
0
100
AcDbBlockBegin
  2
_D_3
 70
     0
 10
0.0
 20
0.0
 30
0.0
  3
_D_3
  1

  0
SOLID
  5
13F
330
13C
100
AcDbEntity
  8
0
  6
Continuous
 62
     7
370
    18
100
AcDbTrace
 10
144.4083142035
 20
149.5504205907
 30
0.0
 11
147.5833142035
 21
149.0424205907
 31
0.0
 12
147.5833142035
 22
150.0584205907
 32
0.0
 13
147.5833142035
 23
150.0584205907
 33
0.0
  0
SOLID
  5
140
330
13C
100
AcDbEntity
  8
0
  6
Continuous
 62
     7
370
    18
100
AcDbTrace
 10
135.4083142035
 20
149.5504205907
 30
0.0
 11
132.2333142035
 21
150.0584205907
 31
0.0
 12
132.2333142035
 22
149.0424205907
 32
0.0
 13
132.2333142035
 23
149.0424205907
 33
0.0
  0
LINE
  5
141
330
13C
100
AcDbEntity
  8
0
  6
Continuous
 62
     7
370
    18
100
AcDbLine
 10
156.5297181976
 20
149.5504203578
 30
0.0
 11
155.8858987434
 21
149.5504203578
 31
0.0
  0
LINE
  5
142
330
13C
100
AcDbEntity
  8
0
  6
Continuous
 62
     7
370
    18
100
AcDbLine
 10
155.8858987434
 20
149.5504203578
 30
0.0
 11
155.8858987434
 21
146.1872722814
 31
0.0
  0
LINE
  5
143
330
13C
100
AcDbEntity
  8
0
  6
Continuous
 62
     7
370
    18
100
AcDbLine
 10
155.8858987434
 20
146.1872722814
 30
0.0
 11
156.5297181976
 21
146.1872722814
 31
0.0
  0
LINE
  5
144
330
13C
100
AcDbEntity
  8
0
  6
Continuous
 62
     7
370
    18
100
AcDbLine
 10
164.2869097438
 20
149.5504203578
 30
0.0
 11
164.930729198
 21
149.5504203578
 31
0.0
  0
LINE
  5
145
330
13C
100
AcDbEntity
  8
0
  6
Continuous
 62
     7
370
    18
100
AcDbLine
 10
164.930729198
 20
149.5504203578
 30
0.0
 11
164.930729198
 21
146.1872722814
 31
0.0
  0
LINE
  5
146
330
13C
100
AcDbEntity
  8
0
  6
Continuous
 62
     7
370
    18
100
AcDbLine
 10
164.930729198
 20
146.1872722814
 30
0.0
 11
164.2869097438
 21
146.1872722814
 31
0.0
  0
LINE
  5
147
330
13C
100
AcDbEntity
  8
0
  6
Continuous
 62
     7
370
    18
100
AcDbLine
 10
144.4083142035
 20
146.1385479556
 30
0.0
 11
144.4083142035
 21
151.3284205907
 31
0.0
  0
LINE
  5
148
330
13C
100
AcDbEntity
  8
0
  6
Continuous
 62
     7
370
    18
100
AcDbLine
 10
135.4083142035
 20
120.9385479556
 30
0.0
 11
135.4083142035
 21
151.3284205907
 31
0.0
  0
LINE
  5
149
330
13C
100
AcDbEntity
  8
0
  6
Continuous
 62
     7
370
    18
100
AcDbLine
 10
144.4083142035
 20
149.5504205907
 30
0.0
 11
153.2525041023
 21
149.5504205907
 31
0.0
  0
LINE
  5
14A
330
13C
100
AcDbEntity
  8
0
  6
Continuous
 62
     7
370
    18
100
AcDbLine
 10
135.4083142035
 20
149.5504205907
 30
0.0
 11
129.0583142035
 21
149.5504205907
 31
0.0
  0
MTEXT
  5
14B
330
13C
100
AcDbEntity
  8
0
  6
Continuous
 62
     7
370
    18
100
AcDbMText
 10
155.269517585
 20
152.7081600043
 30
0.0
 40
2.1166666667
 41
0.0
 71
     1
 72
     1
  1

  7
SLDTEXTSTYLE0
 73
     1
 44
1.0
  0
MTEXT
  5
14C
330
13C
100
AcDbEntity
  8
0
  6
Continuous
 62
     7
370
    18
100
AcDbMText
 10
155.8084836022
 20
152.7081600043
 30
0.0
 40
2.1166666667
 41
0.0
 71
     1
 72
     1
  1
9.0mm
  7
SLDTEXTSTYLE0
 73
     1
 44
1.0
  0
MTEXT
  5
14D
330
13C
100
AcDbEntity
  8
0
  6
Continuous
 62
     7
370
    18
100
AcDbMText
 10
156.5297181976
 20
148.9157988808
 30
0.0
 40
2.1166666667
 41
0.0
 71
     1
 72
     1
  1
0.35in
  7
SLDTEXTSTYLE0
 73
     1
 44
1.0
  0
MTEXT
  5
14E
330
13C
100
AcDbEntity
  8
0
  6
Continuous
 62
     7
370
    18
100
AcDbMText
 10
167.1620486521
 20
152.7081600043
 30
0.0
 40
2.1166666667
 41
0.0
 71
     1
 72
     1
  1

  7
SLDTEXTSTYLE0
 73
     1
 44
1.0
  0
ENDBLK
  5
13E
330
13C
100
AcDbEntity
  8
0
100
AcDbBlockEnd
  0
ENDSEC
  0
SECTION
  2
ENTITIES
  0
LINE
  5
81
330
1F
100
AcDbEntity
  8
0
  6
Continuous
 62
     7
370
    18
100
AcDbLine
 10
1.5793501011
 20
214.6453799966
 30
0.0
 11
277.9892068491
 21
214.6453799966
 31
0.0
  0
LINE
  5
82
330
1F
100
AcDbEntity
  8
0
  6
Continuous
 62
     7
370
    18
100
AcDbLine
 10
1.5793501011
 20
214.6453799966
 30
0.0
 11
1.5793501011
 21
0.9031642596
 31
0.0
  0
LINE
  5
83
330
1F
100
AcDbEntity
  8
0
  6
Continuous
 62
     7
370
    18
100
AcDbLine
 10
277.9892068491
 20
0.9031642596
 30
0.0
 11
1.5793501011
 21
0.9031642596
 31
0.0
  0
LINE
  5
84
330
1F
100
AcDbEntity
  8
0
  6
Continuous
 62
     7
370
    18
100
AcDbLine
 10
277.9892068491
 20
0.9031642596
 30
0.0
 11
277.9892068491
 21
214.6453799966
 31
0.0
  0
LINE
  5
85
330
1F
100
AcDbEntity
  8
0
  6
Continuous
 62
     7
370
    18
100
AcDbLine
 10
215.7427640041
 20
12.2958890132
 30
0.0
 11
171.6327596684
 21
12.2958890132
 31
0.0
  0
LINE
  5
86
330
1F
100
AcDbEntity
  8
0
  6
Continuous
 62
     7
370
    18
100
AcDbLine
 10
171.6327596684
 20
12.2958890132
 30
0.0
 11
171.6327596684
 21
26.1661402506
 31
0.0
  0
LINE
  5
87
330
1F
100
AcDbEntity
  8
0
  6
Continuous
 62
     7
370
    18
100
AcDbLine
 10
171.6327596684
 20
0.9031642596
 30
0.0
 11
171.6327596684
 21
26.1661402506
 31
0.0
  0
LINE
  5
88
330
1F
100
AcDbEntity
  8
0
  6
Continuous
 62
     7
370
    18
100
AcDbLine
 10
215.7427640041
 20
17.1604579552
 30
0.0
 11
277.9892068491
 21
17.1604579552
 31
0.0
  0
LINE
  5
89
330
1F
100
AcDbEntity
  8
0
  6
Continuous
 62
     7
370
    18
100
AcDbLine
 10
215.7427640041
 20
35.2394508358
 30
0.0
 11
215.7427640041
 21
0.9031642596
 31
0.0
  0
LINE
  5
8A
330
1F
100
AcDbEntity
  8
0
  6
Continuous
 62
     7
370
    18
100
AcDbLine
 10
215.7427640041
 20
26.1661402506
 30
0.0
 11
171.6327596684
 21
26.1661402506
 31
0.0
  0
LINE
  5
8B
330
1F
100
AcDbEntity
  8
0
  6
Continuous
 62
     7
370
    18
100
AcDbLine
 10
215.7427640041
 20
9.1409200612
 30
0.0
 11
277.9892068491
 21
9.1409200612
 31
0.0
  0
LINE
  5
8C
330
1F
100
AcDbEntity
  8
0
  6
Continuous
 62
     7
370
    18
100
AcDbLine
 10
215.7427640041
 20
16.9216824031
 30
0.0
 11
171.6327596684
 21
16.9216824031
 31
0.0
  0
LINE
  5
8D
330
1F
100
AcDbEntity
  8
0
  6
Continuous
 62
     7
370
    18
100
AcDbLine
 10
215.7427640041
 20
21.4874005542
 30
0.0
 11
171.6327596684
 21
21.4874005542
 31
0.0
  0
LINE
  5
8E
330
1F
100
AcDbEntity
  8
0
  6
Continuous
 62
     7
370
    18
100
AcDbLine
 10
186.1338100705
 20
26.1661402506
 30
0.0
 11
186.1338100705
 21
12.2958890132
 31
0.0
  0
LINE
  5
8F
330
1F
100
AcDbEntity
  8
0
  6
Continuous
 62
     7
370
    18
100
AcDbLine
 10
198.2145906188
 20
26.1661402506
 30
0.0
 11
198.2145906188
 21
12.2958890132
 31
0.0
  0
LINE
  5
90
330
1F
100
AcDbEntity
  8
0
  6
Continuous
 62
     7
370
    18
100
AcDbLine
 10
253.7490408369
 20
9.1409200612
 30
0.0
 11
253.7490408369
 21
0.9031642596
 31
0.0
  0
LINE
  5
91
330
1F
100
AcDbEntity
  8
0
  6
Continuous
 62
     7
370
    18
100
AcDbLine
 10
171.6327596684
 20
12.2958890132
 30
0.0
 11
171.6327596684
 21
7.5627342528
 31
0.0
  0
LINE
  5
92
330
1F
100
AcDbEntity
  8
0
  6
Continuous
 62
     7
370
    18
100
AcDbLine
 10
171.6327596684
 20
7.5627342528
 30
0.0
 11
215.7427640041
 21
7.5627342528
 31
0.0
  0
LINE
  5
93
330
1F
100
AcDbEntity
  8
0
  6
Continuous
 62
     7
370
    18
100
AcDbLine
 10
171.6327596684
 20
7.5627342528
 30
0.0
 11
171.6327596684
 21
35.2394508358
 31
0.0
  0
LINE
  5
94
330
1F
100
AcDbEntity
  8
0
  6
Continuous
 62
     7
370
    18
100
AcDbLine
 10
171.6327596684
 20
35.2394508358
 30
0.0
 11
215.7427640041
 21
35.2394508358
 31
0.0
  0
LINE
  5
95
330
1F
100
AcDbEntity
  8
0
  6
Continuous
 62
     7
370
    18
100
AcDbLine
 10
270.1683598194
 20
17.1604579552
 30
0.0
 11
270.1683598194
 21
9.1409200612
 31
0.0
  0
LINE
  5
96
330
1F
100
AcDbEntity
  8
0
  6
Continuous
 62
     7
370
    18
100
AcDbLine
 10
215.7427640041
 20
35.2394508358
 30
0.0
 11
277.9892068491
 21
35.2394508358
 31
0.0
  0
LINE
  5
97
330
1F
100
AcDbEntity
  8
0
  6
Continuous
 62
     7
370
    18
100
AcDbLine
 10
277.9892068491
 20
35.2394508358
 30
0.0
 11
277.9892068491
 21
50.0331356147
 31
0.0
  0
LINE
  5
98
330
1F
100
AcDbEntity
  8
0
  6
Continuous
 62
     7
370
    18
100
AcDbLine
 10
215.7427640041
 20
24.8927335446
 30
0.0
 11
277.9892068491
 21
24.8927335446
 31
0.0
  0
INSERT
  5
99
330
1F
100
AcDbEntity
  8
0
  6
Continuous
 62
     7
100
AcDbBlockReference
  2
Third Angle Projection Block
 10
117.7262204235
 20
15.5162339489
 30
0.0
 41
0.8
 42
0.8
 43
0.8
  0
INSERT
  5
B8
330
1F
100
AcDbEntity
  8
0
  6
Continuous
 62
     7
370
     0
100
AcDbBlockReference
  2
SW_NOTE_0
 10
21.640399589
 20
64.108777029
 30
0.0
  0
MTEXT
  5
B9
330
1F
100
AcDbEntity
  8
0
  6
Continuous
 62
     7
370
     0
100
AcDbMText
 10
274.1458225539
 20
13.2559386876
 30
0.0
 40
3.175
 41
0.0
 71
     2
 72
     1
  1
A
  7
SLDTEXTSTYLE0
 73
     1
 44
1.0
  0
MTEXT
  5
BA
330
1F
100
AcDbEntity
  8
0
  6
Continuous
 62
     7
370
     0
100
AcDbMText
 10
234.537403456
 20
5.1306563898
 30
0.0
 40
3.175
 41
0.0
 71
     2
 72
     1
  1
CM508-1000-M01
  7
SLDTEXTSTYLE0
 73
     1
 44
1.0
  0
MTEXT
  5
BB
330
1F
100
AcDbEntity
  8
0
  6
Continuous
 62
     7
370
     0
100
AcDbMText
 10
216.4199766059
 20
16.8243178599
 30
0.0
 40
2.1166666667
 41
0.0
 71
     1
 72
     1
  1
MATERIAL
  7
SLDTEXTSTYLE0
 73
     1
 44
1.0
  0
MTEXT
  5
BC
330
1F
100
AcDbEntity
  8
0
  6
Continuous
 62
     7
370
     0
100
AcDbMText
 10
174.230946566
 20
20.054553926
 30
0.0
 40
1.8520833333
 41
0.0
 71
     1
 72
     1
  1
DRAWN
  7
SLDTEXTSTYLE0
 73
     1
 44
1.0
  0
MTEXT
  5
BD
330
1F
100
AcDbEntity
  8
0
  6
Continuous
 62
     7
370
     0
100
AcDbMText
 10
172.3960124543
 20
15.5787169747
 30
0.0
 40
1.8520833333
 41
0.0
 71
     1
 72
     1
  1
APPROVAL
  7
SLDTEXTSTYLE0
 73
     1
 44
1.0
  0
MTEXT
  5
BE
330
1F
100
AcDbEntity
  8
0
  6
Continuous
 62
     7
370
     0
100
AcDbMText
 10
271.7160653675
 20
16.1671746307
 30
0.0
 40
2.1166666667
 41
0.0
 71
     1
 72
     1
  1
REV
  7
SLDTEXTSTYLE0
 73
     1
 44
1.0
  0
MTEXT
  5
BF
330
1F
100
AcDbEntity
  8
0
  6
Continuous
 62
     7
370
     0
100
AcDbMText
 10
190.2958696448
 20
20.3177146903
 30
0.0
 40
2.1166666667
 41
0.0
 71
     1
 72
     1
  1
YB
  7
SLDTEXTSTYLE0
 73
     1
 44
1.0
  0
MTEXT
  5
C0
330
1F
100
AcDbEntity
  8
0
  6
Continuous
 62
     7
370
     0
100
AcDbMText
 10
190.2958696448
 20
15.841877739
 30
0.0
 40
2.1166666667
 41
0.0
 71
     1
 72
     1
  1
DD
  7
SLDTEXTSTYLE0
 73
     1
 44
1.0
  0
MTEXT
  5
C1
330
1F
100
AcDbEntity
  8
0
  6
Continuous
 62
     7
370
     0
100
AcDbMText
 10
199.8662436873
 20
20.3177146903
 30
0.0
 40
2.1166666667
 41
0.0
 71
     1
 72
     1
  1
16/APR/18
  7
SLDTEXTSTYLE0
 73
     1
 44
1.0
  0
MTEXT
  5
C2
330
1F
100
AcDbEntity
  8
0
  6
Continuous
 62
     7
370
     0
100
AcDbMText
 10
203.6145073853
 20
24.8221395769
 30
0.0
 40
2.1166666667
 41
0.0
 71
     1
 72
     1
  1
DATE
  7
SLDTEXTSTYLE0
 73
     1
 44
1.0
  0
MTEXT
  5
C3
330
1F
100
AcDbEntity
  8
0
  6
Continuous
 62
     7
370
     0
100
AcDbMText
 10
199.8662436873
 20
15.841877739
 30
0.0
 40
2.1166666667
 41
0.0
 71
     1
 72
     1
  1
16/APR/18
  7
SLDTEXTSTYLE0
 73
     1
 44
1.0
  0
MTEXT
  5
C5
330
1F
100
AcDbEntity
  8
0
  6
Continuous
 62
     7
370
     0
100
AcDbMText
 10
229.402906477
 20
27.7957480569
 30
0.0
 40
2.1166666667
 41
0.0
 71
     1
 72
     1
  1
w w w . t h o r  l a b s . c o m
  7
SLDTEXTSTYLE3
 73
     1
 44
1.0
  0
MTEXT
  5
C6
330
1F
100
AcDbEntity
  8
0
  6
Continuous
 62
     7
370
     0
100
AcDbMText
 10
216.7004035316
 20
8.3494791871
 30
0.0
 40
2.1166666667
 41
0.0
 71
     1
 72
     1
  1
ITEM #
  7
SLDTEXTSTYLE0
 73
     1
 44
1.0
  0
MTEXT
  5
C7
330
1F
100
AcDbEntity
  8
0
  6
Continuous
 62
     7
370
     0
100
AcDbMText
 10
254.5318000914
 20
8.3494791871
 30
0.0
 40
2.1166666667
 41
0.0
 71
     1
 72
     1
  1
APPROX WEIGHT
  7
SLDTEXTSTYLE0
 73
     1
 44
1.0
  0
MTEXT
  5
C8
330
1F
100
AcDbEntity
  8
0
  6
Continuous
 62
     7
370
     0
100
AcDbMText
 10
243.5159064132
 20
13.8247651814
 30
0.0
 40
3.175
 41
0.0
 71
     2
 72
     1
  1
N-BK7
  7
SLDTEXTSTYLE0
 73
     1
 44
1.0
  0
MTEXT
  5
C9
330
1F
100
AcDbEntity
  8
0
  6
Continuous
 62
     7
370
     0
100
AcDbMText
 10
266.1553537756
 20
5.1306563898
 30
0.0
 40
3.175
 41
0.0
 71
     2
 72
     1
  1
46.20 g
  7
SLDTEXTSTYLE0
 73
     1
 44
1.0
  0
INSERT
  5
CF
330
1F
100
AcDbEntity
  8
0
  6
Continuous
 62
     7
370
     0
100
AcDbBlockReference
  2
SW_NOTE_1
 10
174.8430140051
 20
4.4558554801
 30
0.0
  0
INSERT
  5
D5
330
1F
100
AcDbEntity
  8
0
  6
Continuous
 62
     7
370
     0
100
AcDbBlockReference
  2
SW_NOTE_2
 10
174.5483650337
 20
30.4835322715
 30
0.0
  0
MTEXT
  5
D6
330
1F
100
AcDbEntity
  8
0
  6
Continuous
 62
     7
370
     0
100
AcDbMText
 10
187.9273588276
 20
24.8221395769
 30
0.0
 40
2.1166666667
 41
0.0
 71
     1
 72
     1
  1
NAME
  7
SLDTEXTSTYLE0
 73
     1
 44
1.0
  0
INSERT
  5
DC
330
1F
100
AcDbEntity
  8
0
  6
Continuous
 62
     7
370
     0
100
AcDbBlockReference
  2
SW_NOTE_3
 10
58.6204667508
 20
8.1776609732
 30
0.0
  0
INSERT
  5
E3
330
1F
100
AcDbEntity
  8
0
  6
Continuous
 62
     7
370
     0
100
AcDbBlockReference
  2
SW_NOTE_4
 10
219.027530387
 20
20.7222222066
 30
0.0
  0
MTEXT
  5
E4
330
1F
100
AcDbEntity
  8
0
  6
Continuous
 62
     7
370
     0
100
AcDbMText
 10
177.6925831922
 20
10.7142101515
 30
0.0
 40
1.5875
 41
0.0
 71
     1
 72
     1
  1
COPYRIGHT © 2018 BY THORLABS
  7
SLDTEXTSTYLE0
 73
     1
 44
1.0
  0
LINE
  5
E5
330
1F
100
AcDbEntity
  8
0
  6
Continuous
 62
     7
370
    18
100
AcDbLine
 10
228.8657372554
 20
196.3148128735
 30
0.0
 11
228.8657372554
 21
196.153571222
 31
0.0
  0
LINE
  5
E6
330
1F
100
AcDbEntity
  8
0
  6
Continuous
 62
     7
370
    18
100
AcDbLine
 10
246.6836986088
 20
165.2886125882
 30
0.0
 11
246.8233304092
 21
165.2079786593
 31
0.0
  0
LINE
  5
E7
330
1F
100
AcDbEntity
  8
0
  6
Continuous
 62
     7
370
    18
100
AcDbLine
 10
259.5252174021
 20
163.9487887489
 30
0.0
 11
265.7203895717
 21
167.5251855167
 31
0.0
  0
LINE
  5
E8
330
1F
100
AcDbEntity
  8
0
  6
Continuous
 62
     7
370
    18
100
AcDbLine
 10
240.3224537628
 20
211.5204677257
 30
0.0
 11
234.1272815931
 21
207.9440709579
 31
0.0
  0
LINE
  5
E9
330
1F
100
AcDbEntity
  8
0
  6
Continuous
 62
     7
370
    18
100
AcDbLine
 10
270.9819339094
 20
179.1544436011
 30
0.0
 11
270.9819339094
 21
179.3177252234
 31
0.0
  0
LINE
  5
EA
330
1F
100
AcDbEntity
  8
0
  6
Continuous
 62
     7
370
    18
100
AcDbLine
 10
253.1657391269
 20
210.1796237352
 30
0.0
 11
253.0243407556
 21
210.2612778153
 31
0.0
  0
LWPOLYLINE
  5
EB
330
1F
100
AcDbEntity
  8
0
  6
Continuous
 62
     7
370
    18
100
AcDbPolyline
 90
      168
 70
   128
 43
0.0
 10
264.5074527433
 20
175.5780468332
 10
264.4948410276
 20
176.3594013294
 10
264.4570237311
 20
177.1542110827
 10
264.3940543799
 20
177.9613511287
 10
264.3060221
 20
178.7796790509
 10
264.1930514914
 20
179.6080365977
 10
264.0553024512
 20
180.4452513216
 10
263.8929699479
 20
181.2901382388
 10
263.7062837449
 20
182.1415015063
 10
263.4955080757
 20
182.9981361147
 10
263.2609412697
 20
183.8588295934
 10
263.00291533
 20
184.722363727
 10
262.7217954634
 20
185.5875162796
 10
262.4179795637
 20
186.4530627245
 10
262.0918976483
 20
187.3177779774
 10
261.7440112496
 20
188.1804381307
 10
261.3748127621
 20
189.0398221852
 10
260.9848247448
 20
189.8947137791
 10
260.5745991822
 20
190.7439029089
 10
260.1447167026
 20
191.5861876422
 10
259.6957857568
 20
192.4203758193
 10
259.2284417562
 20
193.2452867401
 10
258.7433461739
 20
194.0597528353
 10
258.2411856087
 20
194.8626213194
 10
257.7226708125
 20
195.6527558217
 10
257.188535685
 20
196.4290379953
 10
256.639536235
 20
197.1903690995
 10
256.0764495095
 20
197.9356715553
 10
255.5000724951
 20
198.6638904704
 10
254.9112209888
 20
199.3739951323
 10
254.3107284441
 20
200.0649804673
 10
253.6994447911
 20
200.735868463
 10
253.0782352334
 20
201.3857095524
 10
252.4479790237
 20
202.013583958
 10
251.8095682192
 20
202.618602994
 10
251.1639064189
 20
203.1999103235
 10
250.5119074851
 20
203.756683171
 10
249.8544942491
 20
204.2881334867
 10
249.192597206
 20
204.7935090623
 10
248.5271531971
 20
205.272094595
 10
247.8591040838
 20
205.7232127006
 10
247.189395415
 20
206.1462248718
 10
246.5189750885
 20
206.5405323823
 10
245.8487920092
 20
206.9055771338
 10
245.1797947463
 20
207.2408424463
 10
244.5129301907
 20
207.5458537892
 10
243.8491422146
 20
207.8201794531
 10
243.1893703356
 20
208.0634311607
 10
242.534548387
 20
208.2752646164
 10
241.8856031961
 20
208.4553799937
 10
241.2434532723
 20
208.6035223593
 10
240.6090075069
 20
208.7194820343
 10
239.9831638869
 20
208.8030948907
 10
239.3668082241
 20
208.854242584
 10
238.760812901
 20
208.8728527202
 10
238.1660356361
 20
208.8588989589
 10
237.5833182702
 20
208.8124010499
 10
237.0134855745
 20
208.7334248059
 10
236.4573440835
 20
208.6220820089
 10
235.9156809533
 20
208.4785302522
 10
235.3892628475
 20
208.3029727173
 10
234.8788348521
 20
208.0956578862
 10
234.3851194207
 20
207.8568791898
 10
233.9088153525
 20
207.5869745928
 10
233.4505968024
 20
207.2863261149
 10
233.0111123277
 20
206.9553592904
 10
232.5909839695
 20
206.5945425658
 10
232.1908063724
 20
206.2043866368
 10
231.8111459432
 20
205.7854437256
 10
231.4525400486
 20
205.338306799
 10
231.1154962554
 20
204.8636087292
 10
230.8004916111
 20
204.3620213984
 10
230.5079719698
 20
203.8342547474
 10
230.2383513602
 20
203.2810557707
 10
229.9920114001
 20
202.7032074597
 10
229.7693007563
 20
202.101527694
 10
229.5705346507
 20
201.4768680841
 10
229.3959944146
 20
200.8301127658
 10
229.2459270901
 20
200.162177149
 10
229.1205450807
 20
199.4740066217
 10
229.0200258506
 20
198.7665752125
 10
228.9445116737
 20
198.0408842114
 10
228.8941094316
 20
197.2979607528
 10
228.8688904633
 20
196.5388563618
 10
228.8688904633
 20
195.7646454659
 10
228.8941094316
 20
194.9764238739
 10
228.9445116737
 20
194.1753072253
 10
229.0200258506
 20
193.3624294113
 10
229.1205450807
 20
192.5389409694
 10
229.2459270901
 20
191.7060074555
 10
229.3959944146
 20
190.8648077938
 10
229.5705346507
 20
190.0165326083
 10
229.7693007563
 20
189.1623825378
 10
229.9920114001
 20
188.3035665361
 10
230.2383513602
 20
187.4413001612
 10
230.5079719698
 20
186.5768038548
 10
230.8004916111
 20
185.7113012147
 10
231.1154962554
 20
184.8460172632
 10
231.4525400486
 20
183.9821767129
 10
231.8111459432
 20
183.1210022335
 10
232.1908063724
 20
182.2637127211
 10
232.5909839695
 20
181.4115215733
 10
233.0111123277
 20
180.5656349713
 10
233.4505968024
 20
179.727250173
 10
233.9088153525
 20
178.8975538183
 10
234.3851194207
 20
178.0777202496
 10
234.8788348521
 20
177.2689098497
 10
235.3892628475
 20
176.4722673992
 10
235.9156809533
 20
175.6889204565
 10
236.4573440835
 20
174.9199777615
 10
237.0134855745
 20
174.1665276667
 10
237.5833182702
 20
173.4296365964
 10
238.1660356361
 20
172.7103475374
 10
238.760812901
 20
172.0096785632
 10
239.3668082241
 20
171.3286213921
 10
239.9831638869
 20
170.6681399846
 10
240.6090075069
 20
170.0291691781
 10
241.2434532723
 20
169.4126133644
 10
241.8856031961
 20
168.8193452093
 10
242.534548387
 20
168.2502044175
 10
243.1893703356
 20
167.7059965442
 10
243.8491422146
 20
167.1874918547
 10
244.5129301907
 20
166.6954242345
 10
245.1797947463
 20
166.2304901503
 10
245.8487920092
 20
165.7933476643
 10
246.5189750885
 20
165.3846155027
 10
247.189395415
 20
165.0048721803
 10
247.8591040838
 20
164.6546551812
 10
248.5271531971
 20
164.3344601984
 10
249.192597206
 20
164.0447404322
 10
249.8544942491
 20
163.7859059485
 10
250.5119074851
 20
163.5583230985
 10
251.1639064189
 20
163.3623140004
 10
251.8095682192
 20
163.198156083
 10
252.4479790237
 20
163.0660816935
 10
253.0782352334
 20
162.9662777686
 10
253.6994447911
 20
162.8988855694
 10
254.3107284441
 20
162.8640004821
 10
254.9112209888
 20
162.8616718826
 10
255.5000724951
 20
162.8919030669
 10
256.0764495095
 20
162.954651246
 10
256.639536235
 20
163.0498276069
 10
257.188535685
 20
163.1772974382
 10
257.7226708125
 20
163.3368803204
 10
258.2411856087
 20
163.528350382
 10
258.7433461739
 20
163.7514366184
 10
259.2284417562
 20
164.0058232761
 10
259.6957857568
 20
164.2911502991
 10
260.1447167026
 20
164.607013839
 10
260.5745991822
 20
164.9529668262
 10
260.9848247448
 20
165.3285196029
 10
261.3748127621
 20
165.7331406163
 10
261.7440112496
 20
166.1662571705
 10
262.0918976483
 20
166.6272562375
 10
262.4179795637
 20
167.1154853246
 10
262.7217954634
 20
167.6302533982
 10
263.00291533
 20
168.1708318616
 10
263.2609412697
 20
168.7364555864
 10
263.4955080757
 20
169.3263239956
 10
263.7062837449
 20
169.9396021963
 10
263.8929699479
 20
170.5754221618
 10
264.0553024512
 20
171.2328839602
 10
264.1930514914
 20
171.9110570276
 10
264.3060221
 20
172.608981486
 10
264.3940543799
 20
173.3256695014
 10
264.4570237311
 20
174.0601066819
 10
264.4948410276
 20
174.811253514
 10
264.5074527433
 20
175.5780468332
  0
LWPOLYLINE
  5
EC
330
1F
100
AcDbEntity
  8
0
  6
Continuous
 62
     7
370
    18
100
AcDbPolyline
 90
      127
 70
   128
 43
0.0
 10
228.8657372554
 20
196.3148128735
 10
228.8784478038
 20
197.0876152266
 10
228.9165614584
 20
197.8446484775
 10
228.9800242737
 20
198.5848411306
 10
229.0687464252
 20
199.3071455257
 10
229.1826023365
 20
200.0105393219
 10
229.3214308575
 20
200.6940269438
 10
229.4850354917
 20
201.3566409912
 10
229.6731846752
 20
201.9974436079
 10
229.8856121038
 20
202.6155278096
 10
230.1220171103
 20
203.2100187671
 10
230.3820650898
 20
203.780075045
 10
230.6653879735
 20
204.3248897924
 10
230.9715847495
 20
204.8436918848
 10
231.3002220305
 20
205.3357470161
 10
231.6508346672
 20
205.8003587371
 10
232.0229264066
 20
206.2368694419
 10
232.4159705944
 20
206.6446612984
 10
232.8294109207
 20
207.0231571229
 10
233.2626622067
 20
207.3718211968
 10
233.7151112338
 20
207.6901600252
 10
234.186117611
 20
207.977723035
 10
234.6750146814
 20
208.2341032129
 10
235.1811104659
 20
208.4589376814
 10
235.7036886425
 20
208.6519082126
 10
236.2420095602
 20
208.8127416782
 10
236.795311286
 20
208.9412104364
 10
237.3628106831
 20
209.0371326541
 10
237.9437045196
 20
209.100372564
 10
238.5371706052
 20
209.1308406573
 10
239.1423689551
 20
209.1284938096
 10
239.7584429786
 20
209.0933353426
 10
240.3845206919
 20
209.0254150194
 10
241.019715952
 20
208.9248289734
 10
241.6631297111
 20
208.7917195731
 10
242.3138512888
 20
208.6262752197
 10
242.9709596616
 20
208.4287300815
 10
243.633524766
 20
208.1993637613
 10
244.3006088153
 20
207.9385009016
 10
244.9712676265
 20
207.6465107245
 10
245.6445519571
 20
207.3238065096
 10
246.3195088485
 20
206.9708450086
 10
246.9951829746
 20
206.5881257989
 10
247.6706179942
 20
206.1761905769
 10
248.3448579047
 20
205.7356223907
 10
249.0169483947
 20
205.2670448154
 10
249.6859381955
 20
204.7711210701
 10
250.3508804267
 20
204.2485530795
 10
251.0108339369
 20
203.7000804801
 10
251.6648646358
 20
203.1264795735
 10
252.3120468161
 20
202.5285622276
 10
252.9514644637
 20
201.9071747277
 10
253.5822125544
 20
201.2631965782
 10
254.203398335
 20
200.5975392582
 10
254.8141425863
 20
199.9111449312
 10
255.4135808681
 20
199.2049851115
 10
256.0008647427
 20
198.4800592896
 10
256.5751629754
 20
197.7373935167
 10
257.1356627111
 20
196.9780389533
 10
257.6815706254
 20
196.2030703808
 10
258.2121140464
 20
195.4135846806
 10
258.7265420494
 20
194.6106992813
 10
259.2241265191
 20
193.7955505776
 10
259.7041631802
 20
192.9692923212
 10
260.1659725945
 20
192.1330939883
 10
260.6089011225
 20
191.2881391242
 10
261.0323218484
 20
190.4356236679
 10
261.4356354674
 20
189.5767542598
 10
261.8182711343
 20
188.7127465334
 10
262.179687271
 20
187.8448233951
 10
262.5193723334
 20
186.974213293
 10
262.8368455353
 20
186.1021484784
 10
263.131657529
 20
185.2298632615
 10
263.4033910408
 20
184.3585922645
 10
263.6516614626
 20
183.4895686741
 10
263.8761173952
 20
182.6240224959
 10
264.0764411464
 20
181.7631788138
 10
264.2523491803
 20
180.9082560557
 10
264.4035925187
 20
180.0604642693
 10
264.5299570937
 20
179.2210034089
 10
264.6312640503
 20
178.3910616376
 10
264.7073699998
 20
177.5718136452
 10
264.7581672228
 20
176.7644189855
 10
264.7835838215
 20
175.9700204355
 10
264.7835838215
 20
175.1897423773
 10
264.7581672228
 20
174.4246892074
 10
264.7073699998
 20
173.675943773
 10
264.6312640503
 20
172.9445658395
 10
264.5299570937
 20
172.2315905906
 10
264.4035925187
 20
171.5380271631
 10
264.2523491803
 20
170.8648572183
 10
264.0764411464
 20
170.2130335531
 10
263.8761173952
 20
169.583478751
 10
263.6516614626
 20
168.9770838764
 10
263.4033910408
 20
168.3947072134
 10
263.131657529
 20
167.8371730511
 10
262.8368455353
 20
167.3052705168
 10
262.5193723334
 20
166.799752459
 10
262.179687271
 20
166.321334382
 10
261.8182711343
 20
165.870693433
 10
261.4356354674
 20
165.4484674441
 10
261.0323218484
 20
165.0552540287
 10
260.6089011225
 20
164.6916097366
 10
260.1659725945
 20
164.3580492655
 10
259.7041631802
 20
164.0550447331
 10
259.2241265191
 20
163.7830250083
 10
258.7265420494
 20
163.5423751046
 10
258.2121140464
 20
163.3334356352
 10
257.6815706254
 20
163.1565023304
 10
257.1356627111
 20
163.0118256195
 10
256.5751629754
 20
162.8996102763
 10
256.0008647427
 20
162.820015129
 10
255.4135808681
 20
162.7731528356
 10
254.8141425863
 20
162.7590897245
 10
254.203398335
 20
162.7778457005
 10
253.5822125544
 20
162.8293942165
 10
252.9514644637
 20
162.9136623115
 10
252.3120468161
 20
163.0305307132
 10
251.6648646358
 20
163.1798340077
 10
251.0108339369
 20
163.3613608727
 10
250.3508804267
 20
163.5748543773
 10
249.6859381955
 20
163.8200123453
 10
249.0169483947
 20
164.096487783
 10
248.3448579047
 20
164.4038893703
 10
247.6706179942
 20
164.7417820148
 10
246.9951829746
 20
165.109687467
 10
246.8233304092
 20
165.2079786593
  0
LWPOLYLINE
  5
ED
330
1F
100
AcDbEntity
  8
0
  6
Continuous
 62
     7
370
    18
100
AcDbPolyline
 90
       64
 70
   128
 43
0.0
 10
270.9819339094
 20
179.1544436011
 10
270.9692233611
 20
179.9419212408
 10
270.9311097064
 20
180.7429595807
 10
270.8676468911
 20
181.5564248407
 10
270.7789247397
 20
182.3811656515
 10
270.6650688283
 20
183.2160146848
 10
270.5262403074
 20
184.0597903052
 10
270.3626356731
 20
184.9112982425
 10
270.1744864896
 20
185.7693332826
 10
269.962059061
 20
186.6326809728
 10
269.7256540545
 20
187.500119341
 10
269.465606075
 20
188.3704206251
 10
269.1822831913
 20
189.242353011
 10
268.8760864154
 20
190.114682376
 10
268.5474491344
 20
190.9861740354
 10
268.1968364977
 20
191.8555944901
 10
267.8247447583
 20
192.7217131727
 10
267.4317005704
 20
193.5833041892
 10
267.0182602442
 20
194.4391480537
 10
266.5850089581
 20
195.288033415
 10
266.132559931
 20
196.1287587708
 10
265.6615535538
 20
196.9601341683
 10
265.1726564834
 20
197.7809828886
 10
264.6665606989
 20
198.5901431123
 10
264.1439825223
 20
199.3864695633
 10
263.6056616046
 20
200.1688351308
 10
263.0523598789
 20
200.9361324637
 10
262.4848604818
 20
201.6872755385
 10
261.9039666453
 20
202.4212011961
 10
261.3105005597
 20
203.1368706469
 10
260.7053022098
 20
203.8332709407
 10
260.0892281862
 20
204.5094164009
 10
259.4631504729
 20
205.164350019
 10
258.8279552128
 20
205.7971448099
 10
258.1845414538
 20
206.4069051233
 10
257.5338198761
 20
206.9927679116
 10
256.8767115033
 20
207.5539039516
 10
256.2141463988
 20
208.0895190179
 10
255.5470623496
 20
208.5988550073
 10
254.8764035383
 20
209.0811910117
 10
254.2031192077
 20
209.5358443384
 10
253.5281623163
 20
209.9621714765
 10
252.8524881903
 20
210.3595690076
 10
252.1770531706
 20
210.7274744598
 10
251.5028132602
 20
211.0653671043
 10
250.8307227701
 20
211.3727686916
 10
250.1617329693
 20
211.6492441293
 10
249.4967907382
 20
211.8944020973
 10
248.8368372279
 20
212.1078956019
 10
248.182806529
 20
212.2894224669
 10
247.5356243488
 20
212.4387257614
 10
246.8962067012
 20
212.5555941631
 10
246.2654586104
 20
212.6398622581
 10
245.6442728299
 20
212.6914107741
 10
245.0335285786
 20
212.7101667501
 10
244.4340902967
 20
212.696103639
 10
243.8468064221
 20
212.6492413456
 10
243.2725081895
 20
212.5696461983
 10
242.7120084537
 20
212.4574308551
 10
242.1661005395
 20
212.3127541442
 10
241.6355571184
 20
212.1358208394
 10
241.1211291154
 20
211.9268813699
 10
240.6235446458
 20
211.6862314663
 10
240.3224537628
 20
211.5204677257
  0
LWPOLYLINE
  5
EE
330
1F
100
AcDbEntity
  8
0
  6
Continuous
 62
     7
370
    18
100
AcDbPolyline
 90
       22
 70
   128
 43
0.0
 10
265.7203895717
 20
167.5251855167
 10
266.132559931
 20
167.7790964494
 10
266.5850089581
 20
168.0974352778
 10
267.0182602442
 20
168.4460993517
 10
267.4317005704
 20
168.8245951762
 10
267.8247447583
 20
169.2323870327
 10
268.1968364977
 20
169.6688977375
 10
268.5474491344
 20
170.1335094585
 10
268.8760864154
 20
170.6255645898
 10
269.1822831913
 20
171.1443666822
 10
269.465606075
 20
171.6891814296
 10
269.7256540545
 20
172.2592377075
 10
269.962059061
 20
172.853728665
 10
270.1744864896
 20
173.4718128667
 10
270.3626356731
 20
174.1126154834
 10
270.5262403074
 20
174.7752295308
 10
270.6650688283
 20
175.4587171527
 10
270.7789247397
 20
176.1621109489
 10
270.8676468911
 20
176.884415344
 10
270.9311097064
 20
177.624607997
 10
270.9692233611
 20
178.381641248
 10
270.9819339094
 20
179.1544436011
  0
ARC
  5
EF
330
1F
100
AcDbEntity
  8
0
  6
Continuous
 62
     7
370
    18
100
AcDbCircle
 10
232.3635752526
 20
177.5973057279
 30
0.0
 40
38.65666137401647
100
AcDbArc
 50
2.5507982903
 51
57.443825177
  0
CIRCLE
  5
F0
330
1F
100
AcDbEntity
  8
0
  6
Continuous
 62
     7
370
    18
100
AcDbCircle
 10
53.5964805544
 20
119.6685479556
 30
0.0
 40
25.20249871458335
  0
CIRCLE
  5
F1
330
1F
100
AcDbEntity
  8
0
  6
Continuous
 62
     7
370
    18
100
AcDbCircle
 10
53.5964805544
 20
119.6685479556
 30
0.0
 40
25.39999999999999
  0
DIMENSION
  5
F2
330
1F
100
AcDbEntity
  8
0
  6
Continuous
 62
     7
370
    18
100
AcDbDimension
  2
_D
 10
35.6359683122
 20
101.7080357134
 30
0.0
 11
95.138723267
 21
150.4214741952
 31
0.0
 70
   163
  1
<>
 71
     1
 42
-1.0
  3
SLDDIMSTYLE0
100
AcDbDiametricDimension
 15
71.5569927965
 25
137.6290601977
 35
0.0
 40
0.0
  0
LINE
  5
103
330
1F
100
AcDbEntity
  8
0
  6
PHANTOM
 62
     7
370
    35
100
AcDbLine
 10
53.5964805544
 20
151.1645479556
 30
0.0
 11
53.5964805544
 21
88.1725479556
 31
0.0
  0
LINE
  5
104
330
1F
100
AcDbEntity
  8
0
  6
Continuous
 62
     7
370
    35
100
AcDbLine
 10
53.5964805544
 20
151.1645479556
 30
0.0
 11
44.7064805544
 21
151.1645479556
 31
0.0
  0
SOLID
  5
105
330
1F
100
AcDbEntity
  8
0
  6
Continuous
 62
     7
370
    35
100
AcDbTrace
 10
44.7064805544
 20
151.1645479556
 30
0.0
 11
48.5164805544
 21
150.5295479556
 31
0.0
 12
48.5164805544
 22
151.7995479556
 32
0.0
 13
48.5164805544
 23
151.7995479556
 33
0.0
  0
LINE
  5
106
330
1F
100
AcDbEntity
  8
0
  6
Continuous
 62
     7
370
    35
100
AcDbLine
 10
53.5964805544
 20
88.1725479556
 30
0.0
 11
44.7064805544
 21
88.1725479556
 31
0.0
  0
SOLID
  5
107
330
1F
100
AcDbEntity
  8
0
  6
Continuous
 62
     7
370
    35
100
AcDbTrace
 10
44.7064805544
 20
88.1725479556
 30
0.0
 11
48.5164805544
 21
87.5375479556
 31
0.0
 12
48.5164805544
 22
88.8075479556
 32
0.0
 13
48.5164805544
 23
88.8075479556
 33
0.0
  0
MTEXT
  5
108
330
1F
100
AcDbEntity
  8
0
  6
Continuous
 62
     7
100
AcDbMText
 10
41.3008449332
 20
153.265681479
 30
0.0
 40
2.6458333333
 41
0.0
 71
     1
 72
     1
  1
A
  7
SLDTEXTSTYLE0
 73
     1
 44
1.0
  0
MTEXT
  5
109
330
1F
100
AcDbEntity
  8
0
  6
Continuous
 62
     7
100
AcDbMText
 10
41.3008449332
 20
90.273681479
 30
0.0
 40
2.6458333333
 41
0.0
 71
     1
 72
     1
  1
A
  7
SLDTEXTSTYLE0
 73
     1
 44
1.0
  0
LINE
  5
10A
330
1F
100
AcDbEntity
  8
0
  6
Continuous
 62
     7
370
    18
100
AcDbLine
 10
135.4470176999
 20
94.2685479556
 30
0.0
 11
144.2083142035
 21
94.2685479556
 31
0.0
  0
LINE
  5
10B
330
1F
100
AcDbEntity
  8
0
  6
Continuous
 62
     7
370
    18
100
AcDbLine
 10
135.4470176999
 20
94.2685479556
 30
0.0
 11
135.2495164145
 21
94.466049241
 31
0.0
  0
ARC
  5
10C
330
1F
100
AcDbEntity
  8
0
  6
Continuous
 62
     7
370
    18
100
AcDbCircle
 10
-1864.5916925733
 20
119.6685479556
 30
0.0
 40
2000.000006776844
100
AcDbArc
 50
359.2779824885
 51
0.7220175116
  0
LINE
  5
10D
330
1F
100
AcDbEntity
  8
0
  6
Continuous
 62
     7
370
    18
100
AcDbLine
 10
135.2495164145
 20
144.8710466702
 30
0.0
 11
135.4470176999
 21
145.0685479556
 31
0.0
  0
LINE
  5
10E
330
1F
100
AcDbEntity
  8
0
  6
Continuous
 62
     7
370
    18
100
AcDbLine
 10
144.2083142035
 20
145.0685479556
 30
0.0
 11
135.4470176999
 21
145.0685479556
 31
0.0
  0
LINE
  5
10F
330
1F
100
AcDbEntity
  8
0
  6
Continuous
 62
     7
370
    18
100
AcDbLine
 10
144.2083142035
 20
145.0685479556
 30
0.0
 11
144.4083142035
 21
144.8685479556
 31
0.0
  0
LINE
  5
110
330
1F
100
AcDbEntity
  8
0
  6
Continuous
 62
     7
370
    18
100
AcDbLine
 10
144.4083142035
 20
94.4685479556
 30
0.0
 11
144.2083142035
 21
94.2685479556
 31
0.0
  0
LINE
  5
111
330
1F
100
AcDbEntity
  8
0
  6
Continuous
 62
     7
370
    18
100
AcDbLine
 10
144.4083142035
 20
120.7710212334
 30
0.0
 11
144.4083142035
 21
144.8685479556
 31
0.0
  0
LINE
  5
112
330
1F
100
AcDbEntity
  8
0
  6
Continuous
 62
     7
370
    18
100
AcDbLine
 10
144.4083142035
 20
94.4685479556
 30
0.0
 11
144.4083142035
 21
120.6685479556
 31
0.0
  0
LINE
  5
113
330
1F
100
AcDbEntity
  8
0
  6
Continuous
 62
     7
370
    18
100
AcDbLine
 10
144.4083142035
 20
120.6685479556
 30
0.0
 11
144.4083142035
 21
120.7710212334
 31
0.0
  0
HATCH
  5
114
330
1F
100
AcDbEntity
  8
0
  6
Continuous
 62
     7
370
    18
100
AcDbHatch
 10
0.0
 20
0.0
 30
0.0
210
0.0
220
0.0
230
1.0
  2
ANSI31
 70
     0
 71
     0
 91
        1
 92
        0
 93
       10
 72
     1
 10
144.2083142035333
 20
94.26854795557924
 11
144.4083142035333
 21
94.46854795557923
 72
     1
 10
144.4083142035333
 20
94.46854795557923
 11
144.4083142035333
 21
120.6685479555792
 72
     1
 10
144.4083142035333
 20
120.6685479555792
 11
144.4083142035333
 21
120.7710212333927
 72
     1
 10
144.4083142035333
 20
120.7710212333927
 11
144.4083142035333
 21
144.8685479555792
 72
     1
 10
144.4083142035333
 20
144.8685479555792
 11
144.2083142035333
 21
145.0685479555792
 72
     1
 10
144.2083142035333
 20
145.0685479555792
 11
135.4470176999388
 21
145.0685479555792
 72
     1
 10
135.4470176999388
 20
145.0685479555792
 11
135.2495164145223
 21
144.8710466701624
 72
     2
 10
-1864.591692573311
 20
119.6685479555792
 40
2000.000006776844
 50
359.2779824884507
 51
360.7220175115509
 73
     0
 72
     1
 10
135.2495164145224
 20
94.46604924099869
 11
135.4470176999388
 21
94.26854795557924
 72
     1
 10
135.4470176999388
 20
94.26854795557924
 11
144.2083142035333
 21
94.26854795557924
 97
        0
 75
     0
 76
     1
 52
0.0
 41
1.0
 77
     0
 78
     1
 53
45.0
 43
0.0
 44
0.0
 45
-2.245064030267288
 46
2.245064030267288
 79
     0
 98
        1
 10
0.0
 20
0.0
  0
DIMENSION
  5
115
330
1F
100
AcDbEntity
  8
0
  6
Continuous
 62
     7
370
    18
100
AcDbDimension
  2
_D_1
 10
144.4123760988
 20
159.7570342106
 30
0.0
 11
163.9934716667
 21
159.7516920718
 31
0.0
 70
   160
  1
<> REF
 71
     2
 42
-1.0
  3
SLDDIMSTYLE1
100
AcDbAlignedDimension
 13
135.2495164145
 23
144.8710466702
 33
0.0
 14
144.4083142035
 24
144.8685479556
 34
0.0
 50
-0.0156315053
100
AcDbRotatedDimension
  0
DIMENSION
  5
129
330
1F
100
AcDbEntity
  8
0
  6
Continuous
 62
     7
370
    18
100
AcDbDimension
  2
_D_2
 10
-1864.5916925733
 20
119.6685479556
 30
0.0
 11
164.1919505464
 21
86.1919294303
 31
0.0
 70
   164
  1
<>
 71
     1
 42
-1.0
  3
SLDDIMSTYLE2
100
AcDbRadialDimension
 15
135.1329497505
 25
86.4814723067
 35
0.0
 40
0.0
  0
DIMENSION
  5
13A
330
1F
100
AcDbEntity
  8
0
  6
Continuous
 62
     7
370
    18
100
AcDbDimension
  2
_D_3
 10
135.4083142035
 20
149.5504205907
 30
0.0
 11
160.4083142035
 21
149.5504205907
 31
0.0
 70
   160
  1
<>
 71
     2
 42
-1.0
  3
SLDDIMSTYLE3
100
AcDbAlignedDimension
 13
144.4083142035
 23
144.8685479556
 33
0.0
 14
135.4083142035
 24
119.6685479556
 34
0.0
100
AcDbRotatedDimension
  0
MTEXT
  5
14F
330
1F
100
AcDbEntity
  8
0
  6
Continuous
 62
     7
370
     0
100
AcDbMText
 10
139.647871259
 20
76.6837414411
 30
0.0
 40
2.1166666667
 41
0.0
 71
     2
 72
     1
  1
SECTION A-A
  7
SLDTEXTSTYLE0
 73
     1
 44
1.0
  0
MTEXT
  5
150
330
1F
100
AcDbEntity
  8
0
  6
Continuous
 62
     7
370
     0
100
AcDbMText
 10
115.1396569908
 20
99.8767961863
 30
0.0
 40
2.1166666667
 41
0.0
 71
     1
 72
     1
  1
S1
  7
SLDTEXTSTYLE0
 73
     1
 44
1.0
  0
LEADER
  5
152
330
1F
100
AcDbEntity
  8
0
  6
Continuous
 62
     7
370
     0
100
AcDbLeader
  3
SLDDIMSTYLE4
 76
     3
 10
135.4063267222
 20
116.8489874435
 30
0.0
 10
124.9015189047
 20
99.2657750012
 30
0.0
 10
118.5515189047
 20
99.2657750012
 30
0.0
  0
MTEXT
  5
153
330
1F
100
AcDbEntity
  8
0
  6
Continuous
 62
     7
370
     0
100
AcDbMText
 10
162.5078852675
 20
138.525685069
 30
0.0
 40
2.1166666667
 41
0.0
 71
     1
 72
     1
  1
S2
  7
SLDTEXTSTYLE0
 73
     1
 44
1.0
  0
LEADER
  5
154
330
1F
100
AcDbEntity
  8
0
  6
Continuous
 62
     7
370
     0
100
AcDbLeader
  3
SLDDIMSTYLE4
 76
     3
 10
144.4083142035
 20
118.0842905302
 30
0.0
 10
155.5727441286
 20
137.9555154215
 30
0.0
 10
161.9227441286
 20
137.9555154215
 30
0.0
  0
SPLINE
  5
155
330
1F
100
AcDbEntity
  8
0
  6
Continuous
 62
     7
370
    18
100
AcDbSpline
210
0.0
220
0.0
230
1.0
 70
     8
 71
     3
 72
    13
 73
     9
 74
     0
 42
0.000000001
 43
0.00000001
 40
0.0
 40
0.0
 40
0.0
 40
0.0
 40
0.1943389941804437
 40
0.3816850483972321
 40
0.5594858099432992
 40
0.6963399801806484
 40
0.8391066529687222
 40
1.0
 40
1.0
 40
1.0
 40
1.0
 10
223.3389159985552
 20
121.7879053918619
 30
0.0
 10
223.3360909061633
 20
121.8495378141734
 30
0.0
 10
223.3305423772598
 20
121.9705849266791
 30
0.0
 10
223.2815466691258
 20
122.1426034812184
 30
0.0
 10
223.2015352836449
 20
122.2827255037562
 30
0.0
 10
223.0933017631259
 20
122.3816852313058
 30
0.0
 10
222.9642625047497
 20
122.4424557517809
 30
0.0
 10
222.8676106019219
 20
122.4490549577241
 30
0.0
 10
222.8163998822752
 20
122.4525515271197
 30
0.0
  0
SPLINE
  5
156
330
1F
100
AcDbEntity
  8
0
  6
Continuous
 62
     7
370
    18
100
AcDbSpline
210
0.0
220
0.0
230
1.0
 70
     8
 71
     3
 72
    12
 73
     8
 74
     0
 42
0.000000001
 43
0.00000001
 40
0.0
 40
0.0
 40
0.0
 40
0.0
 40
0.2008908381631395
 40
0.3780365369998067
 40
0.553549838638755
 40
0.7713747335183452
 40
0.9999999999999999
 40
0.9999999999999999
 40
0.9999999999999999
 40
0.9999999999999999
 10
222.8163998822752
 20
121.1232411945862
 30
0.0
 10
222.8805380537844
 20
121.1287633978941
 30
0.0
 10
223.0012333152933
 20
121.139155084415
 30
0.0
 10
223.1539278033207
 20
121.2374154670678
 30
0.0
 10
223.2619097245208
 20
121.3849334454139
 30
0.0
 10
223.3275184770469
 20
121.574057296142
 30
0.0
 10
223.3350560426383
 20
121.7154822583066
 30
0.0
 10
223.3389159985552
 20
121.7879053918619
 30
0.0
  0
SPLINE
  5
157
330
1F
100
AcDbEntity
  8
0
  6
Continuous
 62
     7
370
    18
100
AcDbSpline
210
0.0
220
0.0
230
1.0
 70
     8
 71
     3
 72
    13
 73
     9
 74
     0
 42
0.000000001
 43
0.00000001
 40
0.0
 40
0.0
 40
0.0
 40
0.0
 40
0.1943256494037765
 40
0.3816748644005016
 40
0.5594881704966038
 40
0.6963511211546949
 40
0.8391184169589759
 40
0.9999999999999999
 40
0.9999999999999999
 40
0.9999999999999999
 40
0.9999999999999999
 10
222.2938657039772
 20
121.7879053918619
 30
0.0
 10
222.2966921582195
 20
121.7262767228766
 30
0.0
 10
222.3022435949082
 20
121.6052318996618
 30
0.0
 10
222.3512521238877
 20
121.4332144917845
 30
0.0
 10
222.4312720374522
 20
121.2930880195854
 30
0.0
 10
222.5395078525064
 20
121.1941200460338
 30
0.0
 10
222.668543288146
 20
121.1333399530712
 30
0.0
 10
222.7651924698916
 20
121.1267387138775
 30
0.0
 10
222.8163998822752
 20
121.1232411945862
 30
0.0
  0
SPLINE
  5
158
330
1F
100
AcDbEntity
  8
0
  6
Continuous
 62
     7
370
    18
100
AcDbSpline
210
0.0
220
0.0
230
1.0
 70
     8
 71
     3
 72
    12
 73
     8
 74
     0
 42
0.000000001
 43
0.00000001
 40
0.0
 40
0.0
 40
0.0
 40
0.0
 40
0.2008792258750624
 40
0.3780217100331184
 40
0.5535332757399333
 40
0.7713595773327308
 40
1.0
 40
1.0
 40
1.0
 40
1.0
 10
222.8163998822752
 20
122.4525515271197
 30
0.0
 10
222.7522660897219
 20
122.4470298636228
 30
0.0
 10
222.6315768256815
 20
122.4366389998177
 30
0.0
 10
222.4788832919636
 20
122.3383919221928
 30
0.0
 10
222.3708897219021
 20
122.1908856520537
 30
0.0
 10
222.3052662459051
 20
122.0017622841528
 30
0.0
 10
222.2977267573476
 20
121.8603329027633
 30
0.0
 10
222.2938657039772
 20
121.7879053918619
 30
0.0
  0
SPLINE
  5
159
330
1F
100
AcDbEntity
  8
0
  6
Continuous
 62
     7
370
    18
100
AcDbSpline
210
0.0
220
0.0
230
1.0
 70
     8
 71
     3
 72
    19
 73
    15
 74
     0
 42
0.000000001
 43
0.00000001
 40
0.0
 40
0.0
 40
0.0
 40
0.0
 40
0.091587339706645
 40
0.17411828708059
 40
0.2526289966153886
 40
0.3313197891920876
 40
0.4131632671988417
 40
0.4999972215981981
 40
0.5868350001903229
 40
0.6686802724867934
 40
0.7473714879383924
 40
0.825881989639794
 40
0.9084127008286222
 40
1.0
 40
1.0
 40
1.0
 40
1.0
 10
222.8200050464215
 20
120.5873682387033
 30
0.0
 10
222.9306426211133
 20
120.5948129512547
 30
0.0
 10
223.1409776418026
 20
120.6089662239823
 30
0.0
 10
223.4253052167717
 20
120.7322856207753
 30
0.0
 10
223.6494765033612
 20
120.9195513001451
 30
0.0
 10
223.8101557921619
 20
121.162694725605
 30
0.0
 10
223.9062578722799
 20
121.4474520897957
 30
0.0
 10
223.936245500152
 20
121.7557047034304
 30
0.0
 10
223.9051078593121
 20
122.0638454011375
 30
0.0
 10
223.8079442456676
 20
122.3482499750364
 30
0.0
 10
223.6463580546795
 20
122.5907948753865
 30
0.0
 10
223.4214884952527
 20
122.7772217837726
 30
0.0
 10
223.1367021319518
 20
122.8994762661305
 30
0.0
 10
222.9263161096312
 20
122.9128437283533
 30
0.0
 10
222.8156515808562
 20
122.9198751075841
 30
0.0
  0
SPLINE
  5
15A
330
1F
100
AcDbEntity
  8
0
  6
Continuous
 62
     7
370
    18
100
AcDbSpline
210
0.0
220
0.0
230
1.0
 70
     8
 71
     3
 72
    14
 73
    10
 74
     0
 42
0.000000001
 43
0.00000001
 40
0.0
 40
0.0
 40
0.0
 40
0.0
 40
0.1466868109097154
 40
0.2859932799578324
 40
0.4198155341096295
 40
0.5510853201411032
 40
0.69041040274012
 40
0.8377115977293311
 40
1.0
 40
1.0
 40
1.0
 40
1.0
 10
221.7141529509028
 20
121.759758674443
 30
0.0
 10
221.718035267782
 20
121.6710841802127
 30
0.0
 10
221.7256045681931
 20
121.498196724986
 30
0.0
 10
221.7954237717475
 20
121.2522577254751
 30
0.0
 10
221.9077221508202
 20
121.0337544154087
 30
0.0
 10
222.0679647012332
 20
120.8463141271294
 30
0.0
 10
222.2769583585691
 20
120.7008480965847
 30
0.0
 10
222.534438815785
 20
120.6044807386668
 30
0.0
 10
222.7217930353539
 20
120.5932535740669
 30
0.0
 10
222.8200050464215
 20
120.5873682387033
 30
0.0
  0
SPLINE
  5
15B
330
1F
100
AcDbEntity
  8
0
  6
Continuous
 62
     7
370
    18
100
AcDbSpline
210
0.0
220
0.0
230
1.0
 70
     8
 71
     3
 72
    14
 73
    10
 74
     0
 42
0.000000001
 43
0.00000001
 40
0.0
 40
0.0
 40
0.0
 40
0.0
 40
0.1553989656922844
 40
0.296877112207096
 40
0.4305153137104987
 40
0.5617675040118874
 40
0.7014063449726656
 40
0.8467289956139453
 40
0.9999999999999999
 40
0.9999999999999999
 40
0.9999999999999999
 40
0.9999999999999999
 10
222.8156515808562
 20
122.9198751075841
 30
0.0
 10
222.7224104402215
 20
122.9145201553609
 30
0.0
 10
222.5442808082308
 20
122.9042899537314
 30
0.0
 10
222.2981014055567
 20
122.8172875252885
 30
0.0
 10
222.0923330275267
 20
122.683683286611
 30
0.0
 10
221.9263893401962
 20
122.5038690717975
 30
0.0
 10
221.8050183025678
 20
122.2841502050183
 30
0.0
 10
221.7279458611361
 20
122.0306690183862
 30
0.0
 10
221.718831460631
 20
121.8516505709428
 30
0.0
 10
221.7141529509028
 20
121.759758674443
 30
0.0
  0
LINE
  5
15C
330
1F
100
AcDbEntity
  8
0
  6
Continuous
 62
     7
370
    18
100
AcDbLine
 10
218.5765539855
 20
122.4032602802
 30
0.0
 11
218.5765539855
 21
120.6685479556
 31
0.0
  0
LINE
  5
15D
330
1F
100
AcDbEntity
  8
0
  6
Continuous
 62
     7
370
    18
100
AcDbLine
 10
217.9060596917
 20
122.4032602802
 30
0.0
 11
218.5765539855
 21
122.4032602802
 31
0.0
  0
LINE
  5
15E
330
1F
100
AcDbEntity
  8
0
  6
Continuous
 62
     7
370
    18
100
AcDbLine
 10
217.9060596917
 20
122.9048967038
 30
0.0
 11
217.9060596917
 21
122.4032602802
 31
0.0
  0
LINE
  5
15F
330
1F
100
AcDbEntity
  8
0
  6
Continuous
 62
     7
370
    18
100
AcDbLine
 10
220.3548719567
 20
122.9048967038
 30
0.0
 11
217.9060596917
 21
122.9048967038
 31
0.0
  0
LINE
  5
160
330
1F
100
AcDbEntity
  8
0
  6
Continuous
 62
     7
370
    18
100
AcDbLine
 10
220.3548719567
 20
122.0897217112
 30
0.0
 11
220.3548719567
 21
122.9048967038
 31
0.0
  0
LINE
  5
161
330
1F
100
AcDbEntity
  8
0
  6
Continuous
 62
     7
370
    18
100
AcDbLine
 10
221.1261381837
 20
122.0897217112
 30
0.0
 11
220.3548719567
 21
122.0897217112
 31
0.0
  0
LINE
  5
162
330
1F
100
AcDbEntity
  8
0
  6
Continuous
 62
     7
370
    18
100
AcDbLine
 10
221.1261381837
 20
122.9048967038
 30
0.0
 11
221.1261381837
 21
122.0897217112
 31
0.0
  0
LINE
  5
163
330
1F
100
AcDbEntity
  8
0
  6
Continuous
 62
     7
370
    18
100
AcDbLine
 10
221.7116506832
 20
122.9048967038
 30
0.0
 11
221.1261381837
 21
122.9048967038
 31
0.0
  0
LINE
  5
164
330
1F
100
AcDbEntity
  8
0
  6
Continuous
 62
     7
370
    18
100
AcDbLine
 10
221.7116506832
 20
120.6685479556
 30
0.0
 11
221.7116506832
 21
122.9048967038
 31
0.0
  0
LINE
  5
165
330
1F
100
AcDbEntity
  8
0
  6
Continuous
 62
     7
370
    18
100
AcDbLine
 10
221.1261342484
 20
120.6685479556
 30
0.0
 11
221.7116506832
 21
120.6685479556
 31
0.0
  0
LINE
  5
166
330
1F
100
AcDbEntity
  8
0
  6
Continuous
 62
     7
370
    18
100
AcDbLine
 10
221.1261342484
 20
121.5903611019
 30
0.0
 11
221.1261342484
 21
120.6685479556
 31
0.0
  0
LINE
  5
167
330
1F
100
AcDbEntity
  8
0
  6
Continuous
 62
     7
370
    18
100
AcDbLine
 10
220.3548680214
 20
121.5903611019
 30
0.0
 11
221.1261342484
 21
121.5903611019
 31
0.0
  0
LINE
  5
168
330
1F
100
AcDbEntity
  8
0
  6
Continuous
 62
     7
370
    18
100
AcDbLine
 10
220.3548680214
 20
120.6685479556
 30
0.0
 11
220.3548680214
 21
121.5903611019
 31
0.0
  0
LINE
  5
169
330
1F
100
AcDbEntity
  8
0
  6
Continuous
 62
     7
370
    18
100
AcDbLine
 10
219.7694238347
 20
120.6685479556
 30
0.0
 11
220.3548680214
 21
120.6685479556
 31
0.0
  0
LINE
  5
16A
330
1F
100
AcDbEntity
  8
0
  6
Continuous
 62
     7
370
    18
100
AcDbLine
 10
219.7694238347
 20
122.4054638464
 30
0.0
 11
219.7694238347
 21
120.6685479556
 31
0.0
  0
LINE
  5
16B
330
1F
100
AcDbEntity
  8
0
  6
Continuous
 62
     7
370
    18
100
AcDbLine
 10
219.1620523583
 20
122.4054638464
 30
0.0
 11
219.7694238347
 21
122.4054638464
 31
0.0
  0
LINE
  5
16C
330
1F
100
AcDbEntity
  8
0
  6
Continuous
 62
     7
370
    18
100
AcDbLine
 10
219.1620523583
 20
120.6685479556
 30
0.0
 11
219.1620523583
 21
122.4054638464
 31
0.0
  0
LINE
  5
16D
330
1F
100
AcDbEntity
  8
0
  6
Continuous
 62
     7
370
    18
100
AcDbLine
 10
218.5765539855
 20
120.6685479556
 30
0.0
 11
219.1620523583
 21
120.6685479556
 31
0.0
  0
SPLINE
  5
16E
330
1F
100
AcDbEntity
  8
0
  6
Continuous
 62
     7
370
    18
100
AcDbSpline
210
0.0
220
0.0
230
1.0
 70
     8
 71
     3
 72
    12
 73
     8
 74
     0
 42
0.000000001
 43
0.00000001
 40
0.0
 40
0.0
 40
0.0
 40
0.0
 40
0.1970292569794111
 40
0.3714318737747132
 40
0.5434083414909591
 40
0.7603083066182451
 40
1.0
 40
1.0
 40
1.0
 40
1.0
 10
225.2743154042641
 20
122.1985995552266
 30
0.0
 10
225.2721056915463
 20
122.2270377173895
 30
0.0
 10
225.2679400272797
 20
122.2806482319943
 30
0.0
 10
225.2279025336268
 20
122.3503807660478
 30
0.0
 10
225.1644410160458
 20
122.402172539384
 30
0.0
 10
225.0784434482381
 20
122.4346348315232
 30
0.0
 10
225.012878454578
 20
122.4381757259255
 30
0.0
 10
224.9784595508068
 20
122.4400345487042
 30
0.0
  0
SPLINE
  5
16F
330
1F
100
AcDbEntity
  8
0
  6
Continuous
 62
     7
370
    18
100
AcDbSpline
210
0.0
220
0.0
230
1.0
 70
     8
 71
     3
 72
    12
 73
     8
 74
     0
 42
0.000000001
 43
0.00000001
 40
0.0
 40
0.0
 40
0.0
 40
0.0
 40
0.2111291888127957
 40
0.3927062339152242
 40
0.559912974757405
 40
0.7634359056262758
 40
1.0
 40
1.0
 40
1.0
 40
1.0
 10
225.0036380037811
 20
121.935309520071
 30
0.0
 10
225.033935958648
 20
121.9368481414869
 30
0.0
 10
225.0902910075071
 20
121.9397100206286
 30
0.0
 10
225.166615977317
 20
121.9688890442499
 30
0.0
 10
225.2279400755884
 20
122.0210494530428
 30
0.0
 10
225.2683876003786
 20
122.1012492520193
 30
0.0
 10
225.2722429839027
 20
122.1645649018467
 30
0.0
 10
225.2743154042641
 20
122.1985995552266
 30
0.0
  0
LINE
  5
170
330
1F
100
AcDbEntity
  8
0
  6
Continuous
 62
     7
370
    18
100
AcDbLine
 10
224.5125678607
 20
121.9353095201
 30
0.0
 11
225.0036380038
 21
121.9353095201
 31
0.0
  0
LINE
  5
171
330
1F
100
AcDbEntity
  8
0
  6
Continuous
 62
     7
370
    18
100
AcDbLine
 10
224.5125678607
 20
122.4400345487
 30
0.0
 11
224.5125678607
 21
121.9353095201
 31
0.0
  0
LINE
  5
172
330
1F
100
AcDbEntity
  8
0
  6
Continuous
 62
     7
370
    18
100
AcDbLine
 10
224.9784595508
 20
122.4400345487
 30
0.0
 11
224.5125678607
 21
122.4400345487
 31
0.0
  0
SPLINE
  5
173
330
1F
100
AcDbEntity
  8
0
  6
Continuous
 62
     7
370
    18
100
AcDbSpline
210
0.0
220
0.0
230
1.0
 70
     8
 71
     3
 72
    14
 73
    10
 74
     0
 42
0.000000001
 43
0.00000001
 40
0.0
 40
0.0
 40
0.0
 40
0.0
 40
0.2575826845002104
 40
0.4580339644254275
 40
0.6128287983994991
 40
0.7093883131761901
 40
0.7998028883084931
 40
0.894133880561337
 40
1.0
 40
1.0
 40
1.0
 40
1.0
 10
231.894424272703
 20
121.262571600787
 30
0.0
 10
231.9225015478862
 20
121.2554575371722
 30
0.0
 10
231.9724286060165
 20
121.2428072972424
 30
0.0
 10
232.0411152954227
 20
121.2352109805483
 30
0.0
 10
232.0923194167311
 20
121.239903861463
 30
0.0
 10
232.1282470669768
 20
121.2550128869655
 30
0.0
 10
232.1523391970231
 20
121.2762538221801
 30
0.0
 10
232.1696482165838
 20
121.3044975676496
 30
0.0
 10
232.1759840793564
 20
121.326150793373
 30
0.0
 10
232.1793345433035
 20
121.3376012232084
 30
0.0
  0
SPLINE
  5
174
330
1F
100
AcDbEntity
  8
0
  6
Continuous
 62
     7
370
    18
100
AcDbSpline
210
0.0
220
0.0
230
1.0
 70
     8
 71
     3
 72
    12
 73
     8
 74
     0
 42
0.000000001
 43
0.00000001
 40
0.0
 40
0.0
 40
0.0
 40
0.0
 40
0.2545415383352704
 40
0.4933538848768315
 40
0.6299818928893317
 40
0.7933578680691702
 40
1.0
 40
1.0
 40
1.0
 40
1.0
 10
231.6948028507
 20
121.5462175301334
 30
0.0
 10
231.6946481558972
 20
121.5135550809842
 30
0.0
 10
231.6943483255338
 20
121.4502485327375
 30
0.0
 10
231.7193421488516
 20
121.3700426879869
 30
0.0
 10
231.767399585688
 20
121.3188171162019
 30
0.0
 10
231.8235953606366
 20
121.2846929344509
 30
0.0
 10
231.8690432313188
 20
121.2704986247779
 30
0.0
 10
231.894424272703
 20
121.262571600787
 30
0.0
  0
SPLINE
  5
175
330
1F
100
AcDbEntity
  8
0
  6
Continuous
 62
     7
370
    18
100
AcDbSpline
210
0.0
220
0.0
230
1.0
 70
     8
 71
     3
 72
    14
 73
    10
 74
     0
 42
0.000000001
 43
0.00000001
 40
0.0
 40
0.0
 40
0.0
 40
0.0
 40
0.0123761948722826
 40
0.0260544786030459
 40
0.0423069896659047
 40
0.1107691877094741
 40
0.3353734156282152
 40
0.6465637489690634
 40
1.0
 40
1.0
 40
1.0
 40
1.0
 10
232.1793345433035
 20
121.3376012232084
 30
0.0
 10
232.1796007827728
 20
121.3398378431918
 30
0.0
 10
232.1801612725378
 20
121.3445463960305
 30
0.0
 10
232.177319884836
 20
121.3518522391822
 30
0.0
 10
232.1671965140246
 20
121.3663870797594
 30
0.0
 10
232.120825486069
 20
121.3991642357797
 30
0.0
 10
232.0211124842117
 20
121.4416766067458
 30
0.0
 10
231.8701717891973
 20
121.4944987949748
 30
0.0
 10
231.7556848886395
 20
121.5282625717292
 30
0.0
 10
231.6948028507
 20
121.5462175301334
 30
0.0
  0
LINE
  5
176
330
1F
100
AcDbEntity
  8
0
  6
Continuous
 62
     7
370
    18
100
AcDbLine
 10
231.1712933234
 20
121.5502272981
 30
0.0
 11
231.681003469
 21
121.5502272981
 31
0.0
  0
SPLINE
  5
177
330
1F
100
AcDbEntity
  8
0
  6
Continuous
 62
     7
370
    18
100
AcDbSpline
210
0.0
220
0.0
230
1.0
 70
     8
 71
     3
 72
    11
 73
     7
 74
     0
 42
0.000000001
 43
0.00000001
 40
0.0
 40
0.0
 40
0.0
 40
0.0
 40
0.2403133392799487
 40
0.5276554281052314
 40
0.7630136347472218
 40
1.0
 40
1.0
 40
1.0
 40
1.0
 10
230.9555605814508
 20
121.8912201343391
 30
0.0
 10
230.9822564291981
 20
121.8709122993793
 30
0.0
 10
231.0408724386711
 20
121.8263224344067
 30
0.0
 10
231.1085537586513
 20
121.7435630727413
 30
0.0
 10
231.160305405779
 20
121.6492602520105
 30
0.0
 10
231.1676222771986
 20
121.5833140543142
 30
0.0
 10
231.1712933234346
 20
121.5502272981107
 30
0.0
  0
SPLINE
  5
178
330
1F
100
AcDbEntity
  8
0
  6
Continuous
 62
     7
370
    18
100
AcDbSpline
210
0.0
220
0.0
230
1.0
 70
     8
 71
     3
 72
    10
 73
     6
 74
     0
 42
0.000000001
 43
0.00000001
 40
0.0
 40
0.0
 40
0.0
 40
0.0
 40
0.3052209345869937
 40
0.5892711010915017
 40
0.9999999999999999
 40
0.9999999999999999
 40
0.9999999999999999
 40
0.9999999999999999
 10
231.0808748617492
 20
122.0721654298174
 30
0.0
 10
231.0733738720676
 20
122.0506197183424
 30
0.0
 10
231.0588921771769
 20
122.0090227514046
 30
0.0
 10
231.011966900689
 20
121.9505034246709
 30
0.0
 10
230.9765171969976
 20
121.91324562972
 30
0.0
 10
230.9555605814508
 20
121.8912201343391
 30
0.0
  0
SPLINE
  5
179
330
1F
100
AcDbEntity
  8
0
  6
Continuous
 62
     7
370
    18
100
AcDbSpline
210
0.0
220
0.0
230
1.0
 70
     8
 71
     3
 72
    11
 73
     7
 74
     0
 42
0.000000001
 43
0.00000001
 40
0.0
 40
0.0
 40
0.0
 40
0.0
 40
0.3113820865694061
 40
0.5952152429024645
 40
0.7995709864930258
 40
1.0
 40
1.0
 40
1.0
 40
1.0
 10
231.5819152387275
 20
121.5780789297366
 30
0.0
 10
231.5076113639992
 20
121.6033864818524
 30
0.0
 10
231.3655775067137
 20
121.6517625491653
 30
0.0
 10
231.203550653134
 20
121.774836100211
 30
0.0
 10
231.0996633563069
 20
121.9193881487194
 30
0.0
 10
231.0870970589502
 20
122.0215700844634
 30
0.0
 10
231.0808748617492
 20
122.0721654298174
 30
0.0
  0
SPLINE
  5
17A
330
1F
100
AcDbEntity
  8
0
  6
Continuous
 62
     7
370
    18
100
AcDbSpline
210
0.0
220
0.0
230
1.0
 70
     8
 71
     3
 72
     9
 73
     5
 74
     0
 42
0.000000001
 43
0.00000001
 40
0.0
 40
0.0
 40
0.0
 40
0.0
 40
0.5632377239369403
 40
0.9999999999999999
 40
0.9999999999999999
 40
0.9999999999999999
 40
0.9999999999999999
 10
231.6810034690125
 20
121.5502272981107
 30
0.0
 10
231.6624172533282
 20
121.5555175677678
 30
0.0
 10
231.629418370451
 20
121.564910173114
 30
0.0
 10
231.5963557458854
 20
121.574075751054
 30
0.0
 10
231.5819152387275
 20
121.5780789297366
 30
0.0
  0
SPLINE
  5
17B
330
1F
100
AcDbEntity
  8
0
  6
Continuous
 62
     7
370
    18
100
AcDbSpline
210
0.0
220
0.0
230
1.0
 70
     8
 71
     3
 72
    13
 73
     9
 74
     0
 42
0.000000001
 43
0.00000001
 40
0.0
 40
0.0
 40
0.0
 40
0.0
 40
0.2070940199890577
 40
0.3978649646626732
 40
0.5739369280037266
 40
0.7077750174858438
 40
0.8462504046616516
 40
1.0
 40
1.0
 40
1.0
 40
1.0
 10
230.3175378606006
 20
120.7709595971606
 30
0.0
 10
230.3889768528898
 20
120.7734261526988
 30
0.0
 10
230.5262240420853
 20
120.7781648507648
 30
0.0
 10
230.7199800880369
 20
120.8245942839406
 30
0.0
 10
230.8762639520686
 20
120.9030703002011
 30
0.0
 10
230.9894920257018
 20
121.010601590131
 30
0.0
 10
231.06579629625
 20
121.1391739335322
 30
0.0
 10
231.0859731053838
 20
121.2384221059466
 30
0.0
 10
231.0965888173358
 20
121.2906399766279
 30
0.0
  0
LINE
  5
17C
330
1F
100
AcDbEntity
  8
0
  6
Continuous
 62
     7
370
    18
100
AcDbLine
 10
228.8390171981
 20
120.7709595972
 30
0.0
 11
230.3175378606
 21
120.7709595972
 31
0.0
  0
LINE
  5
17D
330
1F
100
AcDbEntity
  8
0
  6
Continuous
 62
     7
370
    18
100
AcDbLine
 10
228.6884160927
 20
121.1143908058
 30
0.0
 11
228.8390171981
 21
120.7709595972
 31
0.0
  0
LINE
  5
17E
330
1F
100
AcDbEntity
  8
0
  6
Continuous
 62
     7
370
    18
100
AcDbLine
 10
228.0350045326
 20
121.1143908058
 30
0.0
 11
228.6884160927
 21
121.1143908058
 31
0.0
  0
LINE
  5
17F
330
1F
100
AcDbEntity
  8
0
  6
Continuous
 62
     7
370
    18
100
AcDbLine
 10
227.8814412563
 20
120.7737411479
 30
0.0
 11
228.0350045326
 21
121.1143908058
 31
0.0
  0
LINE
  5
180
330
1F
100
AcDbEntity
  8
0
  6
Continuous
 62
     7
370
    18
100
AcDbLine
 10
226.012022402
 20
120.7737411479
 30
0.0
 11
227.8814412563
 21
120.7737411479
 31
0.0
  0
LINE
  5
181
330
1F
100
AcDbEntity
  8
0
  6
Continuous
 62
     7
370
    18
100
AcDbLine
 10
226.012022402
 20
122.7939778518
 30
0.0
 11
226.012022402
 21
120.7737411479
 31
0.0
  0
LINE
  5
182
330
1F
100
AcDbEntity
  8
0
  6
Continuous
 62
     7
370
    18
100
AcDbLine
 10
226.5390720848
 20
122.7939778518
 30
0.0
 11
226.012022402
 21
122.7939778518
 31
0.0
  0
LINE
  5
183
330
1F
100
AcDbEntity
  8
0
  6
Continuous
 62
     7
370
    18
100
AcDbLine
 10
226.5390720848
 20
121.2307102012
 30
0.0
 11
226.5390720848
 21
122.7939778518
 31
0.0
  0
LINE
  5
184
330
1F
100
AcDbEntity
  8
0
  6
Continuous
 62
     7
370
    18
100
AcDbLine
 10
227.5085328344
 20
121.2307102012
 30
0.0
 11
226.5390720848
 21
121.2307102012
 31
0.0
  0
LINE
  5
185
330
1F
100
AcDbEntity
  8
0
  6
Continuous
 62
     7
370
    18
100
AcDbLine
 10
228.0967766338
 20
122.7939778518
 30
0.0
 11
227.5085328344
 21
121.2307102012
 31
0.0
  0
LINE
  5
186
330
1F
100
AcDbEntity
  8
0
  6
Continuous
 62
     7
370
    18
100
AcDbLine
 10
228.632243217
 20
122.7939778518
 30
0.0
 11
228.0967766338
 21
122.7939778518
 31
0.0
  0
LINE
  5
187
330
1F
100
AcDbEntity
  8
0
  6
Continuous
 62
     7
370
    18
100
AcDbLine
 10
229.3457651727
 20
120.9105789956
 30
0.0
 11
228.632243217
 21
122.7939778518
 31
0.0
  0
LINE
  5
188
330
1F
100
AcDbEntity
  8
0
  6
Continuous
 62
     7
370
    18
100
AcDbLine
 10
229.3457651727
 20
122.7939778518
 30
0.0
 11
229.3457651727
 21
120.9105789956
 31
0.0
  0
LINE
  5
189
330
1F
100
AcDbEntity
  8
0
  6
Continuous
 62
     7
370
    18
100
AcDbLine
 10
230.2919981673
 20
122.7939778518
 30
0.0
 11
229.3457651727
 21
122.7939778518
 31
0.0
  0
SPLINE
  5
18A
330
1F
100
AcDbEntity
  8
0
  6
Continuous
 62
     7
370
    18
100
AcDbSpline
210
0.0
220
0.0
230
1.0
 70
     8
 71
     3
 72
    14
 73
    10
 74
     0
 42
0.000000001
 43
0.00000001
 40
0.0
 40
0.0
 40
0.0
 40
0.0
 40
0.1423816612635872
 40
0.2654010250778283
 40
0.380208570789927
 40
0.495320128909934
 40
0.6562432766114725
 40
0.8263515868701821
 40
1.0
 40
1.0
 40
1.0
 40
1.0
 10
231.0229680323118
 20
122.2888735207687
 30
0.0
 10
231.0201441710682
 20
122.3369764314987
 30
0.0
 10
231.014880461809
 20
122.426640800517
 30
0.0
 10
230.9642999933085
 20
122.5468840212287
 30
0.0
 10
230.8870776997901
 20
122.6390853214193
 30
0.0
 10
230.7770728484664
 20
122.71360824487
 30
0.0
 10
230.6345179618242
 20
122.7647259571577
 30
0.0
 10
230.466212185811
 20
122.7922086102271
 30
0.0
 10
230.3504668327871
 20
122.7933840695249
 30
0.0
 10
230.291998167268
 20
122.7939778517781
 30
0.0
  0
SPLINE
  5
18B
330
1F
100
AcDbEntity
  8
0
  6
Continuous
 62
     7
370
    18
100
AcDbSpline
210
0.0
220
0.0
230
1.0
 70
     8
 71
     3
 72
    11
 73
     7
 74
     0
 42
0.000000001
 43
0.00000001
 40
0.0
 40
0.0
 40
0.0
 40
0.0
 40
0.2840562052455269
 40
0.5588619016419695
 40
0.775099383828571
 40
1.0
 40
1.0
 40
1.0
 40
1.0
 10
230.7566255161286
 20
121.8825684277575
 30
0.0
 10
230.7985316881117
 20
121.9074229985229
 30
0.0
 10
230.8809793253489
 20
121.956322731836
 30
0.0
 10
230.96491816566
 20
122.0616376624481
 30
0.0
 10
231.0145484323131
 20
122.1749797411299
 30
0.0
 10
231.0201249945329
 20
122.2504151238916
 30
0.0
 10
231.0229680323118
 20
122.2888735207687
 30
0.0
  0
SPLINE
  5
18C
330
1F
100
AcDbEntity
  8
0
  6
Continuous
 62
     7
370
    18
100
AcDbSpline
210
0.0
220
0.0
230
1.0
 70
     8
 71
     3
 72
    11
 73
     7
 74
     0
 42
0.000000001
 43
0.00000001
 40
0.0
 40
0.0
 40
0.0
 40
0.0
 40
0.2849839497112128
 40
0.5578557580525033
 40
0.7738896021956504
 40
1.0
 40
1.0
 40
1.0
 40
1.0
 10
231.1026215313195
 20
121.456449301093
 30
0.0
 10
231.0929238964303
 20
121.5114997325
 30
0.0
 10
231.0739407871431
 20
121.6192608894872
 30
0.0
 10
230.9875835956237
 20
121.7471478480204
 30
0.0
 10
230.8792738973722
 20
121.837380440303
 30
0.0
 10
230.7981247779719
 20
121.8672786366936
 30
0.0
 10
230.7566255161286
 20
121.8825684277575
 30
0.0
  0
LINE
  5
18D
330
1F
100
AcDbEntity
  8
0
  6
Continuous
 62
     7
370
    18
100
AcDbLine
 10
231.606371211
 20
121.4564493011
 30
0.0
 11
231.1026215313
 21
121.4564493011
 31
0.0
  0
SPLINE
  5
18E
330
1F
100
AcDbEntity
  8
0
  6
Continuous
 62
     7
370
    18
100
AcDbSpline
210
0.0
220
0.0
230
1.0
 70
     8
 71
     3
 72
    12
 73
     8
 74
     0
 42
0.000000001
 43
0.00000001
 40
0.0
 40
0.0
 40
0.0
 40
0.0
 40
0.3029848175181634
 40
0.5555954840373197
 40
0.6861253068640346
 40
0.8302562633026844
 40
1.0
 40
1.0
 40
1.0
 40
1.0
 10
231.9887802542941
 20
121.1432177864009
 30
0.0
 10
231.9319160557054
 20
121.1454865644315
 30
0.0
 10
231.8276418805237
 20
121.1496469142417
 30
0.0
 10
231.7067510829968
 20
121.208649329679
 30
0.0
 10
231.6453863875071
 20
121.2875996366286
 30
0.0
 10
231.6147379973167
 20
121.3661205274873
 30
0.0
 10
231.6093078434385
 20
121.4247450842616
 30
0.0
 10
231.6063712109852
 20
121.456449301093
 30
0.0
  0
SPLINE
  5
18F
330
1F
100
AcDbEntity
  8
0
  6
Continuous
 62
     7
370
    18
100
AcDbSpline
210
0.0
220
0.0
230
1.0
 70
     8
 71
     3
 72
    12
 73
     8
 74
     0
 42
0.000000001
 43
0.00000001
 40
0.0
 40
0.0
 40
0.0
 40
0.0
 40
0.1228977808113462
 40
0.2361517003655365
 40
0.4654549568724395
 40
0.722943542278525
 40
1.0
 40
1.0
 40
1.0
 40
1.0
 10
232.3118013826964
 20
121.3492692867819
 30
0.0
 10
232.3104801306299
 20
121.3317431779856
 30
0.0
 10
232.3079413059247
 20
121.2980662444745
 30
0.0
 10
232.2781309105318
 20
121.2374115594724
 30
0.0
 10
232.2088846126844
 20
121.1824003343027
 30
0.0
 10
232.1041154911084
 20
121.1489801992153
 30
0.0
 10
232.0281522516706
 20
121.1451849016423
 30
0.0
 10
231.9887802542941
 20
121.1432177864009
 30
0.0
  0
SPLINE
  5
190
330
1F
100
AcDbEntity
  8
0
  6
Continuous
 62
     7
370
    18
100
AcDbSpline
210
0.0
220
0.0
230
1.0
 70
     8
 71
     3
 72
    12
 73
     8
 74
     0
 42
0.000000001
 43
0.00000001
 40
0.0
 40
0.0
 40
0.0
 40
0.0
 40
0.3210306919457598
 40
0.6029592976098698
 40
0.8214028303124049
 40
0.9104117121954224
 40
1.0
 40
1.0
 40
1.0
 40
1.0
 10
231.730963010567
 20
121.6426687058027
 30
0.0
 10
231.8023381062095
 20
121.6242759325984
 30
0.0
 10
231.9363946890073
 20
121.5897306573628
 30
0.0
 10
232.1179788631095
 20
121.5417559372608
 30
0.0
 10
232.2439607300835
 20
121.4846512977804
 30
0.0
 10
232.3044462007622
 20
121.4115861372877
 30
0.0
 10
232.3093443585082
 20
121.3700864481239
 30
0.0
 10
232.3118013826964
 20
121.3492692867819
 30
0.0
  0
SPLINE
  5
191
330
1F
100
AcDbEntity
  8
0
  6
Continuous
 62
     7
370
    18
100
AcDbSpline
210
0.0
220
0.0
230
1.0
 70
     8
 71
     3
 72
    12
 73
     8
 74
     0
 42
0.000000001
 43
0.00000001
 40
0.0
 40
0.0
 40
0.0
 40
0.0
 40
0.2059303301559971
 40
0.3857152088822362
 40
0.5622731912300346
 40
0.7785006333333745
 40
1.0
 40
1.0
 40
1.0
 40
1.0
 10
231.1388539392582
 20
122.2239947524159
 30
0.0
 10
231.1438227809826
 20
122.1615949064611
 30
0.0
 10
231.1531296073358
 20
122.0447176616256
 30
0.0
 10
231.2419556370561
 20
121.8947832104994
 30
0.0
 10
231.3742232782403
 20
121.7820493162108
 30
0.0
 10
231.5413153252042
 20
121.6999894216394
 30
0.0
 10
231.6672415690302
 20
121.6619284116939
 30
0.0
 10
231.730963010567
 20
121.6426687058027
 30
0.0
  0
SPLINE
  5
192
330
1F
100
AcDbEntity
  8
0
  6
Continuous
 62
     7
370
    18
100
AcDbSpline
210
0.0
220
0.0
230
1.0
 70
     8
 71
     3
 72
    14
 73
    10
 74
     0
 42
0.000000001
 43
0.00000001
 40
0.0
 40
0.0
 40
0.0
 40
0.0
 40
0.1687571149027776
 40
0.3389805425085095
 40
0.5046286467510799
 40
0.6247827513896844
 40
0.7433698504427163
 40
0.8656643973442318
 40
1.0
 40
1.0
 40
1.0
 40
1.0
 10
231.9632766849973
 20
122.8362610357185
 30
0.0
 10
231.8987410986694
 20
122.8334328140674
 30
0.0
 10
231.7691091831372
 20
122.8277517966467
 30
0.0
 10
231.5806258467274
 20
122.781447999967
 30
0.0
 10
231.4204944385887
 20
122.7095427692313
 30
0.0
 10
231.2962388533412
 20
122.6155487959881
 30
0.0
 10
231.2084159008503
 20
122.5075696330399
 30
0.0
 10
231.1491325409542
 20
122.3740125018337
 30
0.0
 10
231.1423856607593
 20
122.2755407629373
 30
0.0
 10
231.1388539392582
 20
122.2239947524159
 30
0.0
  0
SPLINE
  5
193
330
1F
100
AcDbEntity
  8
0
  6
Continuous
 62
     7
370
    18
100
AcDbSpline
210
0.0
220
0.0
230
1.0
 70
     8
 71
     3
 72
    12
 73
     8
 74
     0
 42
0.000000001
 43
0.00000001
 40
0.0
 40
0.0
 40
0.0
 40
0.0
 40
0.1993974480574488
 40
0.3779257523812734
 40
0.5550669356786548
 40
0.7731143074051408
 40
1.0
 40
1.0
 40
1.0
 40
1.0
 10
232.773647180798
 20
122.1873288560472
 30
0.0
 10
232.7662602868901
 20
122.2650806901539
 30
0.0
 10
232.7522596190526
 20
122.4124467707635
 30
0.0
 10
232.6321319216918
 20
122.5994632565779
 30
0.0
 10
232.4533150008878
 20
122.7352254309476
 30
0.0
 10
232.2236023273661
 20
122.8207416711129
 30
0.0
 10
232.0511934974724
 20
122.8310198575719
 30
0.0
 10
231.9632766849973
 20
122.8362610357185
 30
0.0
  0
LINE
  5
194
330
1F
100
AcDbEntity
  8
0
  6
Continuous
 62
     7
370
    18
100
AcDbLine
 10
232.2466697461
 20
122.187328856
 30
0.0
 11
232.7736471808
 21
122.187328856
 31
0.0
  0
SPLINE
  5
195
330
1F
100
AcDbEntity
  8
0
  6
Continuous
 62
     7
370
    18
100
AcDbSpline
210
0.0
220
0.0
230
1.0
 70
     8
 71
     3
 72
    13
 73
     9
 74
     0
 42
0.000000001
 43
0.00000001
 40
0.0
 40
0.0
 40
0.0
 40
0.0
 40
0.2626041787201647
 40
0.5099839566452393
 40
0.6263386331431423
 40
0.7414049134888157
 40
0.8625801387792016
 40
1.0
 40
1.0
 40
1.0
 40
1.0
 10
231.920758694824
 20
122.4299559427073
 30
0.0
 10
231.9611012524298
 20
122.4279359095053
 30
0.0
 10
232.0394475196115
 20
122.424012953938
 30
0.0
 10
232.1321823331724
 20
122.3910923905453
 30
0.0
 10
232.1914319212261
 20
122.3465521423351
 30
0.0
 10
232.2248172919853
 20
122.3031318319293
 30
0.0
 10
232.2456720656364
 20
122.248483324672
 30
0.0
 10
232.2463235442369
 20
122.2085498696468
 30
0.0
 10
232.2466697460928
 20
122.1873288560472
 30
0.0
  0
SPLINE
  5
196
330
1F
100
AcDbEntity
  8
0
  6
Continuous
 62
     7
370
    18
100
AcDbSpline
210
0.0
220
0.0
230
1.0
 70
     8
 71
     3
 72
    12
 73
     8
 74
     0
 42
0.000000001
 43
0.00000001
 40
0.0
 40
0.0
 40
0.0
 40
0.0
 40
0.1338350776842971
 40
0.2542572338768617
 40
0.4899325118164021
 40
0.7434916633797841
 40
0.9999999999999999
 40
0.9999999999999999
 40
0.9999999999999999
 40
0.9999999999999999
 10
231.6659036220351
 20
122.2578610360076
 30
0.0
 10
231.667011607534
 20
122.2732375642236
 30
0.0
 10
231.6691165364735
 20
122.3024495884438
 30
0.0
 10
231.6939204921403
 20
122.3541062257312
 30
0.0
 10
231.7505150758714
 20
122.3994374596928
 30
0.0
 10
231.8330209902952
 20
122.4254812241618
 30
0.0
 10
231.8914002779272
 20
122.4284586314514
 30
0.0
 10
231.920758694824
 20
122.4299559427073
 30
0.0
  0
SPLINE
  5
197
330
1F
100
AcDbEntity
  8
0
  6
Continuous
 62
     7
370
    18
100
AcDbSpline
210
0.0
220
0.0
230
1.0
 70
     8
 71
     3
 72
    12
 73
     8
 74
     0
 42
0.000000001
 43
0.00000001
 40
0.0
 40
0.0
 40
0.0
 40
0.0
 40
0.3295920737084764
 40
0.6175980183821557
 40
0.8358975487564522
 40
0.9197397490046714
 40
1.0
 40
1.0
 40
1.0
 40
1.0
 10
232.2523050956825
 20
121.9925661168634
 30
0.0
 10
232.1803081143989
 20
122.0107311558171
 30
0.0
 10
232.0453983379899
 20
122.0447692682492
 30
0.0
 10
231.8629164894134
 20
122.0891606833943
 30
0.0
 10
231.7372506038975
 20
122.1378802571839
 30
0.0
 10
231.6739145145446
 20
122.2020564207861
 30
0.0
 10
231.6685347774349
 20
122.2395321650983
 30
0.0
 10
231.6659036220351
 20
122.2578610360076
 30
0.0
  0
SPLINE
  5
198
330
1F
100
AcDbEntity
  8
0
  6
Continuous
 62
     7
370
    18
100
AcDbSpline
210
0.0
220
0.0
230
1.0
 70
     8
 71
     3
 72
    12
 73
     8
 74
     0
 42
0.000000001
 43
0.00000001
 40
0.0
 40
0.0
 40
0.0
 40
0.0
 40
0.204537882118415
 40
0.3838943514216871
 40
0.5601975822227048
 40
0.776616796224273
 40
1.0
 40
1.0
 40
1.0
 40
1.0
 10
232.8387788174016
 20
121.4113303803398
 30
0.0
 10
232.8339148585735
 20
121.4729569009474
 30
0.0
 10
232.8247857608225
 20
121.5886228739884
 30
0.0
 10
232.7381142013418
 20
121.7378407400968
 30
0.0
 10
232.6080389865681
 20
121.8514728013576
 30
0.0
 10
232.4420909187606
 20
121.9350927106273
 30
0.0
 10
232.3162313386718
 20
121.973207142242
 30
0.0
 10
232.2523050956825
 20
121.9925661168634
 30
0.0
  0
SPLINE
  5
199
330
1F
100
AcDbEntity
  8
0
  6
Continuous
 62
     7
370
    18
100
AcDbSpline
210
0.0
220
0.0
230
1.0
 70
     8
 71
     3
 72
    13
 73
     9
 74
     0
 42
0.000000001
 43
0.00000001
 40
0.0
 40
0.0
 40
0.0
 40
0.0
 40
0.1943984829390971
 40
0.3808229110812409
 40
0.5574598692554751
 40
0.6939226743571332
 40
0.8373010797229384
 40
1.0
 40
1.0
 40
1.0
 40
1.0
 10
231.9575690873359
 20
120.7108853255734
 30
0.0
 10
232.039810614744
 20
120.7145625604573
 30
0.0
 10
232.2009201944372
 20
120.7217661932843
 30
0.0
 10
232.429683361812
 20
120.7865466032588
 30
0.0
 10
232.6154205836623
 20
120.8934476572113
 30
0.0
 10
232.7459758107449
 20
121.0387122596624
 30
0.0
 10
232.8256672755857
 20
121.2123324987862
 30
0.0
 10
232.8342281736453
 20
121.3422638678021
 30
0.0
 10
232.8387788174016
 20
121.4113303803398
 30
0.0
  0
SPLINE
  5
19A
330
1F
100
AcDbEntity
  8
0
  6
Continuous
 62
     7
370
    18
100
AcDbSpline
210
0.0
220
0.0
230
1.0
 70
     8
 71
     3
 72
    12
 73
     8
 74
     0
 42
0.000000001
 43
0.00000001
 40
0.0
 40
0.0
 40
0.0
 40
0.0
 40
0.1886637132768469
 40
0.3661825608804964
 40
0.5448728808046002
 40
0.7656579321773193
 40
0.9999999999999999
 40
0.9999999999999999
 40
0.9999999999999999
 40
0.9999999999999999
 10
231.0965888173358
 20
121.2906399766279
 30
0.0
 10
231.116824405763
 20
121.2221237696572
 30
0.0
 10
231.1561002127665
 20
121.0891387896915
 30
0.0
 10
231.2894062326743
 20
120.9273336080907
 30
0.0
 10
231.4699860862215
 20
120.804704339402
 30
0.0
 10
231.6982775892453
 20
120.7251319232993
 30
0.0
 10
231.869439107091
 20
120.715727568321
 30
0.0
 10
231.9575690873359
 20
120.7108853255734
 30
0.0
  0
LINE
  5
19B
330
1F
100
AcDbEntity
  8
0
  6
Continuous
 62
     7
370
    18
100
AcDbLine
 10
228.6651160896
 20
121.4531620138
 30
0.0
 11
228.4096830322
 21
122.2617082458
 31
0.0
  0
LINE
  5
19C
330
1F
100
AcDbEntity
  8
0
  6
Continuous
 62
     7
370
    18
100
AcDbLine
 10
228.4096830322
 20
122.2617082458
 30
0.0
 11
228.3273924786
 21
122.2617082458
 31
0.0
  0
LINE
  5
19D
330
1F
100
AcDbEntity
  8
0
  6
Continuous
 62
     7
370
    18
100
AcDbLine
 10
228.3273924786
 20
122.2617082458
 30
0.0
 11
228.0631812805
 21
121.4531620138
 31
0.0
  0
LINE
  5
19E
330
1F
100
AcDbEntity
  8
0
  6
Continuous
 62
     7
370
    18
100
AcDbLine
 10
228.0631812805
 20
121.4531620138
 30
0.0
 11
228.6651160896
 21
121.4531620138
 31
0.0
  0
LINE
  5
19F
330
1F
100
AcDbEntity
  8
0
  6
Continuous
 62
     7
370
    18
100
AcDbLine
 10
229.8260342291
 20
121.9236595185
 30
0.0
 11
230.2950687103
 21
121.9236595185
 31
0.0
  0
SPLINE
  5
1A0
330
1F
100
AcDbEntity
  8
0
  6
Continuous
 62
     7
370
    18
100
AcDbSpline
210
0.0
220
0.0
230
1.0
 70
     8
 71
     3
 72
    12
 73
     8
 74
     0
 42
0.000000001
 43
0.00000001
 40
0.0
 40
0.0
 40
0.0
 40
0.0
 40
0.242466320512141
 40
0.5040777209641408
 40
0.6506173645415592
 40
0.8119564965868009
 40
1.0
 40
1.0
 40
1.0
 40
1.0
 10
230.2950687103136
 20
121.9236595185155
 30
0.0
 10
230.3265369088253
 20
121.9266525409829
 30
0.0
 10
230.3919580269219
 20
121.9328749142221
 30
0.0
 10
230.4675349420603
 20
121.9779548550739
 30
0.0
 10
230.5136685132541
 20
122.0361974668261
 30
0.0
 10
230.5385208245755
 20
122.0966931962061
 30
0.0
 10
230.5412370555665
 20
122.1420770239309
 30
0.0
 10
230.5426989759364
 20
122.1665033493906
 30
0.0
  0
SPLINE
  5
1A1
330
1F
100
AcDbEntity
  8
0
  6
Continuous
 62
     7
370
    18
100
AcDbSpline
210
0.0
220
0.0
230
1.0
 70
     8
 71
     3
 72
    12
 73
     8
 74
     0
 42
0.000000001
 43
0.00000001
 40
0.0
 40
0.0
 40
0.0
 40
0.0
 40
0.23250610395507
 40
0.4222580038951598
 40
0.5928278045028524
 40
0.7922143842709269
 40
1.0
 40
1.0
 40
1.0
 40
1.0
 10
230.5426989759364
 20
122.1665033493906
 30
0.0
 10
230.5408772793214
 20
122.1973732714224
 30
0.0
 10
230.537568867356
 20
122.2534366238929
 30
0.0
 10
230.5033565844896
 20
122.3262376192094
 30
0.0
 10
230.4486835981471
 20
122.3780171884888
 30
0.0
 10
230.3765079006345
 20
122.408251154829
 30
0.0
 10
230.3225858700218
 20
122.4113686717485
 30
0.0
 10
230.2950687103136
 20
122.4129595838487
 30
0.0
  0
LINE
  5
1A2
330
1F
100
AcDbEntity
  8
0
  6
Continuous
 62
     7
370
    18
100
AcDbLine
 10
230.2950687103
 20
122.4129595838
 30
0.0
 11
229.8260342291
 21
122.4129595838
 31
0.0
  0
LINE
  5
1A3
330
1F
100
AcDbEntity
  8
0
  6
Continuous
 62
     7
370
    18
100
AcDbLine
 10
229.8260342291
 20
122.4129595838
 30
0.0
 11
229.8260342291
 21
121.9236595185
 31
0.0
  0
LINE
  5
1A4
330
1F
100
AcDbEntity
  8
0
  6
Continuous
 62
     7
370
    18
100
AcDbLine
 10
229.8260342291
 20
121.1257698771
 30
0.0
 11
230.3470150738
 21
121.1257698771
 31
0.0
  0
SPLINE
  5
1A5
330
1F
100
AcDbEntity
  8
0
  6
Continuous
 62
     7
370
    18
100
AcDbSpline
210
0.0
220
0.0
230
1.0
 70
     8
 71
     3
 72
    12
 73
     8
 74
     0
 42
0.000000001
 43
0.00000001
 40
0.0
 40
0.0
 40
0.0
 40
0.0
 40
0.2382584506408994
 40
0.4976556531040069
 40
0.6448887038896315
 40
0.8084522641844484
 40
0.9999999999999999
 40
0.9999999999999999
 40
0.9999999999999999
 40
0.9999999999999999
 10
230.3470150738389
 20
121.1257698770944
 30
0.0
 10
230.3820076163389
 20
121.1292388330279
 30
0.0
 10
230.4550973075746
 20
121.1364845173931
 30
0.0
 10
230.538959023538
 20
121.1888039569021
 30
0.0
 10
230.5898745447944
 20
121.2557574561743
 30
0.0
 10
230.6173428009656
 20
121.3253970629787
 30
0.0
 10
230.6203389706781
 20
121.3775588562448
 30
0.0
 10
230.6219551105499
 20
121.4056950307502
 30
0.0
  0
SPLINE
  5
1A6
330
1F
100
AcDbEntity
  8
0
  6
Continuous
 62
     7
370
    18
100
AcDbSpline
210
0.0
220
0.0
230
1.0
 70
     8
 71
     3
 72
    12
 73
     8
 74
     0
 42
0.000000001
 43
0.00000001
 40
0.0
 40
0.0
 40
0.0
 40
0.0
 40
0.2366945835519308
 40
0.4286648826954234
 40
0.5991110185125298
 40
0.7959723284782185
 40
1.0
 40
1.0
 40
1.0
 40
1.0
 10
230.6219551105499
 20
121.4056950307502
 30
0.0
 10
230.6199416832544
 20
121.4412289129132
 30
0.0
 10
230.6162952729204
 20
121.5055824236717
 30
0.0
 10
230.5785702495255
 20
121.5893068999375
 30
0.0
 10
230.5180106146467
 20
121.6491278911538
 30
0.0
 10
230.4376681086588
 20
121.6842183761532
 30
0.0
 10
230.3775907366491
 20
121.6878286636204
 30
0.0
 10
230.3470150738389
 20
121.6896660764191
 30
0.0
  0
LINE
  5
1A7
330
1F
100
AcDbEntity
  8
0
  6
Continuous
 62
     7
370
    18
100
AcDbLine
 10
230.3470150738
 20
121.6896660764
 30
0.0
 11
229.8260342291
 21
121.6896660764
 31
0.0
  0
LINE
  5
1A8
330
1F
100
AcDbEntity
  8
0
  6
Continuous
 62
     7
370
    18
100
AcDbLine
 10
229.8260342291
 20
121.6896660764
 30
0.0
 11
229.8260342291
 21
121.1257698771
 31
0.0
  0
SPLINE
  5
1A9
330
1F
100
AcDbEntity
  8
0
  6
Continuous
 62
     7
370
    18
100
AcDbSpline
210
0.0
220
0.0
230
1.0
 70
     8
 71
     3
 72
    13
 73
     9
 74
     0
 42
0.000000001
 43
0.00000001
 40
0.0
 40
0.0
 40
0.0
 40
0.0
 40
0.5894795511906018
 40
0.8525979839264193
 40
0.9412877217975723
 40
0.9634735681078221
 40
0.9825903643577696
 40
1.0
 40
1.0
 40
1.0
 40
1.0
 10
231.9606757544174
 20
122.2960260798632
 30
0.0
 10
231.9229577110871
 20
122.2940981075051
 30
0.0
 10
231.8684039481345
 20
122.2913095708336
 30
0.0
 10
231.8098754804338
 20
122.2769094443389
 30
0.0
 10
231.7880348267733
 20
122.2660899816204
 30
0.0
 10
231.7821916705366
 20
122.2601662416734
 30
0.0
 10
231.7801409040393
 20
122.2569114566081
 30
0.0
 10
231.7798629435634
 20
122.2545699423132
 30
0.0
 10
231.7797304589391
 20
122.2534539036362
 30
0.0
  0
SPLINE
  5
1AA
330
1F
100
AcDbEntity
  8
0
  6
Continuous
 62
     7
370
    18
100
AcDbSpline
210
0.0
220
0.0
230
1.0
 70
     8
 71
     3
 72
    12
 73
     8
 74
     0
 42
0.000000001
 43
0.00000001
 40
0.0
 40
0.0
 40
0.0
 40
0.0
 40
0.1687932262470754
 40
0.3139712558223841
 40
0.4643534436981239
 40
0.6895611553267716
 40
1.0
 40
1.0
 40
1.0
 40
1.0
 10
232.1309644593256
 20
122.1949329655897
 30
0.0
 10
232.1285046520722
 20
122.2071635307569
 30
0.0
 10
232.1239291795274
 20
122.2299135308035
 30
0.0
 10
232.105369612577
 20
122.2597819050963
 30
0.0
 10
232.0725749056557
 20
122.2813156561985
 30
0.0
 10
232.0228270414431
 20
122.2930735900671
 30
0.0
 10
231.9834798043596
 20
122.2949427760736
 30
0.0
 10
231.9606757544174
 20
122.2960260798632
 30
0.0
  0
SPLINE
  5
1AB
330
1F
100
AcDbEntity
  8
0
  6
Continuous
 62
     7
370
    18
100
AcDbSpline
210
0.0
220
0.0
230
1.0
 70
     8
 71
     3
 72
     9
 73
     5
 74
     0
 42
0.000000001
 43
0.00000001
 40
0.0
 40
0.0
 40
0.0
 40
0.0
 40
0.5915228225857646
 40
0.9999999999999999
 40
0.9999999999999999
 40
0.9999999999999999
 40
0.9999999999999999
 10
232.1362746925927
 20
122.1108000861389
 30
0.0
 10
232.1363458789604
 20
122.1274693518003
 30
0.0
 10
232.1364662232057
 20
122.155649609645
 30
0.0
 10
232.1325600442712
 20
122.1835402681339
 30
0.0
 10
232.1309644593256
 20
122.1949329655897
 30
0.0
  0
SPLINE
  5
1AC
330
1F
100
AcDbEntity
  8
0
  6
Continuous
 62
     7
370
    18
100
AcDbSpline
210
0.0
220
0.0
230
1.0
 70
     8
 71
     3
 72
    13
 73
     9
 74
     0
 42
0.000000001
 43
0.00000001
 40
0.0
 40
0.0
 40
0.0
 40
0.0
 40
0.0518958002713987
 40
0.1049388400652582
 40
0.1730026251899479
 40
0.2659228894279218
 40
0.5508780002890717
 40
0.9999999999999999
 40
0.9999999999999999
 40
0.9999999999999999
 40
0.9999999999999999
 10
231.779730458939
 20
122.2534539036362
 30
0.0
 10
231.7803626933672
 20
122.2464344550863
 30
0.0
 10
231.7816411387749
 20
122.232240381869
 30
0.0
 10
231.7966217818457
 20
122.2133266927371
 30
0.0
 10
231.8210799360674
 20
122.1983333811039
 30
0.0
 10
231.8764705576224
 20
122.1763754469499
 30
0.0
 10
231.9833527313865
 20
122.148920226408
 30
0.0
 10
232.0782281504514
 20
122.1252698347029
 30
0.0
 10
232.1362746925927
 20
122.1108000861389
 30
0.0
  0
LINE
  5
1AD
330
1F
100
AcDbEntity
  8
0
  6
Continuous
 62
     7
370
    18
100
AcDbLine
 10
226.6548496196
 20
122.9048967038
 30
0.0
 11
225.8942219211
 21
122.9048967038
 31
0.0
  0
LINE
  5
1AE
330
1F
100
AcDbEntity
  8
0
  6
Continuous
 62
     7
370
    18
100
AcDbLine
 10
226.6548496196
 20
121.309915816
 30
0.0
 11
226.6548496196
 21
122.9048967038
 31
0.0
  0
LINE
  5
1AF
330
1F
100
AcDbEntity
  8
0
  6
Continuous
 62
     7
370
    18
100
AcDbLine
 10
227.4211463974
 20
121.309915816
 30
0.0
 11
226.6548496196
 21
121.309915816
 31
0.0
  0
LINE
  5
1B0
330
1F
100
AcDbEntity
  8
0
  6
Continuous
 62
     7
370
    18
100
AcDbLine
 10
228.0331355323
 20
122.9048967038
 30
0.0
 11
227.4211463974
 21
121.309915816
 31
0.0
  0
LINE
  5
1B1
330
1F
100
AcDbEntity
  8
0
  6
Continuous
 62
     7
370
    18
100
AcDbLine
 10
228.7244278271
 20
122.9048967038
 30
0.0
 11
228.0331355323
 21
122.9048967038
 31
0.0
  0
LINE
  5
1B2
330
1F
100
AcDbEntity
  8
0
  6
Continuous
 62
     7
370
    18
100
AcDbLine
 10
229.2411460357
 20
121.5106353548
 30
0.0
 11
228.7244278271
 21
122.9048967038
 31
0.0
  0
LINE
  5
1B3
330
1F
100
AcDbEntity
  8
0
  6
Continuous
 62
     7
370
    18
100
AcDbLine
 10
229.2411460357
 20
122.9048967038
 30
0.0
 11
229.2411460357
 21
121.5106353548
 31
0.0
  0
LINE
  5
1B4
330
1F
100
AcDbEntity
  8
0
  6
Continuous
 62
     7
370
    18
100
AcDbLine
 10
230.2292361491
 20
122.9048967038
 30
0.0
 11
229.2411460357
 21
122.9048967038
 31
0.0
  0
SPLINE
  5
1B5
330
1F
100
AcDbEntity
  8
0
  6
Continuous
 62
     7
370
    18
100
AcDbSpline
210
0.0
220
0.0
230
1.0
 70
     8
 71
     3
 72
    13
 73
     9
 74
     0
 42
0.000000001
 43
0.00000001
 40
0.0
 40
0.0
 40
0.0
 40
0.0
 40
0.112989412323011
 40
0.234903504206832
 40
0.3805358024040053
 40
0.5310429421797463
 40
0.731913786230743
 40
1.0
 40
1.0
 40
1.0
 40
1.0
 10
231.0983804512123
 20
122.5004339366139
 30
0.0
 10
231.0813581137831
 20
122.5352754743841
 30
0.0
 10
231.0459688978408
 20
122.6077105737965
 30
0.0
 10
230.9729159741647
 20
122.7177396450446
 30
0.0
 10
230.8546586471545
 20
122.8046831575444
 30
0.0
 10
230.6932180146833
 20
122.8634639678651
 30
0.0
 10
230.482537850149
 20
122.8995199009971
 30
0.0
 10
230.3213700801726
 20
122.9029409886306
 30
0.0
 10
230.2292361491142
 20
122.9048967037977
 30
0.0
  0
SPLINE
  5
1B6
330
1F
100
AcDbEntity
  8
0
  6
Continuous
 62
     7
370
    18
100
AcDbSpline
210
0.0
220
0.0
230
1.0
 70
     8
 71
     3
 72
    12
 73
     8
 74
     0
 42
0.000000001
 43
0.00000001
 40
0.0
 40
0.0
 40
0.0
 40
0.0
 40
0.2577824677168405
 40
0.4746472252827225
 40
0.6603530347935911
 40
0.8468286435267817
 40
1.0
 40
1.0
 40
1.0
 40
1.0
 10
231.9551342090202
 20
122.9261737609022
 30
0.0
 10
231.8688728098494
 20
122.9221016647348
 30
0.0
 10
231.7100422496175
 20
122.9146038346299
 30
0.0
 10
231.4967036551549
 20
122.8499494138498
 30
0.0
 10
231.3235372868562
 20
122.7548444971728
 30
0.0
 10
231.1887250714827
 20
122.6386675669848
 30
0.0
 10
231.1264601865389
 20
122.5433979088176
 30
0.0
 10
231.0983804512123
 20
122.5004339366139
 30
0.0
  0
SPLINE
  5
1B7
330
1F
100
AcDbEntity
  8
0
  6
Continuous
 62
     7
370
    18
100
AcDbSpline
210
0.0
220
0.0
230
1.0
 70
     8
 71
     3
 72
    15
 73
    11
 74
     0
 42
0.000000001
 43
0.00000001
 40
0.0
 40
0.0
 40
0.0
 40
0.0
 40
0.1009667219583008
 40
0.2110426783902178
 40
0.3263227887254707
 40
0.4481367482187079
 40
0.5538549368465843
 40
0.6756292865222512
 40
0.8215985201030968
 40
0.9999999999999999
 40
0.9999999999999999
 40
0.9999999999999999
 40
0.9999999999999999
 10
232.8864841008196
 20
122.0786677562671
 30
0.0
 10
232.885615054238
 20
122.1274957675301
 30
0.0
 10
232.8837985555476
 20
122.2295570613659
 30
0.0
 10
232.8595074601889
 20
122.3861062782623
 30
0.0
 10
232.8034628171647
 20
122.5457445515334
 30
0.0
 10
232.7074526034261
 20
122.6839380917357
 30
0.0
 10
232.5749502852527
 20
122.7914141807923
 30
0.0
 10
232.4099345946927
 20
122.8681966787816
 30
0.0
 10
232.1985044897304
 20
122.9181030649682
 30
0.0
 10
232.0414906519854
 20
122.9233099905558
 30
0.0
 10
231.9551342090202
 20
122.9261737609022
 30
0.0
  0
LINE
  5
1B8
330
1F
100
AcDbEntity
  8
0
  6
Continuous
 62
     7
370
    18
100
AcDbLine
 10
232.2699528234
 20
122.0786677563
 30
0.0
 11
232.8864841008
 21
122.0786677563
 31
0.0
  0
SPLINE
  5
1B9
330
1F
100
AcDbEntity
  8
0
  6
Continuous
 62
     7
370
    18
100
AcDbSpline
210
0.0
220
0.0
230
1.0
 70
     8
 71
     3
 72
     9
 73
     5
 74
     0
 42
0.000000001
 43
0.00000001
 40
0.0
 40
0.0
 40
0.0
 40
0.0
 40
0.5581053349214891
 40
1.0
 40
1.0
 40
1.0
 40
1.0
 10
232.285305538634
 20
122.0746579882898
 30
0.0
 10
232.2824527442977
 20
122.0754167906001
 30
0.0
 10
232.2773411745673
 20
122.0767763947158
 30
0.0
 10
232.2722171170751
 20
122.078088114356
 30
0.0
 10
232.2699528234057
 20
122.0786677562671
 30
0.0
  0
SPLINE
  5
1BA
330
1F
100
AcDbEntity
  8
0
  6
Continuous
 62
     7
370
    18
100
AcDbSpline
210
0.0
220
0.0
230
1.0
 70
     8
 71
     3
 72
    12
 73
     8
 74
     0
 42
0.000000001
 43
0.00000001
 40
0.0
 40
0.0
 40
0.0
 40
0.0
 40
0.2081936773952725
 40
0.3823854809342378
 40
0.5475549960392785
 40
0.7576294387459017
 40
1.0
 40
1.0
 40
1.0
 40
1.0
 10
232.9290384186137
 20
121.3561699712452
 30
0.0
 10
232.9267189370282
 20
121.4301404949677
 30
0.0
 10
232.9224587880521
 20
121.5660007892977
 30
0.0
 10
232.8470374761434
 20
121.7492868106861
 30
0.0
 10
232.7130564339329
 20
121.8941711803521
 30
0.0
 10
232.5199643592856
 20
122.0019954768742
 30
0.0
 10
232.3671609156749
 20
122.0493113286068
 30
0.0
 10
232.285305538634
 20
122.0746579882898
 30
0.0
  0
SPLINE
  5
1BB
330
1F
100
AcDbEntity
  8
0
  6
Continuous
 62
     7
370
    18
100
AcDbSpline
210
0.0
220
0.0
230
1.0
 70
     8
 71
     3
 72
    13
 73
     9
 74
     0
 42
0.000000001
 43
0.00000001
 40
0.0
 40
0.0
 40
0.0
 40
0.0
 40
0.2144903110109673
 40
0.41084553964239
 40
0.5926499974110345
 40
0.7287207904635483
 40
0.8627130606487939
 40
1.0
 40
1.0
 40
1.0
 40
1.0
 10
231.9883480870034
 20
120.585857929024
 30
0.0
 10
232.0851032027323
 20
120.5925318709535
 30
0.0
 10
232.2704328222731
 20
120.6053154753068
 30
0.0
 10
232.5228082998765
 20
120.7028549834803
 30
0.0
 10
232.7131365073171
 20
120.8398909094623
 30
0.0
 10
232.8398690642938
 20
121.0010719984715
 30
0.0
 10
232.9159894173955
 20
121.1715592080316
 30
0.0
 10
232.9246536759136
 20
121.2941368176864
 30
0.0
 10
232.9290384186137
 20
121.3561699712452
 30
0.0
  0
SPLINE
  5
1BC
330
1F
100
AcDbEntity
  8
0
  6
Continuous
 62
     7
370
    18
100
AcDbSpline
210
0.0
220
0.0
230
1.0
 70
     8
 71
     3
 72
    12
 73
     8
 74
     0
 42
0.000000001
 43
0.00000001
 40
0.0
 40
0.0
 40
0.0
 40
0.0
 40
0.1266166298736492
 40
0.2732454724470877
 40
0.4461934828620917
 40
0.6934352669522343
 40
1.0
 40
1.0
 40
1.0
 40
1.0
 10
231.0946934416743
 20
121.0232498634055
 30
0.0
 10
231.1138176376388
 20
120.982922800392
 30
0.0
 10
231.1550886773648
 20
120.895894837347
 30
0.0
 10
231.2702511303661
 20
120.7857344941778
 30
0.0
 10
231.4413605558842
 20
120.6835319750561
 30
0.0
 10
231.6869401522582
 20
120.6054137116322
 30
0.0
 10
231.8809513753702
 20
120.5928259829583
 30
0.0
 10
231.9883480870034
 20
120.585857929024
 30
0.0
  0
SPLINE
  5
1BD
330
1F
100
AcDbEntity
  8
0
  6
Continuous
 62
     7
370
    18
100
AcDbSpline
210
0.0
220
0.0
230
1.0
 70
     8
 71
     3
 72
    11
 73
     7
 74
     0
 42
0.000000001
 43
0.00000001
 40
0.0
 40
0.0
 40
0.0
 40
0.0
 40
0.310424843595751
 40
0.6000686931456386
 40
0.808012383528743
 40
1.0
 40
1.0
 40
1.0
 40
1.0
 10
230.4336235859638
 20
120.6685479555792
 30
0.0
 10
230.5153161488217
 20
120.6757393245988
 30
0.0
 10
230.6732324704215
 20
120.6896406456384
 30
0.0
 10
230.8702940647548
 20
120.7753547930922
 30
0.0
 10
231.0184446963309
 20
120.886010443143
 30
0.0
 10
231.0699623268197
 20
120.9787365556808
 30
0.0
 10
231.0946934416743
 20
121.0232498634055
 30
0.0
  0
LINE
  5
1BE
330
1F
100
AcDbEntity
  8
0
  6
Continuous
 62
     7
370
    18
100
AcDbLine
 10
228.7620071644
 20
120.6685479556
 30
0.0
 11
230.433623586
 21
120.6685479556
 31
0.0
  0
LINE
  5
1BF
330
1F
100
AcDbEntity
  8
0
  6
Continuous
 62
     7
370
    18
100
AcDbLine
 10
228.6342725737
 20
120.9985048989
 30
0.0
 11
228.7620071644
 21
120.6685479556
 31
0.0
  0
LINE
  5
1C0
330
1F
100
AcDbEntity
  8
0
  6
Continuous
 62
     7
370
    18
100
AcDbLine
 10
228.0915089354
 20
120.9985048989
 30
0.0
 11
228.6342725737
 21
120.9985048989
 31
0.0
  0
LINE
  5
1C1
330
1F
100
AcDbEntity
  8
0
  6
Continuous
 62
     7
370
    18
100
AcDbLine
 10
227.9583918633
 20
120.6685479556
 30
0.0
 11
228.0915089354
 21
120.9985048989
 31
0.0
  0
LINE
  5
1C2
330
1F
100
AcDbEntity
  8
0
  6
Continuous
 62
     7
370
    18
100
AcDbLine
 10
225.349864889
 20
120.6685479556
 30
0.0
 11
227.9583918633
 21
120.6685479556
 31
0.0
  0
SPLINE
  5
1C3
330
1F
100
AcDbEntity
  8
0
  6
Continuous
 62
     7
370
    18
100
AcDbSpline
210
0.0
220
0.0
230
1.0
 70
     8
 71
     3
 72
    11
 73
     7
 74
     0
 42
0.000000001
 43
0.00000001
 40
0.0
 40
0.0
 40
0.0
 40
0.0
 40
0.2274736611129912
 40
0.5494925387673759
 40
0.8007169048877155
 40
1.0
 40
1.0
 40
1.0
 40
1.0
 10
225.2837940274764
 20
121.0259591660929
 30
0.0
 10
225.2859599597738
 20
120.9983004855363
 30
0.0
 10
225.2911920540352
 20
120.9314873058317
 30
0.0
 10
225.3020364836679
 20
120.8346987306236
 30
0.0
 10
225.316738542938
 20
120.7408607439209
 30
0.0
 10
225.3397054296122
 20
120.6907254343625
 30
0.0
 10
225.3498648890117
 20
120.6685479555792
 30
0.0
  0
SPLINE
  5
1C4
330
1F
100
AcDbEntity
  8
0
  6
Continuous
 62
     7
370
    18
100
AcDbSpline
210
0.0
220
0.0
230
1.0
 70
     8
 71
     3
 72
    13
 73
     9
 74
     0
 42
0.000000001
 43
0.00000001
 40
0.0
 40
0.0
 40
0.0
 40
0.0
 40
0.1455849753971007
 40
0.2684075940997147
 40
0.3810001390981569
 40
0.4935379506791319
 40
0.7360826269615456
 40
1.0
 40
1.0
 40
1.0
 40
1.0
 10
224.9564922008281
 20
121.4837590721813
 30
0.0
 10
224.9874928461192
 20
121.4821069526169
 30
0.0
 10
225.0446471547657
 20
121.4790610240363
 30
0.0
 10
225.1211106057303
 20
121.4484275916491
 30
0.0
 10
225.1788600468172
 20
121.4007810879793
 30
0.0
 10
225.2346071415431
 20
121.3174291900788
 30
0.0
 10
225.270487679295
 20
121.1886861775298
 30
0.0
 10
225.2792355250621
 20
121.0817063526537
 30
0.0
 10
225.2837940274764
 20
121.0259591660929
 30
0.0
  0
LINE
  5
1C5
330
1F
100
AcDbEntity
  8
0
  6
Continuous
 62
     7
370
    18
100
AcDbLine
 10
224.5125639245
 20
121.4837590722
 30
0.0
 11
224.9564922008
 21
121.4837590722
 31
0.0
  0
LINE
  5
1C6
330
1F
100
AcDbEntity
  8
0
  6
Continuous
 62
     7
370
    18
100
AcDbLine
 10
224.5125639245
 20
120.6685479556
 30
0.0
 11
224.5125639245
 21
121.4837590722
 31
0.0
  0
LINE
  5
1C7
330
1F
100
AcDbEntity
  8
0
  6
Continuous
 62
     7
370
    18
100
AcDbLine
 10
223.927051425
 20
120.6685479556
 30
0.0
 11
224.5125639245
 21
120.6685479556
 31
0.0
  0
LINE
  5
1C8
330
1F
100
AcDbEntity
  8
0
  6
Continuous
 62
     7
370
    18
100
AcDbLine
 10
223.927051425
 20
122.9048967038
 30
0.0
 11
223.927051425
 21
120.6685479556
 31
0.0
  0
LINE
  5
1C9
330
1F
100
AcDbEntity
  8
0
  6
Continuous
 62
     7
370
    18
100
AcDbLine
 10
225.0729058416
 20
122.9048967038
 30
0.0
 11
223.927051425
 21
122.9048967038
 31
0.0
  0
SPLINE
  5
1CA
330
1F
100
AcDbEntity
  8
0
  6
Continuous
 62
     7
370
    18
100
AcDbSpline
210
0.0
220
0.0
230
1.0
 70
     8
 71
     3
 72
    12
 73
     8
 74
     0
 42
0.000000001
 43
0.00000001
 40
0.0
 40
0.0
 40
0.0
 40
0.0
 40
0.2016496499629003
 40
0.3794039236986333
 40
0.5547793395586197
 40
0.7718110801448012
 40
1.0
 40
1.0
 40
1.0
 40
1.0
 10
225.8598679621738
 20
122.2747670847766
 30
0.0
 10
225.853372724855
 20
122.3515058641626
 30
0.0
 10
225.8411519323839
 20
122.4958899184084
 30
0.0
 10
225.7258404462375
 20
122.6794638646177
 30
0.0
 10
225.551754800449
 20
122.8105370334046
 30
0.0
 10
225.3273323748842
 20
122.8908867002851
 30
0.0
 10
225.1591198152463
 20
122.9001493291504
 30
0.0
 10
225.0729058415916
 20
122.9048967037977
 30
0.0
  0
SPLINE
  5
1CB
330
1F
100
AcDbEntity
  8
0
  6
Continuous
 62
     7
370
    18
100
AcDbSpline
210
0.0
220
0.0
230
1.0
 70
     8
 71
     3
 72
    11
 73
     7
 74
     0
 42
0.000000001
 43
0.00000001
 40
0.0
 40
0.0
 40
0.0
 40
0.0
 40
0.2852648350196983
 40
0.5586037747029561
 40
0.7765581993729921
 40
1.0
 40
1.0
 40
1.0
 40
1.0
 10
225.5072612484257
 20
121.7135801881393
 30
0.0
 10
225.5675531451664
 20
121.7445625172674
 30
0.0
 10
225.6856163515935
 20
121.8052319159293
 30
0.0
 10
225.7931063349121
 20
121.9594198584762
 30
0.0
 10
225.8504725096564
 20
122.1184328757905
 30
0.0
 10
225.8567102955748
 20
122.2222255697107
 30
0.0
 10
225.8598679621738
 20
122.2747670847766
 30
0.0
  0
LINE
  5
1CC
330
1F
100
AcDbEntity
  8
0
  6
Continuous
 62
     7
370
    18
100
AcDbLine
 10
225.5072612484
 20
121.7072946059
 30
0.0
 11
225.5072612484
 21
121.7135801881
 31
0.0
  0
SPLINE
  5
1CD
330
1F
100
AcDbEntity
  8
0
  6
Continuous
 62
     7
370
    18
100
AcDbSpline
210
0.0
220
0.0
230
1.0
 70
     8
 71
     3
 72
    11
 73
     7
 74
     0
 42
0.000000001
 43
0.00000001
 40
0.0
 40
0.0
 40
0.0
 40
0.0
 40
0.2808304286447809
 40
0.5635450978390043
 40
0.7771991270060353
 40
1.0
 40
1.0
 40
1.0
 40
1.0
 10
225.8347256332352
 20
121.171141666108
 30
0.0
 10
225.8270057383055
 20
121.2336051481319
 30
0.0
 10
225.8115141515694
 20
121.3589512128672
 30
0.0
 10
225.7502281463541
 20
121.5231402235772
 30
0.0
 10
225.6479119427066
 20
121.6548400795207
 30
0.0
 10
225.554795299175
 20
121.6895671703522
 30
0.0
 10
225.5072612484257
 20
121.7072946059143
 30
0.0
  0
SPLINE
  5
1CE
330
1F
100
AcDbEntity
  8
0
  6
Continuous
 62
     7
370
    18
100
AcDbSpline
210
0.0
220
0.0
230
1.0
 70
     8
 71
     3
 72
    11
 73
     7
 74
     0
 42
0.000000001
 43
0.00000001
 40
0.0
 40
0.0
 40
0.0
 40
0.0
 40
0.3074360073852246
 40
0.6261968550908564
 40
0.8442166228014018
 40
1.0
 40
1.0
 40
1.0
 40
1.0
 10
225.8929083503055
 20
120.7710212338116
 30
0.0
 10
225.8830675877486
 20
120.8113677563019
 30
0.0
 10
225.8630235642225
 20
120.8935470225245
 30
0.0
 10
225.8495951033592
 20
121.0068906750663
 30
0.0
 10
225.8408005451985
 20
121.0999205135841
 30
0.0
 10
225.8365126316997
 20
121.1501912241972
 30
0.0
 10
225.8347256332352
 20
121.171141666108
 30
0.0
  0
LINE
  5
1CF
330
1F
100
AcDbEntity
  8
0
  6
Continuous
 62
     7
370
    18
100
AcDbLine
 10
225.8942219211
 20
122.9048967038
 30
0.0
 11
225.8929083503
 21
120.7710212338
 31
0.0
  0
SPLINE
  5
1D0
330
1F
100
AcDbEntity
  8
0
  6
Continuous
 62
     7
370
    18
100
AcDbSpline
210
0.0
220
0.0
230
1.0
 70
     8
 71
     3
 72
    12
 73
     8
 74
     0
 42
0.000000001
 43
0.00000001
 40
0.0
 40
0.0
 40
0.0
 40
0.0
 40
0.2554031448979543
 40
0.5239992272002586
 40
0.6685053607654261
 40
0.822947353711822
 40
1.0
 40
1.0
 40
1.0
 40
1.0
 10
230.3171766202423
 20
121.2218236883695
 30
0.0
 10
230.3433070220806
 20
121.2240085392092
 30
0.0
 10
230.3969176006629
 20
121.2284911001111
 30
0.0
 10
230.4599223505641
 20
121.2611720448951
 30
0.0
 10
230.4990436668528
 20
121.3046534081437
 30
0.0
 10
230.5200725256968
 20
121.3497074457577
 30
0.0
 10
230.5223885088939
 20
121.3837302745832
 30
0.0
 10
230.5236254850174
 20
121.4019020069879
 30
0.0
  0
LINE
  5
1D1
330
1F
100
AcDbEntity
  8
0
  6
Continuous
 62
     7
370
    18
100
AcDbLine
 10
229.9259894362
 20
121.2218236884
 30
0.0
 11
230.3171766202
 21
121.2218236884
 31
0.0
  0
LINE
  5
1D2
330
1F
100
AcDbEntity
  8
0
  6
Continuous
 62
     7
370
    18
100
AcDbLine
 10
229.9259894362
 20
121.5846535043
 30
0.0
 11
229.9259894362
 21
121.2218236884
 31
0.0
  0
LINE
  5
1D3
330
1F
100
AcDbEntity
  8
0
  6
Continuous
 62
     7
370
    18
100
AcDbLine
 10
230.3171766202
 20
121.5846535043
 30
0.0
 11
229.9259894362
 21
121.5846535043
 31
0.0
  0
SPLINE
  5
1D4
330
1F
100
AcDbEntity
  8
0
  6
Continuous
 62
     7
370
    18
100
AcDbSpline
210
0.0
220
0.0
230
1.0
 70
     8
 71
     3
 72
    12
 73
     8
 74
     0
 42
0.000000001
 43
0.00000001
 40
0.0
 40
0.0
 40
0.0
 40
0.0
 40
0.2191709004622778
 40
0.4020322727962852
 40
0.5732124609680136
 40
0.7805893411712348
 40
1.0
 40
1.0
 40
1.0
 40
1.0
 10
230.5236254850174
 20
121.4019020069879
 30
0.0
 10
230.5220777983706
 20
121.4248833622501
 30
0.0
 10
230.5192388266874
 20
121.4670388056438
 30
0.0
 10
230.4900624408932
 20
121.5212957254659
 30
0.0
 10
230.4442530358359
 20
121.5592671385525
 30
0.0
 10
230.3845857932138
 20
121.5812007443697
 30
0.0
 10
230.3400647853622
 20
121.5834811513724
 30
0.0
 10
230.3171766202423
 20
121.5846535042578
 30
0.0
  0
SPLINE
  5
1D5
330
1F
100
AcDbEntity
  8
0
  6
Continuous
 62
     7
370
    18
100
AcDbSpline
210
0.0
220
0.0
230
1.0
 70
     8
 71
     3
 72
    12
 73
     8
 74
     0
 42
0.000000001
 43
0.00000001
 40
0.0
 40
0.0
 40
0.0
 40
0.0
 40
0.2631780919768604
 40
0.5362228315034394
 40
0.6796343489711612
 40
0.8298665817545476
 40
1.0
 40
1.0
 40
1.0
 40
1.0
 10
230.2561269996876
 20
122.0231992992483
 30
0.0
 10
230.2779498275238
 20
122.0248918784979
 30
0.0
 10
230.3224136293768
 20
122.028340492442
 30
0.0
 10
230.3750672061996
 20
122.0534394680018
 30
0.0
 10
230.4081111450961
 20
122.0873781501864
 30
0.0
 10
230.4258882718412
 20
122.1225197392076
 30
0.0
 10
230.4278607556157
 20
122.1492063995065
 30
0.0
 10
230.4289082630681
 20
122.1633786202912
 30
0.0
  0
LINE
  5
1D6
330
1F
100
AcDbEntity
  8
0
  6
Continuous
 62
     7
370
    18
100
AcDbLine
 10
229.9286987389
 20
122.0231992992
 30
0.0
 11
230.2561269997
 21
122.0231992992
 31
0.0
  0
LINE
  5
1D7
330
1F
100
AcDbEntity
  8
0
  6
Continuous
 62
     7
370
    18
100
AcDbLine
 10
229.9286987389
 20
122.3056170114
 30
0.0
 11
229.9286987389
 21
122.0231992992
 31
0.0
  0
LINE
  5
1D8
330
1F
100
AcDbEntity
  8
0
  6
Continuous
 62
     7
370
    18
100
AcDbLine
 10
230.2561269997
 20
122.3056170114
 30
0.0
 11
229.9286987389
 21
122.3056170114
 31
0.0
  0
SPLINE
  5
1D9
330
1F
100
AcDbEntity
  8
0
  6
Continuous
 62
     7
370
    18
100
AcDbSpline
210
0.0
220
0.0
230
1.0
 70
     8
 71
     3
 72
    12
 73
     8
 74
     0
 42
0.000000001
 43
0.00000001
 40
0.0
 40
0.0
 40
0.0
 40
0.0
 40
0.2108655154368313
 40
0.3895958229608272
 40
0.5613353297982684
 40
0.7736399301224668
 40
1.0
 40
1.0
 40
1.0
 40
1.0
 10
230.4289082630681
 20
122.1633786202912
 30
0.0
 10
230.4275919328582
 20
122.1813195410568
 30
0.0
 10
230.4251598768135
 20
122.2144672455352
 30
0.0
 10
230.4003846862336
 20
122.2567837748231
 30
0.0
 10
230.3619974913849
 20
122.2860798266513
 30
0.0
 10
230.312323040795
 20
122.3029439333882
 30
0.0
 10
230.2752549193352
 20
122.3047071533159
 30
0.0
 10
230.2561269996876
 20
122.3056170113764
 30
0.0
  0
LINE
  5
1DA
330
1F
100
AcDbEntity
  8
0
  6
Continuous
 62
     7
370
    18
100
AcDbLine
 10
228.2050403692
 20
121.5609561368
 30
0.0
 11
228.5158154495
 21
121.5609561368
 31
0.0
  0
LINE
  5
1DB
330
1F
100
AcDbEntity
  8
0
  6
Continuous
 62
     7
370
    18
100
AcDbLine
 10
228.363046902
 20
122.0487389926
 30
0.0
 11
228.2050403692
 21
121.5609561368
 31
0.0
  0
LINE
  5
1DC
330
1F
100
AcDbEntity
  8
0
  6
Continuous
 62
     7
370
    18
100
AcDbLine
 10
228.5158154495
 20
121.5609561368
 30
0.0
 11
228.363046902
 21
122.0487389926
 31
0.0
  0
SPLINE
  5
1DD
330
1F
100
AcDbEntity
  8
0
  6
Continuous
 62
     7
370
    18
100
AcDbSpline
210
0.0
220
0.0
230
1.0
 70
     8
 71
     3
 72
    11
 73
     7
 74
     0
 42
0.000000001
 43
0.00000001
 40
0.0
 40
0.0
 40
0.0
 40
0.0
 40
0.2800359244938626
 40
0.5600382743760567
 40
0.780121730090826
 40
1.0
 40
1.0
 40
1.0
 40
1.0
 10
234.3116568706654
 20
117.827363651602
 30
0.0
 10
234.370503770872
 20
117.8646208940879
 30
0.0
 10
234.4881905158982
 20
117.9391309121419
 30
0.0
 10
234.6273997978166
 20
118.0748533644967
 30
0.0
 10
234.7418643505999
 20
118.213293701032
 30
0.0
 10
234.7897265119257
 20
118.3118067225474
 30
0.0
 10
234.8136464318041
 20
118.3610402614504
 30
0.0
  0
LINE
  5
1DE
330
1F
100
AcDbEntity
  8
0
  6
Continuous
 62
     7
370
    18
100
AcDbLine
 10
234.3116568707
 20
117.5872091772
 30
0.0
 11
234.3116568707
 21
117.8273636516
 31
0.0
  0
SPLINE
  5
1DF
330
1F
100
AcDbEntity
  8
0
  6
Continuous
 62
     7
370
    18
100
AcDbSpline
210
0.0
220
0.0
230
1.0
 70
     8
 71
     3
 72
     9
 73
     5
 74
     0
 42
0.000000001
 43
0.00000001
 40
0.0
 40
0.0
 40
0.0
 40
0.0
 40
0.5597552341668195
 40
1.0
 40
1.0
 40
1.0
 40
1.0
 10
234.7385981585441
 20
117.9074151430792
 30
0.0
 10
234.6670837352563
 20
117.8365434550873
 30
0.0
 10
234.5393235663064
 20
117.7099315296133
 30
0.0
 10
234.3812485633333
 20
117.6247221573215
 30
0.0
 10
234.3116568706654
 20
117.5872091771702
 30
0.0
  0
LINE
  5
1E0
330
1F
100
AcDbEntity
  8
0
  6
Continuous
 62
     7
370
    18
100
AcDbLine
 10
234.7385981585
 20
116.279701483
 30
0.0
 11
234.7385981585
 21
117.9074151431
 31
0.0
  0
LINE
  5
1E1
330
1F
100
AcDbEntity
  8
0
  6
Continuous
 62
     7
370
    18
100
AcDbLine
 10
234.9520688025
 20
116.279701483
 30
0.0
 11
234.7385981585
 21
116.279701483
 31
0.0
  0
LINE
  5
1E2
330
1F
100
AcDbEntity
  8
0
  6
Continuous
 62
     7
370
    18
100
AcDbLine
 10
234.9520688025
 20
118.3610402615
 30
0.0
 11
234.9520688025
 21
116.279701483
 31
0.0
  0
LINE
  5
1E3
330
1F
100
AcDbEntity
  8
0
  6
Continuous
 62
     7
370
    18
100
AcDbLine
 10
234.8136464318
 20
118.3610402615
 30
0.0
 11
234.9520688025
 21
118.3610402615
 31
0.0
  0
SPLINE
  5
1E4
330
1F
100
AcDbEntity
  8
0
  6
Continuous
 62
     7
370
    18
100
AcDbSpline
210
0.0
220
0.0
230
1.0
 70
     8
 71
     3
 72
    10
 73
     6
 74
     0
 42
0.000000001
 43
0.00000001
 40
0.0
 40
0.0
 40
0.0
 40
0.0
 40
0.2795751783825462
 40
0.5597049368157194
 40
1.0
 40
1.0
 40
1.0
 40
1.0
 10
233.7971592639833
 20
118.1442341386995
 30
0.0
 10
233.8330378048888
 20
118.0717309912325
 30
0.0
 10
233.9048660572634
 20
117.926580875236
 30
0.0
 10
233.9544641805672
 20
117.6400592152501
 30
0.0
 10
233.9608588847941
 20
117.4328395337622
 30
0.0
 10
233.9647670742638
 20
117.3061950872968
 30
0.0
  0
SPLINE
  5
1E5
330
1F
100
AcDbEntity
  8
0
  6
Continuous
 62
     7
370
    18
100
AcDbSpline
210
0.0
220
0.0
230
1.0
 70
     8
 71
     3
 72
    11
 73
     7
 74
     0
 42
0.000000001
 43
0.00000001
 40
0.0
 40
0.0
 40
0.0
 40
0.0
 40
0.2798903849624031
 40
0.5594964420644627
 40
0.7796718965173898
 40
1.0
 40
1.0
 40
1.0
 40
1.0
 10
233.4189993537235
 20
118.3610402614504
 30
0.0
 10
233.461756295444
 20
118.3581877431785
 30
0.0
 10
233.5472267440605
 20
118.3524856043778
 30
0.0
 10
233.6559969991634
 20
118.2988605224484
 30
0.0
 10
233.7395173246761
 20
118.2268211543635
 30
0.0
 10
233.7779408458746
 20
118.1717695029926
 30
0.0
 10
233.7971592639833
 20
118.1442341386995
 30
0.0
  0
SPLINE
  5
1E6
330
1F
100
AcDbEntity
  8
0
  6
Continuous
 62
     7
370
    18
100
AcDbSpline
210
0.0
220
0.0
230
1.0
 70
     8
 71
     3
 72
    13
 73
     9
 74
     0
 42
0.000000001
 43
0.00000001
 40
0.0
 40
0.0
 40
0.0
 40
0.0
 40
0.2504890583456492
 40
0.500673827442561
 40
0.6258446378555211
 40
0.750758415565904
 40
0.8753007099299303
 40
1.0
 40
1.0
 40
1.0
 40
1.0
 10
232.8707300240745
 20
117.3061950872968
 30
0.0
 10
232.8734486386896
 20
117.4164352846546
 30
0.0
 10
232.8788825653995
 20
117.6367817617169
 30
0.0
 10
232.9289359374411
 20
117.9102091972642
 30
0.0
 10
233.0138714628183
 20
118.1146667315493
 30
0.0
 10
233.1108595385073
 20
118.2501793526285
 30
0.0
 10
233.2528152015909
 20
118.3462786347169
 30
0.0
 10
233.3635813793731
 20
118.3561176533606
 30
0.0
 10
233.4189993537235
 20
118.3610402614504
 30
0.0
  0
SPLINE
  5
1E7
330
1F
100
AcDbEntity
  8
0
  6
Continuous
 62
     7
370
    18
100
AcDbSpline
210
0.0
220
0.0
230
1.0
 70
     8
 71
     3
 72
    13
 73
     9
 74
     0
 42
0.000000001
 43
0.00000001
 40
0.0
 40
0.0
 40
0.0
 40
0.0
 40
0.1245870753534827
 40
0.2492227148385391
 40
0.3742192396120911
 40
0.4992998133209616
 40
0.7494812006579953
 40
1.0
 40
1.0
 40
1.0
 40
1.0
 10
233.4164977446148
 20
116.2530176525489
 30
0.0
 10
233.361234101326
 20
116.258654348826
 30
0.0
 10
233.2506852729405
 20
116.2699299385684
 30
0.0
 10
233.1118963167177
 20
116.3685629514047
 30
0.0
 10
233.0088572080347
 20
116.4985672879647
 30
0.0
 10
232.9228333228663
 20
116.7029132390183
 30
0.0
 10
232.877662436247
 20
116.9764154182041
 30
0.0
 10
232.8730418660358
 20
117.1962191571275
 30
0.0
 10
232.8707300240745
 20
117.3061950872968
 30
0.0
  0
SPLINE
  5
1E8
330
1F
100
AcDbEntity
  8
0
  6
Continuous
 62
     7
370
    18
100
AcDbSpline
210
0.0
220
0.0
230
1.0
 70
     8
 71
     3
 72
    13
 73
     9
 74
     0
 42
0.000000001
 43
0.00000001
 40
0.0
 40
0.0
 40
0.0
 40
0.0
 40
0.2504702058475057
 40
0.5006494994159213
 40
0.6258027062132798
 40
0.7507410958263501
 40
0.8752785399750064
 40
1.0
 40
1.0
 40
1.0
 40
1.0
 10
233.9647670742638
 20
117.3061950872968
 30
0.0
 10
233.9620535790087
 20
117.1960626317453
 30
0.0
 10
233.9566297401272
 20
116.9759256355913
 30
0.0
 10
233.9058598824031
 20
116.7029950353553
 30
0.0
 10
233.8215081349675
 20
116.498570922904
 30
0.0
 10
233.7246253750111
 20
116.3631160941717
 30
0.0
 10
233.5825487581422
 20
116.2674378293699
 30
0.0
 10
233.4718753174191
 20
116.2578267432903
 30
0.0
 10
233.4164977446148
 20
116.2530176525489
 30
0.0
  0
LINE
  5
1E9
330
1F
100
AcDbEntity
  8
0
  6
Continuous
 62
     7
370
    18
100
AcDbLine
 10
231.6787132838
 20
116.279701483
 30
0.0
 11
231.1896487031
 21
118.0729382791
 31
0.0
  0
LINE
  5
1EA
330
1F
100
AcDbEntity
  8
0
  6
Continuous
 62
     7
370
    18
100
AcDbLine
 10
231.897187146
 20
116.279701483
 30
0.0
 11
231.6787132838
 21
116.279701483
 31
0.0
  0
LINE
  5
1EB
330
1F
100
AcDbEntity
  8
0
  6
Continuous
 62
     7
370
    18
100
AcDbLine
 10
232.3904210752
 20
117.9757924587
 30
0.0
 11
231.897187146
 21
116.279701483
 31
0.0
  0
LINE
  5
1EC
330
1F
100
AcDbEntity
  8
0
  6
Continuous
 62
     7
370
    18
100
AcDbLine
 10
232.3904210752
 20
116.279701483
 30
0.0
 11
232.3904210752
 21
117.9757924587
 31
0.0
  0
LINE
  5
1ED
330
1F
100
AcDbEntity
  8
0
  6
Continuous
 62
     7
370
    18
100
AcDbLine
 10
232.6038917192
 20
116.279701483
 30
0.0
 11
232.3904210752
 21
116.279701483
 31
0.0
  0
LINE
  5
1EE
330
1F
100
AcDbEntity
  8
0
  6
Continuous
 62
     7
370
    18
100
AcDbLine
 10
232.6038917192
 20
118.334356431
 30
0.0
 11
232.6038917192
 21
116.279701483
 31
0.0
  0
LINE
  5
1EF
330
1F
100
AcDbEntity
  8
0
  6
Continuous
 62
     7
370
    18
100
AcDbLine
 10
232.3016139519
 20
118.334356431
 30
0.0
 11
232.6038917192
 21
118.334356431
 31
0.0
  0
LINE
  5
1F0
330
1F
100
AcDbEntity
  8
0
  6
Continuous
 62
     7
370
    18
100
AcDbLine
 10
231.883011361
 20
116.9046868254
 30
0.0
 11
232.3016139519
 21
118.334356431
 31
0.0
  0
SPLINE
  5
1F1
330
1F
100
AcDbEntity
  8
0
  6
Continuous
 62
     7
370
    18
100
AcDbSpline
210
0.0
220
0.0
230
1.0
 70
     8
 71
     3
 72
     9
 73
     5
 74
     0
 42
0.000000001
 43
0.00000001
 40
0.0
 40
0.0
 40
0.0
 40
0.0
 40
0.5599947003108218
 40
1.0
 40
1.0
 40
1.0
 40
1.0
 10
231.7900348891313
 20
116.5753082927153
 30
0.0
 10
231.8069647954492
 20
116.6369120887441
 30
0.0
 10
231.837197057127
 20
116.7469199084515
 30
0.0
 10
231.8690124288386
 20
116.8564798641952
 30
0.0
 10
231.8830113610033
 20
116.9046868253561
 30
0.0
  0
LINE
  5
1F2
330
1F
100
AcDbEntity
  8
0
  6
Continuous
 62
     7
370
    18
100
AcDbLine
 10
231.7099833977
 20
116.8796707343
 30
0.0
 11
231.7900348891
 21
116.5753082927
 31
0.0
  0
LINE
  5
1F3
330
1F
100
AcDbEntity
  8
0
  6
Continuous
 62
     7
370
    18
100
AcDbLine
 10
231.3101428751
 20
118.334356431
 30
0.0
 11
231.7099833977
 21
116.8796707343
 31
0.0
  0
LINE
  5
1F4
330
1F
100
AcDbEntity
  8
0
  6
Continuous
 62
     7
370
    18
100
AcDbLine
 10
230.9761780591
 20
118.334356431
 30
0.0
 11
231.3101428751
 21
118.334356431
 31
0.0
  0
LINE
  5
1F5
330
1F
100
AcDbEntity
  8
0
  6
Continuous
 62
     7
370
    18
100
AcDbLine
 10
230.9761780591
 20
116.279701483
 30
0.0
 11
230.9761780591
 21
118.334356431
 31
0.0
  0
LINE
  5
1F6
330
1F
100
AcDbEntity
  8
0
  6
Continuous
 62
     7
370
    18
100
AcDbLine
 10
231.1896487031
 20
116.279701483
 30
0.0
 11
230.9761780591
 21
116.279701483
 31
0.0
  0
LINE
  5
1F7
330
1F
100
AcDbEntity
  8
0
  6
Continuous
 62
     7
370
    18
100
AcDbLine
 10
231.1896487031
 20
118.0729382791
 30
0.0
 11
231.1896487031
 21
116.279701483
 31
0.0
  0
LINE
  5
1F8
330
1F
100
AcDbEntity
  8
0
  6
Continuous
 62
     7
370
    18
100
AcDbLine
 10
230.0956116529
 20
117.1335840588
 30
0.0
 11
230.7360235847
 21
117.1335840588
 31
0.0
  0
LINE
  5
1F9
330
1F
100
AcDbEntity
  8
0
  6
Continuous
 62
     7
370
    18
100
AcDbLine
 10
230.0956116529
 20
116.8934295844
 30
0.0
 11
230.0956116529
 21
117.1335840588
 31
0.0
  0
LINE
  5
1FA
330
1F
100
AcDbEntity
  8
0
  6
Continuous
 62
     7
370
    18
100
AcDbLine
 10
230.7360235847
 20
116.8934295844
 30
0.0
 11
230.0956116529
 21
116.8934295844
 31
0.0
  0
LINE
  5
1FB
330
1F
100
AcDbEntity
  8
0
  6
Continuous
 62
     7
370
    18
100
AcDbLine
 10
230.7360235847
 20
117.1335840588
 30
0.0
 11
230.7360235847
 21
116.8934295844
 31
0.0
  0
SPLINE
  5
1FC
330
1F
100
AcDbEntity
  8
0
  6
Continuous
 62
     7
370
    18
100
AcDbSpline
210
0.0
220
0.0
230
1.0
 70
     8
 71
     3
 72
    10
 73
     6
 74
     0
 42
0.000000001
 43
0.00000001
 40
0.0
 40
0.0
 40
0.0
 40
0.0
 40
0.2795751783825436
 40
0.5597049368157179
 40
1.0
 40
1.0
 40
1.0
 40
1.0
 10
229.7412170291348
 20
118.1442341386995
 30
0.0
 10
229.7770955700403
 20
118.0717309912325
 30
0.0
 10
229.8489238224149
 20
117.9265808752359
 30
0.0
 10
229.8985219457187
 20
117.6400592152501
 30
0.0
 10
229.9049166499456
 20
117.4328395337623
 30
0.0
 10
229.9088248394154
 20
117.3061950872968
 30
0.0
  0
SPLINE
  5
1FD
330
1F
100
AcDbEntity
  8
0
  6
Continuous
 62
     7
370
    18
100
AcDbSpline
210
0.0
220
0.0
230
1.0
 70
     8
 71
     3
 72
    11
 73
     7
 74
     0
 42
0.000000001
 43
0.00000001
 40
0.0
 40
0.0
 40
0.0
 40
0.0
 40
0.2798903849624051
 40
0.5594964420644629
 40
0.7796718965173829
 40
1.0
 40
1.0
 40
1.0
 40
1.0
 10
229.363057118875
 20
118.3610402614504
 30
0.0
 10
229.4058140605955
 20
118.3581877431785
 30
0.0
 10
229.491284509212
 20
118.3524856043778
 30
0.0
 10
229.6000547643149
 20
118.2988605224484
 30
0.0
 10
229.6835750898276
 20
118.2268211543635
 30
0.0
 10
229.7219986110261
 20
118.1717695029926
 30
0.0
 10
229.7412170291348
 20
118.1442341386995
 30
0.0
  0
SPLINE
  5
1FE
330
1F
100
AcDbEntity
  8
0
  6
Continuous
 62
     7
370
    18
100
AcDbSpline
210
0.0
220
0.0
230
1.0
 70
     8
 71
     3
 72
    13
 73
     9
 74
     0
 42
0.000000001
 43
0.00000001
 40
0.0
 40
0.0
 40
0.0
 40
0.0
 40
0.2504890583456496
 40
0.5006738274425617
 40
0.6258446378555216
 40
0.7507584155659034
 40
0.8753007099299314
 40
1.0
 40
1.0
 40
1.0
 40
1.0
 10
228.814787789226
 20
117.3061950872968
 30
0.0
 10
228.8175064038411
 20
117.4164352846546
 30
0.0
 10
228.822940330551
 20
117.6367817617169
 30
0.0
 10
228.8729937025926
 20
117.9102091972642
 30
0.0
 10
228.9579292279698
 20
118.1146667315493
 30
0.0
 10
229.0549173036588
 20
118.2501793526285
 30
0.0
 10
229.1968729667424
 20
118.3462786347169
 30
0.0
 10
229.3076391445246
 20
118.3561176533606
 30
0.0
 10
229.363057118875
 20
118.3610402614504
 30
0.0
  0
SPLINE
  5
1FF
330
1F
100
AcDbEntity
  8
0
  6
Continuous
 62
     7
370
    18
100
AcDbSpline
210
0.0
220
0.0
230
1.0
 70
     8
 71
     3
 72
    13
 73
     9
 74
     0
 42
0.000000001
 43
0.00000001
 40
0.0
 40
0.0
 40
0.0
 40
0.0
 40
0.124587075353485
 40
0.2492227148385411
 40
0.374219239612092
 40
0.4992998133209626
 40
0.7494812006579984
 40
1.0
 40
1.0
 40
1.0
 40
1.0
 10
229.3605555097663
 20
116.2530176525489
 30
0.0
 10
229.3052918664775
 20
116.258654348826
 30
0.0
 10
229.194743038092
 20
116.2699299385684
 30
0.0
 10
229.0559540818692
 20
116.3685629514047
 30
0.0
 10
228.9529149731862
 20
116.4985672879647
 30
0.0
 10
228.8668910880178
 20
116.7029132390183
 30
0.0
 10
228.8217202013985
 20
116.9764154182041
 30
0.0
 10
228.8170996311873
 20
117.1962191571275
 30
0.0
 10
228.814787789226
 20
117.3061950872968
 30
0.0
  0
SPLINE
  5
200
330
1F
100
AcDbEntity
  8
0
  6
Continuous
 62
     7
370
    18
100
AcDbSpline
210
0.0
220
0.0
230
1.0
 70
     8
 71
     3
 72
    13
 73
     9
 74
     0
 42
0.000000001
 43
0.00000001
 40
0.0
 40
0.0
 40
0.0
 40
0.0
 40
0.2504702058475085
 40
0.5006494994159221
 40
0.6258027062132808
 40
0.7507410958263511
 40
0.8752785399750087
 40
1.0
 40
1.0
 40
1.0
 40
1.0
 10
229.9088248394154
 20
117.3061950872968
 30
0.0
 10
229.9061113441603
 20
117.1960626317452
 30
0.0
 10
229.9006875052788
 20
116.9759256355913
 30
0.0
 10
229.8499176475546
 20
116.7029950353553
 30
0.0
 10
229.765565900119
 20
116.498570922904
 30
0.0
 10
229.6686831401626
 20
116.3631160941717
 30
0.0
 10
229.5266065232937
 20
116.2674378293699
 30
0.0
 10
229.4159330825705
 20
116.2578267432903
 30
0.0
 10
229.3605555097663
 20
116.2530176525489
 30
0.0
  0
SPLINE
  5
201
330
1F
100
AcDbEntity
  8
0
  6
Continuous
 62
     7
370
    18
100
AcDbSpline
210
0.0
220
0.0
230
1.0
 70
     8
 71
     3
 72
    10
 73
     6
 74
     0
 42
0.000000001
 43
0.00000001
 40
0.0
 40
0.0
 40
0.0
 40
0.0
 40
0.2795751783825443
 40
0.559704936815718
 40
1.0
 40
1.0
 40
1.0
 40
1.0
 10
228.433709335006
 20
118.1442341386995
 30
0.0
 10
228.4695878759115
 20
118.0717309912325
 30
0.0
 10
228.5414161282861
 20
117.9265808752359
 30
0.0
 10
228.5910142515899
 20
117.6400592152501
 30
0.0
 10
228.5974089558168
 20
117.4328395337622
 30
0.0
 10
228.6013171452866
 20
117.3061950872968
 30
0.0
  0
SPLINE
  5
202
330
1F
100
AcDbEntity
  8
0
  6
Continuous
 62
     7
370
    18
100
AcDbSpline
210
0.0
220
0.0
230
1.0
 70
     8
 71
     3
 72
    11
 73
     7
 74
     0
 42
0.000000001
 43
0.00000001
 40
0.0
 40
0.0
 40
0.0
 40
0.0
 40
0.2798903849624014
 40
0.5594964420644593
 40
0.779671896517385
 40
0.9999999999999999
 40
0.9999999999999999
 40
0.9999999999999999
 40
0.9999999999999999
 10
228.0555494247462
 20
118.3610402614504
 30
0.0
 10
228.0983063664667
 20
118.3581877431785
 30
0.0
 10
228.1837768150832
 20
118.3524856043778
 30
0.0
 10
228.2925470701861
 20
118.2988605224484
 30
0.0
 10
228.3760673956988
 20
118.2268211543635
 30
0.0
 10
228.4144909168973
 20
118.1717695029926
 30
0.0
 10
228.433709335006
 20
118.1442341386995
 30
0.0
  0
SPLINE
  5
203
330
1F
100
AcDbEntity
  8
0
  6
Continuous
 62
     7
370
    18
100
AcDbSpline
210
0.0
220
0.0
230
1.0
 70
     8
 71
     3
 72
    13
 73
     9
 74
     0
 42
0.000000001
 43
0.00000001
 40
0.0
 40
0.0
 40
0.0
 40
0.0
 40
0.2504890583456472
 40
0.5006738274425621
 40
0.625844637855521
 40
0.7507584155659044
 40
0.8753007099299325
 40
0.9999999999999999
 40
0.9999999999999999
 40
0.9999999999999999
 40
0.9999999999999999
 10
227.5072800950972
 20
117.3061950872968
 30
0.0
 10
227.5099987097123
 20
117.4164352846546
 30
0.0
 10
227.5154326364222
 20
117.6367817617169
 30
0.0
 10
227.5654860084638
 20
117.9102091972642
 30
0.0
 10
227.650421533841
 20
118.1146667315493
 30
0.0
 10
227.7474096095301
 20
118.2501793526285
 30
0.0
 10
227.8893652726137
 20
118.3462786347169
 30
0.0
 10
228.0001314503958
 20
118.3561176533606
 30
0.0
 10
228.0555494247462
 20
118.3610402614504
 30
0.0
  0
SPLINE
  5
204
330
1F
100
AcDbEntity
  8
0
  6
Continuous
 62
     7
370
    18
100
AcDbSpline
210
0.0
220
0.0
230
1.0
 70
     8
 71
     3
 72
    13
 73
     9
 74
     0
 42
0.000000001
 43
0.00000001
 40
0.0
 40
0.0
 40
0.0
 40
0.0
 40
0.1245870753534852
 40
0.2492227148385394
 40
0.3742192396120914
 40
0.4992998133209618
 40
0.7494812006579954
 40
1.0
 40
1.0
 40
1.0
 40
1.0
 10
228.0530478156375
 20
116.2530176525489
 30
0.0
 10
227.9977841723487
 20
116.258654348826
 30
0.0
 10
227.8872353439632
 20
116.2699299385684
 30
0.0
 10
227.7484463877405
 20
116.3685629514047
 30
0.0
 10
227.6454072790574
 20
116.4985672879647
 30
0.0
 10
227.559383393889
 20
116.7029132390183
 30
0.0
 10
227.5142125072698
 20
116.9764154182041
 30
0.0
 10
227.5095919370585
 20
117.1962191571275
 30
0.0
 10
227.5072800950972
 20
117.3061950872968
 30
0.0
  0
SPLINE
  5
205
330
1F
100
AcDbEntity
  8
0
  6
Continuous
 62
     7
370
    18
100
AcDbSpline
210
0.0
220
0.0
230
1.0
 70
     8
 71
     3
 72
    13
 73
     9
 74
     0
 42
0.000000001
 43
0.00000001
 40
0.0
 40
0.0
 40
0.0
 40
0.0
 40
0.2504702058475085
 40
0.5006494994159217
 40
0.6258027062132785
 40
0.7507410958263501
 40
0.8752785399750088
 40
1.0
 40
1.0
 40
1.0
 40
1.0
 10
228.6013171452866
 20
117.3061950872968
 30
0.0
 10
228.5986036500315
 20
117.1960626317453
 30
0.0
 10
228.59317981115
 20
116.9759256355913
 30
0.0
 10
228.5424099534258
 20
116.7029950353553
 30
0.0
 10
228.4580582059903
 20
116.498570922904
 30
0.0
 10
228.3611754460338
 20
116.3631160941717
 30
0.0
 10
228.2190988291649
 20
116.2674378293699
 30
0.0
 10
228.1084253884418
 20
116.2578267432903
 30
0.0
 10
228.0530478156375
 20
116.2530176525489
 30
0.0
  0
SPLINE
  5
206
330
1F
100
AcDbEntity
  8
0
  6
Continuous
 62
     7
370
    18
100
AcDbSpline
210
0.0
220
0.0
230
1.0
 70
     8
 71
     3
 72
    10
 73
     6
 74
     0
 42
0.000000001
 43
0.00000001
 40
0.0
 40
0.0
 40
0.0
 40
0.0
 40
0.279575178382544
 40
0.5597049368157183
 40
0.9999999999999999
 40
0.9999999999999999
 40
0.9999999999999999
 40
0.9999999999999999
 10
227.1262016408772
 20
118.1442341386995
 30
0.0
 10
227.1620801817827
 20
118.0717309912325
 30
0.0
 10
227.2339084341573
 20
117.926580875236
 30
0.0
 10
227.2835065574612
 20
117.6400592152501
 30
0.0
 10
227.289901261688
 20
117.4328395337622
 30
0.0
 10
227.2938094511578
 20
117.3061950872968
 30
0.0
  0
SPLINE
  5
207
330
1F
100
AcDbEntity
  8
0
  6
Continuous
 62
     7
370
    18
100
AcDbSpline
210
0.0
220
0.0
230
1.0
 70
     8
 71
     3
 72
    11
 73
     7
 74
     0
 42
0.000000001
 43
0.00000001
 40
0.0
 40
0.0
 40
0.0
 40
0.0
 40
0.279890384962409
 40
0.5594964420644601
 40
0.779671896517391
 40
1.0
 40
1.0
 40
1.0
 40
1.0
 10
226.7480417306174
 20
118.3610402614504
 30
0.0
 10
226.7907986723379
 20
118.3581877431785
 30
0.0
 10
226.8762691209544
 20
118.3524856043778
 30
0.0
 10
226.9850393760573
 20
118.2988605224484
 30
0.0
 10
227.06855970157
 20
118.2268211543635
 30
0.0
 10
227.1069832227685
 20
118.1717695029926
 30
0.0
 10
227.1262016408772
 20
118.1442341386995
 30
0.0
  0
SPLINE
  5
208
330
1F
100
AcDbEntity
  8
0
  6
Continuous
 62
     7
370
    18
100
AcDbSpline
210
0.0
220
0.0
230
1.0
 70
     8
 71
     3
 72
    13
 73
     9
 74
     0
 42
0.000000001
 43
0.00000001
 40
0.0
 40
0.0
 40
0.0
 40
0.0
 40
0.2504890583456498
 40
0.5006738274425616
 40
0.6258446378555226
 40
0.7507584155659044
 40
0.8753007099299325
 40
0.9999999999999999
 40
0.9999999999999999
 40
0.9999999999999999
 40
0.9999999999999999
 10
226.1997724009684
 20
117.3061950872968
 30
0.0
 10
226.2024910155835
 20
117.4164352846546
 30
0.0
 10
226.2079249422934
 20
117.6367817617169
 30
0.0
 10
226.257978314335
 20
117.9102091972642
 30
0.0
 10
226.3429138397122
 20
118.1146667315493
 30
0.0
 10
226.4399019154013
 20
118.2501793526285
 30
0.0
 10
226.5818575784849
 20
118.3462786347169
 30
0.0
 10
226.692623756267
 20
118.3561176533606
 30
0.0
 10
226.7480417306174
 20
118.3610402614504
 30
0.0
  0
SPLINE
  5
209
330
1F
100
AcDbEntity
  8
0
  6
Continuous
 62
     7
370
    18
100
AcDbSpline
210
0.0
220
0.0
230
1.0
 70
     8
 71
     3
 72
    13
 73
     9
 74
     0
 42
0.000000001
 43
0.00000001
 40
0.0
 40
0.0
 40
0.0
 40
0.0
 40
0.1245870753534833
 40
0.2492227148385383
 40
0.3742192396120905
 40
0.4992998133209611
 40
0.7494812006579976
 40
1.0
 40
1.0
 40
1.0
 40
1.0
 10
226.7455401215088
 20
116.2530176525489
 30
0.0
 10
226.6902764782199
 20
116.258654348826
 30
0.0
 10
226.5797276498344
 20
116.2699299385684
 30
0.0
 10
226.4409386936117
 20
116.3685629514047
 30
0.0
 10
226.3378995849286
 20
116.4985672879647
 30
0.0
 10
226.2518756997602
 20
116.7029132390183
 30
0.0
 10
226.206704813141
 20
116.9764154182041
 30
0.0
 10
226.2020842429297
 20
117.1962191571275
 30
0.0
 10
226.1997724009684
 20
117.3061950872968
 30
0.0
  0
SPLINE
  5
20A
330
1F
100
AcDbEntity
  8
0
  6
Continuous
 62
     7
370
    18
100
AcDbSpline
210
0.0
220
0.0
230
1.0
 70
     8
 71
     3
 72
    13
 73
     9
 74
     0
 42
0.000000001
 43
0.00000001
 40
0.0
 40
0.0
 40
0.0
 40
0.0
 40
0.2504702058475058
 40
0.5006494994159243
 40
0.6258027062132782
 40
0.7507410958263506
 40
0.8752785399750057
 40
1.0
 40
1.0
 40
1.0
 40
1.0
 10
227.2938094511578
 20
117.3061950872968
 30
0.0
 10
227.2910959559027
 20
117.1960626317453
 30
0.0
 10
227.2856721170212
 20
116.9759256355913
 30
0.0
 10
227.2349022592971
 20
116.7029950353553
 30
0.0
 10
227.1505505118614
 20
116.498570922904
 30
0.0
 10
227.053667751905
 20
116.3631160941717
 30
0.0
 10
226.9115911350361
 20
116.2674378293699
 30
0.0
 10
226.800917694313
 20
116.2578267432903
 30
0.0
 10
226.7455401215088
 20
116.2530176525489
 30
0.0
  0
SPLINE
  5
20B
330
1F
100
AcDbEntity
  8
0
  6
Continuous
 62
     7
370
    18
100
AcDbSpline
210
0.0
220
0.0
230
1.0
 70
     8
 71
     3
 72
    11
 73
     7
 74
     0
 42
0.000000001
 43
0.00000001
 40
0.0
 40
0.0
 40
0.0
 40
0.0
 40
0.2800359244938597
 40
0.5600382743760568
 40
0.7801217300908274
 40
1.0
 40
1.0
 40
1.0
 40
1.0
 10
225.0256838593017
 20
117.827363651602
 30
0.0
 10
225.0845307595083
 20
117.8646208940879
 30
0.0
 10
225.2022175045346
 20
117.9391309121419
 30
0.0
 10
225.341426786453
 20
118.0748533644967
 30
0.0
 10
225.4558913392362
 20
118.213293701032
 30
0.0
 10
225.5037535005621
 20
118.3118067225474
 30
0.0
 10
225.5276734204404
 20
118.3610402614504
 30
0.0
  0
LINE
  5
20C
330
1F
100
AcDbEntity
  8
0
  6
Continuous
 62
     7
370
    18
100
AcDbLine
 10
225.0256838593
 20
117.5872091772
 30
0.0
 11
225.0256838593
 21
117.8273636516
 31
0.0
  0
SPLINE
  5
20D
330
1F
100
AcDbEntity
  8
0
  6
Continuous
 62
     7
370
    18
100
AcDbSpline
210
0.0
220
0.0
230
1.0
 70
     8
 71
     3
 72
     9
 73
     5
 74
     0
 42
0.000000001
 43
0.00000001
 40
0.0
 40
0.0
 40
0.0
 40
0.0
 40
0.5597552341668148
 40
1.0
 40
1.0
 40
1.0
 40
1.0
 10
225.4526251471805
 20
117.9074151430792
 30
0.0
 10
225.3811107238927
 20
117.8365434550873
 30
0.0
 10
225.2533505549428
 20
117.7099315296133
 30
0.0
 10
225.0952755519697
 20
117.6247221573215
 30
0.0
 10
225.0256838593017
 20
117.5872091771702
 30
0.0
  0
LINE
  5
20E
330
1F
100
AcDbEntity
  8
0
  6
Continuous
 62
     7
370
    18
100
AcDbLine
 10
225.4526251472
 20
116.279701483
 30
0.0
 11
225.4526251472
 21
117.9074151431
 31
0.0
  0
LINE
  5
20F
330
1F
100
AcDbEntity
  8
0
  6
Continuous
 62
     7
370
    18
100
AcDbLine
 10
225.6660957911
 20
116.279701483
 30
0.0
 11
225.4526251472
 21
116.279701483
 31
0.0
  0
LINE
  5
210
330
1F
100
AcDbEntity
  8
0
  6
Continuous
 62
     7
370
    18
100
AcDbLine
 10
225.6660957911
 20
118.3610402615
 30
0.0
 11
225.6660957911
 21
116.279701483
 31
0.0
  0
LINE
  5
211
330
1F
100
AcDbEntity
  8
0
  6
Continuous
 62
     7
370
    18
100
AcDbLine
 10
225.5276734204
 20
118.3610402615
 30
0.0
 11
225.6660957911
 21
118.3610402615
 31
0.0
  0
LINE
  5
212
330
1F
100
AcDbEntity
  8
0
  6
Continuous
 62
     7
370
    18
100
AcDbLine
 10
224.0917497921
 20
117.1335840588
 30
0.0
 11
224.7321617239
 21
117.1335840588
 31
0.0
  0
LINE
  5
213
330
1F
100
AcDbEntity
  8
0
  6
Continuous
 62
     7
370
    18
100
AcDbLine
 10
224.0917497921
 20
116.8934295844
 30
0.0
 11
224.0917497921
 21
117.1335840588
 31
0.0
  0
LINE
  5
214
330
1F
100
AcDbEntity
  8
0
  6
Continuous
 62
     7
370
    18
100
AcDbLine
 10
224.7321617239
 20
116.8934295844
 30
0.0
 11
224.0917497921
 21
116.8934295844
 31
0.0
  0
LINE
  5
215
330
1F
100
AcDbEntity
  8
0
  6
Continuous
 62
     7
370
    18
100
AcDbLine
 10
224.7321617239
 20
117.1335840588
 30
0.0
 11
224.7321617239
 21
116.8934295844
 31
0.0
  0
SPLINE
  5
216
330
1F
100
AcDbEntity
  8
0
  6
Continuous
 62
     7
370
    18
100
AcDbSpline
210
0.0
220
0.0
230
1.0
 70
     8
 71
     3
 72
    12
 73
     8
 74
     0
 42
0.000000001
 43
0.00000001
 40
0.0
 40
0.0
 40
0.0
 40
0.0
 40
0.1871057595240078
 40
0.3740211604078918
 40
0.5608338669252976
 40
0.780358512659648
 40
1.0
 40
1.0
 40
1.0
 40
1.0
 10
223.9049629786199
 20
116.8763352554579
 30
0.0
 10
223.9020138702962
 20
116.8186417054492
 30
0.0
 10
223.8961186540282
 20
116.7033133019987
 30
0.0
 10
223.8366183288843
 20
116.5378909410081
 30
0.0
 10
223.7267041060598
 20
116.3903952917088
 30
0.0
 10
223.5640110298049
 20
116.2731834945707
 30
0.0
 10
223.4274792902287
 20
116.259740792048
 30
0.0
 10
223.3591952580796
 20
116.2530176525489
 30
0.0
  0
SPLINE
  5
217
330
1F
100
AcDbEntity
  8
0
  6
Continuous
 62
     7
370
    18
100
AcDbSpline
210
0.0
220
0.0
230
1.0
 70
     8
 71
     3
 72
    11
 73
     7
 74
     0
 42
0.000000001
 43
0.00000001
 40
0.0
 40
0.0
 40
0.0
 40
0.0
 40
0.2796220600248668
 40
0.5590245428560703
 40
0.7793847317261622
 40
1.0
 40
1.0
 40
1.0
 40
1.0
 10
223.5776691202362
 20
117.4070933213463
 30
0.0
 10
223.6339356488508
 20
117.3792580353982
 30
0.0
 10
223.7464245219892
 20
117.3236093215556
 30
0.0
 10
223.8501942113865
 20
117.1771874199921
 30
0.0
 10
223.8981282579179
 20
117.0233109491621
 30
0.0
 10
223.9026838599997
 20
116.9253460424151
 30
0.0
 10
223.9049629786199
 20
116.8763352554579
 30
0.0
  0
SPLINE
  5
218
330
1F
100
AcDbEntity
  8
0
  6
Continuous
 62
     7
370
    18
100
AcDbSpline
210
0.0
220
0.0
230
1.0
 70
     8
 71
     3
 72
    11
 73
     7
 74
     0
 42
0.000000001
 43
0.00000001
 40
0.0
 40
0.0
 40
0.0
 40
0.0
 40
0.2801901752489522
 40
0.5597317672418761
 40
0.7798035967389148
 40
1.0
 40
1.0
 40
1.0
 40
1.0
 10
223.8249114871426
 20
117.8215265636817
 30
0.0
 10
223.8222674638915
 20
117.7735285695538
 30
0.0
 10
223.8169855377653
 20
117.6776436868901
 30
0.0
 10
223.7618534731219
 20
117.5529463293286
 30
0.0
 10
223.6774773252058
 20
117.4607142474684
 30
0.0
 10
223.6109447970124
 20
117.4249703346301
 30
0.0
 10
223.5776691202362
 20
117.4070933213463
 30
0.0
  0
SPLINE
  5
219
330
1F
100
AcDbEntity
  8
0
  6
Continuous
 62
     7
370
    18
100
AcDbSpline
210
0.0
220
0.0
230
1.0
 70
     8
 71
     3
 72
    12
 73
     8
 74
     0
 42
0.000000001
 43
0.00000001
 40
0.0
 40
0.0
 40
0.0
 40
0.0
 40
0.18668189493698
 40
0.373093920797581
 40
0.5598445729636977
 40
0.7796788980924659
 40
1.0
 40
1.0
 40
1.0
 40
1.0
 10
223.355859779268
 20
118.3610402614504
 30
0.0
 10
223.4058101006392
 20
118.3570047959102
 30
0.0
 10
223.5056385347344
 20
118.348939698536
 30
0.0
 10
223.6382693439918
 20
118.2718186478338
 30
0.0
 10
223.7443928757953
 20
118.1534153057604
 30
0.0
 10
223.8148818073735
 20
117.9977976287849
 30
0.0
 10
223.8215657965667
 20
117.8803268898039
 30
0.0
 10
223.8249114871426
 20
117.8215265636817
 30
0.0
  0
SPLINE
  5
21A
330
1F
100
AcDbEntity
  8
0
  6
Continuous
 62
     7
370
    18
100
AcDbSpline
210
0.0
220
0.0
230
1.0
 70
     8
 71
     3
 72
    12
 73
     8
 74
     0
 42
0.000000001
 43
0.00000001
 40
0.0
 40
0.0
 40
0.0
 40
0.0
 40
0.1871377587295391
 40
0.3740411921344248
 40
0.5608494686677247
 40
0.7803659435040499
 40
0.9999999999999999
 40
0.9999999999999999
 40
0.9999999999999999
 40
0.9999999999999999
 10
222.8909774199078
 20
117.8298652607106
 30
0.0
 10
222.8935265171432
 20
117.8790650145029
 30
0.0
 10
222.8986215197512
 20
117.9774029164105
 30
0.0
 10
222.9487552434336
 20
118.1185826502797
 30
0.0
 10
223.0418123794224
 20
118.2450204504807
 30
0.0
 10
223.1812984643508
 20
118.3440175028913
 30
0.0
 10
223.2976622889033
 20
118.3553649958413
 30
0.0
 10
223.355859779268
 20
118.3610402614505
 30
0.0
  0
SPLINE
  5
21B
330
1F
100
AcDbEntity
  8
0
  6
Continuous
 62
     7
370
    18
100
AcDbSpline
210
0.0
220
0.0
230
1.0
 70
     8
 71
     3
 72
    11
 73
     7
 74
     0
 42
0.000000001
 43
0.00000001
 40
0.0
 40
0.0
 40
0.0
 40
0.0
 40
0.2798399979573788
 40
0.5592260384591624
 40
0.779566561526536
 40
1.0
 40
1.0
 40
1.0
 40
1.0
 10
223.1407213959228
 20
117.4070933213463
 30
0.0
 10
223.0977789331784
 20
117.4309508712229
 30
0.0
 10
223.0119636691078
 20
117.4786272691725
 30
0.0
 10
222.9323870889277
 20
117.593908885741
 30
0.0
 10
222.895694956271
 20
117.714761882218
 30
0.0
 10
222.8925501530043
 20
117.79149207629
 30
0.0
 10
222.8909774199078
 20
117.8298652607106
 30
0.0
  0
SPLINE
  5
21C
330
1F
100
AcDbEntity
  8
0
  6
Continuous
 62
     7
370
    18
100
AcDbSpline
210
0.0
220
0.0
230
1.0
 70
     8
 71
     3
 72
    11
 73
     7
 74
     0
 42
0.000000001
 43
0.00000001
 40
0.0
 40
0.0
 40
0.0
 40
0.0
 40
0.2804755498465853
 40
0.5600957930369843
 40
0.780025668220122
 40
0.9999999999999999
 40
0.9999999999999999
 40
0.9999999999999999
 40
0.9999999999999999
 10
222.8109259284305
 20
116.8834231479325
 30
0.0
 10
222.8142523213775
 20
116.9458095803538
 30
0.0
 10
222.820894963478
 20
117.0703921985566
 30
0.0
 10
222.8921345883589
 20
117.2322259071505
 30
0.0
 10
223.0039262692923
 20
117.351649758375
 30
0.0
 10
223.0951199483767
 20
117.3886108885954
 30
0.0
 10
223.1407213959228
 20
117.4070933213463
 30
0.0
  0
SPLINE
  5
21D
330
1F
100
AcDbEntity
  8
0
  6
Continuous
 62
     7
370
    18
100
AcDbSpline
210
0.0
220
0.0
230
1.0
 70
     8
 71
     3
 72
    12
 73
     8
 74
     0
 42
0.000000001
 43
0.00000001
 40
0.0
 40
0.0
 40
0.0
 40
0.0
 40
0.1866482491791797
 40
0.3730988090507009
 40
0.5597919176482344
 40
0.7796545203293588
 40
1.0
 40
1.0
 40
1.0
 40
1.0
 10
223.3591952580796
 20
116.2530176525489
 30
0.0
 10
223.3007835705467
 20
116.2577780552442
 30
0.0
 10
223.1840220624747
 20
116.2672938186335
 30
0.0
 10
223.0286463897405
 20
116.3567156407871
 30
0.0
 10
222.9031087677012
 20
116.4942853422897
 30
0.0
 10
222.822576564341
 20
116.67733692489
 30
0.0
 10
222.8148123126781
 20
116.8146775226258
 30
0.0
 10
222.8109259284305
 20
116.8834231479325
 30
0.0
  0
SPLINE
  5
21E
330
1F
100
AcDbEntity
  8
0
  6
Continuous
 62
     7
370
    18
100
AcDbSpline
210
0.0
220
0.0
230
1.0
 70
     8
 71
     3
 72
    10
 73
     6
 74
     0
 42
0.000000001
 43
0.00000001
 40
0.0
 40
0.0
 40
0.0
 40
0.0
 40
0.2795751783825429
 40
0.5597049368157178
 40
0.9999999999999999
 40
0.9999999999999999
 40
0.9999999999999999
 40
0.9999999999999999
 10
222.4298474742106
 20
118.1442341386995
 30
0.0
 10
222.465726015116
 20
118.0717309912325
 30
0.0
 10
222.5375542674907
 20
117.9265808752359
 30
0.0
 10
222.5871523907945
 20
117.6400592152501
 30
0.0
 10
222.5935470950213
 20
117.4328395337622
 30
0.0
 10
222.5974552844911
 20
117.3061950872968
 30
0.0
  0
SPLINE
  5
21F
330
1F
100
AcDbEntity
  8
0
  6
Continuous
 62
     7
370
    18
100
AcDbSpline
210
0.0
220
0.0
230
1.0
 70
     8
 71
     3
 72
    11
 73
     7
 74
     0
 42
0.000000001
 43
0.00000001
 40
0.0
 40
0.0
 40
0.0
 40
0.0
 40
0.2798903849624088
 40
0.5594964420644596
 40
0.7796718965173852
 40
1.0
 40
1.0
 40
1.0
 40
1.0
 10
222.0516875639507
 20
118.3610402614504
 30
0.0
 10
222.0944445056712
 20
118.3581877431785
 30
0.0
 10
222.1799149542877
 20
118.3524856043778
 30
0.0
 10
222.2886852093906
 20
118.2988605224484
 30
0.0
 10
222.3722055349034
 20
118.2268211543635
 30
0.0
 10
222.4106290561018
 20
118.1717695029926
 30
0.0
 10
222.4298474742106
 20
118.1442341386995
 30
0.0
  0
SPLINE
  5
220
330
1F
100
AcDbEntity
  8
0
  6
Continuous
 62
     7
370
    18
100
AcDbSpline
210
0.0
220
0.0
230
1.0
 70
     8
 71
     3
 72
    13
 73
     9
 74
     0
 42
0.000000001
 43
0.00000001
 40
0.0
 40
0.0
 40
0.0
 40
0.0
 40
0.2504890583456495
 40
0.5006738274425608
 40
0.6258446378555206
 40
0.7507584155659023
 40
0.8753007099299301
 40
0.9999999999999999
 40
0.9999999999999999
 40
0.9999999999999999
 40
0.9999999999999999
 10
221.5034182343017
 20
117.3061950872968
 30
0.0
 10
221.5061368489168
 20
117.4164352846546
 30
0.0
 10
221.5115707756267
 20
117.6367817617169
 30
0.0
 10
221.5616241476683
 20
117.9102091972643
 30
0.0
 10
221.6465596730455
 20
118.1146667315493
 30
0.0
 10
221.7435477487346
 20
118.2501793526285
 30
0.0
 10
221.8855034118182
 20
118.3462786347169
 30
0.0
 10
221.9962695896004
 20
118.3561176533606
 30
0.0
 10
222.0516875639507
 20
118.3610402614504
 30
0.0
  0
SPLINE
  5
221
330
1F
100
AcDbEntity
  8
0
  6
Continuous
 62
     7
370
    18
100
AcDbSpline
210
0.0
220
0.0
230
1.0
 70
     8
 71
     3
 72
    13
 73
     9
 74
     0
 42
0.000000001
 43
0.00000001
 40
0.0
 40
0.0
 40
0.0
 40
0.0
 40
0.1245870753534856
 40
0.2492227148385367
 40
0.3742192396120902
 40
0.4992998133209618
 40
0.7494812006579957
 40
1.0
 40
1.0
 40
1.0
 40
1.0
 10
222.0491859548421
 20
116.2530176525489
 30
0.0
 10
221.9939223115533
 20
116.258654348826
 30
0.0
 10
221.8833734831678
 20
116.2699299385684
 30
0.0
 10
221.744584526945
 20
116.3685629514047
 30
0.0
 10
221.6415454182619
 20
116.4985672879647
 30
0.0
 10
221.5555215330936
 20
116.7029132390183
 30
0.0
 10
221.5103506464743
 20
116.9764154182041
 30
0.0
 10
221.505730076263
 20
117.1962191571275
 30
0.0
 10
221.5034182343017
 20
117.3061950872968
 30
0.0
  0
SPLINE
  5
222
330
1F
100
AcDbEntity
  8
0
  6
Continuous
 62
     7
370
    18
100
AcDbSpline
210
0.0
220
0.0
230
1.0
 70
     8
 71
     3
 72
    13
 73
     9
 74
     0
 42
0.000000001
 43
0.00000001
 40
0.0
 40
0.0
 40
0.0
 40
0.0
 40
0.2504702058475083
 40
0.5006494994159222
 40
0.6258027062132809
 40
0.7507410958263516
 40
0.8752785399750088
 40
1.0
 40
1.0
 40
1.0
 40
1.0
 10
222.5974552844911
 20
117.3061950872968
 30
0.0
 10
222.594741789236
 20
117.1960626317453
 30
0.0
 10
222.5893179503545
 20
116.9759256355913
 30
0.0
 10
222.5385480926304
 20
116.7029950353553
 30
0.0
 10
222.4541963451948
 20
116.498570922904
 30
0.0
 10
222.3573135852384
 20
116.3631160941717
 30
0.0
 10
222.2152369683695
 20
116.2674378293699
 30
0.0
 10
222.1045635276463
 20
116.2578267432903
 30
0.0
 10
222.0491859548421
 20
116.2530176525489
 30
0.0
  0
SPLINE
  5
223
330
1F
100
AcDbEntity
  8
0
  6
Continuous
 62
     7
370
    18
100
AcDbSpline
210
0.0
220
0.0
230
1.0
 70
     8
 71
     3
 72
    12
 73
     8
 74
     0
 42
0.000000001
 43
0.00000001
 40
0.0
 40
0.0
 40
0.0
 40
0.0
 40
0.1861323399318213
 40
0.3726108819815561
 40
0.5594136204052362
 40
0.7795030968206008
 40
1.0
 40
1.0
 40
1.0
 40
1.0
 10
220.7887918989265
 20
117.640576838155
 30
0.0
 10
220.8464342138616
 20
117.6338909377721
 30
0.0
 10
220.9618260571881
 20
117.6205067013766
 30
0.0
 10
221.1039717820167
 20
117.5133950572131
 30
0.0
 10
221.215141800821
 20
117.3678337394003
 30
0.0
 10
221.2809387006018
 20
117.1825091289023
 30
0.0
 10
221.2869427763774
 20
117.0470902277909
 30
0.0
 10
221.2899475903623
 20
116.9793181637646
 30
0.0
  0
SPLINE
  5
224
330
1F
100
AcDbEntity
  8
0
  6
Continuous
 62
     7
370
    18
100
AcDbSpline
210
0.0
220
0.0
230
1.0
 70
     8
 71
     3
 72
     9
 73
     5
 74
     0
 42
0.000000001
 43
0.00000001
 40
0.0
 40
0.0
 40
0.0
 40
0.0
 40
0.5597945537684287
 40
1.0
 40
1.0
 40
1.0
 40
1.0
 10
220.4844294573723
 20
117.5601084118263
 30
0.0
 10
220.5385502634127
 20
117.5859164169718
 30
0.0
 10
220.6352300286518
 20
117.6320190540408
 30
0.0
 10
220.7418550040513
 20
117.6379611119164
 30
0.0
 10
220.7887918989265
 20
117.640576838155
 30
0.0
  0
LINE
  5
225
330
1F
100
AcDbEntity
  8
0
  6
Continuous
 62
     7
370
    18
100
AcDbLine
 10
220.5615624049
 20
118.067518126
 30
0.0
 11
220.4844294574
 21
117.5601084118
 31
0.0
  0
LINE
  5
226
330
1F
100
AcDbEntity
  8
0
  6
Continuous
 62
     7
370
    18
100
AcDbLine
 10
221.2098960989
 20
118.067518126
 30
0.0
 11
220.5615624049
 21
118.067518126
 31
0.0
  0
LINE
  5
227
330
1F
100
AcDbEntity
  8
0
  6
Continuous
 62
     7
370
    18
100
AcDbLine
 10
221.2098960989
 20
118.3076726005
 30
0.0
 11
221.2098960989
 21
118.067518126
 31
0.0
  0
LINE
  5
228
330
1F
100
AcDbEntity
  8
0
  6
Continuous
 62
     7
370
    18
100
AcDbLine
 10
220.3826973536
 20
118.3076726005
 30
0.0
 11
221.2098960989
 21
118.3076726005
 31
0.0
  0
LINE
  5
229
330
1F
100
AcDbEntity
  8
0
  6
Continuous
 62
     7
370
    18
100
AcDbLine
 10
220.2225943707
 20
117.2549121006
 30
0.0
 11
220.3826973536
 21
118.3076726005
 31
0.0
  0
LINE
  5
22A
330
1F
100
AcDbEntity
  8
0
  6
Continuous
 62
     7
370
    18
100
AcDbLine
 10
220.4360650146
 20
117.2244758564
 30
0.0
 11
220.2225943707
 21
117.2549121006
 31
0.0
  0
SPLINE
  5
22B
330
1F
100
AcDbEntity
  8
0
  6
Continuous
 62
     7
370
    18
100
AcDbSpline
210
0.0
220
0.0
230
1.0
 70
     8
 71
     3
 72
    10
 73
     6
 74
     0
 42
0.000000001
 43
0.00000001
 40
0.0
 40
0.0
 40
0.0
 40
0.0
 40
0.2801682771676896
 40
0.5607715634932553
 40
1.0
 40
1.0
 40
1.0
 40
1.0
 10
220.72917021517
 20
117.4271061942156
 30
0.0
 10
220.6941822019323
 20
117.4232392263656
 30
0.0
 10
220.6241518505837
 20
117.4154992865367
 30
0.0
 10
220.5133073380266
 20
117.3488447441834
 30
0.0
 10
220.4653361656105
 20
117.2716057242511
 30
0.0
 10
220.4360650146047
 20
117.2244758564137
 30
0.0
  0
SPLINE
  5
22C
330
1F
100
AcDbEntity
  8
0
  6
Continuous
 62
     7
370
    18
100
AcDbSpline
210
0.0
220
0.0
230
1.0
 70
     8
 71
     3
 72
    11
 73
     7
 74
     0
 42
0.000000001
 43
0.00000001
 40
0.0
 40
0.0
 40
0.0
 40
0.0
 40
0.2810318196217025
 40
0.5605860755662299
 40
0.7803889752949017
 40
0.9999999999999999
 40
0.9999999999999999
 40
0.9999999999999999
 40
0.9999999999999999
 10
221.0764769464229
 20
116.9676439879242
 30
0.0
 10
221.0736204532575
 20
117.0281957360533
 30
0.0
 10
221.0679224853346
 20
117.1489808731173
 30
0.0
 10
220.9938806380934
 20
117.3040821665689
 30
0.0
 10
220.8721885818123
 20
117.4101911430494
 30
0.0
 10
220.7768291241248
 20
117.4214694854318
 30
0.0
 10
220.72917021517
 20
117.4271061942156
 30
0.0
  0
SPLINE
  5
22D
330
1F
100
AcDbEntity
  8
0
  6
Continuous
 62
     7
370
    18
100
AcDbSpline
210
0.0
220
0.0
230
1.0
 70
     8
 71
     3
 72
    12
 73
     8
 74
     0
 42
0.000000001
 43
0.00000001
 40
0.0
 40
0.0
 40
0.0
 40
0.0
 40
0.1858835197478806
 40
0.3723018513499659
 40
0.5590684864252754
 40
0.7793243380015289
 40
1.0
 40
1.0
 40
1.0
 40
1.0
 10
220.7237500621012
 20
116.4664882964883
 30
0.0
 10
220.7662513652843
 20
116.4720102869749
 30
0.0
 10
220.8513762536087
 20
116.4830701554564
 30
0.0
 10
220.952164085926
 20
116.5679586823397
 30
0.0
 10
221.0280547153722
 20
116.679530236559
 30
0.0
 10
221.0704009653427
 20
116.8178435084322
 30
0.0
 10
221.0744503342629
 20
116.9176788103988
 30
0.0
 10
221.0764769464229
 20
116.9676439879242
 30
0.0
  0
SPLINE
  5
22E
330
1F
100
AcDbEntity
  8
0
  6
Continuous
 62
     7
370
    18
100
AcDbSpline
210
0.0
220
0.0
230
1.0
 70
     8
 71
     3
 72
    11
 73
     7
 74
     0
 42
0.000000001
 43
0.00000001
 40
0.0
 40
0.0
 40
0.0
 40
0.0
 40
0.2811074381184337
 40
0.5611160017532791
 40
0.7809929910720517
 40
1.0
 40
1.0
 40
1.0
 40
1.0
 10
220.4093811841123
 20
116.8667457538747
 30
0.0
 10
220.4175969130652
 20
116.8150995041559
 30
0.0
 10
220.4339962549408
 20
116.7120088945948
 30
0.0
 10
220.4982510402417
 20
116.5797206464608
 30
0.0
 10
220.6006285982582
 20
116.4847693074825
 30
0.0
 10
220.6827638451792
 20
116.472573908686
 30
0.0
 10
220.7237500621012
 20
116.4664882964883
 30
0.0
  0
LINE
  5
22F
330
1F
100
AcDbEntity
  8
0
  6
Continuous
 62
     7
370
    18
100
AcDbLine
 10
220.1959105402
 20
116.8400619234
 30
0.0
 11
220.4093811841
 21
116.8667457539
 31
0.0
  0
SPLINE
  5
230
330
1F
100
AcDbEntity
  8
0
  6
Continuous
 62
     7
370
    18
100
AcDbSpline
210
0.0
220
0.0
230
1.0
 70
     8
 71
     3
 72
    12
 73
     8
 74
     0
 42
0.000000001
 43
0.00000001
 40
0.0
 40
0.0
 40
0.0
 40
0.0
 40
0.1865885886654292
 40
0.3730457041861931
 40
0.5597053661028973
 40
0.7796179230979454
 40
1.0
 40
1.0
 40
1.0
 40
1.0
 10
220.7258347363584
 20
116.2530176525489
 30
0.0
 10
220.6710177630921
 20
116.2573795005938
 30
0.0
 10
220.5614224414288
 20
116.2661001232592
 30
0.0
 10
220.4157289665045
 20
116.3499164865381
 30
0.0
 10
220.2966817681344
 20
116.4779550335858
 30
0.0
 10
220.2197413699281
 20
116.6482565026029
 30
0.0
 10
220.203859795338
 20
116.7760813466471
 30
0.0
 10
220.1959105401729
 20
116.8400619233823
 30
0.0
  0
SPLINE
  5
231
330
1F
100
AcDbEntity
  8
0
  6
Continuous
 62
     7
370
    18
100
AcDbSpline
210
0.0
220
0.0
230
1.0
 70
     8
 71
     3
 72
    13
 73
     9
 74
     0
 42
0.000000001
 43
0.00000001
 40
0.0
 40
0.0
 40
0.0
 40
0.0
 40
0.186889079651812
 40
0.3736670037034817
 40
0.5603596573753056
 40
0.7069433013335568
 40
0.8533827747571255
 40
1.0
 40
1.0
 40
1.0
 40
1.0
 10
221.2899475903623
 20
116.9793181637646
 30
0.0
 10
221.2868540103201
 20
116.9153993449476
 30
0.0
 10
221.2806686901975
 20
116.7875997241667
 30
0.0
 10
221.2235053745561
 20
116.6028278484586
 30
0.0
 10
221.1327213620403
 20
116.4480627863253
 30
0.0
 10
221.0148522674462
 20
116.3318031034621
 30
0.0
 10
220.8766681962475
 20
116.263566947128
 30
0.0
 10
220.7761328826894
 20
116.2565355057018
 30
0.0
 10
220.7258347363584
 20
116.2530176525489
 30
0.0
  0
LINE
  5
232
330
1F
100
AcDbEntity
  8
0
  6
Continuous
 62
     7
370
    18
100
AcDbLine
 10
219.0038937999
 20
116.279701483
 30
0.0
 11
218.5148292192
 21
118.0729382791
 31
0.0
  0
LINE
  5
233
330
1F
100
AcDbEntity
  8
0
  6
Continuous
 62
     7
370
    18
100
AcDbLine
 10
219.2223676621
 20
116.279701483
 30
0.0
 11
219.0038937999
 21
116.279701483
 31
0.0
  0
LINE
  5
234
330
1F
100
AcDbEntity
  8
0
  6
Continuous
 62
     7
370
    18
100
AcDbLine
 10
219.7156015913
 20
117.9757924587
 30
0.0
 11
219.2223676621
 21
116.279701483
 31
0.0
  0
LINE
  5
235
330
1F
100
AcDbEntity
  8
0
  6
Continuous
 62
     7
370
    18
100
AcDbLine
 10
219.7156015913
 20
116.279701483
 30
0.0
 11
219.7156015913
 21
117.9757924587
 31
0.0
  0
LINE
  5
236
330
1F
100
AcDbEntity
  8
0
  6
Continuous
 62
     7
370
    18
100
AcDbLine
 10
219.9290722352
 20
116.279701483
 30
0.0
 11
219.7156015913
 21
116.279701483
 31
0.0
  0
LINE
  5
237
330
1F
100
AcDbEntity
  8
0
  6
Continuous
 62
     7
370
    18
100
AcDbLine
 10
219.9290722352
 20
118.334356431
 30
0.0
 11
219.9290722352
 21
116.279701483
 31
0.0
  0
LINE
  5
238
330
1F
100
AcDbEntity
  8
0
  6
Continuous
 62
     7
370
    18
100
AcDbLine
 10
219.626794468
 20
118.334356431
 30
0.0
 11
219.9290722352
 21
118.334356431
 31
0.0
  0
LINE
  5
239
330
1F
100
AcDbEntity
  8
0
  6
Continuous
 62
     7
370
    18
100
AcDbLine
 10
219.2081918771
 20
116.9046868254
 30
0.0
 11
219.626794468
 21
118.334356431
 31
0.0
  0
SPLINE
  5
23A
330
1F
100
AcDbEntity
  8
0
  6
Continuous
 62
     7
370
    18
100
AcDbSpline
210
0.0
220
0.0
230
1.0
 70
     8
 71
     3
 72
     9
 73
     5
 74
     0
 42
0.000000001
 43
0.00000001
 40
0.0
 40
0.0
 40
0.0
 40
0.0
 40
0.5599947003108198
 40
1.0
 40
1.0
 40
1.0
 40
1.0
 10
219.1152154052297
 20
116.5753082927153
 30
0.0
 10
219.1321453115477
 20
116.6369120887441
 30
0.0
 10
219.1623775732255
 20
116.7469199084515
 30
0.0
 10
219.1941929449371
 20
116.8564798641952
 30
0.0
 10
219.2081918771018
 20
116.9046868253561
 30
0.0
  0
LINE
  5
23B
330
1F
100
AcDbEntity
  8
0
  6
Continuous
 62
     7
370
    18
100
AcDbLine
 10
219.0351639138
 20
116.8796707343
 30
0.0
 11
219.1152154052
 21
116.5753082927
 31
0.0
  0
LINE
  5
23C
330
1F
100
AcDbEntity
  8
0
  6
Continuous
 62
     7
370
    18
100
AcDbLine
 10
218.6353233912
 20
118.334356431
 30
0.0
 11
219.0351639138
 21
116.8796707343
 31
0.0
  0
LINE
  5
23D
330
1F
100
AcDbEntity
  8
0
  6
Continuous
 62
     7
370
    18
100
AcDbLine
 10
218.3013585752
 20
118.334356431
 30
0.0
 11
218.6353233912
 21
118.334356431
 31
0.0
  0
LINE
  5
23E
330
1F
100
AcDbEntity
  8
0
  6
Continuous
 62
     7
370
    18
100
AcDbLine
 10
218.3013585752
 20
116.279701483
 30
0.0
 11
218.3013585752
 21
118.334356431
 31
0.0
  0
LINE
  5
23F
330
1F
100
AcDbEntity
  8
0
  6
Continuous
 62
     7
370
    18
100
AcDbLine
 10
218.5148292192
 20
116.279701483
 30
0.0
 11
218.3013585752
 21
116.279701483
 31
0.0
  0
LINE
  5
240
330
1F
100
AcDbEntity
  8
0
  6
Continuous
 62
     7
370
    18
100
AcDbLine
 10
218.5148292192
 20
118.0729382791
 30
0.0
 11
218.5148292192
 21
116.279701483
 31
0.0
  0
SPLINE
  5
241
330
1F
100
AcDbEntity
  8
0
  6
Continuous
 62
     7
370
    18
100
AcDbSpline
210
0.0
220
0.0
230
1.0
 70
     8
 71
     3
 72
    14
 73
    10
 74
     0
 42
0.000000001
 43
0.00000001
 40
0.0
 40
0.0
 40
0.0
 40
0.0
 40
0.1250267645254231
 40
0.2499561862380701
 40
0.3747506313882864
 40
0.4996959194189182
 40
0.6663177050472583
 40
0.8330998507676249
 40
1.0
 40
1.0
 40
1.0
 40
1.0
 10
217.3169753909512
 20
118.1208857870186
 30
0.0
 10
217.2709478027377
 20
118.1180694567089
 30
0.0
 10
217.1789284622768
 20
118.1124389888159
 30
0.0
 10
217.0488407525819
 20
118.0599806897594
 30
0.0
 10
216.9409866108589
 20
117.971450677463
 30
0.0
 10
216.8541828074087
 20
117.8438933171359
 30
0.0
 10
216.7914680712807
 20
117.686342540368
 30
0.0
 10
216.758477154205
 20
117.5046237162566
 30
0.0
 10
216.7552903648275
 20
117.3820808888451
 30
0.0
 10
216.7536964066502
 20
117.3207878070974
 30
0.0
  0
SPLINE
  5
242
330
1F
100
AcDbEntity
  8
0
  6
Continuous
 62
     7
370
    18
100
AcDbSpline
210
0.0
220
0.0
230
1.0
 70
     8
 71
     3
 72
    11
 73
     7
 74
     0
 42
0.000000001
 43
0.00000001
 40
0.0
 40
0.0
 40
0.0
 40
0.0
 40
0.2807713074051806
 40
0.5604369820882225
 40
0.7800147849953768
 40
1.0
 40
1.0
 40
1.0
 40
1.0
 10
217.7676819653623
 20
117.6939444991398
 30
0.0
 10
217.7490885405162
 20
117.7543334814562
 30
0.0
 10
217.7119749087717
 20
117.8748736438877
 30
0.0
 10
217.6083035810246
 20
118.0211405463487
 30
0.0
 10
217.4661529055155
 20
118.108915063168
 30
0.0
 10
217.3667319454797
 20
118.1168930809077
 30
0.0
 10
217.3169753909512
 20
118.1208857870186
 30
0.0
  0
LINE
  5
243
330
1F
100
AcDbEntity
  8
0
  6
Continuous
 62
     7
370
    18
100
AcDbLine
 10
217.9811526093
 20
117.7473121601
 30
0.0
 11
217.7676819654
 21
117.6939444991
 31
0.0
  0
SPLINE
  5
244
330
1F
100
AcDbEntity
  8
0
  6
Continuous
 62
     7
370
    18
100
AcDbSpline
210
0.0
220
0.0
230
1.0
 70
     8
 71
     3
 72
    12
 73
     8
 74
     0
 42
0.000000001
 43
0.00000001
 40
0.0
 40
0.0
 40
0.0
 40
0.0
 40
0.1866161660947037
 40
0.3730652985771188
 40
0.5597027812570802
 40
0.7796715026895137
 40
1.0
 40
1.0
 40
1.0
 40
1.0
 10
217.3257310228315
 20
118.3610402614504
 30
0.0
 10
217.3866912478526
 20
118.356582448212
 30
0.0
 10
217.5085571345265
 20
118.3476708117681
 30
0.0
 10
217.6762295449921
 20
118.2662858204493
 30
0.0
 10
217.8191980330093
 20
118.1337613930326
 30
0.0
 10
217.9239873868292
 20
117.9549007611157
 30
0.0
 10
217.9620871577764
 20
117.8165460446128
 30
0.0
 10
217.9811526093017
 20
117.7473121601247
 30
0.0
  0
SPLINE
  5
245
330
1F
100
AcDbEntity
  8
0
  6
Continuous
 62
     7
370
    18
100
AcDbSpline
210
0.0
220
0.0
230
1.0
 70
     8
 71
     3
 72
    13
 73
     9
 74
     0
 42
0.000000001
 43
0.00000001
 40
0.0
 40
0.0
 40
0.0
 40
0.0
 40
0.1869886270143179
 40
0.3737840604657699
 40
0.5603785113196412
 40
0.7069405280508673
 40
0.8534458164057703
 40
1.0
 40
1.0
 40
1.0
 40
1.0
 10
216.5402257627108
 20
117.3207878070973
 30
0.0
 10
216.5434530200544
 20
117.4118446137747
 30
0.0
 10
216.5499042003924
 20
117.5938641487398
 30
0.0
 10
216.6190531548325
 20
117.8600058011407
 30
0.0
 10
216.7431473024697
 20
118.0849774440846
 30
0.0
 10
216.9151421917431
 20
118.2464833243169
 30
0.0
 10
217.1109916017951
 20
118.3442446280707
 30
0.0
 10
217.2541432544839
 20
118.3554410943025
 30
0.0
 10
217.3257310228315
 20
118.3610402614504
 30
0.0
  0
SPLINE
  5
246
330
1F
100
AcDbEntity
  8
0
  6
Continuous
 62
     7
370
    18
100
AcDbSpline
210
0.0
220
0.0
230
1.0
 70
     8
 71
     3
 72
    14
 73
    10
 74
     0
 42
0.000000001
 43
0.00000001
 40
0.0
 40
0.0
 40
0.0
 40
0.0
 40
0.1249789553015496
 40
0.2498098163504285
 40
0.3745823232578657
 40
0.4995715195159086
 40
0.6662781166416188
 40
0.8331039635850064
 40
0.9999999999999999
 40
0.9999999999999999
 40
0.9999999999999999
 40
0.9999999999999999
 10
217.3065520196651
 20
116.2530176525489
 30
0.0
 10
217.2449077858478
 20
116.2565057885858
 30
0.0
 10
217.1216923637649
 20
116.2634779273803
 30
0.0
 10
216.9469978527913
 20
116.3326789576092
 30
0.0
 10
216.8027710078524
 20
116.451771392691
 30
0.0
 10
216.6871095313506
 20
116.6229424095955
 30
0.0
 10
216.5993233147175
 20
116.8321086082964
 30
0.0
 10
216.547927536189
 20
117.0744063529126
 30
0.0
 10
216.542793380481
 20
117.23864914101
 30
0.0
 10
216.5402257627108
 20
117.3207878070973
 30
0.0
  0
SPLINE
  5
247
330
1F
100
AcDbEntity
  8
0
  6
Continuous
 62
     7
370
    18
100
AcDbSpline
210
0.0
220
0.0
230
1.0
 70
     8
 71
     3
 72
    13
 73
     9
 74
     0
 42
0.000000001
 43
0.00000001
 40
0.0
 40
0.0
 40
0.0
 40
0.0
 40
0.1869090516643023
 40
0.3736796016941303
 40
0.5601136847103927
 40
0.7067311959183789
 40
0.8533138294591281
 40
1.0
 40
1.0
 40
1.0
 40
1.0
 10
218.0078364397941
 20
116.946797245352
 30
0.0
 10
217.991982564009
 20
116.8814690923792
 30
0.0
 10
217.9602865603327
 20
116.7508611953036
 30
0.0
 10
217.8752235629139
 20
116.5668660089637
 30
0.0
 10
217.7575453983972
 20
116.4185467134898
 30
0.0
 10
217.6151358106022
 20
116.3186951084028
 30
0.0
 10
217.4649853736685
 20
116.2621903902512
 30
0.0
 10
217.3593755659942
 20
116.2560759513398
 30
0.0
 10
217.3065520196651
 20
116.2530176525489
 30
0.0
  0
LINE
  5
248
330
1F
100
AcDbEntity
  8
0
  6
Continuous
 62
     7
370
    18
100
AcDbLine
 10
217.7943657959
 20
117.0001649063
 30
0.0
 11
218.0078364398
 21
116.9467972454
 31
0.0
  0
SPLINE
  5
249
330
1F
100
AcDbEntity
  8
0
  6
Continuous
 62
     7
370
    18
100
AcDbSpline
210
0.0
220
0.0
230
1.0
 70
     8
 71
     3
 72
    12
 73
     8
 74
     0
 42
0.000000001
 43
0.00000001
 40
0.0
 40
0.0
 40
0.0
 40
0.0
 40
0.1865921528409332
 40
0.3730589116156807
 40
0.5596226295490465
 40
0.7796100104163911
 40
0.9999999999999999
 40
0.9999999999999999
 40
0.9999999999999999
 40
0.9999999999999999
 10
217.299881062042
 20
116.4931721269808
 30
0.0
 10
217.3483752173427
 20
116.4969617782304
 30
0.0
 10
217.445330938796
 20
116.504538534
 30
0.0
 10
217.575962116072
 20
116.5751197808086
 30
0.0
 10
217.6847002752233
 20
116.6855373933158
 30
0.0
 10
217.7580214036989
 20
116.8331372833104
 30
0.0
 10
217.7822436168654
 20
116.9444551084179
 30
0.0
 10
217.7943657958547
 20
117.0001649063368
 30
0.0
  0
SPLINE
  5
24A
330
1F
100
AcDbEntity
  8
0
  6
Continuous
 62
     7
370
    18
100
AcDbSpline
210
0.0
220
0.0
230
1.0
 70
     8
 71
     3
 72
    14
 73
    10
 74
     0
 42
0.000000001
 43
0.00000001
 40
0.0
 40
0.0
 40
0.0
 40
0.0
 40
0.166929986748413
 40
0.3337709048041668
 40
0.5004211293286663
 40
0.625423923950566
 40
0.7503194582828556
 40
0.8750931289475112
 40
1.0
 40
1.0
 40
1.0
 40
1.0
 10
216.7536964066502
 20
117.3207878070973
 30
0.0
 10
216.7550261425807
 20
117.2588408688367
 30
0.0
 10
216.7576849049357
 20
117.1349800452911
 30
0.0
 10
216.787831093188
 20
116.9512850697423
 30
0.0
 10
216.8424113683359
 20
116.7886350050007
 30
0.0
 10
216.9281815156336
 20
116.6583404119368
 30
0.0
 10
217.031764789207
 20
116.5635765569144
 30
0.0
 10
217.1603479609778
 20
116.502775224577
 30
0.0
 10
217.25335348939
 20
116.4963742977753
 30
0.0
 10
217.299881062042
 20
116.4931721269808
 30
0.0
  0
CIRCLE
  5
24B
330
1F
100
AcDbEntity
  8
0
  6
Continuous
 62
     7
370
    18
100
AcDbCircle
 10
225.8929083503
 20
119.6685479556
 30
0.0
 40
25.19999999999999
  0
SPLINE
  5
24C
330
1F
100
AcDbEntity
  8
0
  6
Continuous
 62
     7
370
    18
100
AcDbSpline
210
0.0
220
0.0
230
1.0
 70
     8
 71
     3
 72
    13
 73
     9
 74
     0
 42
0.000000001
 43
0.00000001
 40
0.0
 40
0.0
 40
0.0
 40
0.0
 40
0.123734574999409
 40
0.2484232101745705
 40
0.3734713343328629
 40
0.498744496763746
 40
0.7493102257733253
 40
1.0
 40
1.0
 40
1.0
 40
1.0
 10
233.4227517673865
 20
116.4664882964883
 30
0.0
 10
233.4638361635761
 20
116.4738515382411
 30
0.0
 10
233.5463217387644
 20
116.4886347963041
 30
0.0
 10
233.6305163084669
 20
116.5863475903749
 30
0.0
 10
233.6875860310227
 20
116.6950896729911
 30
0.0
 10
233.7267562284384
 20
116.855882780087
 30
0.0
 10
233.7480235513621
 20
117.0604397639468
 30
0.0
 10
233.7502052906994
 20
117.2248189997249
 30
0.0
 10
233.7512964303244
 20
117.3070289569997
 30
0.0
  0
SPLINE
  5
24D
330
1F
100
AcDbEntity
  8
0
  6
Continuous
 62
     7
370
    18
100
AcDbSpline
210
0.0
220
0.0
230
1.0
 70
     8
 71
     3
 72
    13
 73
     9
 74
     0
 42
0.000000001
 43
0.00000001
 40
0.0
 40
0.0
 40
0.0
 40
0.0
 40
0.2506668541570196
 40
0.5012048357437092
 40
0.626453782951047
 40
0.7514291871594873
 40
0.8760522367173391
 40
1.0
 40
1.0
 40
1.0
 40
1.0
 10
233.0842006680138
 20
117.3070289569997
 30
0.0
 10
233.0852489748304
 20
117.2240837212047
 30
0.0
 10
233.0873450495093
 20
117.058235893329
 30
0.0
 10
233.1091641485481
 20
116.8518618909513
 30
0.0
 10
233.1492666288185
 20
116.6898075075154
 30
0.0
 10
233.2086379704355
 20
116.5807020043962
 30
0.0
 10
233.2977393297832
 20
116.4860116789374
 30
0.0
 10
233.3811564939784
 20
116.4729842935778
 30
0.0
 10
233.4227517673865
 20
116.4664882964883
 30
0.0
  0
SPLINE
  5
24E
330
1F
100
AcDbEntity
  8
0
  6
Continuous
 62
     7
370
    18
100
AcDbSpline
210
0.0
220
0.0
230
1.0
 70
     8
 71
     3
 72
    13
 73
     9
 74
     0
 42
0.000000001
 43
0.00000001
 40
0.0
 40
0.0
 40
0.0
 40
0.0
 40
0.1236770548154474
 40
0.2483884878623323
 40
0.3734455614730958
 40
0.4987169325064015
 40
0.7492948497723048
 40
1.0
 40
1.0
 40
1.0
 40
1.0
 10
233.4102437218432
 20
118.1475696175111
 30
0.0
 10
233.3692551571888
 20
118.1400764182513
 30
0.0
 10
233.2869352183018
 20
118.1250273500457
 30
0.0
 10
233.2038214988803
 20
118.0266700097155
 30
0.0
 10
233.1470884498071
 20
117.9180361883795
 30
0.0
 10
233.1090726558145
 20
117.7572541592153
 30
0.0
 10
233.0873279070721
 20
117.5532052492789
 30
0.0
 10
233.0852432574048
 20
117.3891016050598
 30
0.0
 10
233.0842006680138
 20
117.3070289569997
 30
0.0
  0
SPLINE
  5
24F
330
1F
100
AcDbEntity
  8
0
  6
Continuous
 62
     7
370
    18
100
AcDbSpline
210
0.0
220
0.0
230
1.0
 70
     8
 71
     3
 72
    13
 73
     9
 74
     0
 42
0.000000001
 43
0.00000001
 40
0.0
 40
0.0
 40
0.0
 40
0.0
 40
0.2506736071386388
 40
0.501215260733799
 40
0.6264526015104164
 40
0.7514497498805428
 40
0.8760271183236293
 40
1.0
 40
1.0
 40
1.0
 40
1.0
 10
233.7512964303244
 20
117.3070289569997
 30
0.0
 10
233.7502579274124
 20
117.3901751107535
 30
0.0
 10
233.7481814682518
 20
117.5564236504719
 30
0.0
 10
233.7262672238406
 20
117.7633147782756
 30
0.0
 10
233.6858747686041
 20
117.9256903540059
 30
0.0
 10
233.6261071378539
 20
118.0350311012654
 30
0.0
 10
233.5355870525011
 20
118.1287693529668
 30
0.0
 10
233.4519570345861
 20
118.1413130316164
 30
0.0
 10
233.4102437218432
 20
118.1475696175111
 30
0.0
  0
SPLINE
  5
250
330
1F
100
AcDbEntity
  8
0
  6
Continuous
 62
     7
370
    18
100
AcDbSpline
210
0.0
220
0.0
230
1.0
 70
     8
 71
     3
 72
    13
 73
     9
 74
     0
 42
0.000000001
 43
0.00000001
 40
0.0
 40
0.0
 40
0.0
 40
0.0
 40
0.1237345749994073
 40
0.24842321017457
 40
0.3734713343328631
 40
0.4987444967637467
 40
0.7493102257733254
 40
1.0
 40
1.0
 40
1.0
 40
1.0
 10
229.366809532538
 20
116.4664882964883
 30
0.0
 10
229.4078939287276
 20
116.4738515382411
 30
0.0
 10
229.490379503916
 20
116.4886347963041
 30
0.0
 10
229.5745740736184
 20
116.586347590375
 30
0.0
 10
229.6316437961742
 20
116.6950896729911
 30
0.0
 10
229.6708139935899
 20
116.855882780087
 30
0.0
 10
229.6920813165137
 20
117.0604397639468
 30
0.0
 10
229.6942630558509
 20
117.2248189997249
 30
0.0
 10
229.695354195476
 20
117.3070289569997
 30
0.0
  0
SPLINE
  5
251
330
1F
100
AcDbEntity
  8
0
  6
Continuous
 62
     7
370
    18
100
AcDbSpline
210
0.0
220
0.0
230
1.0
 70
     8
 71
     3
 72
    13
 73
     9
 74
     0
 42
0.000000001
 43
0.00000001
 40
0.0
 40
0.0
 40
0.0
 40
0.0
 40
0.250666854157016
 40
0.5012048357437093
 40
0.6264537829510471
 40
0.7514291871594874
 40
0.8760522367173392
 40
1.0
 40
1.0
 40
1.0
 40
1.0
 10
229.0282584331653
 20
117.3070289569997
 30
0.0
 10
229.029306739982
 20
117.2240837212047
 30
0.0
 10
229.0314028146608
 20
117.058235893329
 30
0.0
 10
229.0532219136996
 20
116.8518618909513
 30
0.0
 10
229.0933243939701
 20
116.6898075075154
 30
0.0
 10
229.152695735587
 20
116.5807020043962
 30
0.0
 10
229.2417970949347
 20
116.4860116789374
 30
0.0
 10
229.3252142591299
 20
116.4729842935778
 30
0.0
 10
229.366809532538
 20
116.4664882964883
 30
0.0
  0
SPLINE
  5
252
330
1F
100
AcDbEntity
  8
0
  6
Continuous
 62
     7
370
    18
100
AcDbSpline
210
0.0
220
0.0
230
1.0
 70
     8
 71
     3
 72
    13
 73
     9
 74
     0
 42
0.000000001
 43
0.00000001
 40
0.0
 40
0.0
 40
0.0
 40
0.0
 40
0.1236770548154448
 40
0.2483884878623323
 40
0.3734455614730949
 40
0.4987169325064009
 40
0.7492948497723044
 40
1.0
 40
1.0
 40
1.0
 40
1.0
 10
229.3543014869946
 20
118.1475696175111
 30
0.0
 10
229.3133129223404
 20
118.1400764182513
 30
0.0
 10
229.2309929834533
 20
118.1250273500457
 30
0.0
 10
229.1478792640318
 20
118.0266700097155
 30
0.0
 10
229.0911462149586
 20
117.9180361883795
 30
0.0
 10
229.053130420966
 20
117.7572541592153
 30
0.0
 10
229.0313856722237
 20
117.5532052492789
 30
0.0
 10
229.0293010225563
 20
117.3891016050598
 30
0.0
 10
229.0282584331653
 20
117.3070289569997
 30
0.0
  0
SPLINE
  5
253
330
1F
100
AcDbEntity
  8
0
  6
Continuous
 62
     7
370
    18
100
AcDbSpline
210
0.0
220
0.0
230
1.0
 70
     8
 71
     3
 72
    13
 73
     9
 74
     0
 42
0.000000001
 43
0.00000001
 40
0.0
 40
0.0
 40
0.0
 40
0.0
 40
0.250673607138639
 40
0.5012152607337989
 40
0.6264526015104139
 40
0.7514497498805404
 40
0.8760271183236269
 40
1.0
 40
1.0
 40
1.0
 40
1.0
 10
229.695354195476
 20
117.3070289569997
 30
0.0
 10
229.6943156925639
 20
117.3901751107535
 30
0.0
 10
229.6922392334033
 20
117.5564236504719
 30
0.0
 10
229.6703249889921
 20
117.7633147782756
 30
0.0
 10
229.6299325337556
 20
117.9256903540059
 30
0.0
 10
229.5701649030054
 20
118.0350311012654
 30
0.0
 10
229.4796448176526
 20
118.1287693529668
 30
0.0
 10
229.3960147997376
 20
118.1413130316164
 30
0.0
 10
229.3543014869946
 20
118.1475696175111
 30
0.0
  0
SPLINE
  5
254
330
1F
100
AcDbEntity
  8
0
  6
Continuous
 62
     7
370
    18
100
AcDbSpline
210
0.0
220
0.0
230
1.0
 70
     8
 71
     3
 72
    13
 73
     9
 74
     0
 42
0.000000001
 43
0.00000001
 40
0.0
 40
0.0
 40
0.0
 40
0.0
 40
0.1237345749994042
 40
0.2484232101745684
 40
0.3734713343328611
 40
0.4987444967637453
 40
0.7493102257733212
 40
1.0
 40
1.0
 40
1.0
 40
1.0
 10
228.0593018384092
 20
116.4664882964883
 30
0.0
 10
228.1003862345988
 20
116.4738515382411
 30
0.0
 10
228.1828718097872
 20
116.4886347963041
 30
0.0
 10
228.2670663794896
 20
116.5863475903749
 30
0.0
 10
228.3241361020454
 20
116.6950896729911
 30
0.0
 10
228.3633062994612
 20
116.855882780087
 30
0.0
 10
228.3845736223849
 20
117.0604397639467
 30
0.0
 10
228.3867553617221
 20
117.2248189997249
 30
0.0
 10
228.3878465013472
 20
117.3070289569997
 30
0.0
  0
SPLINE
  5
255
330
1F
100
AcDbEntity
  8
0
  6
Continuous
 62
     7
370
    18
100
AcDbSpline
210
0.0
220
0.0
230
1.0
 70
     8
 71
     3
 72
    13
 73
     9
 74
     0
 42
0.000000001
 43
0.00000001
 40
0.0
 40
0.0
 40
0.0
 40
0.0
 40
0.2506668541570156
 40
0.5012048357437086
 40
0.6264537829510461
 40
0.7514291871594863
 40
0.8760522367173379
 40
1.0
 40
1.0
 40
1.0
 40
1.0
 10
227.7207507390366
 20
117.3070289569997
 30
0.0
 10
227.7217990458531
 20
117.2240837212047
 30
0.0
 10
227.723895120532
 20
117.058235893329
 30
0.0
 10
227.7457142195708
 20
116.8518618909513
 30
0.0
 10
227.7858166998413
 20
116.6898075075154
 30
0.0
 10
227.8451880414582
 20
116.5807020043962
 30
0.0
 10
227.9342894008059
 20
116.4860116789374
 30
0.0
 10
228.0177065650011
 20
116.4729842935778
 30
0.0
 10
228.0593018384092
 20
116.4664882964883
 30
0.0
  0
SPLINE
  5
256
330
1F
100
AcDbEntity
  8
0
  6
Continuous
 62
     7
370
    18
100
AcDbSpline
210
0.0
220
0.0
230
1.0
 70
     8
 71
     3
 72
    13
 73
     9
 74
     0
 42
0.000000001
 43
0.00000001
 40
0.0
 40
0.0
 40
0.0
 40
0.0
 40
0.1236770548154462
 40
0.2483884878623335
 40
0.373445561473096
 40
0.4987169325064018
 40
0.7492948497723049
 40
1.0
 40
1.0
 40
1.0
 40
1.0
 10
228.0467937928659
 20
118.1475696175111
 30
0.0
 10
228.0058052282116
 20
118.1400764182513
 30
0.0
 10
227.9234852893246
 20
118.1250273500457
 30
0.0
 10
227.840371569903
 20
118.0266700097155
 30
0.0
 10
227.7836385208298
 20
117.9180361883795
 30
0.0
 10
227.7456227268372
 20
117.7572541592153
 30
0.0
 10
227.7238779780949
 20
117.5532052492789
 30
0.0
 10
227.7217933284275
 20
117.3891016050597
 30
0.0
 10
227.7207507390366
 20
117.3070289569997
 30
0.0
  0
SPLINE
  5
257
330
1F
100
AcDbEntity
  8
0
  6
Continuous
 62
     7
370
    18
100
AcDbSpline
210
0.0
220
0.0
230
1.0
 70
     8
 71
     3
 72
    13
 73
     9
 74
     0
 42
0.000000001
 43
0.00000001
 40
0.0
 40
0.0
 40
0.0
 40
0.0
 40
0.2506736071386391
 40
0.501215260733799
 40
0.626452601510414
 40
0.7514497498805427
 40
0.8760271183236269
 40
1.0
 40
1.0
 40
1.0
 40
1.0
 10
228.3878465013472
 20
117.3070289569997
 30
0.0
 10
228.3868079984351
 20
117.3901751107535
 30
0.0
 10
228.3847315392746
 20
117.5564236504719
 30
0.0
 10
228.3628172948634
 20
117.7633147782756
 30
0.0
 10
228.3224248396268
 20
117.9256903540059
 30
0.0
 10
228.2626572088766
 20
118.0350311012654
 30
0.0
 10
228.1721371235238
 20
118.1287693529668
 30
0.0
 10
228.0885071056088
 20
118.1413130316164
 30
0.0
 10
228.0467937928659
 20
118.1475696175111
 30
0.0
  0
SPLINE
  5
258
330
1F
100
AcDbEntity
  8
0
  6
Continuous
 62
     7
370
    18
100
AcDbSpline
210
0.0
220
0.0
230
1.0
 70
     8
 71
     3
 72
    13
 73
     9
 74
     0
 42
0.000000001
 43
0.00000001
 40
0.0
 40
0.0
 40
0.0
 40
0.0
 40
0.123734574999404
 40
0.2484232101745681
 40
0.3734713343328623
 40
0.498744496763746
 40
0.749310225773325
 40
1.0
 40
1.0
 40
1.0
 40
1.0
 10
226.7517941442804
 20
116.4664882964883
 30
0.0
 10
226.79287854047
 20
116.4738515382411
 30
0.0
 10
226.8753641156584
 20
116.4886347963041
 30
0.0
 10
226.9595586853608
 20
116.5863475903749
 30
0.0
 10
227.0166284079166
 20
116.6950896729911
 30
0.0
 10
227.0557986053324
 20
116.855882780087
 30
0.0
 10
227.0770659282561
 20
117.0604397639468
 30
0.0
 10
227.0792476675933
 20
117.2248189997249
 30
0.0
 10
227.0803388072184
 20
117.3070289569997
 30
0.0
  0
SPLINE
  5
259
330
1F
100
AcDbEntity
  8
0
  6
Continuous
 62
     7
370
    18
100
AcDbSpline
210
0.0
220
0.0
230
1.0
 70
     8
 71
     3
 72
    13
 73
     9
 74
     0
 42
0.000000001
 43
0.00000001
 40
0.0
 40
0.0
 40
0.0
 40
0.0
 40
0.2506668541570156
 40
0.5012048357437086
 40
0.6264537829510461
 40
0.7514291871594863
 40
0.8760522367173379
 40
1.0
 40
1.0
 40
1.0
 40
1.0
 10
226.4132430449078
 20
117.3070289569997
 30
0.0
 10
226.4142913517244
 20
117.2240837212047
 30
0.0
 10
226.4163874264032
 20
117.058235893329
 30
0.0
 10
226.438206525442
 20
116.8518618909513
 30
0.0
 10
226.4783090057125
 20
116.6898075075154
 30
0.0
 10
226.5376803473294
 20
116.5807020043962
 30
0.0
 10
226.6267817066771
 20
116.4860116789374
 30
0.0
 10
226.7101988708723
 20
116.4729842935778
 30
0.0
 10
226.7517941442804
 20
116.4664882964883
 30
0.0
  0
SPLINE
  5
25A
330
1F
100
AcDbEntity
  8
0
  6
Continuous
 62
     7
370
    18
100
AcDbSpline
210
0.0
220
0.0
230
1.0
 70
     8
 71
     3
 72
    13
 73
     9
 74
     0
 42
0.000000001
 43
0.00000001
 40
0.0
 40
0.0
 40
0.0
 40
0.0
 40
0.1236770548154465
 40
0.2483884878623315
 40
0.3734455614730975
 40
0.4987169325064009
 40
0.7492948497723045
 40
1.0
 40
1.0
 40
1.0
 40
1.0
 10
226.7392860987371
 20
118.1475696175111
 30
0.0
 10
226.6982975340828
 20
118.1400764182513
 30
0.0
 10
226.6159775951957
 20
118.1250273500457
 30
0.0
 10
226.5328638757742
 20
118.0266700097155
 30
0.0
 10
226.476130826701
 20
117.9180361883795
 30
0.0
 10
226.4381150327084
 20
117.7572541592153
 30
0.0
 10
226.4163702839661
 20
117.5532052492789
 30
0.0
 10
226.4142856342987
 20
117.3891016050597
 30
0.0
 10
226.4132430449078
 20
117.3070289569997
 30
0.0
  0
SPLINE
  5
25B
330
1F
100
AcDbEntity
  8
0
  6
Continuous
 62
     7
370
    18
100
AcDbSpline
210
0.0
220
0.0
230
1.0
 70
     8
 71
     3
 72
    13
 73
     9
 74
     0
 42
0.000000001
 43
0.00000001
 40
0.0
 40
0.0
 40
0.0
 40
0.0
 40
0.2506736071386393
 40
0.5012152607337996
 40
0.6264526015104144
 40
0.7514497498805401
 40
0.8760271183236268
 40
1.0
 40
1.0
 40
1.0
 40
1.0
 10
227.0803388072184
 20
117.3070289569997
 30
0.0
 10
227.0793003043063
 20
117.3901751107535
 30
0.0
 10
227.0772238451458
 20
117.5564236504719
 30
0.0
 10
227.0553096007345
 20
117.7633147782756
 30
0.0
 10
227.014917145498
 20
117.9256903540059
 30
0.0
 10
226.9551495147478
 20
118.0350311012654
 30
0.0
 10
226.864629429395
 20
118.1287693529668
 30
0.0
 10
226.78099941148
 20
118.1413130316164
 30
0.0
 10
226.7392860987371
 20
118.1475696175111
 30
0.0
  0
SPLINE
  5
25C
330
1F
100
AcDbEntity
  8
0
  6
Continuous
 62
     7
370
    18
100
AcDbSpline
210
0.0
220
0.0
230
1.0
 70
     8
 71
     3
 72
    12
 73
     8
 74
     0
 42
0.000000001
 43
0.00000001
 40
0.0
 40
0.0
 40
0.0
 40
0.0
 40
0.1864266110451018
 40
0.3728066183672655
 40
0.5596384089196442
 40
0.7795953861027523
 40
1.0
 40
1.0
 40
1.0
 40
1.0
 10
223.3591952580796
 20
116.4664882964883
 30
0.0
 10
223.3959895014786
 20
116.4700439640769
 30
0.0
 10
223.4695687902942
 20
116.4771544103931
 30
0.0
 10
223.5643632883217
 20
116.5390512618263
 30
0.0
 10
223.6395303813088
 20
116.6290124437869
 30
0.0
 10
223.6848050334917
 20
116.7462734119282
 30
0.0
 10
223.689261724178
 20
116.8326740750235
 30
0.0
 10
223.6914923346805
 20
116.8759183206065
 30
0.0
  0
SPLINE
  5
25D
330
1F
100
AcDbEntity
  8
0
  6
Continuous
 62
     7
370
    18
100
AcDbSpline
210
0.0
220
0.0
230
1.0
 70
     8
 71
     3
 72
    11
 73
     7
 74
     0
 42
0.000000001
 43
0.00000001
 40
0.0
 40
0.0
 40
0.0
 40
0.0
 40
0.2807261943832933
 40
0.560397291612564
 40
0.7804346209650581
 40
1.0
 40
1.0
 40
1.0
 40
1.0
 10
223.0243965723699
 20
116.8842570176354
 30
0.0
 10
223.0279713122873
 20
116.828224405415
 30
0.0
 10
223.0351073566182
 20
116.7163697771027
 30
0.0
 10
223.1136181605728
 20
116.577994351384
 30
0.0
 10
223.2273534617198
 20
116.4831923136794
 30
0.0
 10
223.3152794579328
 20
116.4720523156451
 30
0.0
 10
223.3591952580796
 20
116.4664882964883
 30
0.0
  0
SPLINE
  5
25E
330
1F
100
AcDbEntity
  8
0
  6
Continuous
 62
     7
370
    18
100
AcDbSpline
210
0.0
220
0.0
230
1.0
 70
     8
 71
     3
 72
    11
 73
     7
 74
     0
 42
0.000000001
 43
0.00000001
 40
0.0
 40
0.0
 40
0.0
 40
0.0
 40
0.2782055765816049
 40
0.5579799253701343
 40
0.7788219222535238
 40
1.0
 40
1.0
 40
1.0
 40
1.0
 10
223.3537751050108
 20
117.2936870417535
 30
0.0
 10
223.2990908296094
 20
117.2844972892902
 30
0.0
 10
223.1894139198859
 20
117.2660659643086
 30
0.0
 10
223.0841694034118
 20
117.1445943163101
 30
0.0
 10
223.0310921133681
 20
117.0135936298505
 30
0.0
 10
223.0266295503753
 20
116.9273910691545
 30
0.0
 10
223.0243965723699
 20
116.8842570176354
 30
0.0
  0
SPLINE
  5
25F
330
1F
100
AcDbEntity
  8
0
  6
Continuous
 62
     7
370
    18
100
AcDbSpline
210
0.0
220
0.0
230
1.0
 70
     8
 71
     3
 72
    11
 73
     7
 74
     0
 42
0.000000001
 43
0.00000001
 40
0.0
 40
0.0
 40
0.0
 40
0.0
 40
0.2807535301687743
 40
0.5603207228591549
 40
0.7803822345379182
 40
1.0
 40
1.0
 40
1.0
 40
1.0
 10
223.6914923346805
 20
116.8759183206065
 30
0.0
 10
223.6878081309831
 20
116.9321572713578
 30
0.0
 10
223.6804552913671
 20
117.0443975324824
 30
0.0
 10
223.6003301673728
 20
117.182436814482
 30
0.0
 10
223.4860958356215
 20
117.2771836288572
 30
0.0
 10
223.3978523286341
 20
117.288189606715
 30
0.0
 10
223.3537751050108
 20
117.2936870417535
 30
0.0
  0
SPLINE
  5
260
330
1F
100
AcDbEntity
  8
0
  6
Continuous
 62
     7
370
    18
100
AcDbSpline
210
0.0
220
0.0
230
1.0
 70
     8
 71
     3
 72
    11
 73
     7
 74
     0
 42
0.000000001
 43
0.00000001
 40
0.0
 40
0.0
 40
0.0
 40
0.0
 40
0.2783889696083806
 40
0.5580817055296794
 40
0.7789018539988231
 40
1.0
 40
1.0
 40
1.0
 40
1.0
 10
223.3591952580796
 20
117.5071576856929
 30
0.0
 10
223.401182304495
 20
117.5143231461317
 30
0.0
 10
223.4853530333376
 20
117.528687624682
 30
0.0
 10
223.5654564290874
 20
117.6223814698834
 30
0.0
 10
223.6064718908624
 20
117.7227008007748
 30
0.0
 10
223.6097838312755
 20
117.7888487287218
 30
0.0
 10
223.6114408432032
 20
117.8219434985332
 30
0.0
  0
SPLINE
  5
261
330
1F
100
AcDbEntity
  8
0
  6
Continuous
 62
     7
370
    18
100
AcDbSpline
210
0.0
220
0.0
230
1.0
 70
     8
 71
     3
 72
    11
 73
     7
 74
     0
 42
0.000000001
 43
0.00000001
 40
0.0
 40
0.0
 40
0.0
 40
0.0
 40
0.2806987831964731
 40
0.5604086902325239
 40
0.7804393617933058
 40
0.9999999999999999
 40
0.9999999999999999
 40
0.9999999999999999
 40
0.9999999999999999
 10
223.1044480638472
 20
117.8357023486308
 30
0.0
 10
223.1068757472783
 20
117.7921452013884
 30
0.0
 10
223.1117225616337
 20
117.7051843547525
 30
0.0
 10
223.168992561431
 20
117.5956854588637
 30
0.0
 10
223.2564129947772
 20
117.5198882925607
 30
0.0
 10
223.3249589345788
 20
117.5113981953011
 30
0.0
 10
223.3591952580796
 20
117.5071576856929
 30
0.0
  0
SPLINE
  5
262
330
1F
100
AcDbEntity
  8
0
  6
Continuous
 62
     7
370
    18
100
AcDbSpline
210
0.0
220
0.0
230
1.0
 70
     8
 71
     3
 72
    11
 73
     7
 74
     0
 42
0.000000001
 43
0.00000001
 40
0.0
 40
0.0
 40
0.0
 40
0.0
 40
0.2781848052830279
 40
0.5582334878196241
 40
0.7790790531104522
 40
1.0
 40
1.0
 40
1.0
 40
1.0
 10
223.3566936489709
 20
118.1475696175111
 30
0.0
 10
223.3151367145463
 20
118.1402642357882
 30
0.0
 10
223.2317444084018
 20
118.1256045252593
 30
0.0
 10
223.1523130941213
 20
118.0329756674857
 30
0.0
 10
223.1101750392093
 20
117.9340691609909
 30
0.0
 10
223.1063572727849
 20
117.8684950158704
 30
0.0
 10
223.1044480638472
 20
117.8357023486309
 30
0.0
  0
SPLINE
  5
263
330
1F
100
AcDbEntity
  8
0
  6
Continuous
 62
     7
370
    18
100
AcDbSpline
210
0.0
220
0.0
230
1.0
 70
     8
 71
     3
 72
    11
 73
     7
 74
     0
 42
0.000000001
 43
0.00000001
 40
0.0
 40
0.0
 40
0.0
 40
0.0
 40
0.2805990159984006
 40
0.5604527759419575
 40
0.7805133266133532
 40
1.0
 40
1.0
 40
1.0
 40
1.0
 10
223.6114408432032
 20
117.8219434985332
 30
0.0
 10
223.6087569207052
 20
117.8650827850995
 30
0.0
 10
223.6033962040646
 20
117.9512467825826
 30
0.0
 10
223.5428836853895
 20
118.0571354425337
 30
0.0
 10
223.4581464240949
 20
118.1332892402942
 30
0.0
 10
223.3904817928041
 20
118.1428136368215
 30
0.0
 10
223.3566936489709
 20
118.1475696175111
 30
0.0
  0
SPLINE
  5
264
330
1F
100
AcDbEntity
  8
0
  6
Continuous
 62
     7
370
    18
100
AcDbSpline
210
0.0
220
0.0
230
1.0
 70
     8
 71
     3
 72
    13
 73
     9
 74
     0
 42
0.000000001
 43
0.00000001
 40
0.0
 40
0.0
 40
0.0
 40
0.0
 40
0.1237345749994071
 40
0.2484232101745708
 40
0.3734713343328631
 40
0.4987444967637474
 40
0.7493102257733256
 40
1.0
 40
1.0
 40
1.0
 40
1.0
 10
222.0554399776137
 20
116.4664882964883
 30
0.0
 10
222.0965243738034
 20
116.4738515382411
 30
0.0
 10
222.1790099489917
 20
116.4886347963041
 30
0.0
 10
222.2632045186941
 20
116.586347590375
 30
0.0
 10
222.32027424125
 20
116.6950896729911
 30
0.0
 10
222.3594444386657
 20
116.855882780087
 30
0.0
 10
222.3807117615894
 20
117.0604397639467
 30
0.0
 10
222.3828935009266
 20
117.2248189997249
 30
0.0
 10
222.3839846405517
 20
117.3070289569997
 30
0.0
  0
SPLINE
  5
265
330
1F
100
AcDbEntity
  8
0
  6
Continuous
 62
     7
370
    18
100
AcDbSpline
210
0.0
220
0.0
230
1.0
 70
     8
 71
     3
 72
    13
 73
     9
 74
     0
 42
0.000000001
 43
0.00000001
 40
0.0
 40
0.0
 40
0.0
 40
0.0
 40
0.2506668541570162
 40
0.5012048357437103
 40
0.6264537829510483
 40
0.7514291871594887
 40
0.8760522367173408
 40
1.0
 40
1.0
 40
1.0
 40
1.0
 10
221.7168888782411
 20
117.3070289569997
 30
0.0
 10
221.7179371850577
 20
117.2240837212047
 30
0.0
 10
221.7200332597365
 20
117.058235893329
 30
0.0
 10
221.7418523587754
 20
116.8518618909512
 30
0.0
 10
221.7819548390458
 20
116.6898075075154
 30
0.0
 10
221.8413261806627
 20
116.5807020043962
 30
0.0
 10
221.9304275400104
 20
116.4860116789374
 30
0.0
 10
222.0138447042056
 20
116.4729842935778
 30
0.0
 10
222.0554399776137
 20
116.4664882964883
 30
0.0
  0
SPLINE
  5
266
330
1F
100
AcDbEntity
  8
0
  6
Continuous
 62
     7
370
    18
100
AcDbSpline
210
0.0
220
0.0
230
1.0
 70
     8
 71
     3
 72
    13
 73
     9
 74
     0
 42
0.000000001
 43
0.00000001
 40
0.0
 40
0.0
 40
0.0
 40
0.0
 40
0.1236770548154433
 40
0.2483884878623311
 40
0.3734455614730972
 40
0.4987169325063999
 40
0.749294849772304
 40
1.0
 40
1.0
 40
1.0
 40
1.0
 10
222.0429319320704
 20
118.1475696175111
 30
0.0
 10
222.0019433674161
 20
118.1400764182513
 30
0.0
 10
221.9196234285291
 20
118.1250273500457
 30
0.0
 10
221.8365097091075
 20
118.0266700097155
 30
0.0
 10
221.7797766600343
 20
117.9180361883795
 30
0.0
 10
221.7417608660417
 20
117.7572541592153
 30
0.0
 10
221.7200161172994
 20
117.5532052492789
 30
0.0
 10
221.717931467632
 20
117.3891016050597
 30
0.0
 10
221.7168888782411
 20
117.3070289569997
 30
0.0
  0
SPLINE
  5
267
330
1F
100
AcDbEntity
  8
0
  6
Continuous
 62
     7
370
    18
100
AcDbSpline
210
0.0
220
0.0
230
1.0
 70
     8
 71
     3
 72
    13
 73
     9
 74
     0
 42
0.000000001
 43
0.00000001
 40
0.0
 40
0.0
 40
0.0
 40
0.0
 40
0.2506736071386388
 40
0.5012152607337987
 40
0.6264526015104133
 40
0.7514497498805405
 40
0.8760271183236269
 40
1.0
 40
1.0
 40
1.0
 40
1.0
 10
222.3839846405517
 20
117.3070289569997
 30
0.0
 10
222.3829461376396
 20
117.3901751107535
 30
0.0
 10
222.3808696784791
 20
117.5564236504719
 30
0.0
 10
222.3589554340679
 20
117.7633147782756
 30
0.0
 10
222.3185629788313
 20
117.9256903540059
 30
0.0
 10
222.2587953480811
 20
118.0350311012654
 30
0.0
 10
222.1682752627284
 20
118.1287693529668
 30
0.0
 10
222.0846452448134
 20
118.1413130316164
 30
0.0
 10
222.0429319320704
 20
118.1475696175111
 30
0.0
  0
CIRCLE
  5
268
330
1F
100
AcDbEntity
  8
0
  6
Continuous
 62
     7
370
    18
100
AcDbCircle
 10
225.8929083503
 20
119.6685479556
 30
0.0
 40
25.40000000000001
  0
OLE2FRAME
  5
269
330
1F
100
AcDbEntity
  8
0
100
AcDbOle2Frame
 70
     2
  3
Paintbrush Picture
 10
229.0524258301
 20
33.6996297921
 30
0.0
 11
265.1686469208
 21
28.555479607
 31
0.0
 71
     2
 72
     0
 73
     1
 90
     7296
310
80557333EF78ADA16C40002412788DD94040000000000000000041161DC7B292
310
7040002412788DD94040000000000000000041161DC7B2927040F6DD59E9338E
310
3C4000000000000000007333EF78ADA16C40F6DD59E9338E3C40000000000000
310
00000000000001000000000100000100000001000000000001000000001C0000
310
D0CF11E0A1B11AE1000000000000000000000000000000003E000300FEFF0900
310
0600000000000000000000000100000001000000000000000010000002000000
310
01000000FEFFFFFF0000000000000000FFFFFFFFFFFFFFFFFFFFFFFFFFFFFFFF
310
FFFFFFFFFFFFFFFFFFFFFFFFFFFFFFFFFFFFFFFFFFFFFFFFFFFFFFFFFFFFFFFF
310
FFFFFFFFFFFFFFFFFFFFFFFFFFFFFFFFFFFFFFFFFFFFFFFFFFFFFFFFFFFFFFFF
310
FFFFFFFFFFFFFFFFFFFFFFFFFFFFFFFFFFFFFFFFFFFFFFFFFFFFFFFFFFFFFFFF
310
FFFFFFFFFFFFFFFFFFFFFFFFFFFFFFFFFFFFFFFFFFFFFFFFFFFFFFFFFFFFFFFF
310
FFFFFFFFFFFFFFFFFFFFFFFFFFFFFFFFFFFFFFFFFFFFFFFFFFFFFFFFFFFFFFFF
310
FFFFFFFFFFFFFFFFFFFFFFFFFFFFFFFFFFFFFFFFFFFFFFFFFFFFFFFFFFFFFFFF
310
FFFFFFFFFFFFFFFFFFFFFFFFFFFFFFFFFFFFFFFFFFFFFFFFFFFFFFFFFFFFFFFF
310
FFFFFFFFFFFFFFFFFFFFFFFFFFFFFFFFFFFFFFFFFFFFFFFFFFFFFFFFFFFFFFFF
310
FFFFFFFFFFFFFFFFFFFFFFFFFFFFFFFFFFFFFFFFFFFFFFFFFFFFFFFFFFFFFFFF
310
FFFFFFFFFFFFFFFFFFFFFFFFFFFFFFFFFFFFFFFFFFFFFFFFFFFFFFFFFFFFFFFF
310
FFFFFFFFFFFFFFFFFFFFFFFFFFFFFFFFFFFFFFFFFFFFFFFFFFFFFFFFFFFFFFFF
310
FFFFFFFFFFFFFFFFFFFFFFFFFFFFFFFFFFFFFFFFFFFFFFFFFFFFFFFFFFFFFFFF
310
FFFFFFFFFFFFFFFFFFFFFFFFFFFFFFFFFFFFFFFFFFFFFFFFFFFFFFFFFFFFFFFF
310
FDFFFFFFFEFFFFFFFEFFFFFFFEFFFFFF05000000060000000700000008000000
310
090000000A0000000B0000000C000000FEFFFFFFFFFFFFFFFFFFFFFFFFFFFFFF
310
FFFFFFFFFFFFFFFFFFFFFFFFFFFFFFFFFFFFFFFFFFFFFFFFFFFFFFFFFFFFFFFF
310
FFFFFFFFFFFFFFFFFFFFFFFFFFFFFFFFFFFFFFFFFFFFFFFFFFFFFFFFFFFFFFFF
310
FFFFFFFFFFFFFFFFFFFFFFFFFFFFFFFFFFFFFFFFFFFFFFFFFFFFFFFFFFFFFFFF
310
FFFFFFFFFFFFFFFFFFFFFFFFFFFFFFFFFFFFFFFFFFFFFFFFFFFFFFFFFFFFFFFF
310
FFFFFFFFFFFFFFFFFFFFFFFFFFFFFFFFFFFFFFFFFFFFFFFFFFFFFFFFFFFFFFFF
310
FFFFFFFFFFFFFFFFFFFFFFFFFFFFFFFFFFFFFFFFFFFFFFFFFFFFFFFFFFFFFFFF
310
FFFFFFFFFFFFFFFFFFFFFFFFFFFFFFFFFFFFFFFFFFFFFFFFFFFFFFFFFFFFFFFF
310
FFFFFFFFFFFFFFFFFFFFFFFFFFFFFFFFFFFFFFFFFFFFFFFFFFFFFFFFFFFFFFFF
310
FFFFFFFFFFFFFFFFFFFFFFFFFFFFFFFFFFFFFFFFFFFFFFFFFFFFFFFFFFFFFFFF
310
FFFFFFFFFFFFFFFFFFFFFFFFFFFFFFFFFFFFFFFFFFFFFFFFFFFFFFFFFFFFFFFF
310
FFFFFFFFFFFFFFFFFFFFFFFFFFFFFFFFFFFFFFFFFFFFFFFFFFFFFFFFFFFFFFFF
310
FFFFFFFFFFFFFFFFFFFFFFFFFFFFFFFFFFFFFFFFFFFFFFFFFFFFFFFFFFFFFFFF
310
FFFFFFFFFFFFFFFFFFFFFFFFFFFFFFFFFFFFFFFFFFFFFFFFFFFFFFFFFFFFFFFF
310
FFFFFFFFFFFFFFFFFFFFFFFFFFFFFFFFFFFFFFFFFFFFFFFFFFFFFFFFFFFFFFFF
310
52006F006F007400200045006E00740072007900000000000000000000000000
310
0000000000000000000000000000000000000000000000000000000000000000
310
16000500FFFFFFFFFFFFFFFF020000000A00030000000000C000000000000046
310
000000000000000000000000B0B1EDFD4596D40103000000C000000000000000
310
01004F006C006500000000000000000000000000000000000000000000000000
310
0000000000000000000000000000000000000000000000000000000000000000
310
0A000200FFFFFFFFFFFFFFFFFFFFFFFF00000000000000000000000000000000
310
0000000000000000000000000000000000000000000000001400000000000000
310
010043006F006D0070004F0062006A0000000000000000000000000000000000
310
0000000000000000000000000000000000000000000000000000000000000000
310
120002010100000003000000FFFFFFFF00000000000000000000000000000000
310
0000000000000000000000000000000000000000010000004D00000000000000
310
01004F006C006500310030004E00610074006900760065000000000000000000
310
0000000000000000000000000000000000000000000000000000000000000000
310
1A000200FFFFFFFFFFFFFFFFFFFFFFFF00000000000000000000000000000000
310
000000000000000000000000000000000000000004000000E411000000000000
310
FEFFFFFF02000000FEFFFFFFFFFFFFFFFFFFFFFFFFFFFFFFFFFFFFFFFFFFFFFF
310
FFFFFFFFFFFFFFFFFFFFFFFFFFFFFFFFFFFFFFFFFFFFFFFFFFFFFFFFFFFFFFFF
310
FFFFFFFFFFFFFFFFFFFFFFFFFFFFFFFFFFFFFFFFFFFFFFFFFFFFFFFFFFFFFFFF
310
FFFFFFFFFFFFFFFFFFFFFFFFFFFFFFFFFFFFFFFFFFFFFFFFFFFFFFFFFFFFFFFF
310
FFFFFFFFFFFFFFFFFFFFFFFFFFFFFFFFFFFFFFFFFFFFFFFFFFFFFFFFFFFFFFFF
310
FFFFFFFFFFFFFFFFFFFFFFFFFFFFFFFFFFFFFFFFFFFFFFFFFFFFFFFFFFFFFFFF
310
FFFFFFFFFFFFFFFFFFFFFFFFFFFFFFFFFFFFFFFFFFFFFFFFFFFFFFFFFFFFFFFF
310
FFFFFFFFFFFFFFFFFFFFFFFFFFFFFFFFFFFFFFFFFFFFFFFFFFFFFFFFFFFFFFFF
310
FFFFFFFFFFFFFFFFFFFFFFFFFFFFFFFFFFFFFFFFFFFFFFFFFFFFFFFFFFFFFFFF
310
FFFFFFFFFFFFFFFFFFFFFFFFFFFFFFFFFFFFFFFFFFFFFFFFFFFFFFFFFFFFFFFF
310
FFFFFFFFFFFFFFFFFFFFFFFFFFFFFFFFFFFFFFFFFFFFFFFFFFFFFFFFFFFFFFFF
310
FFFFFFFFFFFFFFFFFFFFFFFFFFFFFFFFFFFFFFFFFFFFFFFFFFFFFFFFFFFFFFFF
310
FFFFFFFFFFFFFFFFFFFFFFFFFFFFFFFFFFFFFFFFFFFFFFFFFFFFFFFFFFFFFFFF
310
FFFFFFFFFFFFFFFFFFFFFFFFFFFFFFFFFFFFFFFFFFFFFFFFFFFFFFFFFFFFFFFF
310
FFFFFFFFFFFFFFFFFFFFFFFFFFFFFFFFFFFFFFFFFFFFFFFFFFFFFFFFFFFFFFFF
310
FFFFFFFFFFFFFFFFFFFFFFFFFFFFFFFFFFFFFFFFFFFFFFFFFFFFFFFFFFFFFFFF
310
0100000200000000000000000000000000000000000000000000000000000000
310
0000000000000000000000000000000000000000000000000000000000000000
310
0100FEFF030A0000FFFFFFFF0A00030000000000C00000000000004607000000
310
5042727573680007000000504272757368000700000050427275736800F439B2
310
7100000000000000000000000000000000000000000000000000000000000000
310
0000000000000000000000000000000000000000000000000000000000000000
310
0000000000000000000000000000000000000000000000000000000000000000
310
0000000000000000000000000000000000000000000000000000000000000000
310
0000000000000000000000000000000000000000000000000000000000000000
310
0000000000000000000000000000000000000000000000000000000000000000
310
0000000000000000000000000000000000000000000000000000000000000000
310
0000000000000000000000000000000000000000000000000000000000000000
310
0000000000000000000000000000000000000000000000000000000000000000
310
0000000000000000000000000000000000000000000000000000000000000000
310
0000000000000000000000000000000000000000000000000000000000000000
310
0000000000000000000000000000000000000000000000000000000000000000
310
E0110000424DDE11000000000000360400002800000096000000170000000100
310
08000000000000000000E7240000E72400000001000000010000000000FF0101
310
01FF020202FF030303FF040404FF050505FF060606FF070707FF080808FF0909
310
09FF0A0A0AFF0B0B0BFF0C0C0CFF0D0D0DFF0E0E0EFF0F0F0FFF101010FF1111
310
11FF121212FF131313FF141414FF151515FF161616FF171717FF181818FF1919
310
19FF1A1A1AFF1B1B1BFF1C1C1CFF1D1D1DFF1E1E1EFF1F1F1FFF202020FF2121
310
21FF222222FF232323FF242424FF252525FF262626FF272727FF282828FF2929
310
29FF2A2A2AFF2B2B2BFF2C2C2CFF2D2D2DFF2E2E2EFF2F2F2FFF303030FF3131
310
31FF323232FF333333FF343434FF353535FF363636FF373737FF383838FF3939
310
39FF3A3A3AFF3B3B3BFF3C3C3CFF3D3D3DFF3E3E3EFF3F3F3FFF404040FF4141
310
41FF424242FF434343FF444444FF454545FF464646FF474747FF484848FF4949
310
49FF4A4A4AFF4B4B4BFF4C4C4CFF4D4D4DFF4E4E4EFF4F4F4FFF505050FF5151
310
51FF525252FF535353FF545454FF555555FF565656FF575757FF585858FF5959
310
59FF5A5A5AFF5B5B5BFF5C5C5CFF5D5D5DFF5E5E5EFF5F5F5FFF606060FF6161
310
61FF626262FF636363FF646464FF656565FF666666FF676767FF686868FF6969
310
69FF6A6A6AFF6B6B6BFF6C6C6CFF6D6D6DFF6E6E6EFF6F6F6FFF707070FF7171
310
71FF727272FF737373FF747474FF757575FF767676FF777777FF787878FF7979
310
79FF7A7A7AFF7B7B7BFF7C7C7CFF7D7D7DFF7E7E7EFF7F7F7FFF808080FF8181
310
81FF828282FF838383FF848484FF858585FF868686FF878787FF888888FF8989
310
89FF8A8A8AFF8B8B8BFF8C8C8CFF8D8D8DFF8E8E8EFF8F8F8FFF909090FF9191
310
91FF929292FF939393FF949494FF959595FF969696FF979797FF989898FF9999
310
99FF9A9A9AFF9B9B9BFF9C9C9CFF9D9D9DFF9E9E9EFF9F9F9FFFA0A0A0FFA1A1
310
A1FFA2A2A2FFA3A3A3FFA4A4A4FFA5A5A5FFA6A6A6FFA7A7A7FFA8A8A8FFA9A9
310
A9FFAAAAAAFFABABABFFACACACFFADADADFFAEAEAEFFAFAFAFFFB0B0B0FFB1B1
310
B1FFB2B2B2FFB3B3B3FFB4B4B4FFB5B5B5FFB6B6B6FFB7B7B7FFB8B8B8FFB9B9
310
B9FFBABABAFFBBBBBBFFBCBCBCFFBDBDBDFFBEBEBEFFBFBFBFFFC0C0C0FFC1C1
310
C1FFC2C2C2FFC3C3C3FFC4C4C4FFC5C5C5FFC6C6C6FFC7C7C7FFC8C8C8FFC9C9
310
C9FFCACACAFFCBCBCBFFCCCCCCFFCDCDCDFFCECECEFFCFCFCFFFD0D0D0FFD1D1
310
D1FFD2D2D2FFD3D3D3FFD4D4D4FFD5D5D5FFD6D6D6FFD7D7D7FFD8D8D8FFD9D9
310
D9FFDADADAFFDBDBDBFFDCDCDCFFDDDDDDFFDEDEDEFFDFDFDFFFE0E0E0FFE1E1
310
E1FFE2E2E2FFE3E3E3FFE4E4E4FFE5E5E5FFE6E6E6FFE7E7E7FFE8E8E8FFE9E9
310
E9FFEAEAEAFFEBEBEBFFECECECFFEDEDEDFFEEEEEEFFEFEFEFFFF0F0F0FFF1F1
310
F1FFF2F2F2FFF3F3F3FFF4F4F4FFF5F5F5FFF6F6F6FFF7F7F7FFF8F8F8FFF9F9
310
F9FFFAFAFAFFFBFBFBFFFCFCFCFFFDFDFDFFFEFEFEFFFFFFFFFFFFFFFFFFFFFF
310
C94E4E4E4F4E4EFFFFFFFFFFC94E4E4E4E4E72FFFFFFFFFFFFFF734E4D4E4E4E
310
C9FFFFFFFFFFAA683516171616265B9BE9FFFFFFFFFF4E4E4E4D4E4EFFFFFFFF
310
FFFFFFFF4E4E4F4E4D4E4E4E4F4E4E4F4D4E4E4E4E4E4D4E4F4E4D4E4E4EAAFF
310
FFFFFFFFFFEA4E4F4F4E4E4E4E4E4D4D4F4F4E4E4E4E4E5B7FAAFFFFFFFFFFFF
310
C9744E1716171616164D8DEAFFFFFFFF0000FFFFFFFFFFFFBA161617161716FF
310
FFFFFFFFB917171616174FFFFFFFFFFFFFFF4E1716161616B9FFFFFFB9341717
310
1716171617171616268CFFFFFFFF161617161617FFFFFFFFFFFFFFB917161717
310
1617167F807F7F7F7F7F7F807F7F807F7F807F7F7F414EFFFFFFFFFFFF8C167F
310
7F807F7F7F7E7F7F807F807F7F807F4E3417258EFFFFEA4E162674AABAEAEBBA
310
AA74341680FFFFFF0000FFFFFFFFFFFFB9171717171617FFFFFFFFFFBB161616
310
16164EFFFFFFFFFFFFFF4E1717171717B9FFFF9C171617171716161616171616
310
171766FFFFFF161717161617FFFFFFFFFFFFFF8E16171717161616FFFFFFFFFF
310
FFFFFFFFFFFFFFFFFFFFFFFFFFAA16D9FFFFFFFFFF3467FFFFFFFFEAFFFFFFFF
310
FFFFFFFFFFFFFFFFFFCA671667EB26278DFFFFFFFFFFFFFFFFFFFF8C2541EAFF
310
0000FFFFFFFFFFFFB9171717171716FFFFFFFFFFBA16171617174EFFFFFFFFFF
310
FFFF4E1717161616BAFF9B1617161616171716171617161616161667FFFF1616
310
16161716FFFFFFFFFFFFFF7F16161617174017FFFFFFFFFFFFFFFFFFFFFFFFFF
310
FFFFFFFFFFFF344E7F7F7F7E7417DAFFFFFFFF80FFFFFFFFFFFFFFFFFFFFFFFF
310
FFFFFF9B163425CAFFFFFFFFFFFFFFFFFFFFFFFFCA2667FF0000FFFFFFFFFFFF
310
BA171717171617FFFFFFFFFFB916171716164EFFFFFFFFFFFFFF4F1716161717
310
B9C91716171616161716161617171616161617168DFF161716161717FFFFFFFF
310
FFFFFF7F17171716164F16FFFFFFFFFFFFFFFFFFFFFFFFFFFFFFFFFFFFFF9B16
310
17161617174EFFFFFFFFFF34FFFFFFFFD9BABABABABADAFFFFFFFFFF7F16AAFF
310
FFFFFFFFFFFFFFFFFFFFFFFFFF9C16BA0000FFFFFFFFFFFFB9161717161717FF
310
FFFFFFFFB917161716174DFFFFFFFFFFFFFF4E1616161616BA4E161617171716
310
419BEAEAAA4E16161617161726E9171717161616FFFFFFFFFFFFFF4F16161717
310
164E16FFFFFFFFFFBAB9B9B9B9B9BABABACAFFFFFFFFFFFFFFFFFFFFFFFFFFFF
310
FFFFBA16FFFFFFFF7F1617161617174DEAFFFFFFEA41FFFFFFFFFFAA4D16174E
310
9BFFFFFFFFFF34730000FFFFFFFFFFFFB9161617171617FFFFFFFFFFBA161616
310
16164EFFFFFFFFFFFFFF4F16161717169B1617161716175BFFFFFFFFFFFF7417
310
16171616168D171717161617FFFFFFFFFFFFEA2616171717167416FFFFFFFFFF
310
16171616171717171717EAFFFFFFFFFFFFFFFFFFFFFFFFFFFFFF6716FFFFFFFF
310
7F4EFFFFFFFFBA2573FFFFFFFFBAFFFFFFFFAA167FB9BB9B269BFFFFFFFF664F
310
0000FFFFFFFFFFFFB9171616161616FFFFFFFFFFBA16161717164EFFFFFFFFFF
310
FFFF4E16161616174E161617171626EAFFFFFFFFFFFFFF4E16161616164E1716
310
16161617FFFFFFFFFFFF671616161716347F16FFFFFFFFFF16B9FFFFFFFFFFFF
310
D9168DFFFFFFFFFFFFFFFFFFFFFFFFFFFFEA1716FFFFFFFF7F4EFFFFFFFFFF7F
310
4EFFFFFFFFFFFFFFFFFF5B66FFFFFFEA347FFFFFFFFF7F4D0000FFFFFFFFFFFF
310
B9171616171617FFFFFFFFFFBA17161716174EFFFFFFFFFFFFFF4D1716161617
310
17161716161673FFFFFFFFFFFFFFFF9B1617161717161616171616174F4E4E4E
310
4E341616171616167E7F16FFFFFFFFFF16BAFFFFFFFFFFFFFF5B41FFFFFFFF34
310
1616171616BAFFFFFF9B1716FFFFFFFF7F4EFFFFFFFFFF4E4EFFFFFFFF734E4E
310
4E4E267EDA9B67164EEAFFFFFFFF744D0000FFFFFFFFFFFFBA171717161617FF
310
FFFFFFFFBA1616171616347F7F7F7F80807F331616161717161717161716B9FF
310
FFFFFFFFFFFFFFE9161616161616171716161716171616161616171616171734
310
EA7F16FFFFFFFFFF16BAFFFFFFFFFFFFFFAA17C9FFFFFF7326BABA5B25FFFFFF
310
FF401716FFFFFFFF7F264F4E4E4E4217AAFFFFFFEA16677F73261616164173CA
310
FFFFFFFFFFFF417F0000FFFFFFFFFFFFBA171616171617FFFFFFFFFFBA161616
310
17171616161616161616161717161616161616161617EAFFFFFFFFFFFFFFFFFF
310
261717161716161617161616161617161617161616174EEAFF8016FFFFFFFFFF
310
17BAFFFFFFFFFFFFFFFF3467FFFFFFC916C9FF3467FFFFFFDA166716FFFFFFFF
310
9C4D4E4E4E4E67AAFFFFFFFF6834FF7F262567AAEAFFFFFFFFFFFFFFFF9B17D9
310
0000FFFFFFFFFFFFB9161616161616FFFFFFFFFFBA1617161717171616161616
310
1716171716161716161617171716FFFFFFFFFFFFFFFFFFFF4E17161716171616
310
1617171616161716171717161616169BFF7F17FFFFFFFFFF17B9FFFFFFFFFFFF
310
FFFF7326FFFFFFFF3473DA16AAFFFFFF7317AA16FFFFFFFFFFFFFFFFFFFFFFFF
310
FFFFEA6725BA4E167FEAFFFFFFFFFFFFFFFFFFFF9C167FFF0000FFFFFFFFFFFF
310
B9161717171716FFFFFFFFFFBA16161716171616171717161617161716161616
310
171617171617EAFFFFFFFFFFFFFFFFFF26161717161616161616161617171616
310
1616161616171616AA8016FFFFFFFFFF16BAFFFFFFFFFFFFFFFFDA179BFFFFFF
310
74348D26FFFFFFFF2566B917FFFFFFFFD8BAB9BAB9BADAFFFFEA41169B7425C9
310
FFFFFFFFFFFFFFFFFFFFAB4F1680FFFF0000FFFFFFFFFFFFBA161717171617FF
310
FFFFFFFFBA17161717161617171617161616161617171616171716171617BBFF
310
FFFFFFFFFFFFFFE9171616161617161617161716FFFFFFFFFFD9671616161617
310
348017FFFFFFFFFF16BAFFFFFFFFFFFFFFFFFF4E5AFFFFFFC916265AFFFFFFAA
310
16AABA16FFFFFFFF7F1617161616179BFFFFEB4127168DFFFFFFFFFFFFFFD99B
310
6734175AC9FFFFFF0000FFFFFFFFFFFFB9161617171617FFFFFFFFFFBB161616
310
1616347F807F7F7F7F8033171716171617171616161672FFFFFFFFFFFFFFFF9C
310
171617171617161716161617FFFFFFFFFFFFFF4117161616174E17FFFFFFFFFF
310
16BAFFFFFFFFFFFFFFFFFF9B16DAFFFFFF34169BFFFFFF5A26FFB917FFFFFFFF
310
7F4EFFFFFFEA5B26FFFFFFEA2616EAFFFFFFFFDA743416331617414E4E4E4ECA
310
0000FFFFFFFFFFFFBA161716161616FFFFFFFFFFBA17171616164EFFFFFFFFFF
310
FFFF4E16161717174E161717171626EBFFFFFFFFFFFFFF4E16161617165B1616
310
16171617FFFFFFFFFFFFFF6716161616161617FFFFFFFFFF16BAFFFFFFFFFFFF
310
FFFFFFEA268CFFFFFF7316EAFFFFEB1774FFB916FFFFFFFF7F4EFFFFFFFF7316
310
FFFFFFFF6826FFFFFFFFEB264D9CEABA257F807F7F6616BA0000FFFFFFFFFFFF
310
BA161716161616FFFFFFFFFFBA16171616164DFFFFFFFFFFFFFF4E1617161617
310
9B1617171717165BEBFFFFFFFFFF671616161617179B171616161616FFFFFFFF
310
FFFFFF3417161617171617FFFFFFFFFF17BAFFFFFFFFFFFFFFFFFFFF6734FFFF
310
FFEBCAFFFFFF8D17C9FFBA17FFFFFFFF7F357F808066174FFFFFFFFF7F16FFFF
310
FFFFD91673B99B415BFFFFFFFFBA16DA00009B7F7F7F807F671617161616167F
310
80807F7E6617161616164EFFFFFFFFFFFFFF4E1616161617B94E171716161616
310
349BC9D9AA4E16171616161634FF161617161717B9B9BAB9BA9B411716171716
310
163416FFFFFFFFFF16B9FFFFFFFFFFFFFFFFFFFFC917CAFFFFFFFFFFFFFF3342
310
FFFFBA17FFFFFFFF9B4E4E4F4E4E66EAFFFFFFFF5B16C9FFFFFFFFAA4E164E73
310
EAFFFFFFFF8D26FF00004E161716161616171617171616171717171617161616
310
17174EFFFFFFFFFFFFFF4E1717171616B9D92616171716171716171717171716
310
16171716AAFF161717171617161617171616161617161716166717FFFFFFFFFF
310
17B9FFFFFFFFFFFFFFFFFFFFFF3467FFFFFFFFFFFFCA168CFFFFBB17FFFFFFFF
310
FFFFFFFFFFFFFFFFFFFFFFEA26265BFFFFFFFFFFFFFFFFFFFFFFFFFFEA3467FF
310
00004D16161616161617161717161617161616171617171616164EFFFFFFFFFF
310
FFFF4D1617161616BAFF9B1616161616161716161616171717161766FFFF1616
310
16171617161617161716171616171717667F16FFFFFFFFFF17BAFFFFFFFFFFFF
310
FFFFFFFFFF8C26EAFFFFFFFFFF6617EAFFFFBA17FFFFFFFFFFFFFFFFFFFFFFFF
310
FFFFEA5A25BA269BFFFFFFFFFFFFFFFFFFFFFFFF6616DAFF00004E1616171616
310
1616161616161716161617171616171616174EFFFFFFFFFFFFFF4D1717171716
310
B9FFFF9C161616161616161716161717171667FFFFFF17161717171716161617
310
1716161616161641E97E16FFFFFFFFFF16B9FFFFFFFFFFFFFFFFFFFFFFEA169B
310
FFFFFFFFEA265BFFFFFFB916FFFFFFFFFFFFFFFFFFFFFFFFFF9B3416AAFF9B17
310
67EAFFFFFFFFFFFFFFFFEA5B169BFFFF00004D17161716161616161717171616
310
161717161716171716174EFFFFFFFFFFFFFF4D1616161616BAFFFFFFBB411616
310
161716161616171634ABFFFFFFFF161716161617171716171617171617267FFF
310
FF7F164E4E4E4E4F17BAFFFFFFFFFFFFFFFFFFFFFFFF66344D4E4E4F4117AAFF
310
FFFFBA174E4E4E4D4E4D4D4E4E4E4E4116174EBBFFFFFFCA342666ABEAFFFFEA
310
AA6725269CFFFFFF0000724F4E4D4D4D4E4D4D4E4E4E4D4E4E4E4E4E4E4E4E4D
310
4E4E74FFFFFFFFFFFFFF734E4E4E4D4ECAFFFFFFFFFFAA663416171717265B9B
310
FFFFFFFFFFFF7F8080807F80807F7F7F7F7F807FBAFFFFFFFF9B4E4E4F4D4D4E
310
4DC9FFFFFFFFFFFFFFFFFFFFFFFFBA4E4E4E4E4D4E4EFFFFFFFFC94E4E4E4F4E
310
4E4E4D4E4E5A807F9CD9FFFFFFFFFFFFFF9B5B2617171716174E8DEAFFFFFFFF
310
0000000000000000000000000000000000000000000000000000000000000000
  1
OLE
  0
ENDSEC
  0
SECTION
  2
OBJECTS
  0
DICTIONARY
  5
C
330
0
100
AcDbDictionary
281
     1
  3
ACAD_GROUP
350
D
  3
ACAD_LAYOUT
350
1A
  3
ACAD_MLINESTYLE
350
17
  3
ACAD_PLOTSETTINGS
350
19
  3
ACAD_PLOTSTYLENAME
350
E
  3
ACAD_SCALELIST
350
47
  0
DICTIONARY
  5
D
102
{ACAD_REACTORS
330
C
102
}
330
C
100
AcDbDictionary
281
     1
  0
DICTIONARY
  5
1A
102
{ACAD_REACTORS
330
C
102
}
330
C
100
AcDbDictionary
281
     1
  3
Layout1
350
1E
  3
Layout2
350
26
  3
Model
350
22
  0
DICTIONARY
  5
17
102
{ACAD_REACTORS
330
C
102
}
330
C
100
AcDbDictionary
281
     1
  3
Standard
350
18
  0
DICTIONARY
  5
19
102
{ACAD_REACTORS
330
C
102
}
330
C
100
AcDbDictionary
281
     1
  0
ACDBDICTIONARYWDFLT
  5
E
102
{ACAD_REACTORS
330
C
102
}
330
C
100
AcDbDictionary
281
     1
  3
Normal
350
F
100
AcDbDictionaryWithDefault
340
F
  0
DICTIONARY
  5
47
102
{ACAD_REACTORS
330
C
102
}
330
C
100
AcDbDictionary
281
     1
  3
A0
350
48
  3
A1
350
49
  3
A2
350
4A
  3
A3
350
4B
  3
A4
350
4C
  3
A5
350
4D
  3
A6
350
4E
  3
A7
350
4F
  3
A8
350
50
  3
A9
350
51
  3
B0
350
52
  3
B1
350
53
  3
B2
350
54
  3
B3
350
55
  3
B4
350
56
  3
B5
350
57
  3
B6
350
58
  3
B7
350
59
  3
B8
350
5A
  3
B9
350
5B
  3
C0
350
5C
  3
C1
350
5D
  3
C2
350
5E
  3
C3
350
5F
  3
C4
350
60
  3
C5
350
61
  3
C6
350
62
  3
C7
350
63
  3
C8
350
64
  3
C9
350
65
  3
D0
350
66
  3
D1
350
67
  3
D2
350
68
  0
LAYOUT
  5
1E
102
{ACAD_REACTORS
330
1A
102
}
330
1A
100
AcDbPlotSettings
  1

  2
none_device
  4

  6

 40
0.0
 41
0.0
 42
0.0
 43
0.0
 44
0.0
 45
0.0
 46
0.0
 47
0.0
 48
0.0
 49
0.0
140
0.0
141
0.0
142
1.0
143
1.0
 70
   688
 72
     1
 73
     0
 74
     5
  7

 75
    16
147
1.0
148
0.0
149
0.0
100
AcDbLayout
  1
Layout1
 70
     1
 71
     1
 10
0.0
 20
0.0
 11
420.0
 21
297.0
 12
0.0
 22
0.0
 32
0.0
 14
1.0000000000E+20
 24
1.0000000000E+20
 34
1.0000000000E+20
 15
-1.0000000000E+20
 25
-1.0000000000E+20
 35
-1.0000000000E+20
146
0.0
 13
0.0
 23
0.0
 33
0.0
 16
1.0
 26
0.0
 36
0.0
 17
0.0
 27
1.0
 37
0.0
 76
     0
330
1B
  0
LAYOUT
  5
26
102
{ACAD_REACTORS
330
1A
102
}
330
1A
100
AcDbPlotSettings
  1

  2
none_device
  4

  6

 40
0.0
 41
0.0
 42
0.0
 43
0.0
 44
0.0
 45
0.0
 46
0.0
 47
0.0
 48
0.0
 49
0.0
140
0.0
141
0.0
142
1.0
143
1.0
 70
   688
 72
     1
 73
     0
 74
     5
  7

 75
    16
147
1.0
148
0.0
149
0.0
100
AcDbLayout
  1
Layout2
 70
     1
 71
     2
 10
0.0
 20
0.0
 11
0.0
 21
0.0
 12
0.0
 22
0.0
 32
0.0
 14
0.0
 24
0.0
 34
0.0
 15
0.0
 25
0.0
 35
0.0
146
0.0
 13
0.0
 23
0.0
 33
0.0
 16
1.0
 26
0.0
 36
0.0
 17
0.0
 27
1.0
 37
0.0
 76
     0
330
23
  0
LAYOUT
  5
22
102
{ACAD_REACTORS
330
1A
102
}
330
1A
100
AcDbPlotSettings
  1

  2
none_device
  4
Letter_(8.50_x_11.00_Inches)
  6

 40
6.35
 41
6.35
 42
6.35000508
 43
6.35000508
 44
215.9
 45
279.4
 46
0.0
 47
0.0
 48
0.0
 49
0.0
140
0.0
141
0.0
142
1.0
143
1.0
 70
  1712
 72
     1
 73
     0
 74
     0
  7

 75
     0
147
1.0
148
0.0
149
0.0
100
AcDbLayout
  1
Model
 70
     1
 71
     0
 10
0.0
 20
0.0
 11
279.4
 21
215.9
 12
0.0
 22
0.0
 32
0.0
 14
0.0
 24
0.0
 34
0.0
 15
279.4
 25
215.9
 35
0.0
146
0.0
 13
0.0
 23
0.0
 33
0.0
 16
1.0
 26
0.0
 36
0.0
 17
0.0
 27
1.0
 37
0.0
 76
     0
330
1F
331
29
  0
MLINESTYLE
  5
18
102
{ACAD_REACTORS
330
17
102
}
330
17
100
AcDbMlineStyle
  2
Standard
 70
     0
  3

 62
   256
 51
90.0
 52
90.0
 71
     2
 49
0.5
 62
   256
  6
BYLAYER
 49
-0.5
 62
   256
  6
BYLAYER
  0
ACDBPLACEHOLDER
  5
F
102
{ACAD_REACTORS
330
E
102
}
330
E
  0
SCALE
  5
48
102
{ACAD_REACTORS
330
47
102
}
330
47
100
AcDbScale
 70
     0
300
1:1
140
1.0
141
1.0
290
     1
  0
SCALE
  5
49
102
{ACAD_REACTORS
330
47
102
}
330
47
100
AcDbScale
 70
     0
300
1:2
140
1.0
141
2.0
290
     0
  0
SCALE
  5
4A
102
{ACAD_REACTORS
330
47
102
}
330
47
100
AcDbScale
 70
     0
300
1:4
140
1.0
141
4.0
290
     0
  0
SCALE
  5
4B
102
{ACAD_REACTORS
330
47
102
}
330
47
100
AcDbScale
 70
     0
300
1:5
140
1.0
141
5.0
290
     0
  0
SCALE
  5
4C
102
{ACAD_REACTORS
330
47
102
}
330
47
100
AcDbScale
 70
     0
300
1:8
140
1.0
141
8.0
290
     0
  0
SCALE
  5
4D
102
{ACAD_REACTORS
330
47
102
}
330
47
100
AcDbScale
 70
     0
300
1:10
140
1.0
141
10.0
290
     0
  0
SCALE
  5
4E
102
{ACAD_REACTORS
330
47
102
}
330
47
100
AcDbScale
 70
     0
300
1:16
140
1.0
141
16.0
290
     0
  0
SCALE
  5
4F
102
{ACAD_REACTORS
330
47
102
}
330
47
100
AcDbScale
 70
     0
300
1:20
140
1.0
141
20.0
290
     0
  0
SCALE
  5
50
102
{ACAD_REACTORS
330
47
102
}
330
47
100
AcDbScale
 70
     0
300
1:30
140
1.0
141
30.0
290
     0
  0
SCALE
  5
51
102
{ACAD_REACTORS
330
47
102
}
330
47
100
AcDbScale
 70
     0
300
1:40
140
1.0
141
40.0
290
     0
  0
SCALE
  5
52
102
{ACAD_REACTORS
330
47
102
}
330
47
100
AcDbScale
 70
     0
300
1:50
140
1.0
141
50.0
290
     0
  0
SCALE
  5
53
102
{ACAD_REACTORS
330
47
102
}
330
47
100
AcDbScale
 70
     0
300
1:100
140
1.0
141
100.0
290
     0
  0
SCALE
  5
54
102
{ACAD_REACTORS
330
47
102
}
330
47
100
AcDbScale
 70
     0
300
2:1
140
2.0
141
1.0
290
     0
  0
SCALE
  5
55
102
{ACAD_REACTORS
330
47
102
}
330
47
100
AcDbScale
 70
     0
300
4:1
140
4.0
141
1.0
290
     0
  0
SCALE
  5
56
102
{ACAD_REACTORS
330
47
102
}
330
47
100
AcDbScale
 70
     0
300
8:1
140
8.0
141
1.0
290
     0
  0
SCALE
  5
57
102
{ACAD_REACTORS
330
47
102
}
330
47
100
AcDbScale
 70
     0
300
10:1
140
10.0
141
1.0
290
     0
  0
SCALE
  5
58
102
{ACAD_REACTORS
330
47
102
}
330
47
100
AcDbScale
 70
     0
300
100:1
140
100.0
141
1.0
290
     0
  0
SCALE
  5
59
102
{ACAD_REACTORS
330
47
102
}
330
47
100
AcDbScale
 70
     0
300
1/128" = 1'-0"
140
0.0078125
141
12.0
290
     0
  0
SCALE
  5
5A
102
{ACAD_REACTORS
330
47
102
}
330
47
100
AcDbScale
 70
     0
300
1/64" = 1'-0"
140
0.015625
141
12.0
290
     0
  0
SCALE
  5
5B
102
{ACAD_REACTORS
330
47
102
}
330
47
100
AcDbScale
 70
     0
300
1/32" = 1'-0"
140
0.03125
141
12.0
290
     0
  0
SCALE
  5
5C
102
{ACAD_REACTORS
330
47
102
}
330
47
100
AcDbScale
 70
     0
300
1/16" = 1'-0"
140
0.0625
141
12.0
290
     0
  0
SCALE
  5
5D
102
{ACAD_REACTORS
330
47
102
}
330
47
100
AcDbScale
 70
     0
300
3/32" = 1'-0"
140
0.09375
141
12.0
290
     0
  0
SCALE
  5
5E
102
{ACAD_REACTORS
330
47
102
}
330
47
100
AcDbScale
 70
     0
300
1/8" = 1'-0"
140
0.125
141
12.0
290
     0
  0
SCALE
  5
5F
102
{ACAD_REACTORS
330
47
102
}
330
47
100
AcDbScale
 70
     0
300
3/16" = 1'-0"
140
0.1875
141
12.0
290
     0
  0
SCALE
  5
60
102
{ACAD_REACTORS
330
47
102
}
330
47
100
AcDbScale
 70
     0
300
1/4" = 1'-0"
140
0.25
141
12.0
290
     0
  0
SCALE
  5
61
102
{ACAD_REACTORS
330
47
102
}
330
47
100
AcDbScale
 70
     0
300
3/8" = 1'-0"
140
0.375
141
12.0
290
     0
  0
SCALE
  5
62
102
{ACAD_REACTORS
330
47
102
}
330
47
100
AcDbScale
 70
     0
300
1/2" = 1'-0"
140
0.5
141
12.0
290
     0
  0
SCALE
  5
63
102
{ACAD_REACTORS
330
47
102
}
330
47
100
AcDbScale
 70
     0
300
3/4" = 1'-0"
140
0.75
141
12.0
290
     0
  0
SCALE
  5
64
102
{ACAD_REACTORS
330
47
102
}
330
47
100
AcDbScale
 70
     0
300
1" = 1'-0"
140
1.0
141
12.0
290
     0
  0
SCALE
  5
65
102
{ACAD_REACTORS
330
47
102
}
330
47
100
AcDbScale
 70
     0
300
1-1/2" = 1'-0"
140
1.5
141
12.0
290
     0
  0
SCALE
  5
66
102
{ACAD_REACTORS
330
47
102
}
330
47
100
AcDbScale
 70
     0
300
3" = 1'-0"
140
3.0
141
12.0
290
     0
  0
SCALE
  5
67
102
{ACAD_REACTORS
330
47
102
}
330
47
100
AcDbScale
 70
     0
300
6" = 1'-0"
140
6.0
141
12.0
290
     0
  0
SCALE
  5
68
102
{ACAD_REACTORS
330
47
102
}
330
47
100
AcDbScale
 70
     0
300
1'-0" = 1'-0"
140
12.0
141
12.0
290
     0
  0
ENDSEC
  0
EOF
