  0
SECTION
  2
HEADER
  9
$ACADVER
  1
AC1015
  9
$ACADMAINTVER
 70
     6
  9
$DWGCODEPAGE
  3
ANSI_1252
  9
$INSBASE
 10
0.0
 20
0.0
 30
0.0
  9
$EXTMIN
 10
0.0
 20
0.0
 30
0.0
  9
$EXTMAX
 10
279.4
 20
215.9
 30
0.0
  9
$LIMMIN
 10
0.0
 20
0.0
  9
$LIMMAX
 10
279.4
 20
215.9
  9
$ORTHOMODE
 70
     0
  9
$REGENMODE
 70
     1
  9
$FILLMODE
 70
     1
  9
$QTEXTMODE
 70
     0
  9
$MIRRTEXT
 70
     1
  9
$LTSCALE
 40
1.0
  9
$ATTMODE
 70
     1
  9
$TEXTSIZE
 40
2.8222222222
  9
$TRACEWID
 40
1.0
  9
$TEXTSTYLE
  7
Standard
  9
$CLAYER
  8
0
  9
$CELTYPE
  6
ByLayer
  9
$CECOLOR
 62
   256
  9
$CELTSCALE
 40
1.0
  9
$DISPSILH
 70
     0
  9
$DIMSCALE
 40
1.0
  9
$DIMASZ
 40
3.175
  9
$DIMEXO
 40
1.27
  9
$DIMDLI
 40
3.75
  9
$DIMRND
 40
0.0
  9
$DIMDLE
 40
0.0
  9
$DIMEXE
 40
1.778
  9
$DIMTP
 40
0.0
  9
$DIMTM
 40
0.0
  9
$DIMTXT
 40
2.8222222222
  9
$DIMCEN
 40
2.5
  9
$DIMTSZ
 40
0.0
  9
$DIMTOL
 70
     0
  9
$DIMLIM
 70
     0
  9
$DIMTIH
 70
     1
  9
$DIMTOH
 70
     1
  9
$DIMSE1
 70
     0
  9
$DIMSE2
 70
     0
  9
$DIMTAD
 70
     0
  9
$DIMZIN
 70
     1
  9
$DIMBLK
  1

  9
$DIMASO
 70
     1
  9
$DIMSHO
 70
     1
  9
$DIMPOST
  1

  9
$DIMAPOST
  1

  9
$DIMALT
 70
     0
  9
$DIMALTD
 70
     3
  9
$DIMALTF
 40
0.0393700787
  9
$DIMLFAC
 40
1.0
  9
$DIMTOFL
 70
     1
  9
$DIMTVP
 40
0.0
  9
$DIMTIX
 70
     0
  9
$DIMSOXD
 70
     0
  9
$DIMSAH
 70
     0
  9
$DIMBLK1
  1

  9
$DIMBLK2
  1

  9
$DIMSTYLE
  2
ISO-25
  9
$DIMCLRD
 70
     0
  9
$DIMCLRE
 70
     0
  9
$DIMCLRT
 70
     0
  9
$DIMTFAC
 40
1.0
  9
$DIMGAP
 40
2.54
  9
$DIMJUST
 70
     0
  9
$DIMSD1
 70
     0
  9
$DIMSD2
 70
     0
  9
$DIMTOLJ
 70
     0
  9
$DIMTZIN
 70
     1
  9
$DIMALTZ
 70
     0
  9
$DIMALTTZ
 70
     0
  9
$DIMUPT
 70
     0
  9
$DIMDEC
 70
     1
  9
$DIMTDEC
 70
     1
  9
$DIMALTU
 70
     2
  9
$DIMALTTD
 70
     3
  9
$DIMTXSTY
  7
Standard
  9
$DIMAUNIT
 70
     0
  9
$DIMADEC
 70
     0
  9
$DIMALTRND
 40
0.0
  9
$DIMAZIN
 70
     0
  9
$DIMDSEP
 70
    44
  9
$DIMATFIT
 70
     3
  9
$DIMFRAC
 70
     0
  9
$DIMLDRBLK
  1

  9
$DIMLUNIT
 70
     2
  9
$DIMLWD
 70
    -2
  9
$DIMLWE
 70
    -2
  9
$DIMTMOVE
 70
     0
  9
$LUNITS
 70
     2
  9
$LUPREC
 70
     1
  9
$SKETCHINC
 40
1.0
  9
$FILLETRAD
 40
10.0
  9
$AUNITS
 70
     0
  9
$AUPREC
 70
     0
  9
$MENU
  1
.
  9
$ELEVATION
 40
0.0
  9
$PELEVATION
 40
0.0
  9
$THICKNESS
 40
0.0
  9
$LIMCHECK
 70
     0
  9
$CHAMFERA
 40
0.0
  9
$CHAMFERB
 40
0.0
  9
$CHAMFERC
 40
0.0
  9
$CHAMFERD
 40
0.0
  9
$SKPOLY
 70
     0
  9
$TDCREATE
 40
2457638.71669044
  9
$TDUCREATE
 40
2457638.383357107
  9
$TDUPDATE
 40
2457638.716693322
  9
$TDUUPDATE
 40
2457638.383359988
  9
$TDINDWG
 40
0.0000000116
  9
$TDUSRTIMER
 40
0.0000000116
  9
$USRTIMER
 70
     1
  9
$ANGBASE
 50
0.0
  9
$ANGDIR
 70
     0
  9
$PDMODE
 70
     0
  9
$PDSIZE
 40
-1.0
  9
$PLINEWID
 40
0.0
  9
$SPLFRAME
 70
     0
  9
$SPLINETYPE
 70
     6
  9
$SPLINESEGS
 70
     8
  9
$HANDSEED
  5
3AB
  9
$SURFTAB1
 70
     6
  9
$SURFTAB2
 70
     6
  9
$SURFTYPE
 70
     6
  9
$SURFU
 70
     6
  9
$SURFV
 70
     6
  9
$UCSBASE
  2

  9
$UCSNAME
  2

  9
$UCSORG
 10
0.0
 20
0.0
 30
0.0
  9
$UCSXDIR
 10
1.0
 20
0.0
 30
0.0
  9
$UCSYDIR
 10
0.0
 20
1.0
 30
0.0
  9
$UCSORTHOREF
  2

  9
$UCSORTHOVIEW
 70
     0
  9
$UCSORGTOP
 10
0.0
 20
0.0
 30
0.0
  9
$UCSORGBOTTOM
 10
0.0
 20
0.0
 30
0.0
  9
$UCSORGLEFT
 10
0.0
 20
0.0
 30
0.0
  9
$UCSORGRIGHT
 10
0.0
 20
0.0
 30
0.0
  9
$UCSORGFRONT
 10
0.0
 20
0.0
 30
0.0
  9
$UCSORGBACK
 10
0.0
 20
0.0
 30
0.0
  9
$PUCSBASE
  2

  9
$PUCSNAME
  2

  9
$PUCSORG
 10
0.0
 20
0.0
 30
0.0
  9
$PUCSXDIR
 10
1.0
 20
0.0
 30
0.0
  9
$PUCSYDIR
 10
0.0
 20
1.0
 30
0.0
  9
$PUCSORTHOREF
  2

  9
$PUCSORTHOVIEW
 70
     0
  9
$PUCSORGTOP
 10
0.0
 20
0.0
 30
0.0
  9
$PUCSORGBOTTOM
 10
0.0
 20
0.0
 30
0.0
  9
$PUCSORGLEFT
 10
0.0
 20
0.0
 30
0.0
  9
$PUCSORGRIGHT
 10
0.0
 20
0.0
 30
0.0
  9
$PUCSORGFRONT
 10
0.0
 20
0.0
 30
0.0
  9
$PUCSORGBACK
 10
0.0
 20
0.0
 30
0.0
  9
$USERI1
 70
     0
  9
$USERI2
 70
     0
  9
$USERI3
 70
     0
  9
$USERI4
 70
     0
  9
$USERI5
 70
     0
  9
$USERR1
 40
0.0
  9
$USERR2
 40
0.0
  9
$USERR3
 40
0.0
  9
$USERR4
 40
0.0
  9
$USERR5
 40
0.0
  9
$WORLDVIEW
 70
     1
  9
$SHADEDGE
 70
     3
  9
$SHADEDIF
 70
    70
  9
$TILEMODE
 70
     1
  9
$MAXACTVP
 70
    64
  9
$PINSBASE
 10
0.0
 20
0.0
 30
0.0
  9
$PLIMCHECK
 70
     0
  9
$PEXTMIN
 10
1.0000000000E+20
 20
1.0000000000E+20
 30
1.0000000000E+20
  9
$PEXTMAX
 10
-1.0000000000E+20
 20
-1.0000000000E+20
 30
-1.0000000000E+20
  9
$PLIMMIN
 10
0.0
 20
0.0
  9
$PLIMMAX
 10
420.0
 20
297.0
  9
$UNITMODE
 70
     0
  9
$VISRETAIN
 70
     1
  9
$PLINEGEN
 70
     0
  9
$PSLTSCALE
 70
     1
  9
$TREEDEPTH
 70
  3020
  9
$CMLSTYLE
  2
Standard
  9
$CMLJUST
 70
     0
  9
$CMLSCALE
 40
20.0
  9
$PROXYGRAPHICS
 70
     1
  9
$MEASUREMENT
 70
     1
  9
$CELWEIGHT
370
    -1
  9
$ENDCAPS
280
     0
  9
$JOINSTYLE
280
     0
  9
$LWDISPLAY
290
     1
  9
$INSUNITS
 70
     4
  9
$HYPERLINKBASE
  1

  9
$STYLESHEET
  1

  9
$XEDIT
290
     1
  9
$CEPSNTYPE
380
     0
  9
$PSTYLEMODE
290
     1
  9
$FINGERPRINTGUID
  2
{D7B016D3-2614-4411-9339-A9497AA8C234}
  9
$VERSIONGUID
  2
{FAEB1C32-E019-11D5-929B-00C0DF256EC4}
  9
$EXTNAMES
290
     1
  9
$PSVPSCALE
 40
0.0
  9
$OLESTARTUP
290
     0
  0
ENDSEC
  0
SECTION
  2
CLASSES
  0
CLASS
  1
ACDBDICTIONARYWDFLT
  2
AcDbDictionaryWithDefault
  3
ObjectDBX Classes
 90
        0
280
     0
281
     0
  0
CLASS
  1
VISUALSTYLE
  2
AcDbVisualStyle
  3
ObjectDBX Classes
 90
     4095
280
     0
281
     0
  0
CLASS
  1
MATERIAL
  2
AcDbMaterial
  3
ObjectDBX Classes
 90
     1153
280
     0
281
     0
  0
CLASS
  1
SCALE
  2
AcDbScale
  3
ObjectDBX Classes
 90
     1153
280
     0
281
     0
  0
CLASS
  1
TABLESTYLE
  2
AcDbTableStyle
  3
ObjectDBX Classes
 90
     4095
280
     0
281
     0
  0
CLASS
  1
MLEADERSTYLE
  2
AcDbMLeaderStyle
  3
ACDB_MLEADERSTYLE_CLASS
 90
     4095
280
     0
281
     0
  0
CLASS
  1
SUN
  2
AcDbSun
  3
SCENEOE
 90
     1153
280
     0
281
     0
  0
CLASS
  1
ACDBPLACEHOLDER
  2
AcDbPlaceHolder
  3
ObjectDBX Classes
 90
        0
280
     0
281
     0
  0
CLASS
  1
LAYOUT
  2
AcDbLayout
  3
ObjectDBX Classes
 90
        0
280
     0
281
     0
  0
ENDSEC
  0
SECTION
  2
TABLES
  0
TABLE
  2
VPORT
  5
8
330
0
100
AcDbSymbolTable
 70
     1
  0
VPORT
  5
29
330
8
100
AcDbSymbolTableRecord
100
AcDbViewportTableRecord
  2
*Active
 70
     0
 10
0.0
 20
0.0
 11
1.0
 21
1.0
 12
139.7
 22
107.95
 13
0.0
 23
0.0
 14
10.0
 24
10.0
 15
10.0
 25
10.0
 16
0.0
 26
0.0
 36
1.0
 17
0.0
 27
0.0
 37
0.0
 40
215.9
 41
1.2941176471
 42
50.0
 43
0.0
 44
0.0
 50
0.0
 51
0.0
 71
     0
 72
  2000
 73
     1
 74
     3
 75
     0
 76
     0
 77
     0
 78
     0
281
     0
 65
     1
110
0.0
120
0.0
130
0.0
111
1.0
121
0.0
131
0.0
112
0.0
122
1.0
132
0.0
 79
     0
146
0.0
  0
ENDTAB
  0
TABLE
  2
LTYPE
  5
5
330
0
100
AcDbSymbolTable
 70
     6
  0
LTYPE
  5
14
330
5
100
AcDbSymbolTableRecord
100
AcDbLinetypeTableRecord
  2
ByBlock
 70
     0
  3

 72
    65
 73
     0
 40
0.0
  0
LTYPE
  5
15
330
5
100
AcDbSymbolTableRecord
100
AcDbLinetypeTableRecord
  2
ByLayer
 70
     0
  3

 72
    65
 73
     0
 40
0.0
  0
LTYPE
  5
16
330
5
100
AcDbSymbolTableRecord
100
AcDbLinetypeTableRecord
  2
Continuous
 70
     0
  3
Solid line
 72
    65
 73
     0
 40
0.0
  0
LTYPE
  5
6E
330
5
100
AcDbSymbolTableRecord
100
AcDbLinetypeTableRecord
  2
HIDDEN
 70
     0
  3
Hidden __ __ __ __ __ __ __ __ __ __ __ __ __ __
 72
    65
 73
     2
 40
1.905
 49
1.27
 74
     0
 49
-0.635
 74
     0
  0
LTYPE
  5
6F
330
5
100
AcDbSymbolTableRecord
100
AcDbLinetypeTableRecord
  2
PHANTOM
 70
     0
  3
Phantom ______  __  __  ______  __  __  ______
 72
    65
 73
     6
 40
12.7
 49
6.35
 74
     0
 49
-1.27
 74
     0
 49
1.27
 74
     0
 49
-1.27
 74
     0
 49
1.27
 74
     0
 49
-1.27
 74
     0
  0
LTYPE
  5
70
330
5
100
AcDbSymbolTableRecord
100
AcDbLinetypeTableRecord
  2
CENTER
 70
     0
  3
Center ____ _ ____ _ ____ _ ____ _ ____ _ ____
 72
    65
 73
     4
 40
10.16
 49
6.35
 74
     0
 49
-1.27
 74
     0
 49
1.27
 74
     0
 49
-1.27
 74
     0
  0
LTYPE
  5
71
330
5
100
AcDbSymbolTableRecord
100
AcDbLinetypeTableRecord
  2
CENTERX2
 70
     0
  3
Center (2x) ________  __  ________  __  _____
 72
    65
 73
     4
 40
20.32
 49
12.7
 74
     0
 49
-2.54
 74
     0
 49
2.54
 74
     0
 49
-2.54
 74
     0
  0
LTYPE
  5
72
330
5
100
AcDbSymbolTableRecord
100
AcDbLinetypeTableRecord
  2
DOT2
 70
     0
  3
Dot (.5x) ........................................
 72
    65
 73
     2
 40
0.635
 49
0.0
 74
     0
 49
-0.635
 74
     0
  0
ENDTAB
  0
TABLE
  2
LAYER
  5
2
330
0
100
AcDbSymbolTable
 70
     2
  0
LAYER
  5
10
330
2
100
AcDbSymbolTableRecord
100
AcDbLayerTableRecord
  2
0
 70
     0
 62
     7
  6
Continuous
370
    -3
390
F
  0
LAYER
  5
73
330
2
100
AcDbSymbolTableRecord
100
AcDbLayerTableRecord
  2
FORMAT
 70
     0
 62
     7
  6
Continuous
370
    -3
390
F
  0
ENDTAB
  0
TABLE
  2
STYLE
  5
3
330
0
100
AcDbSymbolTable
 70
     3
  0
STYLE
  5
11
330
3
100
AcDbSymbolTableRecord
100
AcDbTextStyleTableRecord
  2
Standard
 70
     0
 40
0.0
 41
1.0
 50
0.0
 71
     0
 42
2.8222222222
  3
txt
  4

  0
STYLE
  5
9A
330
3
100
AcDbSymbolTableRecord
100
AcDbTextStyleTableRecord
  2
SLDTEXTSTYLE0
 70
     0
 40
0.0
 41
0.75
 50
0.0
 71
     0
 42
2.8222222222
  3
TXT
  4

  0
STYLE
  5
A6
330
3
100
AcDbSymbolTableRecord
100
AcDbTextStyleTableRecord
  2
SLDTEXTSTYLE1
 70
     0
 40
0.0
 41
0.6
 50
0.0
 71
     0
 42
2.8222222222
  3
TXT
  4

  0
ENDTAB
  0
TABLE
  2
VIEW
  5
6
330
0
100
AcDbSymbolTable
 70
     0
  0
ENDTAB
  0
TABLE
  2
UCS
  5
7
330
0
100
AcDbSymbolTable
 70
     0
  0
ENDTAB
  0
TABLE
  2
APPID
  5
9
330
0
100
AcDbSymbolTable
 70
     1
  0
APPID
  5
12
330
9
100
AcDbSymbolTableRecord
100
AcDbRegAppTableRecord
  2
ACAD
 70
     0
  0
ENDTAB
  0
TABLE
  2
DIMSTYLE
  5
A
330
0
100
AcDbSymbolTable
 70
     6
100
AcDbDimStyleTable
  0
DIMSTYLE
105
27
330
A
100
AcDbSymbolTableRecord
100
AcDbDimStyleTableRecord
  2
ISO-25
 70
     0
 41
2.5
 42
0.625
 43
3.75
 44
1.25
 73
     0
 74
     0
 77
     1
 78
     8
140
2.5
141
2.5
143
0.0393700787
147
0.625
171
     3
172
     1
178
     0
271
     2
272
     2
274
     3
278
    44
283
     0
284
     8
340
11
  0
DIMSTYLE
105
164
330
A
100
AcDbSymbolTableRecord
100
AcDbDimStyleTableRecord
  2
SLDDIMSTYLE0
 70
     0
 41
3.175
 44
0.0
 45
0.000000001
146
3.175
147
0.0
173
     1
178
     0
271
     0
272
     0
276
     2
340
11
  0
DIMSTYLE
105
199
102
{ACAD_REACTORS
330
198
330
1DA
102
}
330
A
100
AcDbSymbolTableRecord
100
AcDbDimStyleTableRecord
  2
SLDDIMSTYLE1
 70
     0
 41
3.175
 44
0.0
 45
0.000000001
 78
     4
 79
     1
140
2.1166666667
143
0.0393700787
147
0.5291666667
148
0.000000001
170
     1
173
     1
178
     0
271
     1
272
     1
276
     2
284
    12
340
9A
  0
DIMSTYLE
105
25B
102
{ACAD_REACTORS
330
25A
102
}
330
A
100
AcDbSymbolTableRecord
100
AcDbDimStyleTableRecord
  2
SLDDIMSTYLE2
 70
     0
 41
3.175
 44
0.0
 45
0.000000001
 78
     4
 79
     1
140
2.1166666667
141
0.0
143
0.0393700787
147
0.5291666667
148
0.000000001
170
     1
173
     1
178
     0
271
     1
272
     1
276
     2
284
    12
340
9A
  0
DIMSTYLE
105
2D7
102
{ACAD_REACTORS
330
2D6
102
}
330
A
100
AcDbSymbolTableRecord
100
AcDbDimStyleTableRecord
  2
SLDDIMSTYLE3
 70
     0
 41
3.175
 44
0.0
 45
0.000000001
 78
    12
 79
     3
140
2.1166666667
143
0.0393700787
147
0.5291666667
148
0.000000001
170
     1
173
     1
178
     0
271
     1
272
     1
276
     2
284
    12
340
9A
  0
DIMSTYLE
105
2EC
102
{ACAD_REACTORS
330
2EB
330
2FF
102
}
330
A
100
AcDbSymbolTableRecord
100
AcDbDimStyleTableRecord
  2
SLDDIMSTYLE4
 70
     0
 41
3.175
 44
0.0
 45
0.000000001
 78
     4
 79
     1
140
2.1166666667
143
0.0393700787
147
0.5291666667
148
0.000000001
170
     1
172
     1
173
     1
178
     0
271
     1
272
     1
276
     2
284
    12
289
     0
340
9A
  0
ENDTAB
  0
TABLE
  2
BLOCK_RECORD
  5
1
330
0
100
AcDbSymbolTable
 70
    11
  0
BLOCK_RECORD
  5
1F
330
1
100
AcDbSymbolTableRecord
100
AcDbBlockTableRecord
  2
*Model_Space
340
22
  0
BLOCK_RECORD
  5
1B
330
1
100
AcDbSymbolTableRecord
100
AcDbBlockTableRecord
  2
*Paper_Space
340
1E
  0
BLOCK_RECORD
  5
23
330
1
100
AcDbSymbolTableRecord
100
AcDbBlockTableRecord
  2
*Paper_Space0
340
26
  0
BLOCK_RECORD
  5
74
330
1
100
AcDbSymbolTableRecord
100
AcDbBlockTableRecord
  2
Third Angle Projection Block
340
0
102
{BLKREFS
331
99
102
}
  0
BLOCK_RECORD
  5
AC
330
1
100
AcDbSymbolTableRecord
100
AcDbBlockTableRecord
  2
SW_NOTE_0
340
0
102
{BLKREFS
331
B1
102
}
  0
BLOCK_RECORD
  5
B2
330
1
100
AcDbSymbolTableRecord
100
AcDbBlockTableRecord
  2
SW_NOTE_1
340
0
102
{BLKREFS
331
B7
102
}
  0
BLOCK_RECORD
  5
B9
330
1
100
AcDbSymbolTableRecord
100
AcDbBlockTableRecord
  2
SW_NOTE_2
340
0
102
{BLKREFS
331
BE
102
}
  0
BLOCK_RECORD
  5
19A
330
1
100
AcDbSymbolTableRecord
100
AcDbBlockTableRecord
  2
_D
340
0
  0
BLOCK_RECORD
  5
1DB
330
1
100
AcDbSymbolTableRecord
100
AcDbBlockTableRecord
  2
_D_1
340
0
  0
BLOCK_RECORD
  5
25C
330
1
100
AcDbSymbolTableRecord
100
AcDbBlockTableRecord
  2
_D_2
340
0
  0
BLOCK_RECORD
  5
2D8
330
1
100
AcDbSymbolTableRecord
100
AcDbBlockTableRecord
  2
_D_3
340
0
  0
BLOCK_RECORD
  5
2ED
330
1
100
AcDbSymbolTableRecord
100
AcDbBlockTableRecord
  2
_D_4
340
0
  0
BLOCK_RECORD
  5
300
330
1
100
AcDbSymbolTableRecord
100
AcDbBlockTableRecord
  2
_D_5
340
0
  0
ENDTAB
  0
ENDSEC
  0
SECTION
  2
BLOCKS
  0
BLOCK
  5
20
330
1F
100
AcDbEntity
  8
0
100
AcDbBlockBegin
  2
*Model_Space
 70
     0
 10
0.0
 20
0.0
 30
0.0
  3
*Model_Space
  1

  0
ENDBLK
  5
21
330
1F
100
AcDbEntity
  8
0
100
AcDbBlockEnd
  0
BLOCK
  5
1C
330
1B
100
AcDbEntity
 67
     1
  8
0
100
AcDbBlockBegin
  2
*Paper_Space
 70
     0
 10
0.0
 20
0.0
 30
0.0
  3
*Paper_Space
  1

  0
ENDBLK
  5
1D
330
1B
100
AcDbEntity
 67
     1
  8
0
100
AcDbBlockEnd
  0
BLOCK
  5
24
330
23
100
AcDbEntity
  8
0
100
AcDbBlockBegin
  2
*Paper_Space0
 70
     0
 10
0.0
 20
0.0
 30
0.0
  3
*Paper_Space0
  1

  0
ENDBLK
  5
25
330
23
100
AcDbEntity
  8
0
100
AcDbBlockEnd
  0
BLOCK
  5
75
330
74
100
AcDbEntity
  8
0
100
AcDbBlockBegin
  2
Third Angle Projection Block
 70
     0
 10
0.0
 20
0.0
 30
0.0
  3
Third Angle Projection Block
  1

  0
CIRCLE
  5
77
330
74
100
AcDbEntity
  8
0
  6
Continuous
 62
     7
370
    30
100
AcDbCircle
 10
101.4766388944
 20
18.9404083667
 30
0.0
 40
1.768227153674871
  0
CIRCLE
  5
78
330
74
100
AcDbEntity
  8
0
  6
Continuous
 62
     7
370
    30
100
AcDbCircle
 10
101.4766388944
 20
18.9404083667
 30
0.0
 40
3.901228248531818
  0
LINE
  5
79
330
74
100
AcDbEntity
  8
0
  6
CENTERX2
 62
     7
370
     0
100
AcDbLine
 10
110.1367822585
 20
18.9404083667
 30
0.0
 11
119.4527334874
 21
18.9404083667
 31
0.0
  0
LINE
  5
7A
330
74
100
AcDbEntity
  8
0
  6
Continuous
 62
     7
370
    30
100
AcDbLine
 10
111.0016388944
 20
20.7086355204
 30
0.0
 11
111.0016388944
 21
17.172181213
 31
0.0
  0
LINE
  5
7B
330
74
100
AcDbEntity
  8
0
  6
Continuous
 62
     7
370
    30
100
AcDbLine
 10
111.0016388944
 20
17.172181213
 30
0.0
 11
118.6216388944
 21
15.1304083667
 31
0.0
  0
LINE
  5
7C
330
74
100
AcDbEntity
  8
0
  6
Continuous
 62
     7
370
    30
100
AcDbLine
 10
118.6216388944
 20
15.1304083667
 30
0.0
 11
118.6216388944
 21
22.7504083667
 31
0.0
  0
LINE
  5
7D
330
74
100
AcDbEntity
  8
0
  6
Continuous
 62
     7
370
    30
100
AcDbLine
 10
118.6216388944
 20
22.7504083667
 30
0.0
 11
111.0016388944
 21
20.7086355204
 31
0.0
  0
LINE
  5
7E
330
74
100
AcDbEntity
  8
0
  6
CENTERX2
 62
     7
370
     0
100
AcDbLine
 10
96.6025854619
 20
18.9404083667
 30
0.0
 11
106.3506923269
 21
18.9404083667
 31
0.0
  0
LINE
  5
7F
330
74
100
AcDbEntity
  8
0
  6
CENTERX2
 62
     7
370
     0
100
AcDbLine
 10
101.4766388944
 20
23.8144617992
 30
0.0
 11
101.4766388944
 21
14.0663549342
 31
0.0
  0
POINT
  5
80
330
74
100
AcDbEntity
  8
0
  6
Continuous
 62
     7
370
     0
100
AcDbPoint
 10
101.4766388944
 20
18.9404083667
 30
0.0
  0
ENDBLK
  5
76
330
74
100
AcDbEntity
  8
0
100
AcDbBlockEnd
  0
BLOCK
  5
AD
330
AC
100
AcDbEntity
  8
0
100
AcDbBlockBegin
  2
SW_NOTE_0
 70
     0
 10
0.0
 20
0.0
 30
0.0
  3
SW_NOTE_0
  1

  0
MTEXT
  5
AF
330
AC
100
AcDbEntity
  8
0
  6
Continuous
 62
     0
370
     0
100
AcDbMText
 10
19.90725
 20
1.9645392354
 30
0.0
 40
1.524
 41
0.0
 71
     2
 72
     1
  1
VALUES IN PARENTHESIS ARE CALCULATED
  7
SLDTEXTSTYLE0
 73
     1
 44
1.0
  0
MTEXT
  5
B0
330
AC
100
AcDbEntity
  8
0
  6
Continuous
 62
     0
370
     0
100
AcDbMText
 10
19.8778795174
 20
-0.5594606586
 30
0.0
 40
1.524
 41
0.0
 71
     2
 72
     1
  1
AND MAY CONTAIN ROUNDOFF ERRORS
  7
SLDTEXTSTYLE0
 73
     1
 44
1.0
  0
ENDBLK
  5
AE
330
AC
100
AcDbEntity
  8
0
100
AcDbBlockEnd
  0
BLOCK
  5
B3
330
B2
100
AcDbEntity
  8
0
100
AcDbBlockBegin
  2
SW_NOTE_1
 70
     0
 10
0.0
 20
0.0
 30
0.0
  3
SW_NOTE_1
  1

  0
MTEXT
  5
B5
330
B2
100
AcDbEntity
  8
0
  6
Continuous
 62
     0
370
     0
100
AcDbMText
 10
0.0
 20
2.7285267159
 30
0.0
 40
2.1166666667
 41
0.0
 71
     1
 72
     1
  1
DRAWING
  7
SLDTEXTSTYLE0
 73
     1
 44
1.0
  0
MTEXT
  5
B6
330
B2
100
AcDbEntity
  8
0
  6
Continuous
 62
     0
370
     0
100
AcDbMText
 10
0.0
 20
-0.0936954723
 30
0.0
 40
2.1166666667
 41
0.0
 71
     1
 72
     1
  1
PROJECTION
  7
SLDTEXTSTYLE0
 73
     1
 44
1.0
  0
ENDBLK
  5
B4
330
B2
100
AcDbEntity
  8
0
100
AcDbBlockEnd
  0
BLOCK
  5
BA
330
B9
100
AcDbEntity
  8
0
100
AcDbBlockBegin
  2
SW_NOTE_2
 70
     0
 10
0.0
 20
0.0
 30
0.0
  3
SW_NOTE_2
  1

  0
MTEXT
  5
BC
330
B9
100
AcDbEntity
  8
0
  6
Continuous
 62
     0
370
     0
100
AcDbMText
 10
25.052734375
 20
4.0927900738
 30
0.0
 40
3.175
 41
0.0
 71
     2
 72
     1
  1
FOR INFORMATION ONLY
  7
SLDTEXTSTYLE0
 73
     1
 44
1.0
  0
MTEXT
  5
BD
330
B9
100
AcDbEntity
  8
0
  6
Continuous
 62
     0
370
     0
100
AcDbMText
 10
25.3768468589
 20
-0.1405432084
 30
0.0
 40
3.175
 41
0.0
 71
     2
 72
     1
  1
NOT FOR MANUFACTURING PURPOSES
  7
SLDTEXTSTYLE0
 73
     1
 44
1.0
  0
ENDBLK
  5
BB
330
B9
100
AcDbEntity
  8
0
100
AcDbBlockEnd
  0
BLOCK
  5
19B
330
19A
100
AcDbEntity
  8
0
100
AcDbBlockBegin
  2
_D
 70
     0
 10
0.0
 20
0.0
 30
0.0
  3
_D
  1

  0
SOLID
  5
19D
330
19A
100
AcDbEntity
  8
0
  6
Continuous
 62
     7
370
     0
100
AcDbTrace
 10
201.8032112663
 20
121.3536118613
 30
0.0
 11
204.9782112663
 21
120.8456118613
 31
0.0
 12
204.9782112663
 22
121.8616118613
 32
0.0
 13
204.9782112663
 23
121.8616118613
 33
0.0
  0
SOLID
  5
19E
330
19A
100
AcDbEntity
  8
0
  6
Continuous
 62
     7
370
     0
100
AcDbTrace
 10
211.8032112663
 20
121.3536118613
 30
0.0
 11
208.6282112663
 21
121.8616118613
 31
0.0
 12
208.6282112663
 22
120.8456118613
 32
0.0
 13
208.6282112663
 23
120.8456118613
 33
0.0
  0
LINE
  5
19F
330
19A
100
AcDbEntity
  8
0
  6
Continuous
 62
     7
370
     0
100
AcDbLine
 10
225.949886252
 20
121.3536116285
 30
0.0
 11
225.3060667979
 21
121.3536116285
 31
0.0
  0
LINE
  5
1A0
330
19A
100
AcDbEntity
  8
0
  6
Continuous
 62
     7
370
     0
100
AcDbLine
 10
225.3060667979
 20
121.3536116285
 30
0.0
 11
225.3060667979
 21
117.990463552
 31
0.0
  0
LINE
  5
1A1
330
19A
100
AcDbEntity
  8
0
  6
Continuous
 62
     7
370
     0
100
AcDbLine
 10
225.3060667979
 20
117.990463552
 30
0.0
 11
225.949886252
 21
117.990463552
 31
0.0
  0
LINE
  5
1A2
330
19A
100
AcDbEntity
  8
0
  6
Continuous
 62
     7
370
     0
100
AcDbLine
 10
233.7070777983
 20
121.3536116285
 30
0.0
 11
234.3508972524
 21
121.3536116285
 31
0.0
  0
LINE
  5
1A3
330
19A
100
AcDbEntity
  8
0
  6
Continuous
 62
     7
370
     0
100
AcDbLine
 10
234.3508972524
 20
121.3536116285
 30
0.0
 11
234.3508972524
 21
117.990463552
 31
0.0
  0
LINE
  5
1A4
330
19A
100
AcDbEntity
  8
0
  6
Continuous
 62
     7
370
     0
100
AcDbLine
 10
234.3508972524
 20
117.990463552
 30
0.0
 11
233.7070777983
 21
117.990463552
 31
0.0
  0
LINE
  5
1A5
330
19A
100
AcDbEntity
  8
0
  6
Continuous
 62
     7
370
     0
100
AcDbLine
 10
201.8032112663
 20
134.3726328888
 30
0.0
 11
201.8032112663
 21
119.5756118613
 31
0.0
  0
LINE
  5
1A6
330
19A
100
AcDbEntity
  8
0
  6
Continuous
 62
     7
370
     0
100
AcDbLine
 10
211.8032112663
 20
134.3726328888
 30
0.0
 11
211.8032112663
 21
119.5756118613
 31
0.0
  0
LINE
  5
1A7
330
19A
100
AcDbEntity
  8
0
  6
Continuous
 62
     7
370
     0
100
AcDbLine
 10
201.8032112663
 20
121.3536118613
 30
0.0
 11
211.8032112663
 21
121.3536118613
 31
0.0
  0
LINE
  5
1A8
330
19A
100
AcDbEntity
  8
0
  6
Continuous
 62
     7
370
     0
100
AcDbLine
 10
211.8032112663
 20
121.3536118613
 30
0.0
 11
222.4572235095
 21
121.3536118613
 31
0.0
  0
MTEXT
  5
1A9
330
19A
100
AcDbEntity
  8
0
  6
Continuous
 62
     7
370
     0
100
AcDbMText
 10
224.4740988988
 20
124.5113512749
 30
0.0
 40
2.1166666667
 41
0.0
 71
     1
 72
     1
  1

  7
SLDTEXTSTYLE0
 73
     1
 44
1.0
  0
MTEXT
  5
1AA
330
19A
100
AcDbEntity
  8
0
  6
Continuous
 62
     7
370
     0
100
AcDbMText
 10
224.4466606032
 20
124.5113512749
 30
0.0
 40
2.1166666667
 41
0.0
 71
     1
 72
     1
  1
10.0mm
  7
SLDTEXTSTYLE0
 73
     1
 44
1.0
  0
MTEXT
  5
1AB
330
19A
100
AcDbEntity
  8
0
  6
Continuous
 62
     7
370
     0
100
AcDbMText
 10
225.949886252
 20
120.7189901514
 30
0.0
 40
2.1166666667
 41
0.0
 71
     1
 72
     1
  1
0.39in
  7
SLDTEXTSTYLE0
 73
     1
 44
1.0
  0
MTEXT
  5
1AC
330
19A
100
AcDbEntity
  8
0
  6
Continuous
 62
     7
370
     0
100
AcDbMText
 10
236.7978025157
 20
124.5113512749
 30
0.0
 40
2.1166666667
 41
0.0
 71
     1
 72
     1
  1

  7
SLDTEXTSTYLE0
 73
     1
 44
1.0
  0
ENDBLK
  5
19C
330
19A
100
AcDbEntity
  8
0
100
AcDbBlockEnd
  0
BLOCK
  5
1DC
330
1DB
100
AcDbEntity
  8
0
100
AcDbBlockBegin
  2
_D_1
 70
     0
 10
0.0
 20
0.0
 30
0.0
  3
_D_1
  1

  0
SOLID
  5
1DE
330
1DB
100
AcDbEntity
  8
0
  6
Continuous
 62
     7
370
     0
100
AcDbTrace
 10
42.3471857091
 20
145.6426328888
 30
0.0
 11
41.8391857091
 21
142.4676328888
 31
0.0
 12
42.8551857091
 22
142.4676328888
 32
0.0
 13
42.8551857091
 23
142.4676328888
 33
0.0
  0
SOLID
  5
1DF
330
1DB
100
AcDbEntity
  8
0
  6
Continuous
 62
     7
370
     0
100
AcDbTrace
 10
42.3471857091
 20
135.6426328888
 30
0.0
 11
42.8551857091
 21
138.8176328888
 31
0.0
 12
41.8391857091
 22
138.8176328888
 32
0.0
 13
41.8391857091
 23
138.8176328888
 33
0.0
  0
LINE
  5
1E0
330
1DB
100
AcDbEntity
  8
0
  6
Continuous
 62
     7
370
     0
100
AcDbLine
 10
50.5085992304
 20
160.8138613779
 30
0.0
 11
49.8647797763
 21
160.8138613779
 31
0.0
  0
LINE
  5
1E1
330
1DB
100
AcDbEntity
  8
0
  6
Continuous
 62
     7
370
     0
100
AcDbLine
 10
49.8647797763
 20
160.8138613779
 30
0.0
 11
49.8647797763
 21
157.4507133015
 31
0.0
  0
LINE
  5
1E2
330
1DB
100
AcDbEntity
  8
0
  6
Continuous
 62
     7
370
     0
100
AcDbLine
 10
49.8647797763
 20
157.4507133015
 30
0.0
 11
50.5085992304
 21
157.4507133015
 31
0.0
  0
LINE
  5
1E3
330
1DB
100
AcDbEntity
  8
0
  6
Continuous
 62
     7
370
     0
100
AcDbLine
 10
58.2657907766
 20
160.8138613779
 30
0.0
 11
58.9096102308
 21
160.8138613779
 31
0.0
  0
LINE
  5
1E4
330
1DB
100
AcDbEntity
  8
0
  6
Continuous
 62
     7
370
     0
100
AcDbLine
 10
58.9096102308
 20
160.8138613779
 30
0.0
 11
58.9096102308
 21
157.4507133015
 31
0.0
  0
LINE
  5
1E5
330
1DB
100
AcDbEntity
  8
0
  6
Continuous
 62
     7
370
     0
100
AcDbLine
 10
58.9096102308
 20
157.4507133015
 30
0.0
 11
58.2657907766
 21
157.4507133015
 31
0.0
  0
LINE
  5
1E6
330
1DB
100
AcDbEntity
  8
0
  6
Continuous
 62
     7
370
     0
100
AcDbLine
 10
25.3802082824
 20
145.6426328888
 30
0.0
 11
44.1251857091
 21
145.6426328888
 31
0.0
  0
LINE
  5
1E7
330
1DB
100
AcDbEntity
  8
0
  6
Continuous
 62
     7
370
     0
100
AcDbLine
 10
25.3802082824
 20
135.6426328888
 30
0.0
 11
44.1251857091
 21
135.6426328888
 31
0.0
  0
LINE
  5
1E8
330
1DB
100
AcDbEntity
  8
0
  6
Continuous
 62
     7
370
     0
100
AcDbLine
 10
46.1571857091
 20
160.8138616108
 30
0.0
 11
42.3471857091
 21
160.8138616108
 31
0.0
  0
LINE
  5
1E9
330
1DB
100
AcDbEntity
  8
0
  6
Continuous
 62
     7
370
     0
100
AcDbLine
 10
42.3471857091
 20
160.8138616108
 30
0.0
 11
42.3471857091
 21
145.6426328888
 31
0.0
  0
LINE
  5
1EA
330
1DB
100
AcDbEntity
  8
0
  6
Continuous
 62
     7
370
     0
100
AcDbLine
 10
42.3471857091
 20
145.6426328888
 30
0.0
 11
42.3471857091
 21
135.6426328888
 31
0.0
  0
MTEXT
  5
1EB
330
1DB
100
AcDbEntity
  8
0
  6
Continuous
 62
     7
370
     0
100
AcDbMText
 10
49.0328118772
 20
163.9716010244
 30
0.0
 40
2.1166666667
 41
0.0
 71
     1
 72
     1
  1

  7
SLDTEXTSTYLE0
 73
     1
 44
1.0
  0
MTEXT
  5
1EC
330
1DB
100
AcDbEntity
  8
0
  6
Continuous
 62
     7
370
     0
100
AcDbMText
 10
49.0053735816
 20
163.9716010244
 30
0.0
 40
2.1166666667
 41
0.0
 71
     1
 72
     1
  1
10.0mm
  7
SLDTEXTSTYLE0
 73
     1
 44
1.0
  0
MTEXT
  5
1ED
330
1DB
100
AcDbEntity
  8
0
  6
Continuous
 62
     7
370
     0
100
AcDbMText
 10
50.5085992304
 20
160.1792399009
 30
0.0
 40
2.1166666667
 41
0.0
 71
     1
 72
     1
  1
0.39in
  7
SLDTEXTSTYLE0
 73
     1
 44
1.0
  0
MTEXT
  5
1EE
330
1DB
100
AcDbEntity
  8
0
  6
Continuous
 62
     7
370
     0
100
AcDbMText
 10
61.3565154941
 20
163.9716010244
 30
0.0
 40
2.1166666667
 41
0.0
 71
     1
 72
     1
  1

  7
SLDTEXTSTYLE0
 73
     1
 44
1.0
  0
ENDBLK
  5
1DD
330
1DB
100
AcDbEntity
  8
0
100
AcDbBlockEnd
  0
BLOCK
  5
25D
330
25C
100
AcDbEntity
  8
0
100
AcDbBlockBegin
  2
_D_2
 70
     0
 10
0.0
 20
0.0
 30
0.0
  3
_D_2
  1

  0
SOLID
  5
25F
330
25C
100
AcDbEntity
  8
0
  6
Continuous
 62
     7
370
     0
100
AcDbTrace
 10
62.5745467458
 20
186.9664264658
 30
0.0
 11
60.0771016405
 21
188.9916318742
 31
0.0
 12
59.5698897243
 22
188.1112955339
 32
0.0
 13
59.5698897243
 23
188.1112955339
 33
0.0
  0
LINE
  5
260
330
25C
100
AcDbEntity
  8
0
  6
Continuous
 62
     7
370
     0
100
AcDbLine
 10
41.9701043694
 20
189.5272029635
 30
0.0
 11
41.3262849152
 21
189.5272029635
 31
0.0
  0
LINE
  5
261
330
25C
100
AcDbEntity
  8
0
  6
Continuous
 62
     7
370
     0
100
AcDbLine
 10
41.3262849152
 20
189.5272029635
 30
0.0
 11
41.3262849152
 21
186.1640548871
 31
0.0
  0
LINE
  5
262
330
25C
100
AcDbEntity
  8
0
  6
Continuous
 62
     7
370
     0
100
AcDbLine
 10
41.3262849152
 20
186.1640548871
 30
0.0
 11
41.9701043694
 21
186.1640548871
 31
0.0
  0
LINE
  5
263
330
25C
100
AcDbEntity
  8
0
  6
Continuous
 62
     7
370
     0
100
AcDbLine
 10
49.7272959156
 20
189.5272029635
 30
0.0
 11
50.3711153698
 21
189.5272029635
 31
0.0
  0
LINE
  5
264
330
25C
100
AcDbEntity
  8
0
  6
Continuous
 62
     7
370
     0
100
AcDbLine
 10
50.3711153698
 20
189.5272029635
 30
0.0
 11
50.3711153698
 21
186.1640548871
 31
0.0
  0
LINE
  5
265
330
25C
100
AcDbEntity
  8
0
  6
Continuous
 62
     7
370
     0
100
AcDbLine
 10
50.3711153698
 20
186.1640548871
 30
0.0
 11
49.7272959156
 21
186.1640548871
 31
0.0
  0
LINE
  5
266
330
25C
100
AcDbEntity
  8
0
  6
Continuous
 62
     7
370
     0
100
AcDbLine
 10
62.5745467458
 20
186.9664264658
 30
0.0
 11
55.4050589152
 21
191.097176833
 31
0.0
  0
LINE
  5
267
330
25C
100
AcDbEntity
  8
0
  6
Continuous
 62
     7
370
     0
100
AcDbLine
 10
55.4050589152
 20
191.097176833
 30
0.0
 11
51.5950589152
 21
191.097176833
 31
0.0
  0
MTEXT
  5
268
330
25C
100
AcDbEntity
  8
0
  6
Continuous
 62
     7
370
     0
100
AcDbMText
 10
40.6824654611
 20
192.68494261
 30
0.0
 40
2.1166666667
 41
0.0
 71
     1
 72
     1
  1
R5.0mm
  7
SLDTEXTSTYLE0
 73
     1
 44
1.0
  0
MTEXT
  5
269
330
25C
100
AcDbEntity
  8
0
  6
Continuous
 62
     7
370
     0
100
AcDbMText
 10
41.9701043694
 20
188.8925814865
 30
0.0
 40
2.1166666667
 41
0.0
 71
     1
 72
     1
  1
0.20in
  7
SLDTEXTSTYLE0
 73
     1
 44
1.0
  0
ENDBLK
  5
25E
330
25C
100
AcDbEntity
  8
0
100
AcDbBlockEnd
  0
BLOCK
  5
2D9
330
2D8
100
AcDbEntity
  8
0
100
AcDbBlockBegin
  2
_D_3
 70
     0
 10
0.0
 20
0.0
 30
0.0
  3
_D_3
  1

  0
SOLID
  5
2DB
330
2D8
100
AcDbEntity
  8
0
  6
Continuous
 62
     7
370
     0
100
AcDbTrace
 10
84.9194762179
 20
100.7430503714
 30
0.0
 11
81.7444762179
 21
101.2510503714
 31
0.0
 12
81.7444762179
 22
100.2350503714
 32
0.0
 13
81.7444762179
 23
100.2350503714
 33
0.0
  0
SOLID
  5
2DC
330
2D8
100
AcDbEntity
  8
0
  6
Continuous
 62
     7
370
     0
100
AcDbTrace
 10
62.3300993072
 20
100.7430503714
 30
0.0
 11
65.5050993072
 21
100.2350503714
 31
0.0
 12
65.5050993072
 22
101.2510503714
 32
0.0
 13
65.5050993072
 23
101.2510503714
 33
0.0
  0
LINE
  5
2DD
330
2D8
100
AcDbEntity
  8
0
  6
Continuous
 62
     7
370
     0
100
AcDbLine
 10
99.4284101039
 20
100.7430501385
 30
0.0
 11
98.7845906498
 21
100.7430501385
 31
0.0
  0
LINE
  5
2DE
330
2D8
100
AcDbEntity
  8
0
  6
Continuous
 62
     7
370
     0
100
AcDbLine
 10
98.7845906498
 20
100.7430501385
 30
0.0
 11
98.7845906498
 21
97.3799020621
 31
0.0
  0
LINE
  5
2DF
330
2D8
100
AcDbEntity
  8
0
  6
Continuous
 62
     7
370
     0
100
AcDbLine
 10
98.7845906498
 20
97.3799020621
 30
0.0
 11
99.4284101039
 21
97.3799020621
 31
0.0
  0
LINE
  5
2E0
330
2D8
100
AcDbEntity
  8
0
  6
Continuous
 62
     7
370
     0
100
AcDbLine
 10
107.1856016502
 20
100.7430501385
 30
0.0
 11
107.8294211043
 21
100.7430501385
 31
0.0
  0
LINE
  5
2E1
330
2D8
100
AcDbEntity
  8
0
  6
Continuous
 62
     7
370
     0
100
AcDbLine
 10
107.8294211043
 20
100.7430501385
 30
0.0
 11
107.8294211043
 21
97.3799020621
 31
0.0
  0
LINE
  5
2E2
330
2D8
100
AcDbEntity
  8
0
  6
Continuous
 62
     7
370
     0
100
AcDbLine
 10
107.8294211043
 20
97.3799020621
 30
0.0
 11
107.1856016502
 21
97.3799020621
 31
0.0
  0
LINE
  5
2E3
330
2D8
100
AcDbEntity
  8
0
  6
Continuous
 62
     7
370
     0
100
AcDbLine
 10
84.9194762179
 20
95.1969401279
 30
0.0
 11
84.9194762179
 21
102.5210503714
 31
0.0
  0
LINE
  5
2E4
330
2D8
100
AcDbEntity
  8
0
  6
Continuous
 62
     7
370
     0
100
AcDbLine
 10
62.3300993072
 20
90.1969401279
 30
0.0
 11
62.3300993072
 21
102.5210503714
 31
0.0
  0
LINE
  5
2E5
330
2D8
100
AcDbEntity
  8
0
  6
Continuous
 62
     7
370
     0
100
AcDbLine
 10
84.9194762179
 20
100.7430503714
 30
0.0
 11
95.9357473614
 21
100.7430503714
 31
0.0
  0
LINE
  5
2E6
330
2D8
100
AcDbEntity
  8
0
  6
Continuous
 62
     7
370
     0
100
AcDbLine
 10
62.3300993072
 20
100.7430503714
 30
0.0
 11
84.9194762179
 21
100.7430503714
 31
0.0
  0
MTEXT
  5
2E7
330
2D8
100
AcDbEntity
  8
0
  6
Continuous
 62
     7
370
     0
100
AcDbMText
 10
97.9526227508
 20
103.900789785
 30
0.0
 40
2.1166666667
 41
0.0
 71
     1
 72
     1
  1

  7
SLDTEXTSTYLE0
 73
     1
 44
1.0
  0
MTEXT
  5
2E8
330
2D8
100
AcDbEntity
  8
0
  6
Continuous
 62
     7
370
     0
100
AcDbMText
 10
97.9251844551
 20
103.900789785
 30
0.0
 40
2.1166666667
 41
0.0
 71
     1
 72
     1
  1
22.6mm
  7
SLDTEXTSTYLE0
 73
     1
 44
1.0
  0
MTEXT
  5
2E9
330
2D8
100
AcDbEntity
  8
0
  6
Continuous
 62
     7
370
     0
100
AcDbMText
 10
99.4284101039
 20
100.1084286615
 30
0.0
 40
2.1166666667
 41
0.0
 71
     1
 72
     1
  1
0.89in
  7
SLDTEXTSTYLE0
 73
     1
 44
1.0
  0
MTEXT
  5
2EA
330
2D8
100
AcDbEntity
  8
0
  6
Continuous
 62
     7
370
     0
100
AcDbMText
 10
110.2763263676
 20
103.900789785
 30
0.0
 40
2.1166666667
 41
0.0
 71
     1
 72
     1
  1

  7
SLDTEXTSTYLE0
 73
     1
 44
1.0
  0
ENDBLK
  5
2DA
330
2D8
100
AcDbEntity
  8
0
100
AcDbBlockEnd
  0
BLOCK
  5
2EE
330
2ED
100
AcDbEntity
  8
0
100
AcDbBlockBegin
  2
_D_4
 70
     0
 10
0.0
 20
0.0
 30
0.0
  3
_D_4
  1

  0
SOLID
  5
2F0
330
2ED
100
AcDbEntity
  8
0
  6
Continuous
 62
     7
370
     0
100
AcDbTrace
 10
81.4174762179
 20
69.758449391
 30
0.0
 11
78.2424762179
 21
70.266449391
 31
0.0
 12
78.2424762179
 22
69.250449391
 32
0.0
 13
78.2424762179
 23
69.250449391
 33
0.0
  0
SOLID
  5
2F1
330
2ED
100
AcDbEntity
  8
0
  6
Continuous
 62
     7
370
     0
100
AcDbTrace
 10
84.4184762179
 20
69.758449391
 30
0.0
 11
87.5934762179
 21
69.250449391
 31
0.0
 12
87.5934762179
 22
70.266449391
 32
0.0
 13
87.5934762179
 23
70.266449391
 33
0.0
  0
LINE
  5
2F2
330
2ED
100
AcDbEntity
  8
0
  6
Continuous
 62
     7
370
     0
100
AcDbLine
 10
97.7879934221
 20
69.7584491582
 30
0.0
 11
97.144173968
 21
69.7584491582
 31
0.0
  0
LINE
  5
2F3
330
2ED
100
AcDbEntity
  8
0
  6
Continuous
 62
     7
370
     0
100
AcDbLine
 10
97.144173968
 20
69.7584491582
 30
0.0
 11
97.144173968
 21
66.3953010817
 31
0.0
  0
LINE
  5
2F4
330
2ED
100
AcDbEntity
  8
0
  6
Continuous
 62
     7
370
     0
100
AcDbLine
 10
97.144173968
 20
66.3953010817
 30
0.0
 11
97.7879934221
 21
66.3953010817
 31
0.0
  0
LINE
  5
2F5
330
2ED
100
AcDbEntity
  8
0
  6
Continuous
 62
     7
370
     0
100
AcDbLine
 10
105.5451849684
 20
69.7584491582
 30
0.0
 11
106.1890044225
 21
69.7584491582
 31
0.0
  0
LINE
  5
2F6
330
2ED
100
AcDbEntity
  8
0
  6
Continuous
 62
     7
370
     0
100
AcDbLine
 10
106.1890044225
 20
69.7584491582
 30
0.0
 11
106.1890044225
 21
66.3953010817
 31
0.0
  0
LINE
  5
2F7
330
2ED
100
AcDbEntity
  8
0
  6
Continuous
 62
     7
370
     0
100
AcDbLine
 10
106.1890044225
 20
66.3953010817
 30
0.0
 11
105.5451849684
 21
66.3953010817
 31
0.0
  0
LINE
  5
2F8
330
2ED
100
AcDbEntity
  8
0
  6
Continuous
 62
     7
370
     0
100
AcDbLine
 10
81.4174762179
 20
82.6569401279
 30
0.0
 11
81.4174762179
 21
67.980449391
 31
0.0
  0
LINE
  5
2F9
330
2ED
100
AcDbEntity
  8
0
  6
Continuous
 62
     7
370
     0
100
AcDbLine
 10
84.4184762179
 20
82.6569401279
 30
0.0
 11
84.4184762179
 21
67.980449391
 31
0.0
  0
LINE
  5
2FA
330
2ED
100
AcDbEntity
  8
0
  6
Continuous
 62
     7
370
     0
100
AcDbLine
 10
81.4174762179
 20
69.758449391
 30
0.0
 11
75.0674762179
 21
69.758449391
 31
0.0
  0
LINE
  5
2FB
330
2ED
100
AcDbEntity
  8
0
  6
Continuous
 62
     7
370
     0
100
AcDbLine
 10
84.4184762179
 20
69.758449391
 30
0.0
 11
96.0709791245
 21
69.758449391
 31
0.0
  0
MTEXT
  5
2FC
330
2ED
100
AcDbEntity
  8
0
  6
Continuous
 62
     7
370
     0
100
AcDbMText
 10
97.0667588267
 20
72.9161888047
 30
0.0
 40
2.1166666667
 41
0.0
 71
     1
 72
     1
  1
3.0mm
  7
SLDTEXTSTYLE0
 73
     1
 44
1.0
  0
MTEXT
  5
2FD
330
2ED
100
AcDbEntity
  8
0
  6
Continuous
 62
     7
370
     0
100
AcDbMText
 10
97.7879934221
 20
69.1238276812
 30
0.0
 40
2.1166666667
 41
0.0
 71
     1
 72
     1
  1
0.12in
  7
SLDTEXTSTYLE0
 73
     1
 44
1.0
  0
MTEXT
  5
2FE
330
2ED
100
AcDbEntity
  8
0
  6
Continuous
 62
     7
370
     0
100
AcDbMText
 10
106.832823411
 20
72.9161888047
 30
0.0
 40
2.1166666667
 41
0.0
 71
     1
 72
     1
  1
X5
  7
SLDTEXTSTYLE0
 73
     1
 44
1.0
  0
ENDBLK
  5
2EF
330
2ED
100
AcDbEntity
  8
0
100
AcDbBlockEnd
  0
BLOCK
  5
301
330
300
100
AcDbEntity
  8
0
100
AcDbBlockBegin
  2
_D_5
 70
     0
 10
0.0
 20
0.0
 30
0.0
  3
_D_5
  1

  0
SOLID
  5
303
330
300
100
AcDbEntity
  8
0
  6
Continuous
 62
     7
370
     0
100
AcDbTrace
 10
67.4161762179
 20
73.9265299592
 30
0.0
 11
64.2411762179
 21
74.4345299592
 31
0.0
 12
64.2411762179
 22
73.4185299592
 32
0.0
 13
64.2411762179
 23
73.4185299592
 33
0.0
  0
SOLID
  5
304
330
300
100
AcDbEntity
  8
0
  6
Continuous
 62
     7
370
     0
100
AcDbTrace
 10
69.4171762179
 20
73.9265299592
 30
0.0
 11
72.5921762179
 21
73.4185299592
 31
0.0
 12
72.5921762179
 22
74.4345299592
 32
0.0
 13
72.5921762179
 23
74.4345299592
 33
0.0
  0
LINE
  5
305
330
300
100
AcDbEntity
  8
0
  6
Continuous
 62
     7
370
     0
100
AcDbLine
 10
42.4515033013
 20
73.9265297264
 30
0.0
 11
41.8076838471
 21
73.9265297264
 31
0.0
  0
LINE
  5
306
330
300
100
AcDbEntity
  8
0
  6
Continuous
 62
     7
370
     0
100
AcDbLine
 10
41.8076838471
 20
73.9265297264
 30
0.0
 11
41.8076838471
 21
70.5633816499
 31
0.0
  0
LINE
  5
307
330
300
100
AcDbEntity
  8
0
  6
Continuous
 62
     7
370
     0
100
AcDbLine
 10
41.8076838471
 20
70.5633816499
 30
0.0
 11
42.4515033013
 21
70.5633816499
 31
0.0
  0
LINE
  5
308
330
300
100
AcDbEntity
  8
0
  6
Continuous
 62
     7
370
     0
100
AcDbLine
 10
50.2086948475
 20
73.9265297264
 30
0.0
 11
50.8525143017
 21
73.9265297264
 31
0.0
  0
LINE
  5
309
330
300
100
AcDbEntity
  8
0
  6
Continuous
 62
     7
370
     0
100
AcDbLine
 10
50.8525143017
 20
73.9265297264
 30
0.0
 11
50.8525143017
 21
70.5633816499
 31
0.0
  0
LINE
  5
30A
330
300
100
AcDbEntity
  8
0
  6
Continuous
 62
     7
370
     0
100
AcDbLine
 10
50.8525143017
 20
70.5633816499
 30
0.0
 11
50.2086948475
 21
70.5633816499
 31
0.0
  0
LINE
  5
30B
330
300
100
AcDbEntity
  8
0
  6
Continuous
 62
     7
370
     0
100
AcDbLine
 10
67.4161762179
 20
82.6569401279
 30
0.0
 11
67.4161762179
 21
72.1485299592
 31
0.0
  0
LINE
  5
30C
330
300
100
AcDbEntity
  8
0
  6
Continuous
 62
     7
370
     0
100
AcDbLine
 10
69.4171762179
 20
82.6569401279
 30
0.0
 11
69.4171762179
 21
72.1485299592
 31
0.0
  0
LINE
  5
30D
330
300
100
AcDbEntity
  8
0
  6
Continuous
 62
     7
370
     0
100
AcDbLine
 10
67.4161762179
 20
73.9265299592
 30
0.0
 11
53.4857713152
 21
73.9265299592
 31
0.0
  0
LINE
  5
30E
330
300
100
AcDbEntity
  8
0
  6
Continuous
 62
     7
370
     0
100
AcDbLine
 10
69.4171762179
 20
73.9265299592
 30
0.0
 11
75.7671762179
 21
73.9265299592
 31
0.0
  0
MTEXT
  5
30F
330
300
100
AcDbEntity
  8
0
  6
Continuous
 62
     7
370
     0
100
AcDbMText
 10
41.1913026886
 20
77.0842693729
 30
0.0
 40
2.1166666667
 41
0.0
 71
     1
 72
     1
  1

  7
SLDTEXTSTYLE0
 73
     1
 44
1.0
  0
MTEXT
  5
310
330
300
100
AcDbEntity
  8
0
  6
Continuous
 62
     7
370
     0
100
AcDbMText
 10
41.7302687059
 20
77.0842693729
 30
0.0
 40
2.1166666667
 41
0.0
 71
     1
 72
     1
  1
2.0mm
  7
SLDTEXTSTYLE0
 73
     1
 44
1.0
  0
MTEXT
  5
311
330
300
100
AcDbEntity
  8
0
  6
Continuous
 62
     7
370
     0
100
AcDbMText
 10
42.4515033013
 20
73.2919082494
 30
0.0
 40
2.1166666667
 41
0.0
 71
     1
 72
     1
  1
0.08in
  7
SLDTEXTSTYLE0
 73
     1
 44
1.0
  0
MTEXT
  5
312
330
300
100
AcDbEntity
  8
0
  6
Continuous
 62
     7
370
     0
100
AcDbMText
 10
53.0838337558
 20
77.0842693729
 30
0.0
 40
2.1166666667
 41
0.0
 71
     1
 72
     1
  1

  7
SLDTEXTSTYLE0
 73
     1
 44
1.0
  0
ENDBLK
  5
302
330
300
100
AcDbEntity
  8
0
100
AcDbBlockEnd
  0
ENDSEC
  0
SECTION
  2
ENTITIES
  0
LINE
  5
81
330
1F
100
AcDbEntity
  8
0
  6
Continuous
 62
     7
370
     0
100
AcDbLine
 10
1.5793501011
 20
214.6453799966
 30
0.0
 11
277.9892068491
 21
214.6453799966
 31
0.0
  0
LINE
  5
82
330
1F
100
AcDbEntity
  8
0
  6
Continuous
 62
     7
370
     0
100
AcDbLine
 10
1.5793501011
 20
214.6453799966
 30
0.0
 11
1.5793501011
 21
0.9031642596
 31
0.0
  0
LINE
  5
83
330
1F
100
AcDbEntity
  8
0
  6
Continuous
 62
     7
370
     0
100
AcDbLine
 10
277.9892068491
 20
0.9031642596
 30
0.0
 11
1.5793501011
 21
0.9031642596
 31
0.0
  0
LINE
  5
84
330
1F
100
AcDbEntity
  8
0
  6
Continuous
 62
     7
370
     0
100
AcDbLine
 10
277.9892068491
 20
0.9031642596
 30
0.0
 11
277.9892068491
 21
214.6453799966
 31
0.0
  0
LINE
  5
85
330
1F
100
AcDbEntity
  8
0
  6
Continuous
 62
     7
370
     0
100
AcDbLine
 10
215.7427640041
 20
12.2958890132
 30
0.0
 11
171.6327596684
 21
12.2958890132
 31
0.0
  0
LINE
  5
86
330
1F
100
AcDbEntity
  8
0
  6
Continuous
 62
     7
370
     0
100
AcDbLine
 10
171.6327596684
 20
12.2958890132
 30
0.0
 11
171.6327596684
 21
26.1661402506
 31
0.0
  0
LINE
  5
87
330
1F
100
AcDbEntity
  8
0
  6
Continuous
 62
     7
370
     0
100
AcDbLine
 10
171.6327596684
 20
0.9031642596
 30
0.0
 11
171.6327596684
 21
26.1661402506
 31
0.0
  0
LINE
  5
88
330
1F
100
AcDbEntity
  8
0
  6
Continuous
 62
     7
370
     0
100
AcDbLine
 10
215.7427640041
 20
17.1604579552
 30
0.0
 11
277.9892068491
 21
17.1604579552
 31
0.0
  0
LINE
  5
89
330
1F
100
AcDbEntity
  8
0
  6
Continuous
 62
     7
370
     0
100
AcDbLine
 10
215.7427640041
 20
35.2394508358
 30
0.0
 11
215.7427640041
 21
0.9031642596
 31
0.0
  0
LINE
  5
8A
330
1F
100
AcDbEntity
  8
0
  6
Continuous
 62
     7
370
     0
100
AcDbLine
 10
215.7427640041
 20
26.1661402506
 30
0.0
 11
171.6327596684
 21
26.1661402506
 31
0.0
  0
LINE
  5
8B
330
1F
100
AcDbEntity
  8
0
  6
Continuous
 62
     7
370
     0
100
AcDbLine
 10
215.7427640041
 20
9.1409200612
 30
0.0
 11
277.9892068491
 21
9.1409200612
 31
0.0
  0
LINE
  5
8C
330
1F
100
AcDbEntity
  8
0
  6
Continuous
 62
     7
370
     0
100
AcDbLine
 10
215.7427640041
 20
16.9216824031
 30
0.0
 11
171.6327596684
 21
16.9216824031
 31
0.0
  0
LINE
  5
8D
330
1F
100
AcDbEntity
  8
0
  6
Continuous
 62
     7
370
     0
100
AcDbLine
 10
215.7427640041
 20
21.4874005542
 30
0.0
 11
171.6327596684
 21
21.4874005542
 31
0.0
  0
LINE
  5
8E
330
1F
100
AcDbEntity
  8
0
  6
Continuous
 62
     7
370
     0
100
AcDbLine
 10
186.1338100705
 20
26.1661402506
 30
0.0
 11
186.1338100705
 21
12.2958890132
 31
0.0
  0
LINE
  5
8F
330
1F
100
AcDbEntity
  8
0
  6
Continuous
 62
     7
370
     0
100
AcDbLine
 10
198.2145906188
 20
26.1661402506
 30
0.0
 11
198.2145906188
 21
12.2958890132
 31
0.0
  0
LINE
  5
90
330
1F
100
AcDbEntity
  8
0
  6
Continuous
 62
     7
370
     0
100
AcDbLine
 10
253.7490408369
 20
9.1409200612
 30
0.0
 11
253.7490408369
 21
0.9031642596
 31
0.0
  0
LINE
  5
91
330
1F
100
AcDbEntity
  8
0
  6
Continuous
 62
     7
370
     0
100
AcDbLine
 10
171.6327596684
 20
12.2958890132
 30
0.0
 11
171.6327596684
 21
7.5627342528
 31
0.0
  0
LINE
  5
92
330
1F
100
AcDbEntity
  8
0
  6
Continuous
 62
     7
370
     0
100
AcDbLine
 10
171.6327596684
 20
7.5627342528
 30
0.0
 11
215.7427640041
 21
7.5627342528
 31
0.0
  0
LINE
  5
93
330
1F
100
AcDbEntity
  8
0
  6
Continuous
 62
     7
370
     0
100
AcDbLine
 10
171.6327596684
 20
7.5627342528
 30
0.0
 11
171.6327596684
 21
35.2394508358
 31
0.0
  0
LINE
  5
94
330
1F
100
AcDbEntity
  8
0
  6
Continuous
 62
     7
370
     0
100
AcDbLine
 10
171.6327596684
 20
35.2394508358
 30
0.0
 11
215.7427640041
 21
35.2394508358
 31
0.0
  0
LINE
  5
95
330
1F
100
AcDbEntity
  8
0
  6
Continuous
 62
     7
370
     0
100
AcDbLine
 10
270.1683598194
 20
17.1604579552
 30
0.0
 11
270.1683598194
 21
9.1409200612
 31
0.0
  0
LINE
  5
96
330
1F
100
AcDbEntity
  8
0
  6
Continuous
 62
     7
370
     0
100
AcDbLine
 10
215.7427640041
 20
35.2394508358
 30
0.0
 11
277.9892068491
 21
35.2394508358
 31
0.0
  0
LINE
  5
97
330
1F
100
AcDbEntity
  8
0
  6
Continuous
 62
     7
370
     0
100
AcDbLine
 10
277.9892068491
 20
35.2394508358
 30
0.0
 11
277.9892068491
 21
50.0331356147
 31
0.0
  0
LINE
  5
98
330
1F
100
AcDbEntity
  8
0
  6
Continuous
 62
     7
370
     0
100
AcDbLine
 10
215.7427640041
 20
24.8927335446
 30
0.0
 11
277.9892068491
 21
24.8927335446
 31
0.0
  0
INSERT
  5
99
330
1F
100
AcDbEntity
  8
0
  6
Continuous
 62
     7
100
AcDbBlockReference
  2
Third Angle Projection Block
 10
117.7262204235
 20
15.5162339489
 30
0.0
 41
0.8
 42
0.8
 43
0.8
  0
MTEXT
  5
9B
330
1F
100
AcDbEntity
  8
0
  6
Continuous
 62
     7
370
     0
100
AcDbMText
 10
274.1458225539
 20
13.2559386876
 30
0.0
 40
3.175
 41
0.0
 71
     2
 72
     1
  1
A
  7
SLDTEXTSTYLE0
 73
     1
 44
1.0
  0
MTEXT
  5
9C
330
1F
100
AcDbEntity
  8
0
  6
Continuous
 62
     7
370
     0
100
AcDbMText
 10
234.8324864156
 20
5.1306563898
 30
0.0
 40
3.175
 41
0.0
 71
     2
 72
     1
  1
PK4HQP1
  7
SLDTEXTSTYLE0
 73
     1
 44
1.0
  0
MTEXT
  5
9D
330
1F
100
AcDbEntity
  8
0
  6
Continuous
 62
     7
370
     0
100
AcDbMText
 10
216.4199766059
 20
16.8243178599
 30
0.0
 40
2.1166666667
 41
0.0
 71
     1
 72
     1
  1
MATERIAL
  7
SLDTEXTSTYLE0
 73
     1
 44
1.0
  0
MTEXT
  5
9E
330
1F
100
AcDbEntity
  8
0
  6
Continuous
 62
     7
370
     0
100
AcDbMText
 10
174.230946566
 20
20.054553926
 30
0.0
 40
1.8520833333
 41
0.0
 71
     1
 72
     1
  1
DRAWN
  7
SLDTEXTSTYLE0
 73
     1
 44
1.0
  0
MTEXT
  5
9F
330
1F
100
AcDbEntity
  8
0
  6
Continuous
 62
     7
370
     0
100
AcDbMText
 10
172.3960124543
 20
15.5787169747
 30
0.0
 40
1.8520833333
 41
0.0
 71
     1
 72
     1
  1
APPROVAL
  7
SLDTEXTSTYLE0
 73
     1
 44
1.0
  0
MTEXT
  5
A0
330
1F
100
AcDbEntity
  8
0
  6
Continuous
 62
     7
370
     0
100
AcDbMText
 10
271.7160653675
 20
16.1671746307
 30
0.0
 40
2.1166666667
 41
0.0
 71
     1
 72
     1
  1
REV
  7
SLDTEXTSTYLE0
 73
     1
 44
1.0
  0
MTEXT
  5
A1
330
1F
100
AcDbEntity
  8
0
  6
Continuous
 62
     7
370
     0
100
AcDbMText
 10
190.2958696448
 20
20.3177146903
 30
0.0
 40
2.1166666667
 41
0.0
 71
     1
 72
     1
  1
MK
  7
SLDTEXTSTYLE0
 73
     1
 44
1.0
  0
MTEXT
  5
A2
330
1F
100
AcDbEntity
  8
0
  6
Continuous
 62
     7
370
     0
100
AcDbMText
 10
190.2958696448
 20
15.841877739
 30
0.0
 40
2.1166666667
 41
0.0
 71
     1
 72
     1
  1
SS
  7
SLDTEXTSTYLE0
 73
     1
 44
1.0
  0
MTEXT
  5
A3
330
1F
100
AcDbEntity
  8
0
  6
Continuous
 62
     7
370
     0
100
AcDbMText
 10
199.8662436873
 20
20.3177146903
 30
0.0
 40
2.1166666667
 41
0.0
 71
     1
 72
     1
  1
SEP/7/16
  7
SLDTEXTSTYLE0
 73
     1
 44
1.0
  0
MTEXT
  5
A4
330
1F
100
AcDbEntity
  8
0
  6
Continuous
 62
     7
370
     0
100
AcDbMText
 10
203.6145073853
 20
24.8221395769
 30
0.0
 40
2.1166666667
 41
0.0
 71
     1
 72
     1
  1
DATE
  7
SLDTEXTSTYLE0
 73
     1
 44
1.0
  0
MTEXT
  5
A5
330
1F
100
AcDbEntity
  8
0
  6
Continuous
 62
     7
370
     0
100
AcDbMText
 10
199.8662436873
 20
15.841877739
 30
0.0
 40
2.1166666667
 41
0.0
 71
     1
 72
     1
  1
SEP/7/16
  7
SLDTEXTSTYLE0
 73
     1
 44
1.0
  0
MTEXT
  5
A7
330
1F
100
AcDbEntity
  8
0
  6
Continuous
 62
     7
370
     0
100
AcDbMText
 10
229.402906477
 20
27.7957480569
 30
0.0
 40
2.1166666667
 41
0.0
 71
     1
 72
     1
  1
w w w . t h o r  l a b s . c o m
  7
SLDTEXTSTYLE1
 73
     1
 44
1.0
  0
MTEXT
  5
A8
330
1F
100
AcDbEntity
  8
0
  6
Continuous
 62
     7
370
     0
100
AcDbMText
 10
216.7004035316
 20
8.3494791871
 30
0.0
 40
2.1166666667
 41
0.0
 71
     1
 72
     1
  1
ITEM #
  7
SLDTEXTSTYLE0
 73
     1
 44
1.0
  0
MTEXT
  5
A9
330
1F
100
AcDbEntity
  8
0
  6
Continuous
 62
     7
370
     0
100
AcDbMText
 10
254.5318000914
 20
8.3494791871
 30
0.0
 40
2.1166666667
 41
0.0
 71
     1
 72
     1
  1
APPROX WEIGHT
  7
SLDTEXTSTYLE0
 73
     1
 44
1.0
  0
MTEXT
  5
AA
330
1F
100
AcDbEntity
  8
0
  6
Continuous
 62
     7
370
     0
100
AcDbMText
 10
243.4273448343
 20
13.8247651814
 30
0.0
 40
3.175
 41
0.0
 71
     2
 72
     1
  1
N/A
  7
SLDTEXTSTYLE0
 73
     1
 44
1.0
  0
MTEXT
  5
AB
330
1F
100
AcDbEntity
  8
0
  6
Continuous
 62
     7
370
     0
100
AcDbMText
 10
266.1553537756
 20
5.1306563898
 30
0.0
 40
3.175
 41
0.0
 71
     2
 72
     1
  1
14.58 g
  7
SLDTEXTSTYLE0
 73
     1
 44
1.0
  0
INSERT
  5
B1
330
1F
100
AcDbEntity
  8
0
  6
Continuous
 62
     7
370
     0
100
AcDbBlockReference
  2
SW_NOTE_0
 10
174.8430140051
 20
4.4558554801
 30
0.0
  0
INSERT
  5
B7
330
1F
100
AcDbEntity
  8
0
  6
Continuous
 62
     7
370
     0
100
AcDbBlockReference
  2
SW_NOTE_1
 10
174.5483650337
 20
30.4835322715
 30
0.0
  0
MTEXT
  5
B8
330
1F
100
AcDbEntity
  8
0
  6
Continuous
 62
     7
370
     0
100
AcDbMText
 10
187.9273588276
 20
24.8221395769
 30
0.0
 40
2.1166666667
 41
0.0
 71
     1
 72
     1
  1
NAME
  7
SLDTEXTSTYLE0
 73
     1
 44
1.0
  0
INSERT
  5
BE
330
1F
100
AcDbEntity
  8
0
  6
Continuous
 62
     7
370
     0
100
AcDbBlockReference
  2
SW_NOTE_2
 10
58.6204667508
 20
8.1776609732
 30
0.0
  0
MTEXT
  5
BF
330
1F
100
AcDbEntity
  8
0
  6
Continuous
 62
     7
370
     0
100
AcDbMText
 10
247.9526769634
 20
22.4581719825
 30
0.0
 40
3.175
 41
0.0
 71
     2
 72
     1
  1
PIEZO ACTUATOR STACK
  7
SLDTEXTSTYLE0
 73
     1
 44
1.0
  0
MTEXT
  5
C0
330
1F
100
AcDbEntity
  8
0
  6
Continuous
 62
     7
370
     0
100
AcDbMText
 10
177.6925831922
 20
10.7142101515
 30
0.0
 40
1.5875
 41
0.0
 71
     1
 72
     1
  1
COPYRIGHT © 2016 BY THORLABS
  7
SLDTEXTSTYLE0
 73
     1
 44
1.0
  0
ARC
  5
C1
330
1F
100
AcDbEntity
  8
0
  6
Continuous
 62
     7
370
     0
100
AcDbCircle
 10
73.3704255345
 20
144.5282162221
 30
0.0
 40
1.320416666666688
100
AcDbArc
 50
65.3839683651
 51
90.0
  0
ARC
  5
C2
330
1F
100
AcDbEntity
  8
0
  6
Continuous
 62
     7
370
     0
100
AcDbCircle
 10
73.3704255345
 20
144.5282162221
 30
0.0
 40
1.320416666666688
100
AcDbArc
 50
90.0
 51
114.6160316349
  0
LINE
  5
C3
330
1F
100
AcDbEntity
  8
0
  6
Continuous
 62
     7
370
     0
100
AcDbLine
 10
73.9204255345
 20
145.6436328888
 30
0.0
 11
73.9204255345
 21
145.7286328888
 31
0.0
  0
LINE
  5
C4
330
1F
100
AcDbEntity
  8
0
  6
Continuous
 62
     7
370
     0
100
AcDbLine
 10
72.8204255345
 20
145.7286328888
 30
0.0
 11
72.8204255345
 21
145.6436328888
 31
0.0
  0
ARC
  5
C5
330
1F
100
AcDbEntity
  8
0
  6
Continuous
 62
     7
370
     0
100
AcDbCircle
 10
67.8594255345
 20
144.5282162221
 30
0.0
 40
1.320416666666688
100
AcDbArc
 50
65.3839683651
 51
90.0
  0
ARC
  5
C6
330
1F
100
AcDbEntity
  8
0
  6
Continuous
 62
     7
370
     0
100
AcDbCircle
 10
67.8594255345
 20
144.5282162221
 30
0.0
 40
1.320416666666688
100
AcDbArc
 50
90.0
 51
114.6160316349
  0
LINE
  5
C7
330
1F
100
AcDbEntity
  8
0
  6
Continuous
 62
     7
370
     0
100
AcDbLine
 10
68.4094255345
 20
145.6436328888
 30
0.0
 11
68.4094255345
 21
145.7286328888
 31
0.0
  0
LINE
  5
C8
330
1F
100
AcDbEntity
  8
0
  6
Continuous
 62
     7
370
     0
100
AcDbLine
 10
67.3094255345
 20
145.7286328888
 30
0.0
 11
67.3094255345
 21
145.6436328888
 31
0.0
  0
ARC
  5
C9
330
1F
100
AcDbEntity
  8
0
  6
Continuous
 62
     7
370
     0
100
AcDbCircle
 10
79.3904255345
 20
144.5282162221
 30
0.0
 40
1.32041666666669
100
AcDbArc
 50
65.3839683651
 51
68.0582859065
  0
ARC
  5
CA
330
1F
100
AcDbEntity
  8
0
  6
Continuous
 62
     7
370
     0
100
AcDbCircle
 10
79.3904255345
 20
144.5282162221
 30
0.0
 40
1.320416666666681
100
AcDbArc
 50
103.5912669299
 51
114.6160316349
  0
LINE
  5
CB
330
1F
100
AcDbEntity
  8
0
  6
Continuous
 62
     7
370
     0
100
AcDbLine
 10
79.9404255345
 20
145.6436328888
 30
0.0
 11
79.9404255345
 21
145.7286328888
 31
0.0
  0
LINE
  5
CC
330
1F
100
AcDbEntity
  8
0
  6
Continuous
 62
     7
370
     0
100
AcDbLine
 10
78.8404255345
 20
145.7286328888
 30
0.0
 11
78.8404255345
 21
145.6436328888
 31
0.0
  0
SPLINE
  5
CD
330
1F
100
AcDbEntity
  8
0
  6
Continuous
 62
     7
370
     0
100
AcDbSpline
210
0.0
220
0.0
230
1.0
 70
     8
 71
     3
 72
    21
 73
    17
 74
     0
 42
0.000000001
 43
0.00000001
 40
0.0
 40
0.0
 40
0.0
 40
0.0
 40
0.0931157191553415
 40
0.1808840579425714
 40
0.257571905309549
 40
0.3242000384667622
 40
0.3987021721943381
 40
0.4579943348621756
 40
0.5059756759769878
 40
0.5646003709252919
 40
0.6379829622751236
 40
0.7263869327567686
 40
0.8030963187890309
 40
0.8895321545909746
 40
0.9863717473229495
 40
1.0
 40
1.0
 40
1.0
 40
1.0
 10
79.88717790701105
 20
145.7486649004301
 30
0.0
 10
79.98772693932044
 20
145.8826621081715
 30
0.0
 10
80.1830507487836
 20
146.1429614315201
 30
0.0
 10
80.49117882412935
 20
146.489521688204
 30
0.0
 10
80.78512013579824
 20
146.7836108065795
 30
0.0
 10
81.07855224067877
 20
147.0434768191722
 30
0.0
 10
81.36290099322825
 20
147.2654597572974
 30
0.0
 10
81.63280760663964
 20
147.4502279326827
 30
0.0
 10
81.88750374747056
 20
147.6058302095587
 30
0.0
 10
82.17242015782121
 20
147.759861501163
 30
0.0
 10
82.53314528271383
 20
147.9250835573277
 30
0.0
 10
82.93696489045803
 20
148.0713780626344
 30
0.0
 10
83.37386337528497
 20
148.1905239741334
 30
0.0
 10
83.83368322811256
 20
148.27724572553
 30
0.0
 10
84.18634246221693
 20
148.3166805512683
 30
0.0
 10
84.38487192176822
 20
148.3243265393936
 30
0.0
 10
84.40936420392131
 20
148.3252698134997
 30
0.0
  0
SPLINE
  5
CE
330
1F
100
AcDbEntity
  8
0
  6
Continuous
 62
     7
370
     0
100
AcDbSpline
210
0.0
220
0.0
230
1.0
 70
     8
 71
     3
 72
    21
 73
    17
 74
     0
 42
0.000000001
 43
0.00000001
 40
0.0
 40
0.0
 40
0.0
 40
0.0
 40
0.0793700913764281
 40
0.1573242962466445
 40
0.2255880706610255
 40
0.2852056638731938
 40
0.3518674994321336
 40
0.404311524704042
 40
0.4490734218519674
 40
0.5057570787919287
 40
0.5760523805614136
 40
0.6606366269231231
 40
0.7341750619087568
 40
0.8171747823127917
 40
0.9106035417771453
 40
1.0
 40
1.0
 40
1.0
 40
1.0
 10
84.40566839440453
 20
149.0234472406343
 30
0.0
 10
84.23455443340566
 20
149.0137917733031
 30
0.0
 10
83.89537902078773
 20
148.9946530829417
 30
0.0
 10
83.41496138475102
 20
148.9112869372412
 30
0.0
 10
82.9822479021775
 20
148.8104329707658
 30
0.0
 10
82.58084081562994
 20
148.6865622315186
 30
0.0
 10
82.2203692557647
 20
148.5486632967006
 30
0.0
 10
81.8987143550401
 20
148.4014100014444
 30
0.0
 10
81.60424141282937
 20
148.2477331683658
 30
0.0
 10
81.28518930803611
 20
148.0588297173151
 30
0.0
 10
80.9081928672539
 20
147.8007470903779
 30
0.0
 10
80.5237314132908
 20
147.4914774370999
 30
0.0
 10
80.1431292994492
 20
147.1361844162819
 30
0.0
 10
79.7753781940638
 20
146.7411997635587
 30
0.0
 10
79.41180707240312
 20
146.2966056341285
 30
0.0
 10
79.19039213427799
 20
145.969937864145
 30
0.0
 10
79.08212637358909
 20
145.8102063893435
 30
0.0
  0
LINE
  5
CF
330
1F
100
AcDbEntity
  8
0
  6
Continuous
 62
     7
370
     0
100
AcDbLine
 10
84.4093104229
 20
148.3263261463
 30
0.0
 11
159.6807239805
 21
148.3263261463
 31
0.0
  0
LINE
  5
D0
330
1F
100
AcDbEntity
  8
0
  6
Continuous
 62
     7
370
     0
100
AcDbLine
 10
159.2137961804
 20
149.0245943108
 30
0.0
 11
84.4056539443
 21
149.0245943108
 31
0.0
  0
LINE
  5
D1
330
1F
100
AcDbEntity
  8
0
  6
Continuous
 62
     7
370
     0
100
AcDbLine
 10
78.9288736356
 20
145.7586328888
 30
0.0
 11
76.5568817759
 21
145.7586328888
 31
0.0
  0
LINE
  5
D2
330
1F
100
AcDbEntity
  8
0
  6
Continuous
 62
     7
370
     0
100
AcDbLine
 10
82.2154256422
 20
145.7586328888
 30
0.0
 11
79.8927492275
 21
145.7586328888
 31
0.0
  0
LINE
  5
D3
330
1F
100
AcDbEntity
  8
0
  6
Continuous
 62
     7
370
     0
100
AcDbLine
 10
72.9088736356
 20
145.7586328888
 30
0.0
 11
70.5368817759
 21
145.7586328888
 31
0.0
  0
LINE
  5
D4
330
1F
100
AcDbEntity
  8
0
  6
Continuous
 62
     7
370
     0
100
AcDbLine
 10
76.2039692932
 20
145.7586328888
 30
0.0
 11
73.8244990866
 21
145.7586328888
 31
0.0
  0
LINE
  5
D5
330
1F
100
AcDbEntity
  8
0
  6
Continuous
 62
     7
370
     0
100
AcDbLine
 10
70.2106306776
 20
145.7586328888
 30
0.0
 11
68.3134990866
 21
145.7586328888
 31
0.0
  0
ARC
  5
D6
330
1F
100
AcDbEntity
  8
0
  6
Continuous
 62
     7
370
     0
100
AcDbCircle
 10
70.3604255345
 20
144.5282162221
 30
0.0
 40
1.320416666666688
100
AcDbArc
 50
65.3839683651
 51
90.0
  0
ARC
  5
D7
330
1F
100
AcDbEntity
  8
0
  6
Continuous
 62
     7
370
     0
100
AcDbCircle
 10
70.3604255345
 20
144.5282162221
 30
0.0
 40
1.320416666666688
100
AcDbArc
 50
90.0
 51
114.6160316349
  0
ARC
  5
D8
330
1F
100
AcDbEntity
  8
0
  6
Continuous
 62
     7
370
     0
100
AcDbCircle
 10
76.3804255345
 20
144.5282162221
 30
0.0
 40
1.320416666666688
100
AcDbArc
 50
65.3839683651
 51
90.0
  0
ARC
  5
D9
330
1F
100
AcDbEntity
  8
0
  6
Continuous
 62
     7
370
     0
100
AcDbCircle
 10
76.3804255345
 20
144.5282162221
 30
0.0
 40
1.320416666666688
100
AcDbArc
 50
90.0
 51
114.6160316349
  0
ARC
  5
DA
330
1F
100
AcDbEntity
  8
0
  6
Continuous
 62
     7
370
     0
100
AcDbCircle
 10
82.3914255345
 20
144.5282162221
 30
0.0
 40
1.320416666666688
100
AcDbArc
 50
65.3839683651
 51
90.0
  0
ARC
  5
DB
330
1F
100
AcDbEntity
  8
0
  6
Continuous
 62
     7
370
     0
100
AcDbCircle
 10
82.3914255345
 20
144.5282162221
 30
0.0
 40
1.320416666666688
100
AcDbArc
 50
90.0
 51
114.6160316349
  0
LINE
  5
DC
330
1F
100
AcDbEntity
  8
0
  6
Continuous
 62
     7
370
     0
100
AcDbLine
 10
82.9414255345
 20
145.6436328888
 30
0.0
 11
82.9414255345
 21
145.7286328888
 31
0.0
  0
LINE
  5
DD
330
1F
100
AcDbEntity
  8
0
  6
Continuous
 62
     7
370
     0
100
AcDbLine
 10
81.8414255345
 20
145.7286328888
 30
0.0
 11
81.8414255345
 21
145.6436328888
 31
0.0
  0
LINE
  5
DE
330
1F
100
AcDbEntity
  8
0
  6
Continuous
 62
     7
370
     0
100
AcDbLine
 10
70.9104255345
 20
145.6436328888
 30
0.0
 11
70.9104255345
 21
145.7286328888
 31
0.0
  0
LINE
  5
DF
330
1F
100
AcDbEntity
  8
0
  6
Continuous
 62
     7
370
     0
100
AcDbLine
 10
69.8104255345
 20
145.7286328888
 30
0.0
 11
69.8104255345
 21
145.6436328888
 31
0.0
  0
LINE
  5
E0
330
1F
100
AcDbEntity
  8
0
  6
Continuous
 62
     7
370
     0
100
AcDbLine
 10
76.9304255345
 20
145.6436328888
 30
0.0
 11
76.9304255345
 21
145.7286328888
 31
0.0
  0
LINE
  5
E1
330
1F
100
AcDbEntity
  8
0
  6
Continuous
 62
     7
370
     0
100
AcDbLine
 10
75.8304255345
 20
145.7286328888
 30
0.0
 11
75.8304255345
 21
145.6436328888
 31
0.0
  0
ARC
  5
E2
330
1F
100
AcDbEntity
  8
0
  6
Continuous
 62
     7
370
     0
100
AcDbCircle
 10
66.8034587926
 20
140.6426328888
 30
0.0
 40
5.000410168672623
100
AcDbArc
 50
89.0298238266
 51
90.0
  0
ARC
  5
E3
330
1F
100
AcDbEntity
  8
0
  6
Continuous
 62
     7
370
     0
100
AcDbCircle
 10
66.8034587926
 20
140.6426328888
 30
0.0
 40
5.000410168672623
100
AcDbArc
 50
90.0
 51
270.9701761734
  0
ARC
  5
E4
330
1F
100
AcDbEntity
  8
0
  6
Continuous
 62
     7
370
     0
100
AcDbCircle
 10
73.3704255345
 20
136.7570495554
 30
0.0
 40
1.320416666666681
100
AcDbArc
 50
245.3839683651
 51
294.6160316349
  0
LINE
  5
E5
330
1F
100
AcDbEntity
  8
0
  6
Continuous
 62
     7
370
     0
100
AcDbLine
 10
67.3094255345
 20
135.6416328888
 30
0.0
 11
67.3094255345
 21
135.5566328888
 31
0.0
  0
LINE
  5
E6
330
1F
100
AcDbEntity
  8
0
  6
Continuous
 62
     7
370
     0
100
AcDbLine
 10
68.4094255345
 20
135.5566328888
 30
0.0
 11
68.4094255345
 21
135.6416328888
 31
0.0
  0
ARC
  5
E7
330
1F
100
AcDbEntity
  8
0
  6
Continuous
 62
     7
370
     0
100
AcDbCircle
 10
67.8594255345
 20
136.7570495554
 30
0.0
 40
1.320416666666687
100
AcDbArc
 50
245.3839683651
 51
294.6160316349
  0
LINE
  5
E8
330
1F
100
AcDbEntity
  8
0
  6
Continuous
 62
     7
370
     0
100
AcDbLine
 10
72.8204255345
 20
135.6416328888
 30
0.0
 11
72.8204255345
 21
135.5566328888
 31
0.0
  0
LINE
  5
E9
330
1F
100
AcDbEntity
  8
0
  6
Continuous
 62
     7
370
     0
100
AcDbLine
 10
73.9204255345
 20
135.5566328888
 30
0.0
 11
73.9204255345
 21
135.6416328888
 31
0.0
  0
ARC
  5
EA
330
1F
100
AcDbEntity
  8
0
  6
Continuous
 62
     7
370
     0
100
AcDbCircle
 10
79.3904255345
 20
136.7570495554
 30
0.0
 40
1.320416666666693
100
AcDbArc
 50
291.9523460557
 51
294.6160316349
  0
ARC
  5
EB
330
1F
100
AcDbEntity
  8
0
  6
Continuous
 62
     7
370
     0
100
AcDbCircle
 10
79.3904255345
 20
136.7570495554
 30
0.0
 40
1.320416666666681
100
AcDbArc
 50
245.3839683651
 51
256.4324743932
  0
LINE
  5
EC
330
1F
100
AcDbEntity
  8
0
  6
Continuous
 62
     7
370
     0
100
AcDbLine
 10
78.8404255345
 20
135.6416328888
 30
0.0
 11
78.8404255345
 21
135.5566328888
 31
0.0
  0
LINE
  5
ED
330
1F
100
AcDbEntity
  8
0
  6
Continuous
 62
     7
370
     0
100
AcDbLine
 10
79.9404255345
 20
135.5566328888
 30
0.0
 11
79.9404255345
 21
135.6416328888
 31
0.0
  0
SPLINE
  5
EE
330
1F
100
AcDbEntity
  8
0
  6
Continuous
 62
     7
370
     0
100
AcDbSpline
210
0.0
220
0.0
230
1.0
 70
     8
 71
     3
 72
    21
 73
    17
 74
     0
 42
0.000000001
 43
0.00000001
 40
0.0
 40
0.0
 40
0.0
 40
0.0
 40
0.0870427191718767
 40
0.1761311380423861
 40
0.2529048621503432
 40
0.318360290024102
 40
0.3732235752467523
 40
0.4179939390286393
 40
0.4561159639104502
 40
0.5113276590423657
 40
0.5804580465506886
 40
0.6636653933929892
 40
0.7356751144815518
 40
0.8164487748792627
 40
0.9071718949475952
 40
1.0
 40
1.0
 40
1.0
 40
1.0
 10
79.08205925967113
 20
135.4750114681096
 30
0.0
 10
79.18739613371736
 20
135.3194416012142
 30
0.0
 10
79.40054553529977
 20
135.004645625605
 30
0.0
 10
79.74493124343493
 20
134.5805184262016
 30
0.0
 10
80.08224620893563
 20
134.212332642916
 30
0.0
 10
80.3888713861781
 20
133.9172884344161
 30
0.0
 10
80.65881657838878
 20
133.6846596205954
 30
0.0
 10
80.89308742966166
 20
133.5015802031776
 30
0.0
 10
81.13525468573565
 20
133.3278436380556
 30
0.0
 10
81.42957198846875
 20
133.1370889477606
 30
0.0
 10
81.82070118924591
 20
132.9182029858085
 30
0.0
 10
82.26148154085367
 20
132.7165980525374
 30
0.0
 10
82.74086865815288
 20
132.5433205009648
 30
0.0
 10
83.24861042167979
 20
132.4067967922935
 30
0.0
 10
83.80995768326582
 20
132.2989264878954
 30
0.0
 10
84.20560268929847
 20
132.2744732473655
 30
0.0
 10
84.40569384183259
 20
132.2621064109182
 30
0.0
  0
SPLINE
  5
EF
330
1F
100
AcDbEntity
  8
0
  6
Continuous
 62
     7
370
     0
100
AcDbSpline
210
0.0
220
0.0
230
1.0
 70
     8
 71
     3
 72
    21
 73
    17
 74
     0
 42
0.000000001
 43
0.00000001
 40
0.0
 40
0.0
 40
0.0
 40
0.0
 40
0.0115837012800619
 40
0.1039306740162109
 40
0.183529941902759
 40
0.2510075858385012
 40
0.30703811441405
 40
0.351965321070739
 40
0.3928076628116773
 40
0.4531288611057552
 40
0.528136699297549
 40
0.6188776371272631
 40
0.6982545506348314
 40
0.7884431905863167
 40
0.890795411586014
 40
1.0
 40
1.0
 40
1.0
 40
1.0
 10
84.40935775259645
 20
132.959815327207
 30
0.0
 10
84.38854020739123
 20
132.9606195528203
 30
0.0
 10
84.20176212565109
 20
132.967835183475
 30
0.0
 10
83.87295352988298
 20
133.0031179655261
 30
0.0
 10
83.44886465556557
 20
133.079176593369
 30
0.0
 10
83.09454915281914
 20
133.1692080175028
 30
0.0
 10
82.80582888991258
 20
133.2613659643688
 30
0.0
 10
82.56703549821619
 20
133.3511369218587
 30
0.0
 10
82.32526232973423
 20
133.4541554256941
 30
0.0
 10
82.0403156806975
 20
133.5931421690286
 30
0.0
 10
81.6874486737855
 20
133.7958558913818
 30
0.0
 10
81.32375892694625
 20
134.0460078328903
 30
0.0
 10
80.95960538909371
 20
134.340856790247
 30
0.0
 10
80.60333584631188
 20
134.6763897613276
 30
0.0
 10
80.23507542217085
 20
135.0761023035507
 30
0.0
 10
80.00571857301964
 20
135.379920091277
 30
0.0
 10
79.88732569131137
 20
135.5367493446271
 30
0.0
  0
LINE
  5
F0
330
1F
100
AcDbEntity
  8
0
  6
Continuous
 62
     7
370
     0
100
AcDbLine
 10
84.4056539443
 20
132.2606714668
 30
0.0
 11
159.2137961804
 21
132.2606714668
 31
0.0
  0
LINE
  5
F1
330
1F
100
AcDbEntity
  8
0
  6
Continuous
 62
     7
370
     0
100
AcDbLine
 10
159.6807239805
 20
132.9589396312
 30
0.0
 11
84.4093104229
 21
132.9589396312
 31
0.0
  0
LINE
  5
F2
330
1F
100
AcDbEntity
  8
0
  6
Continuous
 62
     7
370
     0
100
AcDbLine
 10
76.5568817759
 20
135.5266328888
 30
0.0
 11
78.9605500158
 21
135.5266328888
 31
0.0
  0
LINE
  5
F3
330
1F
100
AcDbEntity
  8
0
  6
Continuous
 62
     7
370
     0
100
AcDbLine
 10
79.8952335495
 20
135.5266328888
 30
0.0
 11
82.2154256422
 21
135.5266328888
 31
0.0
  0
LINE
  5
F4
330
1F
100
AcDbEntity
  8
0
  6
Continuous
 62
     7
370
     0
100
AcDbLine
 10
73.8035081835
 20
135.5266328888
 30
0.0
 11
76.2039692932
 21
135.5266328888
 31
0.0
  0
LINE
  5
F5
330
1F
100
AcDbEntity
  8
0
  6
Continuous
 62
     7
370
     0
100
AcDbLine
 10
70.5368817759
 20
135.5266328888
 30
0.0
 11
72.9405500158
 21
135.5266328888
 31
0.0
  0
LINE
  5
F6
330
1F
100
AcDbEntity
  8
0
  6
Continuous
 62
     7
370
     0
100
AcDbLine
 10
68.8901255345
 20
135.7566328888
 30
0.0
 11
68.8891255345
 21
135.7566328888
 31
0.0
  0
LINE
  5
F7
330
1F
100
AcDbEntity
  8
0
  6
Continuous
 62
     7
370
     0
100
AcDbLine
 10
68.2925081835
 20
135.5266328888
 30
0.0
 11
70.2106306776
 21
135.5266328888
 31
0.0
  0
ARC
  5
F8
330
1F
100
AcDbEntity
  8
0
  6
Continuous
 62
     7
370
     0
100
AcDbCircle
 10
76.3804255345
 20
136.7570495554
 30
0.0
 40
1.320416666666687
100
AcDbArc
 50
245.3839683651
 51
294.6160316349
  0
ARC
  5
F9
330
1F
100
AcDbEntity
  8
0
  6
Continuous
 62
     7
370
     0
100
AcDbCircle
 10
70.3604255345
 20
136.7570495554
 30
0.0
 40
1.320416666666687
100
AcDbArc
 50
245.3839683651
 51
294.6160316349
  0
ARC
  5
FA
330
1F
100
AcDbEntity
  8
0
  6
Continuous
 62
     7
370
     0
100
AcDbCircle
 10
82.3914255345
 20
136.7570495554
 30
0.0
 40
1.320416666666681
100
AcDbArc
 50
245.3839683651
 51
294.6160316349
  0
LINE
  5
FB
330
1F
100
AcDbEntity
  8
0
  6
Continuous
 62
     7
370
     0
100
AcDbLine
 10
81.8414255345
 20
135.6416328888
 30
0.0
 11
81.8414255345
 21
135.5566328888
 31
0.0
  0
LINE
  5
FC
330
1F
100
AcDbEntity
  8
0
  6
Continuous
 62
     7
370
     0
100
AcDbLine
 10
82.9414255345
 20
135.5566328888
 30
0.0
 11
82.9414255345
 21
135.6416328888
 31
0.0
  0
LINE
  5
FD
330
1F
100
AcDbEntity
  8
0
  6
Continuous
 62
     7
370
     0
100
AcDbLine
 10
69.8104255345
 20
135.6416328888
 30
0.0
 11
69.8104255345
 21
135.5566328888
 31
0.0
  0
LINE
  5
FE
330
1F
100
AcDbEntity
  8
0
  6
Continuous
 62
     7
370
     0
100
AcDbLine
 10
70.9104255345
 20
135.5566328888
 30
0.0
 11
70.9104255345
 21
135.6416328888
 31
0.0
  0
LINE
  5
FF
330
1F
100
AcDbEntity
  8
0
  6
Continuous
 62
     7
370
     0
100
AcDbLine
 10
75.8304255345
 20
135.6416328888
 30
0.0
 11
75.8304255345
 21
135.5566328888
 31
0.0
  0
LINE
  5
100
330
1F
100
AcDbEntity
  8
0
  6
Continuous
 62
     7
370
     0
100
AcDbLine
 10
76.9304255345
 20
135.5566328888
 30
0.0
 11
76.9304255345
 21
135.6416328888
 31
0.0
  0
LINE
  5
101
330
1F
100
AcDbEntity
  8
0
  6
Continuous
 62
     7
370
     0
100
AcDbLine
 10
83.8914255345
 20
145.6426328888
 30
0.0
 11
83.8914255345
 21
135.6426328888
 31
0.0
  0
LINE
  5
102
330
1F
100
AcDbEntity
  8
0
  6
Continuous
 62
     7
370
     0
100
AcDbLine
 10
83.8914255345
 20
135.6426328888
 30
0.0
 11
80.8914255345
 21
135.6426328888
 31
0.0
  0
LINE
  5
103
330
1F
100
AcDbEntity
  8
0
  6
Continuous
 62
     7
370
     0
100
AcDbLine
 10
83.8914255345
 20
145.6426328888
 30
0.0
 11
80.8914255345
 21
145.6426328888
 31
0.0
  0
LINE
  5
104
330
1F
100
AcDbEntity
  8
0
  6
Continuous
 62
     7
370
     0
100
AcDbLine
 10
80.8914255345
 20
145.6426328888
 30
0.0
 11
80.8914255345
 21
135.6426328888
 31
0.0
  0
LINE
  5
105
330
1F
100
AcDbEntity
  8
0
  6
Continuous
 62
     7
370
     0
100
AcDbLine
 10
66.8891255345
 20
135.6426328888
 30
0.0
 11
66.8891255345
 21
145.6426328888
 31
0.0
  0
LINE
  5
106
330
1F
100
AcDbEntity
  8
0
  6
Continuous
 62
     7
370
     0
100
AcDbLine
 10
68.8891255345
 20
135.6426328888
 30
0.0
 11
68.8891255345
 21
145.6426328888
 31
0.0
  0
LINE
  5
107
330
1F
100
AcDbEntity
  8
0
  6
Continuous
 62
     7
370
     0
100
AcDbLine
 10
66.8891255345
 20
135.6426328888
 30
0.0
 11
68.8891255345
 21
135.6426328888
 31
0.0
  0
LINE
  5
108
330
1F
100
AcDbEntity
  8
0
  6
Continuous
 62
     7
370
     0
100
AcDbLine
 10
66.8891255345
 20
145.6426328888
 30
0.0
 11
68.8891255345
 21
145.6426328888
 31
0.0
  0
LINE
  5
109
330
1F
100
AcDbEntity
  8
0
  6
Continuous
 62
     7
370
     0
100
AcDbLine
 10
68.8901255345
 20
135.6426328888
 30
0.0
 11
71.8901255345
 21
135.6426328888
 31
0.0
  0
LINE
  5
10A
330
1F
100
AcDbEntity
  8
0
  6
Continuous
 62
     7
370
     0
100
AcDbLine
 10
68.8901255345
 20
135.6426328888
 30
0.0
 11
68.8901255345
 21
145.6426328888
 31
0.0
  0
LINE
  5
10B
330
1F
100
AcDbEntity
  8
0
  6
Continuous
 62
     7
370
     0
100
AcDbLine
 10
68.8901255345
 20
145.6426328888
 30
0.0
 11
71.8901255345
 21
145.6426328888
 31
0.0
  0
LINE
  5
10C
330
1F
100
AcDbEntity
  8
0
  6
Continuous
 62
     7
370
     0
100
AcDbLine
 10
71.8901255345
 20
135.6426328888
 30
0.0
 11
71.8901255345
 21
145.6426328888
 31
0.0
  0
LINE
  5
10D
330
1F
100
AcDbEntity
  8
0
  6
Continuous
 62
     7
370
     0
100
AcDbLine
 10
74.8903255345
 20
135.6426328888
 30
0.0
 11
77.8903255345
 21
135.6426328888
 31
0.0
  0
LINE
  5
10E
330
1F
100
AcDbEntity
  8
0
  6
Continuous
 62
     7
370
     0
100
AcDbLine
 10
74.8903255345
 20
145.6426328888
 30
0.0
 11
77.8903255345
 21
145.6426328888
 31
0.0
  0
LINE
  5
10F
330
1F
100
AcDbEntity
  8
0
  6
Continuous
 62
     7
370
     0
100
AcDbLine
 10
77.8903255345
 20
135.6426328888
 30
0.0
 11
77.8903255345
 21
145.6426328888
 31
0.0
  0
LINE
  5
110
330
1F
100
AcDbEntity
  8
0
  6
Continuous
 62
     7
370
     0
100
AcDbLine
 10
74.8903255345
 20
135.6426328888
 30
0.0
 11
74.8903255345
 21
145.6426328888
 31
0.0
  0
LINE
  5
111
330
1F
100
AcDbEntity
  8
0
  6
Continuous
 62
     7
370
     0
100
AcDbLine
 10
77.8904255345
 20
135.6426328888
 30
0.0
 11
77.8904255345
 21
145.6426328888
 31
0.0
  0
LINE
  5
112
330
1F
100
AcDbEntity
  8
0
  6
Continuous
 62
     7
370
     0
100
AcDbLine
 10
77.8904255345
 20
145.6426328888
 30
0.0
 11
80.8904255345
 21
145.6426328888
 31
0.0
  0
LINE
  5
113
330
1F
100
AcDbEntity
  8
0
  6
Continuous
 62
     7
370
     0
100
AcDbLine
 10
80.8904255345
 20
135.6426328888
 30
0.0
 11
80.8904255345
 21
145.6426328888
 31
0.0
  0
LINE
  5
114
330
1F
100
AcDbEntity
  8
0
  6
Continuous
 62
     7
370
     0
100
AcDbLine
 10
77.8904255345
 20
135.6426328888
 30
0.0
 11
80.8904255345
 21
135.6426328888
 31
0.0
  0
LINE
  5
115
330
1F
100
AcDbEntity
  8
0
  6
Continuous
 62
     7
370
     0
100
AcDbLine
 10
71.8902255345
 20
145.6426328888
 30
0.0
 11
74.8902255345
 21
145.6426328888
 31
0.0
  0
LINE
  5
116
330
1F
100
AcDbEntity
  8
0
  6
Continuous
 62
     7
370
     0
100
AcDbLine
 10
74.8902255345
 20
135.6426328888
 30
0.0
 11
74.8902255345
 21
145.6426328888
 31
0.0
  0
LINE
  5
117
330
1F
100
AcDbEntity
  8
0
  6
Continuous
 62
     7
370
     0
100
AcDbLine
 10
71.8902255345
 20
135.6426328888
 30
0.0
 11
71.8902255345
 21
145.6426328888
 31
0.0
  0
LINE
  5
118
330
1F
100
AcDbEntity
  8
0
  6
Continuous
 62
     7
370
     0
100
AcDbLine
 10
71.8902255345
 20
135.6426328888
 30
0.0
 11
74.8902255345
 21
135.6426328888
 31
0.0
  0
LINE
  5
119
330
1F
100
AcDbEntity
  8
0
  6
Continuous
 62
     7
370
     0
100
AcDbLine
 10
72.8204255345
 20
145.7286328888
 30
0.0
 11
73.9204255345
 21
145.7286328888
 31
0.0
  0
LINE
  5
11A
330
1F
100
AcDbEntity
  8
0
  6
Continuous
 62
     7
370
     0
100
AcDbLine
 10
72.8204255345
 20
145.6436328888
 30
0.0
 11
73.9204255345
 21
145.6436328888
 31
0.0
  0
LINE
  5
11B
330
1F
100
AcDbEntity
  8
0
  6
Continuous
 62
     7
370
     0
100
AcDbLine
 10
67.3094255345
 20
145.7286328888
 30
0.0
 11
68.4094255345
 21
145.7286328888
 31
0.0
  0
LINE
  5
11C
330
1F
100
AcDbEntity
  8
0
  6
Continuous
 62
     7
370
     0
100
AcDbLine
 10
67.3094255345
 20
145.6436328888
 30
0.0
 11
68.4094255345
 21
145.6436328888
 31
0.0
  0
LINE
  5
11D
330
1F
100
AcDbEntity
  8
0
  6
Continuous
 62
     7
370
     0
100
AcDbLine
 10
78.8404255345
 20
145.7286328888
 30
0.0
 11
79.9404255345
 21
145.7286328888
 31
0.0
  0
SPLINE
  5
11E
330
1F
100
AcDbEntity
  8
0
  6
Continuous
 62
     7
370
     0
100
AcDbSpline
210
0.0
220
0.0
230
1.0
 70
     8
 71
     3
 72
    18
 73
    14
 74
     0
 42
0.000000001
 43
0.00000001
 40
0.0
 40
0.0
 40
0.0
 40
0.0
 40
0.0060712198915682
 40
0.1199545758654709
 40
0.2337118974688213
 40
0.3437063406674996
 40
0.448898519717767
 40
0.5510660529599114
 40
0.6529363325485922
 40
0.7566722737187375
 40
0.8633461463088956
 40
0.9729294042999349
 40
1.0
 40
1.0
 40
1.0
 40
1.0
 10
79.08053677388449
 20
145.811341809054
 30
0.0
 10
79.08013684235416
 20
145.8113824242959
 30
0.0
 10
79.07223503382916
 20
145.8121848963211
 30
0.0
 10
79.10167804448221
 20
145.8091580956402
 30
0.0
 10
79.17147650661124
 20
145.8022857591208
 30
0.0
 10
79.28328378737632
 20
145.79217149788
 30
0.0
 10
79.4139481058709
 20
145.7815887481977
 30
0.0
 10
79.54940573867106
 20
145.7717817885611
 30
0.0
 10
79.6761475596739
 20
145.7635220742203
 30
0.0
 10
79.78405537581251
 20
145.7571017994705
 30
0.0
 10
79.85718169179881
 20
145.7530318074184
 30
0.0
 10
79.89149079154447
 20
145.7511975672878
 30
0.0
 10
79.88465430662357
 20
145.7515649954756
 30
0.0
 10
79.88330002561133
 20
145.7516377815673
 30
0.0
  0
LINE
  5
11F
330
1F
100
AcDbEntity
  8
0
  6
Continuous
 62
     7
370
     0
100
AcDbLine
 10
78.8404255345
 20
145.6436328888
 30
0.0
 11
79.9404255345
 21
145.6436328888
 31
0.0
  0
SPLINE
  5
120
330
1F
100
AcDbEntity
  8
0
  6
Continuous
 62
     7
370
     0
100
AcDbSpline
210
0.0
220
0.0
230
1.0
 70
     8
 71
     3
 72
    14
 73
    10
 74
     0
 42
0.000000001
 43
0.00000001
 40
0.0
 40
0.0
 40
0.0
 40
0.0
 40
0.0261786151446826
 40
0.0800314073038424
 40
0.2490359469234958
 40
0.4426678728786116
 40
0.7147892483573938
 40
0.9884942326667524
 40
1.0
 40
1.0
 40
1.0
 40
1.0
 10
84.44726008044053
 20
148.6754602285586
 30
0.0
 10
84.44709899142
 20
148.6807326908412
 30
0.0
 10
84.4466065214806
 20
148.6968512889448
 30
0.0
 10
84.44331850537718
 20
148.746719939242
 30
0.0
 10
84.4335765372109
 20
148.8268097928926
 30
0.0
 10
84.41852425933331
 20
148.9281836777918
 30
0.0
 10
84.40835902091975
 20
149.000696638076
 30
0.0
 10
84.40458947198306
 20
149.0320672165394
 30
0.0
 10
84.40561524346968
 20
149.0239305178988
 30
0.0
 10
84.40565662440639
 20
149.0236022730452
 30
0.0
  0
SPLINE
  5
121
330
1F
100
AcDbEntity
  8
0
  6
Continuous
 62
     7
370
     0
100
AcDbSpline
210
0.0
220
0.0
230
1.0
 70
     8
 71
     3
 72
    14
 73
    10
 74
     0
 42
0.000000001
 43
0.00000001
 40
0.0
 40
0.0
 40
0.0
 40
0.0
 40
0.0261782381031636
 40
0.1074555935040523
 40
0.2770637654369503
 40
0.4699616297508011
 40
0.7327444801966062
 40
0.9952354203238816
 40
1.0
 40
1.0
 40
1.0
 40
1.0
 10
84.44726008044053
 20
148.6754602285586
 30
0.0
 10
84.44738643295794
 20
148.670187703194
 30
0.0
 10
84.44790508072549
 20
148.6485452099107
 30
0.0
 10
84.44910444297888
 20
148.5930076186569
 30
0.0
 10
84.44806546220033
 20
148.5089720315657
 30
0.0
 10
84.43638082772472
 20
148.4129603426335
 30
0.0
 10
84.41777042277788
 20
148.347675689398
 30
0.0
 10
84.4064109480043
 20
148.3186728136872
 30
0.0
 10
84.40925198336058
 20
148.3266112909688
 30
0.0
 10
84.40930263278898
 20
148.3267528166052
 30
0.0
  0
LINE
  5
122
330
1F
100
AcDbEntity
  8
0
  6
Continuous
 62
     7
370
     0
100
AcDbLine
 10
159.2137963205
 20
149.0245941012
 30
0.0
 11
159.6807239803
 21
148.3263261466
 31
0.0
  0
SPLINE
  5
123
330
1F
100
AcDbEntity
  8
0
  6
Continuous
 62
     7
370
     0
100
AcDbSpline
210
0.0
220
0.0
230
1.0
 70
     8
 71
     3
 72
    14
 73
    10
 74
     0
 42
0.000000001
 43
0.00000001
 40
0.0
 40
0.0
 40
0.0
 40
0.0
 40
0.0000404517691324
 40
0.0000404517691324
 40
0.0000404517691324
 40
0.0000809563990268
 40
0.0000809563990268
 40
0.0000809563990268
 40
0.000094010390063
 40
0.000094010390063
 40
0.000094010390063
 40
0.000094010390063
 10
76.47963483036332
 20
145.6436328887694
 30
0.0
 10
76.47963483036332
 20
145.6571168118136
 30
0.0
 10
76.481907254134
 20
145.6707881050386
 30
0.0
 10
76.48627600377856
 20
145.68351587347
 30
0.0
 10
76.49064786862249
 20
145.6962527176187
 30
0.0
 10
76.49724849475864
 20
145.7084101483392
 30
0.0
 10
76.50554098074247
 20
145.7188771228493
 30
0.0
 10
76.50825026484283
 20
145.7222968461597
 30
0.0
 10
76.51115262251099
 20
145.7255612516885
 30
0.0
 10
76.51421996001412
 20
145.7286328887704
 30
0.0
  0
SPLINE
  5
124
330
1F
100
AcDbEntity
  8
0
  6
Continuous
 62
     7
370
     0
100
AcDbSpline
210
0.0
220
0.0
230
1.0
 70
     8
 71
     3
 72
    29
 73
    25
 74
     0
 42
0.000000001
 43
0.00000001
 40
0.0
 40
0.0
 40
0.0
 40
0.0
 40
0.0000553986491994
 40
0.0000553986491994
 40
0.0000553986491994
 40
0.0000744703661968
 40
0.0000744703661968
 40
0.0000744703661968
 40
0.0000938210300496
 40
0.0000938210300496
 40
0.0000938210300496
 40
0.0001072543096201
 40
0.0001072543096201
 40
0.0001072543096201
 40
0.0001207016259442
 40
0.0001207016259442
 40
0.0001207016259442
 40
0.0001387455774108
 40
0.0001387455774108
 40
0.0001387455774108
 40
0.0001702186759774
 40
0.0001702186759774
 40
0.0001702186759774
 40
0.0002135383638965
 40
0.0002135383638965
 40
0.0002135383638965
 40
0.0002135383638965
 10
76.64818811073738
 20
145.7286328887701
 30
0.0
 10
76.63562072609024
 20
145.7359824706931
 30
0.0
 10
76.62169588449699
 20
145.7429215625901
 30
0.0
 10
76.60586091352043
 20
145.7486469472066
 30
0.0
 10
76.6003594765521
 20
145.7506360788971
 30
0.0
 10
76.59456947826997
 20
145.7524865309336
 30
0.0
 10
76.58854031245068
 20
145.7540628096098
 30
0.0
 10
76.58246208547857
 20
145.7556519149443
 30
0.0
 10
76.57598525647282
 20
145.7569904709115
 30
0.0
 10
76.56958739520847
 20
145.7577923498351
 30
0.0
 10
76.56512723850649
 20
145.7583513656541
 30
0.0
 10
76.56061682050485
 20
145.7586521144868
 30
0.0
 10
76.55644257577771
 20
145.7586318876041
 30
0.0
 10
76.55226324724445
 20
145.7586116360871
 30
0.0
 10
76.54832675172923
 20
145.7582697756472
 30
0.0
 10
76.54488622942068
 20
145.7576763646001
 30
0.0
 10
76.5402785182063
 20
145.7568816402847
 30
0.0
 10
76.53640774872014
 20
145.7556303055959
 30
0.0
 10
76.53322488944222
 20
145.7541550097139
 30
0.0
 10
76.52768967183904
 20
145.7515893657369
 30
0.0
 10
76.5239389878187
 20
145.7482987274656
 30
0.0
 10
76.52116849805087
 20
145.744761761774
 30
0.0
 10
76.51734676812372
 20
145.7398827227708
 30
0.0
 10
76.51530483097216
 20
145.7344054250524
 30
0.0
 10
76.51421996001312
 20
145.7286328887694
 30
0.0
  0
SPLINE
  5
125
330
1F
100
AcDbEntity
  8
0
  6
Continuous
 62
     7
370
     0
100
AcDbSpline
210
0.0
220
0.0
230
1.0
 70
     8
 71
     3
 72
    14
 73
    10
 74
     0
 42
0.000000001
 43
0.00000001
 40
0.0000000000000019
 40
0.0000000000000019
 40
0.0000000000000019
 40
0.0000000000000019
 40
0.0000389338800372
 40
0.0000389338800372
 40
0.0000389338800372
 40
0.0000777809519151
 40
0.0000777809519151
 40
0.0000777809519151
 40
0.0000939650131498
 40
0.0000939650131498
 40
0.0000939650131498
 40
0.0000939650131498
 10
76.64818811073931
 20
145.7286328887694
 30
0.0
 10
76.65631972091278
 20
145.7195905516056
 30
0.0
 10
76.66303294723345
 20
145.7087680501856
 30
0.0
 10
76.6679516990585
 20
145.6971433089218
 30
0.0
 10
76.67286349573047
 20
145.6855350051321
 30
0.0
 10
76.67612994405965
 20
145.6728119158205
 30
0.0
 10
76.67759988795619
 20
145.6599705829566
 30
0.0
 10
76.67821900235388
 20
145.6545620404399
 30
0.0
 10
76.67852979009274
 20
145.6490912471372
 30
0.0
 10
76.67852979009274
 20
145.6436328887694
 30
0.0
  0
SPLINE
  5
126
330
1F
100
AcDbEntity
  8
0
  6
Continuous
 62
     7
370
     0
100
AcDbSpline
210
0.0
220
0.0
230
1.0
 70
     8
 71
     3
 72
    14
 73
    10
 74
     0
 42
0.000000001
 43
0.00000001
 40
0.0
 40
0.0
 40
0.0
 40
0.0
 40
0.0000404517691324
 40
0.0000404517691324
 40
0.0000404517691324
 40
0.0000809563990268
 40
0.0000809563990268
 40
0.0000809563990268
 40
0.0000940103900621
 40
0.0000940103900621
 40
0.0000940103900621
 40
0.0000940103900621
 10
70.45963483036334
 20
145.6436328887694
 30
0.0
 10
70.45963483036334
 20
145.6571168118136
 30
0.0
 10
70.461907254134
 20
145.6707881050386
 30
0.0
 10
70.46627600377856
 20
145.68351587347
 30
0.0
 10
70.47064786862249
 20
145.6962527176187
 30
0.0
 10
70.47724849475865
 20
145.7084101483392
 30
0.0
 10
70.48554098074247
 20
145.7188771228493
 30
0.0
 10
70.48825026484265
 20
145.7222968461594
 30
0.0
 10
70.49115262251061
 20
145.725561251688
 30
0.0
 10
70.4942199600135
 20
145.7286328887698
 30
0.0
  0
SPLINE
  5
127
330
1F
100
AcDbEntity
  8
0
  6
Continuous
 62
     7
370
     0
100
AcDbSpline
210
0.0
220
0.0
230
1.0
 70
     8
 71
     3
 72
    29
 73
    25
 74
     0
 42
0.000000001
 43
0.00000001
 40
0.0
 40
0.0
 40
0.0
 40
0.0
 40
0.0000553986491987
 40
0.0000553986491987
 40
0.0000553986491987
 40
0.0000744703661961
 40
0.0000744703661961
 40
0.0000744703661961
 40
0.000093821030049
 40
0.000093821030049
 40
0.000093821030049
 40
0.0001072543096193
 40
0.0001072543096193
 40
0.0001072543096193
 40
0.0001207016259434
 40
0.0001207016259434
 40
0.0001207016259434
 40
0.00013874557741
 40
0.00013874557741
 40
0.00013874557741
 40
0.0001702186759765
 40
0.0001702186759765
 40
0.0001702186759765
 40
0.0002135383638959
 40
0.0002135383638959
 40
0.0002135383638959
 40
0.0002135383638959
 10
70.62818811073637
 20
145.7286328887705
 30
0.0
 10
70.61562072608929
 20
145.7359824706934
 30
0.0
 10
70.60169588449689
 20
145.7429215625902
 30
0.0
 10
70.58586091352052
 20
145.7486469472066
 30
0.0
 10
70.58035947655218
 20
145.750636078897
 30
0.0
 10
70.57456947827005
 20
145.7524865309336
 30
0.0
 10
70.56854031245072
 20
145.7540628096098
 30
0.0
 10
70.56246208547859
 20
145.7556519149443
 30
0.0
 10
70.55598525647282
 20
145.7569904709115
 30
0.0
 10
70.54958739520845
 20
145.7577923498351
 30
0.0
 10
70.54512723850647
 20
145.7583513656541
 30
0.0
 10
70.54061682050484
 20
145.7586521144868
 30
0.0
 10
70.5364425757777
 20
145.7586318876041
 30
0.0
 10
70.53226324724444
 20
145.7586116360871
 30
0.0
 10
70.52832675172921
 20
145.7582697756472
 30
0.0
 10
70.52488622942069
 20
145.7576763646001
 30
0.0
 10
70.5202785182063
 20
145.7568816402847
 30
0.0
 10
70.51640774872013
 20
145.7556303055959
 30
0.0
 10
70.51322488944223
 20
145.7541550097139
 30
0.0
 10
70.50768967183905
 20
145.7515893657369
 30
0.0
 10
70.50393898781869
 20
145.7482987274656
 30
0.0
 10
70.50116849805086
 20
145.7447617617739
 30
0.0
 10
70.49734676812372
 20
145.7398827227707
 30
0.0
 10
70.49530483097216
 20
145.7344054250524
 30
0.0
 10
70.49421996001311
 20
145.7286328887694
 30
0.0
  0
SPLINE
  5
128
330
1F
100
AcDbEntity
  8
0
  6
Continuous
 62
     7
370
     0
100
AcDbSpline
210
0.0
220
0.0
230
1.0
 70
     8
 71
     3
 72
    14
 73
    10
 74
     0
 42
0.000000001
 43
0.00000001
 40
0.0000000000000029
 40
0.0000000000000029
 40
0.0000000000000029
 40
0.0000000000000029
 40
0.0000389338800372
 40
0.0000389338800372
 40
0.0000389338800372
 40
0.0000777809519151
 40
0.0000777809519151
 40
0.0000777809519151
 40
0.0000939650131498
 40
0.0000939650131498
 40
0.0000939650131498
 40
0.0000939650131498
 10
70.62818811073932
 20
145.7286328887694
 30
0.0
 10
70.63631972091278
 20
145.7195905516056
 30
0.0
 10
70.64303294723344
 20
145.7087680501856
 30
0.0
 10
70.64795169905851
 20
145.6971433089218
 30
0.0
 10
70.65286349573047
 20
145.6855350051321
 30
0.0
 10
70.65612994405966
 20
145.6728119158205
 30
0.0
 10
70.6575998879562
 20
145.6599705829566
 30
0.0
 10
70.65821900235389
 20
145.6545620404399
 30
0.0
 10
70.65852979009274
 20
145.6490912471372
 30
0.0
 10
70.65852979009274
 20
145.6436328887694
 30
0.0
  0
ARC
  5
129
330
1F
100
AcDbEntity
  8
0
  6
Continuous
 62
     7
370
     0
100
AcDbCircle
 10
67.8590363572
 20
145.6436328887
 30
0.0
 40
0.1151947465247787
100
AcDbArc
 50
359.5026118872
 51
0.0000000137
  0
ARC
  5
12A
330
1F
100
AcDbEntity
  8
0
  6
Continuous
 62
     7
370
     0
100
AcDbCircle
 10
67.7815545497
 20
145.6431328888
 30
0.0
 40
0.0369379685190656
100
AcDbArc
 50
179.2244087633
 51
180.7755912366
  0
LINE
  5
12B
330
1F
100
AcDbEntity
  8
0
  6
Continuous
 62
     7
370
     0
100
AcDbLine
 10
70.2584192944
 20
145.7286328888
 30
0.0
 11
70.49421996
 21
145.7286328888
 31
0.0
  0
LINE
  5
12C
330
1F
100
AcDbEntity
  8
0
  6
Continuous
 62
     7
370
     0
100
AcDbLine
 10
69.8104255345
 20
145.7286328888
 30
0.0
 11
70.1215474105
 21
145.7286328888
 31
0.0
  0
LINE
  5
12D
330
1F
100
AcDbEntity
  8
0
  6
Continuous
 62
     7
370
     0
100
AcDbLine
 10
75.8304255345
 20
145.7286328888
 30
0.0
 11
76.1126629584
 21
145.7286328888
 31
0.0
  0
LINE
  5
12E
330
1F
100
AcDbEntity
  8
0
  6
Continuous
 62
     7
370
     0
100
AcDbLine
 10
76.2466311091
 20
145.7286328888
 30
0.0
 11
76.51421996
 21
145.7286328888
 31
0.0
  0
LINE
  5
12F
330
1F
100
AcDbEntity
  8
0
  6
Continuous
 62
     7
370
     0
100
AcDbLine
 10
70.2933874831
 20
145.6436328888
 30
0.0
 11
70.4596348304
 21
145.6436328888
 31
0.0
  0
LINE
  5
130
330
1F
100
AcDbEntity
  8
0
  6
Continuous
 62
     7
370
     0
100
AcDbLine
 10
76.2812162387
 20
145.6436328888
 30
0.0
 11
76.4796348304
 21
145.6436328888
 31
0.0
  0
LINE
  5
131
330
1F
100
AcDbEntity
  8
0
  6
Continuous
 62
     7
370
     0
100
AcDbLine
 10
82.2581774923
 20
145.7286328888
 30
0.0
 11
82.9414255345
 21
145.7286328888
 31
0.0
  0
LINE
  5
132
330
1F
100
AcDbEntity
  8
0
  6
Continuous
 62
     7
370
     0
100
AcDbLine
 10
81.8414255345
 20
145.7286328888
 30
0.0
 11
82.1241550769
 21
145.7286328888
 31
0.0
  0
LINE
  5
133
330
1F
100
AcDbEntity
  8
0
  6
Continuous
 62
     7
370
     0
100
AcDbLine
 10
82.2927702843
 20
145.6436328888
 30
0.0
 11
82.9414255345
 21
145.6436328888
 31
0.0
  0
LINE
  5
134
330
1F
100
AcDbEntity
  8
0
  6
Continuous
 62
     7
370
     0
100
AcDbLine
 10
81.8414255345
 20
145.6436328888
 30
0.0
 11
82.0937947608
 21
145.6436328888
 31
0.0
  0
LINE
  5
135
330
1F
100
AcDbEntity
  8
0
  6
Continuous
 62
     7
370
     0
100
AcDbLine
 10
69.8104255345
 20
145.6436328888
 30
0.0
 11
70.0901815145
 21
145.6436328888
 31
0.0
  0
LINE
  5
136
330
1F
100
AcDbEntity
  8
0
  6
Continuous
 62
     7
370
     0
100
AcDbLine
 10
75.8304255345
 20
145.6436328888
 30
0.0
 11
76.082321279
 21
145.6436328888
 31
0.0
  0
LINE
  5
137
330
1F
100
AcDbEntity
  8
0
  6
Continuous
 62
     7
370
     0
100
AcDbLine
 10
84.3924255345
 20
135.6426328888
 30
0.0
 11
83.8924255345
 21
135.6426328888
 31
0.0
  0
LINE
  5
138
330
1F
100
AcDbEntity
  8
0
  6
Continuous
 62
     7
370
     0
100
AcDbLine
 10
84.3924255345
 20
145.6426328888
 30
0.0
 11
83.8924255345
 21
145.6426328888
 31
0.0
  0
LINE
  5
139
330
1F
100
AcDbEntity
  8
0
  6
Continuous
 62
     7
370
     0
100
AcDbLine
 10
83.8924255345
 20
145.6426328888
 30
0.0
 11
83.8924255345
 21
135.6426328888
 31
0.0
  0
LINE
  5
13A
330
1F
100
AcDbEntity
  8
0
  6
Continuous
 62
     7
370
     0
100
AcDbLine
 10
84.3924255345
 20
145.6426328888
 30
0.0
 11
84.3924255345
 21
135.6426328888
 31
0.0
  0
LINE
  5
13B
330
1F
100
AcDbEntity
  8
0
  6
Continuous
 62
     7
370
     0
100
AcDbLine
 10
66.8881255345
 20
145.6423262191
 30
0.0
 11
66.8881255345
 21
135.6429395584
 31
0.0
  0
LINE
  5
13C
330
1F
100
AcDbEntity
  8
0
  6
Continuous
 62
     7
370
     0
100
AcDbLine
 10
72.8204255345
 20
135.5566328888
 30
0.0
 11
73.9204255345
 21
135.5566328888
 31
0.0
  0
LINE
  5
13D
330
1F
100
AcDbEntity
  8
0
  6
Continuous
 62
     7
370
     0
100
AcDbLine
 10
67.3094255345
 20
135.6416328888
 30
0.0
 11
68.4094255345
 21
135.6416328888
 31
0.0
  0
LINE
  5
13E
330
1F
100
AcDbEntity
  8
0
  6
Continuous
 62
     7
370
     0
100
AcDbLine
 10
67.3094255345
 20
135.5566328888
 30
0.0
 11
68.4094255345
 21
135.5566328888
 31
0.0
  0
LINE
  5
13F
330
1F
100
AcDbEntity
  8
0
  6
Continuous
 62
     7
370
     0
100
AcDbLine
 10
72.8204255345
 20
135.6416328888
 30
0.0
 11
73.9204255345
 21
135.6416328888
 31
0.0
  0
LINE
  5
140
330
1F
100
AcDbEntity
  8
0
  6
Continuous
 62
     7
370
     0
100
AcDbLine
 10
78.8404255345
 20
135.5566328888
 30
0.0
 11
79.9404255345
 21
135.5566328888
 31
0.0
  0
SPLINE
  5
141
330
1F
100
AcDbEntity
  8
0
  6
Continuous
 62
     7
370
     0
100
AcDbSpline
210
0.0
220
0.0
230
1.0
 70
     8
 71
     3
 72
    18
 73
    14
 74
     0
 42
0.000000001
 43
0.00000001
 40
0.0
 40
0.0
 40
0.0
 40
0.0
 40
0.0059974493255902
 40
0.1198738437974102
 40
0.2336242116029514
 40
0.3436119310223832
 40
0.4487976798479063
 40
0.5509589677569257
 40
0.652823020183108
 40
0.7565526201459334
 40
0.8632199719378603
 40
0.972796531284728
 40
1.0
 40
1.0
 40
1.0
 40
1.0
 10
79.08052298056573
 20
135.4739225682811
 30
0.0
 10
79.08012810565495
 20
135.4738824667477
 30
0.0
 10
79.07223555487158
 20
135.4730809385165
 30
0.0
 10
79.1016819444728
 20
135.4761080811833
 30
0.0
 10
79.1714755006693
 20
135.4829799153419
 30
0.0
 10
79.28328403416418
 20
135.4930943052531
 30
0.0
 10
79.4139480650522
 20
135.5036770240049
 30
0.0
 10
79.54940567002933
 20
135.5134839861335
 30
0.0
 10
79.6761478764579
 20
135.5217437200513
 30
0.0
 10
79.78405413815365
 20
135.5281639118719
 30
0.0
 10
79.85718651351314
 20
135.5322342282389
 30
0.0
 10
79.89149713849214
 20
135.5340685486383
 30
0.0
 10
79.88464726151109
 20
135.5337004020823
 30
0.0
 10
79.88328492508818
 20
135.5336271833276
 30
0.0
  0
LINE
  5
142
330
1F
100
AcDbEntity
  8
0
  6
Continuous
 62
     7
370
     0
100
AcDbLine
 10
78.8404255345
 20
135.6416328888
 30
0.0
 11
79.9404255345
 21
135.6416328888
 31
0.0
  0
SPLINE
  5
143
330
1F
100
AcDbEntity
  8
0
  6
Continuous
 62
     7
370
     0
100
AcDbSpline
210
0.0
220
0.0
230
1.0
 70
     8
 71
     3
 72
    14
 73
    10
 74
     0
 42
0.000000001
 43
0.00000001
 40
0.0
 40
0.0
 40
0.0
 40
0.0
 40
0.0261769013559487
 40
0.0800261680303577
 40
0.2490196437310689
 40
0.4426388935300402
 40
0.7147424545237944
 40
0.9884295206768287
 40
0.9999999999999999
 40
0.9999999999999999
 40
0.9999999999999999
 40
0.9999999999999999
 10
84.44726008044053
 20
132.6098055489802
 30
0.0
 10
84.44709899141276
 20
132.6045330866384
 30
0.0
 10
84.44660652145123
 20
132.5884144883535
 30
0.0
 10
84.44331850591077
 20
132.5385458426651
 30
0.0
 10
84.43357652993997
 20
132.4584559251207
 30
0.0
 10
84.41852429504534
 20
132.3570823921134
 30
0.0
 10
84.40835882748392
 20
132.2845675558477
 30
0.0
 10
84.40458945574551
 20
132.2531983681407
 30
0.0
 10
84.40561567828976
 20
132.2613386995619
 30
0.0
 10
84.40565730343488
 20
132.2616688837687
 30
0.0
  0
SPLINE
  5
144
330
1F
100
AcDbEntity
  8
0
  6
Continuous
 62
     7
370
     0
100
AcDbSpline
210
0.0
220
0.0
230
1.0
 70
     8
 71
     3
 72
    14
 73
    10
 74
     0
 42
0.000000001
 43
0.00000001
 40
0.0
 40
0.0
 40
0.0
 40
0.0
 40
0.0261771185356778
 40
0.1074509979392869
 40
0.2770519162215051
 40
0.4699415308519318
 40
0.732713142835698
 40
0.995192856985094
 40
1.0
 40
1.0
 40
1.0
 40
1.0
 10
84.44726008044053
 20
132.6098055489802
 30
0.0
 10
84.4473864329413
 20
132.6150780743886
 30
0.0
 10
84.44790508064055
 20
132.6367205678518
 30
0.0
 10
84.44910444488623
 20
132.6922581538597
 30
0.0
 10
84.44806544585705
 20
132.7762937890067
 30
0.0
 10
84.43638090689745
 20
132.8723052264353
 30
0.0
 10
84.41777000922237
 20
132.9375911770757
 30
0.0
 10
84.40641092248327
 20
132.9665929577999
 30
0.0
 10
84.4092528601653
 20
132.958652031349
 30
0.0
 10
84.40930397229636
 20
132.9585092141169
 30
0.0
  0
LINE
  5
145
330
1F
100
AcDbEntity
  8
0
  6
Continuous
 62
     7
370
     0
100
AcDbLine
 10
159.2137963205
 20
132.2606716764
 30
0.0
 11
159.6807239803
 21
132.9589396309
 31
0.0
  0
ARC
  5
146
330
1F
100
AcDbEntity
  8
0
  6
Continuous
 62
     7
370
     0
100
AcDbCircle
 10
82.3914255345
 20
135.6416328888
 30
0.0
 40
0.1150000000000091
100
AcDbArc
 50
179.5017695513
 51
180.0
  0
ARC
  5
147
330
1F
100
AcDbEntity
  8
0
  6
Continuous
 62
     7
370
     0
100
AcDbCircle
 10
82.3914255345
 20
135.6416328888
 30
0.0
 40
0.1150043477438955
100
AcDbArc
 50
0.0
 51
0.4982116126
  0
SPLINE
  5
148
330
1F
100
AcDbEntity
  8
0
  6
Continuous
 62
     7
370
     0
100
AcDbSpline
210
0.0
220
0.0
230
1.0
 70
     8
 71
     3
 72
    14
 73
    10
 74
     0
 42
0.000000001
 43
0.00000001
 40
0.0000000000000007
 40
0.0000000000000007
 40
0.0000000000000007
 40
0.0000000000000007
 40
0.0000389338800372
 40
0.0000389338800372
 40
0.0000389338800372
 40
0.0000777809519151
 40
0.0000777809519151
 40
0.0000777809519151
 40
0.0000939650131498
 40
0.0000939650131498
 40
0.0000939650131498
 40
0.0000939650131498
 10
82.25817749229745
 20
135.5566328887694
 30
0.0
 10
82.26720948664858
 20
135.5656752259332
 30
0.0
 10
82.27485118119756
 20
135.5764977273532
 30
0.0
 10
82.280502613118
 20
135.588122468617
 30
0.0
 10
82.28614605386998
 20
135.5997307724067
 30
0.0
 10
82.2899646739035
 20
135.6124538617184
 30
0.0
 10
82.29168260146506
 20
135.6252951945822
 30
0.0
 10
82.29240616220099
 20
135.6307037370989
 30
0.0
 10
82.29277028429061
 20
135.6361745304017
 30
0.0
 10
82.29277028429061
 20
135.6416328887694
 30
0.0
  0
SPLINE
  5
149
330
1F
100
AcDbEntity
  8
0
  6
Continuous
 62
     7
370
     0
100
AcDbSpline
210
0.0
220
0.0
230
1.0
 70
     8
 71
     3
 72
    29
 73
    25
 74
     0
 42
0.000000001
 43
0.00000001
 40
0.0000000000000001
 40
0.0000000000000001
 40
0.0000000000000001
 40
0.0000000000000001
 40
0.0000553986492001
 40
0.0000553986492001
 40
0.0000553986492001
 40
0.0000744703661974
 40
0.0000744703661974
 40
0.0000744703661974
 40
0.0000938210300503
 40
0.0000938210300503
 40
0.0000938210300503
 40
0.0001072543096207
 40
0.0001072543096207
 40
0.0001072543096207
 40
0.0001207016259448
 40
0.0001207016259448
 40
0.0001207016259448
 40
0.0001387455774115
 40
0.0001387455774115
 40
0.0001387455774115
 40
0.0001702186759782
 40
0.0001702186759782
 40
0.0001702186759782
 40
0.0002135383638984
 40
0.0002135383638984
 40
0.0002135383638984
 40
0.0002135383638984
 10
82.25817749229631
 20
135.556632888769
 30
0.0
 10
82.25677894699994
 20
135.549283306846
 30
0.0
 10
82.253918786388
 20
135.5423442149487
 30
0.0
 10
82.24755205611582
 20
135.5366188303322
 30
0.0
 10
82.24534010603786
 20
135.5346296986417
 30
0.0
 10
82.24265695955557
 20
135.5327792466052
 30
0.0
 10
82.23930129693717
 20
135.5312029679289
 30
0.0
 10
82.23591832827323
 20
135.5296138625945
 30
0.0
 10
82.23174412263081
 20
135.5282753066273
 30
0.0
 10
82.22673015923617
 20
135.5274734277038
 30
0.0
 10
82.22323476264748
 20
135.5269144118847
 30
0.0
 10
82.21924573753665
 20
135.526613663052
 30
0.0
 10
82.21503468084619
 20
135.5266338899347
 30
0.0
 10
82.21081849551636
 20
135.5266541414517
 30
0.0
 10
82.20628586056627
 20
135.5269960018917
 30
0.0
 10
82.20181850188396
 20
135.5275894129387
 30
0.0
 10
82.19583560252937
 20
135.5283841372541
 30
0.0
 10
82.18980980321413
 20
135.5296354719429
 30
0.0
 10
82.18412002500747
 20
135.5311107678249
 30
0.0
 10
82.17422509791899
 20
135.5336764118018
 30
0.0
 10
82.16497522441824
 20
135.5369670500732
 30
0.0
 10
82.15645239968507
 20
135.5405040157649
 30
0.0
 10
82.14469565734841
 20
135.5453830547681
 30
0.0
 10
82.13401665727719
 20
135.5508603524864
 30
0.0
 10
82.12415507686062
 20
135.5566328887694
 30
0.0
  0
SPLINE
  5
14A
330
1F
100
AcDbEntity
  8
0
  6
Continuous
 62
     7
370
     0
100
AcDbSpline
210
0.0
220
0.0
230
1.0
 70
     8
 71
     3
 72
    14
 73
    10
 74
     0
 42
0.000000001
 43
0.00000001
 40
0.0
 40
0.0
 40
0.0
 40
0.0
 40
0.0000404517691324
 40
0.0000404517691324
 40
0.0000404517691324
 40
0.0000809563990268
 40
0.0000809563990268
 40
0.0000809563990268
 40
0.0000940103900616
 40
0.0000940103900616
 40
0.0000940103900616
 40
0.0000940103900616
 10
82.09379476080504
 20
135.6416328887694
 30
0.0
 10
82.09379476080504
 20
135.6281489657253
 30
0.0
 10
82.09572841192912
 20
135.6144776725002
 30
0.0
 10
82.09950152994011
 20
135.6017499040688
 30
0.0
 10
82.10327733842685
 20
135.5890130599201
 30
0.0
 10
82.10901144610251
 20
135.5768556291997
 30
0.0
 10
82.11638594869022
 20
135.5663886546895
 30
0.0
 10
82.11879531334273
 20
135.5629689313789
 30
0.0
 10
82.12139123407673
 20
135.5597045258497
 30
0.0
 10
82.12415507686238
 20
135.5566328887675
 30
0.0
  0
SPLINE
  5
14B
330
1F
100
AcDbEntity
  8
0
  6
Continuous
 62
     7
370
     0
100
AcDbSpline
210
0.0
220
0.0
230
1.0
 70
     8
 71
     3
 72
    14
 73
    10
 74
     0
 42
0.000000001
 43
0.00000001
 40
0.0
 40
0.0
 40
0.0
 40
0.0
 40
0.0000389338800372
 40
0.0000389338800372
 40
0.0000389338800372
 40
0.0000777809519151
 40
0.0000777809519151
 40
0.0000777809519151
 40
0.0000939650131498
 40
0.0000939650131498
 40
0.0000939650131498
 40
0.0000939650131498
 10
76.24663110908212
 20
135.5566328887694
 30
0.0
 10
76.25566078907308
 20
135.5656752259332
 30
0.0
 10
76.2633007750761
 20
135.5764977273532
 30
0.0
 10
76.26895101235537
 20
135.588122468617
 30
0.0
 10
76.27459326015541
 20
135.5997307724067
 30
0.0
 10
76.27841115848408
 20
135.6124538617184
 30
0.0
 10
76.28012876072249
 20
135.6252951945822
 30
0.0
 10
76.28085218443805
 20
135.6307037370989
 30
0.0
 10
76.28121623873164
 20
135.6361745304017
 30
0.0
 10
76.28121623873164
 20
135.6416328887694
 30
0.0
  0
SPLINE
  5
14C
330
1F
100
AcDbEntity
  8
0
  6
Continuous
 62
     7
370
     0
100
AcDbSpline
210
0.0
220
0.0
230
1.0
 70
     8
 71
     3
 72
    29
 73
    25
 74
     0
 42
0.000000001
 43
0.00000001
 40
0.0000000000000011
 40
0.0000000000000011
 40
0.0000000000000011
 40
0.0000000000000011
 40
0.0000553986491994
 40
0.0000553986491994
 40
0.0000553986491994
 40
0.0000744703661967
 40
0.0000744703661967
 40
0.0000744703661967
 40
0.0000938210300496
 40
0.0000938210300496
 40
0.0000938210300496
 40
0.00010725430962
 40
0.00010725430962
 40
0.00010725430962
 40
0.0001207016259441
 40
0.0001207016259441
 40
0.0001207016259441
 40
0.0001387455774107
 40
0.0001387455774107
 40
0.0001387455774107
 40
0.0001702186759774
 40
0.0001702186759774
 40
0.0001702186759774
 40
0.0002135383638974
 40
0.0002135383638974
 40
0.0002135383638974
 40
0.0002135383638974
 10
76.24663110907987
 20
135.5566328887687
 30
0.0
 10
76.24524985349304
 20
135.5492833068457
 30
0.0
 10
76.24240741932391
 20
135.5423442149487
 30
0.0
 10
76.23605744712577
 20
135.5366188303322
 30
0.0
 10
76.23385131919223
 20
135.5346296986418
 30
0.0
 10
76.2311739124727
 20
135.5327792466053
 30
0.0
 10
76.22782361348831
 20
135.531202967929
 30
0.0
 10
76.22444605210393
 20
135.5296138625945
 30
0.0
 10
76.22027698671225
 20
135.5282753066273
 30
0.0
 10
76.2152671285229
 20
135.5274734277038
 30
0.0
 10
76.21177459380604
 20
135.5269144118847
 30
0.0
 10
76.20778796689915
 20
135.526613663052
 30
0.0
 10
76.20357856267117
 20
135.5266338899347
 30
0.0
 10
76.19936403181637
 20
135.5266541414517
 30
0.0
 10
76.19483234227253
 20
135.5269960018917
 30
0.0
 10
76.19036525766388
 20
135.5275894129387
 30
0.0
 10
76.1843827253618
 20
135.5283841372541
 30
0.0
 10
76.17835614287304
 20
135.5296354719429
 30
0.0
 10
76.17266491836891
 20
135.5311107678249
 30
0.0
 10
76.16276747606673
 20
135.5336764118018
 30
0.0
 10
76.15351311969154
 20
135.5369670500732
 30
0.0
 10
76.14498513824299
 20
135.5405040157649
 30
0.0
 10
76.13322128251663
 20
135.5453830547681
 30
0.0
 10
76.12253368088363
 20
135.5508603524864
 30
0.0
 10
76.11266295835593
 20
135.5566328887694
 30
0.0
  0
SPLINE
  5
14D
330
1F
100
AcDbEntity
  8
0
  6
Continuous
 62
     7
370
     0
100
AcDbSpline
210
0.0
220
0.0
230
1.0
 70
     8
 71
     3
 72
    14
 73
    10
 74
     0
 42
0.000000001
 43
0.00000001
 40
0.0
 40
0.0
 40
0.0
 40
0.0
 40
0.0000404517691324
 40
0.0000404517691324
 40
0.0000404517691324
 40
0.0000809563990268
 40
0.0000809563990268
 40
0.0000809563990268
 40
0.0000940103900616
 40
0.0000940103900616
 40
0.0000940103900616
 40
0.0000940103900616
 10
76.08232127900231
 20
135.6416328887694
 30
0.0
 10
76.08232127900231
 20
135.6281489657253
 30
0.0
 10
76.0842536388037
 20
135.6144776725002
 30
0.0
 10
76.08802433500655
 20
135.6017499040688
 30
0.0
 10
76.09179771995824
 20
135.5890130599201
 30
0.0
 10
76.09752820505972
 20
135.5768556291997
 30
0.0
 10
76.10489834283855
 20
135.5663886546895
 30
0.0
 10
76.10730628144005
 20
135.562968931379
 30
0.0
 10
76.10990069071634
 20
135.55970452585
 30
0.0
 10
76.1126629583573
 20
135.5566328887679
 30
0.0
  0
ARC
  5
14E
330
1F
100
AcDbEntity
  8
0
  6
Continuous
 62
     7
370
     0
100
AcDbCircle
 10
67.8590363571
 20
135.6416328888
 30
0.0
 40
0.1151947465356926
100
AcDbArc
 50
359.9999999863
 51
0.4973881128
  0
ARC
  5
14F
330
1F
100
AcDbEntity
  8
0
  6
Continuous
 62
     7
370
     0
100
AcDbCircle
 10
67.7815545497
 20
135.6421328888
 30
0.0
 40
0.0369379685184688
100
AcDbArc
 50
179.2244087633
 51
180.7755912366
  0
SPLINE
  5
150
330
1F
100
AcDbEntity
  8
0
  6
Continuous
 62
     7
370
     0
100
AcDbSpline
210
0.0
220
0.0
230
1.0
 70
     8
 71
     3
 72
    14
 73
    10
 74
     0
 42
0.000000001
 43
0.00000001
 40
0.0
 40
0.0
 40
0.0
 40
0.0
 40
0.0000389338800372
 40
0.0000389338800372
 40
0.0000389338800372
 40
0.0000777809519151
 40
0.0000777809519151
 40
0.0000777809519151
 40
0.0000939650131496
 40
0.0000939650131496
 40
0.0000939650131496
 40
0.0000939650131496
 10
70.25841929441113
 20
135.5566328887694
 30
0.0
 10
70.26756711194632
 20
135.5656752259332
 30
0.0
 10
70.27529263580249
 20
135.5764977273532
 30
0.0
 10
70.28100215212
 20
135.588122468617
 30
0.0
 10
70.28670359513725
 20
135.5997307724067
 30
0.0
 10
70.2905566091267
 20
135.6124538617184
 30
0.0
 10
70.29229004630264
 20
135.6252951945822
 30
0.0
 10
70.2930201394141
 20
135.6307037370989
 30
0.0
 10
70.29338748312733
 20
135.6361745304015
 30
0.0
 10
70.29338748312735
 20
135.6416328887692
 30
0.0
  0
SPLINE
  5
151
330
1F
100
AcDbEntity
  8
0
  6
Continuous
 62
     7
370
     0
100
AcDbSpline
210
0.0
220
0.0
230
1.0
 70
     8
 71
     3
 72
    29
 73
    25
 74
     0
 42
0.000000001
 43
0.00000001
 40
0.0000000000000006
 40
0.0000000000000006
 40
0.0000000000000006
 40
0.0000000000000006
 40
0.0000553986492
 40
0.0000553986492
 40
0.0000553986492
 40
0.0000744703661974
 40
0.0000744703661974
 40
0.0000744703661974
 40
0.0000938210300502
 40
0.0000938210300502
 40
0.0000938210300502
 40
0.0001072543096207
 40
0.0001072543096207
 40
0.0001072543096207
 40
0.0001207016259448
 40
0.0001207016259448
 40
0.0001207016259448
 40
0.0001387455774114
 40
0.0001387455774114
 40
0.0001387455774114
 40
0.0001702186759782
 40
0.0001702186759782
 40
0.0001702186759782
 40
0.0002135383638984
 40
0.0002135383638984
 40
0.0002135383638984
 40
0.0002135383638984
 10
70.25841929440996
 20
135.556632888769
 30
0.0
 10
70.25604179633338
 20
135.549283306846
 30
0.0
 10
70.25218040882031
 20
135.5423442149487
 30
0.0
 10
70.24487344884622
 20
135.5366188303322
 30
0.0
 10
70.24233484111613
 20
135.5346296986417
 30
0.0
 10
70.23933052361595
 20
135.5327792466052
 30
0.0
 10
70.23567619597841
 20
135.531202967929
 30
0.0
 10
70.2319921319674
 20
135.5296138625945
 30
0.0
 10
70.22753334875239
 20
135.5282753066273
 30
0.0
 10
70.22229500143806
 20
135.5274734277038
 30
0.0
 10
70.21864317953758
 20
135.5269144118847
 30
0.0
 10
70.21452489604282
 20
135.526613663052
 30
0.0
 10
70.21022729103467
 20
135.5266338899347
 30
0.0
 10
70.20592445198011
 20
135.5266541414517
 30
0.0
 10
70.20134595428223
 20
135.5269960018917
 30
0.0
 10
70.1968707251924
 20
135.5275894129387
 30
0.0
 10
70.19087728541348
 20
135.5283841372541
 30
0.0
 10
70.18490630597746
 20
135.5296354719429
 30
0.0
 10
70.17930840826175
 20
135.5311107678249
 30
0.0
 10
70.16957326785139
 20
135.5336764118018
 30
0.0
 10
70.16059375509303
 20
135.5369670500732
 30
0.0
 10
70.15237828725617
 20
135.5405040157649
 30
0.0
 10
70.14104552592913
 20
135.5453830547681
 30
0.0
 10
70.13087312086817
 20
135.5508603524864
 30
0.0
 10
70.12154741054519
 20
135.5566328887694
 30
0.0
  0
SPLINE
  5
152
330
1F
100
AcDbEntity
  8
0
  6
Continuous
 62
     7
370
     0
100
AcDbSpline
210
0.0
220
0.0
230
1.0
 70
     8
 71
     3
 72
    14
 73
    10
 74
     0
 42
0.000000001
 43
0.00000001
 40
0.0
 40
0.0
 40
0.0
 40
0.0
 40
0.0000404517691324
 40
0.0000404517691324
 40
0.0000404517691324
 40
0.0000809563990268
 40
0.0000809563990268
 40
0.0000809563990268
 40
0.0000940103900615
 40
0.0000940103900615
 40
0.0000940103900615
 40
0.0000940103900615
 10
70.09018151452938
 20
135.6416328887694
 30
0.0
 10
70.09018151452938
 20
135.6281489657253
 30
0.0
 10
70.09218513397761
 20
135.6144776725002
 30
0.0
 10
70.0960892216014
 20
135.6017499040688
 30
0.0
 10
70.09999609309072
 20
135.5890130599201
 30
0.0
 10
70.10592595170002
 20
135.5768556291997
 30
0.0
 10
70.11353551200486
 20
135.5663886546895
 30
0.0
 10
70.11602167366779
 20
135.5629689313794
 30
0.0
 10
70.1186989181056
 20
135.5597045258507
 30
0.0
 10
70.12154741054557
 20
135.556632888769
 30
0.0
  0
LINE
  5
153
330
1F
100
AcDbEntity
  8
0
  6
Continuous
 62
     7
370
     0
100
AcDbLine
 10
76.2466311091
 20
135.5566328888
 30
0.0
 11
76.51421996
 21
135.5566328888
 31
0.0
  0
LINE
  5
154
330
1F
100
AcDbEntity
  8
0
  6
Continuous
 62
     7
370
     0
100
AcDbLine
 10
76.6481881107
 20
135.5566328888
 30
0.0
 11
76.9304255345
 21
135.5566328888
 31
0.0
  0
LINE
  5
155
330
1F
100
AcDbEntity
  8
0
  6
Continuous
 62
     7
370
     0
100
AcDbLine
 10
75.8304255345
 20
135.5566328888
 30
0.0
 11
76.1126629584
 21
135.5566328888
 31
0.0
  0
LINE
  5
156
330
1F
100
AcDbEntity
  8
0
  6
Continuous
 62
     7
370
     0
100
AcDbLine
 10
70.6281881107
 20
135.5566328888
 30
0.0
 11
70.9104255345
 21
135.5566328888
 31
0.0
  0
LINE
  5
157
330
1F
100
AcDbEntity
  8
0
  6
Continuous
 62
     7
370
     0
100
AcDbLine
 10
69.8104255345
 20
135.5566328888
 30
0.0
 11
70.1215474105
 21
135.5566328888
 31
0.0
  0
LINE
  5
158
330
1F
100
AcDbEntity
  8
0
  6
Continuous
 62
     7
370
     0
100
AcDbLine
 10
70.2584192944
 20
135.5566328888
 30
0.0
 11
70.49421996
 21
135.5566328888
 31
0.0
  0
LINE
  5
159
330
1F
100
AcDbEntity
  8
0
  6
Continuous
 62
     7
370
     0
100
AcDbLine
 10
70.2933874831
 20
135.6416328888
 30
0.0
 11
70.4596348304
 21
135.6416328888
 31
0.0
  0
LINE
  5
15A
330
1F
100
AcDbEntity
  8
0
  6
Continuous
 62
     7
370
     0
100
AcDbLine
 10
76.2812162387
 20
135.6416328888
 30
0.0
 11
76.4796348304
 21
135.6416328888
 31
0.0
  0
LINE
  5
15B
330
1F
100
AcDbEntity
  8
0
  6
Continuous
 62
     7
370
     0
100
AcDbLine
 10
82.2581774923
 20
135.5566328888
 30
0.0
 11
82.9414255345
 21
135.5566328888
 31
0.0
  0
LINE
  5
15C
330
1F
100
AcDbEntity
  8
0
  6
Continuous
 62
     7
370
     0
100
AcDbLine
 10
81.8414255345
 20
135.5566328888
 30
0.0
 11
82.1241550769
 21
135.5566328888
 31
0.0
  0
LINE
  5
15D
330
1F
100
AcDbEntity
  8
0
  6
Continuous
 62
     7
370
     0
100
AcDbLine
 10
82.2927702843
 20
135.6416328888
 30
0.0
 11
82.9414255345
 21
135.6416328888
 31
0.0
  0
LINE
  5
15E
330
1F
100
AcDbEntity
  8
0
  6
Continuous
 62
     7
370
     0
100
AcDbLine
 10
81.8414255345
 20
135.6416328888
 30
0.0
 11
82.0937947608
 21
135.6416328888
 31
0.0
  0
LINE
  5
15F
330
1F
100
AcDbEntity
  8
0
  6
Continuous
 62
     7
370
     0
100
AcDbLine
 10
70.6585297901
 20
135.6416328888
 30
0.0
 11
70.9104255345
 21
135.6416328888
 31
0.0
  0
LINE
  5
160
330
1F
100
AcDbEntity
  8
0
  6
Continuous
 62
     7
370
     0
100
AcDbLine
 10
69.8104255345
 20
135.6416328888
 30
0.0
 11
70.0901815145
 21
135.6416328888
 31
0.0
  0
LINE
  5
161
330
1F
100
AcDbEntity
  8
0
  6
Continuous
 62
     7
370
     0
100
AcDbLine
 10
76.6785297901
 20
135.6416328888
 30
0.0
 11
76.9304255345
 21
135.6416328888
 31
0.0
  0
LINE
  5
162
330
1F
100
AcDbEntity
  8
0
  6
Continuous
 62
     7
370
     0
100
AcDbLine
 10
75.8304255345
 20
135.6416328888
 30
0.0
 11
76.082321279
 21
135.6416328888
 31
0.0
  0
MTEXT
  5
163
330
1F
100
AcDbEntity
  8
0
  6
Continuous
 62
     7
370
     0
100
AcDbMText
 10
146.5552455329
 20
162.5911624666
 30
0.0
 40
2.1166666667
 41
0.0
 71
     1
 72
     1
  1
NEGATIVE WIRE(~75mm LONG)
  7
SLDTEXTSTYLE0
 73
     1
 44
1.0
  0
LEADER
  5
165
330
1F
100
AcDbEntity
  8
0
  6
Continuous
 62
     7
370
     0
100
AcDbLeader
  3
SLDDIMSTYLE0
 76
     3
 10
129.2604704635
 20
149.0245943108
 30
0.0
 10
139.6511286682
 20
161.625282167
 30
0.0
 10
146.0011286682
 20
161.625282167
 30
0.0
  0
MTEXT
  5
166
330
1F
100
AcDbEntity
  8
0
  6
Continuous
 62
     7
370
     0
100
AcDbMText
 10
80.3521664016
 20
155.487637853
 30
0.0
 40
2.1166666667
 41
0.0
 71
     1
 72
     1
  1
SCREEN-PRINTED ELECTRODE
  7
SLDTEXTSTYLE0
 73
     1
 44
1.0
  0
LEADER
  5
167
330
1F
100
AcDbEntity
  8
0
  6
Continuous
 62
     7
370
     0
100
AcDbLeader
  3
SLDDIMSTYLE0
 76
     3
 10
67.8312670934
 20
145.6426328888
 30
0.0
 10
73.3983069977
 20
154.5146726862
 30
0.0
 10
79.7483069977
 20
154.5146726862
 30
0.0
  0
MTEXT
  5
168
330
1F
100
AcDbEntity
  8
0
  6
Continuous
 62
     7
370
     0
100
AcDbMText
 10
80.8390914901
 20
126.0060785892
 30
0.0
 40
2.1166666667
 41
0.0
 71
     1
 72
     1
  1
SCREEN-PRINTED ELECTRODE
  7
SLDTEXTSTYLE0
 73
     1
 44
1.0
  0
LEADER
  5
169
330
1F
100
AcDbEntity
  8
0
  6
Continuous
 62
     7
370
     0
100
AcDbLeader
  3
SLDDIMSTYLE0
 76
     3
 10
68.2809981973
 20
135.6426328888
 30
0.0
 10
73.9626410835
 20
125.0564334086
 30
0.0
 10
80.3126410835
 20
125.0564334086
 30
0.0
  0
MTEXT
  5
16A
330
1F
100
AcDbEntity
  8
0
  6
Continuous
 62
     7
370
     0
100
AcDbMText
 10
147.5469438874
 20
122.5217882568
 30
0.0
 40
2.1166666667
 41
0.0
 71
     1
 72
     1
  1
POSITIVE WIRE(~75mm LONG)
  7
SLDTEXTSTYLE0
 73
     1
 44
1.0
  0
LEADER
  5
16B
330
1F
100
AcDbEntity
  8
0
  6
Continuous
 62
     7
370
     0
100
AcDbLeader
  3
SLDDIMSTYLE0
 76
     3
 10
130.9811207426
 20
132.2606714668
 30
0.0
 10
140.6669300226
 20
121.5575620767
 30
0.0
 10
147.0169300226
 20
121.5575620767
 30
0.0
  0
SPLINE
  5
16C
330
1F
100
AcDbEntity
  8
0
  6
Continuous
 62
     7
370
     0
100
AcDbSpline
210
0.0
220
0.0
230
1.0
 70
    24
 71
     3
 72
    21
 73
    17
 74
     0
 42
0.000000001
 43
0.00000001
 40
0.0
 40
0.0
 40
0.0
 40
0.0
 40
0.0831181503173537
 40
0.1661156300345582
 40
0.2388786602806112
 40
0.3022647827538759
 40
0.3733007871661985
 40
0.4299214568515412
 40
0.4758857701671972
 40
0.5322335288370058
 40
0.6027781333444366
 40
0.6877250583758755
 40
0.7613349308899982
 40
0.8440853339320205
 40
0.9369172299961879
 40
1.0
 40
1.0
 40
1.0
 40
1.0
 10
203.4232112662996
 20
145.7768997350939
 30
0.0
 10
203.4232112662993
 20
145.9118751717113
 30
0.0
 10
203.4232112662987
 20
146.1816300881438
 30
0.0
 10
203.4232112662986
 20
146.5467329122177
 30
0.0
 10
203.4232112662987
 20
146.8654899352141
 30
0.0
 10
203.4232112662991
 20
147.1498377439677
 30
0.0
 10
203.4232112662995
 20
147.3951455728731
 30
0.0
 10
203.4232112662998
 20
147.6016143488651
 30
0.0
 10
203.4232112662999
 20
147.7775397364993
 30
0.0
 10
203.4232112662999
 20
147.9538974507769
 30
0.0
 10
203.4232112662999
 20
148.1459486805161
 30
0.0
 10
203.4232112662999
 20
148.3199270804786
 30
0.0
 10
203.4232112662999
 20
148.4661464887924
 30
0.0
 10
203.4232112662999
 20
148.577881716431
 30
0.0
 10
203.4232112662999
 20
148.6499418831967
 30
0.0
 10
203.4232112662999
 20
148.6652183826269
 30
0.0
 10
203.4232112662999
 20
148.6713992245215
 30
0.0
  0
SPLINE
  5
16D
330
1F
100
AcDbEntity
  8
0
  6
Continuous
 62
     7
370
     0
100
AcDbSpline
210
0.0
220
0.0
230
1.0
 70
    24
 71
     3
 72
    21
 73
    17
 74
     0
 42
0.000000001
 43
0.00000001
 40
0.0
 40
0.0
 40
0.0
 40
0.0
 40
0.0630736748963961
 40
0.1559028077817782
 40
0.2386507477247258
 40
0.3122584292113439
 40
0.3972028257633433
 40
0.4677453304822061
 40
0.5240914119382813
 40
0.5700543571076374
 40
0.6266733414559404
 40
0.6977072314529789
 40
0.7610914672127769
 40
0.8338523316379262
 40
0.9168473409017162
 40
1.0
 40
1.0
 40
1.0
 40
1.0
 10
202.5832112662999
 20
148.6713965073876
 30
0.0
 10
202.5832112662999
 20
148.6652162618726
 30
0.0
 10
202.5832112662999
 20
148.649940195746
 30
0.0
 10
202.5832112662999
 20
148.5778815815509
 30
0.0
 10
202.5832112662999
 20
148.4661465188066
 30
0.0
 10
202.5832112662999
 20
148.3199270714621
 30
0.0
 10
202.5832112662999
 20
148.1459486825971
 30
0.0
 10
202.5832112662999
 20
147.9538974504353
 30
0.0
 10
202.5832112662999
 20
147.777539736402
 30
0.0
 10
202.5832112662998
 20
147.6016143494155
 30
0.0
 10
202.5832112662996
 20
147.3951455698569
 30
0.0
 10
202.5832112662994
 20
147.149837757719
 30
0.0
 10
202.5832112662991
 20
146.8654898875481
 30
0.0
 10
202.583211266299
 20
146.5467331329189
 30
0.0
 10
202.5832112662991
 20
146.1815726119127
 30
0.0
 10
202.5832112662995
 20
145.9117570943584
 30
0.0
 10
202.5832112662997
 20
145.7767213278515
 30
0.0
  0
LINE
  5
16E
330
1F
100
AcDbEntity
  8
0
  6
Continuous
 62
     7
370
     0
100
AcDbLine
 10
211.1532112663
 20
145.6436328888
 30
0.0
 11
211.1532112663
 21
145.7286328888
 31
0.0
  0
LINE
  5
16F
330
1F
100
AcDbEntity
  8
0
  6
Continuous
 62
     7
370
     0
100
AcDbLine
 10
210.0532112663
 20
145.7286328888
 30
0.0
 11
210.0532112663
 21
145.6436328888
 31
0.0
  0
ARC
  5
170
330
1F
100
AcDbEntity
  8
0
  6
Continuous
 62
     7
370
     0
100
AcDbCircle
 10
210.6032112663
 20
144.5282162221
 30
0.0
 40
1.320416666666687
100
AcDbArc
 50
65.3839683651
 51
114.6160316349
  0
LINE
  5
171
330
1F
100
AcDbEntity
  8
0
  6
Continuous
 62
     7
370
     0
100
AcDbLine
 10
210.1574934449
 20
145.7586328888
 30
0.0
 11
203.4489290877
 21
145.7586328888
 31
0.0
  0
ARC
  5
172
330
1F
100
AcDbEntity
  8
0
  6
Continuous
 62
     7
370
     0
100
AcDbCircle
 10
203.0032112663
 20
144.5282162221
 30
0.0
 40
1.320416666666687
100
AcDbArc
 50
107.8907987318
 51
114.6160316349
  0
ARC
  5
173
330
1F
100
AcDbEntity
  8
0
  6
Continuous
 62
     7
370
     0
100
AcDbCircle
 10
203.0032112663
 20
144.5282162221
 30
0.0
 40
1.320416666666675
100
AcDbArc
 50
65.3839683651
 51
71.9804763341
  0
LINE
  5
174
330
1F
100
AcDbEntity
  8
0
  6
Continuous
 62
     7
370
     0
100
AcDbLine
 10
202.4532112663
 20
145.7286328888
 30
0.0
 11
202.4532112663
 21
145.6436328888
 31
0.0
  0
LINE
  5
175
330
1F
100
AcDbEntity
  8
0
  6
Continuous
 62
     7
370
     0
100
AcDbLine
 10
203.5532112663
 20
145.6436328888
 30
0.0
 11
203.5532112663
 21
145.7286328888
 31
0.0
  0
LINE
  5
176
330
1F
100
AcDbEntity
  8
0
  6
Continuous
 62
     7
370
     0
100
AcDbLine
 10
211.8032112663
 20
140.5785871632
 30
0.0
 11
211.8032112663
 21
140.7066786143
 31
0.0
  0
LINE
  5
177
330
1F
100
AcDbEntity
  8
0
  6
Continuous
 62
     7
370
     0
100
AcDbLine
 10
201.8032112663
 20
140.7066786143
 30
0.0
 11
201.8032112663
 21
140.5785871632
 31
0.0
  0
SPLINE
  5
178
330
1F
100
AcDbEntity
  8
0
  6
Continuous
 62
     7
370
     0
100
AcDbSpline
210
0.0
220
0.0
230
1.0
 70
    24
 71
     3
 72
    21
 73
    17
 74
     0
 42
0.000000001
 43
0.00000001
 40
0.0
 40
0.0
 40
0.0
 40
0.0
 40
0.0831520589546822
 40
0.1661464692126876
 40
0.2389068084956739
 40
0.3022905867879179
 40
0.3733239641070087
 40
0.4299425398150882
 40
0.4759051532528104
 40
0.5322508280383038
 40
0.6027928236257288
 40
0.687736607102492
 40
0.7613437573351541
 40
0.8440911000555081
 40
0.9369195629585857
 40
0.9999999999999999
 40
0.9999999999999999
 40
0.9999999999999999
 40
0.9999999999999999
 10
202.5832112662997
 20
135.5085444496873
 30
0.0
 10
202.5832112662995
 20
135.3735086831804
 30
0.0
 10
202.5832112662991
 20
135.1036931656262
 30
0.0
 10
202.583211266299
 20
134.7385326446197
 30
0.0
 10
202.5832112662991
 20
134.4197758899914
 30
0.0
 10
202.5832112662994
 20
134.1354280198175
 30
0.0
 10
202.5832112662996
 20
133.8901202076909
 30
0.0
 10
202.5832112662998
 20
133.6836514280994
 30
0.0
 10
202.5832112662999
 20
133.5077260412145
 30
0.0
 10
202.5832112662999
 20
133.3313683266971
 30
0.0
 10
202.5832112662999
 20
133.1393170970461
 30
0.0
 10
202.5832112662999
 20
132.9653386970545
 30
0.0
 10
202.5832112662999
 20
132.8191192887481
 30
0.0
 10
202.5832112662999
 20
132.7073840611073
 30
0.0
 10
202.5832112662999
 20
132.6353238943423
 30
0.0
 10
202.5832112662999
 20
132.620047394912
 30
0.0
 10
202.5832112662999
 20
132.6138665530173
 30
0.0
  0
SPLINE
  5
179
330
1F
100
AcDbEntity
  8
0
  6
Continuous
 62
     7
370
     0
100
AcDbSpline
210
0.0
220
0.0
230
1.0
 70
    24
 71
     3
 72
    21
 73
    17
 74
     0
 42
0.000000001
 43
0.00000001
 40
0.0
 40
0.0
 40
0.0
 40
0.0
 40
0.0630760076254456
 40
0.1559085737214851
 40
0.2386595740302855
 40
0.3122699778376682
 40
0.3972175159897006
 40
0.4677626296662363
 40
0.5241107950367139
 40
0.5700754401085465
 40
0.6266965184643453
 40
0.6977330355925451
 40
0.7611196155672089
 40
0.8338831709942766
 40
0.9168812497615821
 40
1.0
 40
1.0
 40
1.0
 40
1.0
 10
203.4232112662999
 20
132.6138692701512
 30
0.0
 10
203.4232112662999
 20
132.6200495156661
 30
0.0
 10
203.4232112662999
 20
132.6353255817927
 30
0.0
 10
203.4232112662999
 20
132.7073841959884
 30
0.0
 10
203.4232112662999
 20
132.8191192587306
 30
0.0
 10
203.4232112662999
 20
132.9653387060825
 30
0.0
 10
203.4232112662999
 20
133.1393170949183
 30
0.0
 10
203.4232112662999
 20
133.3313683271683
 30
0.0
 10
203.4232112662999
 20
133.5077260409619
 30
0.0
 10
203.4232112662998
 20
133.6836514286976
 30
0.0
 10
203.4232112662995
 20
133.8901202046568
 30
0.0
 10
203.4232112662991
 20
134.1354280335735
 30
0.0
 10
203.4232112662987
 20
134.4197758423241
 30
0.0
 10
203.4232112662986
 20
134.7385328653213
 30
0.0
 10
203.4232112662987
 20
135.103635689395
 30
0.0
 10
203.4232112662993
 20
135.3733906058275
 30
0.0
 10
203.4232112662996
 20
135.5083660424449
 30
0.0
  0
ARC
  5
17A
330
1F
100
AcDbEntity
  8
0
  6
Continuous
 62
     7
370
     0
100
AcDbCircle
 10
210.6032112663
 20
136.7570495554
 30
0.0
 40
1.320416666666687
100
AcDbArc
 50
245.3839683651
 51
270.0
  0
ARC
  5
17B
330
1F
100
AcDbEntity
  8
0
  6
Continuous
 62
     7
370
     0
100
AcDbCircle
 10
210.6032112663
 20
136.7570495554
 30
0.0
 40
1.320416666666675
100
AcDbArc
 50
270.0
 51
294.6160316349
  0
LINE
  5
17C
330
1F
100
AcDbEntity
  8
0
  6
Continuous
 62
     7
370
     0
100
AcDbLine
 10
210.0532112663
 20
135.6416328888
 30
0.0
 11
210.0532112663
 21
135.5566328888
 31
0.0
  0
LINE
  5
17D
330
1F
100
AcDbEntity
  8
0
  6
Continuous
 62
     7
370
     0
100
AcDbLine
 10
211.1532112663
 20
135.5566328888
 30
0.0
 11
211.1532112663
 21
135.6416328888
 31
0.0
  0
LINE
  5
17E
330
1F
100
AcDbEntity
  8
0
  6
Continuous
 62
     7
370
     0
100
AcDbLine
 10
203.4489290877
 20
135.5266328888
 30
0.0
 11
210.1574934449
 21
135.5266328888
 31
0.0
  0
ARC
  5
17F
330
1F
100
AcDbEntity
  8
0
  6
Continuous
 62
     7
370
     0
100
AcDbCircle
 10
203.0032112663
 20
136.7570495554
 30
0.0
 40
1.320416666666687
100
AcDbArc
 50
245.3839683651
 51
252.0974612754
  0
ARC
  5
180
330
1F
100
AcDbEntity
  8
0
  6
Continuous
 62
     7
370
     0
100
AcDbCircle
 10
203.0032112663
 20
136.7570495554
 30
0.0
 40
1.320416666666673
100
AcDbArc
 50
288.0629718822
 51
290.5901541665
  0
LINE
  5
181
330
1F
100
AcDbEntity
  8
0
  6
Continuous
 62
     7
370
     0
100
AcDbLine
 10
202.4532112663
 20
135.6416328888
 30
0.0
 11
202.4532112663
 21
135.5566328888
 31
0.0
  0
LWPOLYLINE
  5
182
330
1F
100
AcDbEntity
  8
0
  6
Continuous
 62
     7
370
     0
100
AcDbPolyline
 90
       22
 70
   128
 43
0.0
 10
203.4232112663
 20
148.6754602286
 10
203.4045518447
 20
148.7783693059
 10
203.3502315515
 20
148.87213446
 10
203.2650769831
 20
148.9484242456
 10
203.1566544965
 20
149.0004599805
 10
203.0345979056
 20
149.0236180611
 10
202.909752474
 20
149.0158407904
 10
202.7932112663
 20
148.9778192131
 10
202.6953294801
 20
148.9129317131
 10
202.6248043418
 20
148.8269438296
 10
202.5879023193
 20
148.7274959634
 10
202.5879023193
 20
148.6234244937
 10
202.6248043418
 20
148.5239766275
 10
202.6953294801
 20
148.437988744
 10
202.7932112663
 20
148.373101244
 10
202.909752474
 20
148.3350796667
 10
203.0345979056
 20
148.327302396
 10
203.1566544965
 20
148.3504604767
 10
203.2650769831
 20
148.4024962115
 10
203.3502315515
 20
148.4787859971
 10
203.4045518447
 20
148.5725511513
 10
203.4232112663
 20
148.6754602286
  0
SPLINE
  5
183
330
1F
100
AcDbEntity
  8
0
  6
Continuous
 62
     7
370
     0
100
AcDbSpline
210
0.0
220
0.0
230
1.0
 70
     8
 71
     3
 72
    18
 73
    14
 74
     0
 42
0.000000001
 43
0.00000001
 40
0.0
 40
0.0
 40
0.0
 40
0.0
 40
0.0504914488265281
 40
0.1525623107346255
 40
0.2565025077070596
 40
0.3633864208789426
 40
0.4731854480241044
 40
0.5849662426095519
 40
0.697204166019546
 40
0.8081856146989292
 40
0.9165009081321155
 40
0.9684520059374654
 40
1.0
 40
1.0
 40
1.0
 40
1.0
 10
202.5888085978778
 20
145.7767337774854
 30
0.0
 10
202.5878322581511
 20
145.7751331342709
 30
0.0
 10
202.5848822012953
 20
145.7702967147754
 30
0.0
 10
202.6280783493238
 20
145.7635470534058
 30
0.0
 10
202.7110601253015
 20
145.7571247327866
 30
0.0
 10
202.8293427049956
 20
145.7529090361255
 30
0.0
 10
202.9685819209807
 20
145.7510452371599
 30
0.0
 10
203.1142638890839
 20
145.75171432582
 30
0.0
 10
203.2477552668358
 20
145.7549967942212
 30
0.0
 10
203.3531760145532
 20
145.7607774629766
 30
0.0
 10
203.4031334322934
 20
145.7675540363304
 30
0.0
 10
203.4235752072589
 20
145.7729882823515
 30
0.0
 10
203.4197496257993
 20
145.7756735677199
 30
0.0
 10
203.4183042277899
 20
145.7766881340459
 30
0.0
  0
LINE
  5
184
330
1F
100
AcDbEntity
  8
0
  6
Continuous
 62
     7
370
     0
100
AcDbLine
 10
210.0532112663
 20
145.6436328888
 30
0.0
 11
211.1532112663
 21
145.6436328888
 31
0.0
  0
LINE
  5
185
330
1F
100
AcDbEntity
  8
0
  6
Continuous
 62
     7
370
     0
100
AcDbLine
 10
210.0532112663
 20
145.7286328888
 30
0.0
 11
211.1532112663
 21
145.7286328888
 31
0.0
  0
SPLINE
  5
186
330
1F
100
AcDbEntity
  8
0
  6
Continuous
 62
     7
370
     0
100
AcDbSpline
210
0.0
220
0.0
230
1.0
 70
     8
 71
     3
 72
    14
 73
    10
 74
     0
 42
0.000000001
 43
0.00000001
 40
0.0
 40
0.0
 40
0.0
 40
0.0
 40
0.0000404517691324
 40
0.0000404517691324
 40
0.0000404517691324
 40
0.0000809563990268
 40
0.0000809563990268
 40
0.0000809563990268
 40
0.0000940103900621
 40
0.0000940103900621
 40
0.0000940103900621
 40
0.0000940103900621
 10
203.4657217229616
 20
145.6436328887694
 30
0.0
 10
203.4657217229616
 20
145.6571168118136
 30
0.0
 10
203.4669817178884
 20
145.6707881050386
 30
0.0
 10
203.4693446973408
 20
145.68351587347
 30
0.0
 10
203.4717093617495
 20
145.6962527176187
 30
0.0
 10
203.4752438929887
 20
145.7084101483392
 30
0.0
 10
203.4795023812826
 20
145.7188771228493
 30
0.0
 10
203.480893695618
 20
145.7222968461594
 30
0.0
 10
203.4823683145789
 20
145.7255612516881
 30
0.0
 10
203.4839050383086
 20
145.7286328887698
 30
0.0
  0
SPLINE
  5
187
330
1F
100
AcDbEntity
  8
0
  6
Continuous
 62
     7
370
     0
100
AcDbSpline
210
0.0
220
0.0
230
1.0
 70
     8
 71
     3
 72
    29
 73
    25
 74
     0
 42
0.000000001
 43
0.00000001
 40
0.0
 40
0.0
 40
0.0
 40
0.0
 40
0.0000553986492001
 40
0.0000553986492001
 40
0.0000553986492001
 40
0.0000744703661974
 40
0.0000744703661974
 40
0.0000744703661974
 40
0.0000938210300502
 40
0.0000938210300502
 40
0.0000938210300502
 40
0.0001072543096207
 40
0.0001072543096207
 40
0.0001072543096207
 40
0.0001207016259448
 40
0.0001207016259448
 40
0.0001207016259448
 40
0.0001387455774115
 40
0.0001387455774115
 40
0.0001387455774115
 40
0.0001702186759782
 40
0.0001702186759782
 40
0.0001702186759782
 40
0.0002135383638979
 40
0.0002135383638979
 40
0.0002135383638979
 40
0.0002135383638979
 10
203.5368262578774
 20
145.7286328887698
 30
0.0
 10
203.5199434599831
 20
145.7359824706928
 30
0.0
 10
203.5026349388947
 20
145.7429215625901
 30
0.0
 10
203.4862738305959
 20
145.7486469472066
 30
0.0
 10
203.480589601293
 20
145.7506360788971
 30
0.0
 10
203.4749860594502
 20
145.7524865309336
 30
0.0
 10
203.4697501541107
 20
145.7540628096099
 30
0.0
 10
203.4644716426198
 20
145.7556519149443
 30
0.0
 10
203.4594542916494
 20
145.7569904709115
 30
0.0
 10
203.4554480992459
 20
145.757792349835
 30
0.0
 10
203.4526552525179
 20
145.7583513656541
 30
0.0
 10
203.4503154332837
 20
145.7586521144868
 30
0.0
 10
203.4487039491023
 20
145.7586318876041
 30
0.0
 10
203.4470905022968
 20
145.7586116360871
 30
0.0
 10
203.4461696277533
 20
145.7582697756472
 30
0.0
 10
203.4459042804598
 20
145.7576763646001
 30
0.0
 10
203.4455489147362
 20
145.7568816402847
 30
0.0
 10
203.4463167741521
 20
145.7556303055959
 30
0.0
 10
203.4477320063739
 20
145.7541550097139
 30
0.0
 10
203.4501931953938
 20
145.7515893657369
 30
0.0
 10
203.4545754876592
 20
145.7482987274656
 30
0.0
 10
203.4596154176942
 20
145.744761761774
 30
0.0
 10
203.4665677088267
 20
145.7398827227708
 30
0.0
 10
203.4749726578583
 20
145.7344054250524
 30
0.0
 10
203.4839050383084
 20
145.7286328887694
 30
0.0
  0
SPLINE
  5
188
330
1F
100
AcDbEntity
  8
0
  6
Continuous
 62
     7
370
     0
100
AcDbSpline
210
0.0
220
0.0
230
1.0
 70
     8
 71
     3
 72
    14
 73
    10
 74
     0
 42
0.000000001
 43
0.00000001
 40
0.000000000000001
 40
0.000000000000001
 40
0.000000000000001
 40
0.000000000000001
 40
0.0000389338800372
 40
0.0000389338800372
 40
0.0000389338800372
 40
0.0000777809519151
 40
0.0000777809519151
 40
0.0000777809519151
 40
0.0000939650131498
 40
0.0000939650131498
 40
0.0000939650131498
 40
0.0000939650131498
 10
203.5368262578777
 20
145.7286328887694
 30
0.0
 10
203.5390816209838
 20
145.7195905516056
 30
0.0
 10
203.5407461144566
 20
145.7087680501856
 30
0.0
 10
203.541909795634
 20
145.6971433089218
 30
0.0
 10
203.5430718313572
 20
145.6855350051321
 30
0.0
 10
203.5437746255794
 20
145.6728119158205
 30
0.0
 10
203.5440914261326
 20
145.6599705829566
 30
0.0
 10
203.5442248569282
 20
145.6545620404399
 30
0.0
 10
203.5442908737485
 20
145.6490912471371
 30
0.0
 10
203.5442908737485
 20
145.6436328887694
 30
0.0
  0
LINE
  5
189
330
1F
100
AcDbEntity
  8
0
  6
Continuous
 62
     7
370
     0
100
AcDbLine
 10
202.4532112663
 20
145.7286328888
 30
0.0
 11
203.4839050383
 21
145.7286328888
 31
0.0
  0
LINE
  5
18A
330
1F
100
AcDbEntity
  8
0
  6
Continuous
 62
     7
370
     0
100
AcDbLine
 10
202.4532112663
 20
145.6436328888
 30
0.0
 11
203.465721723
 21
145.6436328888
 31
0.0
  0
LINE
  5
18B
330
1F
100
AcDbEntity
  8
0
  6
Continuous
 62
     7
370
     0
100
AcDbLine
 10
211.8032112663
 20
145.6426328888
 30
0.0
 11
201.8032112663
 21
145.6426328888
 31
0.0
  0
LINE
  5
18C
330
1F
100
AcDbEntity
  8
0
  6
Continuous
 62
     7
370
     0
100
AcDbLine
 10
211.8032112663
 20
135.6426328888
 30
0.0
 11
211.8032112663
 21
145.6426328888
 31
0.0
  0
LINE
  5
18D
330
1F
100
AcDbEntity
  8
0
  6
Continuous
 62
     7
370
     0
100
AcDbLine
 10
201.8032112663
 20
135.6426328888
 30
0.0
 11
211.8032112663
 21
135.6426328888
 31
0.0
  0
LINE
  5
18E
330
1F
100
AcDbEntity
  8
0
  6
Continuous
 62
     7
370
     0
100
AcDbLine
 10
201.8032112663
 20
145.6426328888
 30
0.0
 11
201.8032112663
 21
135.6426328888
 31
0.0
  0
LWPOLYLINE
  5
18F
330
1F
100
AcDbEntity
  8
0
  6
Continuous
 62
     7
370
     0
100
AcDbPolyline
 90
       22
 70
   128
 43
0.0
 10
203.4232112663
 20
132.609805549
 10
203.4045518447
 20
132.5068964717
 10
203.3502315515
 20
132.4131313175
 10
203.2650769831
 20
132.3368415319
 10
203.1566544965
 20
132.2848057971
 10
203.0345979056
 20
132.2616477165
 10
202.909752474
 20
132.2694249871
 10
202.7932112663
 20
132.3074465645
 10
202.6953294801
 20
132.3723340644
 10
202.6248043418
 20
132.4583219479
 10
202.5879023193
 20
132.5577698142
 10
202.5879023193
 20
132.6618412838
 10
202.6248043418
 20
132.76128915
 10
202.6953294801
 20
132.8472770335
 10
202.7932112663
 20
132.9121645335
 10
202.909752474
 20
132.9501861108
 10
203.0345979056
 20
132.9579633815
 10
203.1566544965
 20
132.9348053009
 10
203.2650769831
 20
132.8827695661
 10
203.3502315515
 20
132.8064797804
 10
203.4045518447
 20
132.7127146263
 10
203.4232112663
 20
132.609805549
  0
SPLINE
  5
190
330
1F
100
AcDbEntity
  8
0
  6
Continuous
 62
     7
370
     0
100
AcDbSpline
210
0.0
220
0.0
230
1.0
 70
     8
 71
     3
 72
    18
 73
    14
 74
     0
 42
0.000000001
 43
0.00000001
 40
0.0
 40
0.0
 40
0.0
 40
0.0
 40
0.0504914488265281
 40
0.1525623107346255
 40
0.2565025077070596
 40
0.3633864208789426
 40
0.4731854480241044
 40
0.5849662426095519
 40
0.697204166019546
 40
0.8081856146989292
 40
0.9165009081321155
 40
0.9684520059374654
 40
1.0
 40
1.0
 40
1.0
 40
1.0
 10
202.5888085978778
 20
135.5085320000534
 30
0.0
 10
202.5878322581511
 20
135.5101326432679
 30
0.0
 10
202.5848822012953
 20
135.5149690627634
 30
0.0
 10
202.6280783493238
 20
135.5217187241331
 30
0.0
 10
202.7110601253015
 20
135.5281410447522
 30
0.0
 10
202.8293427049956
 20
135.5323567414133
 30
0.0
 10
202.9685819209807
 20
135.534220540379
 30
0.0
 10
203.1142638890839
 20
135.5335514517188
 30
0.0
 10
203.2477552668358
 20
135.5302689833176
 30
0.0
 10
203.3531760145532
 20
135.5244883145623
 30
0.0
 10
203.4031334322934
 20
135.5177117412084
 30
0.0
 10
203.4235752072589
 20
135.5122774951873
 30
0.0
 10
203.4197496257993
 20
135.5095922098189
 30
0.0
 10
203.4183042277899
 20
135.508577643493
 30
0.0
  0
LINE
  5
191
330
1F
100
AcDbEntity
  8
0
  6
Continuous
 62
     7
370
     0
100
AcDbLine
 10
210.0532112663
 20
135.5566328888
 30
0.0
 11
211.1532112663
 21
135.5566328888
 31
0.0
  0
LINE
  5
192
330
1F
100
AcDbEntity
  8
0
  6
Continuous
 62
     7
370
     0
100
AcDbLine
 10
210.0532112663
 20
135.6416328888
 30
0.0
 11
211.1532112663
 21
135.6416328888
 31
0.0
  0
LINE
  5
193
330
1F
100
AcDbEntity
  8
0
  6
Continuous
 62
     7
370
     0
100
AcDbLine
 10
210.6032112663
 20
135.6416328888
 30
0.0
 11
210.6032112663
 21
135.6426328888
 31
0.0
  0
SPLINE
  5
194
330
1F
100
AcDbEntity
  8
0
  6
Continuous
 62
     7
370
     0
100
AcDbSpline
210
0.0
220
0.0
230
1.0
 70
     8
 71
     3
 72
    12
 73
     8
 74
     0
 42
0.000000001
 43
0.00000001
 40
0.0
 40
0.0
 40
0.0
 40
0.0
 40
0.0042003888528228
 40
0.1305536073105058
 40
0.2997718507778309
 40
0.5940543553554362
 40
0.9999999999999999
 40
0.9999999999999999
 40
0.9999999999999999
 40
0.9999999999999999
 10
203.4489284194729
 20
135.5266618328705
 30
0.0
 10
203.4488529649171
 20
135.5266522242583
 30
0.0
 10
203.4465077381332
 20
135.5263535759617
 30
0.0
 10
203.4453224351861
 20
135.5276262823422
 30
0.0
 10
203.4474931946496
 20
135.5317152839484
 30
0.0
 10
203.4605311708696
 20
135.5414361550474
 30
0.0
 10
203.4753272544756
 20
135.5510559641473
 30
0.0
 10
203.4839050383084
 20
135.5566328887694
 30
0.0
  0
SPLINE
  5
195
330
1F
100
AcDbEntity
  8
0
  6
Continuous
 62
     7
370
     0
100
AcDbSpline
210
0.0
220
0.0
230
1.0
 70
     8
 71
     3
 72
    14
 73
    10
 74
     0
 42
0.000000001
 43
0.00000001
 40
0.0
 40
0.0
 40
0.0
 40
0.0
 40
0.0000404517691324
 40
0.0000404517691324
 40
0.0000404517691324
 40
0.0000809563990268
 40
0.0000809563990268
 40
0.0000809563990268
 40
0.0000940103900621
 40
0.0000940103900621
 40
0.0000940103900621
 40
0.0000940103900621
 10
203.4657217229616
 20
135.6416328887694
 30
0.0
 10
203.4657217229616
 20
135.6281489657253
 30
0.0
 10
203.4669817178884
 20
135.6144776725002
 30
0.0
 10
203.4693446973408
 20
135.6017499040688
 30
0.0
 10
203.4717093617495
 20
135.5890130599201
 30
0.0
 10
203.4752438929887
 20
135.5768556291997
 30
0.0
 10
203.4795023812826
 20
135.5663886546895
 30
0.0
 10
203.480893695618
 20
135.5629689313794
 30
0.0
 10
203.4823683145789
 20
135.5597045258507
 30
0.0
 10
203.4839050383086
 20
135.556632888769
 30
0.0
  0
LINE
  5
196
330
1F
100
AcDbEntity
  8
0
  6
Continuous
 62
     7
370
     0
100
AcDbLine
 10
202.4532112663
 20
135.5566328888
 30
0.0
 11
203.4839050383
 21
135.5566328888
 31
0.0
  0
LINE
  5
197
330
1F
100
AcDbEntity
  8
0
  6
Continuous
 62
     7
370
     0
100
AcDbLine
 10
202.4532112663
 20
135.6416328888
 30
0.0
 11
203.465721723
 21
135.6416328888
 31
0.0
  0
DIMENSION
  5
198
330
1F
100
AcDbEntity
  8
0
  6
Continuous
 62
     7
370
     0
100
AcDbDimension
  2
_D
 10
211.8032112663
 20
121.3536118613
 30
0.0
 11
229.8284817923
 21
121.3536118613
 31
0.0
 70
   160
  1
<>
 71
     2
 42
-1.0
  3
SLDDIMSTYLE1
100
AcDbAlignedDimension
 13
201.8032112663
 23
135.6426328888
 33
0.0
 14
211.8032112663
 24
135.6426328888
 34
0.0
100
AcDbRotatedDimension
  0
LINE
  5
1AD
330
1F
100
AcDbEntity
  8
0
  6
Continuous
 62
     7
370
     0
100
AcDbLine
 10
23.4602082824
 20
145.6436328888
 30
0.0
 11
23.4602082824
 21
145.7286328888
 31
0.0
  0
LINE
  5
1AE
330
1F
100
AcDbEntity
  8
0
  6
Continuous
 62
     7
370
     0
100
AcDbLine
 10
22.3602082824
 20
145.7286328888
 30
0.0
 11
22.3602082824
 21
145.6436328888
 31
0.0
  0
ARC
  5
1AF
330
1F
100
AcDbEntity
  8
0
  6
Continuous
 62
     7
370
     0
100
AcDbCircle
 10
22.9102082824
 20
144.5282162221
 30
0.0
 40
1.320416666666688
100
AcDbArc
 50
65.3839683651
 51
90.0
  0
ARC
  5
1B0
330
1F
100
AcDbEntity
  8
0
  6
Continuous
 62
     7
370
     0
100
AcDbCircle
 10
22.9102082824
 20
144.5282162221
 30
0.0
 40
1.320416666666688
100
AcDbArc
 50
90.0
 51
114.6160316349
  0
LINE
  5
1B1
330
1F
100
AcDbEntity
  8
0
  6
Continuous
 62
     7
370
     0
100
AcDbLine
 10
22.455013995
 20
145.7586328888
 30
0.0
 11
15.7654025698
 21
145.7586328888
 31
0.0
  0
ARC
  5
1B2
330
1F
100
AcDbEntity
  8
0
  6
Continuous
 62
     7
370
     0
100
AcDbCircle
 10
15.3102082824
 20
144.5282162221
 30
0.0
 40
1.320416666666688
100
AcDbArc
 50
65.3839683651
 51
90.0
  0
ARC
  5
1B3
330
1F
100
AcDbEntity
  8
0
  6
Continuous
 62
     7
370
     0
100
AcDbCircle
 10
15.3102082824
 20
144.5282162221
 30
0.0
 40
1.320416666666688
100
AcDbArc
 50
90.0
 51
114.6160316349
  0
LINE
  5
1B4
330
1F
100
AcDbEntity
  8
0
  6
Continuous
 62
     7
370
     0
100
AcDbLine
 10
14.7602082824
 20
145.7286328888
 30
0.0
 11
14.7602082824
 21
145.6436328888
 31
0.0
  0
LINE
  5
1B5
330
1F
100
AcDbEntity
  8
0
  6
Continuous
 62
     7
370
     0
100
AcDbLine
 10
15.8602082824
 20
145.6436328888
 30
0.0
 11
15.8602082824
 21
145.7286328888
 31
0.0
  0
SPLINE
  5
1B6
330
1F
100
AcDbEntity
  8
0
  6
Continuous
 62
     7
370
     0
100
AcDbSpline
210
0.0
220
0.0
230
1.0
 70
    24
 71
     3
 72
    21
 73
    17
 74
     0
 42
0.000000001
 43
0.00000001
 40
0.0
 40
0.0
 40
0.0
 40
0.0
 40
0.0831520589546822
 40
0.1661464692126876
 40
0.2389068084956739
 40
0.3022905867879179
 40
0.3733239641070087
 40
0.4299425398150882
 40
0.4759051532528104
 40
0.5322508280383038
 40
0.6027928236257288
 40
0.687736607102492
 40
0.7613437573351541
 40
0.8440911000555081
 40
0.9369195629585857
 40
0.9999999999999999
 40
0.9999999999999999
 40
0.9999999999999999
 40
0.9999999999999999
 10
23.33020828242607
 20
145.7767213278515
 30
0.0
 10
23.33020828242628
 20
145.9117570943584
 30
0.0
 10
23.33020828242669
 20
146.1815726119126
 30
0.0
 10
23.33020828242677
 20
146.5467331329192
 30
0.0
 10
23.33020828242665
 20
146.8654898875474
 30
0.0
 10
23.33020828242641
 20
147.1498377577213
 30
0.0
 10
23.33020828242615
 20
147.395145569848
 30
0.0
 10
23.33020828242595
 20
147.6016143494394
 30
0.0
 10
23.33020828242583
 20
147.7775397363243
 30
0.0
 10
23.33020828242584
 20
147.9538974508417
 30
0.0
 10
23.33020828242584
 20
148.1459486804927
 30
0.0
 10
23.33020828242584
 20
148.3199270804843
 30
0.0
 10
23.33020828242584
 20
148.4661464887907
 30
0.0
 10
23.33020828242584
 20
148.5778817164315
 30
0.0
 10
23.33020828242584
 20
148.6499418831966
 30
0.0
 10
23.33020828242584
 20
148.6652183826268
 30
0.0
 10
23.33020828242584
 20
148.6713992245215
 30
0.0
  0
SPLINE
  5
1B7
330
1F
100
AcDbEntity
  8
0
  6
Continuous
 62
     7
370
     0
100
AcDbSpline
210
0.0
220
0.0
230
1.0
 70
    24
 71
     3
 72
    21
 73
    17
 74
     0
 42
0.000000001
 43
0.00000001
 40
0.0
 40
0.0
 40
0.0
 40
0.0
 40
0.0630760076254456
 40
0.1559085737214851
 40
0.2386595740302855
 40
0.3122699778376682
 40
0.3972175159897006
 40
0.4677626296662363
 40
0.5241107950367139
 40
0.5700754401085465
 40
0.6266965184643453
 40
0.6977330355925451
 40
0.7611196155672089
 40
0.8338831709942766
 40
0.9168812497615821
 40
1.0
 40
1.0
 40
1.0
 40
1.0
 10
22.49020828242584
 20
148.6713965073876
 30
0.0
 10
22.49020828242584
 20
148.6652162618727
 30
0.0
 10
22.49020828242584
 20
148.6499401957461
 30
0.0
 10
22.49020828242584
 20
148.5778815815504
 30
0.0
 10
22.49020828242584
 20
148.4661465188082
 30
0.0
 10
22.49020828242584
 20
148.3199270714563
 30
0.0
 10
22.49020828242584
 20
148.1459486826205
 30
0.0
 10
22.49020828242585
 20
147.9538974503705
 30
0.0
 10
22.49020828242583
 20
147.7775397365769
 30
0.0
 10
22.490208282426
 20
147.6016143488413
 30
0.0
 10
22.49020828242631
 20
147.3951455728821
 30
0.0
 10
22.4902082824267
 20
147.1498377439653
 30
0.0
 10
22.49020828242706
 20
146.8654899352147
 30
0.0
 10
22.49020828242724
 20
146.5467329122175
 30
0.0
 10
22.49020828242712
 20
146.1816300881439
 30
0.0
 10
22.4902082824265
 20
145.9118751717113
 30
0.0
 10
22.49020828242618
 20
145.7768997350939
 30
0.0
  0
CIRCLE
  5
1B8
330
1F
100
AcDbEntity
  8
0
  6
Continuous
 62
     7
370
     0
100
AcDbCircle
 10
19.1102082824
 20
140.6426328888
 30
0.0
 40
5.000410168672602
  0
LINE
  5
1B9
330
1F
100
AcDbEntity
  8
0
  6
Continuous
 62
     7
370
     0
100
AcDbLine
 10
22.3602082824
 20
135.6416328888
 30
0.0
 11
22.3602082824
 21
135.5566328888
 31
0.0
  0
LINE
  5
1BA
330
1F
100
AcDbEntity
  8
0
  6
Continuous
 62
     7
370
     0
100
AcDbLine
 10
23.4602082824
 20
135.5566328888
 30
0.0
 11
23.4602082824
 21
135.6416328888
 31
0.0
  0
ARC
  5
1BB
330
1F
100
AcDbEntity
  8
0
  6
Continuous
 62
     7
370
     0
100
AcDbCircle
 10
22.9102082824
 20
136.7570495554
 30
0.0
 40
1.320416666666682
100
AcDbArc
 50
245.3839683651
 51
294.6160316349
  0
LINE
  5
1BC
330
1F
100
AcDbEntity
  8
0
  6
Continuous
 62
     7
370
     0
100
AcDbLine
 10
15.7654025698
 20
135.5266328888
 30
0.0
 11
22.455013995
 21
135.5266328888
 31
0.0
  0
ARC
  5
1BD
330
1F
100
AcDbEntity
  8
0
  6
Continuous
 62
     7
370
     0
100
AcDbCircle
 10
15.3102082824
 20
136.7570495554
 30
0.0
 40
1.320416666666682
100
AcDbArc
 50
245.3839683651
 51
294.6160316349
  0
LINE
  5
1BE
330
1F
100
AcDbEntity
  8
0
  6
Continuous
 62
     7
370
     0
100
AcDbLine
 10
14.7602082824
 20
135.6416328888
 30
0.0
 11
14.7602082824
 21
135.5566328888
 31
0.0
  0
LINE
  5
1BF
330
1F
100
AcDbEntity
  8
0
  6
Continuous
 62
     7
370
     0
100
AcDbLine
 10
15.8602082824
 20
135.5566328888
 30
0.0
 11
15.8602082824
 21
135.6416328888
 31
0.0
  0
SPLINE
  5
1C0
330
1F
100
AcDbEntity
  8
0
  6
Continuous
 62
     7
370
     0
100
AcDbSpline
210
0.0
220
0.0
230
1.0
 70
    24
 71
     3
 72
    21
 73
    17
 74
     0
 42
0.000000001
 43
0.00000001
 40
0.0
 40
0.0
 40
0.0
 40
0.0
 40
0.0831181503173537
 40
0.1661156300345582
 40
0.2388786602806112
 40
0.3022647827538759
 40
0.3733007871661985
 40
0.4299214568515412
 40
0.4758857701671972
 40
0.5322335288370058
 40
0.6027781333444366
 40
0.6877250583758755
 40
0.7613349308899982
 40
0.8440853339320205
 40
0.9369172299961879
 40
1.0
 40
1.0
 40
1.0
 40
1.0
 10
22.49020828242618
 20
135.5083660424449
 30
0.0
 10
22.4902082824265
 20
135.3733906058275
 30
0.0
 10
22.49020828242712
 20
135.103635689395
 30
0.0
 10
22.49020828242723
 20
134.7385328653211
 30
0.0
 10
22.49020828242706
 20
134.4197758423248
 30
0.0
 10
22.49020828242669
 20
134.1354280335712
 30
0.0
 10
22.49020828242631
 20
133.8901202046657
 30
0.0
 10
22.490208282426
 20
133.6836514286737
 30
0.0
 10
22.49020828242583
 20
133.5077260410395
 30
0.0
 10
22.49020828242585
 20
133.3313683267619
 30
0.0
 10
22.49020828242584
 20
133.1393170970228
 30
0.0
 10
22.49020828242584
 20
132.9653386970602
 30
0.0
 10
22.49020828242584
 20
132.8191192887465
 30
0.0
 10
22.49020828242584
 20
132.7073840611079
 30
0.0
 10
22.49020828242584
 20
132.6353238943422
 30
0.0
 10
22.49020828242584
 20
132.6200473949119
 30
0.0
 10
22.49020828242584
 20
132.6138665530173
 30
0.0
  0
SPLINE
  5
1C1
330
1F
100
AcDbEntity
  8
0
  6
Continuous
 62
     7
370
     0
100
AcDbSpline
210
0.0
220
0.0
230
1.0
 70
    24
 71
     3
 72
    21
 73
    17
 74
     0
 42
0.000000001
 43
0.00000001
 40
0.0
 40
0.0
 40
0.0
 40
0.0
 40
0.0630736748963961
 40
0.1559028077817782
 40
0.2386507477247258
 40
0.3122584292113439
 40
0.3972028257633433
 40
0.4677453304822061
 40
0.5240914119382813
 40
0.5700543571076374
 40
0.6266733414559404
 40
0.6977072314529789
 40
0.7610914672127769
 40
0.8338523316379262
 40
0.9168473409017162
 40
1.0
 40
1.0
 40
1.0
 40
1.0
 10
23.33020828242584
 20
132.6138692701512
 30
0.0
 10
23.33020828242584
 20
132.6200495156662
 30
0.0
 10
23.33020828242584
 20
132.6353255817928
 30
0.0
 10
23.33020828242584
 20
132.7073841959879
 30
0.0
 10
23.33020828242584
 20
132.8191192587323
 30
0.0
 10
23.33020828242584
 20
132.9653387060767
 30
0.0
 10
23.33020828242584
 20
133.1393170949417
 30
0.0
 10
23.33020828242585
 20
133.3313683271035
 30
0.0
 10
23.33020828242583
 20
133.5077260411368
 30
0.0
 10
23.33020828242595
 20
133.6836514281233
 30
0.0
 10
23.33020828242615
 20
133.8901202076819
 30
0.0
 10
23.33020828242641
 20
134.1354280198198
 30
0.0
 10
23.33020828242665
 20
134.4197758899907
 30
0.0
 10
23.33020828242677
 20
134.7385326446199
 30
0.0
 10
23.33020828242669
 20
135.1036931656261
 30
0.0
 10
23.33020828242628
 20
135.3735086831804
 30
0.0
 10
23.33020828242607
 20
135.5085444496873
 30
0.0
  0
LINE
  5
1C2
330
1F
100
AcDbEntity
  8
0
  6
Continuous
 62
     7
370
     0
100
AcDbLine
 10
24.1102082824
 20
145.6426328888
 30
0.0
 11
19.174254008
 21
145.6426328888
 31
0.0
  0
LINE
  5
1C3
330
1F
100
AcDbEntity
  8
0
  6
Continuous
 62
     7
370
     0
100
AcDbLine
 10
19.0461625568
 20
145.6426328888
 30
0.0
 11
14.1102082824
 21
145.6426328888
 31
0.0
  0
LINE
  5
1C4
330
1F
100
AcDbEntity
  8
0
  6
Continuous
 62
     7
370
     0
100
AcDbLine
 10
24.1102082824
 20
135.6426328888
 30
0.0
 11
24.1102082824
 21
140.5785871632
 31
0.0
  0
LINE
  5
1C5
330
1F
100
AcDbEntity
  8
0
  6
Continuous
 62
     7
370
     0
100
AcDbLine
 10
24.1102082824
 20
140.7066786143
 30
0.0
 11
24.1102082824
 21
145.6426328888
 31
0.0
  0
LINE
  5
1C6
330
1F
100
AcDbEntity
  8
0
  6
Continuous
 62
     7
370
     0
100
AcDbLine
 10
14.1102082824
 20
145.6426328888
 30
0.0
 11
14.1102082824
 21
140.7066786143
 31
0.0
  0
LINE
  5
1C7
330
1F
100
AcDbEntity
  8
0
  6
Continuous
 62
     7
370
     0
100
AcDbLine
 10
14.1102082824
 20
140.5785871632
 30
0.0
 11
14.1102082824
 21
135.6426328888
 31
0.0
  0
LINE
  5
1C8
330
1F
100
AcDbEntity
  8
0
  6
Continuous
 62
     7
370
     0
100
AcDbLine
 10
22.3602082824
 20
145.6436328888
 30
0.0
 11
23.4602082824
 21
145.6436328888
 31
0.0
  0
LINE
  5
1C9
330
1F
100
AcDbEntity
  8
0
  6
Continuous
 62
     7
370
     0
100
AcDbLine
 10
22.3602082824
 20
145.7286328888
 30
0.0
 11
23.4602082824
 21
145.7286328888
 31
0.0
  0
SPLINE
  5
1CA
330
1F
100
AcDbEntity
  8
0
  6
Continuous
 62
     7
370
     0
100
AcDbSpline
210
0.0
220
0.0
230
1.0
 70
     8
 71
     3
 72
    14
 73
    10
 74
     0
 42
0.000000001
 43
0.00000001
 40
0.0
 40
0.0
 40
0.0
 40
0.0
 40
0.0000404517691324
 40
0.0000404517691324
 40
0.0000404517691324
 40
0.0000809563990268
 40
0.0000809563990268
 40
0.0000809563990268
 40
0.0000940103900615
 40
0.0000940103900615
 40
0.0000940103900615
 40
0.0000940103900615
 10
15.78923664238414
 20
145.6436328887694
 30
0.0
 10
15.78923664238414
 20
145.6571168118136
 30
0.0
 10
15.79038211302624
 20
145.6707881050386
 30
0.0
 10
15.79252178385205
 20
145.68351587347
 30
0.0
 10
15.79466298040074
 20
145.6962527176187
 30
0.0
 10
15.79785823919951
 20
145.7084101483392
 30
0.0
 10
15.80168088264771
 20
145.7188771228493
 30
0.0
 10
15.80292979969563
 20
145.7222968461594
 30
0.0
 10
15.80425103690181
 20
145.725561251688
 30
0.0
 10
15.80562451336021
 20
145.7286328887698
 30
0.0
  0
SPLINE
  5
1CB
330
1F
100
AcDbEntity
  8
0
  6
Continuous
 62
     7
370
     0
100
AcDbSpline
210
0.0
220
0.0
230
1.0
 70
     8
 71
     3
 72
    29
 73
    25
 74
     0
 42
0.000000001
 43
0.00000001
 40
0.0000000000000006
 40
0.0000000000000006
 40
0.0000000000000006
 40
0.0000000000000006
 40
0.0000553986492
 40
0.0000553986492
 40
0.0000553986492
 40
0.0000744703661974
 40
0.0000744703661974
 40
0.0000744703661974
 40
0.0000938210300502
 40
0.0000938210300502
 40
0.0000938210300502
 40
0.0001072543096207
 40
0.0001072543096207
 40
0.0001072543096207
 40
0.0001207016259448
 40
0.0001207016259448
 40
0.0001207016259448
 40
0.0001387455774114
 40
0.0001387455774114
 40
0.0001387455774114
 40
0.0001702186759782
 40
0.0001702186759782
 40
0.0001702186759782
 40
0.0002135383638984
 40
0.0002135383638984
 40
0.0002135383638984
 40
0.0002135383638984
 10
15.85066616882684
 20
145.7286328887698
 30
0.0
 10
15.83389320556496
 20
145.7359824706928
 30
0.0
 10
15.81678019567589
 20
145.7429215625901
 30
0.0
 10
15.80081681711551
 20
145.7486469472066
 30
0.0
 10
15.79527076836807
 20
145.7506360788971
 30
0.0
 10
15.78983265908388
 20
145.7524865309336
 30
0.0
 10
15.78480065492546
 20
145.7540628096099
 30
0.0
 10
15.77972770382144
 20
145.7556519149443
 30
0.0
 10
15.77496146256166
 20
145.7569904709115
 30
0.0
 10
15.77125348145175
 20
145.757792349835
 30
0.0
 10
15.7686685274937
 20
145.7583513656541
 30
0.0
 10
15.76656452738896
 20
145.7586521144868
 30
0.0
 10
15.76520053658578
 20
145.7586318876041
 30
0.0
 10
15.76383488458033
 20
145.7586116360871
 30
0.0
 10
15.76317902762465
 20
145.7582697756472
 30
0.0
 10
15.7631737954158
 20
145.7576763646001
 30
0.0
 10
15.76316678819271
 20
145.7568816402847
 30
0.0
 10
15.76428360064097
 20
145.7556303055959
 30
0.0
 10
15.76602716005986
 20
145.7541550097139
 30
0.0
 10
15.76905933331824
 20
145.7515893657369
 30
0.0
 10
15.77397186788825
 20
145.7482987274656
 30
0.0
 10
15.77949866844659
 20
145.744761761774
 30
0.0
 10
15.78712256922417
 20
145.7398827227708
 30
0.0
 10
15.79613402781981
 20
145.7344054250524
 30
0.0
 10
15.80562451336006
 20
145.7286328887694
 30
0.0
  0
SPLINE
  5
1CC
330
1F
100
AcDbEntity
  8
0
  6
Continuous
 62
     7
370
     0
100
AcDbSpline
210
0.0
220
0.0
230
1.0
 70
     8
 71
     3
 72
    14
 73
    10
 74
     0
 42
0.000000001
 43
0.00000001
 40
0.0
 40
0.0
 40
0.0
 40
0.0
 40
0.0000389338800372
 40
0.0000389338800372
 40
0.0000389338800372
 40
0.0000777809519151
 40
0.0000777809519151
 40
0.0000777809519151
 40
0.0000939650131496
 40
0.0000939650131496
 40
0.0000939650131496
 40
0.0000939650131496
 10
15.85066616882701
 20
145.7286328887694
 30
0.0
 10
15.85239273160961
 20
145.7195905516056
 30
0.0
 10
15.85361023530516
 20
145.7087680501856
 30
0.0
 10
15.85444345799696
 20
145.6971433089218
 30
0.0
 10
15.85527550250543
 20
145.6855350051321
 30
0.0
 10
15.85575515016382
 20
145.6728119158205
 30
0.0
 10
15.85597156008578
 20
145.6599705829566
 30
0.0
 10
15.85606270812129
 20
145.65456204044
 30
0.0
 10
15.85610744862943
 20
145.6490912471372
 30
0.0
 10
15.85610744862944
 20
145.6436328887696
 30
0.0
  0
LINE
  5
1CD
330
1F
100
AcDbEntity
  8
0
  6
Continuous
 62
     7
370
     0
100
AcDbLine
 10
14.7602082824
 20
145.7286328888
 30
0.0
 11
15.8056245134
 21
145.7286328888
 31
0.0
  0
LINE
  5
1CE
330
1F
100
AcDbEntity
  8
0
  6
Continuous
 62
     7
370
     0
100
AcDbLine
 10
14.7602082824
 20
145.6436328888
 30
0.0
 11
15.7892366424
 21
145.6436328888
 31
0.0
  0
SPLINE
  5
1CF
330
1F
100
AcDbEntity
  8
0
  6
Continuous
 62
     7
370
     0
100
AcDbSpline
210
0.0
220
0.0
230
1.0
 70
     8
 71
     3
 72
    18
 73
    14
 74
     0
 42
0.000000001
 43
0.00000001
 40
0.0
 40
0.0
 40
0.0
 40
0.0
 40
0.1250000000000003
 40
0.1250000000000003
 40
0.2500000000000006
 40
0.2500000000000006
 40
0.5000000000000004
 40
0.5000000000000004
 40
0.7500000000000002
 40
0.7500000000000002
 40
0.8750000000000001
 40
0.8750000000000001
 40
1.0
 40
1.0
 40
1.0
 40
1.0
 10
22.49020828242584
 20
148.6754602285586
 30
0.0
 10
22.49020828242584
 20
148.7258308819999
 30
0.0
 10
22.50390374518255
 20
148.7762705514464
 30
0.0
 10
22.55221869130845
 20
148.8643507327136
 30
0.0
 10
22.58668379453884
 20
148.9026447218467
 30
0.0
 10
22.70714761956423
 20
148.9941799317256
 30
0.0
 10
22.80881333294319
 20
149.0246547116566
 30
0.0
 10
23.01220429494824
 20
149.0245337311343
 30
0.0
 10
23.11311431793595
 20
148.994119919399
 30
0.0
 10
23.2331345622339
 20
148.9031872798463
 30
0.0
 10
23.26763829252819
 20
148.8652200337368
 30
0.0
 10
23.31662817461773
 20
148.7762097297707
 30
0.0
 10
23.33020828242585
 20
148.7258308819999
 30
0.0
 10
23.33020828242584
 20
148.6754602285586
 30
0.0
  0
LINE
  5
1D0
330
1F
100
AcDbEntity
  8
0
  6
Continuous
 62
     7
370
     0
100
AcDbLine
 10
22.3602082824
 20
135.6416328888
 30
0.0
 11
23.4602082824
 21
135.6416328888
 31
0.0
  0
LINE
  5
1D1
330
1F
100
AcDbEntity
  8
0
  6
Continuous
 62
     7
370
     0
100
AcDbLine
 10
22.3602082824
 20
135.5566328888
 30
0.0
 11
23.4602082824
 21
135.5566328888
 31
0.0
  0
LWPOLYLINE
  5
1D2
330
1F
100
AcDbEntity
  8
0
  6
Continuous
 62
     7
370
     0
100
AcDbPolyline
 90
        9
 70
   128
 43
0.0
 10
22.9035238756
 20
135.6416328888
 10
22.9035238795
 20
135.6417578903
 10
22.9035238914
 20
135.6418828917
 10
22.9035239111
 20
135.6420078928
 10
22.9035239387
 20
135.6421328935
 10
22.9035239743
 20
135.6422578936
 10
22.9035240177
 20
135.6423828929
 10
22.9035240691
 20
135.6425078914
 10
22.9035241283
 20
135.6426328888
  0
ARC
  5
1D3
330
1F
100
AcDbEntity
  8
0
  6
Continuous
 62
     7
370
     0
100
AcDbCircle
 10
22.2825100176
 20
135.6421328888
 30
0.0
 40
0.6343828686955578
100
AcDbArc
 50
359.9548413204
 51
0.0451586796
  0
LINE
  5
1D4
330
1F
100
AcDbEntity
  8
0
  6
Continuous
 62
     7
370
     0
100
AcDbLine
 10
14.7602082824
 20
135.5566328888
 30
0.0
 11
15.8056245134
 21
135.5566328888
 31
0.0
  0
LINE
  5
1D5
330
1F
100
AcDbEntity
  8
0
  6
Continuous
 62
     7
370
     0
100
AcDbLine
 10
15.8506661688
 20
135.5566328888
 30
0.0
 11
15.8602082824
 21
135.5566328888
 31
0.0
  0
SPLINE
  5
1D6
330
1F
100
AcDbEntity
  8
0
  6
Continuous
 62
     7
370
     0
100
AcDbSpline
210
0.0
220
0.0
230
1.0
 70
     8
 71
     3
 72
    10
 73
     6
 74
     0
 42
0.000000001
 43
0.00000001
 40
0.0
 40
0.0
 40
0.0
 40
0.0
 40
0.1483987274661201
 40
0.5062983001437453
 40
1.0
 40
1.0
 40
1.0
 40
1.0
 10
15.76659384534306
 20
135.5285715728269
 30
0.0
 10
15.76973734850822
 20
135.5293570065307
 30
0.0
 10
15.7804621730144
 20
135.5320367043683
 30
0.0
 10
15.80761544760822
 20
135.5415342293237
 30
0.0
 10
15.83044910600354
 20
135.5510919556214
 30
0.0
 10
15.84368654038426
 20
135.5566328887694
 30
0.0
  0
LINE
  5
1D7
330
1F
100
AcDbEntity
  8
0
  6
Continuous
 62
     7
370
     0
100
AcDbLine
 10
14.7602082824
 20
135.6416328888
 30
0.0
 11
15.7892366424
 21
135.6416328888
 31
0.0
  0
LINE
  5
1D8
330
1F
100
AcDbEntity
  8
0
  6
Continuous
 62
     7
370
     0
100
AcDbLine
 10
15.8561074486
 20
135.6416328888
 30
0.0
 11
15.8602082824
 21
135.6416328888
 31
0.0
  0
SPLINE
  5
1D9
330
1F
100
AcDbEntity
  8
0
  6
Continuous
 62
     7
370
     0
100
AcDbSpline
210
0.0
220
0.0
230
1.0
 70
     8
 71
     3
 72
    18
 73
    14
 74
     0
 42
0.000000001
 43
0.00000001
 40
0.0
 40
0.0
 40
0.0
 40
0.0
 40
0.1250000000000003
 40
0.1250000000000003
 40
0.2500000000000006
 40
0.2500000000000006
 40
0.5000000000000004
 40
0.5000000000000004
 40
0.7500000000000002
 40
0.7500000000000002
 40
0.8750000000000001
 40
0.8750000000000001
 40
1.0
 40
1.0
 40
1.0
 40
1.0
 10
22.49020828242584
 20
132.6098055489802
 30
0.0
 10
22.49020828242584
 20
132.5594348955389
 30
0.0
 10
22.50390374518255
 20
132.5089952260925
 30
0.0
 10
22.55221869130845
 20
132.4209150448253
 30
0.0
 10
22.58668379453884
 20
132.3826210556921
 30
0.0
 10
22.70714761956423
 20
132.2910858458133
 30
0.0
 10
22.80881333294319
 20
132.2606110658822
 30
0.0
 10
23.01220429494824
 20
132.2607320464045
 30
0.0
 10
23.11311431793595
 20
132.2911458581399
 30
0.0
 10
23.2331345622339
 20
132.3820784976925
 30
0.0
 10
23.26763829252819
 20
132.420045743802
 30
0.0
 10
23.31662817461773
 20
132.5090560477681
 30
0.0
 10
23.33020828242585
 20
132.5594348955389
 30
0.0
 10
23.33020828242584
 20
132.6098055489802
 30
0.0
  0
DIMENSION
  5
1DA
330
1F
100
AcDbEntity
  8
0
  6
Continuous
 62
     7
370
     0
100
AcDbDimension
  2
_D_1
 10
42.3471857091
 20
135.6426328888
 30
0.0
 11
42.3471857091
 21
160.8138616108
 31
0.0
 70
   160
  1
<>
 71
     2
 42
-1.0
  3
SLDDIMSTYLE1
100
AcDbAlignedDimension
 13
24.1102082824
 23
145.6426328888
 33
0.0
 14
24.1102082824
 24
135.6426328888
 34
0.0
 50
90.0
100
AcDbRotatedDimension
  0
LINE
  5
1EF
330
1F
100
AcDbEntity
  8
0
  6
Continuous
 62
     7
370
     0
100
AcDbLine
 10
84.5510673131
 20
180.2501000647
 30
0.0
 11
159.5510673131
 21
180.2501000647
 31
0.0
  0
LINE
  5
1F0
330
1F
100
AcDbEntity
  8
0
  6
Continuous
 62
     7
370
     0
100
AcDbLine
 10
83.9552756328
 20
180.2501000647
 30
0.0
 11
84.5510673131
 21
180.2501000647
 31
0.0
  0
LINE
  5
1F1
330
1F
100
AcDbEntity
  8
0
  6
Continuous
 62
     7
370
     0
100
AcDbLine
 10
84.5510673131
 20
181.0901000647
 30
0.0
 11
83.9552756328
 21
181.0901000647
 31
0.0
  0
LINE
  5
1F2
330
1F
100
AcDbEntity
  8
0
  6
Continuous
 62
     7
370
     0
100
AcDbLine
 10
159.5510673131
 20
181.0901000647
 30
0.0
 11
84.5510673131
 21
181.0901000647
 31
0.0
  0
SPLINE
  5
1F3
330
1F
100
AcDbEntity
  8
0
  6
Continuous
 62
     7
370
     0
100
AcDbSpline
210
0.0
220
0.0
230
1.0
 70
    24
 71
     3
 72
    21
 73
    17
 74
     0
 42
0.000000001
 43
0.00000001
 40
0.0
 40
0.0
 40
0.0
 40
0.0
 40
0.0831520589546822
 40
0.1661464692126876
 40
0.2389068084956739
 40
0.3022905867879179
 40
0.3733239641070087
 40
0.4299425398150882
 40
0.4759051532528104
 40
0.5322508280383038
 40
0.6027928236257288
 40
0.687736607102492
 40
0.7613437573351541
 40
0.8440911000555081
 40
0.9369195629585857
 40
0.9999999999999999
 40
0.9999999999999999
 40
0.9999999999999999
 40
0.9999999999999999
 10
79.58711055887491
 20
180.2501000647157
 30
0.0
 10
79.68298227675153
 20
180.2501000647155
 30
0.0
 10
79.87454394849844
 20
180.2501000647151
 30
0.0
 10
80.18009946884813
 20
180.250100064715
 30
0.0
 10
80.47829383731025
 20
180.2501000647151
 30
0.0
 10
80.77741231373211
 20
180.2501000647154
 30
0.0
 10
81.06844762178162
 20
180.2501000647156
 30
0.0
 10
81.34588991837819
 20
180.2501000647158
 30
0.0
 10
81.6090222403417
 20
180.2501000647159
 30
0.0
 10
81.9047619127763
 20
180.2501000647159
 30
0.0
 10
82.28067548218782
 20
180.2501000647159
 30
0.0
 10
82.70297143470745
 20
180.2501000647159
 30
0.0
 10
83.16112479173132
 20
180.2501000647159
 30
0.0
 10
83.6448960837277
 20
180.2501000647159
 30
0.0
 10
84.11556219708349
 20
180.2501000647159
 30
0.0
 10
84.42571844689131
 20
180.2501000647159
 30
0.0
 10
84.55120706104977
 20
180.2501000647159
 30
0.0
  0
SPLINE
  5
1F4
330
1F
100
AcDbEntity
  8
0
  6
Continuous
 62
     7
370
     0
100
AcDbSpline
210
0.0
220
0.0
230
1.0
 70
    24
 71
     3
 72
    20
 73
    16
 74
     0
 42
0.000000001
 43
0.00000001
 40
0.0
 40
0.0
 40
0.0
 40
0.0
 40
0.0768646954038721
 40
0.1765188522163905
 40
0.2597903605358174
 40
0.3278728363711093
 40
0.3813764525054721
 40
0.427082803942176
 40
0.4850036201542575
 40
0.5569249694049773
 40
0.6436900878434575
 40
0.7193493553226898
 40
0.8050200537941198
 40
0.9018392620591204
 40
1.0
 40
1.0
 40
1.0
 40
1.0
 10
84.55119471309642
 20
181.0901000647159
 30
0.0
 10
84.39829095024162
 20
181.0901000647159
 30
0.0
 10
84.04714929051241
 20
181.0901000647159
 30
0.0
 10
83.5360412120665
 20
181.0901000647159
 30
0.0
 10
83.05125085099401
 20
181.0901000647159
 30
0.0
 10
82.6647963709964
 20
181.0901000647159
 30
0.0
 10
82.35671503433397
 20
181.0901000647159
 30
0.0
 10
82.0739638430103
 20
181.0901000647159
 30
0.0
 10
81.76652830418753
 20
181.0901000647159
 30
0.0
 10
81.40159916312496
 20
181.0901000647158
 30
0.0
 10
81.02753082075522
 20
181.0901000647154
 30
0.0
 10
80.65516345285745
 20
181.0901000647149
 30
0.0
 10
80.29315868353318
 20
181.0901000647145
 30
0.0
 10
79.92694265233823
 20
181.0901000647145
 30
0.0
 10
79.70126582239098
 20
181.0901000647152
 30
0.0
 10
79.58765103997439
 20
181.0901000647156
 30
0.0
  0
LINE
  5
1F5
330
1F
100
AcDbEntity
  8
0
  6
Continuous
 62
     7
370
     0
100
AcDbLine
 10
80.994306268
 20
184.7602562147
 30
0.0
 11
79.5928990357
 21
181.2112075756
 31
0.0
  0
LINE
  5
1F6
330
1F
100
AcDbEntity
  8
0
  6
Continuous
 62
     7
370
     0
100
AcDbLine
 10
80.995306268
 20
184.7627887038
 30
0.0
 11
80.994306268
 21
184.7602562147
 31
0.0
  0
LINE
  5
1F7
330
1F
100
AcDbEntity
  8
0
  6
Continuous
 62
     7
370
     0
100
AcDbLine
 10
82.1975909753
 20
187.8075617047
 30
0.0
 11
80.995306268
 21
184.7627887038
 31
0.0
  0
LINE
  5
1F8
330
1F
100
AcDbEntity
  8
0
  6
Continuous
 62
     7
370
     0
100
AcDbLine
 10
80.9949927222
 20
184.1795221432
 30
0.0
 11
82.3965664988
 21
187.7289925539
 31
0.0
  0
LINE
  5
1F9
330
1F
100
AcDbEntity
  8
0
  6
Continuous
 62
     7
370
     0
100
AcDbLine
 10
80.9939617932
 20
184.1769113268
 30
0.0
 11
80.9949927222
 21
184.1795221432
 31
0.0
  0
LINE
  5
1FA
330
1F
100
AcDbEntity
  8
0
  6
Continuous
 62
     7
370
     0
100
AcDbLine
 10
79.7918745591
 20
181.1326384248
 30
0.0
 11
80.9939617932
 21
184.1769113268
 31
0.0
  0
LINE
  5
1FB
330
1F
100
AcDbEntity
  8
0
  6
Continuous
 62
     7
370
     0
100
AcDbLine
 10
77.9940666928
 20
184.7483778671
 30
0.0
 11
76.7823480695
 21
187.8078667499
 31
0.0
  0
LINE
  5
1FC
330
1F
100
AcDbEntity
  8
0
  6
Continuous
 62
     7
370
     0
100
AcDbLine
 10
77.9941593544
 20
184.7481439044
 30
0.0
 11
77.9940666928
 21
184.7483778671
 31
0.0
  0
LINE
  5
1FD
330
1F
100
AcDbEntity
  8
0
  6
Continuous
 62
     7
370
     0
100
AcDbLine
 10
79.3950124247
 20
181.2111062518
 30
0.0
 11
77.9941593544
 21
184.7481439044
 31
0.0
  0
LINE
  5
1FE
330
1F
100
AcDbEntity
  8
0
  6
Continuous
 62
     7
370
     0
100
AcDbLine
 10
77.9942988416
 20
184.1668255846
 30
0.0
 11
79.1961174649
 21
181.1323333796
 31
0.0
  0
LINE
  5
1FF
330
1F
100
AcDbEntity
  8
0
  6
Continuous
 62
     7
370
     0
100
AcDbLine
 10
77.9942061801
 20
184.1670595473
 30
0.0
 11
77.9942988416
 21
184.1668255846
 31
0.0
  0
LINE
  5
200
330
1F
100
AcDbEntity
  8
0
  6
Continuous
 62
     7
370
     0
100
AcDbLine
 10
76.5834531098
 20
187.7290938776
 30
0.0
 11
77.9942061801
 21
184.1670595473
 31
0.0
  0
LINE
  5
201
330
1F
100
AcDbEntity
  8
0
  6
Continuous
 62
     7
370
     0
100
AcDbLine
 10
74.9940988416
 20
184.7981187309
 30
0.0
 11
73.5734531098
 21
181.2111062518
 31
0.0
  0
LINE
  5
202
330
1F
100
AcDbEntity
  8
0
  6
Continuous
 62
     7
370
     0
100
AcDbLine
 10
74.9941988416
 20
184.7983712226
 30
0.0
 11
74.9940988416
 21
184.7981187309
 31
0.0
  0
LINE
  5
203
330
1F
100
AcDbEntity
  8
0
  6
Continuous
 62
     7
370
     0
100
AcDbLine
 10
76.1861174649
 20
187.8078667499
 30
0.0
 11
74.9941988416
 21
184.7983712226
 31
0.0
  0
LINE
  5
204
330
1F
100
AcDbEntity
  8
0
  6
Continuous
 62
     7
370
     0
100
AcDbLine
 10
74.9940593544
 20
184.2170529027
 30
0.0
 11
76.3850124247
 21
187.7290938776
 31
0.0
  0
LINE
  5
205
330
1F
100
AcDbEntity
  8
0
  6
Continuous
 62
     7
370
     0
100
AcDbLine
 10
74.9939593544
 20
184.2168004111
 30
0.0
 11
74.9940593544
 21
184.2170529027
 31
0.0
  0
LINE
  5
206
330
1F
100
AcDbEntity
  8
0
  6
Continuous
 62
     7
370
     0
100
AcDbLine
 10
73.7723480695
 20
181.1323333796
 30
0.0
 11
74.9939593544
 21
184.2168004111
 31
0.0
  0
LINE
  5
207
330
1F
100
AcDbEntity
  8
0
  6
Continuous
 62
     7
370
     0
100
AcDbLine
 10
71.9938666928
 20
184.6983845116
 30
0.0
 11
70.7623480695
 21
187.8078667499
 31
0.0
  0
LINE
  5
208
330
1F
100
AcDbEntity
  8
0
  6
Continuous
 62
     7
370
     0
100
AcDbLine
 10
71.9939666928
 20
184.6981320199
 30
0.0
 11
71.9938666928
 21
184.6983845116
 31
0.0
  0
LINE
  5
209
330
1F
100
AcDbEntity
  8
0
  6
Continuous
 62
     7
370
     0
100
AcDbLine
 10
73.3750124247
 20
181.2111062518
 30
0.0
 11
71.9939666928
 21
184.6981320199
 31
0.0
  0
LINE
  5
20A
330
1F
100
AcDbEntity
  8
0
  6
Continuous
 62
     7
370
     0
100
AcDbLine
 10
71.9941061801
 20
184.1168137001
 30
0.0
 11
73.1761174649
 21
181.1323333796
 31
0.0
  0
LINE
  5
20B
330
1F
100
AcDbEntity
  8
0
  6
Continuous
 62
     7
370
     0
100
AcDbLine
 10
71.9940061801
 20
184.1170661918
 30
0.0
 11
71.9941061801
 21
184.1168137001
 31
0.0
  0
LINE
  5
20C
330
1F
100
AcDbEntity
  8
0
  6
Continuous
 62
     7
370
     0
100
AcDbLine
 10
70.5634531098
 20
187.7290938776
 30
0.0
 11
71.9940061801
 21
184.1170661918
 31
0.0
  0
LINE
  5
20D
330
1F
100
AcDbEntity
  8
0
  6
Continuous
 62
     7
370
     0
100
AcDbLine
 10
68.9929813439
 20
184.1414690397
 30
0.0
 11
68.0302801963
 21
181.2160277276
 31
0.0
  0
LINE
  5
20E
330
1F
100
AcDbEntity
  8
0
  6
Continuous
 62
     7
370
     0
100
AcDbLine
 10
68.9939920874
 20
184.1445404714
 30
0.0
 11
68.9929813439
 21
184.1414690397
 31
0.0
  0
LINE
  5
20F
330
1F
100
AcDbEntity
  8
0
  6
Continuous
 62
     7
370
     0
100
AcDbLine
 10
70.1939793696
 20
187.7910432081
 30
0.0
 11
68.9939920874
 21
184.1445404714
 31
0.0
  0
LINE
  5
210
330
1F
100
AcDbEntity
  8
0
  6
Continuous
 62
     7
370
     0
100
AcDbLine
 10
68.9938841906
 20
183.4598426451
 30
0.0
 11
70.3971853382
 21
187.7241724019
 31
0.0
  0
LINE
  5
211
330
1F
100
AcDbEntity
  8
0
  6
Continuous
 62
     7
370
     0
100
AcDbLine
 10
68.9928734471
 20
183.4567712134
 30
0.0
 11
68.9938841906
 21
183.4598426451
 31
0.0
  0
LINE
  5
212
330
1F
100
AcDbEntity
  8
0
  6
Continuous
 62
     7
370
     0
100
AcDbLine
 10
68.2334861649
 20
181.1491569213
 30
0.0
 11
68.9928734471
 21
183.4567712134
 31
0.0
  0
ARC
  5
213
330
1F
100
AcDbEntity
  8
0
  6
Continuous
 62
     7
370
     0
100
AcDbCircle
 10
66.9072660252
 20
184.4701000647
 30
0.0
 40
5.000410168672651
100
AcDbArc
 50
89.0298238266
 51
90.0
  0
ARC
  5
214
330
1F
100
AcDbEntity
  8
0
  6
Continuous
 62
     7
370
     0
100
AcDbCircle
 10
66.9072660252
 20
184.4701000647
 30
0.0
 40
5.00041016867263
100
AcDbArc
 50
90.0
 51
270.9701761734
  0
LWPOLYLINE
  5
215
330
1F
100
AcDbEntity
  8
0
  6
Continuous
 62
     7
370
     0
100
AcDbPolyline
 90
       22
 70
   128
 43
0.0
 10
159.5510673131
 20
181.0901000647
 10
159.4822526205
 20
181.0714406431
 10
159.4195524154
 20
181.0171203499
 10
159.368537886
 20
180.9319657815
 10
159.3337418973
 20
180.8235432949
 10
159.3182562255
 20
180.701486704
 10
159.3234568405
 20
180.5766412725
 10
159.3488816448
 20
180.4601000647
 10
159.392271533
 20
180.3622182785
 10
159.4497711232
 20
180.2916931402
 10
159.5162713244
 20
180.2547911177
 10
159.5858633019
 20
180.2547911177
 10
159.652363503
 20
180.2916931402
 10
159.7098630932
 20
180.3622182785
 10
159.7532529814
 20
180.4601000647
 10
159.7786777858
 20
180.5766412725
 10
159.7838784008
 20
180.701486704
 10
159.768392729
 20
180.8235432949
 10
159.7335967402
 20
180.9319657815
 10
159.6825822109
 20
181.0171203499
 10
159.6198820057
 20
181.0714406431
 10
159.5510673131
 20
181.0901000647
  0
SPLINE
  5
216
330
1F
100
AcDbEntity
  8
0
  6
Continuous
 62
     7
370
     0
100
AcDbSpline
210
0.0
220
0.0
230
1.0
 70
     8
 71
     3
 72
    18
 73
    14
 74
     0
 42
0.000000001
 43
0.00000001
 40
0.0
 40
0.0
 40
0.0
 40
0.0
 40
0.1250000000000003
 40
0.1250000000000003
 40
0.2500000000000006
 40
0.2500000000000006
 40
0.5000000000000004
 40
0.5000000000000004
 40
0.7500000000000002
 40
0.7500000000000002
 40
0.8750000000000001
 40
0.8750000000000001
 40
1.0
 40
1.0
 40
1.0
 40
1.0
 10
84.55106731312415
 20
181.0901000647159
 30
0.0
 10
84.54933502258704
 20
181.0901000647159
 30
0.0
 10
84.54370086877155
 20
181.0764046019592
 30
0.0
 10
84.53195374541197
 20
181.0280896558333
 30
0.0
 10
84.52613709547305
 20
180.9936245526029
 30
0.0
 10
84.51293180193028
 20
180.8731607275775
 30
0.0
 10
84.50933139841699
 20
180.7714950141986
 30
0.0
 10
84.50934622740937
 20
180.5681040521935
 30
0.0
 10
84.51294245195224
 20
180.4671940292058
 30
0.0
 10
84.52605783574226
 20
180.3471737849078
 30
0.0
 10
84.53183220728678
 20
180.3126700546135
 30
0.0
 10
84.54371453051407
 20
180.263680172524
 30
0.0
 10
84.54933502258899
 20
180.2501000647159
 30
0.0
 10
84.55106731312357
 20
180.2501000647159
 30
0.0
  0
SPLINE
  5
217
330
1F
100
AcDbEntity
  8
0
  6
Continuous
 62
     7
370
     0
100
AcDbSpline
210
0.0
220
0.0
230
1.0
 70
     8
 71
     3
 72
    17
 73
    13
 74
     0
 42
0.000000001
 43
0.00000001
 40
0.0
 40
0.0
 40
0.0
 40
0.0
 40
0.0728319904092664
 40
0.1871087292057139
 40
0.2895411505624058
 40
0.3954360708197264
 40
0.5058523890308618
 40
0.6196309812879134
 40
0.7332836551161056
 40
0.8431769120913544
 40
0.948272322622932
 40
1.0
 40
1.0
 40
1.0
 40
1.0
 10
79.58793920866111
 20
181.0852184630942
 30
0.0
 10
79.55639624508869
 20
181.0851459237762
 30
0.0
 10
79.4753609226122
 20
181.0849595669359
 30
0.0
 10
79.35938404111887
 20
181.0273094489665
 30
0.0
 10
79.25902069326607
 20
180.9294390559563
 30
0.0
 10
79.19613906880734
 20
180.8044419138429
 30
0.0
 10
79.1752057255067
 20
180.6612834463356
 30
0.0
 10
79.20214135367482
 20
180.5155569981978
 30
0.0
 10
79.27614988088638
 20
180.3866551970975
 30
0.0
 10
79.38686571566903
 20
180.2962046637858
 30
0.0
 10
79.49704167313959
 20
180.2510088364814
 30
0.0
 10
79.56475759136727
 20
180.2545344741199
 30
0.0
 10
79.58709350642981
 20
180.2556973962938
 30
0.0
  0
ARC
  5
218
330
1F
100
AcDbEntity
  8
0
  6
Continuous
 62
     7
370
     0
100
AcDbCircle
 10
82.4952327672
 20
188.2701000647
 30
0.0
 40
0.5500000000000059
100
AcDbArc
 50
255.9794927308
 51
240.9255108438
  0
SPLINE
  5
219
330
1F
100
AcDbEntity
  8
0
  6
Continuous
 62
     7
370
     0
100
AcDbSpline
210
0.0
220
0.0
230
1.0
 70
     8
 71
     3
 72
    29
 73
    25
 74
     0
 42
0.000000001
 43
0.00000001
 40
0.0000000000000001
 40
0.0000000000000001
 40
0.0000000000000001
 40
0.0000000000000001
 40
0.0000553986492001
 40
0.0000553986492001
 40
0.0000553986492001
 40
0.0000744703661974
 40
0.0000744703661974
 40
0.0000744703661974
 40
0.0000938210300503
 40
0.0000938210300503
 40
0.0000938210300503
 40
0.0001072543096207
 40
0.0001072543096207
 40
0.0001072543096207
 40
0.0001207016259448
 40
0.0001207016259448
 40
0.0001207016259448
 40
0.0001387455774115
 40
0.0001387455774115
 40
0.0001387455774115
 40
0.0001702186759782
 40
0.0001702186759782
 40
0.0001702186759782
 40
0.0002135383638984
 40
0.0002135383638984
 40
0.0002135383638984
 40
0.0002135383638984
 10
82.36198472497935
 20
187.7364850731384
 30
0.0
 10
82.36058617968298
 20
187.7533678710328
 30
0.0
 10
82.35772601907104
 20
187.7706763921211
 30
0.0
 10
82.35135928879886
 20
187.7870375004199
 30
0.0
 10
82.3491473387209
 20
187.7927217297229
 30
0.0
 10
82.3464641922386
 20
187.7983252715656
 30
0.0
 10
82.34310852962021
 20
187.8035611769051
 30
0.0
 10
82.33972556095627
 20
187.8088396883961
 30
0.0
 10
82.33555135531385
 20
187.8138570393664
 30
0.0
 10
82.3305373919192
 20
187.8178632317699
 30
0.0
 10
82.32704199533052
 20
187.8206560784979
 30
0.0
 10
82.32305297021969
 20
187.8229958977322
 30
0.0
 10
82.31884191352923
 20
187.8246073819136
 30
0.0
 10
82.31462572819942
 20
187.8262208287191
 30
0.0
 10
82.31009309324931
 20
187.8271417032625
 30
0.0
 10
82.30562573456699
 20
187.827407050556
 30
0.0
 10
82.29964283521241
 20
187.8277624162797
 30
0.0
 10
82.29361703589717
 20
187.8269945568638
 30
0.0
 10
82.2879272576905
 20
187.825579324642
 30
0.0
 10
82.27803233060203
 20
187.823118135622
 30
0.0
 10
82.26878245710128
 20
187.8187358433566
 30
0.0
 10
82.2602596323681
 20
187.8136959133217
 30
0.0
 10
82.24850289003143
 20
187.8067436221891
 30
0.0
 10
82.23782388996023
 20
187.7983386731575
 30
0.0
 10
82.22796230954366
 20
187.7894062927074
 30
0.0
  0
ARC
  5
21A
330
1F
100
AcDbEntity
  8
0
  6
Continuous
 62
     7
370
     0
100
AcDbCircle
 10
76.4842327672
 20
188.2701000647
 30
0.0
 40
0.5500000000001095
100
AcDbArc
 50
299.1331634087
 51
240.866836591
  0
SPLINE
  5
21B
330
1F
100
AcDbEntity
  8
0
  6
Continuous
 62
     7
370
     0
100
AcDbSpline
210
0.0
220
0.0
230
1.0
 70
     8
 71
     3
 72
    29
 73
    25
 74
     0
 42
0.000000001
 43
0.00000001
 40
0.0
 40
0.0
 40
0.0
 40
0.0
 40
0.0000553986491994
 40
0.0000553986491994
 40
0.0000553986491994
 40
0.0000744703661968
 40
0.0000744703661968
 40
0.0000744703661968
 40
0.0000938210300496
 40
0.0000938210300496
 40
0.0000938210300496
 40
0.0001072543096201
 40
0.0001072543096201
 40
0.0001072543096201
 40
0.0001207016259442
 40
0.0001207016259442
 40
0.0001207016259442
 40
0.0001387455774108
 40
0.0001387455774108
 40
0.0001387455774108
 40
0.0001702186759774
 40
0.0001702186759774
 40
0.0001702186759774
 40
0.0002135383638965
 40
0.0002135383638965
 40
0.0002135383638965
 40
0.0002135383638965
 10
76.75199534342042
 20
187.7896802453992
 30
0.0
 10
76.73942795877328
 20
187.8010400709618
 30
0.0
 10
76.72550311718004
 20
187.8117107882567
 30
0.0
 10
76.70966814620346
 20
187.8192920027563
 30
0.0
 10
76.70416670923514
 20
187.8219258928831
 30
0.0
 10
76.69837671095301
 20
187.8241786414536
 30
0.0
 10
76.69234754513371
 20
187.825703218725
 30
0.0
 10
76.6862693181616
 20
187.8272402019445
 30
0.0
 10
76.67979248915586
 20
187.8280454904241
 30
0.0
 10
76.67339462789151
 20
187.82753875801
 30
0.0
 10
76.66893447118953
 20
187.8271854984003
 30
0.0
 10
76.66442405318789
 20
187.8261641244069
 30
0.0
 10
76.66024980846076
 20
187.8244595538818
 30
0.0
 10
76.6560704799275
 20
187.8227529073628
 30
0.0
 10
76.65213398441226
 20
187.8203245761304
 30
0.0
 10
76.64869346210374
 20
187.8174626695933
 30
0.0
 10
76.64408575088935
 20
187.8136298681571
 30
0.0
 10
76.64021498140316
 20
187.8089483076208
 30
0.0
 10
76.63703212212528
 20
187.8040242985733
 30
0.0
 10
76.6314969045221
 20
187.7954610982625
 30
0.0
 10
76.62774622050173
 20
187.7859376002361
 30
0.0
 10
76.62497573073391
 20
187.7764316114586
 30
0.0
 10
76.62115400080675
 20
187.7633186513532
 30
0.0
 10
76.61911206365518
 20
187.7498830753175
 30
0.0
 10
76.61802719269615
 20
187.7366218067575
 30
0.0
  0
ARC
  5
21C
330
1F
100
AcDbEntity
  8
0
  6
Continuous
 62
     7
370
     0
100
AcDbCircle
 10
76.4842327672
 20
188.2701000647
 30
0.0
 40
0.5500000000000996
100
AcDbArc
 50
255.9208184782
 51
284.079181522
  0
SPLINE
  5
21D
330
1F
100
AcDbEntity
  8
0
  6
Continuous
 62
     7
370
     0
100
AcDbSpline
210
0.0
220
0.0
230
1.0
 70
     8
 71
     3
 72
    29
 73
    25
 74
     0
 42
0.000000001
 43
0.00000001
 40
0.0000000000000011
 40
0.0000000000000011
 40
0.0000000000000011
 40
0.0000000000000011
 40
0.0000553986491994
 40
0.0000553986491994
 40
0.0000553986491994
 40
0.0000744703661967
 40
0.0000744703661967
 40
0.0000744703661967
 40
0.0000938210300496
 40
0.0000938210300496
 40
0.0000938210300496
 40
0.00010725430962
 40
0.00010725430962
 40
0.00010725430962
 40
0.0001207016259441
 40
0.0001207016259441
 40
0.0001207016259441
 40
0.0001387455774107
 40
0.0001387455774107
 40
0.0001387455774107
 40
0.0001702186759774
 40
0.0001702186759774
 40
0.0001702186759774
 40
0.0002135383638974
 40
0.0002135383638974
 40
0.0002135383638974
 40
0.0002135383638974
 10
76.35043834176288
 20
187.7366218067579
 30
0.0
 10
76.34905708617609
 20
187.7535060279922
 30
0.0
 10
76.34621465200695
 20
187.7708174689772
 30
0.0
 10
76.33986467980881
 20
187.7871850886026
 30
0.0
 10
76.33765855187524
 20
187.7928715800918
 30
0.0
 10
76.33498114515572
 20
187.7984778666959
 30
0.0
 10
76.33163084617136
 20
187.8037172056856
 30
0.0
 10
76.32825328478697
 20
187.8089991787673
 30
0.0
 10
76.32408421939529
 20
187.8140208017385
 30
0.0
 10
76.31907436120592
 20
187.8180321266343
 30
0.0
 10
76.3155818264891
 20
187.8208285513892
 30
0.0
 10
76.31159519958219
 20
187.8231724543925
 30
0.0
 10
76.30738579535421
 20
187.8247882500983
 30
0.0
 10
76.3031712644994
 20
187.8264060136791
 30
0.0
 10
76.29863957495559
 20
187.827331529424
 30
0.0
 10
76.29417249034692
 20
187.8276014514159
 30
0.0
 10
76.28818995804481
 20
187.8279629437935
 30
0.0
 10
76.28216337555607
 20
187.8272012555525
 30
0.0
 10
76.27647215105193
 20
187.8257918507398
 30
0.0
 10
76.26657470874977
 20
187.8233407959967
 30
0.0
 10
76.25732035237458
 20
187.8189679784427
 30
0.0
 10
76.24879237092603
 20
187.8139367789234
 30
0.0
 10
76.23702851519967
 20
187.8069965310308
 30
0.0
 10
76.22634091356667
 20
187.7986025223294
 30
0.0
 10
76.21647019103895
 20
187.7896802454003
 30
0.0
  0
ARC
  5
21E
330
1F
100
AcDbEntity
  8
0
  6
Continuous
 62
     7
370
     0
100
AcDbCircle
 10
70.4642327672
 20
188.2701000647
 30
0.0
 40
0.5500000000000576
100
AcDbArc
 50
259.3117039278
 51
284.0791815219
  0
SPLINE
  5
21F
330
1F
100
AcDbEntity
  8
0
  6
Continuous
 62
     7
370
     0
100
AcDbSpline
210
0.0
220
0.0
230
1.0
 70
     8
 71
     3
 72
    29
 73
    25
 74
     0
 42
0.000000001
 43
0.00000001
 40
0.0000000000000006
 40
0.0000000000000006
 40
0.0000000000000006
 40
0.0000000000000006
 40
0.0000553986492
 40
0.0000553986492
 40
0.0000553986492
 40
0.0000744703661974
 40
0.0000744703661974
 40
0.0000744703661974
 40
0.0000938210300502
 40
0.0000938210300502
 40
0.0000938210300502
 40
0.0001072543096207
 40
0.0001072543096207
 40
0.0001072543096207
 40
0.0001207016259448
 40
0.0001207016259448
 40
0.0001207016259448
 40
0.0001387455774114
 40
0.0001387455774114
 40
0.0001387455774114
 40
0.0001702186759782
 40
0.0001702186759782
 40
0.0001702186759782
 40
0.0002135383638984
 40
0.0002135383638984
 40
0.0002135383638984
 40
0.0002135383638984
 10
70.36222652709299
 20
187.7296421783149
 30
0.0
 10
70.35984902901642
 20
187.7464151415768
 30
0.0
 10
70.35598764150333
 20
187.7635281514659
 30
0.0
 10
70.34868068152926
 20
187.7794915300262
 30
0.0
 10
70.34614207379917
 20
187.7850375787737
 30
0.0
 10
70.34313775629899
 20
187.7904756880579
 30
0.0
 10
70.33948342866145
 20
187.7955076922163
 30
0.0
 10
70.33579936465043
 20
187.8005806433203
 30
0.0
 10
70.33134058143543
 20
187.8053468845801
 30
0.0
 10
70.32610223412108
 20
187.80905486569
 30
0.0
 10
70.3224504122206
 20
187.811639819648
 30
0.0
 10
70.31833212872584
 20
187.8137438197528
 30
0.0
 10
70.31403452371771
 20
187.815107810556
 30
0.0
 10
70.30973168466315
 20
187.8164734625614
 30
0.0
 10
70.30515318696528
 20
187.8171293195171
 30
0.0
 10
70.30067795787542
 20
187.8171345517259
 30
0.0
 10
70.2946845180965
 20
187.817141558949
 30
0.0
 10
70.28871353866049
 20
187.8160247465008
 30
0.0
 10
70.28311564094477
 20
187.8142811870819
 30
0.0
 10
70.27338050053443
 20
187.8112490138235
 30
0.0
 10
70.26440098777609
 20
187.8063364792535
 30
0.0
 10
70.25618551993921
 20
187.8008096786951
 30
0.0
 10
70.24485275861217
 20
187.7931857779176
 30
0.0
 10
70.23468035355121
 20
187.7841743193219
 30
0.0
 10
70.22535464322823
 20
187.7746838337817
 30
0.0
  0
ARC
  5
220
330
1F
100
AcDbEntity
  8
0
  6
Continuous
 62
     7
370
     0
100
AcDbCircle
 10
70.4642327672
 20
188.2701000647
 30
0.0
 40
0.5500000000001576
100
AcDbArc
 50
299.1331634086
 51
244.2577220407
  0
SPLINE
  5
221
330
1F
100
AcDbEntity
  8
0
  6
Continuous
 62
     7
370
     0
100
AcDbSpline
210
0.0
220
0.0
230
1.0
 70
     8
 71
     3
 72
    29
 73
    25
 74
     0
 42
0.000000001
 43
0.00000001
 40
0.0
 40
0.0
 40
0.0
 40
0.0
 40
0.0000553986491987
 40
0.0000553986491987
 40
0.0000553986491987
 40
0.0000744703661961
 40
0.0000744703661961
 40
0.0000744703661961
 40
0.000093821030049
 40
0.000093821030049
 40
0.000093821030049
 40
0.0001072543096193
 40
0.0001072543096193
 40
0.0001072543096193
 40
0.0001207016259434
 40
0.0001207016259434
 40
0.0001207016259434
 40
0.00013874557741
 40
0.00013874557741
 40
0.00013874557741
 40
0.0001702186759765
 40
0.0001702186759765
 40
0.0001702186759765
 40
0.0002135383638959
 40
0.0002135383638959
 40
0.0002135383638959
 40
0.0002135383638959
 10
70.7319953434194
 20
187.7896802453985
 30
0.0
 10
70.71942795877233
 20
187.8010400709609
 30
0.0
 10
70.70550311717993
 20
187.8117107882568
 30
0.0
 10
70.68966814620356
 20
187.8192920027563
 30
0.0
 10
70.68416670923521
 20
187.8219258928831
 30
0.0
 10
70.67837671095309
 20
187.8241786414536
 30
0.0
 10
70.67234754513376
 20
187.825703218725
 30
0.0
 10
70.66626931816164
 20
187.8272402019445
 30
0.0
 10
70.65979248915585
 20
187.8280454904241
 30
0.0
 10
70.65339462789149
 20
187.82753875801
 30
0.0
 10
70.6489344711895
 20
187.8271854984003
 30
0.0
 10
70.64442405318785
 20
187.8261641244069
 30
0.0
 10
70.64024980846074
 20
187.8244595538818
 30
0.0
 10
70.63607047992748
 20
187.8227529073628
 30
0.0
 10
70.63213398441226
 20
187.8203245761304
 30
0.0
 10
70.62869346210373
 20
187.8174626695933
 30
0.0
 10
70.62408575088934
 20
187.8136298681571
 30
0.0
 10
70.62021498140317
 20
187.8089483076208
 30
0.0
 10
70.61703212212525
 20
187.8040242985733
 30
0.0
 10
70.61149690452207
 20
187.7954610982624
 30
0.0
 10
70.60774622050172
 20
187.785937600236
 30
0.0
 10
70.6049757307339
 20
187.7764316114586
 30
0.0
 10
70.60115400080674
 20
187.7633186513532
 30
0.0
 10
70.59911206365518
 20
187.7498830753174
 30
0.0
 10
70.59802719269615
 20
187.7366218067575
 30
0.0
  0
ARC
  5
222
330
1F
100
AcDbEntity
  8
0
  6
Continuous
 62
     7
370
     0
100
AcDbCircle
 10
73.4742327672
 20
180.6701000647
 30
0.0
 40
0.5500000000000266
100
AcDbArc
 50
75.9208184781
 51
104.0791815218
  0
SPLINE
  5
223
330
1F
100
AcDbEntity
  8
0
  6
Continuous
 62
     7
370
     0
100
AcDbSpline
210
0.0
220
0.0
230
1.0
 70
     8
 71
     3
 72
    29
 73
    25
 74
     0
 42
0.000000001
 43
0.00000001
 40
0.0
 40
0.0
 40
0.0
 40
0.0
 40
0.0000553986492
 40
0.0000553986492
 40
0.0000553986492
 40
0.0000744703661974
 40
0.0000744703661974
 40
0.0000744703661974
 40
0.0000938210300502
 40
0.0000938210300502
 40
0.0000938210300502
 40
0.0001072543096207
 40
0.0001072543096207
 40
0.0001072543096207
 40
0.0001207016259448
 40
0.0001207016259448
 40
0.0001207016259448
 40
0.0001387455774115
 40
0.0001387455774115
 40
0.0001387455774115
 40
0.0001702186759782
 40
0.0001702186759782
 40
0.0001702186759782
 40
0.0002135383638979
 40
0.0002135383638979
 40
0.0002135383638979
 40
0.0002135383638979
 10
73.6080271926973
 20
181.2035783226741
 30
0.0
 10
73.60940844828401
 20
181.1866941014397
 30
0.0
 10
73.61225088245432
 20
181.1693826604547
 30
0.0
 10
73.61860085465253
 20
181.1530150408291
 30
0.0
 10
73.62080698258609
 20
181.1473285493399
 30
0.0
 10
73.6234843893056
 20
181.1417222627358
 30
0.0
 10
73.62683468828999
 20
181.1364829237462
 30
0.0
 10
73.63021224967436
 20
181.1312009506645
 30
0.0
 10
73.63438131506602
 20
181.1261793276933
 30
0.0
 10
73.63939117325535
 20
181.1221680027975
 30
0.0
 10
73.6428837079722
 20
181.1193715780426
 30
0.0
 10
73.64687033487911
 20
181.1170276750393
 30
0.0
 10
73.65107973910709
 20
181.1154118793335
 30
0.0
 10
73.6552942699619
 20
181.1137941157527
 30
0.0
 10
73.65982595950571
 20
181.1128686000078
 30
0.0
 10
73.66429304411437
 20
181.1125986780158
 30
0.0
 10
73.67027557641647
 20
181.1122371856383
 30
0.0
 10
73.6763021589052
 20
181.1129988738792
 30
0.0
 10
73.68199338340935
 20
181.114408278692
 30
0.0
 10
73.69189082571151
 20
181.1168593334351
 30
0.0
 10
73.7011451820867
 20
181.121232150989
 30
0.0
 10
73.70967316353524
 20
181.1262633505084
 30
0.0
 10
73.72143701926161
 20
181.133203598401
 30
0.0
 10
73.73212462089462
 20
181.1415976071024
 30
0.0
 10
73.74199534342235
 20
181.1505198840314
 30
0.0
  0
ARC
  5
224
330
1F
100
AcDbEntity
  8
0
  6
Continuous
 62
     7
370
     0
100
AcDbCircle
 10
73.4742327672
 20
180.6701000647
 30
0.0
 40
0.5500000000000489
100
AcDbArc
 50
119.133163409
 51
60.8668365912
  0
SPLINE
  5
225
330
1F
100
AcDbEntity
  8
0
  6
Continuous
 62
     7
370
     0
100
AcDbSpline
210
0.0
220
0.0
230
1.0
 70
     8
 71
     3
 72
    29
 73
    25
 74
     0
 42
0.000000001
 43
0.00000001
 40
0.0000000000000006
 40
0.0000000000000006
 40
0.0000000000000006
 40
0.0000000000000006
 40
0.0000553986492001
 40
0.0000553986492001
 40
0.0000553986492001
 40
0.0000744703661974
 40
0.0000744703661974
 40
0.0000744703661974
 40
0.0000938210300502
 40
0.0000938210300502
 40
0.0000938210300502
 40
0.0001072543096207
 40
0.0001072543096207
 40
0.0001072543096207
 40
0.0001207016259448
 40
0.0001207016259448
 40
0.0001207016259448
 40
0.0001387455774115
 40
0.0001387455774115
 40
0.0001387455774115
 40
0.0001702186759782
 40
0.0001702186759782
 40
0.0001702186759782
 40
0.0002135383638984
 40
0.0002135383638984
 40
0.0002135383638984
 40
0.0002135383638984
 10
73.20647019103995
 20
181.1505198840321
 30
0.0
 10
73.21903757568715
 20
181.1391600584692
 30
0.0
 10
73.23296241728117
 20
181.1284893411751
 30
0.0
 10
73.24879738825793
 20
181.1209081266754
 30
0.0
 10
73.25429882522624
 20
181.1182742365487
 30
0.0
 10
73.26008882350834
 20
181.1160214879781
 30
0.0
 10
73.26611798932764
 20
181.1144969107068
 30
0.0
 10
73.27219621629972
 20
181.1129599274873
 30
0.0
 10
73.27867304530545
 20
181.1121546390077
 30
0.0
 10
73.28507090656977
 20
181.1126613714218
 30
0.0
 10
73.28953106327175
 20
181.1130146310315
 30
0.0
 10
73.2940414812734
 20
181.1140360050249
 30
0.0
 10
73.29821572600054
 20
181.11574057555
 30
0.0
 10
73.30239505453379
 20
181.117447222069
 30
0.0
 10
73.30633155004902
 20
181.1198755533014
 30
0.0
 10
73.30977207235756
 20
181.1227374598384
 30
0.0
 10
73.31437978357194
 20
181.1265702612747
 30
0.0
 10
73.31825055305812
 20
181.131251821811
 30
0.0
 10
73.32143341233602
 20
181.1361758308584
 30
0.0
 10
73.3269686299392
 20
181.1447390311693
 30
0.0
 10
73.33071931395955
 20
181.1542625291957
 30
0.0
 10
73.33348980372739
 20
181.1637685179731
 30
0.0
 10
73.33731153365456
 20
181.1768814780785
 30
0.0
 10
73.33935347080612
 20
181.1903170541143
 30
0.0
 10
73.34043834176516
 20
181.2035783226743
 30
0.0
  0
ARC
  5
226
330
1F
100
AcDbEntity
  8
0
  6
Continuous
 62
     7
370
     0
100
AcDbCircle
 10
67.9632327672
 20
180.6701000647
 30
0.0
 40
0.5500000000000386
100
AcDbArc
 50
79.3117039277
 51
64.2577220408
  0
SPLINE
  5
227
330
1F
100
AcDbEntity
  8
0
  6
Continuous
 62
     7
370
     0
100
AcDbSpline
210
0.0
220
0.0
230
1.0
 70
     8
 71
     3
 72
    29
 73
    25
 74
     0
 42
0.000000001
 43
0.00000001
 40
0.0
 40
0.0
 40
0.0
 40
0.0
 40
0.0000553986492001
 40
0.0000553986492001
 40
0.0000553986492001
 40
0.0000744703661974
 40
0.0000744703661974
 40
0.0000744703661974
 40
0.0000938210300502
 40
0.0000938210300502
 40
0.0000938210300502
 40
0.0001072543096207
 40
0.0001072543096207
 40
0.0001072543096207
 40
0.0001207016259449
 40
0.0001207016259449
 40
0.0001207016259449
 40
0.0001387455774115
 40
0.0001387455774115
 40
0.0001387455774115
 40
0.0001702186759782
 40
0.0001702186759782
 40
0.0001702186759782
 40
0.0002135383638979
 40
0.0002135383638979
 40
0.0002135383638979
 40
0.0002135383638979
 10
68.0652390073683
 20
181.2105579511169
 30
0.0
 10
68.06761650544486
 20
181.193784987855
 30
0.0
 10
68.07147789295797
 20
181.176671977966
 30
0.0
 10
68.07878485293206
 20
181.1607085994056
 30
0.0
 10
68.08132346066215
 20
181.1551625506581
 30
0.0
 10
68.08432777816235
 20
181.1497244413739
 30
0.0
 10
68.08798210579988
 20
181.1446924372155
 30
0.0
 10
68.09166616981088
 20
181.1396194861115
 30
0.0
 10
68.09612495302589
 20
181.1348532448517
 30
0.0
 10
68.10136330034022
 20
181.1311452637418
 30
0.0
 10
68.10501512224072
 20
181.1285603097838
 30
0.0
 10
68.10913340573546
 20
181.126456309679
 30
0.0
 10
68.1134310107436
 20
181.1250923188758
 30
0.0
 10
68.11773384979816
 20
181.1237266668704
 30
0.0
 10
68.12231234749605
 20
181.1230708099147
 30
0.0
 10
68.1267875765859
 20
181.1230655777059
 30
0.0
 10
68.1327810163648
 20
181.1230585704828
 30
0.0
 10
68.13875199580083
 20
181.124175382931
 30
0.0
 10
68.14434989351653
 20
181.1259189423499
 30
0.0
 10
68.15408503392689
 20
181.1289511156083
 30
0.0
 10
68.16306454668525
 20
181.1338636501783
 30
0.0
 10
68.17128001452214
 20
181.1393904507366
 30
0.0
 10
68.18261277584915
 20
181.1470143515142
 30
0.0
 10
68.1927851809101
 20
181.1560258101099
 30
0.0
 10
68.2021108912331
 20
181.1655162956501
 30
0.0
  0
ARC
  5
228
330
1F
100
AcDbEntity
  8
0
  6
Continuous
 62
     7
370
     0
100
AcDbCircle
 10
79.4942327672
 20
180.6701000647
 30
0.0
 40
0.5500000000000335
100
AcDbArc
 50
75.9794927308
 51
104.0791815218
  0
SPLINE
  5
229
330
1F
100
AcDbEntity
  8
0
  6
Continuous
 62
     7
370
     0
100
AcDbSpline
210
0.0
220
0.0
230
1.0
 70
     8
 71
     3
 72
    29
 73
    25
 74
     0
 42
0.000000001
 43
0.00000001
 40
0.0
 40
0.0
 40
0.0
 40
0.0
 40
0.0000553986492001
 40
0.0000553986492001
 40
0.0000553986492001
 40
0.0000744703661974
 40
0.0000744703661974
 40
0.0000744703661974
 40
0.0000938210300502
 40
0.0000938210300502
 40
0.0000938210300502
 40
0.0001072543096207
 40
0.0001072543096207
 40
0.0001072543096207
 40
0.0001207016259448
 40
0.0001207016259448
 40
0.0001207016259448
 40
0.0001387455774115
 40
0.0001387455774115
 40
0.0001387455774115
 40
0.0001702186759782
 40
0.0001702186759782
 40
0.0001702186759782
 40
0.0002135383638979
 40
0.0002135383638979
 40
0.0002135383638979
 40
0.0002135383638979
 10
79.62748080948195
 20
181.2037150562934
 30
0.0
 10
79.62887935477833
 20
181.186832258399
 30
0.0
 10
79.63173951539027
 20
181.1695237373107
 30
0.0
 10
79.63810624566244
 20
181.1531626290119
 30
0.0
 10
79.6403181957404
 20
181.1474783997089
 30
0.0
 10
79.6430013422227
 20
181.1418748578662
 30
0.0
 10
79.64635700484111
 20
181.1366389525267
 30
0.0
 10
79.64973997350504
 20
181.1313604410357
 30
0.0
 10
79.65391417914745
 20
181.1263430900654
 30
0.0
 10
79.65892814254211
 20
181.1223368976619
 30
0.0
 10
79.66242353913077
 20
181.1195440509339
 30
0.0
 10
79.66641256424161
 20
181.1172042316996
 30
0.0
 10
79.67062362093208
 20
181.1155927475182
 30
0.0
 10
79.67483980626189
 20
181.1139793007127
 30
0.0
 10
79.679372441212
 20
181.1130584261693
 30
0.0
 10
79.68383979989433
 20
181.1127930788758
 30
0.0
 10
79.68982269924891
 20
181.1124377131521
 30
0.0
 10
79.69584849856412
 20
181.113205572568
 30
0.0
 10
79.70153827677079
 20
181.1146208047898
 30
0.0
 10
79.71143320385927
 20
181.1170819938098
 30
0.0
 10
79.72068307736002
 20
181.1214642860751
 30
0.0
 10
79.7292059020932
 20
181.1265042161102
 30
0.0
 10
79.74096264442987
 20
181.1334565072427
 30
0.0
 10
79.75164164450108
 20
181.1418614562743
 30
0.0
 10
79.76150322491765
 20
181.1507938367244
 30
0.0
  0
ARC
  5
22A
330
1F
100
AcDbEntity
  8
0
  6
Continuous
 62
     7
370
     0
100
AcDbCircle
 10
79.4942327672
 20
180.6701000647
 30
0.0
 40
0.5500000000000221
100
AcDbArc
 50
119.133163409
 51
309.1545843929
  0
LINE
  5
22B
330
1F
100
AcDbEntity
  8
0
  6
Continuous
 62
     7
370
     0
100
AcDbLine
 10
79.8412384512
 20
181.0968166631
 30
0.0
 11
79.7615032249
 21
181.1507938367
 31
0.0
  0
SPLINE
  5
22C
330
1F
100
AcDbEntity
  8
0
  6
Continuous
 62
     7
370
     0
100
AcDbSpline
210
0.0
220
0.0
230
1.0
 70
     8
 71
     3
 72
    29
 73
    25
 74
     0
 42
0.000000001
 43
0.00000001
 40
0.0000000000000006
 40
0.0000000000000006
 40
0.0000000000000006
 40
0.0000000000000006
 40
0.0000553986492001
 40
0.0000553986492001
 40
0.0000553986492001
 40
0.0000744703661974
 40
0.0000744703661974
 40
0.0000744703661974
 40
0.0000938210300502
 40
0.0000938210300502
 40
0.0000938210300502
 40
0.0001072543096207
 40
0.0001072543096207
 40
0.0001072543096207
 40
0.0001207016259448
 40
0.0001207016259448
 40
0.0001207016259448
 40
0.0001387455774115
 40
0.0001387455774115
 40
0.0001387455774115
 40
0.0001702186759782
 40
0.0001702186759782
 40
0.0001702186759782
 40
0.0002135383638984
 40
0.0002135383638984
 40
0.0002135383638984
 40
0.0002135383638984
 10
79.22647019103995
 20
181.1505198840321
 30
0.0
 10
79.23903757568715
 20
181.1391600584692
 30
0.0
 10
79.25296241728117
 20
181.1284893411751
 30
0.0
 10
79.26879738825792
 20
181.1209081266754
 30
0.0
 10
79.27429882522624
 20
181.1182742365487
 30
0.0
 10
79.28008882350835
 20
181.1160214879781
 30
0.0
 10
79.28611798932764
 20
181.1144969107068
 30
0.0
 10
79.29219621629971
 20
181.1129599274873
 30
0.0
 10
79.29867304530545
 20
181.1121546390077
 30
0.0
 10
79.30507090656977
 20
181.1126613714218
 30
0.0
 10
79.30953106327175
 20
181.1130146310315
 30
0.0
 10
79.31404148127339
 20
181.1140360050249
 30
0.0
 10
79.31821572600053
 20
181.11574057555
 30
0.0
 10
79.32239505453379
 20
181.117447222069
 30
0.0
 10
79.326331550049
 20
181.1198755533014
 30
0.0
 10
79.32977207235756
 20
181.1227374598385
 30
0.0
 10
79.33437978357193
 20
181.1265702612747
 30
0.0
 10
79.3382505530581
 20
181.131251821811
 30
0.0
 10
79.34143341233602
 20
181.1361758308584
 30
0.0
 10
79.3469686299392
 20
181.1447390311693
 30
0.0
 10
79.35071931395954
 20
181.1542625291957
 30
0.0
 10
79.35348980372737
 20
181.1637685179731
 30
0.0
 10
79.35731153365455
 20
181.1768814780785
 30
0.0
 10
79.35935347080611
 20
181.1903170541143
 30
0.0
 10
79.36043834176516
 20
181.2035783226743
 30
0.0
  0
LINE
  5
22D
330
1F
100
AcDbEntity
  8
0
  6
Continuous
 62
     7
370
     0
100
AcDbLine
 10
83.9952327672
 20
189.4701000647
 30
0.0
 11
80.9952327672
 21
189.4701000647
 31
0.0
  0
LINE
  5
22E
330
1F
100
AcDbEntity
  8
0
  6
Continuous
 62
     7
370
     0
100
AcDbLine
 10
83.9952327672
 20
189.4701000647
 30
0.0
 11
83.9952327672
 21
181.0901000647
 31
0.0
  0
LINE
  5
22F
330
1F
100
AcDbEntity
  8
0
  6
Continuous
 62
     7
370
     0
100
AcDbLine
 10
83.9952327672
 20
180.2501000647
 30
0.0
 11
83.9952327672
 21
179.4701000647
 31
0.0
  0
LINE
  5
230
330
1F
100
AcDbEntity
  8
0
  6
Continuous
 62
     7
370
     0
100
AcDbLine
 10
83.9952327672
 20
179.4701000647
 30
0.0
 11
80.9952327672
 21
179.4701000647
 31
0.0
  0
LINE
  5
231
330
1F
100
AcDbEntity
  8
0
  6
Continuous
 62
     7
370
     0
100
AcDbLine
 10
80.9952327672
 20
189.4701000647
 30
0.0
 11
80.9952327672
 21
184.7625915529
 31
0.0
  0
LINE
  5
232
330
1F
100
AcDbEntity
  8
0
  6
Continuous
 62
     7
370
     0
100
AcDbLine
 10
80.9952327672
 20
184.1801410657
 30
0.0
 11
80.9952327672
 21
181.0901000647
 31
0.0
  0
LINE
  5
233
330
1F
100
AcDbEntity
  8
0
  6
Continuous
 62
     7
370
     0
100
AcDbLine
 10
80.9952327672
 20
180.2501000647
 30
0.0
 11
80.9952327672
 21
179.4701000647
 31
0.0
  0
LINE
  5
234
330
1F
100
AcDbEntity
  8
0
  6
Continuous
 62
     7
370
     0
100
AcDbLine
 10
77.9942327672
 20
189.4701000647
 30
0.0
 11
80.9942327672
 21
189.4701000647
 31
0.0
  0
LINE
  5
235
330
1F
100
AcDbEntity
  8
0
  6
Continuous
 62
     7
370
     0
100
AcDbLine
 10
77.9942327672
 20
184.7479475604
 30
0.0
 11
77.9942327672
 21
189.4701000647
 31
0.0
  0
LINE
  5
236
330
1F
100
AcDbEntity
  8
0
  6
Continuous
 62
     7
370
     0
100
AcDbLine
 10
80.9942327672
 20
184.7600590637
 30
0.0
 11
80.9942327672
 21
189.4701000647
 31
0.0
  0
LINE
  5
237
330
1F
100
AcDbEntity
  8
0
  6
Continuous
 62
     7
370
     0
100
AcDbLine
 10
74.9941327672
 20
189.4701000647
 30
0.0
 11
77.9941327672
 21
189.4701000647
 31
0.0
  0
LINE
  5
238
330
1F
100
AcDbEntity
  8
0
  6
Continuous
 62
     7
370
     0
100
AcDbLine
 10
77.9941327672
 20
184.7482000521
 30
0.0
 11
77.9941327672
 21
189.4701000647
 31
0.0
  0
LINE
  5
239
330
1F
100
AcDbEntity
  8
0
  6
Continuous
 62
     7
370
     0
100
AcDbLine
 10
74.9941327672
 20
184.7981934076
 30
0.0
 11
74.9941327672
 21
189.4701000647
 31
0.0
  0
LINE
  5
23A
330
1F
100
AcDbEntity
  8
0
  6
Continuous
 62
     7
370
     0
100
AcDbLine
 10
74.9941327672
 20
179.4701000647
 30
0.0
 11
77.9941327672
 21
179.4701000647
 31
0.0
  0
LINE
  5
23B
330
1F
100
AcDbEntity
  8
0
  6
Continuous
 62
     7
370
     0
100
AcDbLine
 10
77.9941327672
 20
179.4701000647
 30
0.0
 11
77.9941327672
 21
184.1672558912
 31
0.0
  0
LINE
  5
23C
330
1F
100
AcDbEntity
  8
0
  6
Continuous
 62
     7
370
     0
100
AcDbLine
 10
74.9941327672
 20
179.4701000647
 30
0.0
 11
74.9941327672
 21
184.2172492467
 31
0.0
  0
LINE
  5
23D
330
1F
100
AcDbEntity
  8
0
  6
Continuous
 62
     7
370
     0
100
AcDbLine
 10
77.9942327672
 20
179.4701000647
 30
0.0
 11
80.9942327672
 21
179.4701000647
 31
0.0
  0
LINE
  5
23E
330
1F
100
AcDbEntity
  8
0
  6
Continuous
 62
     7
370
     0
100
AcDbLine
 10
77.9942327672
 20
179.4701000647
 30
0.0
 11
77.9942327672
 21
184.1670033995
 31
0.0
  0
LINE
  5
23F
330
1F
100
AcDbEntity
  8
0
  6
Continuous
 62
     7
370
     0
100
AcDbLine
 10
80.9942327672
 20
179.4701000647
 30
0.0
 11
80.9942327672
 21
180.2501000647
 31
0.0
  0
LINE
  5
240
330
1F
100
AcDbEntity
  8
0
  6
Continuous
 62
     7
370
     0
100
AcDbLine
 10
80.9942327672
 20
181.0901000647
 30
0.0
 11
80.9942327672
 21
184.1776085766
 31
0.0
  0
LINE
  5
241
330
1F
100
AcDbEntity
  8
0
  6
Continuous
 62
     7
370
     0
100
AcDbLine
 10
71.9940327672
 20
189.4701000647
 30
0.0
 11
74.9940327672
 21
189.4701000647
 31
0.0
  0
LINE
  5
242
330
1F
100
AcDbEntity
  8
0
  6
Continuous
 62
     7
370
     0
100
AcDbLine
 10
71.9940327672
 20
184.697954205
 30
0.0
 11
71.9940327672
 21
189.4701000647
 31
0.0
  0
LINE
  5
243
330
1F
100
AcDbEntity
  8
0
  6
Continuous
 62
     7
370
     0
100
AcDbLine
 10
74.9940327672
 20
184.7979409159
 30
0.0
 11
74.9940327672
 21
189.4701000647
 31
0.0
  0
LINE
  5
244
330
1F
100
AcDbEntity
  8
0
  6
Continuous
 62
     7
370
     0
100
AcDbLine
 10
68.9939327672
 20
189.4701000647
 30
0.0
 11
71.9939327672
 21
189.4701000647
 31
0.0
  0
LINE
  5
245
330
1F
100
AcDbEntity
  8
0
  6
Continuous
 62
     7
370
     0
100
AcDbLine
 10
71.9939327672
 20
184.6982066967
 30
0.0
 11
71.9939327672
 21
189.4701000647
 31
0.0
  0
LINE
  5
246
330
1F
100
AcDbEntity
  8
0
  6
Continuous
 62
     7
370
     0
100
AcDbLine
 10
68.9939327672
 20
184.1443472729
 30
0.0
 11
68.9939327672
 21
189.4701000647
 31
0.0
  0
LINE
  5
247
330
1F
100
AcDbEntity
  8
0
  6
Continuous
 62
     7
370
     0
100
AcDbLine
 10
68.9939327672
 20
179.4701000647
 30
0.0
 11
71.9939327672
 21
179.4701000647
 31
0.0
  0
LINE
  5
248
330
1F
100
AcDbEntity
  8
0
  6
Continuous
 62
     7
370
     0
100
AcDbLine
 10
71.9939327672
 20
179.4701000647
 30
0.0
 11
71.9939327672
 21
184.1172625358
 31
0.0
  0
LINE
  5
249
330
1F
100
AcDbEntity
  8
0
  6
Continuous
 62
     7
370
     0
100
AcDbLine
 10
68.9939327672
 20
179.4701000647
 30
0.0
 11
68.9939327672
 21
183.4600031964
 31
0.0
  0
LINE
  5
24A
330
1F
100
AcDbEntity
  8
0
  6
Continuous
 62
     7
370
     0
100
AcDbLine
 10
71.9940327672
 20
179.4701000647
 30
0.0
 11
74.9940327672
 21
179.4701000647
 31
0.0
  0
LINE
  5
24B
330
1F
100
AcDbEntity
  8
0
  6
Continuous
 62
     7
370
     0
100
AcDbLine
 10
71.9940327672
 20
179.4701000647
 30
0.0
 11
71.9940327672
 21
184.1170100441
 31
0.0
  0
LINE
  5
24C
330
1F
100
AcDbEntity
  8
0
  6
Continuous
 62
     7
370
     0
100
AcDbLine
 10
74.9940327672
 20
179.4701000647
 30
0.0
 11
74.9940327672
 21
184.216996755
 31
0.0
  0
LINE
  5
24D
330
1F
100
AcDbEntity
  8
0
  6
Continuous
 62
     7
370
     0
100
AcDbLine
 10
66.9929327672
 20
179.4701000647
 30
0.0
 11
68.9929327672
 21
179.4701000647
 31
0.0
  0
LINE
  5
24E
330
1F
100
AcDbEntity
  8
0
  6
Continuous
 62
     7
370
     0
100
AcDbLine
 10
66.9929327672
 20
179.4701000647
 30
0.0
 11
66.9929327672
 21
189.4701000647
 31
0.0
  0
LINE
  5
24F
330
1F
100
AcDbEntity
  8
0
  6
Continuous
 62
     7
370
     0
100
AcDbLine
 10
66.9929327672
 20
189.4701000647
 30
0.0
 11
68.9929327672
 21
189.4701000647
 31
0.0
  0
LINE
  5
250
330
1F
100
AcDbEntity
  8
0
  6
Continuous
 62
     7
370
     0
100
AcDbLine
 10
68.9929327672
 20
184.1413084884
 30
0.0
 11
68.9929327672
 21
189.4701000647
 31
0.0
  0
LINE
  5
251
330
1F
100
AcDbEntity
  8
0
  6
Continuous
 62
     7
370
     0
100
AcDbLine
 10
68.9929327672
 20
179.4701000647
 30
0.0
 11
68.9929327672
 21
183.4569644119
 31
0.0
  0
LINE
  5
252
330
1F
100
AcDbEntity
  8
0
  6
Continuous
 62
     7
370
     0
100
AcDbLine
 10
84.4962327672
 20
179.4701000647
 30
0.0
 11
83.9962327672
 21
179.4701000647
 31
0.0
  0
LINE
  5
253
330
1F
100
AcDbEntity
  8
0
  6
Continuous
 62
     7
370
     0
100
AcDbLine
 10
83.9962327672
 20
189.4701000647
 30
0.0
 11
83.9962327672
 21
181.0901000647
 31
0.0
  0
LINE
  5
254
330
1F
100
AcDbEntity
  8
0
  6
Continuous
 62
     7
370
     0
100
AcDbLine
 10
83.9962327672
 20
180.2501000647
 30
0.0
 11
83.9962327672
 21
179.4701000647
 31
0.0
  0
LINE
  5
255
330
1F
100
AcDbEntity
  8
0
  6
Continuous
 62
     7
370
     0
100
AcDbLine
 10
84.4962327672
 20
189.4701000647
 30
0.0
 11
84.4962327672
 21
181.0901000647
 31
0.0
  0
LINE
  5
256
330
1F
100
AcDbEntity
  8
0
  6
Continuous
 62
     7
370
     0
100
AcDbLine
 10
84.4962327672
 20
180.2501000647
 30
0.0
 11
84.4962327672
 21
179.4701000647
 31
0.0
  0
LINE
  5
257
330
1F
100
AcDbEntity
  8
0
  6
Continuous
 62
     7
370
     0
100
AcDbLine
 10
84.4962327672
 20
189.4701000647
 30
0.0
 11
83.9962327672
 21
189.4701000647
 31
0.0
  0
LINE
  5
258
330
1F
100
AcDbEntity
  8
0
  6
Continuous
 62
     7
370
     0
100
AcDbLine
 10
66.9919327672
 20
189.4697933951
 30
0.0
 11
66.9919327672
 21
179.4704067343
 31
0.0
  0
LINE
  5
259
330
1F
100
AcDbEntity
  8
0
  6
CENTERX2
 62
     7
370
     0
100
AcDbLine
 10
69.2153663249
 20
184.4701000647
 30
0.0
 11
69.4939329101
 21
184.4701000647
 31
0.0
  0
DIMENSION
  5
25A
330
1F
100
AcDbEntity
  8
0
  6
Continuous
 62
     7
370
     0
100
AcDbDimension
  2
_D_2
 10
66.9072660252
 20
184.4701000647
 30
0.0
 11
46.1387621882
 21
191.097176833
 31
0.0
 70
   164
  1
<>
 71
     1
 42
-1.0
  3
SLDDIMSTYLE2
100
AcDbRadialDimension
 15
62.5745467458
 25
186.9664264658
 35
0.0
 40
0.0
  0
ARC
  5
26A
330
1F
100
AcDbEntity
  8
0
  6
Continuous
 62
     7
370
     0
100
AcDbCircle
 10
67.3305094759
 20
88.9269401279
 30
0.0
 40
5.000410168672616
100
AcDbArc
 50
89.0298238266
 51
90.0
  0
ARC
  5
26B
330
1F
100
AcDbEntity
  8
0
  6
Continuous
 62
     7
370
     0
100
AcDbCircle
 10
67.3305094759
 20
88.9269401279
 30
0.0
 40
5.000410168672623
100
AcDbArc
 50
90.0
 51
270.9701761734
  0
LINE
  5
26C
330
1F
100
AcDbEntity
  8
0
  6
Continuous
 62
     7
370
     0
100
AcDbLine
 10
84.9743107638
 20
92.3069401279
 30
0.0
 11
159.9743107638
 21
92.3069401279
 31
0.0
  0
LINE
  5
26D
330
1F
100
AcDbEntity
  8
0
  6
Continuous
 62
     7
370
     0
100
AcDbLine
 10
84.3785190834
 20
92.3069401279
 30
0.0
 11
84.9743107638
 21
92.3069401279
 31
0.0
  0
LINE
  5
26E
330
1F
100
AcDbEntity
  8
0
  6
Continuous
 62
     7
370
     0
100
AcDbLine
 10
84.9743107638
 20
93.1469401279
 30
0.0
 11
84.3785190834
 21
93.1469401279
 31
0.0
  0
LINE
  5
26F
330
1F
100
AcDbEntity
  8
0
  6
Continuous
 62
     7
370
     0
100
AcDbLine
 10
159.9743107638
 20
93.1469401279
 30
0.0
 11
84.9743107638
 21
93.1469401279
 31
0.0
  0
SPLINE
  5
270
330
1F
100
AcDbEntity
  8
0
  6
Continuous
 62
     7
370
     0
100
AcDbSpline
210
0.0
220
0.0
230
1.0
 70
    24
 71
     3
 72
    21
 73
    17
 74
     0
 42
0.000000001
 43
0.00000001
 40
0.0
 40
0.0
 40
0.0
 40
0.0
 40
0.0831181503173537
 40
0.1661156300345582
 40
0.2388786602806112
 40
0.3022647827538759
 40
0.3733007871661985
 40
0.4299214568515412
 40
0.4758857701671972
 40
0.5322335288370058
 40
0.6027781333444366
 40
0.6877250583758755
 40
0.7613349308899982
 40
0.8440853339320205
 40
0.9369172299961879
 40
1.0
 40
1.0
 40
1.0
 40
1.0
 10
80.0104842609303
 20
92.30694012790045
 30
0.0
 10
80.10631369747509
 20
92.30694012790075
 30
0.0
 10
80.29783344576971
 20
92.30694012790137
 30
0.0
 10
80.6033432107099
 20
92.30694012790148
 30
0.0
 10
80.90153722507145
 20
92.30694012790131
 30
0.0
 10
81.20065578253487
 20
92.30694012790096
 30
0.0
 10
81.49169106844539
 20
92.30694012790056
 30
0.0
 10
81.76913336979126
 20
92.30694012790026
 30
0.0
 10
82.03226569076621
 20
92.30694012790008
 30
0.0
 10
82.32800536351714
 20
92.3069401279001
 30
0.0
 10
82.70391893281227
 20
92.30694012790009
 30
0.0
 10
83.12621488537033
 20
92.30694012790009
 30
0.0
 10
83.58436824238447
 20
92.30694012790009
 30
0.0
 10
84.06813953438372
 20
92.30694012790009
 30
0.0
 10
84.53880564773897
 20
92.30694012790009
 30
0.0
 10
84.84896189754713
 20
92.30694012790009
 30
0.0
 10
84.97445051170588
 20
92.30694012790009
 30
0.0
  0
SPLINE
  5
271
330
1F
100
AcDbEntity
  8
0
  6
Continuous
 62
     7
370
     0
100
AcDbSpline
210
0.0
220
0.0
230
1.0
 70
    24
 71
     3
 72
    20
 73
    16
 74
     0
 42
0.000000001
 43
0.00000001
 40
0.0
 40
0.0
 40
0.0
 40
0.0
 40
0.076861832004889
 40
0.1765122764549258
 40
0.2597806827058379
 40
0.3278606223014334
 40
0.3813622452944855
 40
0.4270668940571682
 40
0.4849855525763705
 40
0.5569042225799163
 40
0.6436661088043072
 40
0.719322557789717
 40
0.8049900648168935
 40
0.901805666328227
 40
1.0
 40
1.0
 40
1.0
 40
1.0
 10
84.97443816375169
 20
93.14694012790011
 30
0.0
 10
84.82153440089675
 20
93.14694012790011
 30
0.0
 10
84.4703927411672
 20
93.14694012790011
 30
0.0
 10
83.9592846627244
 20
93.14694012790011
 30
0.0
 10
83.47449430164208
 20
93.14694012790011
 30
0.0
 10
83.08803982167154
 20
93.14694012790011
 30
0.0
 10
82.77995848493578
 20
93.14694012790011
 30
0.0
 10
82.4972072938533
 20
93.14694012790011
 30
0.0
 10
82.18977175382905
 20
93.1469401279001
 30
0.0
 10
81.82484261897977
 20
93.14694012790015
 30
0.0
 10
81.45077424901288
 20
93.14694012790045
 30
0.0
 10
81.07840697878905
 20
93.14694012790078
 30
0.0
 10
80.71640179210213
 20
93.146940127901
 30
0.0
 10
80.35013895687581
 20
93.14694012790102
 30
0.0
 10
80.12441984720606
 20
93.14694012790056
 30
0.0
 10
80.01076236842071
 20
93.14694012790032
 30
0.0
  0
LINE
  5
272
330
1F
100
AcDbEntity
  8
0
  6
Continuous
 62
     7
370
     0
100
AcDbLine
 10
69.4161168977
 20
89.9402689792
 30
0.0
 11
68.6567296156
 21
92.2478832713
 31
0.0
  0
LINE
  5
273
330
1F
100
AcDbEntity
  8
0
  6
Continuous
 62
     7
370
     0
100
AcDbLine
 10
69.4171276412
 20
89.9371975475
 30
0.0
 11
69.4161168977
 21
89.9402689792
 31
0.0
  0
LINE
  5
274
330
1F
100
AcDbEntity
  8
0
  6
Continuous
 62
     7
370
     0
100
AcDbLine
 10
70.8204287888
 20
85.6728677908
 30
0.0
 11
69.4171276412
 21
89.9371975475
 31
0.0
  0
LINE
  5
275
330
1F
100
AcDbEntity
  8
0
  6
Continuous
 62
     7
370
     0
100
AcDbLine
 10
69.4172355381
 20
89.2524997212
 30
0.0
 11
70.6172228202
 21
85.6059969845
 31
0.0
  0
LINE
  5
276
330
1F
100
AcDbEntity
  8
0
  6
Continuous
 62
     7
370
     0
100
AcDbLine
 10
69.4162247945
 20
89.2555711529
 30
0.0
 11
69.4172355381
 21
89.2524997212
 31
0.0
  0
LINE
  5
277
330
1F
100
AcDbEntity
  8
0
  6
Continuous
 62
     7
370
     0
100
AcDbLine
 10
68.453523647
 20
92.181012465
 30
0.0
 11
69.4162247945
 21
89.2555711529
 31
0.0
  0
LINE
  5
278
330
1F
100
AcDbEntity
  8
0
  6
Continuous
 62
     7
370
     0
100
AcDbLine
 10
72.4172496308
 20
89.2799740008
 30
0.0
 11
70.9866965604
 21
85.667946315
 31
0.0
  0
LINE
  5
279
330
1F
100
AcDbEntity
  8
0
  6
Continuous
 62
     7
370
     0
100
AcDbLine
 10
72.4173496308
 20
89.2802264925
 30
0.0
 11
72.4172496308
 21
89.2799740008
 31
0.0
  0
LINE
  5
27A
330
1F
100
AcDbEntity
  8
0
  6
Continuous
 62
     7
370
     0
100
AcDbLine
 10
73.5993609156
 20
92.264706813
 30
0.0
 11
72.4173496308
 21
89.2802264925
 31
0.0
  0
LINE
  5
27B
330
1F
100
AcDbEntity
  8
0
  6
Continuous
 62
     7
370
     0
100
AcDbLine
 10
72.4171350282
 20
88.6987185129
 30
0.0
 11
73.7982558753
 21
92.1859339408
 31
0.0
  0
LINE
  5
27C
330
1F
100
AcDbEntity
  8
0
  6
Continuous
 62
     7
370
     0
100
AcDbLine
 10
72.4170380585
 20
88.6984736725
 30
0.0
 11
72.4171350282
 21
88.6987185129
 31
0.0
  0
LINE
  5
27D
330
1F
100
AcDbEntity
  8
0
  6
Continuous
 62
     7
370
     0
100
AcDbLine
 10
71.1855915202
 20
85.5891734428
 30
0.0
 11
72.4170380585
 21
88.6984736725
 31
0.0
  0
LINE
  5
27E
330
1F
100
AcDbEntity
  8
0
  6
Continuous
 62
     7
370
     0
100
AcDbLine
 10
75.417202805
 20
89.1802397816
 30
0.0
 11
74.1955915202
 21
92.264706813
 31
0.0
  0
LINE
  5
27F
330
1F
100
AcDbEntity
  8
0
  6
Continuous
 62
     7
370
     0
100
AcDbLine
 10
75.417302805
 20
89.1799872899
 30
0.0
 11
75.417202805
 21
89.1802397816
 31
0.0
  0
LINE
  5
280
330
1F
100
AcDbEntity
  8
0
  6
Continuous
 62
     7
370
     0
100
AcDbLine
 10
76.8082558753
 20
85.667946315
 30
0.0
 11
75.417302805
 21
89.1799872899
 31
0.0
  0
LINE
  5
281
330
1F
100
AcDbEntity
  8
0
  6
Continuous
 62
     7
370
     0
100
AcDbLine
 10
75.4174422923
 20
88.59866897
 30
0.0
 11
76.6093609156
 21
85.5891734428
 31
0.0
  0
LINE
  5
282
330
1F
100
AcDbEntity
  8
0
  6
Continuous
 62
     7
370
     0
100
AcDbLine
 10
75.4173422923
 20
88.5989214617
 30
0.0
 11
75.4174422923
 21
88.59866897
 31
0.0
  0
LINE
  5
283
330
1F
100
AcDbEntity
  8
0
  6
Continuous
 62
     7
370
     0
100
AcDbLine
 10
73.9966965604
 20
92.1859339408
 30
0.0
 11
75.4173422923
 21
88.5989214617
 31
0.0
  0
LINE
  5
284
330
1F
100
AcDbEntity
  8
0
  6
Continuous
 62
     7
370
     0
100
AcDbLine
 10
78.4174496308
 20
89.2299806454
 30
0.0
 11
77.0066965604
 21
85.667946315
 31
0.0
  0
LINE
  5
285
330
1F
100
AcDbEntity
  8
0
  6
Continuous
 62
     7
370
     0
100
AcDbLine
 10
78.4175422923
 20
89.230214608
 30
0.0
 11
78.4174496308
 21
89.2299806454
 31
0.0
  0
LINE
  5
286
330
1F
100
AcDbEntity
  8
0
  6
Continuous
 62
     7
370
     0
100
AcDbLine
 10
79.6193609156
 20
92.264706813
 30
0.0
 11
78.4175422923
 21
89.230214608
 31
0.0
  0
LINE
  5
287
330
1F
100
AcDbEntity
  8
0
  6
Continuous
 62
     7
370
     0
100
AcDbLine
 10
78.417402805
 20
88.6488962882
 30
0.0
 11
79.8182558753
 21
92.1859339408
 31
0.0
  0
LINE
  5
288
330
1F
100
AcDbEntity
  8
0
  6
Continuous
 62
     7
370
     0
100
AcDbLine
 10
78.4173101435
 20
88.6486623255
 30
0.0
 11
78.417402805
 21
88.6488962882
 31
0.0
  0
LINE
  5
289
330
1F
100
AcDbEntity
  8
0
  6
Continuous
 62
     7
370
     0
100
AcDbLine
 10
77.2055915202
 20
85.5891734428
 30
0.0
 11
78.4173101435
 21
88.6486623255
 31
0.0
  0
LINE
  5
28A
330
1F
100
AcDbEntity
  8
0
  6
Continuous
 62
     7
370
     0
100
AcDbLine
 10
81.4174102551
 20
89.2196096772
 30
0.0
 11
80.2151180098
 21
92.2644017678
 31
0.0
  0
LINE
  5
28B
330
1F
100
AcDbEntity
  8
0
  6
Continuous
 62
     7
370
     0
100
AcDbLine
 10
81.4184102551
 20
89.217077188
 30
0.0
 11
81.4174102551
 21
89.2196096772
 31
0.0
  0
LINE
  5
28C
330
1F
100
AcDbEntity
  8
0
  6
Continuous
 62
     7
370
     0
100
AcDbLine
 10
82.8198099495
 20
85.6680476388
 30
0.0
 11
81.4184102551
 21
89.217077188
 31
0.0
  0
LINE
  5
28D
330
1F
100
AcDbEntity
  8
0
  6
Continuous
 62
     7
370
     0
100
AcDbLine
 10
81.4185497187
 20
88.6342514888
 30
0.0
 11
82.620834426
 21
85.589478488
 31
0.0
  0
LINE
  5
28E
330
1F
100
AcDbEntity
  8
0
  6
Continuous
 62
     7
370
     0
100
AcDbLine
 10
81.4175497187
 20
88.6367839779
 30
0.0
 11
81.4185497187
 21
88.6342514888
 31
0.0
  0
LINE
  5
28F
330
1F
100
AcDbEntity
  8
0
  6
Continuous
 62
     7
370
     0
100
AcDbLine
 10
80.0161424863
 20
92.185832617
 30
0.0
 11
81.4175497187
 21
88.6367839779
 31
0.0
  0
LINE
  5
290
330
1F
100
AcDbEntity
  8
0
  6
Continuous
 62
     7
370
     0
100
AcDbLine
 10
67.4161762179
 20
83.9269401279
 30
0.0
 11
69.4161762179
 21
83.9269401279
 31
0.0
  0
LINE
  5
291
330
1F
100
AcDbEntity
  8
0
  6
Continuous
 62
     7
370
     0
100
AcDbLine
 10
67.4161762179
 20
93.9269401279
 30
0.0
 11
69.4161762179
 21
93.9269401279
 31
0.0
  0
LINE
  5
292
330
1F
100
AcDbEntity
  8
0
  6
Continuous
 62
     7
370
     0
100
AcDbLine
 10
69.4161762179
 20
83.9269401279
 30
0.0
 11
69.4161762179
 21
89.2557317042
 31
0.0
  0
LINE
  5
293
330
1F
100
AcDbEntity
  8
0
  6
Continuous
 62
     7
370
     0
100
AcDbLine
 10
69.4161762179
 20
89.9400757807
 30
0.0
 11
69.4161762179
 21
93.9269401279
 31
0.0
  0
LINE
  5
294
330
1F
100
AcDbEntity
  8
0
  6
Continuous
 62
     7
370
     0
100
AcDbLine
 10
67.4161762179
 20
83.9269401279
 30
0.0
 11
67.4161762179
 21
93.9269401279
 31
0.0
  0
LINE
  5
295
330
1F
100
AcDbEntity
  8
0
  6
Continuous
 62
     7
370
     0
100
AcDbLine
 10
69.4171762179
 20
83.9269401279
 30
0.0
 11
72.4171762179
 21
83.9269401279
 31
0.0
  0
LINE
  5
296
330
1F
100
AcDbEntity
  8
0
  6
Continuous
 62
     7
370
     0
100
AcDbLine
 10
69.4171762179
 20
93.9269401279
 30
0.0
 11
72.4171762179
 21
93.9269401279
 31
0.0
  0
LINE
  5
297
330
1F
100
AcDbEntity
  8
0
  6
Continuous
 62
     7
370
     0
100
AcDbLine
 10
72.4171762179
 20
83.9269401279
 30
0.0
 11
72.4171762179
 21
88.698833496
 31
0.0
  0
LINE
  5
298
330
1F
100
AcDbEntity
  8
0
  6
Continuous
 62
     7
370
     0
100
AcDbLine
 10
72.4171762179
 20
89.2797776569
 30
0.0
 11
72.4171762179
 21
93.9269401279
 31
0.0
  0
LINE
  5
299
330
1F
100
AcDbEntity
  8
0
  6
Continuous
 62
     7
370
     0
100
AcDbLine
 10
69.4171762179
 20
83.9269401279
 30
0.0
 11
69.4171762179
 21
89.2526929197
 31
0.0
  0
LINE
  5
29A
330
1F
100
AcDbEntity
  8
0
  6
Continuous
 62
     7
370
     0
100
AcDbLine
 10
69.4171762179
 20
89.9370369962
 30
0.0
 11
69.4171762179
 21
93.9269401279
 31
0.0
  0
LINE
  5
29B
330
1F
100
AcDbEntity
  8
0
  6
Continuous
 62
     7
370
     0
100
AcDbLine
 10
72.4172762179
 20
83.9269401279
 30
0.0
 11
72.4172762179
 21
88.6990859876
 31
0.0
  0
LINE
  5
29C
330
1F
100
AcDbEntity
  8
0
  6
Continuous
 62
     7
370
     0
100
AcDbLine
 10
72.4172762179
 20
89.2800301486
 30
0.0
 11
72.4172762179
 21
93.9269401279
 31
0.0
  0
LINE
  5
29D
330
1F
100
AcDbEntity
  8
0
  6
Continuous
 62
     7
370
     0
100
AcDbLine
 10
72.4172762179
 20
93.9269401279
 30
0.0
 11
75.4172762179
 21
93.9269401279
 31
0.0
  0
LINE
  5
29E
330
1F
100
AcDbEntity
  8
0
  6
Continuous
 62
     7
370
     0
100
AcDbLine
 10
75.4172762179
 20
83.9269401279
 30
0.0
 11
75.4172762179
 21
88.5990992767
 31
0.0
  0
LINE
  5
29F
330
1F
100
AcDbEntity
  8
0
  6
Continuous
 62
     7
370
     0
100
AcDbLine
 10
75.4172762179
 20
89.1800434376
 30
0.0
 11
75.4172762179
 21
93.9269401279
 31
0.0
  0
LINE
  5
2A0
330
1F
100
AcDbEntity
  8
0
  6
Continuous
 62
     7
370
     0
100
AcDbLine
 10
72.4172762179
 20
83.9269401279
 30
0.0
 11
75.4172762179
 21
83.9269401279
 31
0.0
  0
LINE
  5
2A1
330
1F
100
AcDbEntity
  8
0
  6
Continuous
 62
     7
370
     0
100
AcDbLine
 10
75.4173762179
 20
83.9269401279
 30
0.0
 11
78.4173762179
 21
83.9269401279
 31
0.0
  0
LINE
  5
2A2
330
1F
100
AcDbEntity
  8
0
  6
Continuous
 62
     7
370
     0
100
AcDbLine
 10
75.4173762179
 20
93.9269401279
 30
0.0
 11
78.4173762179
 21
93.9269401279
 31
0.0
  0
LINE
  5
2A3
330
1F
100
AcDbEntity
  8
0
  6
Continuous
 62
     7
370
     0
100
AcDbLine
 10
78.4173762179
 20
83.9269401279
 30
0.0
 11
78.4173762179
 21
88.6488401405
 31
0.0
  0
LINE
  5
2A4
330
1F
100
AcDbEntity
  8
0
  6
Continuous
 62
     7
370
     0
100
AcDbLine
 10
78.4173762179
 20
89.2297843014
 30
0.0
 11
78.4173762179
 21
93.9269401279
 31
0.0
  0
LINE
  5
2A5
330
1F
100
AcDbEntity
  8
0
  6
Continuous
 62
     7
370
     0
100
AcDbLine
 10
75.4173762179
 20
83.9269401279
 30
0.0
 11
75.4173762179
 21
88.598846785
 31
0.0
  0
LINE
  5
2A6
330
1F
100
AcDbEntity
  8
0
  6
Continuous
 62
     7
370
     0
100
AcDbLine
 10
75.4173762179
 20
89.1797909459
 30
0.0
 11
75.4173762179
 21
93.9269401279
 31
0.0
  0
LINE
  5
2A7
330
1F
100
AcDbEntity
  8
0
  6
Continuous
 62
     7
370
     0
100
AcDbLine
 10
78.4174762179
 20
83.9269401279
 30
0.0
 11
78.4174762179
 21
88.6490926322
 31
0.0
  0
LINE
  5
2A8
330
1F
100
AcDbEntity
  8
0
  6
Continuous
 62
     7
370
     0
100
AcDbLine
 10
78.4174762179
 20
89.2300367931
 30
0.0
 11
78.4174762179
 21
93.9269401279
 31
0.0
  0
LINE
  5
2A9
330
1F
100
AcDbEntity
  8
0
  6
Continuous
 62
     7
370
     0
100
AcDbLine
 10
78.4174762179
 20
93.9269401279
 30
0.0
 11
81.4174762179
 21
93.9269401279
 31
0.0
  0
LINE
  5
2AA
330
1F
100
AcDbEntity
  8
0
  6
Continuous
 62
     7
370
     0
100
AcDbLine
 10
81.4174762179
 20
83.9269401279
 30
0.0
 11
81.4174762179
 21
88.6369811289
 31
0.0
  0
LINE
  5
2AB
330
1F
100
AcDbEntity
  8
0
  6
Continuous
 62
     7
370
     0
100
AcDbLine
 10
81.4174762179
 20
89.219431616
 30
0.0
 11
81.4174762179
 21
92.3069401279
 31
0.0
  0
LINE
  5
2AC
330
1F
100
AcDbEntity
  8
0
  6
Continuous
 62
     7
370
     0
100
AcDbLine
 10
81.4174762179
 20
93.1469401279
 30
0.0
 11
81.4174762179
 21
93.9269401279
 31
0.0
  0
LINE
  5
2AD
330
1F
100
AcDbEntity
  8
0
  6
Continuous
 62
     7
370
     0
100
AcDbLine
 10
78.4174762179
 20
83.9269401279
 30
0.0
 11
81.4174762179
 21
83.9269401279
 31
0.0
  0
LINE
  5
2AE
330
1F
100
AcDbEntity
  8
0
  6
Continuous
 62
     7
370
     0
100
AcDbLine
 10
84.4184762179
 20
93.9269401279
 30
0.0
 11
81.4184762179
 21
93.9269401279
 31
0.0
  0
LINE
  5
2AF
330
1F
100
AcDbEntity
  8
0
  6
Continuous
 62
     7
370
     0
100
AcDbLine
 10
84.4184762179
 20
93.9269401279
 30
0.0
 11
84.4184762179
 21
93.1469401279
 31
0.0
  0
LINE
  5
2B0
330
1F
100
AcDbEntity
  8
0
  6
Continuous
 62
     7
370
     0
100
AcDbLine
 10
84.4184762179
 20
92.3069401279
 30
0.0
 11
84.4184762179
 21
83.9269401279
 31
0.0
  0
LINE
  5
2B1
330
1F
100
AcDbEntity
  8
0
  6
Continuous
 62
     7
370
     0
100
AcDbLine
 10
84.4184762179
 20
83.9269401279
 30
0.0
 11
81.4184762179
 21
83.9269401279
 31
0.0
  0
LINE
  5
2B2
330
1F
100
AcDbEntity
  8
0
  6
Continuous
 62
     7
370
     0
100
AcDbLine
 10
81.4184762179
 20
93.9269401279
 30
0.0
 11
81.4184762179
 21
93.1469401279
 31
0.0
  0
LINE
  5
2B3
330
1F
100
AcDbEntity
  8
0
  6
Continuous
 62
     7
370
     0
100
AcDbLine
 10
81.4184762179
 20
92.3069401279
 30
0.0
 11
81.4184762179
 21
89.2168991269
 31
0.0
  0
LINE
  5
2B4
330
1F
100
AcDbEntity
  8
0
  6
Continuous
 62
     7
370
     0
100
AcDbLine
 10
81.4184762179
 20
88.6344486398
 30
0.0
 11
81.4184762179
 21
83.9269401279
 31
0.0
  0
LINE
  5
2B5
330
1F
100
AcDbEntity
  8
0
  6
Continuous
 62
     7
370
     0
100
AcDbLine
 10
84.9194762179
 20
93.9269401279
 30
0.0
 11
84.4194762179
 21
93.9269401279
 31
0.0
  0
LINE
  5
2B6
330
1F
100
AcDbEntity
  8
0
  6
Continuous
 62
     7
370
     0
100
AcDbLine
 10
84.9194762179
 20
93.9269401279
 30
0.0
 11
84.9194762179
 21
93.1469401279
 31
0.0
  0
LINE
  5
2B7
330
1F
100
AcDbEntity
  8
0
  6
Continuous
 62
     7
370
     0
100
AcDbLine
 10
84.9194762179
 20
92.3069401279
 30
0.0
 11
84.9194762179
 21
83.9269401279
 31
0.0
  0
LINE
  5
2B8
330
1F
100
AcDbEntity
  8
0
  6
Continuous
 62
     7
370
     0
100
AcDbLine
 10
84.9194762179
 20
83.9269401279
 30
0.0
 11
84.4194762179
 21
83.9269401279
 31
0.0
  0
LINE
  5
2B9
330
1F
100
AcDbEntity
  8
0
  6
Continuous
 62
     7
370
     0
100
AcDbLine
 10
84.4194762179
 20
93.9269401279
 30
0.0
 11
84.4194762179
 21
93.1469401279
 31
0.0
  0
LINE
  5
2BA
330
1F
100
AcDbEntity
  8
0
  6
Continuous
 62
     7
370
     0
100
AcDbLine
 10
84.4194762179
 20
92.3069401279
 30
0.0
 11
84.4194762179
 21
83.9269401279
 31
0.0
  0
LINE
  5
2BB
330
1F
100
AcDbEntity
  8
0
  6
Continuous
 62
     7
370
     0
100
AcDbLine
 10
67.4151762179
 20
88.9269401279
 30
0.0
 11
67.4151762179
 21
83.9272467975
 31
0.0
  0
LINE
  5
2BC
330
1F
100
AcDbEntity
  8
0
  6
Continuous
 62
     7
370
     0
100
AcDbLine
 10
67.4151762179
 20
93.9266334583
 30
0.0
 11
67.4151762179
 21
88.9269401279
 31
0.0
  0
LWPOLYLINE
  5
2BD
330
1F
100
AcDbEntity
  8
0
  6
Continuous
 62
     7
370
     0
100
AcDbPolyline
 90
       22
 70
   128
 43
0.0
 10
159.9743107638
 20
92.3069401279
 10
159.9054960712
 20
92.3255995495
 10
159.842795866
 20
92.3799198427
 10
159.7917813367
 20
92.4650744111
 10
159.756985348
 20
92.5734968977
 10
159.7414996761
 20
92.6955534886
 10
159.7467002911
 20
92.8203989202
 10
159.7721250955
 20
92.9369401279
 10
159.8155149837
 20
93.0348219141
 10
159.8730145739
 20
93.1053470524
 10
159.939514775
 20
93.1422490749
 10
160.0091067525
 20
93.1422490749
 10
160.0756069537
 20
93.1053470524
 10
160.1331065439
 20
93.0348219141
 10
160.1764964321
 20
92.9369401279
 10
160.2019212364
 20
92.8203989202
 10
160.2071218514
 20
92.6955534886
 10
160.1916361796
 20
92.5734968977
 10
160.1568401909
 20
92.4650744111
 10
160.1058256615
 20
92.3799198427
 10
160.0431254564
 20
92.3255995495
 10
159.9743107638
 20
92.3069401279
  0
SPLINE
  5
2BE
330
1F
100
AcDbEntity
  8
0
  6
Continuous
 62
     7
370
     0
100
AcDbSpline
210
0.0
220
0.0
230
1.0
 70
     8
 71
     3
 72
    18
 73
    14
 74
     0
 42
0.000000001
 43
0.00000001
 40
0.0
 40
0.0
 40
0.0
 40
0.0
 40
0.1250000000000003
 40
0.1250000000000003
 40
0.2500000000000006
 40
0.2500000000000006
 40
0.5000000000000004
 40
0.5000000000000004
 40
0.7500000000000002
 40
0.7500000000000002
 40
0.8750000000000001
 40
0.8750000000000001
 40
1.0
 40
1.0
 40
1.0
 40
1.0
 10
84.97431076377946
 20
92.30694012790009
 30
0.0
 10
84.97257847324236
 20
92.30694012790009
 30
0.0
 10
84.96694431942689
 20
92.3206355906568
 30
0.0
 10
84.95519719606732
 20
92.3689505367827
 30
0.0
 10
84.94938054612837
 20
92.4034156400131
 30
0.0
 10
84.93617525258561
 20
92.52387946503848
 30
0.0
 10
84.93257484907232
 20
92.62554517841745
 30
0.0
 10
84.93258967806469
 20
92.8289361404225
 30
0.0
 10
84.93618590260758
 20
92.9298461634102
 30
0.0
 10
84.94930128639758
 20
93.04986640770815
 30
0.0
 10
84.9550756579421
 20
93.08437013800244
 30
0.0
 10
84.96695798116937
 20
93.13336002009198
 30
0.0
 10
84.9725784732443
 20
93.14694012790011
 30
0.0
 10
84.97431076377889
 20
93.14694012790011
 30
0.0
  0
SPLINE
  5
2BF
330
1F
100
AcDbEntity
  8
0
  6
Continuous
 62
     7
370
     0
100
AcDbSpline
210
0.0
220
0.0
230
1.0
 70
     8
 71
     3
 72
    17
 73
    13
 74
     0
 42
0.000000001
 43
0.00000001
 40
0.0
 40
0.0
 40
0.0
 40
0.0
 40
0.0725144967732884
 40
0.1867913268630482
 40
0.2892238300508732
 40
0.3951188349054455
 40
0.5055352413258835
 40
0.6193139244782884
 40
0.7329666891012403
 40
0.8428600338679288
 40
0.9479555283580465
 40
1.0
 40
1.0
 40
1.0
 40
1.0
 10
80.01077409397203
 20
92.31184716641009
 30
0.0
 10
79.97936942735778
 20
92.31192406448797
 30
0.0
 10
79.89847361193333
 20
92.31212214755602
 30
0.0
 10
79.78262849215845
 20
92.36973683978925
 30
0.0
 10
79.68226388002513
 20
92.46759951274156
 30
0.0
 10
79.61938259065221
 20
92.59259878004403
 30
0.0
 10
79.59844917133971
 20
92.73575644855676
 30
0.0
 10
79.6253847468589
 20
92.8814838780262
 30
0.0
 10
79.69939356220587
 20
93.01038260556712
 30
0.0
 10
79.81010834751548
 20
93.10084393236778
 30
0.0
 10
79.92041826263186
 20
93.14606150680527
 30
0.0
 10
79.98827221536298
 20
93.14251581348462
 30
0.0
 10
80.01074532138199
 20
93.14134148629071
 30
0.0
  0
ARC
  5
2C0
330
1F
100
AcDbEntity
  8
0
  6
Continuous
 62
     7
370
     0
100
AcDbCircle
 10
70.8874762179
 20
85.1269401279
 30
0.0
 40
0.550000000000152
100
AcDbArc
 50
115.7422779593
 51
60.8668365914
  0
SPLINE
  5
2C1
330
1F
100
AcDbEntity
  8
0
  6
Continuous
 62
     7
370
     0
100
AcDbSpline
210
0.0
220
0.0
230
1.0
 70
     8
 71
     3
 72
    29
 73
    25
 74
     0
 42
0.000000001
 43
0.00000001
 40
0.0000000000000006
 40
0.0000000000000006
 40
0.0000000000000006
 40
0.0000000000000006
 40
0.0000553986492
 40
0.0000553986492
 40
0.0000553986492
 40
0.0000744703661974
 40
0.0000744703661974
 40
0.0000744703661974
 40
0.0000938210300502
 40
0.0000938210300502
 40
0.0000938210300502
 40
0.0001072543096207
 40
0.0001072543096207
 40
0.0001072543096207
 40
0.0001207016259448
 40
0.0001207016259448
 40
0.0001207016259448
 40
0.0001387455774114
 40
0.0001387455774114
 40
0.0001387455774114
 40
0.0001702186759782
 40
0.0001702186759782
 40
0.0001702186759782
 40
0.0002135383638984
 40
0.0002135383638984
 40
0.0002135383638984
 40
0.0002135383638984
 10
70.78546997774832
 20
85.6673980143011
 30
0.0
 10
70.78309247967174
 20
85.65062505103923
 30
0.0
 10
70.77923109215867
 20
85.63351204115014
 30
0.0
 10
70.77192413218458
 20
85.61754866258977
 30
0.0
 10
70.76938552445449
 20
85.61200261384234
 30
0.0
 10
70.7663812069543
 20
85.60656450455814
 30
0.0
 10
70.76272687931677
 20
85.60153250039971
 30
0.0
 10
70.75904281530576
 20
85.59645954929569
 30
0.0
 10
70.75458403209075
 20
85.59169330803591
 30
0.0
 10
70.74934568477642
 20
85.587985326926
 30
0.0
 10
70.74569386287594
 20
85.58540037296795
 30
0.0
 10
70.74157557938118
 20
85.58329637286322
 30
0.0
 10
70.73727797437303
 20
85.58193238206003
 30
0.0
 10
70.73297513531847
 20
85.58056673005458
 30
0.0
 10
70.72839663762059
 20
85.57991087309891
 30
0.0
 10
70.72392140853076
 20
85.57990564089006
 30
0.0
 10
70.71792796875184
 20
85.57989863366697
 30
0.0
 10
70.71195698931582
 20
85.58101544611525
 30
0.0
 10
70.7063590916001
 20
85.58275900553413
 30
0.0
 10
70.69662395118975
 20
85.58579117879249
 30
0.0
 10
70.68764443843139
 20
85.59070371336252
 30
0.0
 10
70.67942897059453
 20
85.59623051392084
 30
0.0
 10
70.66809620926749
 20
85.60385441469843
 30
0.0
 10
70.65792380420653
 20
85.61286587329406
 30
0.0
 10
70.64859809388355
 20
85.62235635883432
 30
0.0
  0
ARC
  5
2C2
330
1F
100
AcDbEntity
  8
0
  6
Continuous
 62
     7
370
     0
100
AcDbCircle
 10
70.8874762179
 20
85.1269401279
 30
0.0
 40
0.5500000000000576
100
AcDbArc
 50
75.9208184781
 51
100.6882960722
  0
SPLINE
  5
2C3
330
1F
100
AcDbEntity
  8
0
  6
Continuous
 62
     7
370
     0
100
AcDbSpline
210
0.0
220
0.0
230
1.0
 70
     8
 71
     3
 72
    29
 73
    25
 74
     0
 42
0.000000001
 43
0.00000001
 40
0.0
 40
0.0
 40
0.0
 40
0.0
 40
0.0000553986491987
 40
0.0000553986491987
 40
0.0000553986491987
 40
0.0000744703661961
 40
0.0000744703661961
 40
0.0000744703661961
 40
0.000093821030049
 40
0.000093821030049
 40
0.000093821030049
 40
0.0001072543096193
 40
0.0001072543096193
 40
0.0001072543096193
 40
0.0001207016259434
 40
0.0001207016259434
 40
0.0001207016259434
 40
0.00013874557741
 40
0.00013874557741
 40
0.00013874557741
 40
0.0001702186759765
 40
0.0001702186759765
 40
0.0001702186759765
 40
0.0002135383638959
 40
0.0002135383638959
 40
0.0002135383638959
 40
0.0002135383638959
 10
71.15523879407473
 20
85.60735994721746
 30
0.0
 10
71.14267140942765
 20
85.59600012165508
 30
0.0
 10
71.12874656783525
 20
85.58532940435923
 30
0.0
 10
71.11291159685888
 20
85.57774818985972
 30
0.0
 10
71.10741015989053
 20
85.57511429973293
 30
0.0
 10
71.10162016160841
 20
85.57286155116236
 30
0.0
 10
71.09559099578908
 20
85.57133697389101
 30
0.0
 10
71.08951276881695
 20
85.56979999067151
 30
0.0
 10
71.08303593981118
 20
85.56899470219193
 30
0.0
 10
71.07663807854681
 20
85.56950143460605
 30
0.0
 10
71.07217792184483
 20
85.56985469421573
 30
0.0
 10
71.0676675038432
 20
85.57087606820909
 30
0.0
 10
71.06349325911606
 20
85.57258063873425
 30
0.0
 10
71.0593139305828
 20
85.57428728525319
 30
0.0
 10
71.05537743506757
 20
85.5767156164856
 30
0.0
 10
71.05193691275905
 20
85.57957752302269
 30
0.0
 10
71.04732920154466
 20
85.58341032445892
 30
0.0
 10
71.04345843205849
 20
85.58809188499522
 30
0.0
 10
71.04027557278059
 20
85.59301589404272
 30
0.0
 10
71.0347403551774
 20
85.60157909435357
 30
0.0
 10
71.03098967115704
 20
85.61110259237998
 30
0.0
 10
71.02821918138922
 20
85.62060858115743
 30
0.0
 10
71.02439745146208
 20
85.6337215412628
 30
0.0
 10
71.02235551431052
 20
85.64715711729856
 30
0.0
 10
71.02127064335147
 20
85.66041838585853
 30
0.0
  0
ARC
  5
2C4
330
1F
100
AcDbEntity
  8
0
  6
Continuous
 62
     7
370
     0
100
AcDbCircle
 10
68.3864762179
 20
92.7269401279
 30
0.0
 40
0.5500000000000664
100
AcDbArc
 50
295.7422779592
 51
280.6882960723
  0
SPLINE
  5
2C5
330
1F
100
AcDbEntity
  8
0
  6
Continuous
 62
     7
370
     0
100
AcDbSpline
210
0.0
220
0.0
230
1.0
 70
     8
 71
     3
 72
    29
 73
    25
 74
     0
 42
0.000000001
 43
0.00000001
 40
0.0
 40
0.0
 40
0.0
 40
0.0
 40
0.0000553986492001
 40
0.0000553986492001
 40
0.0000553986492001
 40
0.0000744703661974
 40
0.0000744703661974
 40
0.0000744703661974
 40
0.0000938210300502
 40
0.0000938210300502
 40
0.0000938210300502
 40
0.0001072543096207
 40
0.0001072543096207
 40
0.0001072543096207
 40
0.0001207016259449
 40
0.0001207016259449
 40
0.0001207016259449
 40
0.0001387455774115
 40
0.0001387455774115
 40
0.0001387455774115
 40
0.0001702186759782
 40
0.0001702186759782
 40
0.0001702186759782
 40
0.0002135383638979
 40
0.0002135383638979
 40
0.0002135383638979
 40
0.0002135383638979
 10
68.48848245802363
 20
92.18648224149909
 30
0.0
 10
68.49085995610018
 20
92.20325520476099
 30
0.0
 10
68.49472134361329
 20
92.22036821465007
 30
0.0
 10
68.50202830358737
 20
92.23633159321045
 30
0.0
 10
68.50456691131747
 20
92.24187764195787
 30
0.0
 10
68.50757122881765
 20
92.24731575124208
 30
0.0
 10
68.5112255564552
 20
92.25234775540049
 30
0.0
 10
68.5149096204662
 20
92.25742070650452
 30
0.0
 10
68.51936840368123
 20
92.26218694776429
 30
0.0
 10
68.52460675099555
 20
92.2658949288742
 30
0.0
 10
68.52825857289604
 20
92.26847988283225
 30
0.0
 10
68.53237685639078
 20
92.27058388293699
 30
0.0
 10
68.53667446139895
 20
92.27194787374017
 30
0.0
 10
68.5409773004535
 20
92.27331352574562
 30
0.0
 10
68.54555579815136
 20
92.2739693827013
 30
0.0
 10
68.55003102724122
 20
92.27397461491013
 30
0.0
 10
68.55602446702014
 20
92.27398162213322
 30
0.0
 10
68.56199544645615
 20
92.27286480968496
 30
0.0
 10
68.56759334417187
 20
92.27112125026608
 30
0.0
 10
68.57732848458221
 20
92.2680890770077
 30
0.0
 10
68.58630799734057
 20
92.26317654243769
 30
0.0
 10
68.59452346517745
 20
92.25764974187935
 30
0.0
 10
68.60585622650447
 20
92.25002584110176
 30
0.0
 10
68.61602863156543
 20
92.24101438250614
 30
0.0
 10
68.62535434188841
 20
92.23152389696588
 30
0.0
  0
ARC
  5
2C6
330
1F
100
AcDbEntity
  8
0
  6
Continuous
 62
     7
370
     0
100
AcDbCircle
 10
76.9074762179
 20
85.1269401279
 30
0.0
 40
0.5500000000000996
100
AcDbArc
 50
75.920818478
 51
104.0791815218
  0
SPLINE
  5
2C7
330
1F
100
AcDbEntity
  8
0
  6
Continuous
 62
     7
370
     0
100
AcDbSpline
210
0.0
220
0.0
230
1.0
 70
     8
 71
     3
 72
    29
 73
    25
 74
     0
 42
0.000000001
 43
0.00000001
 40
0.0
 40
0.0
 40
0.0
 40
0.0
 40
0.0000553986491994
 40
0.0000553986491994
 40
0.0000553986491994
 40
0.0000744703661968
 40
0.0000744703661968
 40
0.0000744703661968
 40
0.0000938210300496
 40
0.0000938210300496
 40
0.0000938210300496
 40
0.0001072543096201
 40
0.0001072543096201
 40
0.0001072543096201
 40
0.0001207016259442
 40
0.0001207016259442
 40
0.0001207016259442
 40
0.0001387455774108
 40
0.0001387455774108
 40
0.0001387455774108
 40
0.0001702186759774
 40
0.0001702186759774
 40
0.0001702186759774
 40
0.0002135383638965
 40
0.0002135383638965
 40
0.0002135383638965
 40
0.0002135383638965
 10
77.17523879407574
 20
85.60735994721684
 30
0.0
 10
77.1626714094286
 20
85.5960001216542
 30
0.0
 10
77.14874656783535
 20
85.58532940435927
 30
0.0
 10
77.13291159685879
 20
85.57774818985966
 30
0.0
 10
77.12741015989046
 20
85.5751142997329
 30
0.0
 10
77.12162016160833
 20
85.57286155116233
 30
0.0
 10
77.11559099578903
 20
85.571336973891
 30
0.0
 10
77.10951276881693
 20
85.56979999067151
 30
0.0
 10
77.10303593981118
 20
85.56899470219193
 30
0.0
 10
77.09663807854683
 20
85.56950143460605
 30
0.0
 10
77.09217792184485
 20
85.56985469421572
 30
0.0
 10
77.0876675038432
 20
85.57087606820909
 30
0.0
 10
77.08349325911607
 20
85.57258063873424
 30
0.0
 10
77.07931393058281
 20
85.57428728525318
 30
0.0
 10
77.0753774350676
 20
85.57671561648559
 30
0.0
 10
77.07193691275904
 20
85.57957752302268
 30
0.0
 10
77.06732920154467
 20
85.58341032445891
 30
0.0
 10
77.0634584320585
 20
85.5880918849952
 30
0.0
 10
77.06027557278058
 20
85.5930158940427
 30
0.0
 10
77.0547403551774
 20
85.60157909435354
 30
0.0
 10
77.05098967115705
 20
85.61110259237994
 30
0.0
 10
77.04821918138923
 20
85.62060858115738
 30
0.0
 10
77.04439745146207
 20
85.63372154126277
 30
0.0
 10
77.04235551431051
 20
85.64715711729856
 30
0.0
 10
77.04127064335148
 20
85.66041838585853
 30
0.0
  0
ARC
  5
2C8
330
1F
100
AcDbEntity
  8
0
  6
Continuous
 62
     7
370
     0
100
AcDbCircle
 10
76.9074762179
 20
85.1269401279
 30
0.0
 40
0.5500000000000971
100
AcDbArc
 50
119.133163409
 51
60.8668365913
  0
SPLINE
  5
2C9
330
1F
100
AcDbEntity
  8
0
  6
Continuous
 62
     7
370
     0
100
AcDbSpline
210
0.0
220
0.0
230
1.0
 70
     8
 71
     3
 72
    29
 73
    25
 74
     0
 42
0.000000001
 43
0.00000001
 40
0.0000000000000011
 40
0.0000000000000011
 40
0.0000000000000011
 40
0.0000000000000011
 40
0.0000553986491994
 40
0.0000553986491994
 40
0.0000553986491994
 40
0.0000744703661967
 40
0.0000744703661967
 40
0.0000744703661967
 40
0.0000938210300496
 40
0.0000938210300496
 40
0.0000938210300496
 40
0.00010725430962
 40
0.00010725430962
 40
0.00010725430962
 40
0.0001207016259441
 40
0.0001207016259441
 40
0.0001207016259441
 40
0.0001387455774107
 40
0.0001387455774107
 40
0.0001387455774107
 40
0.0001702186759774
 40
0.0001702186759774
 40
0.0001702186759774
 40
0.0002135383638974
 40
0.0002135383638974
 40
0.0002135383638974
 40
0.0002135383638974
 10
76.77368179241823
 20
85.66041838585805
 30
0.0
 10
76.7723005368314
 20
85.64353416462384
 30
0.0
 10
76.76945810266227
 20
85.62622272363878
 30
0.0
 10
76.76310813046413
 20
85.6098551040134
 30
0.0
 10
76.76090200253059
 20
85.60416861252418
 30
0.0
 10
76.75822459581106
 20
85.59856232592008
 30
0.0
 10
76.75487429682667
 20
85.59332298693045
 30
0.0
 10
76.75149673544229
 20
85.58804101384872
 30
0.0
 10
76.74732767005061
 20
85.58301939087751
 30
0.0
 10
76.74231781186126
 20
85.57900806598168
 30
0.0
 10
76.7388252771444
 20
85.57621164122679
 30
0.0
 10
76.7348386502375
 20
85.57386773822348
 30
0.0
 10
76.73062924600953
 20
85.57225194251774
 30
0.0
 10
76.72641471515473
 20
85.57063417893691
 30
0.0
 10
76.7218830256109
 20
85.56970866319199
 30
0.0
 10
76.71741594100224
 20
85.56943874120005
 30
0.0
 10
76.71143340870016
 20
85.56907724882251
 30
0.0
 10
76.7054068262114
 20
85.56983893706347
 30
0.0
 10
76.69971560170727
 20
85.57124834187623
 30
0.0
 10
76.68981815940509
 20
85.57369939661929
 30
0.0
 10
76.6805638030299
 20
85.57807221417323
 30
0.0
 10
76.67203582158135
 20
85.58310341369263
 30
0.0
 10
76.66027196585499
 20
85.59004366158524
 30
0.0
 10
76.649584364222
 20
85.59843767028661
 30
0.0
 10
76.63971364169429
 20
85.60735994721564
 30
0.0
  0
ARC
  5
2CA
330
1F
100
AcDbEntity
  8
0
  6
Continuous
 62
     7
370
     0
100
AcDbCircle
 10
73.8974762179
 20
92.7269401279
 30
0.0
 40
0.5500000000000489
100
AcDbArc
 50
299.1331634088
 51
240.866836591
  0
SPLINE
  5
2CB
330
1F
100
AcDbEntity
  8
0
  6
Continuous
 62
     7
370
     0
100
AcDbSpline
210
0.0
220
0.0
230
1.0
 70
     8
 71
     3
 72
    29
 73
    25
 74
     0
 42
0.000000001
 43
0.00000001
 40
0.0
 40
0.0
 40
0.0
 40
0.0
 40
0.0000553986492
 40
0.0000553986492
 40
0.0000553986492
 40
0.0000744703661974
 40
0.0000744703661974
 40
0.0000744703661974
 40
0.0000938210300502
 40
0.0000938210300502
 40
0.0000938210300502
 40
0.0001072543096207
 40
0.0001072543096207
 40
0.0001072543096207
 40
0.0001207016259448
 40
0.0001207016259448
 40
0.0001207016259448
 40
0.0001387455774115
 40
0.0001387455774115
 40
0.0001387455774115
 40
0.0001702186759782
 40
0.0001702186759782
 40
0.0001702186759782
 40
0.0002135383638979
 40
0.0002135383638979
 40
0.0002135383638979
 40
0.0002135383638979
 10
74.03127064335263
 20
92.19346186994191
 30
0.0
 10
74.03265189893932
 20
92.21034609117633
 30
0.0
 10
74.03549433310963
 20
92.22765753216133
 30
0.0
 10
74.04184430530786
 20
92.24402515178689
 30
0.0
 10
74.04405043324141
 20
92.2497116432761
 30
0.0
 10
74.04672783996094
 20
92.25531792988018
 30
0.0
 10
74.0500781389453
 20
92.2605572688698
 30
0.0
 10
74.05345570032968
 20
92.2658392419515
 30
0.0
 10
74.05762476572134
 20
92.2708608649227
 30
0.0
 10
74.06263462391068
 20
92.27487218981851
 30
0.0
 10
74.06612715862752
 20
92.2776686145734
 30
0.0
 10
74.07011378553443
 20
92.28001251757672
 30
0.0
 10
74.07432318976241
 20
92.28162831328247
 30
0.0
 10
74.0785377206172
 20
92.28324607686328
 30
0.0
 10
74.08306941016103
 20
92.28417159260823
 30
0.0
 10
74.0875364947697
 20
92.28444151460016
 30
0.0
 10
74.09351902707179
 20
92.28480300697771
 30
0.0
 10
74.09954560956054
 20
92.28404131873674
 30
0.0
 10
74.10523683406467
 20
92.28263191392398
 30
0.0
 10
74.11513427636683
 20
92.28018085918093
 30
0.0
 10
74.12438863274201
 20
92.27580804162697
 30
0.0
 10
74.13291661419056
 20
92.27077684210761
 30
0.0
 10
74.14468046991693
 20
92.263836594215
 30
0.0
 10
74.15536807154994
 20
92.2554425855136
 30
0.0
 10
74.16523879407767
 20
92.24652030858456
 30
0.0
  0
ARC
  5
2CC
330
1F
100
AcDbEntity
  8
0
  6
Continuous
 62
     7
370
     0
100
AcDbCircle
 10
73.8974762179
 20
92.7269401279
 30
0.0
 40
0.5500000000000541
100
AcDbArc
 50
255.9208184782
 51
284.0791815219
  0
SPLINE
  5
2CD
330
1F
100
AcDbEntity
  8
0
  6
Continuous
 62
     7
370
     0
100
AcDbSpline
210
0.0
220
0.0
230
1.0
 70
     8
 71
     3
 72
    29
 73
    25
 74
     0
 42
0.000000001
 43
0.00000001
 40
0.0000000000000006
 40
0.0000000000000006
 40
0.0000000000000006
 40
0.0000000000000006
 40
0.0000553986492001
 40
0.0000553986492001
 40
0.0000553986492001
 40
0.0000744703661974
 40
0.0000744703661974
 40
0.0000744703661974
 40
0.0000938210300502
 40
0.0000938210300502
 40
0.0000938210300502
 40
0.0001072543096207
 40
0.0001072543096207
 40
0.0001072543096207
 40
0.0001207016259448
 40
0.0001207016259448
 40
0.0001207016259448
 40
0.0001387455774115
 40
0.0001387455774115
 40
0.0001387455774115
 40
0.0001702186759782
 40
0.0001702186759782
 40
0.0001702186759782
 40
0.0002135383638984
 40
0.0002135383638984
 40
0.0002135383638984
 40
0.0002135383638984
 10
73.62971364169529
 20
92.24652030858394
 30
0.0
 10
73.64228102634249
 20
92.25788013414677
 30
0.0
 10
73.6562058679365
 20
92.2685508514409
 30
0.0
 10
73.67204083891326
 20
92.27613206594059
 30
0.0
 10
73.67754227588158
 20
92.27876595606733
 30
0.0
 10
73.68333227416367
 20
92.28101870463789
 30
0.0
 10
73.68936143998296
 20
92.28254328190921
 30
0.0
 10
73.69543966695505
 20
92.2840802651287
 30
0.0
 10
73.70191649596077
 20
92.28488555360828
 30
0.0
 10
73.70831435722509
 20
92.28437882119415
 30
0.0
 10
73.71277451392707
 20
92.28402556158449
 30
0.0
 10
73.71728493192872
 20
92.28300418759113
 30
0.0
 10
73.72145917665586
 20
92.28129961706597
 30
0.0
 10
73.72563850518911
 20
92.27959297054704
 30
0.0
 10
73.72957500070434
 20
92.27716463931463
 30
0.0
 10
73.73301552301288
 20
92.27430273277754
 30
0.0
 10
73.73762323422727
 20
92.27046993134132
 30
0.0
 10
73.74149400371344
 20
92.26578837080504
 30
0.0
 10
73.74467686299134
 20
92.26086436175754
 30
0.0
 10
73.75021208059452
 20
92.25230116144671
 30
0.0
 10
73.75396276461488
 20
92.24277766342033
 30
0.0
 10
73.7567332543827
 20
92.23327167464289
 30
0.0
 10
73.76055498430988
 20
92.22015871453749
 30
0.0
 10
73.76259692146145
 20
92.20672313850167
 30
0.0
 10
73.76368179242048
 20
92.19346186994169
 30
0.0
  0
ARC
  5
2CE
330
1F
100
AcDbEntity
  8
0
  6
Continuous
 62
     7
370
     0
100
AcDbCircle
 10
82.9184762179
 20
85.1269401279
 30
0.0
 40
0.5500000000000068
100
AcDbArc
 50
119.0744891562
 51
104.0205072692
  0
SPLINE
  5
2CF
330
1F
100
AcDbEntity
  8
0
  6
Continuous
 62
     7
370
     0
100
AcDbSpline
210
0.0
220
0.0
230
1.0
 70
     8
 71
     3
 72
    29
 73
    25
 74
     0
 42
0.000000001
 43
0.00000001
 40
0.0000000000000001
 40
0.0000000000000001
 40
0.0000000000000001
 40
0.0000000000000001
 40
0.0000553986492001
 40
0.0000553986492001
 40
0.0000553986492001
 40
0.0000744703661974
 40
0.0000744703661974
 40
0.0000744703661974
 40
0.0000938210300503
 40
0.0000938210300503
 40
0.0000938210300503
 40
0.0001072543096207
 40
0.0001072543096207
 40
0.0001072543096207
 40
0.0001207016259448
 40
0.0001207016259448
 40
0.0001207016259448
 40
0.0001387455774115
 40
0.0001387455774115
 40
0.0001387455774115
 40
0.0001702186759782
 40
0.0001702186759782
 40
0.0001702186759782
 40
0.0002135383638984
 40
0.0002135383638984
 40
0.0002135383638984
 40
0.0002135383638984
 10
82.78522817563467
 20
85.66055511947759
 30
0.0
 10
82.7838296303383
 20
85.64367232158321
 30
0.0
 10
82.78096946972636
 20
85.62636380049493
 30
0.0
 10
82.77460273945418
 20
85.61000269219608
 30
0.0
 10
82.77239078937622
 20
85.6043184628931
 30
0.0
 10
82.76970764289393
 20
85.59871492105039
 30
0.0
 10
82.76635198027553
 20
85.59347901571087
 30
0.0
 10
82.76296901161159
 20
85.58820050421994
 30
0.0
 10
82.75879480596917
 20
85.58318315324958
 30
0.0
 10
82.75378084257453
 20
85.57917696084604
 30
0.0
 10
82.75028544598584
 20
85.57638411411808
 30
0.0
 10
82.74629642087501
 20
85.57404429488383
 30
0.0
 10
82.74208536418455
 20
85.57243281070241
 30
0.0
 10
82.73786917885472
 20
85.57081936389693
 30
0.0
 10
82.73333654390463
 20
85.56989848935346
 30
0.0
 10
82.72886918522232
 20
85.56963314206
 30
0.0
 10
82.72288628586773
 20
85.56927777633635
 30
0.0
 10
82.71686048655249
 20
85.57004563575225
 30
0.0
 10
82.71117070834583
 20
85.57146086797405
 30
0.0
 10
82.70127578125735
 20
85.57392205699398
 30
0.0
 10
82.6920259077566
 20
85.57830434925935
 30
0.0
 10
82.68350308302342
 20
85.58334427929437
 30
0.0
 10
82.67174634068677
 20
85.59029657042689
 30
0.0
 10
82.66106734061555
 20
85.5987015194585
 30
0.0
 10
82.65120576019898
 20
85.60763389990862
 30
0.0
  0
ARC
  5
2D0
330
1F
100
AcDbEntity
  8
0
  6
Continuous
 62
     7
370
     0
100
AcDbCircle
 10
79.9174762179
 20
92.7269401279
 30
0.0
 40
0.5500000000000008
100
AcDbArc
 50
50.8454156071
 51
240.866836591
  0
LINE
  5
2D1
330
1F
100
AcDbEntity
  8
0
  6
Continuous
 62
     7
370
     0
100
AcDbLine
 10
80.2644819018
 20
92.3002235295
 30
0.0
 11
80.1847466756
 21
92.2462463559
 31
0.0
  0
SPLINE
  5
2D2
330
1F
100
AcDbEntity
  8
0
  6
Continuous
 62
     7
370
     0
100
AcDbSpline
210
0.0
220
0.0
230
1.0
 70
     8
 71
     3
 72
    29
 73
    25
 74
     0
 42
0.000000001
 43
0.00000001
 40
0.0
 40
0.0
 40
0.0
 40
0.0
 40
0.0000553986492001
 40
0.0000553986492001
 40
0.0000553986492001
 40
0.0000744703661974
 40
0.0000744703661974
 40
0.0000744703661974
 40
0.0000938210300502
 40
0.0000938210300502
 40
0.0000938210300502
 40
0.0001072543096207
 40
0.0001072543096207
 40
0.0001072543096207
 40
0.0001207016259448
 40
0.0001207016259448
 40
0.0001207016259448
 40
0.0001387455774115
 40
0.0001387455774115
 40
0.0001387455774115
 40
0.0001702186759782
 40
0.0001702186759782
 40
0.0001702186759782
 40
0.0002135383638979
 40
0.0002135383638979
 40
0.0002135383638979
 40
0.0002135383638979
 10
80.05072426013729
 20
92.19332513632261
 30
0.0
 10
80.05212280543365
 20
92.21020793421698
 30
0.0
 10
80.0549829660456
 20
92.22751645530528
 30
0.0
 10
80.06134969631776
 20
92.24387756360412
 30
0.0
 10
80.06356164639574
 20
92.24956179290709
 30
0.0
 10
80.06624479287802
 20
92.25516533474982
 30
0.0
 10
80.06960045549643
 20
92.26040124008932
 30
0.0
 10
80.07298342416036
 20
92.26567975158027
 30
0.0
 10
80.07715762980277
 20
92.27069710255061
 30
0.0
 10
80.08217159319743
 20
92.27470329495416
 30
0.0
 10
80.08566698978612
 20
92.27749614168211
 30
0.0
 10
80.08965601489695
 20
92.27983596091637
 30
0.0
 10
80.0938670715874
 20
92.2814474450978
 30
0.0
 10
80.0980832569172
 20
92.28306089190328
 30
0.0
 10
80.10261589186732
 20
92.28398176644674
 30
0.0
 10
80.10708325054964
 20
92.28424711374021
 30
0.0
 10
80.11306614990423
 20
92.28460247946386
 30
0.0
 10
80.11909194921945
 20
92.28383462004795
 30
0.0
 10
80.12478172742613
 20
92.28241938782615
 30
0.0
 10
80.13467665451459
 20
92.27995819880623
 30
0.0
 10
80.14392652801533
 20
92.27557590654084
 30
0.0
 10
80.15244935274852
 20
92.27053597650584
 30
0.0
 10
80.16420609508519
 20
92.26358368537332
 30
0.0
 10
80.17488509515641
 20
92.2551787363417
 30
0.0
 10
80.18474667557297
 20
92.24624635589159
 30
0.0
  0
ARC
  5
2D3
330
1F
100
AcDbEntity
  8
0
  6
Continuous
 62
     7
370
     0
100
AcDbCircle
 10
79.9174762179
 20
92.7269401279
 30
0.0
 40
0.5500000000000508
100
AcDbArc
 50
255.9208184782
 51
284.0205072692
  0
SPLINE
  5
2D4
330
1F
100
AcDbEntity
  8
0
  6
Continuous
 62
     7
370
     0
100
AcDbSpline
210
0.0
220
0.0
230
1.0
 70
     8
 71
     3
 72
    29
 73
    25
 74
     0
 42
0.000000001
 43
0.00000001
 40
0.0000000000000006
 40
0.0000000000000006
 40
0.0000000000000006
 40
0.0000000000000006
 40
0.0000553986492001
 40
0.0000553986492001
 40
0.0000553986492001
 40
0.0000744703661974
 40
0.0000744703661974
 40
0.0000744703661974
 40
0.0000938210300502
 40
0.0000938210300502
 40
0.0000938210300502
 40
0.0001072543096207
 40
0.0001072543096207
 40
0.0001072543096207
 40
0.0001207016259448
 40
0.0001207016259448
 40
0.0001207016259448
 40
0.0001387455774115
 40
0.0001387455774115
 40
0.0001387455774115
 40
0.0001702186759782
 40
0.0001702186759782
 40
0.0001702186759782
 40
0.0002135383638984
 40
0.0002135383638984
 40
0.0002135383638984
 40
0.0002135383638984
 10
79.64971364169529
 20
92.24652030858394
 30
0.0
 10
79.66228102634247
 20
92.25788013414677
 30
0.0
 10
79.6762058679365
 20
92.2685508514409
 30
0.0
 10
79.69204083891326
 20
92.27613206594059
 30
0.0
 10
79.69754227588157
 20
92.27876595606733
 30
0.0
 10
79.70333227416367
 20
92.28101870463789
 30
0.0
 10
79.70936143998296
 20
92.28254328190921
 30
0.0
 10
79.71543966695505
 20
92.2840802651287
 30
0.0
 10
79.72191649596077
 20
92.28488555360828
 30
0.0
 10
79.72831435722509
 20
92.28437882119415
 30
0.0
 10
79.73277451392707
 20
92.28402556158449
 30
0.0
 10
79.73728493192873
 20
92.28300418759113
 30
0.0
 10
79.74145917665584
 20
92.28129961706597
 30
0.0
 10
79.7456385051891
 20
92.27959297054704
 30
0.0
 10
79.74957500070434
 20
92.27716463931463
 30
0.0
 10
79.75301552301286
 20
92.27430273277754
 30
0.0
 10
79.75762323422725
 20
92.27046993134132
 30
0.0
 10
79.76149400371344
 20
92.26578837080504
 30
0.0
 10
79.76467686299134
 20
92.26086436175756
 30
0.0
 10
79.77021208059452
 20
92.25230116144671
 30
0.0
 10
79.77396276461486
 20
92.24277766342033
 30
0.0
 10
79.77673325438269
 20
92.23327167464289
 30
0.0
 10
79.78055498430986
 20
92.22015871453749
 30
0.0
 10
79.78259692146145
 20
92.20672313850167
 30
0.0
 10
79.78368179242048
 20
92.19346186994167
 30
0.0
  0
LINE
  5
2D5
330
1F
100
AcDbEntity
  8
0
  6
Continuous
 62
     7
370
     0
100
AcDbLine
 10
62.3300993072
 20
88.9269401279
 30
0.0
 11
62.3300993072
 21
91.121339171
 31
0.0
  0
DIMENSION
  5
2D6
330
1F
100
AcDbEntity
  8
0
  6
Continuous
 62
     7
370
     0
100
AcDbDimension
  2
_D_3
 10
62.3300993072
 20
100.7430503714
 30
0.0
 11
103.3070056442
 21
100.7430503714
 31
0.0
 70
   160
  1
<>
 71
     2
 42
-1.0
  3
SLDDIMSTYLE3
100
AcDbAlignedDimension
 13
84.9194762179
 23
93.9269401279
 33
0.0
 14
62.3300993072
 24
88.9269401279
 34
0.0
100
AcDbRotatedDimension
  0
DIMENSION
  5
2EB
330
1F
100
AcDbEntity
  8
0
  6
Continuous
 62
     7
370
     0
100
AcDbDimension
  2
_D_4
 10
84.4184762179
 20
69.758449391
 30
0.0
 11
103.3070056442
 21
69.758449391
 31
0.0
 70
   160
  1
<>X5
 71
     2
 42
-1.0
  3
SLDDIMSTYLE4
100
AcDbAlignedDimension
 13
81.4174762179
 23
83.9269401279
 33
0.0
 14
84.4184762179
 24
83.9269401279
 34
0.0
100
AcDbRotatedDimension
  0
DIMENSION
  5
2FF
330
1F
100
AcDbEntity
  8
0
  6
Continuous
 62
     7
370
     0
100
AcDbDimension
  2
_D_5
 10
69.4171762179
 20
73.9265299592
 30
0.0
 11
46.3300993072
 21
73.9265299592
 31
0.0
 70
   160
  1
<>
 71
     2
 42
-1.0
  3
SLDDIMSTYLE4
100
AcDbAlignedDimension
 13
67.4161762179
 23
83.9269401279
 33
0.0
 14
69.4171762179
 24
83.9269401279
 34
0.0
100
AcDbRotatedDimension
  0
LWPOLYLINE
  5
313
330
1F
100
AcDbEntity
  8
0
  6
Continuous
 62
     7
370
     0
100
AcDbPolyline
 90
        3
 70
   128
 43
0.0
 10
256.5953559466
 20
167.226209264
 10
259.7576500817
 20
165.7789268425
 10
262.7417020892
 20
164.4132198959
  0
LINE
  5
314
330
1F
100
AcDbEntity
  8
0
  6
Continuous
 62
     7
370
     0
100
AcDbLine
 10
262.9056286191
 20
164.7035220456
 30
0.0
 11
262.8755765809
 21
164.6770186391
 31
0.0
  0
LINE
  5
315
330
1F
100
AcDbEntity
  8
0
  6
Continuous
 62
     7
370
     0
100
AcDbLine
 10
263.6031581915
 20
163.8520186391
 30
0.0
 11
263.6332102297
 21
163.8785220456
 31
0.0
  0
LWPOLYLINE
  5
316
330
1F
100
AcDbEntity
  8
0
  6
Continuous
 62
     7
370
     0
100
AcDbPolyline
 90
        3
 70
   128
 43
0.0
 10
256.6569363448
 20
162.3732677991
 10
259.6692633255
 20
163.1962220606
 10
262.8026147171
 20
164.0522387083
  0
LWPOLYLINE
  5
317
330
1F
100
AcDbEntity
  8
0
  6
Continuous
 62
     7
370
     0
100
AcDbPolyline
 90
        3
 70
   128
 43
0.0
 10
256.5800574736
 20
162.0057451963
 10
259.5747967888
 20
160.4329929089
 10
262.7466681291
 20
158.7672158646
  0
LINE
  5
318
330
1F
100
AcDbEntity
  8
0
  6
Continuous
 62
     7
370
     0
100
AcDbLine
 10
255.796479584
 20
167.9571560478
 30
0.0
 11
255.7664275458
 21
167.9306526413
 31
0.0
  0
LINE
  5
319
330
1F
100
AcDbEntity
  8
0
  6
Continuous
 62
     7
370
     0
100
AcDbLine
 10
256.4940091564
 20
167.1056526413
 30
0.0
 11
256.5240611946
 21
167.1321560478
 31
0.0
  0
LINE
  5
31A
330
1F
100
AcDbEntity
  8
0
  6
Continuous
 62
     7
370
     0
100
AcDbLine
 10
262.9056286191
 20
159.0278116151
 30
0.0
 11
262.8755765809
 21
159.0013082086
 31
0.0
  0
LINE
  5
31B
330
1F
100
AcDbEntity
  8
0
  6
Continuous
 62
     7
370
     0
100
AcDbLine
 10
263.6031581915
 20
158.1763082086
 30
0.0
 11
263.6332102297
 21
158.2028116151
 31
0.0
  0
LWPOLYLINE
  5
31C
330
1F
100
AcDbEntity
  8
0
  6
Continuous
 62
     7
370
     0
100
AcDbPolyline
 90
        3
 70
   128
 43
0.0
 10
256.6569362992
 20
156.6975573565
 10
259.6584549688
 20
157.5175588371
 10
262.8026147189
 20
158.3765282754
  0
SPLINE
  5
31D
330
1F
100
AcDbEntity
  8
0
  6
Continuous
 62
     7
370
     0
100
AcDbSpline
210
0.0
220
0.0
230
1.0
 70
     8
 71
     3
 72
    21
 73
    17
 74
     0
 42
0.000000001
 43
0.00000001
 40
0.0
 40
0.0
 40
0.0
 40
0.0
 40
0.0929894161251071
 40
0.18452411170014
 40
0.2631885027846032
 40
0.3301063123101348
 40
0.3860980563085569
 40
0.431732111407562
 40
0.4704621029623847
 40
0.5263818680276059
 40
0.5963354393578777
 40
0.6805155975842548
 40
0.7534115992961636
 40
0.835293017424997
 40
0.92717665580344
 40
1.0
 40
1.0
 40
1.0
 40
1.0
 10
255.7396869848089
 20
156.7151338124769
 30
0.0
 10
255.6843820851262
 20
156.5630327511512
 30
0.0
 10
255.5746374721168
 20
156.2612100878923
 30
0.0
 10
255.4284925285162
 20
155.8037440820693
 30
0.0
 10
255.3040864536999
 20
155.3772792441986
 30
0.0
 10
255.2050959129649
 20
155.0032073699556
 30
0.0
 10
255.1275619997718
 20
154.683213837167
 30
0.0
 10
255.0669506589823
 20
154.4121691639467
 30
0.0
 10
255.0098653292502
 20
154.1379236502182
 30
0.0
 10
254.9476981800624
 20
153.8121935421654
 30
0.0
 10
254.876983253754
 20
153.3910163030677
 30
0.0
 10
254.8126202578003
 20
152.9310031802793
 30
0.0
 10
254.7581453963613
 20
152.4452663398363
 30
0.0
 10
254.7160971023016
 20
151.9456427566719
 30
0.0
 10
254.6870132793875
 20
151.4498506585116
 30
0.0
 10
254.680713659387
 20
151.1269135632052
 30
0.0
 10
254.6779283530907
 20
150.9841305501376
 30
0.0
  0
SPLINE
  5
31E
330
1F
100
AcDbEntity
  8
0
  6
Continuous
 62
     7
370
     0
100
AcDbSpline
210
0.0
220
0.0
230
1.0
 70
     8
 71
     3
 72
    24
 73
    20
 74
     0
 42
0.000000001
 43
0.00000001
 40
0.0
 40
0.0
 40
0.0
 40
0.0
 40
0.0583970201024507
 40
0.1502967428168478
 40
0.2237163346310451
 40
0.2796540265901104
 40
0.318662555756857
 40
0.3486189339672012
 40
0.3781825573104456
 40
0.4073890752053905
 40
0.438220597177307
 40
0.4796959556813455
 40
0.5331503762625708
 40
0.5990370480463935
 40
0.6612069634432156
 40
0.7324109192803299
 40
0.8134557447083651
 40
0.9053977495913312
 40
1.0
 40
1.0
 40
1.0
 40
1.0
 10
255.5017509302706
 20
150.9451745692995
 30
0.0
 10
255.5035905827751
 20
151.0531916455421
 30
0.0
 10
255.5083253068906
 20
151.3311958091003
 30
0.0
 10
255.5306366976666
 20
151.7553961815991
 30
0.0
 10
255.5630080699909
 20
152.1784604984536
 30
0.0
 10
255.5950995898289
 20
152.5020239389467
 30
0.0
 10
255.6227975288958
 20
152.7421497008105
 30
0.0
 10
255.646901616266
 20
152.9313749541397
 30
0.0
 10
255.6703386894362
 20
153.1014475096544
 30
0.0
 10
255.69571406259
 20
153.2727030156454
 30
0.0
 10
255.7264056892864
 20
153.4659586673777
 30
0.0
 10
255.7672630626162
 20
153.7039320060403
 30
0.0
 10
255.82411080636
 20
154.0052327680401
 30
0.0
 10
255.8944647200769
 20
154.3400510123697
 30
0.0
 10
255.9783983838411
 20
154.7001110235491
 30
0.0
 10
256.0755374101269
 20
155.078321124893
 30
0.0
 10
256.1941990795885
 20
155.4954452594058
 30
0.0
 10
256.3321000046745
 20
155.937016611245
 30
0.0
 10
256.4351065911016
 20
156.2271001805357
 30
0.0
 10
256.4873443556346
 20
156.3742103577887
 30
0.0
  0
LWPOLYLINE
  5
31F
330
1F
100
AcDbEntity
  8
0
  6
Continuous
 62
     7
370
     0
100
AcDbPolyline
 90
        3
 70
   128
 43
0.0
 10
256.5803348028
 20
156.3304519814
 10
259.4217006466
 20
154.8416384749
 10
262.7465657559
 20
153.0994818976
  0
LINE
  5
320
330
1F
100
AcDbEntity
  8
0
  6
Continuous
 62
     7
370
     0
100
AcDbLine
 10
255.796479584
 20
162.7613354194
 30
0.0
 11
255.7664275458
 21
162.734832013
 31
0.0
  0
LINE
  5
321
330
1F
100
AcDbEntity
  8
0
  6
Continuous
 62
     7
370
     0
100
AcDbLine
 10
256.4940091564
 20
161.909832013
 30
0.0
 11
256.5240611946
 21
161.9363354194
 31
0.0
  0
LINE
  5
322
330
1F
100
AcDbEntity
  8
0
  6
Continuous
 62
     7
370
     0
100
AcDbLine
 10
262.9056286191
 20
153.360586466
 30
0.0
 11
262.8755765809
 21
153.3340830595
 31
0.0
  0
LINE
  5
323
330
1F
100
AcDbEntity
  8
0
  6
Continuous
 62
     7
370
     0
100
AcDbLine
 10
263.6031581915
 20
152.5090830595
 30
0.0
 11
263.6332102297
 21
152.535586466
 31
0.0
  0
LINE
  5
324
330
1F
100
AcDbEntity
  8
0
  6
Continuous
 62
     7
370
     0
100
AcDbLine
 10
254.6765483597
 20
150.9828696986
 30
0.0
 11
254.6765483597
 21
80.3300732036
 31
0.0
  0
LINE
  5
325
330
1F
100
AcDbEntity
  8
0
  6
Continuous
 62
     7
370
     0
100
AcDbLine
 10
255.5001667481
 20
80.1688853427
 30
0.0
 11
255.5001667481
 21
150.944559143
 31
0.0
  0
LINE
  5
326
330
1F
100
AcDbEntity
  8
0
  6
Continuous
 62
     7
370
     0
100
AcDbLine
 10
255.796479584
 20
157.0856249889
 30
0.0
 11
255.7664275458
 21
157.0591215825
 31
0.0
  0
LINE
  5
327
330
1F
100
AcDbEntity
  8
0
  6
Continuous
 62
     7
370
     0
100
AcDbLine
 10
256.4940091564
 20
156.2341215825
 30
0.0
 11
256.5240611946
 21
156.260624989
 31
0.0
  0
ARC
  5
328
330
1F
100
AcDbEntity
  8
0
  6
Continuous
 62
     7
370
     0
100
AcDbCircle
 10
261.4829654128
 20
169.6517324608
 30
0.0
 40
5.000410168672659
100
AcDbArc
 50
358.9709666258
 51
0.0
  0
ARC
  5
329
330
1F
100
AcDbEntity
  8
0
  6
Continuous
 62
     7
370
     0
100
AcDbCircle
 10
261.4829654128
 20
169.6517324608
 30
0.0
 40
5.000410168672659
100
AcDbArc
 50
0.0
 51
181.0290333742
  0
LINE
  5
32A
330
1F
100
AcDbEntity
  8
0
  6
Continuous
 62
     7
370
     0
100
AcDbLine
 10
260.3566150424
 20
151.4288607796
 30
0.0
 11
260.3566150424
 21
85.2073481046
 31
0.0
  0
LINE
  5
32B
330
1F
100
AcDbEntity
  8
0
  6
Continuous
 62
     7
370
     0
100
AcDbLine
 10
261.1802334308
 20
85.3103063572
 30
0.0
 11
261.1802334308
 21
151.3250946163
 31
0.0
  0
LINE
  5
32C
330
1F
100
AcDbEntity
  8
0
  6
Continuous
 62
     7
370
     0
100
AcDbLine
 10
255.0381267266
 20
166.7155787386
 30
0.0
 11
258.7263925805
 21
166.2509009189
 31
0.0
  0
LINE
  5
32D
330
1F
100
AcDbEntity
  8
0
  6
Continuous
 62
     7
370
     0
100
AcDbLine
 10
255.0381267266
 20
168.6011968218
 30
0.0
 11
255.0381267266
 21
166.7155787386
 31
0.0
  0
LINE
  5
32E
330
1F
100
AcDbEntity
  8
0
  6
Continuous
 62
     7
370
     0
100
AcDbLine
 10
255.0381267266
 20
168.6011968218
 30
0.0
 11
264.3922701939
 21
167.4226855204
 31
0.0
  0
LINE
  5
32F
330
1F
100
AcDbEntity
  8
0
  6
Continuous
 62
     7
370
     0
100
AcDbLine
 10
264.3922701939
 20
167.4226855204
 30
0.0
 11
264.3922701939
 21
165.5370674371
 31
0.0
  0
LINE
  5
330
330
1F
100
AcDbEntity
  8
0
  6
Continuous
 62
     7
370
     0
100
AcDbLine
 10
259.4076421027
 20
166.1650715467
 30
0.0
 11
264.3922701939
 21
165.5370674371
 31
0.0
  0
LINE
  5
331
330
1F
100
AcDbEntity
  8
0
  6
Continuous
 62
     7
370
     0
100
AcDbLine
 10
256.4877519824
 20
169.8796461289
 30
0.0
 11
255.0381267266
 21
168.6011968218
 31
0.0
  0
LINE
  5
332
330
1F
100
AcDbEntity
  8
0
  6
Continuous
 62
     7
370
     0
100
AcDbLine
 10
267.927804099
 20
170.540733342
 30
0.0
 11
266.3640168761
 21
170.7377520131
 31
0.0
  0
LINE
  5
333
330
1F
100
AcDbEntity
  8
0
  6
Continuous
 62
     7
370
     0
100
AcDbLine
 10
264.3922701939
 20
167.4226855204
 30
0.0
 11
267.927804099
 21
170.540733342
 31
0.0
  0
LINE
  5
334
330
1F
100
AcDbEntity
  8
0
  6
Continuous
 62
     7
370
     0
100
AcDbLine
 10
267.927804099
 20
170.540733342
 30
0.0
 11
267.927804099
 21
168.6551152588
 31
0.0
  0
LINE
  5
335
330
1F
100
AcDbEntity
  8
0
  6
Continuous
 62
     7
370
     0
100
AcDbLine
 10
264.3922701939
 20
165.5370674371
 30
0.0
 11
267.927804099
 21
168.6551152588
 31
0.0
  0
SPLINE
  5
336
330
1F
100
AcDbEntity
  8
0
  6
Continuous
 62
     7
370
     0
100
AcDbSpline
210
0.0
220
0.0
230
1.0
 70
     8
 71
     3
 72
    29
 73
    25
 74
     0
 42
0.000000001
 43
0.00000001
 40
0.0000000000000006
 40
0.0000000000000006
 40
0.0000000000000006
 40
0.0000000000000006
 40
0.0000553986492
 40
0.0000553986492
 40
0.0000553986492
 40
0.0000744703661974
 40
0.0000744703661974
 40
0.0000744703661974
 40
0.0000938210300502
 40
0.0000938210300502
 40
0.0000938210300502
 40
0.0001072543096207
 40
0.0001072543096207
 40
0.0001072543096207
 40
0.0001207016259448
 40
0.0001207016259448
 40
0.0001207016259448
 40
0.0001387455774114
 40
0.0001387455774114
 40
0.0001387455774114
 40
0.0001702186759782
 40
0.0001702186759782
 40
0.0001702186759782
 40
0.0002135383638984
 40
0.0002135383638984
 40
0.0002135383638984
 40
0.0002135383638984
 10
262.7338153254694
 20
164.4243846173321
 30
0.0
 10
262.7469065263339
 20
164.4223577965483
 30
0.0
 10
262.7604609418324
 20
164.4218179180158
 30
0.0
 10
262.7733690860168
 20
164.4250404814386
 30
0.0
 10
262.7778536753295
 20
164.4261600748735
 30
0.0
 10
262.7822863271815
 20
164.4277747054574
 30
0.0
 10
262.7864360373936
 20
164.4301355199888
 30
0.0
 10
262.7906195150577
 20
164.4325155451849
 30
0.0
 10
262.7946046745114
 20
164.4357402512438
 30
0.0
 10
262.7977896662268
 20
164.4399919930074
 30
0.0
 10
262.8000100273067
 20
164.4429560201625
 30
0.0
 10
262.8018718084206
 20
164.4464970413628
 30
0.0
 10
262.8031548562697
 20
164.4503944212029
 30
0.0
 10
262.8044394667407
 20
164.4542965476558
 30
0.0
 10
262.8051738306641
 20
164.4586424969189
 30
0.0
 10
262.805388527435
 20
164.4630461951486
 30
0.0
 10
262.8056760595682
 20
164.4689438373954
 30
0.0
 10
262.8050737908034
 20
164.4750951205442
 30
0.0
 10
262.8039644361697
 20
164.4810383538837
 30
0.0
 10
262.802035189929
 20
164.4913740573905
 30
0.0
 10
262.7986033509312
 20
164.5014450077087
 30
0.0
 10
262.7946840086098
 20
164.5109448075752
 30
0.0
 10
262.7892775032265
 20
164.5240492304371
 30
0.0
 10
262.7827845727504
 20
164.5364097241052
 30
0.0
 10
262.7759479361933
 20
164.5481204569819
 30
0.0
  0
LINE
  5
337
330
1F
100
AcDbEntity
  8
0
  6
Continuous
 62
     7
370
     0
100
AcDbLine
 10
259.4104846253
 20
166.1637706135
 30
0.0
 11
262.8119691925
 21
164.6070180696
 31
0.0
  0
LINE
  5
338
330
1F
100
AcDbEntity
  8
0
  6
Continuous
 62
     7
370
     0
100
AcDbLine
 10
255.0381267266
 20
166.7146359295
 30
0.0
 11
258.7292351036
 21
166.2495999856
 31
0.0
  0
LINE
  5
339
330
1F
100
AcDbEntity
  8
0
  6
Continuous
 62
     7
370
     0
100
AcDbLine
 10
255.039062141
 20
166.7154608874
 30
0.0
 11
255.0381267266
 21
166.7146359295
 31
0.0
  0
LINE
  5
33A
330
1F
100
AcDbEntity
  8
0
  6
Continuous
 62
     7
370
     0
100
AcDbLine
 10
267.927804099
 20
168.6541724498
 30
0.0
 11
267.9268686846
 21
168.6542903009
 31
0.0
  0
LINE
  5
33B
330
1F
100
AcDbEntity
  8
0
  6
Continuous
 62
     7
370
     0
100
AcDbLine
 10
264.3922701939
 20
165.5361246281
 30
0.0
 11
267.927804099
 21
168.6541724498
 31
0.0
  0
LINE
  5
33C
330
1F
100
AcDbEntity
  8
0
  6
Continuous
 62
     7
370
     0
100
AcDbLine
 10
259.4104846253
 20
166.1637706135
 30
0.0
 11
264.3922701939
 21
165.5361246281
 31
0.0
  0
LINE
  5
33D
330
1F
100
AcDbEntity
  8
0
  6
Continuous
 62
     7
370
     0
100
AcDbLine
 10
264.3922701939
 20
165.5361246281
 30
0.0
 11
264.3922701939
 21
162.7076975033
 31
0.0
  0
LINE
  5
33E
330
1F
100
AcDbEntity
  8
0
  6
Continuous
 62
     7
370
     0
100
AcDbLine
 10
259.9285726763
 20
163.2700705296
 30
0.0
 11
264.3922701939
 21
162.7076975033
 31
0.0
  0
LINE
  5
33F
330
1F
100
AcDbEntity
  8
0
  6
Continuous
 62
     7
370
     0
100
AcDbLine
 10
267.927804099
 20
168.6541724498
 30
0.0
 11
267.927804099
 21
165.8257453249
 31
0.0
  0
LINE
  5
340
330
1F
100
AcDbEntity
  8
0
  6
Continuous
 62
     7
370
     0
100
AcDbLine
 10
264.3922701939
 20
162.7076975033
 30
0.0
 11
267.927804099
 21
165.8257453249
 31
0.0
  0
ARC
  5
341
330
1F
100
AcDbEntity
  8
0
  6
Continuous
 62
     7
370
     0
100
AcDbCircle
 10
263.2530898144
 20
164.3279139228
 30
0.0
 40
0.5281596252984243
100
AcDbArc
 50
169.4755889093
 51
193.8763214608
  0
LWPOLYLINE
  5
342
330
1F
100
AcDbEntity
  8
0
  6
Continuous
 62
     7
370
     0
100
AcDbPolyline
 90
       22
 70
   128
 43
0.0
 10
262.7899757948
 20
164.0686876799
 10
262.8671867227
 20
163.9533981894
 10
262.9682041542
 20
163.8580094913
 10
263.0865665183
 20
163.7886231154
 10
263.2147027765
 20
163.7496773552
 10
263.3444167044
 20
163.7436633728
 10
263.4674111618
 20
163.7709658521
 10
263.5758188189
 20
163.8298383923
 10
263.6627053895
 20
163.9165152167
 10
263.7225131817
 20
164.0254520496
 10
263.7514165952
 20
164.1496807561
 10
263.7475668256
 20
164.2812550577
 10
263.7112101233
 20
164.4117588158
 10
263.6446720414
 20
164.5328443688
 10
263.5522086826
 20
164.63676649
 10
263.4397344575
 20
164.7168778098
 10
263.3144437702
 20
164.7680540147
 10
263.1843508286
 20
164.7870216232
 10
263.0577770163
 20
164.7725673739
 10
262.9428186161
 20
164.7256158316
 10
262.8468289322
 20
164.6491702476
 10
262.7759479362
 20
164.548120457
  0
SPLINE
  5
343
330
1F
100
AcDbEntity
  8
0
  6
Continuous
 62
     7
370
     0
100
AcDbSpline
210
0.0
220
0.0
230
1.0
 70
     8
 71
     3
 72
    29
 73
    25
 74
     0
 42
0.000000001
 43
0.00000001
 40
0.0
 40
0.0
 40
0.0
 40
0.0
 40
0.0000553986491987
 40
0.0000553986491987
 40
0.0000553986491987
 40
0.0000744703661961
 40
0.0000744703661961
 40
0.0000744703661961
 40
0.000093821030049
 40
0.000093821030049
 40
0.000093821030049
 40
0.0001072543096193
 40
0.0001072543096193
 40
0.0001072543096193
 40
0.0001207016259434
 40
0.0001207016259434
 40
0.0001207016259434
 40
0.00013874557741
 40
0.00013874557741
 40
0.00013874557741
 40
0.0001702186759765
 40
0.0001702186759765
 40
0.0001702186759765
 40
0.0002135383638959
 40
0.0002135383638959
 40
0.0002135383638959
 40
0.0002135383638959
 10
262.7899757947687
 20
164.0686876799365
 30
0.0
 10
262.7980034689684
 20
164.0769059207399
 30
0.0
 10
262.8055316715496
 20
164.0866131891661
 30
0.0
 10
262.8105990192149
 20
164.0988638859765
 30
0.0
 10
262.8123595335739
 20
164.1031200627906
 30
0.0
 10
262.8138125533148
 20
164.1077364567628
 30
0.0
 10
262.8146813660967
 20
164.1127496444269
 30
0.0
 10
262.8155572486721
 20
164.1178036259211
 30
0.0
 10
262.8158372760686
 20
164.1233977665595
 30
0.0
 10
262.8150797642862
 20
164.1292394173111
 30
0.0
 10
262.814551678241
 20
164.1333118216153
 30
0.0
 10
262.8134899395848
 20
164.1375908796438
 30
0.0
 10
262.8119026111435
 20
164.141733587716
 30
0.0
 10
262.8103133494974
 20
164.1458813411859
 30
0.0
 10
262.8081627195417
 20
164.14998548005
 30
0.0
 10
262.8056954535955
 20
164.1537515429124
 30
0.0
 10
262.8023911736202
 20
164.1587952335293
 30
0.0
 10
262.7984543883513
 20
164.163386529339
 30
0.0
 10
262.794369995506
 20
164.1674276621866
 30
0.0
 10
262.7872669472082
 20
164.1744554782858
 30
0.0
 10
262.7795219468411
 20
164.1801400488471
 30
0.0
 10
262.7718804147713
 20
164.1849752259874
 30
0.0
 10
262.7613393645428
 20
164.1916450723788
 30
0.0
 10
262.7507080511415
 20
164.1968614746296
 30
0.0
 10
262.7403441700495
 20
164.201247060684
 30
0.0
  0
ARC
  5
344
330
1F
100
AcDbEntity
  8
0
  6
Continuous
 62
     7
370
     0
100
AcDbCircle
 10
263.2309408514
 20
164.257087134
 30
0.0
 40
0.5523877069661995
100
AcDbArc
 50
316.7388304918
 51
126.0804137281
  0
LINE
  5
345
330
1F
100
AcDbEntity
  8
0
  6
Continuous
 62
     7
370
     0
100
AcDbLine
 10
255.0381267266
 20
166.7146359295
 30
0.0
 11
255.0381267266
 21
163.8862088047
 31
0.0
  0
LINE
  5
346
330
1F
100
AcDbEntity
  8
0
  6
Continuous
 62
     7
370
     0
100
AcDbLine
 10
259.3851491736
 20
163.3385354555
 30
0.0
 11
262.7304705313
 21
164.2524617734
 31
0.0
  0
LINE
  5
347
330
1F
100
AcDbEntity
  8
0
  6
Continuous
 62
     7
370
     0
100
AcDbLine
 10
255.0381267266
 20
163.8862088047
 30
0.0
 11
259.3851491736
 21
163.3385354555
 31
0.0
  0
LINE
  5
348
330
1F
100
AcDbEntity
  8
0
  6
Continuous
 62
     7
370
     0
100
AcDbLine
 10
255.0381267266
 20
163.8861145238
 30
0.0
 11
259.3849129892
 21
163.3384709311
 31
0.0
  0
LINE
  5
349
330
1F
100
AcDbEntity
  8
0
  6
Continuous
 62
     7
370
     0
100
AcDbLine
 10
255.0382202681
 20
163.8861970196
 30
0.0
 11
255.0381267266
 21
163.8861145238
 31
0.0
  0
LINE
  5
34A
330
1F
100
AcDbEntity
  8
0
  6
Continuous
 62
     7
370
     0
100
AcDbLine
 10
267.927804099
 20
165.825651044
 30
0.0
 11
267.9277105575
 21
165.8256628291
 31
0.0
  0
LINE
  5
34B
330
1F
100
AcDbEntity
  8
0
  6
Continuous
 62
     7
370
     0
100
AcDbLine
 10
264.3922701939
 20
162.7076032224
 30
0.0
 11
267.927804099
 21
165.825651044
 31
0.0
  0
LINE
  5
34C
330
1F
100
AcDbEntity
  8
0
  6
Continuous
 62
     7
370
     0
100
AcDbLine
 10
259.928336492
 20
163.2700060051
 30
0.0
 11
264.3922701939
 21
162.7076032224
 31
0.0
  0
LINE
  5
34D
330
1F
100
AcDbEntity
  8
0
  6
Continuous
 62
     7
370
     0
100
AcDbLine
 10
264.3922701939
 20
162.7076032224
 30
0.0
 11
264.3922701939
 21
159.8791760975
 31
0.0
  0
LINE
  5
34E
330
1F
100
AcDbEntity
  8
0
  6
Continuous
 62
     7
370
     0
100
AcDbLine
 10
267.927804099
 20
165.825651044
 30
0.0
 11
267.927804099
 21
162.9972239192
 31
0.0
  0
LINE
  5
34F
330
1F
100
AcDbEntity
  8
0
  6
Continuous
 62
     7
370
     0
100
AcDbLine
 10
264.3922701939
 20
159.8791760975
 30
0.0
 11
267.927804099
 21
162.9972239192
 31
0.0
  0
LINE
  5
350
330
1F
100
AcDbEntity
  8
0
  6
Continuous
 62
     7
370
     0
100
AcDbLine
 10
260.0218654959
 20
160.4297953334
 30
0.0
 11
264.3922701939
 21
159.8791760975
 31
0.0
  0
LINE
  5
351
330
1F
100
AcDbEntity
  8
0
  6
Continuous
 62
     7
370
     0
100
AcDbLine
 10
256.6663927413
 20
162.1919946265
 30
0.0
 11
260.0218654959
 21
160.4297953334
 31
0.0
  0
SPLINE
  5
352
330
1F
100
AcDbEntity
  8
0
  6
Continuous
 62
     7
370
     0
100
AcDbSpline
210
0.0
220
0.0
230
1.0
 70
     8
 71
     3
 72
    29
 73
    25
 74
     0
 42
0.000000001
 43
0.00000001
 40
0.0000000000000011
 40
0.0000000000000011
 40
0.0000000000000011
 40
0.0000000000000011
 40
0.0000553986491994
 40
0.0000553986491994
 40
0.0000553986491994
 40
0.0000744703661967
 40
0.0000744703661967
 40
0.0000744703661967
 40
0.0000938210300496
 40
0.0000938210300496
 40
0.0000938210300496
 40
0.00010725430962
 40
0.00010725430962
 40
0.00010725430962
 40
0.0001207016259441
 40
0.0001207016259441
 40
0.0001207016259441
 40
0.0001387455774107
 40
0.0001387455774107
 40
0.0001387455774107
 40
0.0001702186759774
 40
0.0001702186759774
 40
0.0001702186759774
 40
0.0002135383638974
 40
0.0002135383638974
 40
0.0002135383638974
 40
0.0002135383638974
 10
262.7403441700496
 20
158.7778218182848
 30
0.0
 10
262.7535394432177
 20
158.7748426191962
 30
0.0
 10
262.7672794740104
 20
158.7733186769092
 30
0.0
 10
262.7805657510865
 20
158.7755913433378
 30
0.0
 10
262.7851817125547
 20
158.7763809204785
 30
0.0
 10
262.7897716798846
 20
158.7776675167354
 30
0.0
 10
262.7941153340724
 20
158.7797172556596
 30
0.0
 10
262.7984943338932
 20
158.7817836739316
 30
0.0
 10
262.8027183810638
 20
158.7847051343839
 30
0.0
 10
262.8061871249084
 20
158.7887057051266
 30
0.0
 10
262.8086052988055
 20
158.7914946328124
 30
0.0
 10
262.8106914885327
 20
158.7948832541636
 30
0.0
 10
262.8122100783002
 20
158.7986678020182
 30
0.0
 10
262.8137305175558
 20
158.8024569590678
 30
0.0
 10
262.8147171241793
 20
158.806726997587
 30
0.0
 10
262.8151794155707
 20
158.8110918231362
 30
0.0
 10
262.8157985382031
 20
158.8169374052391
 30
0.0
 10
262.8155284577167
 20
158.8230992596596
 30
0.0
 10
262.8147316760956
 20
158.8290911018411
 30
0.0
 10
262.8133460164512
 20
158.8395113395652
 30
0.0
 10
262.8104190364934
 20
158.8497778086701
 30
0.0
 10
262.8069632864942
 20
158.8595138420528
 30
0.0
 10
262.8021962798276
 20
158.872944135347
 30
0.0
 10
262.796280920841
 20
158.8857175938336
 30
0.0
 10
262.7899757947709
 20
158.8978752051177
 30
0.0
  0
LINE
  5
353
330
1F
100
AcDbEntity
  8
0
  6
Continuous
 62
     7
370
     0
100
AcDbLine
 10
260.0221016803
 20
160.4296712961
 30
0.0
 11
262.8303353603
 21
158.9548664719
 31
0.0
  0
SPLINE
  5
354
330
1F
100
AcDbEntity
  8
0
  6
Continuous
 62
     7
370
     0
100
AcDbSpline
210
0.0
220
0.0
230
1.0
 70
     8
 71
     3
 72
     8
 73
     4
 74
     0
 42
0.000000001
 43
0.00000001
 40
0.0
 40
0.0
 40
0.0
 40
0.0
 40
0.0000404517691324
 40
0.0000404517691324
 40
0.0000404517691324
 40
0.0000404517691324
 10
256.5926239728796
 20
162.0133086005445
 30
0.0
 10
256.58785668617
 20
162.009104248857
 30
0.0
 10
256.5842036230925
 20
162.0065145954296
 30
0.0
 10
256.5819176554739
 20
162.0058221278224
 30
0.0
  0
SPLINE
  5
355
330
1F
100
AcDbEntity
  8
0
  6
Continuous
 62
     7
370
     0
100
AcDbSpline
210
0.0
220
0.0
230
1.0
 70
     8
 71
     3
 72
     9
 73
     5
 74
     0
 42
0.000000001
 43
0.00000001
 40
0.0
 40
0.0
 40
0.0
 40
0.0
 40
0.6596733924492636
 40
1.0
 40
1.0
 40
1.0
 40
1.0
 10
256.5808232921314
 20
162.0071730967877
 30
0.0
 10
256.5798413481505
 20
162.0074062295822
 30
0.0
 10
256.5783528176262
 20
162.0077596359758
 30
0.0
 10
256.5792907419432
 20
162.0118671277368
 30
0.0
 10
256.5796099425442
 20
162.0132650164734
 30
0.0
  0
SPLINE
  5
356
330
1F
100
AcDbEntity
  8
0
  6
Continuous
 62
     7
370
     0
100
AcDbSpline
210
0.0
220
0.0
230
1.0
 70
     8
 71
     3
 72
    29
 73
    25
 74
     0
 42
0.000000001
 43
0.00000001
 40
0.0
 40
0.0
 40
0.0
 40
0.0
 40
0.0000553986492
 40
0.0000553986492
 40
0.0000553986492
 40
0.0000744703661974
 40
0.0000744703661974
 40
0.0000744703661974
 40
0.0000938210300502
 40
0.0000938210300502
 40
0.0000938210300502
 40
0.0001072543096207
 40
0.0001072543096207
 40
0.0001072543096207
 40
0.0001207016259448
 40
0.0001207016259448
 40
0.0001207016259448
 40
0.0001387455774115
 40
0.0001387455774115
 40
0.0001387455774115
 40
0.0001702186759782
 40
0.0001702186759782
 40
0.0001702186759782
 40
0.0002135383638979
 40
0.0002135383638979
 40
0.0002135383638979
 40
0.0002135383638979
 10
256.6292415672651
 20
162.1333184033068
 30
0.0
 10
256.6108493548815
 20
162.1317143328144
 30
0.0
 10
256.5922026451543
 20
162.1289109910255
 30
0.0
 10
256.5748679097916
 20
162.1230679199905
 30
0.0
 10
256.5688454198167
 20
162.1210379013029
 30
0.0
 10
256.5629469853039
 20
162.1185973454577
 30
0.0
 10
256.5574887337753
 20
162.115564624075
 30
0.0
 10
256.5519860667968
 20
162.1125072245176
 30
0.0
 10
256.5468155176251
 20
162.1087510277618
 30
0.0
 10
256.5427797597561
 20
162.104250397653
 30
0.0
 10
256.5399663019825
 20
162.1011128623558
 30
0.0
 10
256.5376674507164
 20
162.0975366911561
 30
0.0
 10
256.5361631635149
 20
162.0937647569789
 30
0.0
 10
256.5346570442443
 20
162.089988228969
 30
0.0
 10
256.533912169456
 20
162.0859313778899
 30
0.0
 10
256.5338694830398
 20
162.0819366091452
 30
0.0
 10
256.5338123153599
 20
162.0765866247264
 30
0.0
 10
256.5349672230901
 20
162.071205114586
 30
0.0
 10
256.5368071964334
 20
162.0661332810268
 30
0.0
 10
256.5400070403315
 20
162.0573130034253
 30
0.0
 10
256.5452608529249
 20
162.0490986078193
 30
0.0
 10
256.551217615349
 20
162.0415682600706
 30
0.0
 10
256.5594346235795
 20
162.0311805821635
 30
0.0
 10
256.5692230169245
 20
162.0218228189209
 30
0.0
 10
256.5796099425442
 20
162.0132650164732
 30
0.0
  0
SPLINE
  5
357
330
1F
100
AcDbEntity
  8
0
  6
Continuous
 62
     7
370
     0
100
AcDbSpline
210
0.0
220
0.0
230
1.0
 70
     8
 71
     3
 72
    14
 73
    10
 74
     0
 42
0.000000001
 43
0.00000001
 40
0.000000000000001
 40
0.000000000000001
 40
0.000000000000001
 40
0.000000000000001
 40
0.0000389338800372
 40
0.0000389338800372
 40
0.0000389338800372
 40
0.0000777809519151
 40
0.0000777809519151
 40
0.0000777809519151
 40
0.0000939650131498
 40
0.0000939650131498
 40
0.0000939650131498
 40
0.0000939650131498
 10
256.6292415672655
 20
162.133318403308
 30
0.0
 10
256.6345568660492
 20
162.1443842242248
 30
0.0
 10
256.6399475085042
 20
162.1547646952208
 30
0.0
 10
256.6451514123046
 20
162.163578616811
 30
0.0
 10
256.6503479577448
 20
162.172380075448
 30
0.0
 10
256.6555073104918
 20
162.1798634586978
 30
0.0
 10
256.6603453925274
 20
162.1854492760002
 30
0.0
 10
256.6623831071997
 20
162.1878019235555
 30
0.0
 10
256.6643794265688
 20
162.1898431526518
 30
0.0
 10
256.6663092476763
 20
162.1915450948937
 30
0.0
  0
LINE
  5
358
330
1F
100
AcDbEntity
  8
0
  6
Continuous
 62
     7
370
     0
100
AcDbLine
 10
255.0381267266
 20
161.0575931181
 30
0.0
 11
259.4419418413
 21
160.5027645653
 31
0.0
  0
LINE
  5
359
330
1F
100
AcDbEntity
  8
0
  6
Continuous
 62
     7
370
     0
100
AcDbLine
 10
255.0382202681
 20
161.0576756138
 30
0.0
 11
255.0381267266
 21
161.0575931181
 31
0.0
  0
LINE
  5
35A
330
1F
100
AcDbEntity
  8
0
  6
Continuous
 62
     7
370
     0
100
AcDbLine
 10
267.927804099
 20
162.9971296383
 30
0.0
 11
267.9277105575
 21
162.9971414234
 31
0.0
  0
LINE
  5
35B
330
1F
100
AcDbEntity
  8
0
  6
Continuous
 62
     7
370
     0
100
AcDbLine
 10
264.3922701939
 20
159.8790818166
 30
0.0
 11
267.927804099
 21
162.9971296383
 31
0.0
  0
LINE
  5
35C
330
1F
100
AcDbEntity
  8
0
  6
Continuous
 62
     7
370
     0
100
AcDbLine
 10
260.0221016803
 20
160.4296712961
 30
0.0
 11
264.3922701939
 21
159.8790818166
 31
0.0
  0
LINE
  5
35D
330
1F
100
AcDbEntity
  8
0
  6
Continuous
 62
     7
370
     0
100
AcDbLine
 10
264.3922701939
 20
159.8790818166
 30
0.0
 11
264.3922701939
 21
157.0506546918
 31
0.0
  0
LINE
  5
35E
330
1F
100
AcDbEntity
  8
0
  6
Continuous
 62
     7
370
     0
100
AcDbLine
 10
259.9753371783
 20
157.6071359447
 30
0.0
 11
264.3922701939
 21
157.0506546918
 31
0.0
  0
LINE
  5
35F
330
1F
100
AcDbEntity
  8
0
  6
Continuous
 62
     7
370
     0
100
AcDbLine
 10
267.927804099
 20
162.9971296383
 30
0.0
 11
267.927804099
 21
160.1687025135
 31
0.0
  0
LINE
  5
360
330
1F
100
AcDbEntity
  8
0
  6
Continuous
 62
     7
370
     0
100
AcDbLine
 10
264.3922701939
 20
157.0506546918
 30
0.0
 11
267.927804099
 21
160.1687025135
 31
0.0
  0
LWPOLYLINE
  5
361
330
1F
100
AcDbEntity
  8
0
  6
Continuous
 62
     7
370
     0
100
AcDbPolyline
 90
       24
 70
   128
 43
0.0
 10
256.6357704118
 20
167.3582866631
 10
256.6432417488
 20
167.4924820544
 10
256.6157622665
 20
167.6284263095
 10
256.5552040635
 20
167.7568579344
 10
256.4656927974
 20
167.8690272493
 10
256.3533266152
 20
167.957292479
 10
256.2257607039
 20
168.0156403654
 10
256.091685765
 20
168.0400958336
 10
255.9602359411
 20
168.0289928024
 10
255.8403665335
 20
167.9830876896
 10
255.7402439026
 20
167.9055078794
 10
255.6666891174
 20
167.8015386629
 10
255.6247132554
 20
167.6782631658
 10
255.6171760122
 20
167.5440797959
 10
255.6445908788
 20
167.408130083
 10
255.7050901584
 20
167.2796758928
 10
255.7945522079
 20
167.1674684426
 10
255.9068822334
 20
167.0791521055
 10
256.0344275109
 20
167.0207436215
 10
256.1684987448
 20
166.9962221938
 10
256.2999620448
 20
167.0072583972
 10
256.4198611916
 20
167.0531003667
 10
256.5200277987
 20
167.1306250199
 10
256.5936378011
 20
167.2345508234
  0
ARC
  5
362
330
1F
100
AcDbEntity
  8
0
  6
Continuous
 62
     7
370
     0
100
AcDbCircle
 10
256.117717006
 20
167.4993431297
 30
0.0
 40
0.5592728754416546
100
AcDbArc
 50
351.5455536164
 51
125.056508584
  0
LWPOLYLINE
  5
363
330
1F
100
AcDbEntity
  8
0
  6
Continuous
 62
     7
370
     0
100
AcDbPolyline
 90
        3
 70
   128
 43
0.0
 10
256.5240611946
 20
167.1321560478
 10
256.5296895245
 20
167.1372089245
 10
256.6083603897
 20
167.2334135087
  0
LWPOLYLINE
  5
364
330
1F
100
AcDbEntity
  8
0
  6
Continuous
 62
     7
370
     0
100
AcDbPolyline
 90
       21
 70
   128
 43
0.0
 10
262.7899757948
 20
158.3929772494
 10
262.8706569953
 20
158.2736211407
 10
262.9767547675
 20
158.1759920429
 10
263.1009553993
 20
158.1068198912
 10
263.2346972816
 20
158.0708729777
 10
263.3687610915
 20
158.0706292565
 10
263.4939053145
 20
158.1061055279
 10
263.6015032961
 20
158.1748562815
 10
263.6841379093
 20
158.2721422732
 10
263.7361128445
 20
158.3912572198
 10
263.7538452769
 20
158.5239900871
 10
263.7361128445
 20
158.6611911073
 10
263.6841379093
 20
158.7934025065
 10
263.6015032961
 20
158.9115104636
 10
263.4939053145
 20
159.0073733601
 10
263.3687610915
 20
159.0743830117
 10
263.2346972816
 20
159.1079201953
 10
263.1009553993
 20
159.1056730685
 10
262.9767547675
 20
159.0677965343
 10
262.8706569953
 20
158.9969015622
 10
262.7899757948
 20
158.8978752051
  0
SPLINE
  5
365
330
1F
100
AcDbEntity
  8
0
  6
Continuous
 62
     7
370
     0
100
AcDbSpline
210
0.0
220
0.0
230
1.0
 70
     8
 71
     3
 72
    29
 73
    25
 74
     0
 42
0.000000001
 43
0.00000001
 40
0.0
 40
0.0
 40
0.0
 40
0.0
 40
0.0000553986491994
 40
0.0000553986491994
 40
0.0000553986491994
 40
0.0000744703661968
 40
0.0000744703661968
 40
0.0000744703661968
 40
0.0000938210300496
 40
0.0000938210300496
 40
0.0000938210300496
 40
0.0001072543096201
 40
0.0001072543096201
 40
0.0001072543096201
 40
0.0001207016259442
 40
0.0001207016259442
 40
0.0001207016259442
 40
0.0001387455774108
 40
0.0001387455774108
 40
0.0001387455774108
 40
0.0001702186759774
 40
0.0001702186759774
 40
0.0001702186759774
 40
0.0002135383638965
 40
0.0002135383638965
 40
0.0002135383638965
 40
0.0002135383638965
 10
262.7899757947695
 20
158.3929772494427
 30
0.0
 10
262.7980034689693
 20
158.4011954902462
 30
0.0
 10
262.8055316715496
 20
158.4109027586732
 30
0.0
 10
262.8105990192149
 20
158.4231534554838
 30
0.0
 10
262.8123595335739
 20
158.4274096322978
 30
0.0
 10
262.8138125533148
 20
158.43202602627
 30
0.0
 10
262.8146813660967
 20
158.4370392139341
 30
0.0
 10
262.8155572486721
 20
158.4420931954283
 30
0.0
 10
262.8158372760686
 20
158.4476873360667
 30
0.0
 10
262.8150797642862
 20
158.4535289868183
 30
0.0
 10
262.814551678241
 20
158.4576013911224
 30
0.0
 10
262.8134899395848
 20
158.461880449151
 30
0.0
 10
262.8119026111435
 20
158.4660231572232
 30
0.0
 10
262.8103133494974
 20
158.470170910693
 30
0.0
 10
262.8081627195417
 20
158.4742750495571
 30
0.0
 10
262.8056954535955
 20
158.4780411124195
 30
0.0
 10
262.8023911736202
 20
158.4830848030365
 30
0.0
 10
262.7984543883514
 20
158.4876760988462
 30
0.0
 10
262.794369995506
 20
158.4917172316937
 30
0.0
 10
262.7872669472083
 20
158.4987450477929
 30
0.0
 10
262.7795219468412
 20
158.5044296183542
 30
0.0
 10
262.7718804147713
 20
158.5092647954946
 30
0.0
 10
262.7613393645428
 20
158.515934641886
 30
0.0
 10
262.7507080511416
 20
158.5211510441368
 30
0.0
 10
262.7403441700495
 20
158.5255366301911
 30
0.0
  0
ARC
  5
366
330
1F
100
AcDbEntity
  8
0
  6
Continuous
 62
     7
370
     0
100
AcDbCircle
 10
263.2472883896
 20
158.6516792242
 30
0.0
 40
0.522402522787275
100
AcDbArc
 50
166.0269024181
 51
193.973097582
  0
LWPOLYLINE
  5
367
330
1F
100
AcDbEntity
  8
0
  6
Continuous
 62
     7
370
     0
100
AcDbPolyline
 90
       15
 70
   128
 43
0.0
 10
263.6332102297
 20
158.2028116151
 10
263.6385427127
 20
158.2075943859
 10
263.7174812621
 20
158.3040223156
 10
263.7670163543
 20
158.4208781881
 10
263.7838973151
 20
158.5504934935
 10
263.7670163543
 20
158.6843624013
 10
263.7174812621
 20
158.8136999438
 10
263.6385427127
 20
158.9300185182
 10
263.5353809425
 20
159.0256848742
 10
263.4147658043
 20
159.0944210353
 10
263.2846125048
 20
159.1317162831
 10
263.1534621798
 20
159.1351231671
 10
263.0299213935
 20
159.104418115
 10
262.9220973443
 20
159.0416161048
 10
262.9056286191
 20
159.0278116151
  0
LINE
  5
368
330
1F
100
AcDbEntity
  8
0
  6
Continuous
 62
     7
370
     0
100
AcDbLine
 10
255.0381267266
 20
161.0575931181
 30
0.0
 11
255.0381267266
 21
158.2291659932
 31
0.0
  0
LINE
  5
369
330
1F
100
AcDbEntity
  8
0
  6
Continuous
 62
     7
370
     0
100
AcDbLine
 10
259.4319136756
 20
157.6756008706
 30
0.0
 11
262.7304705313
 21
158.5767513429
 31
0.0
  0
LINE
  5
36A
330
1F
100
AcDbEntity
  8
0
  6
Continuous
 62
     7
370
     0
100
AcDbLine
 10
255.0381267266
 20
158.2291659932
 30
0.0
 11
259.4319136756
 21
157.6756008706
 31
0.0
  0
LINE
  5
36B
330
1F
100
AcDbEntity
  8
0
  6
Continuous
 62
     7
370
     0
100
AcDbLine
 10
255.0381267266
 20
163.8861145238
 30
0.0
 11
255.0381267266
 21
161.057687399
 31
0.0
  0
LINE
  5
36C
330
1F
100
AcDbEntity
  8
0
  6
Continuous
 62
     7
370
     0
100
AcDbLine
 10
255.0381267266
 20
161.057687399
 30
0.0
 11
259.441705657
 21
160.5028886027
 31
0.0
  0
LINE
  5
36D
330
1F
100
AcDbEntity
  8
0
  6
Continuous
 62
     7
370
     0
100
AcDbLine
 10
255.0382202681
 20
158.2291542081
 30
0.0
 11
255.0381267266
 21
158.2290717123
 31
0.0
  0
LINE
  5
36E
330
1F
100
AcDbEntity
  8
0
  6
Continuous
 62
     7
370
     0
100
AcDbLine
 10
267.927804099
 20
160.1686082326
 30
0.0
 11
267.9277105575
 21
160.1686200177
 31
0.0
  0
LINE
  5
36F
330
1F
100
AcDbEntity
  8
0
  6
Continuous
 62
     7
370
     0
100
AcDbLine
 10
264.3922701939
 20
157.0505604109
 30
0.0
 11
267.927804099
 21
160.1686082326
 31
0.0
  0
LINE
  5
370
330
1F
100
AcDbEntity
  8
0
  6
Continuous
 62
     7
370
     0
100
AcDbLine
 10
259.975100994
 20
157.6070714202
 30
0.0
 11
264.3922701939
 21
157.0505604109
 31
0.0
  0
LINE
  5
371
330
1F
100
AcDbEntity
  8
0
  6
Continuous
 62
     7
370
     0
100
AcDbLine
 10
255.0381267266
 20
158.2290717123
 30
0.0
 11
259.4316774912
 21
157.6755363461
 31
0.0
  0
LINE
  5
372
330
1F
100
AcDbEntity
  8
0
  6
Continuous
 62
     7
370
     0
100
AcDbLine
 10
264.3922701939
 20
157.0505604109
 30
0.0
 11
264.3922701939
 21
154.2221332861
 31
0.0
  0
LINE
  5
373
330
1F
100
AcDbEntity
  8
0
  6
Continuous
 62
     7
370
     0
100
AcDbLine
 10
259.9864302678
 20
154.7772169411
 30
0.0
 11
264.3922701939
 21
154.2221332861
 31
0.0
  0
LINE
  5
374
330
1F
100
AcDbEntity
  8
0
  6
Continuous
 62
     7
370
     0
100
AcDbLine
 10
267.927804099
 20
160.1686082326
 30
0.0
 11
267.927804099
 21
157.3401811077
 31
0.0
  0
LINE
  5
375
330
1F
100
AcDbEntity
  8
0
  6
Continuous
 62
     7
370
     0
100
AcDbLine
 10
264.3922701939
 20
154.2221332861
 30
0.0
 11
267.927804099
 21
157.3401811077
 31
0.0
  0
SPLINE
  5
376
330
1F
100
AcDbEntity
  8
0
  6
Continuous
 62
     7
370
     0
100
AcDbSpline
210
0.0
220
0.0
230
1.0
 70
     8
 71
     3
 72
    17
 73
    13
 74
     0
 42
0.000000001
 43
0.00000001
 40
0.0
 40
0.0
 40
0.0
 40
0.0
 40
0.0437678789599587
 40
0.1494781804782115
 40
0.2980385612601069
 40
0.4474634883514058
 40
0.5827352060124679
 40
0.6999578265226849
 40
0.8016248827548575
 40
0.8934896391443796
 40
0.9857081972064984
 40
1.0
 40
1.0
 40
1.0
 40
1.0
 10
254.6808199738649
 20
150.9840412685699
 30
0.0
 10
254.679707050995
 20
150.9802141058269
 30
0.0
 10
254.6759061428958
 20
150.9671433942271
 30
0.0
 10
254.716497984458
 20
150.9446462816453
 30
0.0
 10
254.8101482616688
 20
150.9150021866656
 30
0.0
 10
254.9507922435905
 20
150.8904623567591
 30
0.0
 10
255.0972844969811
 20
150.8768989576411
 30
0.0
 10
255.229378018315
 20
150.8728067711818
 30
0.0
 10
255.3381557247751
 20
150.8755490458134
 30
0.0
 10
255.4226621330815
 20
150.884910303178
 30
0.0
 10
255.464759804316
 20
150.8981618464629
 30
0.0
 10
255.4792828448402
 20
150.9091813034157
 30
0.0
 10
255.4812315794935
 20
150.9106599192461
 30
0.0
  0
SPLINE
  5
377
330
1F
100
AcDbEntity
  8
0
  6
Continuous
 62
     7
370
     0
100
AcDbSpline
210
0.0
220
0.0
230
1.0
 70
     8
 71
     3
 72
     9
 73
     5
 74
     0
 42
0.000000001
 43
0.00000001
 40
0.0
 40
0.0
 40
0.0
 40
0.0
 40
0.8547614648971775
 40
0.9999999999999999
 40
0.9999999999999999
 40
0.9999999999999999
 40
0.9999999999999999
 10
255.4988660212046
 20
150.9453420232255
 30
0.0
 10
255.4972925803259
 20
150.9349206531384
 30
0.0
 10
255.4954517850359
 20
150.9227285147291
 30
0.0
 10
255.4830349783126
 20
150.9121904520347
 30
0.0
 10
255.4812315794935
 20
150.9106599192461
 30
0.0
  0
SPLINE
  5
378
330
1F
100
AcDbEntity
  8
0
  6
Continuous
 62
     7
370
     0
100
AcDbSpline
210
0.0
220
0.0
230
1.0
 70
     8
 71
     3
 72
    15
 73
    11
 74
     0
 42
0.000000001
 43
0.00000001
 40
0.0
 40
0.0
 40
0.0
 40
0.0
 40
0.1394056198791856
 40
0.2643624163834228
 40
0.3935430979114786
 40
0.5282394101016481
 40
0.6670373435185968
 40
0.8056816696764112
 40
0.9397399020911905
 40
1.0
 40
1.0
 40
1.0
 40
1.0
 10
256.4936352414926
 20
156.581248191881
 30
0.0
 10
256.4765343619312
 20
156.6261231881257
 30
0.0
 10
256.4441050391601
 20
156.7112220704572
 30
0.0
 10
256.3454080178057
 20
156.8143257715609
 30
0.0
 10
256.2272709137282
 20
156.8864523051256
 30
0.0
 10
256.0924709973112
 20
156.922298179932
 30
0.0
 10
255.9565413255145
 20
156.9152304199846
 30
0.0
 10
255.8410593651853
 20
156.861880960973
 30
0.0
 10
255.7662357783934
 20
156.7897058703805
 30
0.0
 10
255.7494235092626
 20
156.7315730496555
 30
0.0
 10
255.744209852979
 20
156.7135454685067
 30
0.0
  0
SPLINE
  5
379
330
1F
100
AcDbEntity
  8
0
  6
Continuous
 62
     7
370
     0
100
AcDbSpline
210
0.0
220
0.0
230
1.0
 70
     8
 71
     3
 72
    10
 73
     6
 74
     0
 42
0.000000001
 43
0.00000001
 40
0.0
 40
0.0
 40
0.0
 40
0.0
 40
0.1252424604426799
 40
0.4161378653946542
 40
0.9999999999999999
 40
0.9999999999999999
 40
0.9999999999999999
 40
0.9999999999999999
 10
256.4830978888966
 20
156.3760154132522
 30
0.0
 10
256.4871486060751
 20
156.3833224479436
 30
0.0
 10
256.5006077539871
 20
156.4076012253493
 30
0.0
 10
256.5094019910615
 20
156.4776749710912
 30
0.0
 10
256.4999464192603
 20
156.5397894875666
 30
0.0
 10
256.4936352414926
 20
156.581248191881
 30
0.0
  0
SPLINE
  5
37A
330
1F
100
AcDbEntity
  8
0
  6
Continuous
 62
     7
370
     0
100
AcDbSpline
210
0.0
220
0.0
230
1.0
 70
     8
 71
     3
 72
    29
 73
    25
 74
     0
 42
0.000000001
 43
0.00000001
 40
0.0000000000000001
 40
0.0000000000000001
 40
0.0000000000000001
 40
0.0000000000000001
 40
0.0000553986492001
 40
0.0000553986492001
 40
0.0000553986492001
 40
0.0000744703661974
 40
0.0000744703661974
 40
0.0000744703661974
 40
0.0000938210300503
 40
0.0000938210300503
 40
0.0000938210300503
 40
0.0001072543096207
 40
0.0001072543096207
 40
0.0001072543096207
 40
0.0001207016259448
 40
0.0001207016259448
 40
0.0001207016259448
 40
0.0001387455774115
 40
0.0001387455774115
 40
0.0001387455774115
 40
0.0001702186759782
 40
0.0001702186759782
 40
0.0001702186759782
 40
0.0002135383638984
 40
0.0002135383638984
 40
0.0002135383638984
 40
0.0002135383638984
 10
262.7402162674604
 20
153.1100976483415
 30
0.0
 10
262.7534102092159
 20
153.1071349178896
 30
0.0
 10
262.7671475086951
 20
153.1056280323662
 30
0.0
 10
262.780427694983
 20
153.1079172658257
 30
0.0
 10
262.7850415403697
 20
153.108712598738
 30
0.0
 10
262.7896289402104
 20
153.1100049299684
 30
0.0
 10
262.7939693825127
 20
153.1120601304347
 30
0.0
 10
262.7983451443118
 20
153.1141320546913
 30
0.0
 10
262.8025651953914
 20
153.1170588648785
 30
0.0
 10
262.8060291382292
 20
153.1210639109159
 30
0.0
 10
262.8084439651886
 20
153.1238559584748
 30
0.0
 10
262.8105263348995
 20
153.1272473221512
 30
0.0
 10
262.8120408916053
 20
153.1310339360804
 30
0.0
 10
262.8135572928874
 20
153.1348251617209
 30
0.0
 10
262.8145395580645
 20
153.1390966385485
 30
0.0
 10
262.8149975702173
 20
153.1434622616301
 30
0.0
 10
262.8156109618898
 20
153.1493089118266
 30
0.0
 10
262.8153351087978
 20
153.1554707551439
 30
0.0
 10
262.8145328761346
 20
153.1614619205098
 30
0.0
 10
262.8131377367423
 20
153.1718809812037
 30
0.0
 10
262.8102018940035
 20
153.1821443404195
 30
0.0
 10
262.8067379773547
 20
153.1918765409055
 30
0.0
 10
262.8019597052687
 20
153.205301546941
 30
0.0
 10
262.7960341125403
 20
153.2180681851276
 30
0.0
 10
262.7897195354915
 20
153.230218367858
 30
0.0
  0
LINE
  5
37B
330
1F
100
AcDbEntity
  8
0
  6
Continuous
 62
     7
370
     0
100
AcDbLine
 10
259.9887991945
 20
154.7759756753
 30
0.0
 11
262.8300049932
 21
153.2872460117
 31
0.0
  0
ARC
  5
37C
330
1F
100
AcDbEntity
  8
0
  6
Continuous
 62
     7
370
     0
100
AcDbCircle
 10
256.1222973477
 20
162.2594609974
 30
0.0
 40
0.5224025227807947
100
AcDbArc
 50
346.0269024178
 51
13.973097582
  0
LWPOLYLINE
  5
37D
330
1F
100
AcDbEntity
  8
0
  6
Continuous
 62
     7
370
     0
100
AcDbPolyline
 90
       21
 70
   128
 43
0.0
 10
256.5796099425
 20
162.5181629721
 10
256.498928742
 20
162.6375190809
 10
256.3928309698
 20
162.7351481786
 10
256.268630338
 20
162.8043203304
 10
256.1348884557
 20
162.8402672438
 10
256.0008246458
 20
162.8405109651
 10
255.8756804228
 20
162.8050346936
 10
255.7680824412
 20
162.7362839401
 10
255.685447828
 20
162.6389979483
 10
255.6334728929
 20
162.5198830018
 10
255.6157404604
 20
162.3871501345
 10
255.6334728929
 20
162.2499491143
 10
255.685447828
 20
162.1177377151
 10
255.7680824412
 20
161.999629758
 10
255.8756804228
 20
161.9037668615
 10
256.0008246458
 20
161.8367572099
 10
256.1348884557
 20
161.8032200263
 10
256.268630338
 20
161.8054671531
 10
256.3928309698
 20
161.8433436873
 10
256.498928742
 20
161.9142386593
 10
256.5796099425
 20
162.0132650165
  0
LINE
  5
37E
330
1F
100
AcDbEntity
  8
0
  6
Continuous
 62
     7
370
     0
100
AcDbLine
 10
255.0381267266
 20
155.3997017784
 30
0.0
 11
255.039062141
 21
155.4005267364
 31
0.0
  0
LINE
  5
37F
330
1F
100
AcDbEntity
  8
0
  6
Continuous
 62
     7
370
     0
100
AcDbLine
 10
267.9268686846
 20
157.3393561498
 30
0.0
 11
267.927804099
 21
157.3392382987
 31
0.0
  0
LINE
  5
380
330
1F
100
AcDbEntity
  8
0
  6
Continuous
 62
     7
370
     0
100
AcDbLine
 10
267.927804099
 20
157.3392382987
 30
0.0
 11
264.3922701939
 21
154.221190477
 31
0.0
  0
LINE
  5
381
330
1F
100
AcDbEntity
  8
0
  6
Continuous
 62
     7
370
     0
100
AcDbLine
 10
264.3922701939
 20
154.221190477
 30
0.0
 11
259.9887991945
 21
154.7759756753
 31
0.0
  0
LINE
  5
382
330
1F
100
AcDbEntity
  8
0
  6
Continuous
 62
     7
370
     0
100
AcDbLine
 10
259.4071653509
 20
154.8492546517
 30
0.0
 11
256.1297646467
 21
155.2621683281
 31
0.0
  0
LINE
  5
383
330
1F
100
AcDbEntity
  8
0
  6
Continuous
 62
     7
370
     0
100
AcDbLine
 10
255.3030171378
 20
155.3663287236
 30
0.0
 11
255.0381267266
 21
155.3997017784
 31
0.0
  0
LINE
  5
384
330
1F
100
AcDbEntity
  8
0
  6
Continuous
 62
     7
370
     0
100
AcDbLine
 10
267.927804099
 20
154.5108111739
 30
0.0
 11
267.927804099
 21
157.3392382987
 31
0.0
  0
LINE
  5
385
330
1F
100
AcDbEntity
  8
0
  6
Continuous
 62
     7
370
     0
100
AcDbLine
 10
267.927804099
 20
154.5108111739
 30
0.0
 11
264.3922701939
 21
151.3927633522
 31
0.0
  0
LINE
  5
386
330
1F
100
AcDbEntity
  8
0
  6
Continuous
 62
     7
370
     0
100
AcDbLine
 10
264.3922701939
 20
151.3927633522
 30
0.0
 11
264.3922701939
 21
154.221190477
 31
0.0
  0
LINE
  5
387
330
1F
100
AcDbEntity
  8
0
  6
Continuous
 62
     7
370
     0
100
AcDbLine
 10
264.3922701939
 20
151.3927633522
 30
0.0
 11
255.5960234254
 21
152.5009862764
 31
0.0
  0
LINE
  5
388
330
1F
100
AcDbEntity
  8
0
  6
Continuous
 62
     7
370
     0
100
AcDbLine
 10
255.0381267266
 20
154.2711129945
 30
0.0
 11
255.0381267266
 21
155.3997017784
 31
0.0
  0
ARC
  5
389
330
1F
100
AcDbEntity
  8
0
  6
Continuous
 62
     7
370
     0
100
AcDbCircle
 10
256.1178688575
 20
162.3399997281
 30
0.0
 40
0.5299196448104155
100
AcDbArc
 50
26.375707339
 51
127.3359074684
  0
LINE
  5
38A
330
1F
100
AcDbEntity
  8
0
  6
Continuous
 62
     7
370
     0
100
AcDbLine
 10
256.5240611946
 20
161.9363354194
 30
0.0
 11
256.5926239729
 21
162.0133086005
 31
0.0
  0
ARC
  5
38B
330
1F
100
AcDbEntity
  8
0
  6
Continuous
 62
     7
370
     0
100
AcDbCircle
 10
256.1522380265
 20
162.285080516
 30
0.0
 40
0.5225113352558963
100
AcDbArc
 50
349.6878252382
 51
10.3121747618
  0
LWPOLYLINE
  5
38C
330
1F
100
AcDbEntity
  8
0
  6
Continuous
 62
     7
370
     0
100
AcDbPolyline
 90
       24
 70
   128
 43
0.0
 10
262.7402162675
 20
153.1100976483
 10
262.7249643124
 20
152.9775487054
 10
262.74475717
 20
152.8411869827
 10
262.7982464094
 20
152.7103024153
 10
262.8817879614
 20
152.5938117948
 10
262.9896903787
 20
152.4996512948
 10
263.1146025776
 20
152.4342358012
 10
263.2480146466
 20
152.4020218847
 10
263.3808376026
 20
152.4052041877
 10
263.5040225966
 20
152.4435659088
 10
263.6091773867
 20
152.5144935735
 10
263.6891380775
 20
152.6131550825
 10
263.7384571752
 20
152.732828909
 10
263.7537747107
 20
152.8653620168
 10
263.7340471439
 20
153.0017253037
 10
263.6806184576
 20
153.1326287284
 10
263.5971285958
 20
153.2491542142
 10
263.4892654842
 20
153.3433632126
 10
263.3643775287
 20
153.4088375334
 10
263.2309729892
 20
153.4411165981
 10
263.0981403359
 20
153.4380013263
 10
262.9749290784
 20
153.3997039524
 10
262.8697332477
 20
153.3288335673
 10
262.7897195355
 20
153.2302183679
  0
LWPOLYLINE
  5
38D
330
1F
100
AcDbEntity
  8
0
  6
Continuous
 62
     7
370
     0
100
AcDbPolyline
 90
       15
 70
   128
 43
0.0
 10
263.6332102297
 20
152.535586466
 10
263.642218681
 20
152.5437617939
 10
263.7198872679
 20
152.6408400616
 10
263.768157821
 20
152.7579695723
 10
263.78388015
 20
152.8875063236
 10
263.7660281984
 20
153.0209966025
 10
263.7157670044
 20
153.1497286846
 10
263.6363766694
 20
153.2653013706
 10
263.5330382955
 20
153.3601722581
 10
263.41249586
 20
153.4281499673
 10
263.2826160967
 20
153.4647981971
 10
263.1518751039
 20
153.4677252429
 10
263.0288051846
 20
153.4367400827
 10
262.9214380188
 20
153.3738648425
 10
262.9056286191
 20
153.360586466
  0
LINE
  5
38E
330
1F
100
AcDbEntity
  8
0
  6
Continuous
 62
     7
370
     0
100
AcDbLine
 10
255.0381267266
 20
158.2290717123
 30
0.0
 11
255.0381267266
 21
155.4006445875
 31
0.0
  0
LINE
  5
38F
330
1F
100
AcDbEntity
  8
0
  6
Continuous
 62
     7
370
     0
100
AcDbLine
 10
255.0381267266
 20
155.4006445875
 30
0.0
 11
255.3032816288
 21
155.3672382099
 31
0.0
  0
LINE
  5
390
330
1F
100
AcDbEntity
  8
0
  6
Continuous
 62
     7
370
     0
100
AcDbLine
 10
256.1300228117
 20
155.2630786114
 30
0.0
 11
259.4047964241
 21
154.8504959174
 31
0.0
  0
LWPOLYLINE
  5
391
330
1F
100
AcDbEntity
  8
0
  6
Continuous
 62
     7
370
     0
100
AcDbPolyline
 90
       22
 70
   128
 43
0.0
 10
255.4812315795
 20
80.1999817985
 10
255.4273934357
 20
80.2349724043
 10
255.3434304659
 20
80.2712520091
 10
255.2368031485
 20
80.3055970108
 10
255.1169857886
 20
80.3349557052
 10
254.9946246845
 20
80.3567194435
 10
254.8805921571
 20
80.3689544221
 10
254.7850204969
 20
80.3705735094
 10
254.7164016655
 20
80.3614328423
 10
254.680832747
 20
80.3423446094
 10
254.681474196
 20
80.3150048837
 10
254.718269017
 20
80.2818429201
 10
254.7879478285
 20
80.2458053044
 10
254.8843193625
 20
80.2100941369
 10
254.9988205852
 20
80.1778825116
 10
255.1212775605
 20
80.1520325728
 10
255.2408094487
 20
80.1348412009
 10
255.346795317
 20
80.1278359249
 10
255.429817856
 20
80.1316391941
 10
255.4825001486
 20
80.1459130716
 10
255.500161142
 20
80.1693892605
 10
255.4812315795
 20
80.1999817985
  0
ARC
  5
392
330
1F
100
AcDbEntity
  8
0
  6
Continuous
 62
     7
370
     0
100
AcDbCircle
 10
256.1221973104
 20
156.5837424759
 30
0.0
 40
0.5225015538199623
100
AcDbArc
 50
346.0869006036
 51
13.971309726
  0
LWPOLYLINE
  5
393
330
1F
100
AcDbEntity
  8
0
  6
Continuous
 62
     7
370
     0
100
AcDbPolyline
 90
       13
 70
   128
 43
0.0
 10
256.5796099425
 20
156.8424525417
 10
256.4989103697
 20
156.9618299929
 10
256.3927856636
 20
157.0594705595
 10
256.2685542217
 20
157.1286409132
 10
256.1347830888
 20
157.1645710415
 10
256.0006971699
 20
157.1647831901
 10
255.875543078
 20
157.129262729
 10
255.7679514839
 20
157.060459162
 10
255.6853419424
 20
156.9631172076
 10
255.6334112371
 20
156.8439496018
 10
255.6157405278
 20
156.7111741853
 10
255.6335483932
 20
156.5739471982
 10
255.6563056912
 20
156.5045104624
  0
LWPOLYLINE
  5
394
330
1F
100
AcDbEntity
  8
0
  6
Continuous
 62
     7
370
     0
100
AcDbPolyline
 90
        3
 70
   128
 43
0.0
 10
256.4208992197
 20
156.1821530887
 10
256.4992776319
 20
156.2388459817
 10
256.5798662018
 20
156.3379862741
  0
ARC
  5
395
330
1F
100
AcDbEntity
  8
0
  6
Continuous
 62
     7
370
     0
100
AcDbCircle
 10
256.1178717052
 20
156.664301492
 30
0.0
 40
0.5299116762144007
100
AcDbArc
 50
26.3746628738
 51
127.3369519336
  0
LINE
  5
396
330
1F
100
AcDbEntity
  8
0
  6
Continuous
 62
     7
370
     0
100
AcDbLine
 10
256.5240611946
 20
156.260624989
 30
0.0
 11
256.592909306
 21
156.3380086244
 31
0.0
  0
ARC
  5
397
330
1F
100
AcDbEntity
  8
0
  6
Continuous
 62
     7
370
     0
100
AcDbCircle
 10
256.1521376445
 20
156.6093640817
 30
0.0
 40
0.5226111706538461
100
AcDbArc
 50
349.7473580456
 51
10.3108522843
  0
LINE
  5
398
330
1F
100
AcDbEntity
  8
0
  6
Continuous
 62
     7
370
     0
100
AcDbLine
 10
267.9268686846
 20
154.509986216
 30
0.0
 11
267.927804099
 21
154.5098683648
 31
0.0
  0
LINE
  5
399
330
1F
100
AcDbEntity
  8
0
  6
Continuous
 62
     7
370
     0
100
AcDbLine
 10
267.927804099
 20
154.5098683648
 30
0.0
 11
264.3922701939
 21
151.3918205432
 31
0.0
  0
LINE
  5
39A
330
1F
100
AcDbEntity
  8
0
  6
Continuous
 62
     7
370
     0
100
AcDbLine
 10
264.3922701939
 20
151.3918205432
 30
0.0
 11
255.5959311388
 21
152.5000550944
 31
0.0
  0
LINE
  5
39B
330
1F
100
AcDbEntity
  8
0
  6
Continuous
 62
     7
370
     0
100
AcDbLine
 10
267.927804099
 20
154.038463844
 30
0.0
 11
267.927804099
 21
154.5098683648
 31
0.0
  0
LINE
  5
39C
330
1F
100
AcDbEntity
  8
0
  6
Continuous
 62
     7
370
     0
100
AcDbLine
 10
267.927804099
 20
154.038463844
 30
0.0
 11
264.3922701939
 21
150.9204160223
 31
0.0
  0
LINE
  5
39D
330
1F
100
AcDbEntity
  8
0
  6
Continuous
 62
     7
370
     0
100
AcDbLine
 10
264.3922701939
 20
150.9204160223
 30
0.0
 11
264.3922701939
 21
151.3918205432
 31
0.0
  0
LINE
  5
39E
330
1F
100
AcDbEntity
  8
0
  6
Continuous
 62
     7
370
     0
100
AcDbLine
 10
264.3922701939
 20
150.9204160223
 30
0.0
 11
255.5536256856
 21
152.0339805597
 31
0.0
  0
LWPOLYLINE
  5
39F
330
1F
100
AcDbEntity
  8
0
  6
Continuous
 62
     7
370
     0
100
AcDbPolyline
 90
       39
 70
   128
 43
0.0
 10
266.4825691312
 20
169.5619298197
 10
266.4723622004
 20
169.4650054987
 10
266.4271899727
 20
169.3243471468
 10
266.3463944938
 20
169.1854724757
 10
266.2305578968
 20
169.0493820806
 10
266.0805147872
 20
168.917056496
 10
265.8973462291
 20
168.7894491307
 10
265.682371956
 20
168.6674793986
 10
265.4371408625
 20
168.5520260946
 10
265.1634198443
 20
168.4439210623
 10
264.8631810676
 20
168.343943201
 10
264.5385877596
 20
168.2528128533
 10
264.1919786226
 20
168.1711866157
 10
263.8258509833
 20
168.0996526069
 10
263.4428427999
 20
168.0387262312
 10
263.0457136549
 20
167.9888464645
 10
262.637324873
 20
167.9503726917
 10
262.2206189048
 20
167.9235821171
 10
261.7985981263
 20
167.9086677674
 10
261.3743032068
 20
167.905737101
 10
260.950791201
 20
167.9148112333
 10
260.5311135227
 20
167.935824785
 10
260.1182939589
 20
167.968626353
 10
259.7153068843
 20
168.0129796012
 10
259.3250558299
 20
168.0685649634
 10
258.9503525635
 20
168.1349819459
 10
258.5938968307
 20
168.2117520127
 10
258.2582569032
 20
168.2983220338
 10
257.9458510745
 20
168.3940682702
 10
257.6589302356
 20
168.4983008681
 10
257.3995616578
 20
168.6102688291
 10
257.1696140976
 20
168.7291654217
 10
256.9707443324
 20
168.854133993
 10
256.8043852236
 20
168.9842741417
 10
256.6717353922
 20
169.118648205
 10
256.5737505834
 20
169.2562880148
 10
256.5111367799
 20
169.396201873
 10
256.4843451156
 20
169.5373816971
 10
256.4833616944
 20
169.5619298197
  0
LINE
  5
3A0
330
1F
100
AcDbEntity
  8
0
  6
Continuous
 62
     7
370
     0
100
AcDbLine
 10
264.3922701939
 20
162.7076975033
 30
0.0
 11
259.9361040313
 21
163.2691216681
 31
0.0
  0
LINE
  5
3A1
330
1F
100
AcDbEntity
  8
0
  6
Continuous
 62
     7
370
     0
100
AcDbLine
 10
259.9285726763
 20
163.2700705296
 30
0.0
 11
255.0381267266
 21
163.8862088047
 31
0.0
  0
LINE
  5
3A2
330
1F
100
AcDbEntity
  8
0
  6
Continuous
 62
     7
370
     0
100
AcDbLine
 10
264.3922701939
 20
162.7076032224
 30
0.0
 11
259.9358678469
 21
163.2690571436
 31
0.0
  0
LINE
  5
3A3
330
1F
100
AcDbEntity
  8
0
  6
Continuous
 62
     7
370
     0
100
AcDbLine
 10
259.928336492
 20
163.2700060051
 30
0.0
 11
255.0381267266
 21
163.8861145238
 31
0.0
  0
LINE
  5
3A4
330
1F
100
AcDbEntity
  8
0
  6
Continuous
 62
     7
370
     0
100
AcDbLine
 10
264.3922701939
 20
157.0506546918
 30
0.0
 11
259.9828685546
 21
157.6061870805
 31
0.0
  0
LINE
  5
3A5
330
1F
100
AcDbEntity
  8
0
  6
Continuous
 62
     7
370
     0
100
AcDbLine
 10
259.9753371783
 20
157.6071359447
 30
0.0
 11
255.0381267266
 21
158.2291659932
 31
0.0
  0
LINE
  5
3A6
330
1F
100
AcDbEntity
  8
0
  6
Continuous
 62
     7
370
     0
100
AcDbLine
 10
264.3922701939
 20
157.0505604109
 30
0.0
 11
259.9826323702
 21
157.606122556
 31
0.0
  0
LINE
  5
3A7
330
1F
100
AcDbEntity
  8
0
  6
Continuous
 62
     7
370
     0
100
AcDbLine
 10
259.975100994
 20
157.6070714202
 30
0.0
 11
255.0381267266
 21
158.2290717123
 31
0.0
  0
LWPOLYLINE
  5
3A8
330
1F
100
AcDbEntity
  8
0
  6
Continuous
 62
     7
370
     0
100
AcDbPolyline
 90
        3
 70
   128
 43
0.0
 10
261.1612982623
 20
85.2093297562
 10
261.1802278248
 20
85.3084954469
 10
261.1802288696
 20
85.3117628688
  0
LWPOLYLINE
  5
3A9
330
1F
100
AcDbEntity
  8
0
  6
Continuous
 62
     7
370
     0
100
AcDbPolyline
 90
       11
 70
   128
 43
0.0
 10
260.3566155318
 20
85.2079559683
 10
260.3608994298
 20
85.1606866396
 10
260.3964683482
 20
85.0713526056
 10
260.4650871797
 20
84.9986765147
 10
260.5606588398
 20
84.9491159566
 10
260.6746913672
 20
84.9270746044
 10
260.7970524714
 20
84.9345109289
 10
260.9168698313
 20
84.9707641801
 10
261.0234971487
 20
85.0326130975
 10
261.1074601184
 20
85.1145621334
 10
261.1612982623
 20
85.2093297562
  0
OLE2FRAME
  5
3AA
330
1F
100
AcDbEntity
  8
0
100
AcDbOle2Frame
 70
     2
  3
Paintbrush Picture
 10
229.0524259344
 20
33.6996298005
 30
0.0
 11
265.1686468101
 21
28.5554797105
 31
0.0
 71
     2
 72
     0
 73
     1
 90
     7296
310
8055E6312779ADA16C40BC4424788DD940400000000000000000235EFFC6B292
310
7040BC4424788DD940400000000000000000235EFFC6B29270406E0516EB338E
310
3C400000000000000000E6312779ADA16C406E0516EB338E3C40000000000000
310
00000000000001000000000100000100000001000000000001000000001C0000
310
D0CF11E0A1B11AE1000000000000000000000000000000003E000300FEFF0900
310
0600000000000000000000000100000001000000000000000010000002000000
310
01000000FEFFFFFF0000000000000000FFFFFFFFFFFFFFFFFFFFFFFFFFFFFFFF
310
FFFFFFFFFFFFFFFFFFFFFFFFFFFFFFFFFFFFFFFFFFFFFFFFFFFFFFFFFFFFFFFF
310
FFFFFFFFFFFFFFFFFFFFFFFFFFFFFFFFFFFFFFFFFFFFFFFFFFFFFFFFFFFFFFFF
310
FFFFFFFFFFFFFFFFFFFFFFFFFFFFFFFFFFFFFFFFFFFFFFFFFFFFFFFFFFFFFFFF
310
FFFFFFFFFFFFFFFFFFFFFFFFFFFFFFFFFFFFFFFFFFFFFFFFFFFFFFFFFFFFFFFF
310
FFFFFFFFFFFFFFFFFFFFFFFFFFFFFFFFFFFFFFFFFFFFFFFFFFFFFFFFFFFFFFFF
310
FFFFFFFFFFFFFFFFFFFFFFFFFFFFFFFFFFFFFFFFFFFFFFFFFFFFFFFFFFFFFFFF
310
FFFFFFFFFFFFFFFFFFFFFFFFFFFFFFFFFFFFFFFFFFFFFFFFFFFFFFFFFFFFFFFF
310
FFFFFFFFFFFFFFFFFFFFFFFFFFFFFFFFFFFFFFFFFFFFFFFFFFFFFFFFFFFFFFFF
310
FFFFFFFFFFFFFFFFFFFFFFFFFFFFFFFFFFFFFFFFFFFFFFFFFFFFFFFFFFFFFFFF
310
FFFFFFFFFFFFFFFFFFFFFFFFFFFFFFFFFFFFFFFFFFFFFFFFFFFFFFFFFFFFFFFF
310
FFFFFFFFFFFFFFFFFFFFFFFFFFFFFFFFFFFFFFFFFFFFFFFFFFFFFFFFFFFFFFFF
310
FFFFFFFFFFFFFFFFFFFFFFFFFFFFFFFFFFFFFFFFFFFFFFFFFFFFFFFFFFFFFFFF
310
FFFFFFFFFFFFFFFFFFFFFFFFFFFFFFFFFFFFFFFFFFFFFFFFFFFFFFFFFFFFFFFF
310
FDFFFFFFFEFFFFFFFEFFFFFFFEFFFFFF05000000060000000700000008000000
310
090000000A0000000B0000000C000000FEFFFFFFFFFFFFFFFFFFFFFFFFFFFFFF
310
FFFFFFFFFFFFFFFFFFFFFFFFFFFFFFFFFFFFFFFFFFFFFFFFFFFFFFFFFFFFFFFF
310
FFFFFFFFFFFFFFFFFFFFFFFFFFFFFFFFFFFFFFFFFFFFFFFFFFFFFFFFFFFFFFFF
310
FFFFFFFFFFFFFFFFFFFFFFFFFFFFFFFFFFFFFFFFFFFFFFFFFFFFFFFFFFFFFFFF
310
FFFFFFFFFFFFFFFFFFFFFFFFFFFFFFFFFFFFFFFFFFFFFFFFFFFFFFFFFFFFFFFF
310
FFFFFFFFFFFFFFFFFFFFFFFFFFFFFFFFFFFFFFFFFFFFFFFFFFFFFFFFFFFFFFFF
310
FFFFFFFFFFFFFFFFFFFFFFFFFFFFFFFFFFFFFFFFFFFFFFFFFFFFFFFFFFFFFFFF
310
FFFFFFFFFFFFFFFFFFFFFFFFFFFFFFFFFFFFFFFFFFFFFFFFFFFFFFFFFFFFFFFF
310
FFFFFFFFFFFFFFFFFFFFFFFFFFFFFFFFFFFFFFFFFFFFFFFFFFFFFFFFFFFFFFFF
310
FFFFFFFFFFFFFFFFFFFFFFFFFFFFFFFFFFFFFFFFFFFFFFFFFFFFFFFFFFFFFFFF
310
FFFFFFFFFFFFFFFFFFFFFFFFFFFFFFFFFFFFFFFFFFFFFFFFFFFFFFFFFFFFFFFF
310
FFFFFFFFFFFFFFFFFFFFFFFFFFFFFFFFFFFFFFFFFFFFFFFFFFFFFFFFFFFFFFFF
310
FFFFFFFFFFFFFFFFFFFFFFFFFFFFFFFFFFFFFFFFFFFFFFFFFFFFFFFFFFFFFFFF
310
FFFFFFFFFFFFFFFFFFFFFFFFFFFFFFFFFFFFFFFFFFFFFFFFFFFFFFFFFFFFFFFF
310
FFFFFFFFFFFFFFFFFFFFFFFFFFFFFFFFFFFFFFFFFFFFFFFFFFFFFFFFFFFFFFFF
310
52006F006F007400200045006E00740072007900000000000000000000000000
310
0000000000000000000000000000000000000000000000000000000000000000
310
16000500FFFFFFFFFFFFFFFF020000000A00030000000000C000000000000046
310
000000000000000000000000F058CABA1E08D20103000000C000000000000000
310
01004F006C006500000000000000000000000000000000000000000000000000
310
0000000000000000000000000000000000000000000000000000000000000000
310
0A000200FFFFFFFFFFFFFFFFFFFFFFFF00000000000000000000000000000000
310
0000000000000000000000000000000000000000000000001400000000000000
310
010043006F006D0070004F0062006A0000000000000000000000000000000000
310
0000000000000000000000000000000000000000000000000000000000000000
310
120002010100000003000000FFFFFFFF00000000000000000000000000000000
310
0000000000000000000000000000000000000000010000004D00000000000000
310
01004F006C006500310030004E00610074006900760065000000000000000000
310
0000000000000000000000000000000000000000000000000000000000000000
310
1A000200FFFFFFFFFFFFFFFFFFFFFFFF00000000000000000000000000000000
310
000000000000000000000000000000000000000004000000E411000000000000
310
FEFFFFFF02000000FEFFFFFFFFFFFFFFFFFFFFFFFFFFFFFFFFFFFFFFFFFFFFFF
310
FFFFFFFFFFFFFFFFFFFFFFFFFFFFFFFFFFFFFFFFFFFFFFFFFFFFFFFFFFFFFFFF
310
FFFFFFFFFFFFFFFFFFFFFFFFFFFFFFFFFFFFFFFFFFFFFFFFFFFFFFFFFFFFFFFF
310
FFFFFFFFFFFFFFFFFFFFFFFFFFFFFFFFFFFFFFFFFFFFFFFFFFFFFFFFFFFFFFFF
310
FFFFFFFFFFFFFFFFFFFFFFFFFFFFFFFFFFFFFFFFFFFFFFFFFFFFFFFFFFFFFFFF
310
FFFFFFFFFFFFFFFFFFFFFFFFFFFFFFFFFFFFFFFFFFFFFFFFFFFFFFFFFFFFFFFF
310
FFFFFFFFFFFFFFFFFFFFFFFFFFFFFFFFFFFFFFFFFFFFFFFFFFFFFFFFFFFFFFFF
310
FFFFFFFFFFFFFFFFFFFFFFFFFFFFFFFFFFFFFFFFFFFFFFFFFFFFFFFFFFFFFFFF
310
FFFFFFFFFFFFFFFFFFFFFFFFFFFFFFFFFFFFFFFFFFFFFFFFFFFFFFFFFFFFFFFF
310
FFFFFFFFFFFFFFFFFFFFFFFFFFFFFFFFFFFFFFFFFFFFFFFFFFFFFFFFFFFFFFFF
310
FFFFFFFFFFFFFFFFFFFFFFFFFFFFFFFFFFFFFFFFFFFFFFFFFFFFFFFFFFFFFFFF
310
FFFFFFFFFFFFFFFFFFFFFFFFFFFFFFFFFFFFFFFFFFFFFFFFFFFFFFFFFFFFFFFF
310
FFFFFFFFFFFFFFFFFFFFFFFFFFFFFFFFFFFFFFFFFFFFFFFFFFFFFFFFFFFFFFFF
310
FFFFFFFFFFFFFFFFFFFFFFFFFFFFFFFFFFFFFFFFFFFFFFFFFFFFFFFFFFFFFFFF
310
FFFFFFFFFFFFFFFFFFFFFFFFFFFFFFFFFFFFFFFFFFFFFFFFFFFFFFFFFFFFFFFF
310
FFFFFFFFFFFFFFFFFFFFFFFFFFFFFFFFFFFFFFFFFFFFFFFFFFFFFFFFFFFFFFFF
310
0100000200000000000000000000000000000000000000000000000000000000
310
0000000000000000000000000000000000000000000000000000000000000000
310
0100FEFF030A0000FFFFFFFF0A00030000000000C00000000000004607000000
310
5042727573680007000000504272757368000700000050427275736800F439B2
310
7100000000000000000000000000000000000000000000000000000000000000
310
0000000000000000000000000000000000000000000000000000000000000000
310
0000000000000000000000000000000000000000000000000000000000000000
310
0000000000000000000000000000000000000000000000000000000000000000
310
0000000000000000000000000000000000000000000000000000000000000000
310
0000000000000000000000000000000000000000000000000000000000000000
310
0000000000000000000000000000000000000000000000000000000000000000
310
0000000000000000000000000000000000000000000000000000000000000000
310
0000000000000000000000000000000000000000000000000000000000000000
310
0000000000000000000000000000000000000000000000000000000000000000
310
0000000000000000000000000000000000000000000000000000000000000000
310
0000000000000000000000000000000000000000000000000000000000000000
310
E0110000424DDE11000000000000360400002800000096000000170000000100
310
08000000000000000000E7240000E72400000001000000010000000000FF0101
310
01FF020202FF030303FF040404FF050505FF060606FF070707FF080808FF0909
310
09FF0A0A0AFF0B0B0BFF0C0C0CFF0D0D0DFF0E0E0EFF0F0F0FFF101010FF1111
310
11FF121212FF131313FF141414FF151515FF161616FF171717FF181818FF1919
310
19FF1A1A1AFF1B1B1BFF1C1C1CFF1D1D1DFF1E1E1EFF1F1F1FFF202020FF2121
310
21FF222222FF232323FF242424FF252525FF262626FF272727FF282828FF2929
310
29FF2A2A2AFF2B2B2BFF2C2C2CFF2D2D2DFF2E2E2EFF2F2F2FFF303030FF3131
310
31FF323232FF333333FF343434FF353535FF363636FF373737FF383838FF3939
310
39FF3A3A3AFF3B3B3BFF3C3C3CFF3D3D3DFF3E3E3EFF3F3F3FFF404040FF4141
310
41FF424242FF434343FF444444FF454545FF464646FF474747FF484848FF4949
310
49FF4A4A4AFF4B4B4BFF4C4C4CFF4D4D4DFF4E4E4EFF4F4F4FFF505050FF5151
310
51FF525252FF535353FF545454FF555555FF565656FF575757FF585858FF5959
310
59FF5A5A5AFF5B5B5BFF5C5C5CFF5D5D5DFF5E5E5EFF5F5F5FFF606060FF6161
310
61FF626262FF636363FF646464FF656565FF666666FF676767FF686868FF6969
310
69FF6A6A6AFF6B6B6BFF6C6C6CFF6D6D6DFF6E6E6EFF6F6F6FFF707070FF7171
310
71FF727272FF737373FF747474FF757575FF767676FF777777FF787878FF7979
310
79FF7A7A7AFF7B7B7BFF7C7C7CFF7D7D7DFF7E7E7EFF7F7F7FFF808080FF8181
310
81FF828282FF838383FF848484FF858585FF868686FF878787FF888888FF8989
310
89FF8A8A8AFF8B8B8BFF8C8C8CFF8D8D8DFF8E8E8EFF8F8F8FFF909090FF9191
310
91FF929292FF939393FF949494FF959595FF969696FF979797FF989898FF9999
310
99FF9A9A9AFF9B9B9BFF9C9C9CFF9D9D9DFF9E9E9EFF9F9F9FFFA0A0A0FFA1A1
310
A1FFA2A2A2FFA3A3A3FFA4A4A4FFA5A5A5FFA6A6A6FFA7A7A7FFA8A8A8FFA9A9
310
A9FFAAAAAAFFABABABFFACACACFFADADADFFAEAEAEFFAFAFAFFFB0B0B0FFB1B1
310
B1FFB2B2B2FFB3B3B3FFB4B4B4FFB5B5B5FFB6B6B6FFB7B7B7FFB8B8B8FFB9B9
310
B9FFBABABAFFBBBBBBFFBCBCBCFFBDBDBDFFBEBEBEFFBFBFBFFFC0C0C0FFC1C1
310
C1FFC2C2C2FFC3C3C3FFC4C4C4FFC5C5C5FFC6C6C6FFC7C7C7FFC8C8C8FFC9C9
310
C9FFCACACAFFCBCBCBFFCCCCCCFFCDCDCDFFCECECEFFCFCFCFFFD0D0D0FFD1D1
310
D1FFD2D2D2FFD3D3D3FFD4D4D4FFD5D5D5FFD6D6D6FFD7D7D7FFD8D8D8FFD9D9
310
D9FFDADADAFFDBDBDBFFDCDCDCFFDDDDDDFFDEDEDEFFDFDFDFFFE0E0E0FFE1E1
310
E1FFE2E2E2FFE3E3E3FFE4E4E4FFE5E5E5FFE6E6E6FFE7E7E7FFE8E8E8FFE9E9
310
E9FFEAEAEAFFEBEBEBFFECECECFFEDEDEDFFEEEEEEFFEFEFEFFFF0F0F0FFF1F1
310
F1FFF2F2F2FFF3F3F3FFF4F4F4FFF5F5F5FFF6F6F6FFF7F7F7FFF8F8F8FFF9F9
310
F9FFFAFAFAFFFBFBFBFFFCFCFCFFFDFDFDFFFEFEFEFFFFFFFFFFFFFFFFFFFFFF
310
C94E4E4E4F4E4EFFFFFFFFFFC94E4E4E4E4E72FFFFFFFFFFFFFF734E4D4E4E4E
310
C9FFFFFFFFFFAA683516171616265B9BE9FFFFFFFFFF4E4E4E4D4E4EFFFFFFFF
310
FFFFFFFF4E4E4F4E4D4E4E4E4F4E4E4F4D4E4E4E4E4E4D4E4F4E4D4E4E4EAAFF
310
FFFFFFFFFFEA4E4F4F4E4E4E4E4E4D4D4F4F4E4E4E4E4E5B7FAAFFFFFFFFFFFF
310
C9744E1716171616164D8DEAFFFFFFFF0000FFFFFFFFFFFFBA161617161716FF
310
FFFFFFFFB917171616174FFFFFFFFFFFFFFF4E1716161616B9FFFFFFB9341717
310
1716171617171616268CFFFFFFFF161617161617FFFFFFFFFFFFFFB917161717
310
1617167F807F7F7F7F7F7F807F7F807F7F807F7F7F414EFFFFFFFFFFFF8C167F
310
7F807F7F7F7E7F7F807F807F7F807F4E3417258EFFFFEA4E162674AABAEAEBBA
310
AA74341680FFFFFF0000FFFFFFFFFFFFB9171717171617FFFFFFFFFFBB161616
310
16164EFFFFFFFFFFFFFF4E1717171717B9FFFF9C171617171716161616171616
310
171766FFFFFF161717161617FFFFFFFFFFFFFF8E16171717161616FFFFFFFFFF
310
FFFFFFFFFFFFFFFFFFFFFFFFFFAA16D9FFFFFFFFFF3467FFFFFFFFEAFFFFFFFF
310
FFFFFFFFFFFFFFFFFFCA671667EB26278DFFFFFFFFFFFFFFFFFFFF8C2541EAFF
310
0000FFFFFFFFFFFFB9171717171716FFFFFFFFFFBA16171617174EFFFFFFFFFF
310
FFFF4E1717161616BAFF9B1617161616171716171617161616161667FFFF1616
310
16161716FFFFFFFFFFFFFF7F16161617174017FFFFFFFFFFFFFFFFFFFFFFFFFF
310
FFFFFFFFFFFF344E7F7F7F7E7417DAFFFFFFFF80FFFFFFFFFFFFFFFFFFFFFFFF
310
FFFFFF9B163425CAFFFFFFFFFFFFFFFFFFFFFFFFCA2667FF0000FFFFFFFFFFFF
310
BA171717171617FFFFFFFFFFB916171716164EFFFFFFFFFFFFFF4F1716161717
310
B9C91716171616161716161617171616161617168DFF161716161717FFFFFFFF
310
FFFFFF7F17171716164F16FFFFFFFFFFFFFFFFFFFFFFFFFFFFFFFFFFFFFF9B16
310
17161617174EFFFFFFFFFF34FFFFFFFFD9BABABABABADAFFFFFFFFFF7F16AAFF
310
FFFFFFFFFFFFFFFFFFFFFFFFFF9C16BA0000FFFFFFFFFFFFB9161717161717FF
310
FFFFFFFFB917161716174DFFFFFFFFFFFFFF4E1616161616BA4E161617171716
310
419BEAEAAA4E16161617161726E9171717161616FFFFFFFFFFFFFF4F16161717
310
164E16FFFFFFFFFFBAB9B9B9B9B9BABABACAFFFFFFFFFFFFFFFFFFFFFFFFFFFF
310
FFFFBA16FFFFFFFF7F1617161617174DEAFFFFFFEA41FFFFFFFFFFAA4D16174E
310
9BFFFFFFFFFF34730000FFFFFFFFFFFFB9161617171617FFFFFFFFFFBA161616
310
16164EFFFFFFFFFFFFFF4F16161717169B1617161716175BFFFFFFFFFFFF7417
310
16171616168D171717161617FFFFFFFFFFFFEA2616171717167416FFFFFFFFFF
310
16171616171717171717EAFFFFFFFFFFFFFFFFFFFFFFFFFFFFFF6716FFFFFFFF
310
7F4EFFFFFFFFBA2573FFFFFFFFBAFFFFFFFFAA167FB9BB9B269BFFFFFFFF664F
310
0000FFFFFFFFFFFFB9171616161616FFFFFFFFFFBA16161717164EFFFFFFFFFF
310
FFFF4E16161616174E161617171626EAFFFFFFFFFFFFFF4E16161616164E1716
310
16161617FFFFFFFFFFFF671616161716347F16FFFFFFFFFF16B9FFFFFFFFFFFF
310
D9168DFFFFFFFFFFFFFFFFFFFFFFFFFFFFEA1716FFFFFFFF7F4EFFFFFFFFFF7F
310
4EFFFFFFFFFFFFFFFFFF5B66FFFFFFEA347FFFFFFFFF7F4D0000FFFFFFFFFFFF
310
B9171616171617FFFFFFFFFFBA17161716174EFFFFFFFFFFFFFF4D1716161617
310
17161716161673FFFFFFFFFFFFFFFF9B1617161717161616171616174F4E4E4E
310
4E341616171616167E7F16FFFFFFFFFF16BAFFFFFFFFFFFFFF5B41FFFFFFFF34
310
1616171616BAFFFFFF9B1716FFFFFFFF7F4EFFFFFFFFFF4E4EFFFFFFFF734E4E
310
4E4E267EDA9B67164EEAFFFFFFFF744D0000FFFFFFFFFFFFBA171717161617FF
310
FFFFFFFFBA1616171616347F7F7F7F80807F331616161717161717161716B9FF
310
FFFFFFFFFFFFFFE9161616161616171716161716171616161616171616171734
310
EA7F16FFFFFFFFFF16BAFFFFFFFFFFFFFFAA17C9FFFFFF7326BABA5B25FFFFFF
310
FF401716FFFFFFFF7F264F4E4E4E4217AAFFFFFFEA16677F73261616164173CA
310
FFFFFFFFFFFF417F0000FFFFFFFFFFFFBA171616171617FFFFFFFFFFBA161616
310
17171616161616161616161717161616161616161617EAFFFFFFFFFFFFFFFFFF
310
261717161716161617161616161617161617161616174EEAFF8016FFFFFFFFFF
310
17BAFFFFFFFFFFFFFFFF3467FFFFFFC916C9FF3467FFFFFFDA166716FFFFFFFF
310
9C4D4E4E4E4E67AAFFFFFFFF6834FF7F262567AAEAFFFFFFFFFFFFFFFF9B17D9
310
0000FFFFFFFFFFFFB9161616161616FFFFFFFFFFBA1617161717171616161616
310
1716171716161716161617171716FFFFFFFFFFFFFFFFFFFF4E17161716171616
310
1617171616161716171717161616169BFF7F17FFFFFFFFFF17B9FFFFFFFFFFFF
310
FFFF7326FFFFFFFF3473DA16AAFFFFFF7317AA16FFFFFFFFFFFFFFFFFFFFFFFF
310
FFFFEA6725BA4E167FEAFFFFFFFFFFFFFFFFFFFF9C167FFF0000FFFFFFFFFFFF
310
B9161717171716FFFFFFFFFFBA16161716171616171717161617161716161616
310
171617171617EAFFFFFFFFFFFFFFFFFF26161717161616161616161617171616
310
1616161616171616AA8016FFFFFFFFFF16BAFFFFFFFFFFFFFFFFDA179BFFFFFF
310
74348D26FFFFFFFF2566B917FFFFFFFFD8BAB9BAB9BADAFFFFEA41169B7425C9
310
FFFFFFFFFFFFFFFFFFFFAB4F1680FFFF0000FFFFFFFFFFFFBA161717171617FF
310
FFFFFFFFBA17161717161617171617161616161617171616171716171617BBFF
310
FFFFFFFFFFFFFFE9171616161617161617161716FFFFFFFFFFD9671616161617
310
348017FFFFFFFFFF16BAFFFFFFFFFFFFFFFFFF4E5AFFFFFFC916265AFFFFFFAA
310
16AABA16FFFFFFFF7F1617161616179BFFFFEB4127168DFFFFFFFFFFFFFFD99B
310
6734175AC9FFFFFF0000FFFFFFFFFFFFB9161617171617FFFFFFFFFFBB161616
310
1616347F807F7F7F7F8033171716171617171616161672FFFFFFFFFFFFFFFF9C
310
171617171617161716161617FFFFFFFFFFFFFF4117161616174E17FFFFFFFFFF
310
16BAFFFFFFFFFFFFFFFFFF9B16DAFFFFFF34169BFFFFFF5A26FFB917FFFFFFFF
310
7F4EFFFFFFEA5B26FFFFFFEA2616EAFFFFFFFFDA743416331617414E4E4E4ECA
310
0000FFFFFFFFFFFFBA161716161616FFFFFFFFFFBA17171616164EFFFFFFFFFF
310
FFFF4E16161717174E161717171626EBFFFFFFFFFFFFFF4E16161617165B1616
310
16171617FFFFFFFFFFFFFF6716161616161617FFFFFFFFFF16BAFFFFFFFFFFFF
310
FFFFFFEA268CFFFFFF7316EAFFFFEB1774FFB916FFFFFFFF7F4EFFFFFFFF7316
310
FFFFFFFF6826FFFFFFFFEB264D9CEABA257F807F7F6616BA0000FFFFFFFFFFFF
310
BA161716161616FFFFFFFFFFBA16171616164DFFFFFFFFFFFFFF4E1617161617
310
9B1617171717165BEBFFFFFFFFFF671616161617179B171616161616FFFFFFFF
310
FFFFFF3417161617171617FFFFFFFFFF17BAFFFFFFFFFFFFFFFFFFFF6734FFFF
310
FFEBCAFFFFFF8D17C9FFBA17FFFFFFFF7F357F808066174FFFFFFFFF7F16FFFF
310
FFFFD91673B99B415BFFFFFFFFBA16DA00009B7F7F7F807F671617161616167F
310
80807F7E6617161616164EFFFFFFFFFFFFFF4E1616161617B94E171716161616
310
349BC9D9AA4E16171616161634FF161617161717B9B9BAB9BA9B411716171716
310
163416FFFFFFFFFF16B9FFFFFFFFFFFFFFFFFFFFC917CAFFFFFFFFFFFFFF3342
310
FFFFBA17FFFFFFFF9B4E4E4F4E4E66EAFFFFFFFF5B16C9FFFFFFFFAA4E164E73
310
EAFFFFFFFF8D26FF00004E161716161616171617171616171717171617161616
310
17174EFFFFFFFFFFFFFF4E1717171616B9D92616171716171716171717171716
310
16171716AAFF161717171617161617171616161617161716166717FFFFFFFFFF
310
17B9FFFFFFFFFFFFFFFFFFFFFF3467FFFFFFFFFFFFCA168CFFFFBB17FFFFFFFF
310
FFFFFFFFFFFFFFFFFFFFFFEA26265BFFFFFFFFFFFFFFFFFFFFFFFFFFEA3467FF
310
00004D16161616161617161717161617161616171617171616164EFFFFFFFFFF
310
FFFF4D1617161616BAFF9B1616161616161716161616171717161766FFFF1616
310
16171617161617161716171616171717667F16FFFFFFFFFF17BAFFFFFFFFFFFF
310
FFFFFFFFFF8C26EAFFFFFFFFFF6617EAFFFFBA17FFFFFFFFFFFFFFFFFFFFFFFF
310
FFFFEA5A25BA269BFFFFFFFFFFFFFFFFFFFFFFFF6616DAFF00004E1616171616
310
1616161616161716161617171616171616174EFFFFFFFFFFFFFF4D1717171716
310
B9FFFF9C161616161616161716161717171667FFFFFF17161717171716161617
310
1716161616161641E97E16FFFFFFFFFF16B9FFFFFFFFFFFFFFFFFFFFFFEA169B
310
FFFFFFFFEA265BFFFFFFB916FFFFFFFFFFFFFFFFFFFFFFFFFF9B3416AAFF9B17
310
67EAFFFFFFFFFFFFFFFFEA5B169BFFFF00004D17161716161616161717171616
310
161717161716171716174EFFFFFFFFFFFFFF4D1616161616BAFFFFFFBB411616
310
161716161616171634ABFFFFFFFF161716161617171716171617171617267FFF
310
FF7F164E4E4E4E4F17BAFFFFFFFFFFFFFFFFFFFFFFFF66344D4E4E4F4117AAFF
310
FFFFBA174E4E4E4D4E4D4D4E4E4E4E4116174EBBFFFFFFCA342666ABEAFFFFEA
310
AA6725269CFFFFFF0000724F4E4D4D4D4E4D4D4E4E4E4D4E4E4E4E4E4E4E4E4D
310
4E4E74FFFFFFFFFFFFFF734E4E4E4D4ECAFFFFFFFFFFAA663416171717265B9B
310
FFFFFFFFFFFF7F8080807F80807F7F7F7F7F807FBAFFFFFFFF9B4E4E4F4D4D4E
310
4DC9FFFFFFFFFFFFFFFFFFFFFFFFBA4E4E4E4E4D4E4EFFFFFFFFC94E4E4E4F4E
310
4E4E4D4E4E5A807F9CD9FFFFFFFFFFFFFF9B5B2617171716174E8DEAFFFFFFFF
310
0000000000000000000000000000000000000000000000000000000000000000
  1
OLE
  0
ENDSEC
  0
SECTION
  2
OBJECTS
  0
DICTIONARY
  5
C
330
0
100
AcDbDictionary
281
     1
  3
ACAD_GROUP
350
D
  3
ACAD_LAYOUT
350
1A
  3
ACAD_MLINESTYLE
350
17
  3
ACAD_PLOTSETTINGS
350
19
  3
ACAD_PLOTSTYLENAME
350
E
  3
ACAD_SCALELIST
350
47
  0
DICTIONARY
  5
D
102
{ACAD_REACTORS
330
C
102
}
330
C
100
AcDbDictionary
281
     1
  0
DICTIONARY
  5
1A
102
{ACAD_REACTORS
330
C
102
}
330
C
100
AcDbDictionary
281
     1
  3
Layout1
350
1E
  3
Layout2
350
26
  3
Model
350
22
  0
DICTIONARY
  5
17
102
{ACAD_REACTORS
330
C
102
}
330
C
100
AcDbDictionary
281
     1
  3
Standard
350
18
  0
DICTIONARY
  5
19
102
{ACAD_REACTORS
330
C
102
}
330
C
100
AcDbDictionary
281
     1
  0
ACDBDICTIONARYWDFLT
  5
E
102
{ACAD_REACTORS
330
C
102
}
330
C
100
AcDbDictionary
281
     1
  3
Normal
350
F
100
AcDbDictionaryWithDefault
340
F
  0
DICTIONARY
  5
47
102
{ACAD_REACTORS
330
C
102
}
330
C
100
AcDbDictionary
281
     1
  3
A0
350
48
  3
A1
350
49
  3
A2
350
4A
  3
A3
350
4B
  3
A4
350
4C
  3
A5
350
4D
  3
A6
350
4E
  3
A7
350
4F
  3
A8
350
50
  3
A9
350
51
  3
B0
350
52
  3
B1
350
53
  3
B2
350
54
  3
B3
350
55
  3
B4
350
56
  3
B5
350
57
  3
B6
350
58
  3
B7
350
59
  3
B8
350
5A
  3
B9
350
5B
  3
C0
350
5C
  3
C1
350
5D
  3
C2
350
5E
  3
C3
350
5F
  3
C4
350
60
  3
C5
350
61
  3
C6
350
62
  3
C7
350
63
  3
C8
350
64
  3
C9
350
65
  3
D0
350
66
  3
D1
350
67
  3
D2
350
68
  0
LAYOUT
  5
1E
102
{ACAD_REACTORS
330
1A
102
}
330
1A
100
AcDbPlotSettings
  1

  2
none_device
  4

  6

 40
0.0
 41
0.0
 42
0.0
 43
0.0
 44
0.0
 45
0.0
 46
0.0
 47
0.0
 48
0.0
 49
0.0
140
0.0
141
0.0
142
1.0
143
1.0
 70
   688
 72
     1
 73
     0
 74
     5
  7

 75
    16
147
1.0
148
0.0
149
0.0
100
AcDbLayout
  1
Layout1
 70
     1
 71
     1
 10
0.0
 20
0.0
 11
420.0
 21
297.0
 12
0.0
 22
0.0
 32
0.0
 14
1.0000000000E+20
 24
1.0000000000E+20
 34
1.0000000000E+20
 15
-1.0000000000E+20
 25
-1.0000000000E+20
 35
-1.0000000000E+20
146
0.0
 13
0.0
 23
0.0
 33
0.0
 16
1.0
 26
0.0
 36
0.0
 17
0.0
 27
1.0
 37
0.0
 76
     0
330
1B
  0
LAYOUT
  5
26
102
{ACAD_REACTORS
330
1A
102
}
330
1A
100
AcDbPlotSettings
  1

  2
none_device
  4

  6

 40
0.0
 41
0.0
 42
0.0
 43
0.0
 44
0.0
 45
0.0
 46
0.0
 47
0.0
 48
0.0
 49
0.0
140
0.0
141
0.0
142
1.0
143
1.0
 70
   688
 72
     1
 73
     0
 74
     5
  7

 75
    16
147
1.0
148
0.0
149
0.0
100
AcDbLayout
  1
Layout2
 70
     1
 71
     2
 10
0.0
 20
0.0
 11
0.0
 21
0.0
 12
0.0
 22
0.0
 32
0.0
 14
0.0
 24
0.0
 34
0.0
 15
0.0
 25
0.0
 35
0.0
146
0.0
 13
0.0
 23
0.0
 33
0.0
 16
1.0
 26
0.0
 36
0.0
 17
0.0
 27
1.0
 37
0.0
 76
     0
330
23
  0
LAYOUT
  5
22
102
{ACAD_REACTORS
330
1A
102
}
330
1A
100
AcDbPlotSettings
  1

  2
none_device
  4
Letter_(8.50_x_11.00_Inches)
  6

 40
6.35
 41
6.35
 42
6.35000508
 43
6.35000508
 44
215.9
 45
279.4
 46
0.0
 47
0.0
 48
0.0
 49
0.0
140
0.0
141
0.0
142
1.0
143
1.0
 70
  1712
 72
     1
 73
     0
 74
     0
  7

 75
     0
147
1.0
148
0.0
149
0.0
100
AcDbLayout
  1
Model
 70
     1
 71
     0
 10
0.0
 20
0.0
 11
279.4
 21
215.9
 12
0.0
 22
0.0
 32
0.0
 14
0.0
 24
0.0
 34
0.0
 15
279.4
 25
215.9
 35
0.0
146
0.0
 13
0.0
 23
0.0
 33
0.0
 16
1.0
 26
0.0
 36
0.0
 17
0.0
 27
1.0
 37
0.0
 76
     0
330
1F
331
29
  0
MLINESTYLE
  5
18
102
{ACAD_REACTORS
330
17
102
}
330
17
100
AcDbMlineStyle
  2
Standard
 70
     0
  3

 62
   256
 51
90.0
 52
90.0
 71
     2
 49
0.5
 62
   256
  6
BYLAYER
 49
-0.5
 62
   256
  6
BYLAYER
  0
ACDBPLACEHOLDER
  5
F
102
{ACAD_REACTORS
330
E
102
}
330
E
  0
SCALE
  5
48
102
{ACAD_REACTORS
330
47
102
}
330
47
100
AcDbScale
 70
     0
300
1:1
140
1.0
141
1.0
290
     1
  0
SCALE
  5
49
102
{ACAD_REACTORS
330
47
102
}
330
47
100
AcDbScale
 70
     0
300
1:2
140
1.0
141
2.0
290
     0
  0
SCALE
  5
4A
102
{ACAD_REACTORS
330
47
102
}
330
47
100
AcDbScale
 70
     0
300
1:4
140
1.0
141
4.0
290
     0
  0
SCALE
  5
4B
102
{ACAD_REACTORS
330
47
102
}
330
47
100
AcDbScale
 70
     0
300
1:5
140
1.0
141
5.0
290
     0
  0
SCALE
  5
4C
102
{ACAD_REACTORS
330
47
102
}
330
47
100
AcDbScale
 70
     0
300
1:8
140
1.0
141
8.0
290
     0
  0
SCALE
  5
4D
102
{ACAD_REACTORS
330
47
102
}
330
47
100
AcDbScale
 70
     0
300
1:10
140
1.0
141
10.0
290
     0
  0
SCALE
  5
4E
102
{ACAD_REACTORS
330
47
102
}
330
47
100
AcDbScale
 70
     0
300
1:16
140
1.0
141
16.0
290
     0
  0
SCALE
  5
4F
102
{ACAD_REACTORS
330
47
102
}
330
47
100
AcDbScale
 70
     0
300
1:20
140
1.0
141
20.0
290
     0
  0
SCALE
  5
50
102
{ACAD_REACTORS
330
47
102
}
330
47
100
AcDbScale
 70
     0
300
1:30
140
1.0
141
30.0
290
     0
  0
SCALE
  5
51
102
{ACAD_REACTORS
330
47
102
}
330
47
100
AcDbScale
 70
     0
300
1:40
140
1.0
141
40.0
290
     0
  0
SCALE
  5
52
102
{ACAD_REACTORS
330
47
102
}
330
47
100
AcDbScale
 70
     0
300
1:50
140
1.0
141
50.0
290
     0
  0
SCALE
  5
53
102
{ACAD_REACTORS
330
47
102
}
330
47
100
AcDbScale
 70
     0
300
1:100
140
1.0
141
100.0
290
     0
  0
SCALE
  5
54
102
{ACAD_REACTORS
330
47
102
}
330
47
100
AcDbScale
 70
     0
300
2:1
140
2.0
141
1.0
290
     0
  0
SCALE
  5
55
102
{ACAD_REACTORS
330
47
102
}
330
47
100
AcDbScale
 70
     0
300
4:1
140
4.0
141
1.0
290
     0
  0
SCALE
  5
56
102
{ACAD_REACTORS
330
47
102
}
330
47
100
AcDbScale
 70
     0
300
8:1
140
8.0
141
1.0
290
     0
  0
SCALE
  5
57
102
{ACAD_REACTORS
330
47
102
}
330
47
100
AcDbScale
 70
     0
300
10:1
140
10.0
141
1.0
290
     0
  0
SCALE
  5
58
102
{ACAD_REACTORS
330
47
102
}
330
47
100
AcDbScale
 70
     0
300
100:1
140
100.0
141
1.0
290
     0
  0
SCALE
  5
59
102
{ACAD_REACTORS
330
47
102
}
330
47
100
AcDbScale
 70
     0
300
1/128" = 1'-0"
140
0.0078125
141
12.0
290
     0
  0
SCALE
  5
5A
102
{ACAD_REACTORS
330
47
102
}
330
47
100
AcDbScale
 70
     0
300
1/64" = 1'-0"
140
0.015625
141
12.0
290
     0
  0
SCALE
  5
5B
102
{ACAD_REACTORS
330
47
102
}
330
47
100
AcDbScale
 70
     0
300
1/32" = 1'-0"
140
0.03125
141
12.0
290
     0
  0
SCALE
  5
5C
102
{ACAD_REACTORS
330
47
102
}
330
47
100
AcDbScale
 70
     0
300
1/16" = 1'-0"
140
0.0625
141
12.0
290
     0
  0
SCALE
  5
5D
102
{ACAD_REACTORS
330
47
102
}
330
47
100
AcDbScale
 70
     0
300
3/32" = 1'-0"
140
0.09375
141
12.0
290
     0
  0
SCALE
  5
5E
102
{ACAD_REACTORS
330
47
102
}
330
47
100
AcDbScale
 70
     0
300
1/8" = 1'-0"
140
0.125
141
12.0
290
     0
  0
SCALE
  5
5F
102
{ACAD_REACTORS
330
47
102
}
330
47
100
AcDbScale
 70
     0
300
3/16" = 1'-0"
140
0.1875
141
12.0
290
     0
  0
SCALE
  5
60
102
{ACAD_REACTORS
330
47
102
}
330
47
100
AcDbScale
 70
     0
300
1/4" = 1'-0"
140
0.25
141
12.0
290
     0
  0
SCALE
  5
61
102
{ACAD_REACTORS
330
47
102
}
330
47
100
AcDbScale
 70
     0
300
3/8" = 1'-0"
140
0.375
141
12.0
290
     0
  0
SCALE
  5
62
102
{ACAD_REACTORS
330
47
102
}
330
47
100
AcDbScale
 70
     0
300
1/2" = 1'-0"
140
0.5
141
12.0
290
     0
  0
SCALE
  5
63
102
{ACAD_REACTORS
330
47
102
}
330
47
100
AcDbScale
 70
     0
300
3/4" = 1'-0"
140
0.75
141
12.0
290
     0
  0
SCALE
  5
64
102
{ACAD_REACTORS
330
47
102
}
330
47
100
AcDbScale
 70
     0
300
1" = 1'-0"
140
1.0
141
12.0
290
     0
  0
SCALE
  5
65
102
{ACAD_REACTORS
330
47
102
}
330
47
100
AcDbScale
 70
     0
300
1-1/2" = 1'-0"
140
1.5
141
12.0
290
     0
  0
SCALE
  5
66
102
{ACAD_REACTORS
330
47
102
}
330
47
100
AcDbScale
 70
     0
300
3" = 1'-0"
140
3.0
141
12.0
290
     0
  0
SCALE
  5
67
102
{ACAD_REACTORS
330
47
102
}
330
47
100
AcDbScale
 70
     0
300
6" = 1'-0"
140
6.0
141
12.0
290
     0
  0
SCALE
  5
68
102
{ACAD_REACTORS
330
47
102
}
330
47
100
AcDbScale
 70
     0
300
1'-0" = 1'-0"
140
12.0
141
12.0
290
     0
  0
ENDSEC
  0
EOF
