  0
SECTION
  2
HEADER
  9
$ACADVER
  1
AC1015
  9
$ACADMAINTVER
 70
     6
  9
$DWGCODEPAGE
  3
ANSI_1252
  9
$INSBASE
 10
0.0
 20
0.0
 30
0.0
  9
$EXTMIN
 10
0.0
 20
0.0
 30
0.0
  9
$EXTMAX
 10
279.4
 20
215.9
 30
0.0
  9
$LIMMIN
 10
0.0
 20
0.0
  9
$LIMMAX
 10
279.4
 20
215.9
  9
$ORTHOMODE
 70
     0
  9
$REGENMODE
 70
     1
  9
$FILLMODE
 70
     1
  9
$QTEXTMODE
 70
     0
  9
$MIRRTEXT
 70
     1
  9
$LTSCALE
 40
1.0
  9
$ATTMODE
 70
     1
  9
$TEXTSIZE
 40
2.8222222222
  9
$TRACEWID
 40
1.0
  9
$TEXTSTYLE
  7
Standard
  9
$CLAYER
  8
0
  9
$CELTYPE
  6
ByLayer
  9
$CECOLOR
 62
   256
  9
$CELTSCALE
 40
1.0
  9
$DISPSILH
 70
     0
  9
$DIMSCALE
 40
1.0
  9
$DIMASZ
 40
3.175
  9
$DIMEXO
 40
1.27
  9
$DIMDLI
 40
3.75
  9
$DIMRND
 40
0.0
  9
$DIMDLE
 40
0.0
  9
$DIMEXE
 40
1.778
  9
$DIMTP
 40
0.0
  9
$DIMTM
 40
0.0
  9
$DIMTXT
 40
2.8222222222
  9
$DIMCEN
 40
2.5
  9
$DIMTSZ
 40
0.0
  9
$DIMTOL
 70
     0
  9
$DIMLIM
 70
     0
  9
$DIMTIH
 70
     1
  9
$DIMTOH
 70
     1
  9
$DIMSE1
 70
     0
  9
$DIMSE2
 70
     0
  9
$DIMTAD
 70
     1
  9
$DIMZIN
 70
     1
  9
$DIMBLK
  1

  9
$DIMASO
 70
     1
  9
$DIMSHO
 70
     1
  9
$DIMPOST
  1

  9
$DIMAPOST
  1

  9
$DIMALT
 70
     0
  9
$DIMALTD
 70
     3
  9
$DIMALTF
 40
0.0393700787
  9
$DIMLFAC
 40
1.0
  9
$DIMTOFL
 70
     1
  9
$DIMTVP
 40
0.0
  9
$DIMTIX
 70
     0
  9
$DIMSOXD
 70
     0
  9
$DIMSAH
 70
     0
  9
$DIMBLK1
  1

  9
$DIMBLK2
  1

  9
$DIMSTYLE
  2
ISO-25
  9
$DIMCLRD
 70
     0
  9
$DIMCLRE
 70
     0
  9
$DIMCLRT
 70
     0
  9
$DIMTFAC
 40
1.0
  9
$DIMGAP
 40
2.54
  9
$DIMJUST
 70
     0
  9
$DIMSD1
 70
     0
  9
$DIMSD2
 70
     0
  9
$DIMTOLJ
 70
     0
  9
$DIMTZIN
 70
     1
  9
$DIMALTZ
 70
     0
  9
$DIMALTTZ
 70
     0
  9
$DIMUPT
 70
     0
  9
$DIMDEC
 70
     1
  9
$DIMTDEC
 70
     1
  9
$DIMALTU
 70
     2
  9
$DIMALTTD
 70
     3
  9
$DIMTXSTY
  7
Standard
  9
$DIMAUNIT
 70
     0
  9
$DIMADEC
 70
     0
  9
$DIMALTRND
 40
0.0
  9
$DIMAZIN
 70
     0
  9
$DIMDSEP
 70
    44
  9
$DIMATFIT
 70
     3
  9
$DIMFRAC
 70
     0
  9
$DIMLDRBLK
  1

  9
$DIMLUNIT
 70
     2
  9
$DIMLWD
 70
    -2
  9
$DIMLWE
 70
    -2
  9
$DIMTMOVE
 70
     0
  9
$LUNITS
 70
     2
  9
$LUPREC
 70
     1
  9
$SKETCHINC
 40
1.0
  9
$FILLETRAD
 40
10.0
  9
$AUNITS
 70
     0
  9
$AUPREC
 70
     0
  9
$MENU
  1
.
  9
$ELEVATION
 40
0.0
  9
$PELEVATION
 40
0.0
  9
$THICKNESS
 40
0.0
  9
$LIMCHECK
 70
     0
  9
$CHAMFERA
 40
10.0
  9
$CHAMFERB
 40
10.0
  9
$CHAMFERC
 40
20.0
  9
$CHAMFERD
 40
0.0
  9
$SKPOLY
 70
     0
  9
$TDCREATE
 40
2455524.640618056
  9
$TDUCREATE
 40
2455524.598951389
  9
$TDUPDATE
 40
2455524.640618067
  9
$TDUUPDATE
 40
2455524.5989514
  9
$TDINDWG
 40
0.0000000116
  9
$TDUSRTIMER
 40
0.0000000116
  9
$USRTIMER
 70
     1
  9
$ANGBASE
 50
0.0
  9
$ANGDIR
 70
     0
  9
$PDMODE
 70
     0
  9
$PDSIZE
 40
-1.0
  9
$PLINEWID
 40
0.0
  9
$SPLFRAME
 70
     0
  9
$SPLINETYPE
 70
     6
  9
$SPLINESEGS
 70
     8
  9
$HANDSEED
  5
3C2
  9
$SURFTAB1
 70
     6
  9
$SURFTAB2
 70
     6
  9
$SURFTYPE
 70
     6
  9
$SURFU
 70
     6
  9
$SURFV
 70
     6
  9
$UCSBASE
  2

  9
$UCSNAME
  2

  9
$UCSORG
 10
0.0
 20
0.0
 30
0.0
  9
$UCSXDIR
 10
1.0
 20
0.0
 30
0.0
  9
$UCSYDIR
 10
0.0
 20
1.0
 30
0.0
  9
$UCSORTHOREF
  2

  9
$UCSORTHOVIEW
 70
     0
  9
$UCSORGTOP
 10
0.0
 20
0.0
 30
0.0
  9
$UCSORGBOTTOM
 10
0.0
 20
0.0
 30
0.0
  9
$UCSORGLEFT
 10
0.0
 20
0.0
 30
0.0
  9
$UCSORGRIGHT
 10
0.0
 20
0.0
 30
0.0
  9
$UCSORGFRONT
 10
0.0
 20
0.0
 30
0.0
  9
$UCSORGBACK
 10
0.0
 20
0.0
 30
0.0
  9
$PUCSBASE
  2

  9
$PUCSNAME
  2

  9
$PUCSORG
 10
0.0
 20
0.0
 30
0.0
  9
$PUCSXDIR
 10
1.0
 20
0.0
 30
0.0
  9
$PUCSYDIR
 10
0.0
 20
1.0
 30
0.0
  9
$PUCSORTHOREF
  2

  9
$PUCSORTHOVIEW
 70
     0
  9
$PUCSORGTOP
 10
0.0
 20
0.0
 30
0.0
  9
$PUCSORGBOTTOM
 10
0.0
 20
0.0
 30
0.0
  9
$PUCSORGLEFT
 10
0.0
 20
0.0
 30
0.0
  9
$PUCSORGRIGHT
 10
0.0
 20
0.0
 30
0.0
  9
$PUCSORGFRONT
 10
0.0
 20
0.0
 30
0.0
  9
$PUCSORGBACK
 10
0.0
 20
0.0
 30
0.0
  9
$USERI1
 70
     0
  9
$USERI2
 70
     0
  9
$USERI3
 70
     0
  9
$USERI4
 70
     0
  9
$USERI5
 70
     0
  9
$USERR1
 40
0.0
  9
$USERR2
 40
0.0
  9
$USERR3
 40
0.0
  9
$USERR4
 40
0.0
  9
$USERR5
 40
0.0
  9
$WORLDVIEW
 70
     1
  9
$SHADEDGE
 70
     3
  9
$SHADEDIF
 70
    70
  9
$TILEMODE
 70
     1
  9
$MAXACTVP
 70
    64
  9
$PINSBASE
 10
0.0
 20
0.0
 30
0.0
  9
$PLIMCHECK
 70
     0
  9
$PEXTMIN
 10
1.0000000000E+20
 20
1.0000000000E+20
 30
1.0000000000E+20
  9
$PEXTMAX
 10
-1.0000000000E+20
 20
-1.0000000000E+20
 30
-1.0000000000E+20
  9
$PLIMMIN
 10
0.0
 20
0.0
  9
$PLIMMAX
 10
420.0
 20
297.0
  9
$UNITMODE
 70
     0
  9
$VISRETAIN
 70
     1
  9
$PLINEGEN
 70
     0
  9
$PSLTSCALE
 70
     1
  9
$TREEDEPTH
 70
  3020
  9
$CMLSTYLE
  2
Standard
  9
$CMLJUST
 70
     0
  9
$CMLSCALE
 40
20.0
  9
$PROXYGRAPHICS
 70
     1
  9
$MEASUREMENT
 70
     1
  9
$CELWEIGHT
370
    -1
  9
$ENDCAPS
280
     0
  9
$JOINSTYLE
280
     0
  9
$LWDISPLAY
290
     1
  9
$INSUNITS
 70
     4
  9
$HYPERLINKBASE
  1

  9
$STYLESHEET
  1

  9
$XEDIT
290
     1
  9
$CEPSNTYPE
380
     0
  9
$PSTYLEMODE
290
     1
  9
$FINGERPRINTGUID
  2
{1E06D079-1057-4137-A04C-5BF75009B265}
  9
$VERSIONGUID
  2
{FAEB1C32-E019-11D5-929B-00C0DF256EC4}
  9
$EXTNAMES
290
     1
  9
$PSVPSCALE
 40
0.0
  9
$OLESTARTUP
290
     0
  0
ENDSEC
  0
SECTION
  2
CLASSES
  0
CLASS
  1
ACDBDICTIONARYWDFLT
  2
AcDbDictionaryWithDefault
  3
ObjectDBX Classes
 90
        0
280
     0
281
     0
  0
CLASS
  1
VISUALSTYLE
  2
AcDbVisualStyle
  3
ObjectDBX Classes
 90
     4095
280
     0
281
     0
  0
CLASS
  1
MATERIAL
  2
AcDbMaterial
  3
ObjectDBX Classes
 90
     1153
280
     0
281
     0
  0
CLASS
  1
SCALE
  2
AcDbScale
  3
ObjectDBX Classes
 90
     1153
280
     0
281
     0
  0
CLASS
  1
DICTIONARYVAR
  2
AcDbDictionaryVar
  3
ObjectDBX Classes
 90
        0
280
     0
281
     0
  0
CLASS
  1
ACDBPLACEHOLDER
  2
AcDbPlaceHolder
  3
ObjectDBX Classes
 90
        0
280
     0
281
     0
  0
CLASS
  1
LAYOUT
  2
AcDbLayout
  3
ObjectDBX Classes
 90
        0
280
     0
281
     0
  0
ENDSEC
  0
SECTION
  2
TABLES
  0
TABLE
  2
VPORT
  5
8
330
0
100
AcDbSymbolTable
 70
     1
  0
VPORT
  5
29
330
8
100
AcDbSymbolTableRecord
100
AcDbViewportTableRecord
  2
*Active
 70
     0
 10
0.0
 20
0.0
 11
1.0
 21
1.0
 12
139.7
 22
107.95
 13
0.0
 23
0.0
 14
10.0
 24
10.0
 15
10.0
 25
10.0
 16
0.0
 26
0.0
 36
1.0
 17
0.0
 27
0.0
 37
0.0
 40
215.9
 41
1.2941176471
 42
50.0
 43
0.0
 44
0.0
 50
0.0
 51
0.0
 71
     0
 72
  2000
 73
     1
 74
     3
 75
     0
 76
     0
 77
     0
 78
     0
281
     0
 65
     1
110
0.0
120
0.0
130
0.0
111
1.0
121
0.0
131
0.0
112
0.0
122
1.0
132
0.0
 79
     0
146
0.0
  0
ENDTAB
  0
TABLE
  2
LTYPE
  5
5
330
0
100
AcDbSymbolTable
 70
     6
  0
LTYPE
  5
14
330
5
100
AcDbSymbolTableRecord
100
AcDbLinetypeTableRecord
  2
ByBlock
 70
     0
  3

 72
    65
 73
     0
 40
0.0
  0
LTYPE
  5
15
330
5
100
AcDbSymbolTableRecord
100
AcDbLinetypeTableRecord
  2
ByLayer
 70
     0
  3

 72
    65
 73
     0
 40
0.0
  0
LTYPE
  5
16
330
5
100
AcDbSymbolTableRecord
100
AcDbLinetypeTableRecord
  2
Continuous
 70
     0
  3
Solid line
 72
    65
 73
     0
 40
0.0
  0
LTYPE
  5
3F
330
5
100
AcDbSymbolTableRecord
100
AcDbLinetypeTableRecord
  2
HIDDEN
 70
     0
  3
Hidden __ __ __ __ __ __ __ __ __ __ __ __ __ __
 72
    65
 73
     2
 40
1.905
 49
1.27
 74
     0
 49
-0.635
 74
     0
  0
LTYPE
  5
40
330
5
100
AcDbSymbolTableRecord
100
AcDbLinetypeTableRecord
  2
PHANTOM
 70
     0
  3
Phantom ______  __  __  ______  __  __  ______
 72
    65
 73
     6
 40
12.7
 49
6.35
 74
     0
 49
-1.27
 74
     0
 49
1.27
 74
     0
 49
-1.27
 74
     0
 49
1.27
 74
     0
 49
-1.27
 74
     0
  0
LTYPE
  5
41
330
5
100
AcDbSymbolTableRecord
100
AcDbLinetypeTableRecord
  2
CENTER
 70
     0
  3
Center ____ _ ____ _ ____ _ ____ _ ____ _ ____
 72
    65
 73
     4
 40
10.16
 49
6.35
 74
     0
 49
-1.27
 74
     0
 49
1.27
 74
     0
 49
-1.27
 74
     0
  0
LTYPE
  5
42
330
5
100
AcDbSymbolTableRecord
100
AcDbLinetypeTableRecord
  2
CENTERX2
 70
     0
  3
Center (2x) ________  __  ________  __  _____
 72
    65
 73
     4
 40
20.32
 49
12.7
 74
     0
 49
-2.54
 74
     0
 49
2.54
 74
     0
 49
-2.54
 74
     0
  0
LTYPE
  5
43
330
5
100
AcDbSymbolTableRecord
100
AcDbLinetypeTableRecord
  2
DOT2
 70
     0
  3
Dot (.5x) ........................................
 72
    65
 73
     2
 40
0.635
 49
0.0
 74
     0
 49
-0.635
 74
     0
  0
ENDTAB
  0
TABLE
  2
LAYER
  5
2
330
0
100
AcDbSymbolTable
 70
     2
  0
LAYER
  5
10
330
2
100
AcDbSymbolTableRecord
100
AcDbLayerTableRecord
  2
0
 70
     0
 62
     7
  6
Continuous
370
    -3
390
F
  0
LAYER
  5
44
330
2
100
AcDbSymbolTableRecord
100
AcDbLayerTableRecord
  2
FORMAT
 70
     0
 62
     7
  6
Continuous
370
    -3
390
F
  0
ENDTAB
  0
TABLE
  2
STYLE
  5
3
330
0
100
AcDbSymbolTable
 70
     3
  0
STYLE
  5
11
330
3
100
AcDbSymbolTableRecord
100
AcDbTextStyleTableRecord
  2
Standard
 70
     0
 40
0.0
 41
1.0
 50
0.0
 71
     0
 42
2.5
  3
txt
  4

  0
STYLE
  5
6B
330
3
100
AcDbSymbolTableRecord
100
AcDbTextStyleTableRecord
  2
SLDTEXTSTYLE0
 70
     0
 40
0.0
 41
0.75
 50
0.0
 71
     0
 42
0.2
  3
TXT
  4

  0
STYLE
  5
99
330
3
100
AcDbSymbolTableRecord
100
AcDbTextStyleTableRecord
  2
SLDTEXTSTYLE1
 70
     0
 40
0.0
 41
0.6
 50
0.0
 71
     0
 42
0.2
  3
TXT
  4

  0
ENDTAB
  0
TABLE
  2
VIEW
  5
6
330
0
100
AcDbSymbolTable
 70
     0
  0
ENDTAB
  0
TABLE
  2
UCS
  5
7
330
0
100
AcDbSymbolTable
 70
     0
  0
ENDTAB
  0
TABLE
  2
APPID
  5
9
330
0
100
AcDbSymbolTable
 70
     1
  0
APPID
  5
12
330
9
100
AcDbSymbolTableRecord
100
AcDbRegAppTableRecord
  2
ACAD
 70
     0
  0
ENDTAB
  0
TABLE
  2
DIMSTYLE
  5
A
330
0
100
AcDbSymbolTable
 70
     4
100
AcDbDimStyleTable
  0
DIMSTYLE
105
27
330
A
100
AcDbSymbolTableRecord
100
AcDbDimStyleTableRecord
  2
ISO-25
 70
     0
 41
2.5
 42
0.625
 43
3.75
 44
1.25
 73
     0
 74
     0
 77
     1
 78
     8
140
2.5
141
2.5
143
0.0393700787
147
0.625
171
     3
172
     1
271
     2
272
     2
274
     3
278
    44
283
     0
284
     8
340
11
  0
DIMSTYLE
105
16F
102
{ACAD_REACTORS
330
16E
330
181
330
193
330
22F
330
265
102
}
330
A
100
AcDbSymbolTableRecord
100
AcDbDimStyleTableRecord
  2
SLDDIMSTYLE0
 70
     0
 41
3.175
 44
0.0
 45
0.000000001
 78
    12
140
2.1166666667
143
0.0393700787
147
0.5291666667
148
0.000000001
170
     1
173
     1
271
     1
272
     1
276
     2
284
    12
340
6B
  0
DIMSTYLE
105
1A6
102
{ACAD_REACTORS
330
1A5
330
21D
330
241
330
253
330
37D
330
38F
102
}
330
A
100
AcDbSymbolTableRecord
100
AcDbDimStyleTableRecord
  2
SLDDIMSTYLE1
 70
     0
 41
3.175
 44
0.0
 45
0.000000001
 78
    12
140
2.1166666667
143
0.0393700787
147
0.5291666667
148
0.000000001
170
     1
173
     1
271
     1
272
     1
276
     2
284
    12
340
6B
  0
DIMSTYLE
105
1B8
330
A
100
AcDbSymbolTableRecord
100
AcDbDimStyleTableRecord
  2
SLDDIMSTYLE2
 70
     0
 41
3.175
 44
0.0
 45
0.000000001
140
0.0
146
3.175
147
0.0
173
     1
271
     0
272
     0
276
     2
340
11
  0
ENDTAB
  0
TABLE
  2
BLOCK_RECORD
  5
1
330
0
100
AcDbSymbolTable
 70
    25
  0
BLOCK_RECORD
  5
1F
330
1
100
AcDbSymbolTableRecord
100
AcDbBlockTableRecord
  2
*Model_Space
340
22
  0
BLOCK_RECORD
  5
1B
330
1
100
AcDbSymbolTableRecord
100
AcDbBlockTableRecord
  2
*Paper_Space
340
1E
  0
BLOCK_RECORD
  5
23
330
1
100
AcDbSymbolTableRecord
100
AcDbBlockTableRecord
  2
*Paper_Space0
340
26
  0
BLOCK_RECORD
  5
45
330
1
100
AcDbSymbolTableRecord
100
AcDbBlockTableRecord
  2
Third Angle Projection Block
340
0
102
{BLKREFS
331
6A
102
}
  0
BLOCK_RECORD
  5
9F
330
1
100
AcDbSymbolTableRecord
100
AcDbBlockTableRecord
  2
SW_NOTE_0
340
0
102
{BLKREFS
331
A4
102
}
  0
BLOCK_RECORD
  5
A5
330
1
100
AcDbSymbolTableRecord
100
AcDbBlockTableRecord
  2
SW_NOTE_1
340
0
102
{BLKREFS
331
AA
102
}
  0
BLOCK_RECORD
  5
AC
330
1
100
AcDbSymbolTableRecord
100
AcDbBlockTableRecord
  2
SW_NOTE_2
340
0
102
{BLKREFS
331
B1
102
}
  0
BLOCK_RECORD
  5
B3
330
1
100
AcDbSymbolTableRecord
100
AcDbBlockTableRecord
  2
SW_NOTE_3
340
0
102
{BLKREFS
331
B8
102
}
  0
BLOCK_RECORD
  5
170
330
1
100
AcDbSymbolTableRecord
100
AcDbBlockTableRecord
  2
*D6
340
0
  0
BLOCK_RECORD
  5
182
330
1
100
AcDbSymbolTableRecord
100
AcDbBlockTableRecord
  2
*D7
340
0
  0
BLOCK_RECORD
  5
194
330
1
100
AcDbSymbolTableRecord
100
AcDbBlockTableRecord
  2
*D8
340
0
  0
BLOCK_RECORD
  5
1A7
330
1
100
AcDbSymbolTableRecord
100
AcDbBlockTableRecord
  2
*D9
340
0
  0
BLOCK_RECORD
  5
1B2
330
1
100
AcDbSymbolTableRecord
100
AcDbBlockTableRecord
  2
SW_NOTE_4
340
0
102
{BLKREFS
331
1B7
102
}
  0
BLOCK_RECORD
  5
1BA
330
1
100
AcDbSymbolTableRecord
100
AcDbBlockTableRecord
  2
SW_CENTERMARKSYMBOL_0
340
0
102
{BLKREFS
331
1C1
102
}
  0
BLOCK_RECORD
  5
1C2
330
1
100
AcDbSymbolTableRecord
100
AcDbBlockTableRecord
  2
SW_CENTERMARKSYMBOL_1
340
0
102
{BLKREFS
331
1C9
102
}
  0
BLOCK_RECORD
  5
21E
330
1
100
AcDbSymbolTableRecord
100
AcDbBlockTableRecord
  2
*D13
340
0
  0
BLOCK_RECORD
  5
230
330
1
100
AcDbSymbolTableRecord
100
AcDbBlockTableRecord
  2
*D14
340
0
  0
BLOCK_RECORD
  5
242
330
1
100
AcDbSymbolTableRecord
100
AcDbBlockTableRecord
  2
*D15
340
0
  0
BLOCK_RECORD
  5
254
330
1
100
AcDbSymbolTableRecord
100
AcDbBlockTableRecord
  2
*D16
340
0
  0
BLOCK_RECORD
  5
266
330
1
100
AcDbSymbolTableRecord
100
AcDbBlockTableRecord
  2
*D17
340
0
  0
BLOCK_RECORD
  5
277
330
1
100
AcDbSymbolTableRecord
100
AcDbBlockTableRecord
  2
SW_NOTE_5
340
0
102
{BLKREFS
331
27D
102
}
  0
BLOCK_RECORD
  5
37E
330
1
100
AcDbSymbolTableRecord
100
AcDbBlockTableRecord
  2
*D19
340
0
  0
BLOCK_RECORD
  5
390
330
1
100
AcDbSymbolTableRecord
100
AcDbBlockTableRecord
  2
*D20
340
0
  0
BLOCK_RECORD
  5
3A1
330
1
100
AcDbSymbolTableRecord
100
AcDbBlockTableRecord
  2
SW_NOTE_6
340
0
102
{BLKREFS
331
3A6
102
}
  0
BLOCK_RECORD
  5
3A8
330
1
100
AcDbSymbolTableRecord
100
AcDbBlockTableRecord
  2
SW_NOTE_7
340
0
102
{BLKREFS
331
3AD
102
}
  0
BLOCK_RECORD
  5
3AF
330
1
100
AcDbSymbolTableRecord
100
AcDbBlockTableRecord
  2
SW_CENTERMARKSYMBOL_2
340
0
102
{BLKREFS
331
3B6
102
}
  0
BLOCK_RECORD
  5
3B7
330
1
100
AcDbSymbolTableRecord
100
AcDbBlockTableRecord
  2
SW_CENTERMARKSYMBOL_3
340
0
102
{BLKREFS
331
3BE
102
}
  0
ENDTAB
  0
ENDSEC
  0
SECTION
  2
BLOCKS
  0
BLOCK
  5
20
330
1F
100
AcDbEntity
  8
0
100
AcDbBlockBegin
  2
*Model_Space
 70
     0
 10
0.0
 20
0.0
 30
0.0
  3
*Model_Space
  1

  0
ENDBLK
  5
21
330
1F
100
AcDbEntity
  8
0
100
AcDbBlockEnd
  0
BLOCK
  5
1C
330
1B
100
AcDbEntity
 67
     1
  8
0
100
AcDbBlockBegin
  2
*Paper_Space
 70
     0
 10
0.0
 20
0.0
 30
0.0
  3
*Paper_Space
  1

  0
ENDBLK
  5
1D
330
1B
100
AcDbEntity
 67
     1
  8
0
100
AcDbBlockEnd
  0
BLOCK
  5
24
330
23
100
AcDbEntity
  8
0
100
AcDbBlockBegin
  2
*Paper_Space0
 70
     0
 10
0.0
 20
0.0
 30
0.0
  3
*Paper_Space0
  1

  0
ENDBLK
  5
25
330
23
100
AcDbEntity
  8
0
100
AcDbBlockEnd
  0
BLOCK
  5
46
330
45
100
AcDbEntity
  8
0
100
AcDbBlockBegin
  2
Third Angle Projection Block
 70
     0
 10
0.0
 20
0.0
 30
0.0
  3
Third Angle Projection Block
  1

  0
CIRCLE
  5
48
330
45
100
AcDbEntity
  8
0
  6
Continuous
 62
     7
370
    30
100
AcDbCircle
 10
101.4766388944
 20
18.9404083667
 30
0.0
 40
1.768227153674871
  0
CIRCLE
  5
49
330
45
100
AcDbEntity
  8
0
  6
Continuous
 62
     7
370
    30
100
AcDbCircle
 10
101.4766388944
 20
18.9404083667
 30
0.0
 40
3.901228248531818
  0
LINE
  5
4A
330
45
100
AcDbEntity
  8
0
  6
CENTERX2
 62
     7
370
     0
100
AcDbLine
 10
110.1367822585
 20
18.9404083667
 30
0.0
 11
119.4527334874
 21
18.9404083667
 31
0.0
  0
LINE
  5
4B
330
45
100
AcDbEntity
  8
0
  6
Continuous
 62
     7
370
    30
100
AcDbLine
 10
111.0016388944
 20
20.7086355204
 30
0.0
 11
111.0016388944
 21
17.172181213
 31
0.0
  0
LINE
  5
4C
330
45
100
AcDbEntity
  8
0
  6
Continuous
 62
     7
370
    30
100
AcDbLine
 10
111.0016388944
 20
17.172181213
 30
0.0
 11
118.6216388944
 21
15.1304083667
 31
0.0
  0
LINE
  5
4D
330
45
100
AcDbEntity
  8
0
  6
Continuous
 62
     7
370
    30
100
AcDbLine
 10
118.6216388944
 20
15.1304083667
 30
0.0
 11
118.6216388944
 21
22.7504083667
 31
0.0
  0
LINE
  5
4E
330
45
100
AcDbEntity
  8
0
  6
Continuous
 62
     7
370
    30
100
AcDbLine
 10
118.6216388944
 20
22.7504083667
 30
0.0
 11
111.0016388944
 21
20.7086355204
 31
0.0
  0
LINE
  5
4F
330
45
100
AcDbEntity
  8
0
  6
CENTERX2
 62
     7
370
     0
100
AcDbLine
 10
96.6025854619
 20
18.9404083667
 30
0.0
 11
106.3506923269
 21
18.9404083667
 31
0.0
  0
LINE
  5
50
330
45
100
AcDbEntity
  8
0
  6
CENTERX2
 62
     7
370
     0
100
AcDbLine
 10
101.4766388944
 20
23.8144617992
 30
0.0
 11
101.4766388944
 21
14.0663549342
 31
0.0
  0
POINT
  5
51
330
45
100
AcDbEntity
  8
0
  6
Continuous
 62
     7
370
     0
100
AcDbPoint
 10
101.4766388944
 20
18.9404083667
 30
0.0
  0
ENDBLK
  5
47
330
45
100
AcDbEntity
  8
0
100
AcDbBlockEnd
  0
BLOCK
  5
A0
330
9F
100
AcDbEntity
  8
0
100
AcDbBlockBegin
  2
SW_NOTE_0
 70
     0
 10
0.0
 20
0.0
 30
0.0
  3
SW_NOTE_0
  1

  0
MTEXT
  5
A2
330
9F
100
AcDbEntity
  8
0
  6
Continuous
 62
     0
370
     0
100
AcDbMText
 10
0.0
 20
1.9645392354
 30
0.0
 40
1.524
 41
0.0
 71
     1
 72
     1
  1
VALUES IN PARENTHESIS ARE CALCULATED
  7
SLDTEXTSTYLE0
 73
     1
 44
1.0
  0
MTEXT
  5
A3
330
9F
100
AcDbEntity
  8
0
  6
Continuous
 62
     0
370
     0
100
AcDbMText
 10
0.6850045174
 20
-0.5594606586
 30
0.0
 40
1.524
 41
0.0
 71
     1
 72
     1
  1
AND MAY CONTAIN ROUNDOFF ERRORS
  7
SLDTEXTSTYLE0
 73
     1
 44
1.0
  0
ENDBLK
  5
A1
330
9F
100
AcDbEntity
  8
0
100
AcDbBlockEnd
  0
BLOCK
  5
A6
330
A5
100
AcDbEntity
  8
0
100
AcDbBlockBegin
  2
SW_NOTE_1
 70
     0
 10
0.0
 20
0.0
 30
0.0
  3
SW_NOTE_1
  1

  0
MTEXT
  5
A8
330
A5
100
AcDbEntity
  8
0
  6
Continuous
 62
     0
370
     0
100
AcDbMText
 10
0.0
 20
2.7285267159
 30
0.0
 40
2.1166666667
 41
0.0
 71
     1
 72
     1
  1
DRAWING
  7
SLDTEXTSTYLE0
 73
     1
 44
1.0
  0
MTEXT
  5
A9
330
A5
100
AcDbEntity
  8
0
  6
Continuous
 62
     0
370
     0
100
AcDbMText
 10
0.0
 20
-0.0936954723
 30
0.0
 40
2.1166666667
 41
0.0
 71
     1
 72
     1
  1
PROJECTION
  7
SLDTEXTSTYLE0
 73
     1
 44
1.0
  0
ENDBLK
  5
A7
330
A5
100
AcDbEntity
  8
0
100
AcDbBlockEnd
  0
BLOCK
  5
AD
330
AC
100
AcDbEntity
  8
0
100
AcDbBlockBegin
  2
SW_NOTE_2
 70
     0
 10
0.0
 20
0.0
 30
0.0
  3
SW_NOTE_2
  1

  0
MTEXT
  5
AF
330
AC
100
AcDbEntity
  8
0
  6
Continuous
 62
     0
370
     0
100
AcDbMText
 10
0.0
 20
4.0927900738
 30
0.0
 40
3.175
 41
0.0
 71
     1
 72
     1
  1
FOR INFORMATION ONLY 
  7
SLDTEXTSTYLE0
 73
     1
 44
1.0
  0
MTEXT
  5
B0
330
AC
100
AcDbEntity
  8
0
  6
Continuous
 62
     0
370
     0
100
AcDbMText
 10
-12.6735437661
 20
-0.1405432084
 30
0.0
 40
3.175
 41
0.0
 71
     1
 72
     1
  1
NOT FOR MANUFACTURING PURPOSES
  7
SLDTEXTSTYLE0
 73
     1
 44
1.0
  0
ENDBLK
  5
AE
330
AC
100
AcDbEntity
  8
0
100
AcDbBlockEnd
  0
BLOCK
  5
B4
330
B3
100
AcDbEntity
  8
0
100
AcDbBlockBegin
  2
SW_NOTE_3
 70
     0
 10
0.0
 20
0.0
 30
0.0
  3
SW_NOTE_3
  1

  0
MTEXT
  5
B6
330
B3
100
AcDbEntity
  8
0
  6
Continuous
 62
     0
370
     0
100
AcDbMText
 10
0.0
 20
3.4106583948
 30
0.0
 40
2.6458333333
 41
0.0
 71
     1
 72
     1
  1
SHACK-HARTMANN
  7
SLDTEXTSTYLE0
 73
     1
 44
1.0
  0
MTEXT
  5
B7
330
B3
100
AcDbEntity
  8
0
  6
Continuous
 62
     0
370
     0
100
AcDbMText
 10
-5.7595875114
 20
-0.1171193403
 30
0.0
 40
2.6458333333
 41
0.0
 71
     1
 72
     1
  1
FAST WAVEFRONT SENSOR
  7
SLDTEXTSTYLE0
 73
     1
 44
1.0
  0
ENDBLK
  5
B5
330
B3
100
AcDbEntity
  8
0
100
AcDbBlockEnd
  0
BLOCK
  5
171
330
170
100
AcDbEntity
  8
0
100
AcDbBlockBegin
  2
*D6
 70
     1
 10
0.0
 20
0.0
 30
0.0
  3
*D6
  1

  0
SOLID
  5
173
330
170
100
AcDbEntity
  8
0
  6
Continuous
 62
     7
370
     0
100
AcDbTrace
 10
26.2404934829
 20
141.0044052408
 30
0.0
 11
25.7324934829
 21
137.8294052408
 31
0.0
 12
26.7484934829
 22
137.8294052408
 32
0.0
 13
26.7484934829
 23
137.8294052408
 33
0.0
  0
SOLID
  5
174
330
170
100
AcDbEntity
  8
0
  6
Continuous
 62
     7
370
     0
100
AcDbTrace
 10
26.2404934829
 20
118.9544052408
 30
0.0
 11
26.7484934829
 21
122.1294052408
 31
0.0
 12
25.7324934829
 22
122.1294052408
 32
0.0
 13
25.7324934829
 23
122.1294052408
 33
0.0
  0
LINE
  5
175
330
170
100
AcDbEntity
  8
0
  6
Continuous
 62
     7
370
     0
100
AcDbLine
 10
21.5050696362
 20
129.7272098676
 30
0.0
 11
21.5050696362
 21
126.8689956377
 31
0.0
  0
LINE
  5
176
330
170
100
AcDbEntity
  8
0
  6
Continuous
 62
     7
370
     0
100
AcDbLine
 10
21.5050696362
 20
126.8689956377
 30
0.0
 11
21.9337416764
 21
126.8689956377
 31
0.0
  0
LINE
  5
177
330
170
100
AcDbEntity
  8
0
  6
Continuous
 62
     7
370
     0
100
AcDbLine
 10
21.5050696362
 20
129.7272098676
 30
0.0
 11
21.9337416764
 21
129.7272098676
 31
0.0
  0
LINE
  5
178
330
170
100
AcDbEntity
  8
0
  6
Continuous
 62
     7
370
     0
100
AcDbLine
 10
30.9759173297
 20
129.7272098676
 30
0.0
 11
30.9759173297
 21
126.8689956377
 31
0.0
  0
LINE
  5
179
330
170
100
AcDbEntity
  8
0
  6
Continuous
 62
     7
370
     0
100
AcDbLine
 10
30.9759173297
 20
126.8689956377
 30
0.0
 11
30.5472452894
 21
126.8689956377
 31
0.0
  0
LINE
  5
17A
330
170
100
AcDbEntity
  8
0
  6
Continuous
 62
     7
370
     0
100
AcDbLine
 10
30.9759173297
 20
129.7272098676
 30
0.0
 11
30.5472452894
 21
129.7272098676
 31
0.0
  0
LINE
  5
17B
330
170
100
AcDbEntity
  8
0
  6
Continuous
 62
     7
370
     0
100
AcDbLine
 10
56.1005965606
 20
141.0044052408
 30
0.0
 11
24.4624934829
 21
141.0044052408
 31
0.0
  0
LINE
  5
17C
330
170
100
AcDbEntity
  8
0
  6
Continuous
 62
     7
370
     0
100
AcDbLine
 10
44.1733721983
 20
118.9544052408
 30
0.0
 11
24.4624934829
 21
118.9544052408
 31
0.0
  0
LINE
  5
17D
330
170
100
AcDbEntity
  8
0
  6
Continuous
 62
     7
370
     0
100
AcDbLine
 10
26.2404934829
 20
141.0044052408
 30
0.0
 11
26.2404934829
 21
133.3420102172
 31
0.0
  0
LINE
  5
17E
330
170
100
AcDbEntity
  8
0
  6
Continuous
 62
     7
370
     0
100
AcDbLine
 10
26.2404934829
 20
118.9544052408
 30
0.0
 11
26.2404934829
 21
126.6168002645
 31
0.0
  0
MTEXT
  5
17F
330
170
100
AcDbEntity
  8
0
  6
Continuous
 62
     7
370
     0
100
AcDbMText
 10
20.8587230085
 20
132.7079318403
 30
0.0
 40
2.1166666667
 41
0.0
 71
     1
 72
     1
  1
22,1mm
  7
SLDTEXTSTYLE0
 73
     1
 44
1.0
  0
MTEXT
  5
180
330
170
100
AcDbEntity
  8
0
  6
Continuous
 62
     7
370
     0
100
AcDbMText
 10
22.3624137167
 20
129.3453268639
 30
0.0
 40
2.1166666667
 41
0.0
 71
     1
 72
     1
  1
0,87in
  7
SLDTEXTSTYLE0
 73
     1
 44
1.0
  0
ENDBLK
  5
172
330
170
100
AcDbEntity
  8
0
100
AcDbBlockEnd
  0
BLOCK
  5
183
330
182
100
AcDbEntity
  8
0
100
AcDbBlockBegin
  2
*D7
 70
     1
 10
0.0
 20
0.0
 30
0.0
  3
*D7
  1

  0
SOLID
  5
185
330
182
100
AcDbEntity
  8
0
  6
Continuous
 62
     7
370
     0
100
AcDbTrace
 10
14.2404934829
 20
156.7044052408
 30
0.0
 11
13.7324934829
 21
153.5294052408
 31
0.0
 12
14.7484934829
 22
153.5294052408
 32
0.0
 13
14.7484934829
 23
153.5294052408
 33
0.0
  0
SOLID
  5
186
330
182
100
AcDbEntity
  8
0
  6
Continuous
 62
     7
370
     0
100
AcDbTrace
 10
14.2404934829
 20
118.9544052408
 30
0.0
 11
14.7484934829
 21
122.1294052408
 31
0.0
 12
13.7324934829
 22
122.1294052408
 32
0.0
 13
13.7324934829
 23
122.1294052408
 33
0.0
  0
LINE
  5
187
330
182
100
AcDbEntity
  8
0
  6
Continuous
 62
     7
370
     0
100
AcDbLine
 10
9.5050696362
 20
137.5772098676
 30
0.0
 11
9.5050696362
 21
134.7189956377
 31
0.0
  0
LINE
  5
188
330
182
100
AcDbEntity
  8
0
  6
Continuous
 62
     7
370
     0
100
AcDbLine
 10
9.5050696362
 20
134.7189956377
 30
0.0
 11
9.9337416764
 21
134.7189956377
 31
0.0
  0
LINE
  5
189
330
182
100
AcDbEntity
  8
0
  6
Continuous
 62
     7
370
     0
100
AcDbLine
 10
9.5050696362
 20
137.5772098676
 30
0.0
 11
9.9337416764
 21
137.5772098676
 31
0.0
  0
LINE
  5
18A
330
182
100
AcDbEntity
  8
0
  6
Continuous
 62
     7
370
     0
100
AcDbLine
 10
18.9759173297
 20
137.5772098676
 30
0.0
 11
18.9759173297
 21
134.7189956377
 31
0.0
  0
LINE
  5
18B
330
182
100
AcDbEntity
  8
0
  6
Continuous
 62
     7
370
     0
100
AcDbLine
 10
18.9759173297
 20
134.7189956377
 30
0.0
 11
18.5472452894
 21
134.7189956377
 31
0.0
  0
LINE
  5
18C
330
182
100
AcDbEntity
  8
0
  6
Continuous
 62
     7
370
     0
100
AcDbLine
 10
18.9759173297
 20
137.5772098676
 30
0.0
 11
18.5472452894
 21
137.5772098676
 31
0.0
  0
LINE
  5
18D
330
182
100
AcDbEntity
  8
0
  6
Continuous
 62
     7
370
     0
100
AcDbLine
 10
36.9705965606
 20
156.7044052408
 30
0.0
 11
12.4624934829
 21
156.7044052408
 31
0.0
  0
LINE
  5
18E
330
182
100
AcDbEntity
  8
0
  6
Continuous
 62
     7
370
     0
100
AcDbLine
 10
44.1733721983
 20
118.9544052408
 30
0.0
 11
12.4624934829
 21
118.9544052408
 31
0.0
  0
LINE
  5
18F
330
182
100
AcDbEntity
  8
0
  6
Continuous
 62
     7
370
     0
100
AcDbLine
 10
14.2404934829
 20
156.7044052408
 30
0.0
 11
14.2404934829
 21
141.1920102172
 31
0.0
  0
LINE
  5
190
330
182
100
AcDbEntity
  8
0
  6
Continuous
 62
     7
370
     0
100
AcDbLine
 10
14.2404934829
 20
118.9544052408
 30
0.0
 11
14.2404934829
 21
134.4668002645
 31
0.0
  0
MTEXT
  5
191
330
182
100
AcDbEntity
  8
0
  6
Continuous
 62
     7
370
     0
100
AcDbMText
 10
8.8587230085
 20
140.5579318403
 30
0.0
 40
2.1166666667
 41
0.0
 71
     1
 72
     1
  1
37,8mm
  7
SLDTEXTSTYLE0
 73
     1
 44
1.0
  0
MTEXT
  5
192
330
182
100
AcDbEntity
  8
0
  6
Continuous
 62
     7
370
     0
100
AcDbMText
 10
10.3624137167
 20
137.1953268639
 30
0.0
 40
2.1166666667
 41
0.0
 71
     1
 72
     1
  1
1,49in
  7
SLDTEXTSTYLE0
 73
     1
 44
1.0
  0
ENDBLK
  5
184
330
182
100
AcDbEntity
  8
0
100
AcDbBlockEnd
  0
BLOCK
  5
195
330
194
100
AcDbEntity
  8
0
100
AcDbBlockBegin
  2
*D8
 70
     1
 10
0.0
 20
0.0
 30
0.0
  3
*D8
  1

  0
SOLID
  5
197
330
194
100
AcDbEntity
  8
0
  6
Continuous
 62
     7
370
     0
100
AcDbTrace
 10
36.2405965606
 20
178.7044052408
 30
0.0
 11
39.4155965606
 21
178.1964052408
 31
0.0
 12
39.4155965606
 22
179.2124052408
 32
0.0
 13
39.4155965606
 23
179.2124052408
 33
0.0
  0
SOLID
  5
198
330
194
100
AcDbEntity
  8
0
  6
Continuous
 62
     7
370
     0
100
AcDbTrace
 10
81.0405965606
 20
178.7044052408
 30
0.0
 11
77.8655965606
 21
179.2124052408
 31
0.0
 12
77.8655965606
 22
178.1964052408
 32
0.0
 13
77.8655965606
 23
178.1964052408
 33
0.0
  0
LINE
  5
199
330
194
100
AcDbEntity
  8
0
  6
Continuous
 62
     7
370
     0
100
AcDbLine
 10
53.9051727138
 20
178.4522098676
 30
0.0
 11
53.9051727138
 21
175.5939956377
 31
0.0
  0
LINE
  5
19A
330
194
100
AcDbEntity
  8
0
  6
Continuous
 62
     7
370
     0
100
AcDbLine
 10
53.9051727138
 20
175.5939956377
 30
0.0
 11
54.3338447541
 21
175.5939956377
 31
0.0
  0
LINE
  5
19B
330
194
100
AcDbEntity
  8
0
  6
Continuous
 62
     7
370
     0
100
AcDbLine
 10
53.9051727138
 20
178.4522098676
 30
0.0
 11
54.3338447541
 21
178.4522098676
 31
0.0
  0
LINE
  5
19C
330
194
100
AcDbEntity
  8
0
  6
Continuous
 62
     7
370
     0
100
AcDbLine
 10
63.3760204074
 20
178.4522098676
 30
0.0
 11
63.3760204074
 21
175.5939956377
 31
0.0
  0
LINE
  5
19D
330
194
100
AcDbEntity
  8
0
  6
Continuous
 62
     7
370
     0
100
AcDbLine
 10
63.3760204074
 20
175.5939956377
 30
0.0
 11
62.9473483671
 21
175.5939956377
 31
0.0
  0
LINE
  5
19E
330
194
100
AcDbEntity
  8
0
  6
Continuous
 62
     7
370
     0
100
AcDbLine
 10
63.3760204074
 20
178.4522098676
 30
0.0
 11
62.9473483671
 21
178.4522098676
 31
0.0
  0
LINE
  5
19F
330
194
100
AcDbEntity
  8
0
  6
Continuous
 62
     7
370
     0
100
AcDbLine
 10
36.2405965606
 20
155.9744052408
 30
0.0
 11
36.2405965606
 21
180.4824052408
 31
0.0
  0
LINE
  5
1A0
330
194
100
AcDbEntity
  8
0
  6
Continuous
 62
     7
370
     0
100
AcDbLine
 10
81.0405965606
 20
155.9744052408
 30
0.0
 11
81.0405965606
 21
180.4824052408
 31
0.0
  0
LINE
  5
1A1
330
194
100
AcDbEntity
  8
0
  6
Continuous
 62
     7
370
     0
100
AcDbLine
 10
36.2405965606
 20
178.7044052408
 30
0.0
 11
51.0309888795
 21
178.7044052408
 31
0.0
  0
LINE
  5
1A2
330
194
100
AcDbEntity
  8
0
  6
Continuous
 62
     7
370
     0
100
AcDbLine
 10
81.0405965606
 20
178.7044052408
 30
0.0
 11
66.2502042416
 21
178.7044052408
 31
0.0
  0
MTEXT
  5
1A3
330
194
100
AcDbEntity
  8
0
  6
Continuous
 62
     7
370
     0
100
AcDbMText
 10
53.2588260861
 20
181.4329318403
 30
0.0
 40
2.1166666667
 41
0.0
 71
     1
 72
     1
  1
44,8mm
  7
SLDTEXTSTYLE0
 73
     1
 44
1.0
  0
MTEXT
  5
1A4
330
194
100
AcDbEntity
  8
0
  6
Continuous
 62
     7
370
     0
100
AcDbMText
 10
54.7625167944
 20
178.0703268639
 30
0.0
 40
2.1166666667
 41
0.0
 71
     1
 72
     1
  1
1,76in
  7
SLDTEXTSTYLE0
 73
     1
 44
1.0
  0
ENDBLK
  5
196
330
194
100
AcDbEntity
  8
0
100
AcDbBlockEnd
  0
BLOCK
  5
1A8
330
1A7
100
AcDbEntity
  8
0
100
AcDbBlockBegin
  2
*D9
 70
     1
 10
0.0
 20
0.0
 30
0.0
  3
*D9
  1

  0
SOLID
  5
1AA
330
1A7
100
AcDbEntity
  8
0
  6
Continuous
 62
     7
370
     0
100
AcDbTrace
 10
46.3905965606
 20
171.5328802314
 30
0.0
 11
43.2155965606
 21
172.0408802314
 31
0.0
 12
43.2155965606
 22
171.0248802314
 32
0.0
 13
43.2155965606
 23
171.0248802314
 33
0.0
  0
SOLID
  5
1AB
330
1A7
100
AcDbEntity
  8
0
  6
Continuous
 62
     7
370
     0
100
AcDbTrace
 10
70.8905965606
 20
171.5328802314
 30
0.0
 11
74.0655965606
 21
171.0248802314
 31
0.0
 12
74.0655965606
 22
172.0408802314
 32
0.0
 13
74.0655965606
 23
172.0408802314
 33
0.0
  0
LINE
  5
1AC
330
1A7
100
AcDbEntity
  8
0
  6
Continuous
 62
     7
370
     0
100
AcDbLine
 10
46.3905965606
 20
142.2744052408
 30
0.0
 11
46.3905965606
 21
173.3108802314
 31
0.0
  0
LINE
  5
1AD
330
1A7
100
AcDbEntity
  8
0
  6
Continuous
 62
     7
370
     0
100
AcDbLine
 10
70.8905965606
 20
142.2744052408
 30
0.0
 11
70.8905965606
 21
173.3108802314
 31
0.0
  0
LINE
  5
1AE
330
1A7
100
AcDbEntity
  8
0
  6
Continuous
 62
     7
370
     0
100
AcDbLine
 10
46.3905965606
 20
171.5328802314
 30
0.0
 11
40.0405965606
 21
171.5328802314
 31
0.0
  0
LINE
  5
1AF
330
1A7
100
AcDbEntity
  8
0
  6
Continuous
 62
     7
370
     0
100
AcDbLine
 10
70.8905965606
 20
171.5328802314
 30
0.0
 11
77.2405965606
 21
171.5328802314
 31
0.0
  0
MTEXT
  5
1B0
330
1A7
100
AcDbEntity
  8
0
  6
Continuous
 62
     7
370
     0
100
AcDbMText
 10
55.3901674452
 20
172.5801043426
 30
0.0
 40
2.1166666667
 41
0.0
 71
     1
 72
     1
  1
1"-32
  7
SLDTEXTSTYLE0
 73
     1
 44
1.0
  0
MTEXT
  5
1B1
330
1A7
100
AcDbEntity
  8
0
  6
Continuous
 62
     7
370
     0
100
AcDbMText
 10
52.3296221578
 20
169.2174993663
 30
0.0
 40
2.1166666667
 41
0.0
 71
     1
 72
     1
  1
C-MOUNT
  7
SLDTEXTSTYLE0
 73
     1
 44
1.0
  0
ENDBLK
  5
1A9
330
1A7
100
AcDbEntity
  8
0
100
AcDbBlockEnd
  0
BLOCK
  5
1B3
330
1B2
100
AcDbEntity
  8
0
100
AcDbBlockBegin
  2
SW_NOTE_4
 70
     0
 10
0.0
 20
0.0
 30
0.0
  3
SW_NOTE_4
  1

  0
MTEXT
  5
1B5
330
1B2
100
AcDbEntity
  8
0
  6
Continuous
 62
     0
370
     0
100
AcDbMText
 10
-16.2364097551
 20
1.6287313777
 30
0.0
 40
2.1166666667
 41
0.0
 71
     1
 72
     1
  1
M2x0.4 FOR
  7
SLDTEXTSTYLE0
 73
     1
 44
1.0
  0
MTEXT
  5
1B6
330
1B2
100
AcDbEntity
  8
0
  6
Continuous
 62
     0
370
     0
100
AcDbMText
 10
-18.4785092489
 20
-1.1934908104
 30
0.0
 40
2.1166666667
 41
0.0
 71
     1
 72
     1
  1
PICKUP TOOL
  7
SLDTEXTSTYLE0
 73
     1
 44
1.0
  0
ENDBLK
  5
1B4
330
1B2
100
AcDbEntity
  8
0
100
AcDbBlockEnd
  0
BLOCK
  5
1BB
330
1BA
100
AcDbEntity
  8
0
100
AcDbBlockBegin
  2
SW_CENTERMARKSYMBOL_0
 70
     0
 10
0.0
 20
0.0
 30
0.0
  3
SW_CENTERMARKSYMBOL_0
  1

  0
LINE
  5
1BD
330
1BA
100
AcDbEntity
  8
0
  6
Continuous
 62
     0
370
     0
100
AcDbLine
 10
0.0
 20
0.0
 30
0.0
 11
0.0
 21
1.27
 31
0.0
  0
LINE
  5
1BE
330
1BA
100
AcDbEntity
  8
0
  6
Continuous
 62
     0
370
     0
100
AcDbLine
 10
0.0
 20
0.0
 30
0.0
 11
-1.27
 21
0.0
 31
0.0
  0
LINE
  5
1BF
330
1BA
100
AcDbEntity
  8
0
  6
Continuous
 62
     0
370
     0
100
AcDbLine
 10
0.0
 20
0.0
 30
0.0
 11
0.0
 21
-1.27
 31
0.0
  0
LINE
  5
1C0
330
1BA
100
AcDbEntity
  8
0
  6
Continuous
 62
     0
370
     0
100
AcDbLine
 10
0.0
 20
0.0
 30
0.0
 11
1.27
 21
0.0
 31
0.0
  0
ENDBLK
  5
1BC
330
1BA
100
AcDbEntity
  8
0
100
AcDbBlockEnd
  0
BLOCK
  5
1C3
330
1C2
100
AcDbEntity
  8
0
100
AcDbBlockBegin
  2
SW_CENTERMARKSYMBOL_1
 70
     0
 10
0.0
 20
0.0
 30
0.0
  3
SW_CENTERMARKSYMBOL_1
  1

  0
LINE
  5
1C5
330
1C2
100
AcDbEntity
  8
0
  6
Continuous
 62
     0
370
     0
100
AcDbLine
 10
0.0
 20
0.0
 30
0.0
 11
0.0
 21
1.27
 31
0.0
  0
LINE
  5
1C6
330
1C2
100
AcDbEntity
  8
0
  6
Continuous
 62
     0
370
     0
100
AcDbLine
 10
0.0
 20
0.0
 30
0.0
 11
-1.27
 21
0.0
 31
0.0
  0
LINE
  5
1C7
330
1C2
100
AcDbEntity
  8
0
  6
Continuous
 62
     0
370
     0
100
AcDbLine
 10
0.0
 20
0.0
 30
0.0
 11
0.0
 21
-1.27
 31
0.0
  0
LINE
  5
1C8
330
1C2
100
AcDbEntity
  8
0
  6
Continuous
 62
     0
370
     0
100
AcDbLine
 10
0.0
 20
0.0
 30
0.0
 11
1.27
 21
0.0
 31
0.0
  0
ENDBLK
  5
1C4
330
1C2
100
AcDbEntity
  8
0
100
AcDbBlockEnd
  0
BLOCK
  5
21F
330
21E
100
AcDbEntity
  8
0
100
AcDbBlockBegin
  2
*D13
 70
     1
 10
0.0
 20
0.0
 30
0.0
  3
*D13
  1

  0
SOLID
  5
221
330
21E
100
AcDbEntity
  8
0
  6
Continuous
 62
     7
370
     0
100
AcDbTrace
 10
134.6589514628
 20
167.2510586657
 30
0.0
 11
137.8339514628
 21
166.7430586657
 31
0.0
 12
137.8339514628
 22
167.7590586657
 32
0.0
 13
137.8339514628
 23
167.7590586657
 33
0.0
  0
SOLID
  5
222
330
21E
100
AcDbEntity
  8
0
  6
Continuous
 62
     7
370
     0
100
AcDbTrace
 10
121.7589514628
 20
167.2510586657
 30
0.0
 11
118.5839514628
 21
167.7590586657
 31
0.0
 12
118.5839514628
 22
166.7430586657
 32
0.0
 13
118.5839514628
 23
166.7430586657
 33
0.0
  0
LINE
  5
223
330
21E
100
AcDbEntity
  8
0
  6
Continuous
 62
     7
370
     0
100
AcDbLine
 10
102.223527616
 20
166.9988632924
 30
0.0
 11
102.223527616
 21
164.1406490625
 31
0.0
  0
LINE
  5
224
330
21E
100
AcDbEntity
  8
0
  6
Continuous
 62
     7
370
     0
100
AcDbLine
 10
102.223527616
 20
164.1406490625
 30
0.0
 11
102.6521996563
 21
164.1406490625
 31
0.0
  0
LINE
  5
225
330
21E
100
AcDbEntity
  8
0
  6
Continuous
 62
     7
370
     0
100
AcDbLine
 10
102.223527616
 20
166.9988632924
 30
0.0
 11
102.6521996563
 21
166.9988632924
 31
0.0
  0
LINE
  5
226
330
21E
100
AcDbEntity
  8
0
  6
Continuous
 62
     7
370
     0
100
AcDbLine
 10
111.6943753095
 20
166.9988632924
 30
0.0
 11
111.6943753095
 21
164.1406490625
 31
0.0
  0
LINE
  5
227
330
21E
100
AcDbEntity
  8
0
  6
Continuous
 62
     7
370
     0
100
AcDbLine
 10
111.6943753095
 20
164.1406490625
 30
0.0
 11
111.2657032693
 21
164.1406490625
 31
0.0
  0
LINE
  5
228
330
21E
100
AcDbEntity
  8
0
  6
Continuous
 62
     7
370
     0
100
AcDbLine
 10
111.6943753095
 20
166.9988632924
 30
0.0
 11
111.2657032693
 21
166.9988632924
 31
0.0
  0
LINE
  5
229
330
21E
100
AcDbEntity
  8
0
  6
Continuous
 62
     7
370
     0
100
AcDbLine
 10
134.6589514628
 20
146.7744052408
 30
0.0
 11
134.6589514628
 21
169.0290586657
 31
0.0
  0
LINE
  5
22A
330
21E
100
AcDbEntity
  8
0
  6
Continuous
 62
     7
370
     0
100
AcDbLine
 10
121.7589514628
 20
156.2744052408
 30
0.0
 11
121.7589514628
 21
169.0290586657
 31
0.0
  0
LINE
  5
22B
330
21E
100
AcDbEntity
  8
0
  6
Continuous
 62
     7
370
     0
100
AcDbLine
 10
134.6589514628
 20
167.2510586657
 30
0.0
 11
141.0089514628
 21
167.2510586657
 31
0.0
  0
LINE
  5
22C
330
21E
100
AcDbEntity
  8
0
  6
Continuous
 62
     7
370
     0
100
AcDbLine
 10
121.7589514628
 20
167.2510586657
 30
0.0
 11
114.5685591438
 21
167.2510586657
 31
0.0
  0
MTEXT
  5
22D
330
21E
100
AcDbEntity
  8
0
  6
Continuous
 62
     7
370
     0
100
AcDbMText
 10
101.5771809883
 20
169.9795852651
 30
0.0
 40
2.1166666667
 41
0.0
 71
     1
 72
     1
  1
12,9mm
  7
SLDTEXTSTYLE0
 73
     1
 44
1.0
  0
MTEXT
  5
22E
330
21E
100
AcDbEntity
  8
0
  6
Continuous
 62
     7
370
     0
100
AcDbMText
 10
103.0808716965
 20
166.6169802887
 30
0.0
 40
2.1166666667
 41
0.0
 71
     1
 72
     1
  1
0,51in
  7
SLDTEXTSTYLE0
 73
     1
 44
1.0
  0
ENDBLK
  5
220
330
21E
100
AcDbEntity
  8
0
100
AcDbBlockEnd
  0
BLOCK
  5
231
330
230
100
AcDbEntity
  8
0
100
AcDbBlockBegin
  2
*D14
 70
     1
 10
0.0
 20
0.0
 30
0.0
  3
*D14
  1

  0
SOLID
  5
233
330
230
100
AcDbEntity
  8
0
  6
Continuous
 62
     7
370
     0
100
AcDbTrace
 10
127.7689514628
 20
187.135359425
 30
0.0
 11
130.9439514628
 21
186.627359425
 31
0.0
 12
130.9439514628
 22
187.643359425
 32
0.0
 13
130.9439514628
 23
187.643359425
 33
0.0
  0
SOLID
  5
234
330
230
100
AcDbEntity
  8
0
  6
Continuous
 62
     7
370
     0
100
AcDbTrace
 10
172.7689514628
 20
187.135359425
 30
0.0
 11
169.5939514628
 21
187.643359425
 31
0.0
 12
169.5939514628
 22
186.627359425
 32
0.0
 13
169.5939514628
 23
186.627359425
 33
0.0
  0
LINE
  5
235
330
230
100
AcDbEntity
  8
0
  6
Continuous
 62
     7
370
     0
100
AcDbLine
 10
145.533527616
 20
186.8831640518
 30
0.0
 11
145.533527616
 21
184.0249498219
 31
0.0
  0
LINE
  5
236
330
230
100
AcDbEntity
  8
0
  6
Continuous
 62
     7
370
     0
100
AcDbLine
 10
145.533527616
 20
184.0249498219
 30
0.0
 11
145.9621996563
 21
184.0249498219
 31
0.0
  0
LINE
  5
237
330
230
100
AcDbEntity
  8
0
  6
Continuous
 62
     7
370
     0
100
AcDbLine
 10
145.533527616
 20
186.8831640518
 30
0.0
 11
145.9621996563
 21
186.8831640518
 31
0.0
  0
LINE
  5
238
330
230
100
AcDbEntity
  8
0
  6
Continuous
 62
     7
370
     0
100
AcDbLine
 10
155.0043753095
 20
186.8831640518
 30
0.0
 11
155.0043753095
 21
184.0249498219
 31
0.0
  0
LINE
  5
239
330
230
100
AcDbEntity
  8
0
  6
Continuous
 62
     7
370
     0
100
AcDbLine
 10
155.0043753095
 20
184.0249498219
 30
0.0
 11
154.5757032693
 21
184.0249498219
 31
0.0
  0
LINE
  5
23A
330
230
100
AcDbEntity
  8
0
  6
Continuous
 62
     7
370
     0
100
AcDbLine
 10
155.0043753095
 20
186.8831640518
 30
0.0
 11
154.5757032693
 21
186.8831640518
 31
0.0
  0
LINE
  5
23B
330
230
100
AcDbEntity
  8
0
  6
Continuous
 62
     7
370
     0
100
AcDbLine
 10
127.7689514628
 20
155.9744052408
 30
0.0
 11
127.7689514628
 21
188.913359425
 31
0.0
  0
LINE
  5
23C
330
230
100
AcDbEntity
  8
0
  6
Continuous
 62
     7
370
     0
100
AcDbLine
 10
172.7689514628
 20
155.8744052408
 30
0.0
 11
172.7689514628
 21
188.913359425
 31
0.0
  0
LINE
  5
23D
330
230
100
AcDbEntity
  8
0
  6
Continuous
 62
     7
370
     0
100
AcDbLine
 10
127.7689514628
 20
187.135359425
 30
0.0
 11
142.6593437817
 21
187.135359425
 31
0.0
  0
LINE
  5
23E
330
230
100
AcDbEntity
  8
0
  6
Continuous
 62
     7
370
     0
100
AcDbLine
 10
172.7689514628
 20
187.135359425
 30
0.0
 11
157.8785591438
 21
187.135359425
 31
0.0
  0
MTEXT
  5
23F
330
230
100
AcDbEntity
  8
0
  6
Continuous
 62
     7
370
     0
100
AcDbMText
 10
144.8871809883
 20
189.8638860244
 30
0.0
 40
2.1166666667
 41
0.0
 71
     1
 72
     1
  1
45,0mm
  7
SLDTEXTSTYLE0
 73
     1
 44
1.0
  0
MTEXT
  5
240
330
230
100
AcDbEntity
  8
0
  6
Continuous
 62
     7
370
     0
100
AcDbMText
 10
146.3908716965
 20
186.5012810481
 30
0.0
 40
2.1166666667
 41
0.0
 71
     1
 72
     1
  1
1,77in
  7
SLDTEXTSTYLE0
 73
     1
 44
1.0
  0
ENDBLK
  5
232
330
230
100
AcDbEntity
  8
0
100
AcDbBlockEnd
  0
BLOCK
  5
243
330
242
100
AcDbEntity
  8
0
100
AcDbBlockBegin
  2
*D15
 70
     1
 10
0.0
 20
0.0
 30
0.0
  3
*D15
  1

  0
SOLID
  5
245
330
242
100
AcDbEntity
  8
0
  6
Continuous
 62
     7
370
     0
100
AcDbTrace
 10
127.7689514628
 20
178.7044052408
 30
0.0
 11
130.9439514628
 21
178.1964052408
 31
0.0
 12
130.9439514628
 22
179.2124052408
 32
0.0
 13
130.9439514628
 23
179.2124052408
 33
0.0
  0
SOLID
  5
246
330
242
100
AcDbEntity
  8
0
  6
Continuous
 62
     7
370
     0
100
AcDbTrace
 10
121.7589514628
 20
178.7044052408
 30
0.0
 11
118.5839514628
 21
179.2124052408
 31
0.0
 12
118.5839514628
 22
178.1964052408
 32
0.0
 13
118.5839514628
 23
178.1964052408
 33
0.0
  0
LINE
  5
247
330
242
100
AcDbEntity
  8
0
  6
Continuous
 62
     7
370
     0
100
AcDbLine
 10
136.8744350448
 20
178.4522098676
 30
0.0
 11
136.8744350448
 21
175.5939956377
 31
0.0
  0
LINE
  5
248
330
242
100
AcDbEntity
  8
0
  6
Continuous
 62
     7
370
     0
100
AcDbLine
 10
136.8744350448
 20
175.5939956377
 30
0.0
 11
137.3031070851
 21
175.5939956377
 31
0.0
  0
LINE
  5
249
330
242
100
AcDbEntity
  8
0
  6
Continuous
 62
     7
370
     0
100
AcDbLine
 10
136.8744350448
 20
178.4522098676
 30
0.0
 11
137.3031070851
 21
178.4522098676
 31
0.0
  0
LINE
  5
24A
330
242
100
AcDbEntity
  8
0
  6
Continuous
 62
     7
370
     0
100
AcDbLine
 10
146.3452827384
 20
178.4522098676
 30
0.0
 11
146.3452827384
 21
175.5939956377
 31
0.0
  0
LINE
  5
24B
330
242
100
AcDbEntity
  8
0
  6
Continuous
 62
     7
370
     0
100
AcDbLine
 10
146.3452827384
 20
175.5939956377
 30
0.0
 11
145.9166106981
 21
175.5939956377
 31
0.0
  0
LINE
  5
24C
330
242
100
AcDbEntity
  8
0
  6
Continuous
 62
     7
370
     0
100
AcDbLine
 10
146.3452827384
 20
178.4522098676
 30
0.0
 11
145.9166106981
 21
178.4522098676
 31
0.0
  0
LINE
  5
24D
330
242
100
AcDbEntity
  8
0
  6
Continuous
 62
     7
370
     0
100
AcDbLine
 10
127.7689514628
 20
155.9744052408
 30
0.0
 11
127.7689514628
 21
180.4824052408
 31
0.0
  0
LINE
  5
24E
330
242
100
AcDbEntity
  8
0
  6
Continuous
 62
     7
370
     0
100
AcDbLine
 10
121.7589514628
 20
156.2744052408
 30
0.0
 11
121.7589514628
 21
180.4824052408
 31
0.0
  0
LINE
  5
24F
330
242
100
AcDbEntity
  8
0
  6
Continuous
 62
     7
370
     0
100
AcDbLine
 10
127.7689514628
 20
178.7044052408
 30
0.0
 11
134.0002512105
 21
178.7044052408
 31
0.0
  0
LINE
  5
250
330
242
100
AcDbEntity
  8
0
  6
Continuous
 62
     7
370
     0
100
AcDbLine
 10
121.7589514628
 20
178.7044052408
 30
0.0
 11
115.4089514628
 21
178.7044052408
 31
0.0
  0
MTEXT
  5
251
330
242
100
AcDbEntity
  8
0
  6
Continuous
 62
     7
370
     0
100
AcDbMText
 10
137.0106485903
 20
181.4329318403
 30
0.0
 40
2.1166666667
 41
0.0
 71
     1
 72
     1
  1
6,0mm
  7
SLDTEXTSTYLE0
 73
     1
 44
1.0
  0
MTEXT
  5
252
330
242
100
AcDbEntity
  8
0
  6
Continuous
 62
     7
370
     0
100
AcDbMText
 10
137.7317791254
 20
178.0703268639
 30
0.0
 40
2.1166666667
 41
0.0
 71
     1
 72
     1
  1
0,24in
  7
SLDTEXTSTYLE0
 73
     1
 44
1.0
  0
ENDBLK
  5
244
330
242
100
AcDbEntity
  8
0
100
AcDbBlockEnd
  0
BLOCK
  5
255
330
254
100
AcDbEntity
  8
0
100
AcDbBlockBegin
  2
*D16
 70
     1
 10
0.0
 20
0.0
 30
0.0
  3
*D16
  1

  0
SOLID
  5
257
330
254
100
AcDbEntity
  8
0
  6
Continuous
 62
     7
370
     0
100
AcDbTrace
 10
172.7689514628
 20
178.7044052408
 30
0.0
 11
169.5939514628
 21
179.2124052408
 31
0.0
 12
169.5939514628
 22
178.1964052408
 32
0.0
 13
169.5939514628
 23
178.1964052408
 33
0.0
  0
SOLID
  5
258
330
254
100
AcDbEntity
  8
0
  6
Continuous
 62
     7
370
     0
100
AcDbTrace
 10
176.6189514628
 20
178.7044052408
 30
0.0
 11
179.7939514628
 21
178.1964052408
 31
0.0
 12
179.7939514628
 22
179.2124052408
 32
0.0
 13
179.7939514628
 23
179.2124052408
 33
0.0
  0
LINE
  5
259
330
254
100
AcDbEntity
  8
0
  6
Continuous
 62
     7
370
     0
100
AcDbLine
 10
154.229659364
 20
178.4522098676
 30
0.0
 11
154.229659364
 21
175.5939956377
 31
0.0
  0
LINE
  5
25A
330
254
100
AcDbEntity
  8
0
  6
Continuous
 62
     7
370
     0
100
AcDbLine
 10
154.229659364
 20
175.5939956377
 30
0.0
 11
154.6583314043
 21
175.5939956377
 31
0.0
  0
LINE
  5
25B
330
254
100
AcDbEntity
  8
0
  6
Continuous
 62
     7
370
     0
100
AcDbLine
 10
154.229659364
 20
178.4522098676
 30
0.0
 11
154.6583314043
 21
178.4522098676
 31
0.0
  0
LINE
  5
25C
330
254
100
AcDbEntity
  8
0
  6
Continuous
 62
     7
370
     0
100
AcDbLine
 10
163.7005070576
 20
178.4522098676
 30
0.0
 11
163.7005070576
 21
175.5939956377
 31
0.0
  0
LINE
  5
25D
330
254
100
AcDbEntity
  8
0
  6
Continuous
 62
     7
370
     0
100
AcDbLine
 10
163.7005070576
 20
175.5939956377
 30
0.0
 11
163.2718350173
 21
175.5939956377
 31
0.0
  0
LINE
  5
25E
330
254
100
AcDbEntity
  8
0
  6
Continuous
 62
     7
370
     0
100
AcDbLine
 10
163.7005070576
 20
178.4522098676
 30
0.0
 11
163.2718350173
 21
178.4522098676
 31
0.0
  0
LINE
  5
25F
330
254
100
AcDbEntity
  8
0
  6
Continuous
 62
     7
370
     0
100
AcDbLine
 10
172.7689514628
 20
155.8744052408
 30
0.0
 11
172.7689514628
 21
180.4824052408
 31
0.0
  0
LINE
  5
260
330
254
100
AcDbEntity
  8
0
  6
Continuous
 62
     7
370
     0
100
AcDbLine
 10
176.6189514628
 20
143.5244052408
 30
0.0
 11
176.6189514628
 21
180.4824052408
 31
0.0
  0
LINE
  5
261
330
254
100
AcDbEntity
  8
0
  6
Continuous
 62
     7
370
     0
100
AcDbLine
 10
172.7689514628
 20
178.7044052408
 30
0.0
 11
166.5746908919
 21
178.7044052408
 31
0.0
  0
LINE
  5
262
330
254
100
AcDbEntity
  8
0
  6
Continuous
 62
     7
370
     0
100
AcDbLine
 10
176.6189514628
 20
178.7044052408
 30
0.0
 11
182.9689514628
 21
178.7044052408
 31
0.0
  0
MTEXT
  5
263
330
254
100
AcDbEntity
  8
0
  6
Continuous
 62
     7
370
     0
100
AcDbMText
 10
154.3658729096
 20
181.4329318403
 30
0.0
 40
2.1166666667
 41
0.0
 71
     1
 72
     1
  1
3,9mm
  7
SLDTEXTSTYLE0
 73
     1
 44
1.0
  0
MTEXT
  5
264
330
254
100
AcDbEntity
  8
0
  6
Continuous
 62
     7
370
     0
100
AcDbMText
 10
155.0870034446
 20
178.0703268639
 30
0.0
 40
2.1166666667
 41
0.0
 71
     1
 72
     1
  1
0,15in
  7
SLDTEXTSTYLE0
 73
     1
 44
1.0
  0
ENDBLK
  5
256
330
254
100
AcDbEntity
  8
0
100
AcDbBlockEnd
  0
BLOCK
  5
267
330
266
100
AcDbEntity
  8
0
100
AcDbBlockBegin
  2
*D17
 70
     1
 10
0.0
 20
0.0
 30
0.0
  3
*D17
  1

  0
SOLID
  5
269
330
266
100
AcDbEntity
  8
0
  6
Continuous
 62
     7
370
     0
100
AcDbTrace
 10
121.7589514628
 20
196.7044052408
 30
0.0
 11
124.9339514628
 21
196.1964052408
 31
0.0
 12
124.9339514628
 22
197.2124052408
 32
0.0
 13
124.9339514628
 23
197.2124052408
 33
0.0
  0
SOLID
  5
26A
330
266
100
AcDbEntity
  8
0
  6
Continuous
 62
     7
370
     0
100
AcDbTrace
 10
176.6189514628
 20
196.7044052408
 30
0.0
 11
173.4439514628
 21
197.2124052408
 31
0.0
 12
173.4439514628
 22
196.1964052408
 32
0.0
 13
173.4439514628
 23
196.1964052408
 33
0.0
  0
LINE
  5
26B
330
266
100
AcDbEntity
  8
0
  6
Continuous
 62
     7
370
     0
100
AcDbLine
 10
144.453527616
 20
196.4522098676
 30
0.0
 11
144.453527616
 21
193.5939956377
 31
0.0
  0
LINE
  5
26C
330
266
100
AcDbEntity
  8
0
  6
Continuous
 62
     7
370
     0
100
AcDbLine
 10
144.453527616
 20
193.5939956377
 30
0.0
 11
144.8821996563
 21
193.5939956377
 31
0.0
  0
LINE
  5
26D
330
266
100
AcDbEntity
  8
0
  6
Continuous
 62
     7
370
     0
100
AcDbLine
 10
144.453527616
 20
196.4522098676
 30
0.0
 11
144.8821996563
 21
196.4522098676
 31
0.0
  0
LINE
  5
26E
330
266
100
AcDbEntity
  8
0
  6
Continuous
 62
     7
370
     0
100
AcDbLine
 10
153.9243753095
 20
196.4522098676
 30
0.0
 11
153.9243753095
 21
193.5939956377
 31
0.0
  0
LINE
  5
26F
330
266
100
AcDbEntity
  8
0
  6
Continuous
 62
     7
370
     0
100
AcDbLine
 10
153.9243753095
 20
193.5939956377
 30
0.0
 11
153.4957032693
 21
193.5939956377
 31
0.0
  0
LINE
  5
270
330
266
100
AcDbEntity
  8
0
  6
Continuous
 62
     7
370
     0
100
AcDbLine
 10
153.9243753095
 20
196.4522098676
 30
0.0
 11
153.4957032693
 21
196.4522098676
 31
0.0
  0
LINE
  5
271
330
266
100
AcDbEntity
  8
0
  6
Continuous
 62
     7
370
     0
100
AcDbLine
 10
121.7589514628
 20
156.2744052408
 30
0.0
 11
121.7589514628
 21
198.4824052408
 31
0.0
  0
LINE
  5
272
330
266
100
AcDbEntity
  8
0
  6
Continuous
 62
     7
370
     0
100
AcDbLine
 10
176.6189514628
 20
143.5244052408
 30
0.0
 11
176.6189514628
 21
198.4824052408
 31
0.0
  0
LINE
  5
273
330
266
100
AcDbEntity
  8
0
  6
Continuous
 62
     7
370
     0
100
AcDbLine
 10
121.7589514628
 20
196.7044052408
 30
0.0
 11
141.5793437817
 21
196.7044052408
 31
0.0
  0
LINE
  5
274
330
266
100
AcDbEntity
  8
0
  6
Continuous
 62
     7
370
     0
100
AcDbLine
 10
176.6189514628
 20
196.7044052408
 30
0.0
 11
156.7985591438
 21
196.7044052408
 31
0.0
  0
MTEXT
  5
275
330
266
100
AcDbEntity
  8
0
  6
Continuous
 62
     7
370
     0
100
AcDbMText
 10
143.8071809883
 20
199.4329318403
 30
0.0
 40
2.1166666667
 41
0.0
 71
     1
 72
     1
  1
54,9mm
  7
SLDTEXTSTYLE0
 73
     1
 44
1.0
  0
MTEXT
  5
276
330
266
100
AcDbEntity
  8
0
  6
Continuous
 62
     7
370
     0
100
AcDbMText
 10
145.3108716965
 20
196.0703268639
 30
0.0
 40
2.1166666667
 41
0.0
 71
     1
 72
     1
  1
2,16in
  7
SLDTEXTSTYLE0
 73
     1
 44
1.0
  0
ENDBLK
  5
268
330
266
100
AcDbEntity
  8
0
100
AcDbBlockEnd
  0
BLOCK
  5
278
330
277
100
AcDbEntity
  8
0
100
AcDbBlockBegin
  2
SW_NOTE_5
 70
     0
 10
0.0
 20
0.0
 30
0.0
  3
SW_NOTE_5
  1

  0
MTEXT
  5
27A
330
277
100
AcDbEntity
  8
0
  6
Continuous
 62
     0
370
     0
100
AcDbMText
 10
-12.1511822538
 20
1.6298358024
 30
0.0
 40
2.1166666667
 41
0.0
 71
     1
 72
     1
  1
OPTICAL
  7
SLDTEXTSTYLE0
 73
     1
 44
1.0
  0
MTEXT
  5
27B
330
277
100
AcDbEntity
  8
0
  6
Continuous
 62
     0
370
     0
100
AcDbMText
 10
-15.7259978326
 20
-1.1923863858
 30
0.0
 40
2.1166666667
 41
0.0
 71
     1
 72
     1
  1
REFERENCE
  7
SLDTEXTSTYLE0
 73
     1
 44
1.0
  0
MTEXT
  5
27C
330
277
100
AcDbEntity
  8
0
  6
Continuous
 62
     0
370
     0
100
AcDbMText
 10
-9.1643301742
 20
-4.0146085739
 30
0.0
 40
2.1166666667
 41
0.0
 71
     1
 72
     1
  1
PLANE
  7
SLDTEXTSTYLE0
 73
     1
 44
1.0
  0
ENDBLK
  5
279
330
277
100
AcDbEntity
  8
0
100
AcDbBlockEnd
  0
BLOCK
  5
37F
330
37E
100
AcDbEntity
  8
0
100
AcDbBlockBegin
  2
*D19
 70
     1
 10
0.0
 20
0.0
 30
0.0
  3
*D19
  1

  0
SOLID
  5
381
330
37E
100
AcDbEntity
  8
0
  6
Continuous
 62
     7
370
     0
100
AcDbTrace
 10
127.7689514628
 20
43.2818307567
 30
0.0
 11
124.5939514628
 21
43.7898307567
 31
0.0
 12
124.5939514628
 22
42.7738307567
 32
0.0
 13
124.5939514628
 23
42.7738307567
 33
0.0
  0
SOLID
  5
382
330
37E
100
AcDbEntity
  8
0
  6
Continuous
 62
     7
370
     0
100
AcDbTrace
 10
139.7689514628
 20
43.2818307567
 30
0.0
 11
142.9439514628
 21
42.7738307567
 31
0.0
 12
142.9439514628
 22
43.7898307567
 32
0.0
 13
142.9439514628
 23
43.7898307567
 33
0.0
  0
LINE
  5
383
330
37E
100
AcDbEntity
  8
0
  6
Continuous
 62
     7
370
     0
100
AcDbLine
 10
109.5744059774
 20
43.0296353835
 30
0.0
 11
109.5744059774
 21
40.1714211536
 31
0.0
  0
LINE
  5
384
330
37E
100
AcDbEntity
  8
0
  6
Continuous
 62
     7
370
     0
100
AcDbLine
 10
109.5744059774
 20
40.1714211536
 30
0.0
 11
110.0030780176
 21
40.1714211536
 31
0.0
  0
LINE
  5
385
330
37E
100
AcDbEntity
  8
0
  6
Continuous
 62
     7
370
     0
100
AcDbLine
 10
109.5744059774
 20
43.0296353835
 30
0.0
 11
110.0030780176
 21
43.0296353835
 31
0.0
  0
LINE
  5
386
330
37E
100
AcDbEntity
  8
0
  6
Continuous
 62
     7
370
     0
100
AcDbLine
 10
119.0452536709
 20
43.0296353835
 30
0.0
 11
119.0452536709
 21
40.1714211536
 31
0.0
  0
LINE
  5
387
330
37E
100
AcDbEntity
  8
0
  6
Continuous
 62
     7
370
     0
100
AcDbLine
 10
119.0452536709
 20
40.1714211536
 30
0.0
 11
118.6165816307
 21
40.1714211536
 31
0.0
  0
LINE
  5
388
330
37E
100
AcDbEntity
  8
0
  6
Continuous
 62
     7
370
     0
100
AcDbLine
 10
119.0452536709
 20
43.0296353835
 30
0.0
 11
118.6165816307
 21
43.0296353835
 31
0.0
  0
LINE
  5
389
330
37E
100
AcDbEntity
  8
0
  6
Continuous
 62
     7
370
     0
100
AcDbLine
 10
127.7689514628
 20
52.0119338344
 30
0.0
 11
127.7689514628
 21
41.5038307567
 31
0.0
  0
LINE
  5
38A
330
37E
100
AcDbEntity
  8
0
  6
Continuous
 62
     7
370
     0
100
AcDbLine
 10
139.7689514628
 20
73.1419338344
 30
0.0
 11
139.7689514628
 21
41.5038307567
 31
0.0
  0
LINE
  5
38B
330
37E
100
AcDbEntity
  8
0
  6
Continuous
 62
     7
370
     0
100
AcDbLine
 10
127.7689514628
 20
43.2818307567
 30
0.0
 11
121.9194375052
 21
43.2818307567
 31
0.0
  0
LINE
  5
38C
330
37E
100
AcDbEntity
  8
0
  6
Continuous
 62
     7
370
     0
100
AcDbLine
 10
139.7689514628
 20
43.2818307567
 30
0.0
 11
146.1189514628
 21
43.2818307567
 31
0.0
  0
MTEXT
  5
38D
330
37E
100
AcDbEntity
  8
0
  6
Continuous
 62
     7
370
     0
100
AcDbMText
 10
108.9280593497
 20
46.0103573562
 30
0.0
 40
2.1166666667
 41
0.0
 71
     1
 72
     1
  1
12,0mm
  7
SLDTEXTSTYLE0
 73
     1
 44
1.0
  0
MTEXT
  5
38E
330
37E
100
AcDbEntity
  8
0
  6
Continuous
 62
     7
370
     0
100
AcDbMText
 10
110.4317500579
 20
42.6477523798
 30
0.0
 40
2.1166666667
 41
0.0
 71
     1
 72
     1
  1
0,47in
  7
SLDTEXTSTYLE0
 73
     1
 44
1.0
  0
ENDBLK
  5
380
330
37E
100
AcDbEntity
  8
0
100
AcDbBlockEnd
  0
BLOCK
  5
391
330
390
100
AcDbEntity
  8
0
100
AcDbBlockBegin
  2
*D20
 70
     1
 10
0.0
 20
0.0
 30
0.0
  3
*D20
  1

  0
SOLID
  5
393
330
390
100
AcDbEntity
  8
0
  6
Continuous
 62
     7
370
     0
100
AcDbTrace
 10
127.7689514628
 20
33.6542608903
 30
0.0
 11
124.5939514628
 21
34.1622608903
 31
0.0
 12
124.5939514628
 22
33.1462608903
 32
0.0
 13
124.5939514628
 23
33.1462608903
 33
0.0
  0
SOLID
  5
394
330
390
100
AcDbEntity
  8
0
  6
Continuous
 62
     7
370
     0
100
AcDbTrace
 10
150.1689514628
 20
33.6542608903
 30
0.0
 11
153.3439514628
 21
33.1462608903
 31
0.0
 12
153.3439514628
 22
34.1622608903
 32
0.0
 13
153.3439514628
 23
34.1622608903
 33
0.0
  0
LINE
  5
395
330
390
100
AcDbEntity
  8
0
  6
Continuous
 62
     7
370
     0
100
AcDbLine
 10
134.233527616
 20
33.4020655171
 30
0.0
 11
134.233527616
 21
30.5438512872
 31
0.0
  0
LINE
  5
396
330
390
100
AcDbEntity
  8
0
  6
Continuous
 62
     7
370
     0
100
AcDbLine
 10
134.233527616
 20
30.5438512872
 30
0.0
 11
134.6621996563
 21
30.5438512872
 31
0.0
  0
LINE
  5
397
330
390
100
AcDbEntity
  8
0
  6
Continuous
 62
     7
370
     0
100
AcDbLine
 10
134.233527616
 20
33.4020655171
 30
0.0
 11
134.6621996563
 21
33.4020655171
 31
0.0
  0
LINE
  5
398
330
390
100
AcDbEntity
  8
0
  6
Continuous
 62
     7
370
     0
100
AcDbLine
 10
143.7043753095
 20
33.4020655171
 30
0.0
 11
143.7043753095
 21
30.5438512872
 31
0.0
  0
LINE
  5
399
330
390
100
AcDbEntity
  8
0
  6
Continuous
 62
     7
370
     0
100
AcDbLine
 10
143.7043753095
 20
30.5438512872
 30
0.0
 11
143.2757032693
 21
30.5438512872
 31
0.0
  0
LINE
  5
39A
330
390
100
AcDbEntity
  8
0
  6
Continuous
 62
     7
370
     0
100
AcDbLine
 10
143.7043753095
 20
33.4020655171
 30
0.0
 11
143.2757032693
 21
33.4020655171
 31
0.0
  0
LINE
  5
39B
330
390
100
AcDbEntity
  8
0
  6
Continuous
 62
     7
370
     0
100
AcDbLine
 10
127.7689514628
 20
52.0119338344
 30
0.0
 11
127.7689514628
 21
31.8762608903
 31
0.0
  0
LINE
  5
39C
330
390
100
AcDbEntity
  8
0
  6
Continuous
 62
     7
370
     0
100
AcDbLine
 10
150.1689514628
 20
73.1419338344
 30
0.0
 11
150.1689514628
 21
31.8762608903
 31
0.0
  0
LINE
  5
39D
330
390
100
AcDbEntity
  8
0
  6
Continuous
 62
     7
370
     0
100
AcDbLine
 10
127.7689514628
 20
33.6542608903
 30
0.0
 11
121.4189514628
 21
33.6542608903
 31
0.0
  0
LINE
  5
39E
330
390
100
AcDbEntity
  8
0
  6
Continuous
 62
     7
370
     0
100
AcDbLine
 10
150.1689514628
 20
33.6542608903
 30
0.0
 11
156.5189514628
 21
33.6542608903
 31
0.0
  0
MTEXT
  5
39F
330
390
100
AcDbEntity
  8
0
  6
Continuous
 62
     7
370
     0
100
AcDbMText
 10
133.5871809883
 20
36.3827874897
 30
0.0
 40
2.1166666667
 41
0.0
 71
     1
 72
     1
  1
22,4mm
  7
SLDTEXTSTYLE0
 73
     1
 44
1.0
  0
MTEXT
  5
3A0
330
390
100
AcDbEntity
  8
0
  6
Continuous
 62
     7
370
     0
100
AcDbMText
 10
135.0908716965
 20
33.0201825134
 30
0.0
 40
2.1166666667
 41
0.0
 71
     1
 72
     1
  1
0,88in
  7
SLDTEXTSTYLE0
 73
     1
 44
1.0
  0
ENDBLK
  5
392
330
390
100
AcDbEntity
  8
0
100
AcDbBlockEnd
  0
BLOCK
  5
3A2
330
3A1
100
AcDbEntity
  8
0
100
AcDbBlockBegin
  2
SW_NOTE_6
 70
     0
 10
0.0
 20
0.0
 30
0.0
  3
SW_NOTE_6
  1

  0
MTEXT
  5
3A4
330
3A1
100
AcDbEntity
  8
0
  6
Continuous
 62
     0
370
     0
100
AcDbMText
 10
-9.9225716055
 20
1.6298214317
 30
0.0
 40
2.1166666667
 41
0.0
 71
     1
 72
     1
  1
M4x0.7
  7
SLDTEXTSTYLE0
 73
     1
 44
1.0
  0
MTEXT
  5
3A5
330
3A1
100
AcDbEntity
  8
0
  6
Continuous
 62
     0
370
     0
100
AcDbMText
 10
-16.5508744628
 20
-1.1924007565
 30
0.0
 40
2.1166666667
 41
0.0
 71
     1
 72
     1
  1
DEPTH 6mm
  7
SLDTEXTSTYLE0
 73
     1
 44
1.0
  0
ENDBLK
  5
3A3
330
3A1
100
AcDbEntity
  8
0
100
AcDbBlockEnd
  0
BLOCK
  5
3A9
330
3A8
100
AcDbEntity
  8
0
100
AcDbBlockBegin
  2
SW_NOTE_7
 70
     0
 10
0.0
 20
0.0
 30
0.0
  3
SW_NOTE_7
  1

  0
MTEXT
  5
3AB
330
3A8
100
AcDbEntity
  8
0
  6
Continuous
 62
     0
370
     0
100
AcDbMText
 10
-8.1617788223
 20
1.6285035695
 30
0.0
 40
2.1166666667
 41
0.0
 71
     1
 72
     1
  1
#8-32
  7
SLDTEXTSTYLE0
 73
     1
 44
1.0
  0
MTEXT
  5
3AC
330
3A8
100
AcDbEntity
  8
0
  6
Continuous
 62
     0
370
     0
100
AcDbMText
 10
-16.5500503776
 20
-1.1937186186
 30
0.0
 40
2.1166666667
 41
0.0
 71
     1
 72
     1
  1
DEPTH 6mm
  7
SLDTEXTSTYLE0
 73
     1
 44
1.0
  0
ENDBLK
  5
3AA
330
3A8
100
AcDbEntity
  8
0
100
AcDbBlockEnd
  0
BLOCK
  5
3B0
330
3AF
100
AcDbEntity
  8
0
100
AcDbBlockBegin
  2
SW_CENTERMARKSYMBOL_2
 70
     0
 10
0.0
 20
0.0
 30
0.0
  3
SW_CENTERMARKSYMBOL_2
  1

  0
LINE
  5
3B2
330
3AF
100
AcDbEntity
  8
0
  6
Continuous
 62
     0
370
     0
100
AcDbLine
 10
0.0
 20
0.0
 30
0.0
 11
0.0
 21
1.27
 31
0.0
  0
LINE
  5
3B3
330
3AF
100
AcDbEntity
  8
0
  6
Continuous
 62
     0
370
     0
100
AcDbLine
 10
0.0
 20
0.0
 30
0.0
 11
-1.27
 21
0.0
 31
0.0
  0
LINE
  5
3B4
330
3AF
100
AcDbEntity
  8
0
  6
Continuous
 62
     0
370
     0
100
AcDbLine
 10
0.0
 20
0.0
 30
0.0
 11
0.0
 21
-1.27
 31
0.0
  0
LINE
  5
3B5
330
3AF
100
AcDbEntity
  8
0
  6
Continuous
 62
     0
370
     0
100
AcDbLine
 10
0.0
 20
0.0
 30
0.0
 11
1.27
 21
0.0
 31
0.0
  0
ENDBLK
  5
3B1
330
3AF
100
AcDbEntity
  8
0
100
AcDbBlockEnd
  0
BLOCK
  5
3B8
330
3B7
100
AcDbEntity
  8
0
100
AcDbBlockBegin
  2
SW_CENTERMARKSYMBOL_3
 70
     0
 10
0.0
 20
0.0
 30
0.0
  3
SW_CENTERMARKSYMBOL_3
  1

  0
LINE
  5
3BA
330
3B7
100
AcDbEntity
  8
0
  6
Continuous
 62
     0
370
     0
100
AcDbLine
 10
0.0
 20
0.0
 30
0.0
 11
0.0
 21
1.27
 31
0.0
  0
LINE
  5
3BB
330
3B7
100
AcDbEntity
  8
0
  6
Continuous
 62
     0
370
     0
100
AcDbLine
 10
0.0
 20
0.0
 30
0.0
 11
-1.27
 21
0.0
 31
0.0
  0
LINE
  5
3BC
330
3B7
100
AcDbEntity
  8
0
  6
Continuous
 62
     0
370
     0
100
AcDbLine
 10
0.0
 20
0.0
 30
0.0
 11
0.0
 21
-1.27
 31
0.0
  0
LINE
  5
3BD
330
3B7
100
AcDbEntity
  8
0
  6
Continuous
 62
     0
370
     0
100
AcDbLine
 10
0.0
 20
0.0
 30
0.0
 11
1.27
 21
0.0
 31
0.0
  0
ENDBLK
  5
3B9
330
3B7
100
AcDbEntity
  8
0
100
AcDbBlockEnd
  0
ENDSEC
  0
SECTION
  2
ENTITIES
  0
LINE
  5
52
330
1F
100
AcDbEntity
  8
0
  6
Continuous
 62
     7
370
     0
100
AcDbLine
 10
1.5793501011
 20
214.6453799966
 30
0.0
 11
277.9892068491
 21
214.6453799966
 31
0.0
  0
LINE
  5
53
330
1F
100
AcDbEntity
  8
0
  6
Continuous
 62
     7
370
     0
100
AcDbLine
 10
1.5793501011
 20
214.6453799966
 30
0.0
 11
1.5793501011
 21
0.9031642596
 31
0.0
  0
LINE
  5
54
330
1F
100
AcDbEntity
  8
0
  6
Continuous
 62
     7
370
     0
100
AcDbLine
 10
277.9892068491
 20
0.9031642596
 30
0.0
 11
1.5793501011
 21
0.9031642596
 31
0.0
  0
LINE
  5
55
330
1F
100
AcDbEntity
  8
0
  6
Continuous
 62
     7
370
     0
100
AcDbLine
 10
277.9892068491
 20
0.9031642596
 30
0.0
 11
277.9892068491
 21
214.6453799966
 31
0.0
  0
LINE
  5
56
330
1F
100
AcDbEntity
  8
0
  6
Continuous
 62
     7
370
     0
100
AcDbLine
 10
215.7427640041
 20
12.2958890132
 30
0.0
 11
171.6327596684
 21
12.2958890132
 31
0.0
  0
LINE
  5
57
330
1F
100
AcDbEntity
  8
0
  6
Continuous
 62
     7
370
     0
100
AcDbLine
 10
171.6327596684
 20
12.2958890132
 30
0.0
 11
171.6327596684
 21
26.1661402506
 31
0.0
  0
LINE
  5
58
330
1F
100
AcDbEntity
  8
0
  6
Continuous
 62
     7
370
     0
100
AcDbLine
 10
171.6327596684
 20
0.9031642596
 30
0.0
 11
171.6327596684
 21
26.1661402506
 31
0.0
  0
LINE
  5
59
330
1F
100
AcDbEntity
  8
0
  6
Continuous
 62
     7
370
     0
100
AcDbLine
 10
215.7427640041
 20
17.1604579552
 30
0.0
 11
277.9892068491
 21
17.1604579552
 31
0.0
  0
LINE
  5
5A
330
1F
100
AcDbEntity
  8
0
  6
Continuous
 62
     7
370
     0
100
AcDbLine
 10
215.7427640041
 20
35.2394508358
 30
0.0
 11
215.7427640041
 21
0.9031642596
 31
0.0
  0
LINE
  5
5B
330
1F
100
AcDbEntity
  8
0
  6
Continuous
 62
     7
370
     0
100
AcDbLine
 10
215.7427640041
 20
26.1661402506
 30
0.0
 11
171.6327596684
 21
26.1661402506
 31
0.0
  0
LINE
  5
5C
330
1F
100
AcDbEntity
  8
0
  6
Continuous
 62
     7
370
     0
100
AcDbLine
 10
215.7427640041
 20
9.1409200612
 30
0.0
 11
277.9892068491
 21
9.1409200612
 31
0.0
  0
LINE
  5
5D
330
1F
100
AcDbEntity
  8
0
  6
Continuous
 62
     7
370
     0
100
AcDbLine
 10
215.7427640041
 20
16.9216824031
 30
0.0
 11
171.6327596684
 21
16.9216824031
 31
0.0
  0
LINE
  5
5E
330
1F
100
AcDbEntity
  8
0
  6
Continuous
 62
     7
370
     0
100
AcDbLine
 10
215.7427640041
 20
21.4874005542
 30
0.0
 11
171.6327596684
 21
21.4874005542
 31
0.0
  0
LINE
  5
5F
330
1F
100
AcDbEntity
  8
0
  6
Continuous
 62
     7
370
     0
100
AcDbLine
 10
186.1338100705
 20
26.1661402506
 30
0.0
 11
186.1338100705
 21
12.2958890132
 31
0.0
  0
LINE
  5
60
330
1F
100
AcDbEntity
  8
0
  6
Continuous
 62
     7
370
     0
100
AcDbLine
 10
198.2145906188
 20
26.1661402506
 30
0.0
 11
198.2145906188
 21
12.2958890132
 31
0.0
  0
LINE
  5
61
330
1F
100
AcDbEntity
  8
0
  6
Continuous
 62
     7
370
     0
100
AcDbLine
 10
253.7490408369
 20
9.1409200612
 30
0.0
 11
253.7490408369
 21
0.9031642596
 31
0.0
  0
LINE
  5
62
330
1F
100
AcDbEntity
  8
0
  6
Continuous
 62
     7
370
     0
100
AcDbLine
 10
171.6327596684
 20
12.2958890132
 30
0.0
 11
171.6327596684
 21
7.5627342528
 31
0.0
  0
LINE
  5
63
330
1F
100
AcDbEntity
  8
0
  6
Continuous
 62
     7
370
     0
100
AcDbLine
 10
171.6327596684
 20
7.5627342528
 30
0.0
 11
215.7427640041
 21
7.5627342528
 31
0.0
  0
LINE
  5
64
330
1F
100
AcDbEntity
  8
0
  6
Continuous
 62
     7
370
     0
100
AcDbLine
 10
171.6327596684
 20
7.5627342528
 30
0.0
 11
171.6327596684
 21
35.2394508358
 31
0.0
  0
LINE
  5
65
330
1F
100
AcDbEntity
  8
0
  6
Continuous
 62
     7
370
     0
100
AcDbLine
 10
171.6327596684
 20
35.2394508358
 30
0.0
 11
215.7427640041
 21
35.2394508358
 31
0.0
  0
LINE
  5
66
330
1F
100
AcDbEntity
  8
0
  6
Continuous
 62
     7
370
     0
100
AcDbLine
 10
270.1683598194
 20
17.1604579552
 30
0.0
 11
270.1683598194
 21
9.1409200612
 31
0.0
  0
LINE
  5
67
330
1F
100
AcDbEntity
  8
0
  6
Continuous
 62
     7
370
     0
100
AcDbLine
 10
215.7427640041
 20
35.2394508358
 30
0.0
 11
277.9892068491
 21
35.2394508358
 31
0.0
  0
LINE
  5
68
330
1F
100
AcDbEntity
  8
0
  6
Continuous
 62
     7
370
     0
100
AcDbLine
 10
277.9892068491
 20
35.2394508358
 30
0.0
 11
277.9892068491
 21
50.0331356147
 31
0.0
  0
LINE
  5
69
330
1F
100
AcDbEntity
  8
0
  6
Continuous
 62
     7
370
     0
100
AcDbLine
 10
215.7427640041
 20
24.8927335446
 30
0.0
 11
277.9892068491
 21
24.8927335446
 31
0.0
  0
INSERT
  5
6A
330
1F
100
AcDbEntity
  8
0
  6
Continuous
 62
     7
100
AcDbBlockReference
  2
Third Angle Projection Block
 10
117.7262204235
 20
15.5162339489
 30
0.0
 41
0.8
 42
0.8
 43
0.8
  0
MTEXT
  5
8E
330
1F
100
AcDbEntity
  8
0
  6
Continuous
 62
     7
370
     0
100
AcDbMText
 10
272.3127747974
 20
13.1125292762
 30
0.0
 40
3.175
 41
0.0
 71
     1
 72
     1
  1
A
  7
SLDTEXTSTYLE0
 73
     1
 44
1.0
  0
MTEXT
  5
8F
330
1F
100
AcDbEntity
  8
0
  6
Continuous
 62
     7
370
     0
100
AcDbMText
 10
223.7552644021
 20
5.1306563898
 30
0.0
 40
3.175
 41
0.0
 71
     1
 72
     1
  1
WFS10-7AR
  7
SLDTEXTSTYLE0
 73
     1
 44
1.0
  0
MTEXT
  5
90
330
1F
100
AcDbEntity
  8
0
  6
Continuous
 62
     7
370
     0
100
AcDbMText
 10
216.4199766059
 20
16.8243178599
 30
0.0
 40
2.1166666667
 41
0.0
 71
     1
 72
     1
  1
MATERIAL
  7
SLDTEXTSTYLE0
 73
     1
 44
1.0
  0
MTEXT
  5
91
330
1F
100
AcDbEntity
  8
0
  6
Continuous
 62
     7
370
     0
100
AcDbMText
 10
174.230946566
 20
20.054553926
 30
0.0
 40
1.8520833333
 41
0.0
 71
     1
 72
     1
  1
DRAWN
  7
SLDTEXTSTYLE0
 73
     1
 44
1.0
  0
MTEXT
  5
92
330
1F
100
AcDbEntity
  8
0
  6
Continuous
 62
     7
370
     0
100
AcDbMText
 10
172.3960124543
 20
15.5787169747
 30
0.0
 40
1.8520833333
 41
0.0
 71
     1
 72
     1
  1
APPROVAL
  7
SLDTEXTSTYLE0
 73
     1
 44
1.0
  0
MTEXT
  5
93
330
1F
100
AcDbEntity
  8
0
  6
Continuous
 62
     7
370
     0
100
AcDbMText
 10
271.321689486
 20
16.0237652193
 30
0.0
 40
2.1166666667
 41
0.0
 71
     1
 72
     1
  1
REV
  7
SLDTEXTSTYLE0
 73
     1
 44
1.0
  0
MTEXT
  5
94
330
1F
100
AcDbEntity
  8
0
  6
Continuous
 62
     7
370
     0
100
AcDbMText
 10
190.2958696448
 20
20.3177146903
 30
0.0
 40
2.1166666667
 41
0.0
 71
     1
 72
     1
  1
Hit.
  7
SLDTEXTSTYLE0
 73
     1
 44
1.0
  0
MTEXT
  5
95
330
1F
100
AcDbEntity
  8
0
  6
Continuous
 62
     7
370
     0
100
AcDbMText
 10
190.2958696448
 20
15.841877739
 30
0.0
 40
2.1166666667
 41
0.0
 71
     1
 72
     1
  1
EK
  7
SLDTEXTSTYLE0
 73
     1
 44
1.0
  0
MTEXT
  5
96
330
1F
100
AcDbEntity
  8
0
  6
Continuous
 62
     7
370
     0
100
AcDbMText
 10
199.8662436873
 20
20.3177146903
 30
0.0
 40
2.1166666667
 41
0.0
 71
     1
 72
     1
  1
28/OCT/10
  7
SLDTEXTSTYLE0
 73
     1
 44
1.0
  0
MTEXT
  5
97
330
1F
100
AcDbEntity
  8
0
  6
Continuous
 62
     7
370
     0
100
AcDbMText
 10
203.6145073853
 20
24.8221395769
 30
0.0
 40
2.1166666667
 41
0.0
 71
     1
 72
     1
  1
DATE
  7
SLDTEXTSTYLE0
 73
     1
 44
1.0
  0
MTEXT
  5
98
330
1F
100
AcDbEntity
  8
0
  6
Continuous
 62
     7
370
     0
100
AcDbMText
 10
199.8662436873
 20
15.841877739
 30
0.0
 40
2.1166666667
 41
0.0
 71
     1
 72
     1
  1
29/OCT/10
  7
SLDTEXTSTYLE0
 73
     1
 44
1.0
  0
MTEXT
  5
9A
330
1F
100
AcDbEntity
  8
0
  6
Continuous
 62
     7
370
     0
100
AcDbMText
 10
229.402906477
 20
27.7957480569
 30
0.0
 40
2.1166666667
 41
0.0
 71
     1
 72
     1
  1
w w w . t h o r  l a b s . c o m
  7
SLDTEXTSTYLE1
 73
     1
 44
1.0
  0
MTEXT
  5
9B
330
1F
100
AcDbEntity
  8
0
  6
Continuous
 62
     7
370
     0
100
AcDbMText
 10
216.7004035316
 20
8.3494791871
 30
0.0
 40
2.1166666667
 41
0.0
 71
     1
 72
     1
  1
ITEM #
  7
SLDTEXTSTYLE0
 73
     1
 44
1.0
  0
MTEXT
  5
9C
330
1F
100
AcDbEntity
  8
0
  6
Continuous
 62
     7
370
     0
100
AcDbMText
 10
254.5318000914
 20
8.3494791871
 30
0.0
 40
2.1166666667
 41
0.0
 71
     1
 72
     1
  1
APPROX WEIGHT
  7
SLDTEXTSTYLE0
 73
     1
 44
1.0
  0
MTEXT
  5
9D
330
1F
100
AcDbEntity
  8
0
  6
Continuous
 62
     7
370
     0
100
AcDbMText
 10
239.5037385072
 20
13.1125292762
 30
0.0
 40
3.175
 41
0.0
 71
     1
 72
     1
  1
N.A.
  7
SLDTEXTSTYLE0
 73
     1
 44
1.0
  0
MTEXT
  5
9E
330
1F
100
AcDbEntity
  8
0
  6
Continuous
 62
     7
370
     0
100
AcDbMText
 10
259.1729262247
 20
5.1306563898
 30
0.0
 40
3.175
 41
0.0
 71
     1
 72
     1
  1
0,15 kg
  7
SLDTEXTSTYLE0
 73
     1
 44
1.0
  0
INSERT
  5
A4
330
1F
100
AcDbEntity
  8
0
  6
Continuous
 62
     7
370
     0
100
AcDbBlockReference
  2
SW_NOTE_0
 10
174.8430140051
 20
4.4558554801
 30
0.0
  0
INSERT
  5
AA
330
1F
100
AcDbEntity
  8
0
  6
Continuous
 62
     7
370
     0
100
AcDbBlockReference
  2
SW_NOTE_1
 10
174.5483650337
 20
30.4835322715
 30
0.0
  0
MTEXT
  5
AB
330
1F
100
AcDbEntity
  8
0
  6
Continuous
 62
     7
370
     0
100
AcDbMText
 10
187.9273588276
 20
24.8221395769
 30
0.0
 40
2.1166666667
 41
0.0
 71
     1
 72
     1
  1
NAME
  7
SLDTEXTSTYLE0
 73
     1
 44
1.0
  0
INSERT
  5
B1
330
1F
100
AcDbEntity
  8
0
  6
Continuous
 62
     7
370
     0
100
AcDbBlockReference
  2
SW_NOTE_2
 10
58.6204667508
 20
8.1776609732
 30
0.0
  0
MTEXT
  5
B2
330
1F
100
AcDbEntity
  8
0
  6
Continuous
 62
     7
370
     0
100
AcDbMText
 10
179.1174811218
 20
10.6680638482
 30
0.0
 40
1.5875
 41
0.0
 71
     1
 72
     1
  1
COPYRIGHT © 2010 BY THORLABS 
  7
SLDTEXTSTYLE0
 73
     1
 44
1.0
  0
INSERT
  5
B8
330
1F
100
AcDbEntity
  8
0
  6
Continuous
 62
     7
370
     0
100
AcDbBlockReference
  2
SW_NOTE_3
 10
230.4027936116
 20
20.9611555011
 30
0.0
  0
LINE
  5
B9
330
1F
100
AcDbEntity
  8
0
  6
Continuous
 62
   144
370
     0
100
AcDbLine
 10
51.5893145093
 20
133.0044052408
 30
0.0
 11
51.0949234837
 21
134.5332513947
 31
0.0
  0
LINE
  5
BA
330
1F
100
AcDbEntity
  8
0
  6
Continuous
 62
   144
370
     0
100
AcDbLine
 10
51.8457247657
 20
133.0044052408
 30
0.0
 11
51.5893145093
 21
133.0044052408
 31
0.0
  0
LINE
  5
BB
330
1F
100
AcDbEntity
  8
0
  6
Continuous
 62
   144
370
     0
100
AcDbLine
 10
52.3385132272
 20
134.5332513947
 30
0.0
 11
51.8457247657
 21
133.0044052408
 31
0.0
  0
SPLINE
  5
BC
330
1F
100
AcDbEntity
  8
0
  6
Continuous
 62
   144
370
     0
100
AcDbSpline
210
0.0
220
0.0
230
1.0
 70
     8
 71
     3
 72
    11
 73
     7
 74
     0
 42
0.00000001
 43
0.00000001
 40
0.0
 40
0.0
 40
0.0
 40
0.0
 40
0.2475532010139114
 40
0.4961335981455301
 40
0.7485287511005183
 40
0.9999999999999999
 40
0.9999999999999999
 40
0.9999999999999999
 40
0.9999999999999999
 10
52.38418630417225
 20
134.7083315228828
 30
0.0
 10
52.38089596851464
 20
134.6937636692489
 30
0.0
 10
52.3743016442957
 20
134.664567514196
 30
0.0
 10
52.36347382007771
 20
134.6207227241636
 30
0.0
 10
52.35151545625232
 20
134.5769266585373
 30
0.0
 10
52.3428420022846
 20
134.5477920085843
 30
0.0
 10
52.33851322724918
 20
134.5332513946776
 30
0.0
  0
LINE
  5
BD
330
1F
100
AcDbEntity
  8
0
  6
Continuous
 62
   144
370
     0
100
AcDbLine
 10
52.3841863042
 20
133.0044052408
 30
0.0
 11
52.3841863042
 21
134.7083315229
 31
0.0
  0
LINE
  5
BE
330
1F
100
AcDbEntity
  8
0
  6
Continuous
 62
   144
370
     0
100
AcDbLine
 10
52.6662375862
 20
133.0044052408
 30
0.0
 11
52.3841863042
 21
133.0044052408
 31
0.0
  0
LINE
  5
BF
330
1F
100
AcDbEntity
  8
0
  6
Continuous
 62
   144
370
     0
100
AcDbLine
 10
52.6662375862
 20
135.0044052408
 30
0.0
 11
52.6662375862
 21
133.0044052408
 31
0.0
  0
LINE
  5
C0
330
1F
100
AcDbEntity
  8
0
  6
Continuous
 62
   144
370
     0
100
AcDbLine
 10
52.2631927144
 20
135.0044052408
 30
0.0
 11
52.6662375862
 21
135.0044052408
 31
0.0
  0
LINE
  5
C1
330
1F
100
AcDbEntity
  8
0
  6
Continuous
 62
   144
370
     0
100
AcDbLine
 10
51.7684010478
 20
133.4743571639
 30
0.0
 11
52.2631927144
 21
135.0044052408
 31
0.0
  0
SPLINE
  5
C2
330
1F
100
AcDbEntity
  8
0
  6
Continuous
 62
   144
370
     0
100
AcDbSpline
210
0.0
220
0.0
230
1.0
 70
     8
 71
     3
 72
    11
 73
     7
 74
     0
 42
0.00000001
 43
0.00000001
 40
0.0
 40
0.0
 40
0.0
 40
0.0
 40
0.2846268775070918
 40
0.54182570539139
 40
0.7747018491195286
 40
1.0
 40
1.0
 40
1.0
 40
1.0
 10
51.7235292528902
 20
133.3100943433956
 30
0.0
 10
51.72706261277648
 20
133.3258695849827
 30
0.0
 10
51.73378884056478
 20
133.3558998880781
 30
0.0
 10
51.74453152734606
 20
133.3985776842329
 30
0.0
 10
51.75601526938102
 20
133.437564862336
 30
0.0
 10
51.76431823069327
 20
133.4622290414572
 30
0.0
 10
51.768401047762
 20
133.4743571639084
 30
0.0
  0
SPLINE
  5
C3
330
1F
100
AcDbEntity
  8
0
  6
Continuous
 62
   144
370
     0
100
AcDbSpline
210
0.0
220
0.0
230
1.0
 70
     8
 71
     3
 72
    13
 73
     9
 74
     0
 42
0.00000001
 43
0.00000001
 40
0.0
 40
0.0
 40
0.0
 40
0.0
 40
0.1896235328070379
 40
0.3570270040813946
 40
0.4992711726624492
 40
0.6193002246169502
 40
0.8249546398101149
 40
1.0
 40
1.0
 40
1.0
 40
1.0
 10
51.67625361186457
 20
133.4743571639084
 30
0.0
 10
51.67958443820322
 20
133.4640716056281
 30
0.0
 10
51.68585578507248
 20
133.4447057494825
 30
0.0
 10
51.69474244731842
 20
133.4176605537897
 30
0.0
 10
51.70188463548965
 20
133.3942263153935
 30
0.0
 10
51.70991361706931
 20
133.3687806006915
 30
0.0
 10
51.7169262202197
 20
133.3410842689226
 30
0.0
 10
51.72144946818644
 20
133.3198553693208
 30
0.0
 10
51.7235292528902
 20
133.3100943433956
 30
0.0
  0
LINE
  5
C4
330
1F
100
AcDbEntity
  8
0
  6
Continuous
 62
   144
370
     0
100
AcDbLine
 10
51.1870709196
 20
135.0044052408
 30
0.0
 11
51.6762536119
 21
133.4743571639
 31
0.0
  0
LINE
  5
C5
330
1F
100
AcDbEntity
  8
0
  6
Continuous
 62
   144
370
     0
100
AcDbLine
 10
50.7944427144
 20
135.0044052408
 30
0.0
 11
51.1870709196
 21
135.0044052408
 31
0.0
  0
LINE
  5
C6
330
1F
100
AcDbEntity
  8
0
  6
Continuous
 62
   144
370
     0
100
AcDbLine
 10
50.7944427144
 20
133.0044052408
 30
0.0
 11
50.7944427144
 21
135.0044052408
 31
0.0
  0
LINE
  5
C7
330
1F
100
AcDbEntity
  8
0
  6
Continuous
 62
   144
370
     0
100
AcDbLine
 10
51.0508529708
 20
133.0044052408
 30
0.0
 11
50.7944427144
 21
133.0044052408
 31
0.0
  0
LINE
  5
C8
330
1F
100
AcDbEntity
  8
0
  6
Continuous
 62
   144
370
     0
100
AcDbLine
 10
51.0508529708
 20
134.7083315229
 30
0.0
 11
51.0508529708
 21
133.0044052408
 31
0.0
  0
SPLINE
  5
C9
330
1F
100
AcDbEntity
  8
0
  6
Continuous
 62
   144
370
     0
100
AcDbSpline
210
0.0
220
0.0
230
1.0
 70
     8
 71
     3
 72
    11
 73
     7
 74
     0
 42
0.00000001
 43
0.00000001
 40
0.0
 40
0.0
 40
0.0
 40
0.0
 40
0.2285536536154717
 40
0.4716142891886604
 40
0.7265191533891212
 40
1.0
 40
1.0
 40
1.0
 40
1.0
 10
51.09492348365944
 20
134.5332513946776
 30
0.0
 10
51.09047340943209
 20
134.5462861868592
 30
0.0
 10
51.08129080149575
 20
134.5731831283528
 30
0.0
 10
51.07061957317744
 20
134.6156569970505
 30
0.0
 10
51.0598832832345
 20
134.6608718868643
 30
0.0
 10
51.0539328068244
 20
134.69214516205
 30
0.0
 10
51.05085297083892
 20
134.7083315228828
 30
0.0
  0
LINE
  5
CA
330
1F
100
AcDbEntity
  8
0
  6
Continuous
 62
   144
370
     0
100
AcDbLine
 10
54.8673593811
 20
133.5941488306
 30
0.0
 11
54.6554202785
 21
133.0044052408
 31
0.0
  0
LINE
  5
CB
330
1F
100
AcDbEntity
  8
0
  6
Continuous
 62
   144
370
     0
100
AcDbLine
 10
55.6502119452
 20
133.5941488306
 30
0.0
 11
54.8673593811
 21
133.5941488306
 31
0.0
  0
LINE
  5
CC
330
1F
100
AcDbEntity
  8
0
  6
Continuous
 62
   144
370
     0
100
AcDbLine
 10
55.8605484837
 20
133.0044052408
 30
0.0
 11
55.6502119452
 21
133.5941488306
 31
0.0
  0
LINE
  5
CD
330
1F
100
AcDbEntity
  8
0
  6
Continuous
 62
   144
370
     0
100
AcDbLine
 10
56.1534170734
 20
133.0044052408
 30
0.0
 11
55.8605484837
 21
133.0044052408
 31
0.0
  0
LINE
  5
CE
330
1F
100
AcDbEntity
  8
0
  6
Continuous
 62
   144
370
     0
100
AcDbLine
 10
55.412631817
 20
135.0044052408
 30
0.0
 11
56.1534170734
 21
133.0044052408
 31
0.0
  0
LINE
  5
CF
330
1F
100
AcDbEntity
  8
0
  6
Continuous
 62
   144
370
     0
100
AcDbLine
 10
55.1141542529
 20
135.0044052408
 30
0.0
 11
55.412631817
 21
135.0044052408
 31
0.0
  0
LINE
  5
D0
330
1F
100
AcDbEntity
  8
0
  6
Continuous
 62
   144
370
     0
100
AcDbLine
 10
54.3841863042
 20
133.0044052408
 30
0.0
 11
55.1141542529
 21
135.0044052408
 31
0.0
  0
LINE
  5
D1
330
1F
100
AcDbEntity
  8
0
  6
Continuous
 62
   144
370
     0
100
AcDbLine
 10
54.6554202785
 20
133.0044052408
 30
0.0
 11
54.3841863042
 21
133.0044052408
 31
0.0
  0
SPLINE
  5
D2
330
1F
100
AcDbEntity
  8
0
  6
Continuous
 62
   144
370
     0
100
AcDbSpline
210
0.0
220
0.0
230
1.0
 70
     8
 71
     3
 72
    23
 73
    19
 74
     0
 42
0.00000001
 43
0.00000001
 40
0.0
 40
0.0
 40
0.0
 40
0.0
 40
0.0677823022128365
 40
0.1322992973352984
 40
0.1948469270990191
 40
0.2556715754679166
 40
0.3152882249856302
 40
0.3745231355098073
 40
0.434097490378837
 40
0.4944645781914516
 40
0.5551889974163086
 40
0.615612890413182
 40
0.6755843378582969
 40
0.7366112452896344
 40
0.7989828815529836
 40
0.8632770193769786
 40
0.9303480173573387
 40
1.0
 40
1.0
 40
1.0
 40
1.0
 10
59.07649399647995
 20
133.6402225485238
 30
0.0
 10
59.07601886968011
 20
133.6160212535715
 30
0.0
 10
59.07509150457577
 20
133.5687845234478
 30
0.0
 10
59.06598792592479
 20
133.4997084624417
 30
0.0
 10
59.05135620651981
 20
133.4341693305932
 30
0.0
 10
59.03035252634231
 20
133.3722097561167
 30
0.0
 10
59.00390597698281
 20
133.3136704833596
 30
0.0
 10
58.97123686379366
 20
133.2588478971951
 30
0.0
 10
58.93251566909412
 20
133.2078073425855
 30
0.0
 10
58.88843915857081
 20
133.1606102919105
 30
0.0
 10
58.83972667198397
 20
133.1177323300137
 30
0.0
 10
58.78676365623153
 20
133.0804615633521
 30
0.0
 10
58.73011012709728
 20
133.048870905725
 30
0.0
 10
58.66976253842016
 20
133.0232559040908
 30
0.0
 10
58.60574272772982
 20
133.0032158214858
 30
0.0
 10
58.538039928584
 20
132.9887385176991
 30
0.0
 10
58.46666492650021
 20
132.9803361284881
 30
0.0
 10
58.41786233654985
 20
132.979294739223
 30
0.0
 10
58.39300040673636
 20
132.9787642151905
 30
0.0
  0
SPLINE
  5
D3
330
1F
100
AcDbEntity
  8
0
  6
Continuous
 62
   144
370
     0
100
AcDbSpline
210
0.0
220
0.0
230
1.0
 70
     8
 71
     3
 72
    23
 73
    19
 74
     0
 42
0.00000001
 43
0.00000001
 40
0.0
 40
0.0
 40
0.0
 40
0.0
 40
0.0708465587130921
 40
0.1385432918636965
 40
0.2035407231116854
 40
0.2663474906626921
 40
0.3276788248583484
 40
0.388028095027543
 40
0.4477088747876252
 40
0.5080218493189306
 40
0.5681790230788633
 40
0.6271863900592297
 40
0.6857200297598041
 40
0.7451920912221425
 40
0.8057238051152832
 40
0.8677096157896064
 40
0.9323148201787999
 40
1.0
 40
1.0
 40
1.0
 40
1.0
 10
58.42665425289021
 20
134.2608154972418
 30
0.0
 10
58.45058233435327
 20
134.2602730269448
 30
0.0
 10
58.49737465897837
 20
134.2592122044849
 30
0.0
 10
58.56572907936471
 20
134.2510406163574
 30
0.0
 10
58.63049137075043
 20
134.2379044441408
 30
0.0
 10
58.69179539406669
 20
134.2195874860575
 30
0.0
 10
58.7492994845223
 20
134.1953514869413
 30
0.0
 10
58.80327532610844
 20
134.1661674886195
 30
0.0
 10
58.85327436906912
 20
134.1312179323818
 30
0.0
 10
58.89980060456764
 20
134.0918552067449
 30
0.0
 10
58.94121465183414
 20
134.0474241157229
 30
0.0
 10
58.97751786774549
 20
133.9995311193522
 30
0.0
 10
59.0084209802931
 20
133.9481945355503
 30
0.0
 10
59.03298562357605
 20
133.8930224943842
 30
0.0
 10
59.05298061064433
 20
133.8347897546179
 30
0.0
 10
59.06624029112236
 20
133.7729063870883
 30
0.0
 10
59.07502297045937
 20
133.7077827039216
 30
0.0
 10
59.0759961023437
 20
133.6630894487323
 30
0.0
 10
59.07649399647995
 20
133.6402225485238
 30
0.0
  0
SPLINE
  5
D4
330
1F
100
AcDbEntity
  8
0
  6
Continuous
 62
   144
370
     0
100
AcDbSpline
210
0.0
220
0.0
230
1.0
 70
     8
 71
     3
 72
    15
 73
    11
 74
     0
 42
0.00000001
 43
0.00000001
 40
0.0
 40
0.0
 40
0.0
 40
0.0
 40
0.118417671571376
 40
0.2380397290737634
 40
0.3582782803064156
 40
0.4815734614312364
 40
0.6062680865633566
 40
0.7331380144725519
 40
0.8645070916841873
 40
1.0
 40
1.0
 40
1.0
 40
1.0
 10
58.05806450930046
 20
134.1314084459597
 30
0.0
 10
58.07014229954415
 20
134.1415698135091
 30
0.0
 10
58.09442071913531
 20
134.1619958964271
 30
0.0
 10
58.13476748404564
 20
134.1876511001584
 30
0.0
 10
58.17742597826747
 20
134.2105546243406
 30
0.0
 10
58.22309078527984
 20
134.228639635914
 30
0.0
 10
58.27087056174755
 20
134.2433324755292
 30
0.0
 10
58.32099039393694
 20
134.2530061775516
 30
0.0
 10
58.373046923744
 20
134.259854321001
 30
0.0
 10
58.40860199841485
 20
134.2604918213868
 30
0.0
 10
58.42665425289021
 20
134.2608154972418
 30
0.0
  0
LINE
  5
D5
330
1F
100
AcDbEntity
  8
0
  6
Continuous
 62
   144
370
     0
100
AcDbLine
 10
58.1357888683
 20
134.6454308819
 30
0.0
 11
58.0580645093
 21
134.131408446
 31
0.0
  0
LINE
  5
D6
330
1F
100
AcDbEntity
  8
0
  6
Continuous
 62
   144
370
     0
100
AcDbLine
 10
58.9767343811
 20
134.6454308819
 30
0.0
 11
58.1357888683
 21
134.6454308819
 31
0.0
  0
LINE
  5
D7
330
1F
100
AcDbEntity
  8
0
  6
Continuous
 62
   144
370
     0
100
AcDbLine
 10
58.9767343811
 20
134.8762001126
 30
0.0
 11
58.9767343811
 21
134.6454308819
 31
0.0
  0
LINE
  5
D8
330
1F
100
AcDbEntity
  8
0
  6
Continuous
 62
   144
370
     0
100
AcDbLine
 10
57.9510933555
 20
134.8762001126
 30
0.0
 11
58.9767343811
 21
134.8762001126
 31
0.0
  0
LINE
  5
D9
330
1F
100
AcDbEntity
  8
0
  6
Continuous
 62
   144
370
     0
100
AcDbLine
 10
57.7944427144
 20
133.8601744716
 30
0.0
 11
57.9510933555
 21
134.8762001126
 31
0.0
  0
LINE
  5
DA
330
1F
100
AcDbEntity
  8
0
  6
Continuous
 62
   144
370
     0
100
AcDbLine
 10
58.0212055349
 20
133.8601744716
 30
0.0
 11
57.7944427144
 21
133.8601744716
 31
0.0
  0
SPLINE
  5
DB
330
1F
100
AcDbEntity
  8
0
  6
Continuous
 62
   144
370
     0
100
AcDbSpline
210
0.0
220
0.0
230
1.0
 70
     8
 71
     3
 72
    15
 73
    11
 74
     0
 42
0.00000001
 43
0.00000001
 40
0.0
 40
0.0
 40
0.0
 40
0.0
 40
0.1310276624941684
 40
0.2576035213002775
 40
0.3810891622239775
 40
0.5032974335679447
 40
0.6255019721648827
 40
0.7476505058680596
 40
0.8715602375327659
 40
1.0
 40
1.0
 40
1.0
 40
1.0
 10
58.3893946375056
 20
134.0300462664725
 30
0.0
 10
58.3710672190462
 20
134.0295020160081
 30
0.0
 10
58.33503507559179
 20
134.0284320065656
 30
0.0
 10
58.28227043840513
 20
134.0201489614147
 30
0.0
 10
58.23177433288012
 20
134.0071023245892
 30
0.0
 10
58.18389637712758
 20
133.9879862205686
 30
0.0
 10
58.13841525855948
 20
133.964090407405
 30
0.0
 10
58.09625215078026
 20
133.9343741635784
 30
0.0
 10
58.05629578538032
 20
133.9003017905435
 30
0.0
 10
58.03304143459773
 20
133.8737093684607
 30
0.0
 10
58.02120553494149
 20
133.8601744716007
 30
0.0
  0
SPLINE
  5
DC
330
1F
100
AcDbEntity
  8
0
  6
Continuous
 62
   144
370
     0
100
AcDbSpline
210
0.0
220
0.0
230
1.0
 70
     8
 71
     3
 72
    23
 73
    19
 74
     0
 42
0.00000001
 43
0.00000001
 40
0.0
 40
0.0
 40
0.0
 40
0.0
 40
0.0684779092126607
 40
0.1337813517548468
 40
0.196564943813047
 40
0.2571453151281322
 40
0.3165219829219665
 40
0.374676120997681
 40
0.4329791660015411
 40
0.4918951019459634
 40
0.5513878823707636
 40
0.6104597919446539
 40
0.6698096322560014
 40
0.73090192669816
 40
0.7941516495927736
 40
0.8597201036743412
 40
0.9279780133660103
 40
1.0
 40
1.0
 40
1.0
 40
1.0
 10
58.8200837400697
 20
133.6189885741649
 30
0.0
 10
58.81963759045597
 20
133.6343574594235
 30
0.0
 10
58.81876597362222
 20
133.664382766395
 30
0.0
 10
58.81375741675193
 20
133.708314238541
 30
0.0
 10
58.80429768818131
 20
133.749657549295
 30
0.0
 10
58.79210534451091
 20
133.788889079713
 30
0.0
 10
58.77563755555725
 20
133.8254551607004
 30
0.0
 10
58.75519965854522
 20
133.8592826409668
 30
0.0
 10
58.7321719426769
 20
133.8913218244328
 30
0.0
 10
58.70463981892739
 20
133.9200306078296
 30
0.0
 10
58.67437720446566
 20
133.9460335824984
 30
0.0
 10
58.6413248302602
 20
133.968618153322
 30
0.0
 10
58.60566479878996
 20
133.9875313964449
 30
0.0
 10
58.56747809274677
 20
134.0032997376061
 30
0.0
 10
58.52643780773314
 20
134.0150939103519
 30
0.0
 10
58.48305968014749
 20
134.023978383254
 30
0.0
 10
58.43706909620303
 20
134.0292742361395
 30
0.0
 10
58.40556787713598
 20
134.0297843603719
 30
0.0
 10
58.3893946375056
 20
134.0300462664725
 30
0.0
  0
SPLINE
  5
DD
330
1F
100
AcDbEntity
  8
0
  6
Continuous
 62
   144
370
     0
100
AcDbSpline
210
0.0
220
0.0
230
1.0
 70
     8
 71
     3
 72
    23
 73
    19
 74
     0
 42
0.00000001
 43
0.00000001
 40
0.0
 40
0.0
 40
0.0
 40
0.0
 40
0.0710438608720235
 40
0.138983094870706
 40
0.2041623218916177
 40
0.2670282652276362
 40
0.328531626976723
 40
0.3891516801243421
 40
0.4497217930680195
 40
0.5102331000629359
 40
0.570579445540171
 40
0.6297702171315892
 40
0.688405024286049
 40
0.7471247742934206
 40
0.8075035584956148
 40
0.8693100720865583
 40
0.9331063723337816
 40
1.0
 40
1.0
 40
1.0
 40
1.0
 10
58.38659015032611
 20
133.2095334459597
 30
0.0
 10
58.40250187058518
 20
133.2097520407961
 30
0.0
 10
58.43362996665399
 20
133.2101796778432
 30
0.0
 10
58.47902526739409
 20
133.2161305815541
 30
0.0
 10
58.5220365193087
 20
133.2248611403216
 30
0.0
 10
58.5628541369642
 20
133.2367036493978
 30
0.0
 10
58.60108701658514
 20
133.2528575452102
 30
0.0
 10
58.63686077591392
 20
133.2727585536314
 30
0.0
 10
58.67076001135885
 20
133.2953761167786
 30
0.0
 10
58.70145271566749
 20
133.3220820084356
 30
0.0
 10
58.72961062426021
 20
133.3510090739441
 30
0.0
 10
58.75365534319585
 20
133.3829465022136
 30
0.0
 10
58.77419317547374
 20
133.4167623913953
 30
0.0
 10
58.79138741160221
 20
133.4527434173475
 30
0.0
 10
58.80394821336075
 20
133.4913348249764
 30
0.0
 10
58.81316971406845
 20
133.5319680633633
 30
0.0
 10
58.81891987934358
 20
133.5747556666126
 30
0.0
 10
58.81968970491915
 20
133.6040131393939
 30
0.0
 10
58.8200837400697
 20
133.6189885741649
 30
0.0
  0
SPLINE
  5
DE
330
1F
100
AcDbEntity
  8
0
  6
Continuous
 62
   144
370
     0
100
AcDbSpline
210
0.0
220
0.0
230
1.0
 70
     8
 71
     3
 72
    23
 73
    19
 74
     0
 42
0.00000001
 43
0.00000001
 40
0.0
 40
0.0
 40
0.0
 40
0.0
 40
0.0656091434788862
 40
0.1292134806609775
 40
0.1902404598488336
 40
0.2506792675580353
 40
0.3090758633829993
 40
0.3680162571422192
 40
0.42704448713837
 40
0.4867205149054865
 40
0.5469876339451167
 40
0.6075346257642423
 40
0.6686553655928879
 40
0.730551921021423
 40
0.7946771589700666
 40
0.8607295145562442
 40
0.9290705643931901
 40
1.0
 40
1.0
 40
1.0
 40
1.0
 10
57.99957091955687
 20
133.5156231895495
 30
0.0
 10
58.0018341366033
 20
133.5039750998474
 30
0.0
 10
58.00629141399717
 20
133.4810348489367
 30
0.0
 10
58.01526307565716
 20
133.4477654024244
 30
0.0
 10
58.02748353179724
 20
133.416537850724
 30
0.0
 10
58.04225834181175
 20
133.3875162273513
 30
0.0
 10
58.05925638995293
 20
133.3601693091911
 30
0.0
 10
58.07892727632812
 20
133.3349943186626
 30
0.0
 10
58.10103924644699
 20
133.3116145594991
 30
0.0
 10
58.12560358187331
 20
133.2904852448702
 30
0.0
 10
58.15189848026338
 20
133.2710522588183
 30
0.0
 10
58.18056697129717
 20
133.2547946209533
 30
0.0
 10
58.21061381010105
 20
133.2405884412507
 30
0.0
 10
58.24261395178084
 20
133.2294060373009
 30
0.0
 10
58.27625672027797
 20
133.220626306033
 30
0.0
 10
58.31161935338
 20
133.2143024063522
 30
0.0
 10
58.34856070945809
 20
133.2100795336206
 30
0.0
 10
58.37375757282689
 20
133.2097177166739
 30
0.0
 10
58.38659015032611
 20
133.2095334459597
 30
0.0
  0
LINE
  5
DF
330
1F
100
AcDbEntity
  8
0
  6
Continuous
 62
   144
370
     0
100
AcDbLine
 10
57.7431606631
 20
133.5156231895
 30
0.0
 11
57.9995709196
 21
133.5156231895
 31
0.0
  0
SPLINE
  5
E0
330
1F
100
AcDbEntity
  8
0
  6
Continuous
 62
   144
370
     0
100
AcDbSpline
210
0.0
220
0.0
230
1.0
 70
     8
 71
     3
 72
    23
 73
    19
 74
     0
 42
0.00000001
 43
0.00000001
 40
0.0
 40
0.0
 40
0.0
 40
0.0
 40
0.0712987531760267
 40
0.139935344729336
 40
0.2062760737646543
 40
0.2704255396967119
 40
0.3329224108084382
 40
0.3945434957441059
 40
0.4557897074785781
 40
0.5170840309343235
 40
0.5778621888313904
 40
0.63714104963766
 40
0.6961223497307805
 40
0.754425031261575
 40
0.8136090221900667
 40
0.8737395723352172
 40
0.9358965028778103
 40
1.0
 40
1.0
 40
1.0
 40
1.0
 10
58.39300040673636
 20
132.9787642151905
 30
0.0
 10
58.37081293089735
 20
132.9792338317976
 30
0.0
 10
58.32726641792341
 20
132.9801555304091
 30
0.0
 10
58.26339339628458
 20
132.9871639996745
 30
0.0
 10
58.20235936572483
 20
132.9981341158256
 30
0.0
 10
58.14439115706207
 20
133.0141564991667
 30
0.0
 10
58.08962266981702
 20
133.035168815745
 30
0.0
 10
58.03774422079716
 20
133.0605065073747
 30
0.0
 10
57.98854515630769
 20
133.0900806788185
 30
0.0
 10
57.94314196734619
 20
133.1247340910676
 30
0.0
 10
57.90097811651904
 20
133.1623576261767
 30
0.0
 10
57.8639159840951
 20
133.2041043378161
 30
0.0
 10
57.83152875583973
 20
133.2485540591146
 30
0.0
 10
57.80331577310569
 20
133.2957880675245
 30
0.0
 10
57.7810707266334
 20
133.3465203288378
 30
0.0
 10
57.76349565831057
 20
133.4002246708587
 30
0.0
 10
57.74987415608946
 20
133.4567272931901
 30
0.0
 10
57.74542137707139
 20
133.4957904774061
 30
0.0
 10
57.74316066314662
 20
133.5156231895495
 30
0.0
  0
LINE
  5
E1
330
1F
100
AcDbEntity
  8
0
  6
Continuous
 62
   144
370
     0
100
AcDbLine
 10
61.4611093811
 20
133.850559087
 30
0.0
 11
61.4611093811
 21
133.6197898562
 31
0.0
  0
LINE
  5
E2
330
1F
100
AcDbEntity
  8
0
  6
Continuous
 62
   144
370
     0
100
AcDbLine
 10
60.7944427144
 20
133.850559087
 30
0.0
 11
61.4611093811
 21
133.850559087
 31
0.0
  0
LINE
  5
E3
330
1F
100
AcDbEntity
  8
0
  6
Continuous
 62
   144
370
     0
100
AcDbLine
 10
60.7944427144
 20
133.6197898562
 30
0.0
 11
60.7944427144
 21
133.850559087
 31
0.0
  0
LINE
  5
E4
330
1F
100
AcDbEntity
  8
0
  6
Continuous
 62
   144
370
     0
100
AcDbLine
 10
61.4611093811
 20
133.6197898562
 30
0.0
 11
60.7944427144
 21
133.6197898562
 31
0.0
  0
LINE
  5
E5
330
1F
100
AcDbEntity
  8
0
  6
Continuous
 62
   144
370
     0
100
AcDbLine
 10
63.5596670734
 20
133.5941488306
 30
0.0
 11
63.3477279708
 21
133.0044052408
 31
0.0
  0
LINE
  5
E6
330
1F
100
AcDbEntity
  8
0
  6
Continuous
 62
   144
370
     0
100
AcDbLine
 10
64.3425196375
 20
133.5941488306
 30
0.0
 11
63.5596670734
 21
133.5941488306
 31
0.0
  0
LINE
  5
E7
330
1F
100
AcDbEntity
  8
0
  6
Continuous
 62
   144
370
     0
100
AcDbLine
 10
64.552856176
 20
133.0044052408
 30
0.0
 11
64.3425196375
 21
133.5941488306
 31
0.0
  0
LINE
  5
E8
330
1F
100
AcDbEntity
  8
0
  6
Continuous
 62
   144
370
     0
100
AcDbLine
 10
64.8457247657
 20
133.0044052408
 30
0.0
 11
64.552856176
 21
133.0044052408
 31
0.0
  0
LINE
  5
E9
330
1F
100
AcDbEntity
  8
0
  6
Continuous
 62
   144
370
     0
100
AcDbLine
 10
64.1049395093
 20
135.0044052408
 30
0.0
 11
64.8457247657
 21
133.0044052408
 31
0.0
  0
LINE
  5
EA
330
1F
100
AcDbEntity
  8
0
  6
Continuous
 62
   144
370
     0
100
AcDbLine
 10
63.8064619452
 20
135.0044052408
 30
0.0
 11
64.1049395093
 21
135.0044052408
 31
0.0
  0
LINE
  5
EB
330
1F
100
AcDbEntity
  8
0
  6
Continuous
 62
   144
370
     0
100
AcDbLine
 10
63.0764939965
 20
133.0044052408
 30
0.0
 11
63.8064619452
 21
135.0044052408
 31
0.0
  0
LINE
  5
EC
330
1F
100
AcDbEntity
  8
0
  6
Continuous
 62
   144
370
     0
100
AcDbLine
 10
63.3477279708
 20
133.0044052408
 30
0.0
 11
63.0764939965
 21
133.0044052408
 31
0.0
  0
CIRCLE
  5
ED
330
1F
100
AcDbEntity
  8
0
  6
Continuous
 62
     7
370
     0
100
AcDbCircle
 10
58.6405965606
 20
150.7544052408
 30
0.0
 40
1.25
  0
CIRCLE
  5
EE
330
1F
100
AcDbEntity
  8
0
  6
Continuous
 62
   144
370
     0
100
AcDbCircle
 10
58.6405965606
 20
141.0044052408
 30
0.0
 40
11.74999999999999
  0
CIRCLE
  5
EF
330
1F
100
AcDbEntity
  8
0
  6
Continuous
 62
     7
370
     0
100
AcDbCircle
 10
58.6405965606
 20
141.0044052408
 30
0.0
 40
4.5
  0
LINE
  5
F0
330
1F
100
AcDbEntity
  8
0
  6
Continuous
 62
   144
370
     0
100
AcDbLine
 10
65.3329042529
 20
133.0044052408
 30
0.0
 11
65.0508529708
 21
133.0044052408
 31
0.0
  0
LINE
  5
F1
330
1F
100
AcDbEntity
  8
0
  6
Continuous
 62
   144
370
     0
100
AcDbLine
 10
65.3329042529
 20
133.8762001126
 30
0.0
 11
65.3329042529
 21
133.0044052408
 31
0.0
  0
LINE
  5
F2
330
1F
100
AcDbEntity
  8
0
  6
Continuous
 62
   144
370
     0
100
AcDbLine
 10
65.7535773298
 20
133.8762001126
 30
0.0
 11
65.3329042529
 21
133.8762001126
 31
0.0
  0
SPLINE
  5
F3
330
1F
100
AcDbEntity
  8
0
  6
Continuous
 62
   144
370
     0
100
AcDbSpline
210
0.0
220
0.0
230
1.0
 70
     8
 71
     3
 72
    23
 73
    19
 74
     0
 42
0.00000001
 43
0.00000001
 40
0.0
 40
0.0
 40
0.0
 40
0.0
 40
0.0769055617124179
 40
0.1472770130483192
 40
0.2106105090457684
 40
0.2677551329208187
 40
0.3198217078494432
 40
0.3659040988175808
 40
0.4066785428099203
 40
0.4444634292017938
 40
0.4836835628517872
 40
0.5298044824641872
 40
0.5846403035202793
 40
0.6488373302458773
 40
0.7218731357932331
 40
0.8044656842437182
 40
0.8975848606767376
 40
1.0
 40
1.0
 40
1.0
 40
1.0
 10
66.17905809904406
 20
133.5500783177546
 30
0.0
 10
66.17790805532546
 20
133.5663888888899
 30
0.0
 10
66.17570567880054
 20
133.5976242396817
 30
0.0
 10
66.16963883989878
 20
133.6420110991288
 30
0.0
 10
66.16211085781579
 20
133.6818896094223
 30
0.0
 10
66.153040928918
 20
133.7174682784309
 30
0.0
 10
66.1419753759727
 20
133.7486181699257
 30
0.0
 10
66.12930106149955
 20
133.7753729911976
 30
0.0
 10
66.11466640609338
 20
133.7975656515949
 30
0.0
 10
66.09771098647776
 20
133.8161796928868
 30
0.0
 10
66.07606589719954
 20
133.8313208147847
 30
0.0
 10
66.04843386639972
 20
133.8427535128756
 30
0.0
 10
66.01509384411656
 20
133.8538894250353
 30
0.0
 10
65.97491285761723
 20
133.8615488697696
 30
0.0
 10
65.92872339910129
 20
133.8687001701792
 30
0.0
 10
65.87594312161329
 20
133.8724189439822
 30
0.0
 10
65.81692889986005
 20
133.8760907208393
 30
0.0
 10
65.77535337189718
 20
133.8761625110301
 30
0.0
 10
65.75357732981328
 20
133.8762001126264
 30
0.0
  0
LINE
  5
F4
330
1F
100
AcDbEntity
  8
0
  6
Continuous
 62
   144
370
     0
100
AcDbLine
 10
66.2026959196
 20
133.2848539588
 30
0.0
 11
66.179058099
 21
133.5500783178
 31
0.0
  0
LINE
  5
F5
330
1F
100
AcDbEntity
  8
0
  6
Continuous
 62
   144
370
     0
100
AcDbLine
 10
66.2026959196
 20
133.2764404972
 30
0.0
 11
66.2026959196
 21
133.2848539588
 31
0.0
  0
SPLINE
  5
F6
330
1F
100
AcDbEntity
  8
0
  6
Continuous
 62
   144
370
     0
100
AcDbSpline
210
0.0
220
0.0
230
1.0
 70
     8
 71
     3
 72
    15
 73
    11
 74
     0
 42
0.00000001
 43
0.00000001
 40
0.0
 40
0.0
 40
0.0
 40
0.0
 40
0.0740721306713682
 40
0.1627820845254745
 40
0.2646454426483946
 40
0.3807927872475414
 40
0.5130039066957081
 40
0.660157593517626
 40
0.8224427526445539
 40
1.0
 40
1.0
 40
1.0
 40
1.0
 10
66.26399399647995
 20
133.0044052408315
 30
0.0
 10
66.26038889231435
 20
133.0103437071688
 30
0.0
 10
66.25246625844804
 20
133.0233941746052
 30
0.0
 10
66.24271594683619
 20
133.0462870838293
 30
0.0
 10
66.23409502270981
 20
133.0737211435518
 30
0.0
 10
66.22609619658093
 20
133.1055661506725
 30
0.0
 10
66.21903843063268
 20
133.141961508405
 30
0.0
 10
66.2126944698847
 20
133.1828616151663
 30
0.0
 10
66.20709630259927
 20
133.2281576907375
 30
0.0
 10
66.2042060092806
 20
133.2598711737915
 30
0.0
 10
66.20269591955689
 20
133.2764404972418
 30
0.0
  0
LINE
  5
F7
330
1F
100
AcDbEntity
  8
0
  6
Continuous
 62
   144
370
     0
100
AcDbLine
 10
66.5893145093
 20
133.0044052408
 30
0.0
 11
66.2639939965
 21
133.0044052408
 31
0.0
  0
LINE
  5
F8
330
1F
100
AcDbEntity
  8
0
  6
Continuous
 62
   144
370
     0
100
AcDbLine
 10
66.5893145093
 20
133.0608956254
 30
0.0
 11
66.5893145093
 21
133.0044052408
 31
0.0
  0
SPLINE
  5
F9
330
1F
100
AcDbEntity
  8
0
  6
Continuous
 62
   144
370
     0
100
AcDbSpline
210
0.0
220
0.0
230
1.0
 70
     8
 71
     3
 72
    15
 73
    11
 74
     0
 42
0.00000001
 43
0.00000001
 40
0.0
 40
0.0
 40
0.0
 40
0.0
 40
0.1870567768625685
 40
0.3500942666467379
 40
0.4902447137809879
 40
0.6080502759857809
 40
0.7125528994232341
 40
0.8104178068914174
 40
0.9046789415185811
 40
1.0
 40
1.0
 40
1.0
 40
1.0
 10
66.48594912468508
 20
133.2972738305751
 30
0.0
 10
66.48736192133833
 20
133.2804292250046
 30
0.0
 10
66.4900061025144
 20
133.2489029690032
 30
0.0
 10
66.49650131292029
 20
133.2050162633258
 30
0.0
 10
66.50574369402216
 20
133.1680769371892
 30
0.0
 10
66.51631054581901
 20
133.1369776194526
 30
0.0
 10
66.53026763978528
 20
133.1114549685453
 30
0.0
 10
66.5468512830232
 20
133.0902857048092
 30
0.0
 10
66.56635298426582
 20
133.0727386623497
 30
0.0
 10
66.58163219308106
 20
133.0648579909408
 30
0.0
 10
66.58931450930048
 20
133.0608956254469
 30
0.0
  0
LINE
  5
FA
330
1F
100
AcDbEntity
  8
0
  6
Continuous
 62
   144
370
     0
100
AcDbLine
 10
66.4611093811
 20
133.6330110101
 30
0.0
 11
66.4859491247
 21
133.2972738306
 31
0.0
  0
SPLINE
  5
FB
330
1F
100
AcDbEntity
  8
0
  6
Continuous
 62
   144
370
     0
100
AcDbSpline
210
0.0
220
0.0
230
1.0
 70
     8
 71
     3
 72
    19
 73
    15
 74
     0
 42
0.00000001
 43
0.00000001
 40
0.0
 40
0.0
 40
0.0
 40
0.0
 40
0.1194583974501309
 40
0.227631926003818
 40
0.3283187464216168
 40
0.4250487930858433
 40
0.4757529301745854
 40
0.5321772303437631
 40
0.5942825331418592
 40
0.6626758559523469
 40
0.7364162771613507
 40
0.8178375567039754
 40
0.9056997905787345
 40
1.0
 40
1.0
 40
1.0
 40
1.0
 10
66.23554848365944
 20
134.0092129331392
 30
0.0
 10
66.2536676635092
 20
134.0033773902206
 30
0.0
 10
66.28819435978883
 20
133.9922575702482
 30
0.0
 10
66.33447551120265
 20
133.9671896068194
 30
0.0
 10
66.37196711031068
 20
133.935808604953
 30
0.0
 10
66.39715710778829
 20
133.9049696537386
 30
0.0
 10
66.41265655438764
 20
133.876375787094
 30
0.0
 10
66.42276538481819
 20
133.8513922832851
 30
0.0
 10
66.43268626452601
 20
133.8233150854323
 30
0.0
 10
66.44014061039627
 20
133.7916500200616
 30
0.0
 10
66.4478241493549
 20
133.7569026477152
 30
0.0
 10
66.4528952690988
 20
133.7185364270028
 30
0.0
 10
66.45795826378924
 20
133.6768989225391
 30
0.0
 10
66.460034548676
 20
133.6479809862849
 30
0.0
 10
66.46110938109534
 20
133.6330110100623
 30
0.0
  0
SPLINE
  5
FC
330
1F
100
AcDbEntity
  8
0
  6
Continuous
 62
   144
370
     0
100
AcDbSpline
210
0.0
220
0.0
230
1.0
 70
     8
 71
     3
 72
    15
 73
    11
 74
     0
 42
0.00000001
 43
0.00000001
 40
0.0
 40
0.0
 40
0.0
 40
0.0
 40
0.1366393736217555
 40
0.2651031643221094
 40
0.3877408708751086
 40
0.5065655080902194
 40
0.6251322976874314
 40
0.7448230697054079
 40
0.8689573208713232
 40
1.0
 40
1.0
 40
1.0
 40
1.0
 10
66.51239143237738
 20
134.4587321639085
 30
0.0
 10
66.51156741142269
 20
134.4331682594826
 30
0.0
 10
66.50996867339595
 20
134.3835700230733
 30
0.0
 10
66.49697707823125
 20
134.3119594324259
 30
0.0
 10
66.47547524391554
 20
134.2459626801349
 30
0.0
 10
66.4445816258821
 20
134.185831872195
 30
0.0
 10
66.40506159025
 20
134.1316452273498
 30
0.0
 10
66.35655019440097
 20
134.0839937160506
 30
0.0
 10
66.29996563002807
 20
134.042086007808
 30
0.0
 10
66.2574049488311
 20
134.0203666282668
 30
0.0
 10
66.23554848365944
 20
134.0092129331392
 30
0.0
  0
SPLINE
  5
FD
330
1F
100
AcDbEntity
  8
0
  6
Continuous
 62
   144
370
     0
100
AcDbSpline
210
0.0
220
0.0
230
1.0
 70
     8
 71
     3
 72
    15
 73
    11
 74
     0
 42
0.00000001
 43
0.00000001
 40
0.0
 40
0.0
 40
0.0
 40
0.0
 40
0.1227873545243413
 40
0.2423349890165401
 40
0.3602931965921041
 40
0.48033102725542
 40
0.6029414256890229
 40
0.7289654863996644
 40
0.8607340044621276
 40
1.0
 40
1.0
 40
1.0
 40
1.0
 10
66.25437861186457
 20
134.93469370237
 30
0.0
 10
66.27458371490948
 20
134.9229026945825
 30
0.0
 10
66.3144608133569
 20
134.899631782413
 30
0.0
 10
66.36610150905172
 20
134.8541080555916
 30
0.0
 10
66.41156583790317
 20
134.8033208783703
 30
0.0
 10
66.4483275122972
 20
134.7451033971273
 30
0.0
 10
66.47735034527673
 20
134.6810586376164
 30
0.0
 10
66.49755022013925
 20
134.6114294601537
 30
0.0
 10
66.51038481482306
 20
134.5367971944122
 30
0.0
 10
66.51171033746002
 20
134.4852293384126
 30
0.0
 10
66.51239143237738
 20
134.4587321639085
 30
0.0
  0
SPLINE
  5
FE
330
1F
100
AcDbEntity
  8
0
  6
Continuous
 62
   144
370
     0
100
AcDbSpline
210
0.0
220
0.0
230
1.0
 70
     8
 71
     3
 72
    19
 73
    15
 74
     0
 42
0.00000001
 43
0.00000001
 40
0.0
 40
0.0
 40
0.0
 40
0.0
 40
0.1020279684388196
 40
0.1969093140614217
 40
0.2846552783101546
 40
0.3661741621627236
 40
0.4397560672199319
 40
0.5071688640249511
 40
0.5684450155157085
 40
0.6218577284580264
 40
0.7206795754359636
 40
0.8169436763925025
 40
0.9095394182467921
 40
1.0
 40
1.0
 40
1.0
 40
1.0
 10
65.81687861186457
 20
135.0044052408315
 30
0.0
 10
65.83210325626366
 20
135.0043026326767
 30
0.0
 10
65.86148612383738
 20
135.0041046036294
 30
0.0
 10
65.90395786018688
 20
135.0033185569848
 30
0.0
 10
65.94335428027614
 20
135.0020772104886
 30
0.0
 10
65.9795709353066
 20
135.0006874283756
 30
0.0
 10
66.0126834776789
 20
134.9981510963809
 30
0.0
 10
66.04274071450635
 20
134.9953935980518
 30
0.0
 10
66.0697431726587
 20
134.9922951370179
 30
0.0
 10
66.10124547785226
 20
134.9875146248731
 30
0.0
 10
66.13760808831135
 20
134.9799386760448
 30
0.0
 10
66.17861075832741
 20
134.967169236327
 30
0.0
 10
66.21799190431999
 20
134.9532827446622
 30
0.0
 10
66.2423443914268
 20
134.9408416791386
 30
0.0
 10
66.25437861186457
 20
134.93469370237
 30
0.0
  0
LINE
  5
FF
330
1F
100
AcDbEntity
  8
0
  6
Continuous
 62
   144
370
     0
100
AcDbLine
 10
65.0508529708
 20
135.0044052408
 30
0.0
 11
65.8168786119
 21
135.0044052408
 31
0.0
  0
LINE
  5
100
330
1F
100
AcDbEntity
  8
0
  6
Continuous
 62
   144
370
     0
100
AcDbLine
 10
65.0508529708
 20
133.0044052408
 30
0.0
 11
65.0508529708
 21
135.0044052408
 31
0.0
  0
SPLINE
  5
101
330
1F
100
AcDbEntity
  8
0
  6
Continuous
 62
   144
370
     0
100
AcDbSpline
210
0.0
220
0.0
230
1.0
 70
     8
 71
     3
 72
    23
 73
    19
 74
     0
 42
0.00000001
 43
0.00000001
 40
0.0
 40
0.0
 40
0.0
 40
0.0
 40
0.0651887828974922
 40
0.1295882266645824
 40
0.193138899719847
 40
0.2562803462213774
 40
0.3185877752072618
 40
0.3805166471499724
 40
0.4420927314305511
 40
0.5034962300545216
 40
0.5646414659709257
 40
0.6261145893512056
 40
0.6874075916888069
 40
0.7490883598638516
 40
0.8109855179396823
 40
0.8736065386044782
 40
0.9363655199452674
 40
1.0
 40
1.0
 40
1.0
 40
1.0
 10
62.97392989391584
 20
134.6430270357033
 30
0.0
 10
62.9464743042918
 20
134.6135705579146
 30
0.0
 10
62.89189557136771
 20
134.5550142764386
 30
0.0
 10
62.81429698816354
 20
134.4643676905816
 30
0.0
 10
62.74057950265344
 20
134.3721500183947
 30
0.0
 10
62.67203163421009
 20
134.2776211013881
 30
0.0
 10
62.60712641680227
 20
134.1817641229009
 30
0.0
 10
62.54721542257249
 20
134.0838386854818
 30
0.0
 10
62.49084811152277
 20
133.9844767703763
 30
0.0
 10
62.4392739355486
 20
133.8830785712298
 30
0.0
 10
62.3917588361872
 20
133.7797873288777
 30
0.0
 10
62.34883383823668
 20
133.6745933084067
 30
0.0
 10
62.30901201514239
 20
133.5678151767746
 30
0.0
 10
62.27498053740991
 20
133.4587756158116
 30
0.0
 10
62.24428636877597
 20
133.3479180513501
 30
0.0
 10
62.21802917504547
 20
133.2352390979872
 30
0.0
 10
62.19559588290473
 20
133.1206226414703
 30
0.0
 10
62.18459609134771
 20
133.0433228537179
 30
0.0
 10
62.17905809904406
 20
133.0044052408315
 30
0.0
  0
LINE
  5
102
330
1F
100
AcDbEntity
  8
0
  6
Continuous
 62
   144
370
     0
100
AcDbLine
 10
62.9739298939
 20
134.8762001126
 30
0.0
 11
62.9739298939
 21
134.6430270357
 31
0.0
  0
LINE
  5
103
330
1F
100
AcDbEntity
  8
0
  6
Continuous
 62
   144
370
     0
100
AcDbLine
 10
61.6662375862
 20
134.8762001126
 30
0.0
 11
62.9739298939
 21
134.8762001126
 31
0.0
  0
LINE
  5
104
330
1F
100
AcDbEntity
  8
0
  6
Continuous
 62
   144
370
     0
100
AcDbLine
 10
61.6662375862
 20
134.6197898562
 30
0.0
 11
61.6662375862
 21
134.8762001126
 31
0.0
  0
LINE
  5
105
330
1F
100
AcDbEntity
  8
0
  6
Continuous
 62
   144
370
     0
100
AcDbLine
 10
62.7002920734
 20
134.6197898562
 30
0.0
 11
61.6662375862
 21
134.6197898562
 31
0.0
  0
SPLINE
  5
106
330
1F
100
AcDbEntity
  8
0
  6
Continuous
 62
   144
370
     0
100
AcDbSpline
210
0.0
220
0.0
230
1.0
 70
     8
 71
     3
 72
    23
 73
    19
 74
     0
 42
0.00000001
 43
0.00000001
 40
0.0
 40
0.0
 40
0.0
 40
0.0
 40
0.0629019562638217
 40
0.1253075699858742
 40
0.1870891021687279
 40
0.2485509144807935
 40
0.3096391863159093
 40
0.370392566844116
 40
0.4311125554705372
 40
0.4919822667482658
 40
0.5528142842362863
 40
0.6143906968445084
 40
0.6765384951034011
 40
0.7393136567921842
 40
0.8030495404385326
 40
0.8675756610880483
 40
0.9332445034026813
 40
0.9999999999999999
 40
0.9999999999999999
 40
0.9999999999999999
 40
0.9999999999999999
 10
61.92264784263379
 20
133.0044052408315
 30
0.0
 10
61.92809878949814
 20
133.0422462555389
 30
0.0
 10
61.93895767126054
 20
133.1176296916103
 30
0.0
 10
61.96035325223514
 20
133.2293409112357
 30
0.0
 10
61.98563791034783
 20
133.3393157376957
 30
0.0
 10
62.01472078201679
 20
133.4475341348745
 30
0.0
 10
62.04849893189761
 20
133.5537263587201
 30
0.0
 10
62.08625178018424
 20
133.6580804412048
 30
0.0
 10
62.12787200190786
 20
133.7608166751987
 30
0.0
 10
62.17395904125662
 20
133.8616873552231
 30
0.0
 10
62.22437107845587
 20
133.9610341020638
 30
0.0
 10
62.27858298636215
 20
134.0592673893212
 30
0.0
 10
62.3382536849767
 20
134.155665711124
 30
0.0
 10
62.40142383644496
 20
134.2513791089901
 30
0.0
 10
62.46975921542291
 20
134.3452763614281
 30
0.0
 10
62.54186638882066
 20
134.4385233340924
 30
0.0
 10
62.61877522793519
 20
134.5302926164716
 30
0.0
 10
62.67297154928301
 20
134.5897946879404
 30
0.0
 10
62.70029207340303
 20
134.6197898562161
 30
0.0
  0
LINE
  5
107
330
1F
100
AcDbEntity
  8
0
  6
Continuous
 62
   144
370
     0
100
AcDbLine
 10
62.179058099
 20
133.0044052408
 30
0.0
 11
61.9226478426
 21
133.0044052408
 31
0.0
  0
SPLINE
  5
108
330
1F
100
AcDbEntity
  8
0
  6
Continuous
 62
   144
370
     0
100
AcDbSpline
210
0.0
220
0.0
230
1.0
 70
     8
 71
     3
 72
    23
 73
    19
 74
     0
 42
0.00000001
 43
0.00000001
 40
0.0
 40
0.0
 40
0.0
 40
0.0
 40
0.0866759409490938
 40
0.168150524392274
 40
0.2446497760822869
 40
0.3164467260529328
 40
0.3839508376000726
 40
0.4477862154039235
 40
0.5078695453586871
 40
0.5650496590424662
 40
0.6199838288950267
 40
0.672986575431788
 40
0.7251067932922143
 40
0.7768392116778733
 40
0.829401690955517
 40
0.8835205838800524
 40
0.9402587800414849
 40
1.0
 40
1.0
 40
1.0
 40
1.0
 10
60.61495553494149
 20
133.9511199844212
 30
0.0
 10
60.61442107213424
 20
133.9125104140496
 30
0.0
 10
60.61338421922763
 20
133.8376082043539
 30
0.0
 10
60.60529870374925
 20
133.7288675521656
 30
0.0
 10
60.59225846510719
 20
133.6273136599794
 30
0.0
 10
60.57413508578924
 20
133.5328284679514
 30
0.0
 10
60.55001042319857
 20
133.445530875985
 30
0.0
 10
60.52106659876483
 20
133.365224985276
 30
0.0
 10
60.48654128080749
 20
133.2921688126736
 30
0.0
 10
60.44677365518055
 20
133.2264354861554
 30
0.0
 10
60.40200982008641
 20
133.167833966048
 30
0.0
 10
60.35132287080756
 20
133.1174339146577
 30
0.0
 10
60.29629937803502
 20
133.0740951132555
 30
0.0
 10
60.2359328647067
 20
133.0388354470717
 30
0.0
 10
60.17044432775909
 20
133.0120173410586
 30
0.0
 10
60.10009026716779
 20
132.9928020983647
 30
0.0
 10
60.02480661997367
 20
132.9810023088624
 30
0.0
 10
59.97290534775081
 20
132.9795229597355
 30
0.0
 10
59.94628566314662
 20
132.9787642151905
 30
0.0
  0
SPLINE
  5
109
330
1F
100
AcDbEntity
  8
0
  6
Continuous
 62
   144
370
     0
100
AcDbSpline
210
0.0
220
0.0
230
1.0
 70
     8
 71
     3
 72
    23
 73
    19
 74
     0
 42
0.00000001
 43
0.00000001
 40
0.0
 40
0.0
 40
0.0
 40
0.0
 40
0.0592940561976213
 40
0.1155957239221511
 40
0.1695801296682374
 40
0.222127021310299
 40
0.2737308829830057
 40
0.3255380209318561
 40
0.3786209593631431
 40
0.4336019530819556
 40
0.4910509470574054
 40
0.5512552459825589
 40
0.6149319908325163
 40
0.6825566669609255
 40
0.7544687356235393
 40
0.8313710662400099
 40
0.9129414582625683
 40
1.0
 40
1.0
 40
1.0
 40
1.0
 10
59.94628566314662
 20
134.9274821639084
 30
0.0
 10
59.97277391191399
 20
134.9267295788219
 30
0.0
 10
60.0244136290804
 20
134.9252623893011
 30
0.0
 10
60.09940117929929
 20
134.9133601433188
 30
0.0
 10
60.16973932151084
 20
134.8943380788164
 30
0.0
 10
60.23506008445027
 20
134.8669410629525
 30
0.0
 10
60.29534937154777
 20
134.8317156331023
 30
0.0
 10
60.3508135410337
 20
134.7888668260049
 30
0.0
 10
60.4010341712893
 20
134.7378643015119
 30
0.0
 10
60.44650650422162
 20
134.6794030560178
 30
0.0
 10
60.4865813078293
 20
134.6133578357209
 30
0.0
 10
60.5209533459509
 20
134.5399024736237
 30
0.0
 10
60.550101524095
 20
134.4594086870091
 30
0.0
 10
60.574112245986
 20
134.3718044493552
 30
0.0
 10
60.59230170850222
 20
134.2768008467457
 30
0.0
 10
60.60526379167931
 20
134.1747018497831
 30
0.0
 10
60.61340057095398
 20
134.0653002656192
 30
0.0
 10
60.61442608821383
 20
133.9899970109824
 30
0.0
 10
60.61495553494149
 20
133.9511199844212
 30
0.0
  0
SPLINE
  5
10A
330
1F
100
AcDbEntity
  8
0
  6
Continuous
 62
   144
370
     0
100
AcDbSpline
210
0.0
220
0.0
230
1.0
 70
     8
 71
     3
 72
    23
 73
    19
 74
     0
 42
0.00000001
 43
0.00000001
 40
0.0
 40
0.0
 40
0.0
 40
0.0
 40
0.086970021011482
 40
0.1687168618830976
 40
0.2455084351435668
 40
0.3173589074430825
 40
0.3853581410342846
 40
0.4491893638722695
 40
0.5095397167295211
 40
0.5669725678398556
 40
0.6221407370952665
 40
0.6749318676975632
 40
0.7268646883026897
 40
0.778487635639237
 40
0.8308856898751248
 40
0.8844232698322374
 40
0.9408615238155836
 40
1.0
 40
1.0
 40
1.0
 40
1.0
 10
59.28162220160815
 20
133.9511199844212
 30
0.0
 10
59.28219983358132
 20
133.9898609366601
 30
0.0
 10
59.28332040654087
 20
134.0650161661526
 30
0.0
 10
59.29081934420017
 20
134.1741759406111
 30
0.0
 10
59.30369485862803
 20
134.2760723220502
 30
0.0
 10
59.32284117410086
 20
134.3707164689634
 30
0.0
 10
59.34585546380461
 20
134.4585660825331
 30
0.0
 10
59.37524974775015
 20
134.5391011640355
 30
0.0
 10
59.40962937157484
 20
134.6124541563552
 30
0.0
 10
59.44935052690537
 20
134.6786528109385
 30
0.0
 10
59.49423891357581
 20
134.737240635009
 30
0.0
 10
59.54376615877127
 20
134.7887473552636
 30
0.0
 10
59.59931568613858
 20
134.831090210025
 30
0.0
 10
59.65895333171513
 20
134.8670526911627
 30
0.0
 10
59.72393871159565
 20
134.8942146087807
 30
0.0
 10
59.79379952724403
 20
134.9134870821715
 30
0.0
 10
59.86843321939973
 20
134.9252174644244
 30
0.0
 10
59.91993377891999
 20
134.9267155971093
 30
0.0
 10
59.94628566314662
 20
134.9274821639084
 30
0.0
  0
SPLINE
  5
10B
330
1F
100
AcDbEntity
  8
0
  6
Continuous
 62
   144
370
     0
100
AcDbSpline
210
0.0
220
0.0
230
1.0
 70
     8
 71
     3
 72
    23
 73
    19
 74
     0
 42
0.00000001
 43
0.00000001
 40
0.0
 40
0.0
 40
0.0
 40
0.0
 40
0.0592889799326128
 40
0.1158708657663921
 40
0.1695446955387313
 40
0.2219598842662555
 40
0.2735612404460759
 40
0.3258106999491081
 40
0.3785215170855039
 40
0.4335919062909064
 40
0.490913808557317
 40
0.551146126152105
 40
0.6151397954870048
 40
0.682731814709389
 40
0.7547651419975426
 40
0.8314540876173279
 40
0.9131091301530136
 40
1.0
 40
1.0
 40
1.0
 40
1.0
 10
59.94628566314662
 20
132.9787642151905
 30
0.0
 10
59.91993453477201
 20
132.9795330836022
 30
0.0
 10
59.86843545244411
 20
132.981035714422
 30
0.0
 10
59.79379124906549
 20
132.9927340894016
 30
0.0
 10
59.7240176084253
 20
133.0121063867315
 30
0.0
 10
59.65900585889165
 20
133.0388045827829
 30
0.0
 10
59.59905617428056
 20
133.0742577747623
 30
0.0
 10
59.54404295758268
 20
133.1171541629651
 30
0.0
 10
59.49420295760468
 20
133.1681352954457
 30
0.0
 10
59.44936291489044
 20
133.2263929385275
 30
0.0
 10
59.40963852418076
 20
133.2921787022378
 30
0.0
 10
59.37514581220491
 20
133.3652315307643
 30
0.0
 10
59.3460209064694
 20
133.4454571799152
 30
0.0
 10
59.32269825365874
 20
133.5329533686634
 30
0.0
 10
59.30376010643495
 20
133.6272486100911
 30
0.0
 10
59.29080346527351
 20
133.7288606680911
 30
0.0
 10
59.28332404757849
 20
133.8376249597604
 30
0.0
 10
59.28220111148722
 20
133.9125128530207
 30
0.0
 10
59.28162220160815
 20
133.9511199844212
 30
0.0
  0
LINE
  5
10C
330
1F
100
AcDbEntity
  8
0
  6
Continuous
 62
   144
370
     0
100
AcDbLine
 10
57.1021350221
 20
134.9274821639
 30
0.0
 11
57.1021350221
 21
133.0044052408
 31
0.0
  0
LINE
  5
10D
330
1F
100
AcDbEntity
  8
0
  6
Continuous
 62
   144
370
     0
100
AcDbLine
 10
56.9294587401
 20
134.9274821639
 30
0.0
 11
57.1021350221
 21
134.9274821639
 31
0.0
  0
SPLINE
  5
10E
330
1F
100
AcDbEntity
  8
0
  6
Continuous
 62
   144
370
     0
100
AcDbSpline
210
0.0
220
0.0
230
1.0
 70
     8
 71
     3
 72
    23
 73
    19
 74
     0
 42
0.00000001
 43
0.00000001
 40
0.0
 40
0.0
 40
0.0
 40
0.0
 40
0.0832268639335381
 40
0.161396499281693
 40
0.234789721051146
 40
0.3037233295024032
 40
0.3684126572854912
 40
0.429222687042115
 40
0.4868520481542664
 40
0.54193045650602
 40
0.5951782088727166
 40
0.6481999647871562
 40
0.7017368822386124
 40
0.7563837869037213
 40
0.8130041358013756
 40
0.8722770260382487
 40
0.9342245739886808
 40
1.0
 40
1.0
 40
1.0
 40
1.0
 10
56.4354683554543
 20
134.5685078049341
 30
0.0
 10
56.45444012075166
 20
134.5689948888519
 30
0.0
 10
56.49123084383633
 20
134.5699394593366
 30
0.0
 10
56.54461895340985
 20
134.5742784488798
 30
0.0
 10
56.59442657451093
 20
134.5813686599261
 30
0.0
 10
56.64058841582989
 20
134.5914032718879
 30
0.0
 10
56.68319537388041
 20
134.6037619264561
 30
0.0
 10
56.72233842785692
 20
134.6184610734724
 30
0.0
 10
56.75781373444953
 20
134.6361281789472
 30
0.0
 10
56.78976676200439
 20
134.6565706782148
 30
0.0
 10
56.81804285488643
 20
134.6802132316318
 30
0.0
 10
56.8436375753791
 20
134.7062710068958
 30
0.0
 10
56.86557765572785
 20
134.7358684085079
 30
0.0
 10
56.88507733874426
 20
134.7680619477454
 30
0.0
 10
56.90107756957987
 20
134.8036036978013
 30
0.0
 10
56.91379759100002
 20
134.8421620596779
 30
0.0
 10
56.92347007347513
 20
134.8837559381151
 30
0.0
 10
56.92742302764751
 20
134.9126184175941
 30
0.0
 10
56.9294587400697
 20
134.9274821639084
 30
0.0
  0
LINE
  5
10F
330
1F
100
AcDbEntity
  8
0
  6
Continuous
 62
   144
370
     0
100
AcDbLine
 10
56.4354683555
 20
134.3633795998
 30
0.0
 11
56.4354683555
 21
134.5685078049
 31
0.0
  0
LINE
  5
110
330
1F
100
AcDbEntity
  8
0
  6
Continuous
 62
   144
370
     0
100
AcDbLine
 10
56.8713657914
 20
134.3633795998
 30
0.0
 11
56.4354683555
 21
134.3633795998
 31
0.0
  0
LINE
  5
111
330
1F
100
AcDbEntity
  8
0
  6
Continuous
 62
   144
370
     0
100
AcDbLine
 10
56.8713657914
 20
133.0044052408
 30
0.0
 11
56.8713657914
 21
134.3633795998
 31
0.0
  0
LINE
  5
112
330
1F
100
AcDbEntity
  8
0
  6
Continuous
 62
   144
370
     0
100
AcDbLine
 10
57.1021350221
 20
133.0044052408
 30
0.0
 11
56.8713657914
 21
133.0044052408
 31
0.0
  0
LINE
  5
113
330
1F
100
AcDbEntity
  8
0
  6
Continuous
 62
   144
370
     0
100
AcDbLine
 10
54.3585452785
 20
133.2351744716
 30
0.0
 11
54.3585452785
 21
133.0044052408
 31
0.0
  0
LINE
  5
114
330
1F
100
AcDbEntity
  8
0
  6
Continuous
 62
   144
370
     0
100
AcDbLine
 10
53.3841863042
 20
133.2351744716
 30
0.0
 11
54.3585452785
 21
133.2351744716
 31
0.0
  0
LINE
  5
115
330
1F
100
AcDbEntity
  8
0
  6
Continuous
 62
   144
370
     0
100
AcDbLine
 10
53.3841863042
 20
135.0044052408
 30
0.0
 11
53.3841863042
 21
133.2351744716
 31
0.0
  0
LINE
  5
116
330
1F
100
AcDbEntity
  8
0
  6
Continuous
 62
   144
370
     0
100
AcDbLine
 10
53.1021350221
 20
135.0044052408
 30
0.0
 11
53.3841863042
 21
135.0044052408
 31
0.0
  0
LINE
  5
117
330
1F
100
AcDbEntity
  8
0
  6
Continuous
 62
   144
370
     0
100
AcDbLine
 10
53.1021350221
 20
133.0044052408
 30
0.0
 11
53.1021350221
 21
135.0044052408
 31
0.0
  0
LINE
  5
118
330
1F
100
AcDbEntity
  8
0
  6
Continuous
 62
   144
370
     0
100
AcDbLine
 10
54.3585452785
 20
133.0044052408
 30
0.0
 11
53.1021350221
 21
133.0044052408
 31
0.0
  0
SPLINE
  5
119
330
1F
100
AcDbEntity
  8
0
  6
Continuous
 62
   144
370
     0
100
AcDbSpline
210
0.0
220
0.0
230
1.0
 70
     8
 71
     3
 72
    23
 73
    19
 74
     0
 42
0.00000001
 43
0.00000001
 40
0.0
 40
0.0
 40
0.0
 40
0.0
 40
0.0650382076687185
 40
0.1254623938404374
 40
0.1823968539836721
 40
0.2352448013272269
 40
0.2850895430147494
 40
0.3326571255915612
 40
0.3791823614419543
 40
0.4257075972923473
 40
0.4746526244490708
 40
0.5292091771140698
 40
0.589886449990004
 40
0.657296556357711
 40
0.7313757959298576
 40
0.8135370976746654
 40
0.9028051433458593
 40
1.0
 40
1.0
 40
1.0
 40
1.0
 10
66.23034015032611
 20
134.4543251126264
 30
0.0
 10
66.23002166118656
 20
134.4683595743875
 30
0.0
 10
66.2294072775605
 20
134.4954328476515
 30
0.0
 10
66.22501332347694
 20
134.5345967133754
 30
0.0
 10
66.21763740869558
 20
134.5706429490378
 30
0.0
 10
66.20670877738522
 20
134.6033885514361
 30
0.0
 10
66.19309476091571
 20
134.6328844113859
 30
0.0
 10
66.17661562570002
 20
134.6593309285925
 30
0.0
 10
66.15675468414521
 20
134.6824205288084
 30
0.0
 10
66.1334449946468
 20
134.7024931572928
 30
0.0
 10
66.10579161397362
 20
134.7195293086735
 30
0.0
 10
66.07351609572574
 20
134.7343098448449
 30
0.0
 10
66.03599437335942
 20
134.7465980842715
 30
0.0
 10
65.99343252659915
 20
134.7563035794637
 30
0.0
 10
65.94583693961987
 20
134.7644203675864
 30
0.0
 10
65.89310521654501
 20
134.7697861124436
 30
0.0
 10
65.83521299480456
 20
134.7729158717136
 30
0.0
 10
65.79498111833985
 20
134.7733892558616
 30
0.0
 10
65.77401002212098
 20
134.7736360100623
 30
0.0
  0
SPLINE
  5
11A
330
1F
100
AcDbEntity
  8
0
  6
Continuous
 62
   144
370
     0
100
AcDbSpline
210
0.0
220
0.0
230
1.0
 70
     8
 71
     3
 72
    23
 73
    19
 74
     0
 42
0.00000001
 43
0.00000001
 40
0.0
 40
0.0
 40
0.0
 40
0.0
 40
0.0904322147294319
 40
0.1743914195266746
 40
0.2515471681252023
 40
0.3227138067233192
 40
0.3876331415134437
 40
0.4473186455079827
 40
0.5025790329296553
 40
0.5534007487693848
 40
0.6020566593087615
 40
0.6516811255706155
 40
0.7020288014804603
 40
0.7543580290417236
 40
0.8096348507797212
 40
0.8687423103449501
 40
0.9318453592933206
 40
1.0
 40
1.0
 40
1.0
 40
1.0
 10
65.77401002212098
 20
134.1069693433956
 30
0.0
 10
65.7940463891454
 20
134.1071956717407
 30
0.0
 10
65.83268494840215
 20
134.1076321281682
 30
0.0
 10
65.88834886023749
 20
134.1110667860351
 30
0.0
 10
65.93943584312531
 20
134.1175159333637
 30
0.0
 10
65.98592951139875
 20
134.1261199299954
 30
0.0
 10
66.0278746024037
 20
134.1373298288623
 30
0.0
 10
66.06546371512555
 20
134.150765518226
 30
0.0
 10
66.0984422681954
 20
134.1671333550265
 30
0.0
 10
66.12710098209247
 20
134.1861523002253
 30
0.0
 10
66.1516875577042
 20
134.20837804832
 30
0.0
 10
66.17302069042289
 20
134.2336089113914
 30
0.0
 10
66.19074049011756
 20
134.2624707556262
 30
0.0
 10
66.2050581677509
 20
134.2944691442957
 30
0.0
 10
66.21694342213618
 20
134.3295306069549
 30
0.0
 10
66.22459191286666
 20
134.3681833403056
 30
0.0
 10
66.22953351128041
 20
134.4101254757066
 30
0.0
 10
66.23006445927813
 20
134.439218672778
 30
0.0
 10
66.23034015032611
 20
134.4543251126264
 30
0.0
  0
LINE
  5
11B
330
1F
100
AcDbEntity
  8
0
  6
Continuous
 62
   144
370
     0
100
AcDbLine
 10
65.3300997657
 20
134.1069693434
 30
0.0
 11
65.7740100221
 21
134.1069693434
 31
0.0
  0
LINE
  5
11C
330
1F
100
AcDbEntity
  8
0
  6
Continuous
 62
   144
370
     0
100
AcDbLine
 10
65.3300997657
 20
134.7736360101
 30
0.0
 11
65.3300997657
 21
134.1069693434
 31
0.0
  0
LINE
  5
11D
330
1F
100
AcDbEntity
  8
0
  6
Continuous
 62
   144
370
     0
100
AcDbLine
 10
65.7740100221
 20
134.7736360101
 30
0.0
 11
65.3300997657
 21
134.7736360101
 31
0.0
  0
SPLINE
  5
11E
330
1F
100
AcDbEntity
  8
0
  6
Continuous
 62
   144
370
     0
100
AcDbSpline
210
0.0
220
0.0
230
1.0
 70
     8
 71
     3
 72
    23
 73
    19
 74
     0
 42
0.00000001
 43
0.00000001
 40
0.0
 40
0.0
 40
0.0
 40
0.0
 40
0.0832268639335381
 40
0.161396499281693
 40
0.234789721051146
 40
0.3037233295024032
 40
0.3684126572854912
 40
0.429222687042115
 40
0.4868520481542664
 40
0.54193045650602
 40
0.5951782088727166
 40
0.6481999647871562
 40
0.7017368822386124
 40
0.7563837869037213
 40
0.8130041358013756
 40
0.8722770260382487
 40
0.9342245739886808
 40
1.0
 40
1.0
 40
1.0
 40
1.0
 10
56.4354683554543
 20
134.5685078049341
 30
0.0
 10
56.45444012075166
 20
134.5689948888519
 30
0.0
 10
56.49123084383633
 20
134.5699394593366
 30
0.0
 10
56.54461895340985
 20
134.5742784488798
 30
0.0
 10
56.59442657451093
 20
134.5813686599261
 30
0.0
 10
56.64058841582989
 20
134.5914032718879
 30
0.0
 10
56.68319537388041
 20
134.6037619264561
 30
0.0
 10
56.72233842785692
 20
134.6184610734724
 30
0.0
 10
56.75781373444953
 20
134.6361281789472
 30
0.0
 10
56.78976676200439
 20
134.6565706782148
 30
0.0
 10
56.81804285488643
 20
134.6802132316318
 30
0.0
 10
56.8436375753791
 20
134.7062710068958
 30
0.0
 10
56.86557765572785
 20
134.7358684085079
 30
0.0
 10
56.88507733874426
 20
134.7680619477454
 30
0.0
 10
56.90107756957987
 20
134.8036036978013
 30
0.0
 10
56.91379759100002
 20
134.8421620596779
 30
0.0
 10
56.92347007347513
 20
134.8837559381151
 30
0.0
 10
56.92742302764751
 20
134.9126184175941
 30
0.0
 10
56.9294587400697
 20
134.9274821639084
 30
0.0
  0
LINE
  5
11F
330
1F
100
AcDbEntity
  8
0
  6
Continuous
 62
   144
370
     0
100
AcDbLine
 10
64.2627920734
 20
133.8249180613
 30
0.0
 11
63.9550997657
 21
134.7155430613
 31
0.0
  0
LINE
  5
120
330
1F
100
AcDbEntity
  8
0
  6
Continuous
 62
   144
370
     0
100
AcDbLine
 10
63.6434010478
 20
133.8249180613
 30
0.0
 11
64.2627920734
 21
133.8249180613
 31
0.0
  0
LINE
  5
121
330
1F
100
AcDbEntity
  8
0
  6
Continuous
 62
   144
370
     0
100
AcDbLine
 10
63.9550997657
 20
134.7155430613
 30
0.0
 11
63.6434010478
 21
133.8249180613
 31
0.0
  0
SPLINE
  5
122
330
1F
100
AcDbEntity
  8
0
  6
Continuous
 62
   144
370
     0
100
AcDbSpline
210
0.0
220
0.0
230
1.0
 70
     8
 71
     3
 72
    23
 73
    19
 74
     0
 42
0.00000001
 43
0.00000001
 40
0.0
 40
0.0
 40
0.0
 40
0.0
 40
0.0712987531760267
 40
0.139935344729336
 40
0.2062760737646543
 40
0.2704255396967119
 40
0.3329224108084382
 40
0.3945434957441059
 40
0.4557897074785781
 40
0.5170840309343235
 40
0.5778621888313904
 40
0.63714104963766
 40
0.6961223497307805
 40
0.754425031261575
 40
0.8136090221900667
 40
0.8737395723352172
 40
0.9358965028778103
 40
1.0
 40
1.0
 40
1.0
 40
1.0
 10
58.39300040673636
 20
132.9787642151905
 30
0.0
 10
58.37081293089735
 20
132.9792338317976
 30
0.0
 10
58.32726641792341
 20
132.9801555304091
 30
0.0
 10
58.26339339628458
 20
132.9871639996745
 30
0.0
 10
58.20235936572483
 20
132.9981341158256
 30
0.0
 10
58.14439115706207
 20
133.0141564991667
 30
0.0
 10
58.08962266981702
 20
133.035168815745
 30
0.0
 10
58.03774422079716
 20
133.0605065073747
 30
0.0
 10
57.98854515630769
 20
133.0900806788185
 30
0.0
 10
57.94314196734619
 20
133.1247340910676
 30
0.0
 10
57.90097811651904
 20
133.1623576261767
 30
0.0
 10
57.8639159840951
 20
133.2041043378161
 30
0.0
 10
57.83152875583973
 20
133.2485540591146
 30
0.0
 10
57.80331577310569
 20
133.2957880675245
 30
0.0
 10
57.7810707266334
 20
133.3465203288378
 30
0.0
 10
57.76349565831057
 20
133.4002246708587
 30
0.0
 10
57.74987415608946
 20
133.4567272931901
 30
0.0
 10
57.74542137707139
 20
133.4957904774061
 30
0.0
 10
57.74316066314662
 20
133.5156231895495
 30
0.0
  0
SPLINE
  5
123
330
1F
100
AcDbEntity
  8
0
  6
Continuous
 62
   144
370
     0
100
AcDbSpline
210
0.0
220
0.0
230
1.0
 70
     8
 71
     3
 72
    23
 73
    19
 74
     0
 42
0.00000001
 43
0.00000001
 40
0.0
 40
0.0
 40
0.0
 40
0.0
 40
0.0677823022128365
 40
0.1322992973352984
 40
0.1948469270990191
 40
0.2556715754679166
 40
0.3152882249856302
 40
0.3745231355098073
 40
0.434097490378837
 40
0.4944645781914516
 40
0.5551889974163086
 40
0.615612890413182
 40
0.6755843378582969
 40
0.7366112452896344
 40
0.7989828815529836
 40
0.8632770193769786
 40
0.9303480173573387
 40
1.0
 40
1.0
 40
1.0
 40
1.0
 10
59.07649399647995
 20
133.6402225485238
 30
0.0
 10
59.07601886968011
 20
133.6160212535715
 30
0.0
 10
59.07509150457577
 20
133.5687845234478
 30
0.0
 10
59.06598792592479
 20
133.4997084624417
 30
0.0
 10
59.05135620651981
 20
133.4341693305932
 30
0.0
 10
59.03035252634231
 20
133.3722097561167
 30
0.0
 10
59.00390597698281
 20
133.3136704833596
 30
0.0
 10
58.97123686379366
 20
133.2588478971951
 30
0.0
 10
58.93251566909412
 20
133.2078073425855
 30
0.0
 10
58.88843915857081
 20
133.1606102919105
 30
0.0
 10
58.83972667198397
 20
133.1177323300137
 30
0.0
 10
58.78676365623153
 20
133.0804615633521
 30
0.0
 10
58.73011012709728
 20
133.048870905725
 30
0.0
 10
58.66976253842016
 20
133.0232559040908
 30
0.0
 10
58.60574272772982
 20
133.0032158214858
 30
0.0
 10
58.538039928584
 20
132.9887385176991
 30
0.0
 10
58.46666492650021
 20
132.9803361284881
 30
0.0
 10
58.41786233654985
 20
132.979294739223
 30
0.0
 10
58.39300040673636
 20
132.9787642151905
 30
0.0
  0
SPLINE
  5
124
330
1F
100
AcDbEntity
  8
0
  6
Continuous
 62
   144
370
     0
100
AcDbSpline
210
0.0
220
0.0
230
1.0
 70
     8
 71
     3
 72
    23
 73
    19
 74
     0
 42
0.00000001
 43
0.00000001
 40
0.0
 40
0.0
 40
0.0
 40
0.0
 40
0.0708465587130921
 40
0.1385432918636965
 40
0.2035407231116854
 40
0.2663474906626921
 40
0.3276788248583484
 40
0.388028095027543
 40
0.4477088747876252
 40
0.5080218493189306
 40
0.5681790230788633
 40
0.6271863900592297
 40
0.6857200297598041
 40
0.7451920912221425
 40
0.8057238051152832
 40
0.8677096157896064
 40
0.9323148201787999
 40
1.0
 40
1.0
 40
1.0
 40
1.0
 10
58.42665425289021
 20
134.2608154972418
 30
0.0
 10
58.45058233435327
 20
134.2602730269448
 30
0.0
 10
58.49737465897837
 20
134.2592122044849
 30
0.0
 10
58.56572907936471
 20
134.2510406163574
 30
0.0
 10
58.63049137075043
 20
134.2379044441408
 30
0.0
 10
58.69179539406669
 20
134.2195874860575
 30
0.0
 10
58.7492994845223
 20
134.1953514869413
 30
0.0
 10
58.80327532610844
 20
134.1661674886195
 30
0.0
 10
58.85327436906912
 20
134.1312179323818
 30
0.0
 10
58.89980060456764
 20
134.0918552067449
 30
0.0
 10
58.94121465183414
 20
134.0474241157229
 30
0.0
 10
58.97751786774549
 20
133.9995311193522
 30
0.0
 10
59.0084209802931
 20
133.9481945355503
 30
0.0
 10
59.03298562357605
 20
133.8930224943842
 30
0.0
 10
59.05298061064433
 20
133.8347897546179
 30
0.0
 10
59.06624029112236
 20
133.7729063870883
 30
0.0
 10
59.07502297045937
 20
133.7077827039216
 30
0.0
 10
59.0759961023437
 20
133.6630894487323
 30
0.0
 10
59.07649399647995
 20
133.6402225485238
 30
0.0
  0
SPLINE
  5
125
330
1F
100
AcDbEntity
  8
0
  6
Continuous
 62
   144
370
     0
100
AcDbSpline
210
0.0
220
0.0
230
1.0
 70
     8
 71
     3
 72
    15
 73
    11
 74
     0
 42
0.00000001
 43
0.00000001
 40
0.0
 40
0.0
 40
0.0
 40
0.0
 40
0.118417671571376
 40
0.2380397290737634
 40
0.3582782803064156
 40
0.4815734614312364
 40
0.6062680865633566
 40
0.7331380144725519
 40
0.8645070916841873
 40
1.0
 40
1.0
 40
1.0
 40
1.0
 10
58.05806450930046
 20
134.1314084459597
 30
0.0
 10
58.07014229954415
 20
134.1415698135091
 30
0.0
 10
58.09442071913531
 20
134.1619958964271
 30
0.0
 10
58.13476748404564
 20
134.1876511001584
 30
0.0
 10
58.17742597826747
 20
134.2105546243406
 30
0.0
 10
58.22309078527984
 20
134.228639635914
 30
0.0
 10
58.27087056174755
 20
134.2433324755292
 30
0.0
 10
58.32099039393694
 20
134.2530061775516
 30
0.0
 10
58.373046923744
 20
134.259854321001
 30
0.0
 10
58.40860199841485
 20
134.2604918213868
 30
0.0
 10
58.42665425289021
 20
134.2608154972418
 30
0.0
  0
SPLINE
  5
126
330
1F
100
AcDbEntity
  8
0
  6
Continuous
 62
   144
370
     0
100
AcDbSpline
210
0.0
220
0.0
230
1.0
 70
     8
 71
     3
 72
    15
 73
    11
 74
     0
 42
0.00000001
 43
0.00000001
 40
0.0
 40
0.0
 40
0.0
 40
0.0
 40
0.1310276624941684
 40
0.2576035213002775
 40
0.3810891622239775
 40
0.5032974335679447
 40
0.6255019721648827
 40
0.7476505058680596
 40
0.8715602375327659
 40
1.0
 40
1.0
 40
1.0
 40
1.0
 10
58.3893946375056
 20
134.0300462664725
 30
0.0
 10
58.3710672190462
 20
134.0295020160081
 30
0.0
 10
58.33503507559179
 20
134.0284320065656
 30
0.0
 10
58.28227043840513
 20
134.0201489614147
 30
0.0
 10
58.23177433288012
 20
134.0071023245892
 30
0.0
 10
58.18389637712758
 20
133.9879862205686
 30
0.0
 10
58.13841525855948
 20
133.964090407405
 30
0.0
 10
58.09625215078026
 20
133.9343741635784
 30
0.0
 10
58.05629578538032
 20
133.9003017905435
 30
0.0
 10
58.03304143459773
 20
133.8737093684607
 30
0.0
 10
58.02120553494149
 20
133.8601744716007
 30
0.0
  0
SPLINE
  5
127
330
1F
100
AcDbEntity
  8
0
  6
Continuous
 62
   144
370
     0
100
AcDbSpline
210
0.0
220
0.0
230
1.0
 70
     8
 71
     3
 72
    23
 73
    19
 74
     0
 42
0.00000001
 43
0.00000001
 40
0.0
 40
0.0
 40
0.0
 40
0.0
 40
0.0684779092126607
 40
0.1337813517548468
 40
0.196564943813047
 40
0.2571453151281322
 40
0.3165219829219665
 40
0.374676120997681
 40
0.4329791660015411
 40
0.4918951019459634
 40
0.5513878823707636
 40
0.6104597919446539
 40
0.6698096322560014
 40
0.73090192669816
 40
0.7941516495927736
 40
0.8597201036743412
 40
0.9279780133660103
 40
1.0
 40
1.0
 40
1.0
 40
1.0
 10
58.8200837400697
 20
133.6189885741649
 30
0.0
 10
58.81963759045597
 20
133.6343574594235
 30
0.0
 10
58.81876597362222
 20
133.664382766395
 30
0.0
 10
58.81375741675193
 20
133.708314238541
 30
0.0
 10
58.80429768818131
 20
133.749657549295
 30
0.0
 10
58.79210534451091
 20
133.788889079713
 30
0.0
 10
58.77563755555725
 20
133.8254551607004
 30
0.0
 10
58.75519965854522
 20
133.8592826409668
 30
0.0
 10
58.7321719426769
 20
133.8913218244328
 30
0.0
 10
58.70463981892739
 20
133.9200306078296
 30
0.0
 10
58.67437720446566
 20
133.9460335824984
 30
0.0
 10
58.6413248302602
 20
133.968618153322
 30
0.0
 10
58.60566479878996
 20
133.9875313964449
 30
0.0
 10
58.56747809274677
 20
134.0032997376061
 30
0.0
 10
58.52643780773314
 20
134.0150939103519
 30
0.0
 10
58.48305968014749
 20
134.023978383254
 30
0.0
 10
58.43706909620303
 20
134.0292742361395
 30
0.0
 10
58.40556787713598
 20
134.0297843603719
 30
0.0
 10
58.3893946375056
 20
134.0300462664725
 30
0.0
  0
SPLINE
  5
128
330
1F
100
AcDbEntity
  8
0
  6
Continuous
 62
   144
370
     0
100
AcDbSpline
210
0.0
220
0.0
230
1.0
 70
     8
 71
     3
 72
    23
 73
    19
 74
     0
 42
0.00000001
 43
0.00000001
 40
0.0
 40
0.0
 40
0.0
 40
0.0
 40
0.0710438608720235
 40
0.138983094870706
 40
0.2041623218916177
 40
0.2670282652276362
 40
0.328531626976723
 40
0.3891516801243421
 40
0.4497217930680195
 40
0.5102331000629359
 40
0.570579445540171
 40
0.6297702171315892
 40
0.688405024286049
 40
0.7471247742934206
 40
0.8075035584956148
 40
0.8693100720865583
 40
0.9331063723337816
 40
1.0
 40
1.0
 40
1.0
 40
1.0
 10
58.38659015032611
 20
133.2095334459597
 30
0.0
 10
58.40250187058518
 20
133.2097520407961
 30
0.0
 10
58.43362996665399
 20
133.2101796778432
 30
0.0
 10
58.47902526739409
 20
133.2161305815541
 30
0.0
 10
58.5220365193087
 20
133.2248611403216
 30
0.0
 10
58.5628541369642
 20
133.2367036493978
 30
0.0
 10
58.60108701658514
 20
133.2528575452102
 30
0.0
 10
58.63686077591392
 20
133.2727585536314
 30
0.0
 10
58.67076001135885
 20
133.2953761167786
 30
0.0
 10
58.70145271566749
 20
133.3220820084356
 30
0.0
 10
58.72961062426021
 20
133.3510090739441
 30
0.0
 10
58.75365534319585
 20
133.3829465022136
 30
0.0
 10
58.77419317547374
 20
133.4167623913953
 30
0.0
 10
58.79138741160221
 20
133.4527434173475
 30
0.0
 10
58.80394821336075
 20
133.4913348249764
 30
0.0
 10
58.81316971406845
 20
133.5319680633633
 30
0.0
 10
58.81891987934358
 20
133.5747556666126
 30
0.0
 10
58.81968970491915
 20
133.6040131393939
 30
0.0
 10
58.8200837400697
 20
133.6189885741649
 30
0.0
  0
SPLINE
  5
129
330
1F
100
AcDbEntity
  8
0
  6
Continuous
 62
   144
370
     0
100
AcDbSpline
210
0.0
220
0.0
230
1.0
 70
     8
 71
     3
 72
    23
 73
    19
 74
     0
 42
0.00000001
 43
0.00000001
 40
0.0
 40
0.0
 40
0.0
 40
0.0
 40
0.0656091434788862
 40
0.1292134806609775
 40
0.1902404598488336
 40
0.2506792675580353
 40
0.3090758633829993
 40
0.3680162571422192
 40
0.42704448713837
 40
0.4867205149054865
 40
0.5469876339451167
 40
0.6075346257642423
 40
0.6686553655928879
 40
0.730551921021423
 40
0.7946771589700666
 40
0.8607295145562442
 40
0.9290705643931901
 40
1.0
 40
1.0
 40
1.0
 40
1.0
 10
57.99957091955687
 20
133.5156231895495
 30
0.0
 10
58.0018341366033
 20
133.5039750998474
 30
0.0
 10
58.00629141399717
 20
133.4810348489367
 30
0.0
 10
58.01526307565716
 20
133.4477654024244
 30
0.0
 10
58.02748353179724
 20
133.416537850724
 30
0.0
 10
58.04225834181175
 20
133.3875162273513
 30
0.0
 10
58.05925638995293
 20
133.3601693091911
 30
0.0
 10
58.07892727632812
 20
133.3349943186626
 30
0.0
 10
58.10103924644699
 20
133.3116145594991
 30
0.0
 10
58.12560358187331
 20
133.2904852448702
 30
0.0
 10
58.15189848026338
 20
133.2710522588183
 30
0.0
 10
58.18056697129717
 20
133.2547946209533
 30
0.0
 10
58.21061381010105
 20
133.2405884412507
 30
0.0
 10
58.24261395178084
 20
133.2294060373009
 30
0.0
 10
58.27625672027797
 20
133.220626306033
 30
0.0
 10
58.31161935338
 20
133.2143024063522
 30
0.0
 10
58.34856070945809
 20
133.2100795336206
 30
0.0
 10
58.37375757282689
 20
133.2097177166739
 30
0.0
 10
58.38659015032611
 20
133.2095334459597
 30
0.0
  0
LINE
  5
12A
330
1F
100
AcDbEntity
  8
0
  6
Continuous
 62
     7
370
     0
100
AcDbLine
 10
75.4433721983
 20
119.4544052408
 30
0.0
 11
71.8378209229
 21
119.4544052408
 31
0.0
  0
LINE
  5
12B
330
1F
100
AcDbEntity
  8
0
  6
Continuous
 62
   144
370
     0
100
AcDbLine
 10
55.2627920734
 20
134.7155430613
 30
0.0
 11
54.9510933555
 21
133.8249180613
 31
0.0
  0
LINE
  5
12C
330
1F
100
AcDbEntity
  8
0
  6
Continuous
 62
   144
370
     0
100
AcDbLine
 10
54.9510933555
 20
133.8249180613
 30
0.0
 11
55.5704843811
 21
133.8249180613
 31
0.0
  0
LINE
  5
12D
330
1F
100
AcDbEntity
  8
0
  6
Continuous
 62
   144
370
     0
100
AcDbLine
 10
55.5704843811
 20
133.8249180613
 30
0.0
 11
55.2627920734
 21
134.7155430613
 31
0.0
  0
SPLINE
  5
12E
330
1F
100
AcDbEntity
  8
0
  6
Continuous
 62
   144
370
     0
100
AcDbSpline
210
0.0
220
0.0
230
1.0
 70
     8
 71
     3
 72
    23
 73
    19
 74
     0
 42
0.00000001
 43
0.00000001
 40
0.0
 40
0.0
 40
0.0
 40
0.0
 40
0.0650382076687185
 40
0.1254623938404374
 40
0.1823968539836721
 40
0.2352448013272269
 40
0.2850895430147494
 40
0.3326571255915612
 40
0.3791823614419543
 40
0.4257075972923473
 40
0.4746526244490708
 40
0.5292091771140698
 40
0.589886449990004
 40
0.657296556357711
 40
0.7313757959298576
 40
0.8135370976746654
 40
0.9028051433458593
 40
1.0
 40
1.0
 40
1.0
 40
1.0
 10
66.23034015032611
 20
134.4543251126264
 30
0.0
 10
66.23002166118656
 20
134.4683595743875
 30
0.0
 10
66.2294072775605
 20
134.4954328476515
 30
0.0
 10
66.22501332347694
 20
134.5345967133754
 30
0.0
 10
66.21763740869558
 20
134.5706429490378
 30
0.0
 10
66.20670877738522
 20
134.6033885514361
 30
0.0
 10
66.19309476091571
 20
134.6328844113859
 30
0.0
 10
66.17661562570002
 20
134.6593309285925
 30
0.0
 10
66.15675468414521
 20
134.6824205288084
 30
0.0
 10
66.1334449946468
 20
134.7024931572928
 30
0.0
 10
66.10579161397362
 20
134.7195293086735
 30
0.0
 10
66.07351609572574
 20
134.7343098448449
 30
0.0
 10
66.03599437335942
 20
134.7465980842715
 30
0.0
 10
65.99343252659915
 20
134.7563035794637
 30
0.0
 10
65.94583693961987
 20
134.7644203675864
 30
0.0
 10
65.89310521654501
 20
134.7697861124436
 30
0.0
 10
65.83521299480456
 20
134.7729158717136
 30
0.0
 10
65.79498111833985
 20
134.7733892558616
 30
0.0
 10
65.77401002212098
 20
134.7736360100623
 30
0.0
  0
SPLINE
  5
12F
330
1F
100
AcDbEntity
  8
0
  6
Continuous
 62
   144
370
     0
100
AcDbSpline
210
0.0
220
0.0
230
1.0
 70
     8
 71
     3
 72
    23
 73
    19
 74
     0
 42
0.00000001
 43
0.00000001
 40
0.0
 40
0.0
 40
0.0
 40
0.0
 40
0.0904322147294319
 40
0.1743914195266746
 40
0.2515471681252023
 40
0.3227138067233192
 40
0.3876331415134437
 40
0.4473186455079827
 40
0.5025790329296553
 40
0.5534007487693848
 40
0.6020566593087615
 40
0.6516811255706155
 40
0.7020288014804603
 40
0.7543580290417236
 40
0.8096348507797212
 40
0.8687423103449501
 40
0.9318453592933206
 40
1.0
 40
1.0
 40
1.0
 40
1.0
 10
65.77401002212098
 20
134.1069693433956
 30
0.0
 10
65.7940463891454
 20
134.1071956717407
 30
0.0
 10
65.83268494840215
 20
134.1076321281682
 30
0.0
 10
65.88834886023749
 20
134.1110667860351
 30
0.0
 10
65.93943584312531
 20
134.1175159333637
 30
0.0
 10
65.98592951139875
 20
134.1261199299954
 30
0.0
 10
66.0278746024037
 20
134.1373298288623
 30
0.0
 10
66.06546371512555
 20
134.150765518226
 30
0.0
 10
66.0984422681954
 20
134.1671333550265
 30
0.0
 10
66.12710098209247
 20
134.1861523002253
 30
0.0
 10
66.1516875577042
 20
134.20837804832
 30
0.0
 10
66.17302069042289
 20
134.2336089113914
 30
0.0
 10
66.19074049011756
 20
134.2624707556262
 30
0.0
 10
66.2050581677509
 20
134.2944691442957
 30
0.0
 10
66.21694342213618
 20
134.3295306069549
 30
0.0
 10
66.22459191286666
 20
134.3681833403056
 30
0.0
 10
66.22953351128041
 20
134.4101254757066
 30
0.0
 10
66.23006445927813
 20
134.439218672778
 30
0.0
 10
66.23034015032611
 20
134.4543251126264
 30
0.0
  0
SPLINE
  5
130
330
1F
100
AcDbEntity
  8
0
  6
Continuous
 62
   144
370
     0
100
AcDbSpline
210
0.0
220
0.0
230
1.0
 70
     8
 71
     3
 72
    23
 73
    19
 74
     0
 42
0.00000001
 43
0.00000001
 40
0.0
 40
0.0
 40
0.0
 40
0.0
 40
0.0769055617124179
 40
0.1472770130483192
 40
0.2106105090457684
 40
0.2677551329208187
 40
0.3198217078494432
 40
0.3659040988175808
 40
0.4066785428099203
 40
0.4444634292017938
 40
0.4836835628517872
 40
0.5298044824641872
 40
0.5846403035202793
 40
0.6488373302458773
 40
0.7218731357932331
 40
0.8044656842437182
 40
0.8975848606767376
 40
1.0
 40
1.0
 40
1.0
 40
1.0
 10
66.17905809904406
 20
133.5500783177546
 30
0.0
 10
66.17790805532546
 20
133.5663888888899
 30
0.0
 10
66.17570567880054
 20
133.5976242396817
 30
0.0
 10
66.16963883989878
 20
133.6420110991288
 30
0.0
 10
66.16211085781579
 20
133.6818896094223
 30
0.0
 10
66.153040928918
 20
133.7174682784309
 30
0.0
 10
66.1419753759727
 20
133.7486181699257
 30
0.0
 10
66.12930106149955
 20
133.7753729911976
 30
0.0
 10
66.11466640609338
 20
133.7975656515949
 30
0.0
 10
66.09771098647776
 20
133.8161796928868
 30
0.0
 10
66.07606589719954
 20
133.8313208147847
 30
0.0
 10
66.04843386639972
 20
133.8427535128756
 30
0.0
 10
66.01509384411656
 20
133.8538894250353
 30
0.0
 10
65.97491285761723
 20
133.8615488697696
 30
0.0
 10
65.92872339910129
 20
133.8687001701792
 30
0.0
 10
65.87594312161329
 20
133.8724189439822
 30
0.0
 10
65.81692889986005
 20
133.8760907208393
 30
0.0
 10
65.77535337189718
 20
133.8761625110301
 30
0.0
 10
65.75357732981328
 20
133.8762001126264
 30
0.0
  0
SPLINE
  5
131
330
1F
100
AcDbEntity
  8
0
  6
Continuous
 62
   144
370
     0
100
AcDbSpline
210
0.0
220
0.0
230
1.0
 70
     8
 71
     3
 72
    15
 73
    11
 74
     0
 42
0.00000001
 43
0.00000001
 40
0.0
 40
0.0
 40
0.0
 40
0.0
 40
0.0740721306713682
 40
0.1627820845254745
 40
0.2646454426483946
 40
0.3807927872475414
 40
0.5130039066957081
 40
0.660157593517626
 40
0.8224427526445539
 40
1.0
 40
1.0
 40
1.0
 40
1.0
 10
66.26399399647995
 20
133.0044052408315
 30
0.0
 10
66.26038889231435
 20
133.0103437071688
 30
0.0
 10
66.25246625844804
 20
133.0233941746052
 30
0.0
 10
66.24271594683619
 20
133.0462870838293
 30
0.0
 10
66.23409502270981
 20
133.0737211435518
 30
0.0
 10
66.22609619658093
 20
133.1055661506725
 30
0.0
 10
66.21903843063268
 20
133.141961508405
 30
0.0
 10
66.2126944698847
 20
133.1828616151663
 30
0.0
 10
66.20709630259927
 20
133.2281576907375
 30
0.0
 10
66.2042060092806
 20
133.2598711737915
 30
0.0
 10
66.20269591955689
 20
133.2764404972418
 30
0.0
  0
SPLINE
  5
132
330
1F
100
AcDbEntity
  8
0
  6
Continuous
 62
   144
370
     0
100
AcDbSpline
210
0.0
220
0.0
230
1.0
 70
     8
 71
     3
 72
    15
 73
    11
 74
     0
 42
0.00000001
 43
0.00000001
 40
0.0
 40
0.0
 40
0.0
 40
0.0
 40
0.1870567768625685
 40
0.3500942666467379
 40
0.4902447137809879
 40
0.6080502759857809
 40
0.7125528994232341
 40
0.8104178068914174
 40
0.9046789415185811
 40
1.0
 40
1.0
 40
1.0
 40
1.0
 10
66.48594912468508
 20
133.2972738305751
 30
0.0
 10
66.48736192133833
 20
133.2804292250046
 30
0.0
 10
66.4900061025144
 20
133.2489029690032
 30
0.0
 10
66.49650131292029
 20
133.2050162633258
 30
0.0
 10
66.50574369402216
 20
133.1680769371892
 30
0.0
 10
66.51631054581901
 20
133.1369776194526
 30
0.0
 10
66.53026763978528
 20
133.1114549685453
 30
0.0
 10
66.5468512830232
 20
133.0902857048092
 30
0.0
 10
66.56635298426582
 20
133.0727386623497
 30
0.0
 10
66.58163219308106
 20
133.0648579909408
 30
0.0
 10
66.58931450930048
 20
133.0608956254469
 30
0.0
  0
SPLINE
  5
133
330
1F
100
AcDbEntity
  8
0
  6
Continuous
 62
   144
370
     0
100
AcDbSpline
210
0.0
220
0.0
230
1.0
 70
     8
 71
     3
 72
    19
 73
    15
 74
     0
 42
0.00000001
 43
0.00000001
 40
0.0
 40
0.0
 40
0.0
 40
0.0
 40
0.1194583974501309
 40
0.227631926003818
 40
0.3283187464216168
 40
0.4250487930858433
 40
0.4757529301745854
 40
0.5321772303437631
 40
0.5942825331418592
 40
0.6626758559523469
 40
0.7364162771613507
 40
0.8178375567039754
 40
0.9056997905787345
 40
1.0
 40
1.0
 40
1.0
 40
1.0
 10
66.23554848365944
 20
134.0092129331392
 30
0.0
 10
66.2536676635092
 20
134.0033773902206
 30
0.0
 10
66.28819435978883
 20
133.9922575702482
 30
0.0
 10
66.33447551120265
 20
133.9671896068194
 30
0.0
 10
66.37196711031068
 20
133.935808604953
 30
0.0
 10
66.39715710778829
 20
133.9049696537386
 30
0.0
 10
66.41265655438764
 20
133.876375787094
 30
0.0
 10
66.42276538481819
 20
133.8513922832851
 30
0.0
 10
66.43268626452601
 20
133.8233150854323
 30
0.0
 10
66.44014061039627
 20
133.7916500200616
 30
0.0
 10
66.4478241493549
 20
133.7569026477152
 30
0.0
 10
66.4528952690988
 20
133.7185364270028
 30
0.0
 10
66.45795826378924
 20
133.6768989225391
 30
0.0
 10
66.460034548676
 20
133.6479809862849
 30
0.0
 10
66.46110938109534
 20
133.6330110100623
 30
0.0
  0
SPLINE
  5
134
330
1F
100
AcDbEntity
  8
0
  6
Continuous
 62
   144
370
     0
100
AcDbSpline
210
0.0
220
0.0
230
1.0
 70
     8
 71
     3
 72
    15
 73
    11
 74
     0
 42
0.00000001
 43
0.00000001
 40
0.0
 40
0.0
 40
0.0
 40
0.0
 40
0.1366393736217555
 40
0.2651031643221094
 40
0.3877408708751086
 40
0.5065655080902194
 40
0.6251322976874314
 40
0.7448230697054079
 40
0.8689573208713232
 40
1.0
 40
1.0
 40
1.0
 40
1.0
 10
66.51239143237738
 20
134.4587321639085
 30
0.0
 10
66.51156741142269
 20
134.4331682594826
 30
0.0
 10
66.50996867339595
 20
134.3835700230733
 30
0.0
 10
66.49697707823125
 20
134.3119594324259
 30
0.0
 10
66.47547524391554
 20
134.2459626801349
 30
0.0
 10
66.4445816258821
 20
134.185831872195
 30
0.0
 10
66.40506159025
 20
134.1316452273498
 30
0.0
 10
66.35655019440097
 20
134.0839937160506
 30
0.0
 10
66.29996563002807
 20
134.042086007808
 30
0.0
 10
66.2574049488311
 20
134.0203666282668
 30
0.0
 10
66.23554848365944
 20
134.0092129331392
 30
0.0
  0
SPLINE
  5
135
330
1F
100
AcDbEntity
  8
0
  6
Continuous
 62
   144
370
     0
100
AcDbSpline
210
0.0
220
0.0
230
1.0
 70
     8
 71
     3
 72
    15
 73
    11
 74
     0
 42
0.00000001
 43
0.00000001
 40
0.0
 40
0.0
 40
0.0
 40
0.0
 40
0.1227873545243413
 40
0.2423349890165401
 40
0.3602931965921041
 40
0.48033102725542
 40
0.6029414256890229
 40
0.7289654863996644
 40
0.8607340044621276
 40
1.0
 40
1.0
 40
1.0
 40
1.0
 10
66.25437861186457
 20
134.93469370237
 30
0.0
 10
66.27458371490948
 20
134.9229026945825
 30
0.0
 10
66.3144608133569
 20
134.899631782413
 30
0.0
 10
66.36610150905172
 20
134.8541080555916
 30
0.0
 10
66.41156583790317
 20
134.8033208783703
 30
0.0
 10
66.4483275122972
 20
134.7451033971273
 30
0.0
 10
66.47735034527673
 20
134.6810586376164
 30
0.0
 10
66.49755022013925
 20
134.6114294601537
 30
0.0
 10
66.51038481482306
 20
134.5367971944122
 30
0.0
 10
66.51171033746002
 20
134.4852293384126
 30
0.0
 10
66.51239143237738
 20
134.4587321639085
 30
0.0
  0
SPLINE
  5
136
330
1F
100
AcDbEntity
  8
0
  6
Continuous
 62
   144
370
     0
100
AcDbSpline
210
0.0
220
0.0
230
1.0
 70
     8
 71
     3
 72
    19
 73
    15
 74
     0
 42
0.00000001
 43
0.00000001
 40
0.0
 40
0.0
 40
0.0
 40
0.0
 40
0.1020279684388196
 40
0.1969093140614217
 40
0.2846552783101546
 40
0.3661741621627236
 40
0.4397560672199319
 40
0.5071688640249511
 40
0.5684450155157085
 40
0.6218577284580264
 40
0.7206795754359636
 40
0.8169436763925025
 40
0.9095394182467921
 40
1.0
 40
1.0
 40
1.0
 40
1.0
 10
65.81687861186457
 20
135.0044052408315
 30
0.0
 10
65.83210325626366
 20
135.0043026326767
 30
0.0
 10
65.86148612383738
 20
135.0041046036294
 30
0.0
 10
65.90395786018688
 20
135.0033185569848
 30
0.0
 10
65.94335428027614
 20
135.0020772104886
 30
0.0
 10
65.9795709353066
 20
135.0006874283756
 30
0.0
 10
66.0126834776789
 20
134.9981510963809
 30
0.0
 10
66.04274071450635
 20
134.9953935980518
 30
0.0
 10
66.0697431726587
 20
134.9922951370179
 30
0.0
 10
66.10124547785226
 20
134.9875146248731
 30
0.0
 10
66.13760808831135
 20
134.9799386760448
 30
0.0
 10
66.17861075832741
 20
134.967169236327
 30
0.0
 10
66.21799190431999
 20
134.9532827446622
 30
0.0
 10
66.2423443914268
 20
134.9408416791386
 30
0.0
 10
66.25437861186457
 20
134.93469370237
 30
0.0
  0
ARC
  5
137
330
1F
100
AcDbEntity
  8
0
  6
Continuous
 62
     7
370
     0
100
AcDbCircle
 10
79.0405965606
 20
127.2044052408
 30
0.0
 40
2.000000000000014
100
AcDbArc
 50
270.0
 51
0.0
  0
LINE
  5
138
330
1F
100
AcDbEntity
  8
0
  6
Continuous
 62
     7
370
     0
100
AcDbLine
 10
79.0405965606
 20
125.2044052408
 30
0.0
 11
78.6405965606
 21
125.2044052408
 31
0.0
  0
LINE
  5
139
330
1F
100
AcDbEntity
  8
0
  6
Continuous
 62
     7
370
     0
100
AcDbLine
 10
38.6405965606
 20
125.2044052408
 30
0.0
 11
38.2405965606
 21
125.2044052408
 31
0.0
  0
ARC
  5
13A
330
1F
100
AcDbEntity
  8
0
  6
Continuous
 62
     7
370
     0
100
AcDbCircle
 10
38.2405965606
 20
127.2044052408
 30
0.0
 40
2.000000000000014
100
AcDbArc
 50
180.0
 51
270.0
  0
SPLINE
  5
13B
330
1F
100
AcDbEntity
  8
0
  6
Continuous
 62
   144
370
     0
100
AcDbSpline
210
0.0
220
0.0
230
1.0
 70
     8
 71
     3
 72
    11
 73
     7
 74
     0
 42
0.00000001
 43
0.00000001
 40
0.0
 40
0.0
 40
0.0
 40
0.0
 40
0.2285536536154717
 40
0.4716142891886604
 40
0.7265191533891212
 40
1.0
 40
1.0
 40
1.0
 40
1.0
 10
51.09492348365944
 20
134.5332513946776
 30
0.0
 10
51.09047340943209
 20
134.5462861868592
 30
0.0
 10
51.08129080149575
 20
134.5731831283528
 30
0.0
 10
51.07061957317744
 20
134.6156569970505
 30
0.0
 10
51.0598832832345
 20
134.6608718868643
 30
0.0
 10
51.0539328068244
 20
134.69214516205
 30
0.0
 10
51.05085297083892
 20
134.7083315228828
 30
0.0
  0
SPLINE
  5
13C
330
1F
100
AcDbEntity
  8
0
  6
Continuous
 62
   144
370
     0
100
AcDbSpline
210
0.0
220
0.0
230
1.0
 70
     8
 71
     3
 72
    11
 73
     7
 74
     0
 42
0.00000001
 43
0.00000001
 40
0.0
 40
0.0
 40
0.0
 40
0.0
 40
0.2475532010139114
 40
0.4961335981455301
 40
0.7485287511005183
 40
0.9999999999999999
 40
0.9999999999999999
 40
0.9999999999999999
 40
0.9999999999999999
 10
52.38418630417225
 20
134.7083315228828
 30
0.0
 10
52.38089596851464
 20
134.6937636692489
 30
0.0
 10
52.3743016442957
 20
134.664567514196
 30
0.0
 10
52.36347382007771
 20
134.6207227241636
 30
0.0
 10
52.35151545625232
 20
134.5769266585373
 30
0.0
 10
52.3428420022846
 20
134.5477920085843
 30
0.0
 10
52.33851322724918
 20
134.5332513946776
 30
0.0
  0
SPLINE
  5
13D
330
1F
100
AcDbEntity
  8
0
  6
Continuous
 62
   144
370
     0
100
AcDbSpline
210
0.0
220
0.0
230
1.0
 70
     8
 71
     3
 72
    11
 73
     7
 74
     0
 42
0.00000001
 43
0.00000001
 40
0.0
 40
0.0
 40
0.0
 40
0.0
 40
0.2846268775070918
 40
0.54182570539139
 40
0.7747018491195286
 40
1.0
 40
1.0
 40
1.0
 40
1.0
 10
51.7235292528902
 20
133.3100943433956
 30
0.0
 10
51.72706261277648
 20
133.3258695849827
 30
0.0
 10
51.73378884056478
 20
133.3558998880781
 30
0.0
 10
51.74453152734606
 20
133.3985776842329
 30
0.0
 10
51.75601526938102
 20
133.437564862336
 30
0.0
 10
51.76431823069327
 20
133.4622290414572
 30
0.0
 10
51.768401047762
 20
133.4743571639084
 30
0.0
  0
SPLINE
  5
13E
330
1F
100
AcDbEntity
  8
0
  6
Continuous
 62
   144
370
     0
100
AcDbSpline
210
0.0
220
0.0
230
1.0
 70
     8
 71
     3
 72
    13
 73
     9
 74
     0
 42
0.00000001
 43
0.00000001
 40
0.0
 40
0.0
 40
0.0
 40
0.0
 40
0.1896235328070379
 40
0.3570270040813946
 40
0.4992711726624492
 40
0.6193002246169502
 40
0.8249546398101149
 40
1.0
 40
1.0
 40
1.0
 40
1.0
 10
51.67625361186457
 20
133.4743571639084
 30
0.0
 10
51.67958443820322
 20
133.4640716056281
 30
0.0
 10
51.68585578507248
 20
133.4447057494825
 30
0.0
 10
51.69474244731842
 20
133.4176605537897
 30
0.0
 10
51.70188463548965
 20
133.3942263153935
 30
0.0
 10
51.70991361706931
 20
133.3687806006915
 30
0.0
 10
51.7169262202197
 20
133.3410842689226
 30
0.0
 10
51.72144946818644
 20
133.3198553693208
 30
0.0
 10
51.7235292528902
 20
133.3100943433956
 30
0.0
  0
SPLINE
  5
13F
330
1F
100
AcDbEntity
  8
0
  6
Continuous
 62
   144
370
     0
100
AcDbSpline
210
0.0
220
0.0
230
1.0
 70
     8
 71
     3
 72
    23
 73
    19
 74
     0
 42
0.00000001
 43
0.00000001
 40
0.0
 40
0.0
 40
0.0
 40
0.0
 40
0.0651887828974922
 40
0.1295882266645824
 40
0.193138899719847
 40
0.2562803462213774
 40
0.3185877752072618
 40
0.3805166471499724
 40
0.4420927314305511
 40
0.5034962300545216
 40
0.5646414659709257
 40
0.6261145893512056
 40
0.6874075916888069
 40
0.7490883598638516
 40
0.8109855179396823
 40
0.8736065386044782
 40
0.9363655199452674
 40
1.0
 40
1.0
 40
1.0
 40
1.0
 10
62.97392989391584
 20
134.6430270357033
 30
0.0
 10
62.9464743042918
 20
134.6135705579146
 30
0.0
 10
62.89189557136771
 20
134.5550142764386
 30
0.0
 10
62.81429698816354
 20
134.4643676905816
 30
0.0
 10
62.74057950265344
 20
134.3721500183947
 30
0.0
 10
62.67203163421009
 20
134.2776211013881
 30
0.0
 10
62.60712641680227
 20
134.1817641229009
 30
0.0
 10
62.54721542257249
 20
134.0838386854818
 30
0.0
 10
62.49084811152277
 20
133.9844767703763
 30
0.0
 10
62.4392739355486
 20
133.8830785712298
 30
0.0
 10
62.3917588361872
 20
133.7797873288777
 30
0.0
 10
62.34883383823668
 20
133.6745933084067
 30
0.0
 10
62.30901201514239
 20
133.5678151767746
 30
0.0
 10
62.27498053740991
 20
133.4587756158116
 30
0.0
 10
62.24428636877597
 20
133.3479180513501
 30
0.0
 10
62.21802917504547
 20
133.2352390979872
 30
0.0
 10
62.19559588290473
 20
133.1206226414703
 30
0.0
 10
62.18459609134771
 20
133.0433228537179
 30
0.0
 10
62.17905809904406
 20
133.0044052408315
 30
0.0
  0
SPLINE
  5
140
330
1F
100
AcDbEntity
  8
0
  6
Continuous
 62
   144
370
     0
100
AcDbSpline
210
0.0
220
0.0
230
1.0
 70
     8
 71
     3
 72
    23
 73
    19
 74
     0
 42
0.00000001
 43
0.00000001
 40
0.0
 40
0.0
 40
0.0
 40
0.0
 40
0.0629019562638217
 40
0.1253075699858742
 40
0.1870891021687279
 40
0.2485509144807935
 40
0.3096391863159093
 40
0.370392566844116
 40
0.4311125554705372
 40
0.4919822667482658
 40
0.5528142842362863
 40
0.6143906968445084
 40
0.6765384951034011
 40
0.7393136567921842
 40
0.8030495404385326
 40
0.8675756610880483
 40
0.9332445034026813
 40
0.9999999999999999
 40
0.9999999999999999
 40
0.9999999999999999
 40
0.9999999999999999
 10
61.92264784263379
 20
133.0044052408315
 30
0.0
 10
61.92809878949814
 20
133.0422462555389
 30
0.0
 10
61.93895767126054
 20
133.1176296916103
 30
0.0
 10
61.96035325223514
 20
133.2293409112357
 30
0.0
 10
61.98563791034783
 20
133.3393157376957
 30
0.0
 10
62.01472078201679
 20
133.4475341348745
 30
0.0
 10
62.04849893189761
 20
133.5537263587201
 30
0.0
 10
62.08625178018424
 20
133.6580804412048
 30
0.0
 10
62.12787200190786
 20
133.7608166751987
 30
0.0
 10
62.17395904125662
 20
133.8616873552231
 30
0.0
 10
62.22437107845587
 20
133.9610341020638
 30
0.0
 10
62.27858298636215
 20
134.0592673893212
 30
0.0
 10
62.3382536849767
 20
134.155665711124
 30
0.0
 10
62.40142383644496
 20
134.2513791089901
 30
0.0
 10
62.46975921542291
 20
134.3452763614281
 30
0.0
 10
62.54186638882066
 20
134.4385233340924
 30
0.0
 10
62.61877522793519
 20
134.5302926164716
 30
0.0
 10
62.67297154928301
 20
134.5897946879404
 30
0.0
 10
62.70029207340303
 20
134.6197898562161
 30
0.0
  0
LINE
  5
141
330
1F
100
AcDbEntity
  8
0
  6
Continuous
 62
     7
370
     0
100
AcDbLine
 10
39.1405965606
 20
118.9544052408
 30
0.0
 11
38.6405965606
 21
118.9544052408
 31
0.0
  0
LINE
  5
142
330
1F
100
AcDbEntity
  8
0
  6
Continuous
 62
     7
370
     0
100
AcDbLine
 10
41.8378209229
 20
118.9544052408
 30
0.0
 11
39.1405965606
 21
118.9544052408
 31
0.0
  0
LINE
  5
143
330
1F
100
AcDbEntity
  8
0
  6
Continuous
 62
     7
370
     0
100
AcDbLine
 10
45.4433721983
 20
118.9544052408
 30
0.0
 11
41.8378209229
 21
118.9544052408
 31
0.0
  0
LINE
  5
144
330
1F
100
AcDbEntity
  8
0
  6
Continuous
 62
     7
370
     0
100
AcDbLine
 10
71.8378209229
 20
118.9544052408
 30
0.0
 11
45.4433721983
 21
118.9544052408
 31
0.0
  0
LINE
  5
145
330
1F
100
AcDbEntity
  8
0
  6
Continuous
 62
     7
370
     0
100
AcDbLine
 10
75.4433721983
 20
118.9544052408
 30
0.0
 11
71.8378209229
 21
118.9544052408
 31
0.0
  0
LINE
  5
146
330
1F
100
AcDbEntity
  8
0
  6
Continuous
 62
     7
370
     0
100
AcDbLine
 10
78.1405965606
 20
118.9544052408
 30
0.0
 11
75.4433721983
 21
118.9544052408
 31
0.0
  0
LINE
  5
147
330
1F
100
AcDbEntity
  8
0
  6
Continuous
 62
     7
370
     0
100
AcDbLine
 10
78.6405965606
 20
118.9544052408
 30
0.0
 11
78.1405965606
 21
118.9544052408
 31
0.0
  0
LINE
  5
148
330
1F
100
AcDbEntity
  8
0
  6
Continuous
 62
     7
370
     0
100
AcDbLine
 10
78.1405965606
 20
118.9544052408
 30
0.0
 11
78.1405965606
 21
125.3044052408
 31
0.0
  0
LINE
  5
149
330
1F
100
AcDbEntity
  8
0
  6
Continuous
 62
     7
370
     0
100
AcDbLine
 10
78.6405965606
 20
125.3044052408
 30
0.0
 11
78.6405965606
 21
118.9544052408
 31
0.0
  0
LINE
  5
14A
330
1F
100
AcDbEntity
  8
0
  6
Continuous
 62
     7
370
     0
100
AcDbLine
 10
71.8378209229
 20
118.9544052408
 30
0.0
 11
71.8378209229
 21
122.4544052408
 31
0.0
  0
LINE
  5
14B
330
1F
100
AcDbEntity
  8
0
  6
Continuous
 62
     7
370
     0
100
AcDbLine
 10
45.4433721983
 20
122.4544052408
 30
0.0
 11
45.4433721983
 21
118.9544052408
 31
0.0
  0
LINE
  5
14C
330
1F
100
AcDbEntity
  8
0
  6
Continuous
 62
     7
370
     0
100
AcDbLine
 10
41.8378209229
 20
122.4544052408
 30
0.0
 11
45.4433721983
 21
122.4544052408
 31
0.0
  0
LINE
  5
14D
330
1F
100
AcDbEntity
  8
0
  6
Continuous
 62
     7
370
     0
100
AcDbLine
 10
41.8378209229
 20
118.9544052408
 30
0.0
 11
41.8378209229
 21
122.4544052408
 31
0.0
  0
LINE
  5
14E
330
1F
100
AcDbEntity
  8
0
  6
Continuous
 62
     7
370
     0
100
AcDbLine
 10
39.1405965606
 20
125.3044052408
 30
0.0
 11
39.1405965606
 21
118.9544052408
 31
0.0
  0
LINE
  5
14F
330
1F
100
AcDbEntity
  8
0
  6
Continuous
 62
     7
370
     0
100
AcDbLine
 10
75.4433721983
 20
122.4544052408
 30
0.0
 11
75.4433721983
 21
118.9544052408
 31
0.0
  0
LINE
  5
150
330
1F
100
AcDbEntity
  8
0
  6
Continuous
 62
     7
370
     0
100
AcDbLine
 10
71.8378209229
 20
122.4544052408
 30
0.0
 11
75.4433721983
 21
122.4544052408
 31
0.0
  0
LINE
  5
151
330
1F
100
AcDbEntity
  8
0
  6
Continuous
 62
   144
370
     0
100
AcDbLine
 10
78.1405965606
 20
125.3044052408
 30
0.0
 11
39.1405965606
 21
125.3044052408
 31
0.0
  0
LINE
  5
152
330
1F
100
AcDbEntity
  8
0
  6
Continuous
 62
     7
370
     0
100
AcDbLine
 10
38.6405965606
 20
118.9544052408
 30
0.0
 11
38.6405965606
 21
125.3044052408
 31
0.0
  0
LINE
  5
153
330
1F
100
AcDbEntity
  8
0
  6
Continuous
 62
     7
370
     0
100
AcDbLine
 10
45.4433721983
 20
119.4544052408
 30
0.0
 11
41.8378209229
 21
119.4544052408
 31
0.0
  0
CIRCLE
  5
154
330
1F
100
AcDbEntity
  8
0
  6
Continuous
 62
   144
370
     0
100
AcDbCircle
 10
58.6405965606
 20
141.0044052408
 30
0.0
 40
12.0
  0
CIRCLE
  5
155
330
1F
100
AcDbEntity
  8
0
  6
Continuous
 62
     7
370
     0
100
AcDbCircle
 10
58.6405965606
 20
141.0044052408
 30
0.0
 40
14.99999999999999
  0
CIRCLE
  5
156
330
1F
100
AcDbEntity
  8
0
  6
Continuous
 62
     7
370
     0
100
AcDbCircle
 10
58.6405965606
 20
141.0044052408
 30
0.0
 40
14.0
  0
CIRCLE
  5
157
330
1F
100
AcDbEntity
  8
0
  6
Continuous
 62
     7
370
     0
100
AcDbCircle
 10
58.6405965606
 20
141.0044052408
 30
0.0
 40
12.25
  0
LINE
  5
158
330
1F
100
AcDbEntity
  8
0
  6
Continuous
 62
     7
370
     0
100
AcDbLine
 10
81.0405965606
 20
154.7044052408
 30
0.0
 11
81.0405965606
 21
127.3044052408
 31
0.0
  0
ARC
  5
159
330
1F
100
AcDbEntity
  8
0
  6
Continuous
 62
     7
370
     0
100
AcDbCircle
 10
79.0405965606
 20
127.3044052408
 30
0.0
 40
2.0
100
AcDbArc
 50
270.0
 51
0.0
  0
LINE
  5
15A
330
1F
100
AcDbEntity
  8
0
  6
Continuous
 62
     7
370
     0
100
AcDbLine
 10
79.0405965606
 20
125.3044052408
 30
0.0
 11
38.2405965606
 21
125.3044052408
 31
0.0
  0
ARC
  5
15B
330
1F
100
AcDbEntity
  8
0
  6
Continuous
 62
     7
370
     0
100
AcDbCircle
 10
38.2405965606
 20
127.3044052408
 30
0.0
 40
2.0
100
AcDbArc
 50
180.0
 51
270.0
  0
LINE
  5
15C
330
1F
100
AcDbEntity
  8
0
  6
Continuous
 62
     7
370
     0
100
AcDbLine
 10
36.2405965606
 20
127.3044052408
 30
0.0
 11
36.2405965606
 21
154.7044052408
 31
0.0
  0
ARC
  5
15D
330
1F
100
AcDbEntity
  8
0
  6
Continuous
 62
     7
370
     0
100
AcDbCircle
 10
38.2405965606
 20
154.7044052408
 30
0.0
 40
2.0
100
AcDbArc
 50
90.0
 51
180.0
  0
LINE
  5
15E
330
1F
100
AcDbEntity
  8
0
  6
Continuous
 62
     7
370
     0
100
AcDbLine
 10
38.2405965606
 20
156.7044052408
 30
0.0
 11
79.0405965606
 21
156.7044052408
 31
0.0
  0
ARC
  5
15F
330
1F
100
AcDbEntity
  8
0
  6
Continuous
 62
     7
370
     0
100
AcDbCircle
 10
79.0405965606
 20
154.7044052408
 30
0.0
 40
2.000000000000014
100
AcDbArc
 50
0.0
 51
90.0
  0
SPLINE
  5
160
330
1F
100
AcDbEntity
  8
0
  6
Continuous
 62
   144
370
     0
100
AcDbSpline
210
0.0
220
0.0
230
1.0
 70
     8
 71
     3
 72
    23
 73
    19
 74
     0
 42
0.00000001
 43
0.00000001
 40
0.0
 40
0.0
 40
0.0
 40
0.0
 40
0.098431302983302
 40
0.1898742305081179
 40
0.2744844690125163
 40
0.3528635098775258
 40
0.4247523276377367
 40
0.4905149751150155
 40
0.5509414335824695
 40
0.6059662047286045
 40
0.6573327403940179
 40
0.7058687865605774
 40
0.7531083673385157
 40
0.7997197761361106
 40
0.8469096319950613
 40
0.8953219049882971
 40
0.9461250316872227
 40
1.0
 40
1.0
 40
1.0
 40
1.0
 10
60.35854527853123
 20
133.9511199844212
 30
0.0
 10
60.35822254809583
 20
133.9826421062943
 30
0.0
 10
60.35760000027592
 20
134.0434483585049
 30
0.0
 10
60.35328762232698
 20
134.1312694698428
 30
0.0
 10
60.34583714300961
 20
134.2124395295381
 30
0.0
 10
60.33504916517619
 20
134.286909886096
 30
0.0
 10
60.32171910225188
 20
134.3548374111065
 30
0.0
 10
60.30497691024247
 20
134.4160912742131
 30
0.0
 10
60.28506830493944
 20
134.4706743853095
 30
0.0
 10
60.26226078482856
 20
134.5190851920605
 30
0.0
 10
60.23578868793772
 20
134.5612296448083
 30
0.0
 10
60.2053068461969
 20
134.5973377782206
 30
0.0
 10
60.17152750813523
 20
134.6282116870276
 30
0.0
 10
60.13371465812409
 20
134.6531832485474
 30
0.0
 10
60.09261127152075
 20
134.673210683572
 30
0.0
 10
60.0474997567804
 20
134.686503863325
 30
0.0
 10
59.99911026900591
 20
134.6952727084143
 30
0.0
 10
59.96555754348417
 20
134.696223557155
 30
0.0
 10
59.94828886827482
 20
134.6967129331392
 30
0.0
  0
SPLINE
  5
161
330
1F
100
AcDbEntity
  8
0
  6
Continuous
 62
   144
370
     0
100
AcDbSpline
210
0.0
220
0.0
230
1.0
 70
     8
 71
     3
 72
    23
 73
    19
 74
     0
 42
0.00000001
 43
0.00000001
 40
0.0
 40
0.0
 40
0.0
 40
0.0
 40
0.0540658739777626
 40
0.1049785491249867
 40
0.1536865825141717
 40
0.2008639455546735
 40
0.2474096823389437
 40
0.294816656321268
 40
0.3435246897104529
 40
0.3947203819928994
 40
0.4495629957050068
 40
0.5098109533179472
 40
0.5754033415097072
 40
0.6471366654099966
 40
0.7253793062650793
 40
0.8102893607016647
 40
0.9016383454727446
 40
1.0
 40
1.0
 40
1.0
 40
1.0
 10
59.94828886827482
 20
133.2095334459597
 30
0.0
 10
59.9655442807235
 20
133.2100861772441
 30
0.0
 10
59.9990487453727
 20
133.2111594037364
 30
0.0
 10
60.04763752246218
 20
133.2190574118261
 30
0.0
 10
60.09243463947858
 20
133.233258998955
 30
0.0
 10
60.13369956737105
 20
133.2525995009445
 30
0.0
 10
60.17163072645341
 20
133.2772230244689
 30
0.0
 10
60.20530474850914
 20
133.3081164971019
 30
0.0
 10
60.23567164988718
 20
133.3441562157339
 30
0.0
 10
60.26227829864618
 20
133.3859328206584
 30
0.0
 10
60.28506738600628
 20
133.4339638046901
 30
0.0
 10
60.30498156234256
 20
133.4881443969966
 30
0.0
 10
60.32172249797163
 20
133.5490012910143
 30
0.0
 10
60.33504937659048
 20
133.6165298978364
 30
0.0
 10
60.34586832422779
 20
133.6907310201708
 30
0.0
 10
60.35326524728767
 20
133.7716398278151
 30
0.0
 10
60.3576050931463
 20
133.8591915965018
 30
0.0
 10
60.35822425428834
 20
133.9197312374727
 30
0.0
 10
60.35854527853123
 20
133.9511199844212
 30
0.0
  0
SPLINE
  5
162
330
1F
100
AcDbEntity
  8
0
  6
Continuous
 62
   144
370
     0
100
AcDbSpline
210
0.0
220
0.0
230
1.0
 70
     8
 71
     3
 72
    23
 73
    19
 74
     0
 42
0.00000001
 43
0.00000001
 40
0.0
 40
0.0
 40
0.0
 40
0.0
 40
0.0976720326780732
 40
0.1887403510650458
 40
0.2734018046418127
 40
0.3513478717420166
 40
0.4231895075896916
 40
0.4889944902190204
 40
0.5493334177363276
 40
0.604818895551779
 40
0.6564452827187878
 40
0.7055481093873459
 40
0.7530266643503425
 40
0.7995257122821958
 40
0.8469542907792644
 40
0.8952108735582698
 40
0.946271001602282
 40
1.0
 40
1.0
 40
1.0
 40
1.0
 10
59.53803245801841
 20
133.9511199844212
 30
0.0
 10
59.53836973817325
 20
133.9199996506377
 30
0.0
 10
59.53902149459817
 20
133.8598630633004
 30
0.0
 10
59.54316089134829
 20
133.7728145571892
 30
0.0
 10
59.55121670751095
 20
133.6923521848198
 30
0.0
 10
59.56198586609246
 20
133.6184165015023
 30
0.0
 10
59.5751095573133
 20
133.550923367166
 30
0.0
 10
59.59253122632141
 20
133.4902279867972
 30
0.0
 10
59.61226679004526
 20
133.4357529216122
 30
0.0
 10
59.63557285005441
 20
133.3876422870192
 30
0.0
 10
59.66210236122519
 20
133.3453899056668
 30
0.0
 10
59.69232532654355
 20
133.3089070993419
 30
0.0
 10
59.72622895420398
 20
133.2781901289181
 30
0.0
 10
59.76370903414191
 20
133.2529289723931
 30
0.0
 10
59.80467724140045
 20
133.2331469921767
 30
0.0
 10
59.84958579535427
 20
133.2196653568012
 30
0.0
 10
59.89774142795884
 20
133.211012549904
 30
0.0
 10
59.93115604297489
 20
133.2100347815233
 30
0.0
 10
59.94828886827482
 20
133.2095334459597
 30
0.0
  0
SPLINE
  5
163
330
1F
100
AcDbEntity
  8
0
  6
Continuous
 62
   144
370
     0
100
AcDbSpline
210
0.0
220
0.0
230
1.0
 70
     8
 71
     3
 72
    23
 73
    19
 74
     0
 42
0.00000001
 43
0.00000001
 40
0.0
 40
0.0
 40
0.0
 40
0.0
 40
0.0535278681778753
 40
0.1043968567053331
 40
0.1525977546156501
 40
0.1996694805861613
 40
0.2462291069559547
 40
0.2935299297355436
 40
0.342770449920681
 40
0.3942035778252757
 40
0.4498570035051481
 40
0.5103617996125271
 40
0.5763221422581726
 40
0.6483041576086959
 40
0.7263716016576076
 40
0.811131652582487
 40
0.9022760935114384
 40
1.0
 40
1.0
 40
1.0
 40
1.0
 10
59.94828886827482
 20
134.6967129331392
 30
0.0
 10
59.93116209067191
 20
134.6961948807807
 30
0.0
 10
59.89775927064378
 20
134.6951845091802
 30
0.0
 10
59.84948053690434
 20
134.6867557911414
 30
0.0
 10
59.80488647498468
 20
134.6724538752277
 30
0.0
 10
59.76345379523485
 20
134.6535088881704
 30
0.0
 10
59.72639207566577
 20
134.6275453483214
 30
0.0
 10
59.69215556899304
 20
134.5969659163447
 30
0.0
 10
59.66225404560095
 20
134.5600599422808
 30
0.0
 10
59.63544191889828
 20
134.5177444903001
 30
0.0
 10
59.61229506096289
 20
134.46926473644
 30
0.0
 10
59.59252726014964
 20
134.414415101628
 30
0.0
 10
59.5751150094507
 20
134.3533135987866
 30
0.0
 10
59.56198744208305
 20
134.2854244342811
 30
0.0
 10
59.55121882662397
 20
134.211088185462
 30
0.0
 10
59.54316179347433
 20
134.1302259496129
 30
0.0
 10
59.53902184034386
 20
134.0427773313118
 30
0.0
 10
59.53836982340263
 20
133.9823738437787
 30
0.0
 10
59.53803245801841
 20
133.9511199844212
 30
0.0
  0
SPLINE
  5
164
330
1F
100
AcDbEntity
  8
0
  6
Continuous
 62
   144
370
     0
100
AcDbSpline
210
0.0
220
0.0
230
1.0
 70
     8
 71
     3
 72
    23
 73
    19
 74
     0
 42
0.00000001
 43
0.00000001
 40
0.0
 40
0.0
 40
0.0
 40
0.0
 40
0.086970021011482
 40
0.1687168618830976
 40
0.2455084351435668
 40
0.3173589074430825
 40
0.3853581410342846
 40
0.4491893638722695
 40
0.5095397167295211
 40
0.5669725678398556
 40
0.6221407370952665
 40
0.6749318676975632
 40
0.7268646883026897
 40
0.778487635639237
 40
0.8308856898751248
 40
0.8844232698322374
 40
0.9408615238155836
 40
1.0
 40
1.0
 40
1.0
 40
1.0
 10
59.28162220160815
 20
133.9511199844212
 30
0.0
 10
59.28219983358132
 20
133.9898609366601
 30
0.0
 10
59.28332040654087
 20
134.0650161661526
 30
0.0
 10
59.29081934420017
 20
134.1741759406111
 30
0.0
 10
59.30369485862803
 20
134.2760723220502
 30
0.0
 10
59.32284117410086
 20
134.3707164689634
 30
0.0
 10
59.34585546380461
 20
134.4585660825331
 30
0.0
 10
59.37524974775015
 20
134.5391011640355
 30
0.0
 10
59.40962937157484
 20
134.6124541563552
 30
0.0
 10
59.44935052690537
 20
134.6786528109385
 30
0.0
 10
59.49423891357581
 20
134.737240635009
 30
0.0
 10
59.54376615877127
 20
134.7887473552636
 30
0.0
 10
59.59931568613858
 20
134.831090210025
 30
0.0
 10
59.65895333171513
 20
134.8670526911627
 30
0.0
 10
59.72393871159565
 20
134.8942146087807
 30
0.0
 10
59.79379952724403
 20
134.9134870821715
 30
0.0
 10
59.86843321939973
 20
134.9252174644244
 30
0.0
 10
59.91993377891999
 20
134.9267155971093
 30
0.0
 10
59.94628566314662
 20
134.9274821639084
 30
0.0
  0
SPLINE
  5
165
330
1F
100
AcDbEntity
  8
0
  6
Continuous
 62
   144
370
     0
100
AcDbSpline
210
0.0
220
0.0
230
1.0
 70
     8
 71
     3
 72
    23
 73
    19
 74
     0
 42
0.00000001
 43
0.00000001
 40
0.0
 40
0.0
 40
0.0
 40
0.0
 40
0.0592940561976213
 40
0.1155957239221511
 40
0.1695801296682374
 40
0.222127021310299
 40
0.2737308829830057
 40
0.3255380209318561
 40
0.3786209593631431
 40
0.4336019530819556
 40
0.4910509470574054
 40
0.5512552459825589
 40
0.6149319908325163
 40
0.6825566669609255
 40
0.7544687356235393
 40
0.8313710662400099
 40
0.9129414582625683
 40
1.0
 40
1.0
 40
1.0
 40
1.0
 10
59.94628566314662
 20
134.9274821639084
 30
0.0
 10
59.97277391191399
 20
134.9267295788219
 30
0.0
 10
60.0244136290804
 20
134.9252623893011
 30
0.0
 10
60.09940117929929
 20
134.9133601433188
 30
0.0
 10
60.16973932151084
 20
134.8943380788164
 30
0.0
 10
60.23506008445027
 20
134.8669410629525
 30
0.0
 10
60.29534937154777
 20
134.8317156331023
 30
0.0
 10
60.3508135410337
 20
134.7888668260049
 30
0.0
 10
60.4010341712893
 20
134.7378643015119
 30
0.0
 10
60.44650650422162
 20
134.6794030560178
 30
0.0
 10
60.4865813078293
 20
134.6133578357209
 30
0.0
 10
60.5209533459509
 20
134.5399024736237
 30
0.0
 10
60.550101524095
 20
134.4594086870091
 30
0.0
 10
60.574112245986
 20
134.3718044493552
 30
0.0
 10
60.59230170850222
 20
134.2768008467457
 30
0.0
 10
60.60526379167931
 20
134.1747018497831
 30
0.0
 10
60.61340057095398
 20
134.0653002656192
 30
0.0
 10
60.61442608821383
 20
133.9899970109824
 30
0.0
 10
60.61495553494149
 20
133.9511199844212
 30
0.0
  0
SPLINE
  5
166
330
1F
100
AcDbEntity
  8
0
  6
Continuous
 62
   144
370
     0
100
AcDbSpline
210
0.0
220
0.0
230
1.0
 70
     8
 71
     3
 72
    23
 73
    19
 74
     0
 42
0.00000001
 43
0.00000001
 40
0.0
 40
0.0
 40
0.0
 40
0.0
 40
0.0866759409490938
 40
0.168150524392274
 40
0.2446497760822869
 40
0.3164467260529328
 40
0.3839508376000726
 40
0.4477862154039235
 40
0.5078695453586871
 40
0.5650496590424662
 40
0.6199838288950267
 40
0.672986575431788
 40
0.7251067932922143
 40
0.7768392116778733
 40
0.829401690955517
 40
0.8835205838800524
 40
0.9402587800414849
 40
1.0
 40
1.0
 40
1.0
 40
1.0
 10
60.61495553494149
 20
133.9511199844212
 30
0.0
 10
60.61442107213424
 20
133.9125104140496
 30
0.0
 10
60.61338421922763
 20
133.8376082043539
 30
0.0
 10
60.60529870374925
 20
133.7288675521656
 30
0.0
 10
60.59225846510719
 20
133.6273136599794
 30
0.0
 10
60.57413508578924
 20
133.5328284679514
 30
0.0
 10
60.55001042319857
 20
133.445530875985
 30
0.0
 10
60.52106659876483
 20
133.365224985276
 30
0.0
 10
60.48654128080749
 20
133.2921688126736
 30
0.0
 10
60.44677365518055
 20
133.2264354861554
 30
0.0
 10
60.40200982008641
 20
133.167833966048
 30
0.0
 10
60.35132287080756
 20
133.1174339146577
 30
0.0
 10
60.29629937803502
 20
133.0740951132555
 30
0.0
 10
60.2359328647067
 20
133.0388354470717
 30
0.0
 10
60.17044432775909
 20
133.0120173410586
 30
0.0
 10
60.10009026716779
 20
132.9928020983647
 30
0.0
 10
60.02480661997367
 20
132.9810023088624
 30
0.0
 10
59.97290534775081
 20
132.9795229597355
 30
0.0
 10
59.94628566314662
 20
132.9787642151905
 30
0.0
  0
SPLINE
  5
167
330
1F
100
AcDbEntity
  8
0
  6
Continuous
 62
   144
370
     0
100
AcDbSpline
210
0.0
220
0.0
230
1.0
 70
     8
 71
     3
 72
    23
 73
    19
 74
     0
 42
0.00000001
 43
0.00000001
 40
0.0
 40
0.0
 40
0.0
 40
0.0
 40
0.0592889799326128
 40
0.1158708657663921
 40
0.1695446955387313
 40
0.2219598842662555
 40
0.2735612404460759
 40
0.3258106999491081
 40
0.3785215170855039
 40
0.4335919062909064
 40
0.490913808557317
 40
0.551146126152105
 40
0.6151397954870048
 40
0.682731814709389
 40
0.7547651419975426
 40
0.8314540876173279
 40
0.9131091301530136
 40
1.0
 40
1.0
 40
1.0
 40
1.0
 10
59.94628566314662
 20
132.9787642151905
 30
0.0
 10
59.91993453477201
 20
132.9795330836022
 30
0.0
 10
59.86843545244411
 20
132.981035714422
 30
0.0
 10
59.79379124906549
 20
132.9927340894016
 30
0.0
 10
59.7240176084253
 20
133.0121063867315
 30
0.0
 10
59.65900585889165
 20
133.0388045827829
 30
0.0
 10
59.59905617428056
 20
133.0742577747623
 30
0.0
 10
59.54404295758268
 20
133.1171541629651
 30
0.0
 10
59.49420295760468
 20
133.1681352954457
 30
0.0
 10
59.44936291489044
 20
133.2263929385275
 30
0.0
 10
59.40963852418076
 20
133.2921787022378
 30
0.0
 10
59.37514581220491
 20
133.3652315307643
 30
0.0
 10
59.3460209064694
 20
133.4454571799152
 30
0.0
 10
59.32269825365874
 20
133.5329533686634
 30
0.0
 10
59.30376010643495
 20
133.6272486100911
 30
0.0
 10
59.29080346527351
 20
133.7288606680911
 30
0.0
 10
59.28332404757849
 20
133.8376249597604
 30
0.0
 10
59.28220111148722
 20
133.9125128530207
 30
0.0
 10
59.28162220160815
 20
133.9511199844212
 30
0.0
  0
SPLINE
  5
168
330
1F
100
AcDbEntity
  8
0
  6
Continuous
 62
   144
370
     0
100
AcDbSpline
210
0.0
220
0.0
230
1.0
 70
     8
 71
     3
 72
    23
 73
    19
 74
     0
 42
0.00000001
 43
0.00000001
 40
0.0
 40
0.0
 40
0.0
 40
0.0
 40
0.0535278681778753
 40
0.1043968567053331
 40
0.1525977546156501
 40
0.1996694805861613
 40
0.2462291069559547
 40
0.2935299297355436
 40
0.342770449920681
 40
0.3942035778252757
 40
0.4498570035051481
 40
0.5103617996125271
 40
0.5763221422581726
 40
0.6483041576086959
 40
0.7263716016576076
 40
0.811131652582487
 40
0.9022760935114384
 40
1.0
 40
1.0
 40
1.0
 40
1.0
 10
59.94828886827482
 20
134.6967129331392
 30
0.0
 10
59.93116209067191
 20
134.6961948807807
 30
0.0
 10
59.89775927064378
 20
134.6951845091802
 30
0.0
 10
59.84948053690434
 20
134.6867557911414
 30
0.0
 10
59.80488647498468
 20
134.6724538752277
 30
0.0
 10
59.76345379523485
 20
134.6535088881704
 30
0.0
 10
59.72639207566577
 20
134.6275453483214
 30
0.0
 10
59.69215556899304
 20
134.5969659163447
 30
0.0
 10
59.66225404560095
 20
134.5600599422808
 30
0.0
 10
59.63544191889828
 20
134.5177444903001
 30
0.0
 10
59.61229506096289
 20
134.46926473644
 30
0.0
 10
59.59252726014964
 20
134.414415101628
 30
0.0
 10
59.5751150094507
 20
134.3533135987866
 30
0.0
 10
59.56198744208305
 20
134.2854244342811
 30
0.0
 10
59.55121882662397
 20
134.211088185462
 30
0.0
 10
59.54316179347433
 20
134.1302259496129
 30
0.0
 10
59.53902184034386
 20
134.0427773313118
 30
0.0
 10
59.53836982340263
 20
133.9823738437787
 30
0.0
 10
59.53803245801841
 20
133.9511199844212
 30
0.0
  0
SPLINE
  5
169
330
1F
100
AcDbEntity
  8
0
  6
Continuous
 62
   144
370
     0
100
AcDbSpline
210
0.0
220
0.0
230
1.0
 70
     8
 71
     3
 72
    23
 73
    19
 74
     0
 42
0.00000001
 43
0.00000001
 40
0.0
 40
0.0
 40
0.0
 40
0.0
 40
0.0976720326780732
 40
0.1887403510650458
 40
0.2734018046418127
 40
0.3513478717420166
 40
0.4231895075896916
 40
0.4889944902190204
 40
0.5493334177363276
 40
0.604818895551779
 40
0.6564452827187878
 40
0.7055481093873459
 40
0.7530266643503425
 40
0.7995257122821958
 40
0.8469542907792644
 40
0.8952108735582698
 40
0.946271001602282
 40
1.0
 40
1.0
 40
1.0
 40
1.0
 10
59.53803245801841
 20
133.9511199844212
 30
0.0
 10
59.53836973817325
 20
133.9199996506377
 30
0.0
 10
59.53902149459817
 20
133.8598630633004
 30
0.0
 10
59.54316089134829
 20
133.7728145571892
 30
0.0
 10
59.55121670751095
 20
133.6923521848198
 30
0.0
 10
59.56198586609246
 20
133.6184165015023
 30
0.0
 10
59.5751095573133
 20
133.550923367166
 30
0.0
 10
59.59253122632141
 20
133.4902279867972
 30
0.0
 10
59.61226679004526
 20
133.4357529216122
 30
0.0
 10
59.63557285005441
 20
133.3876422870192
 30
0.0
 10
59.66210236122519
 20
133.3453899056668
 30
0.0
 10
59.69232532654355
 20
133.3089070993419
 30
0.0
 10
59.72622895420398
 20
133.2781901289181
 30
0.0
 10
59.76370903414191
 20
133.2529289723931
 30
0.0
 10
59.80467724140045
 20
133.2331469921767
 30
0.0
 10
59.84958579535427
 20
133.2196653568012
 30
0.0
 10
59.89774142795884
 20
133.211012549904
 30
0.0
 10
59.93115604297489
 20
133.2100347815233
 30
0.0
 10
59.94828886827482
 20
133.2095334459597
 30
0.0
  0
SPLINE
  5
16A
330
1F
100
AcDbEntity
  8
0
  6
Continuous
 62
   144
370
     0
100
AcDbSpline
210
0.0
220
0.0
230
1.0
 70
     8
 71
     3
 72
    23
 73
    19
 74
     0
 42
0.00000001
 43
0.00000001
 40
0.0
 40
0.0
 40
0.0
 40
0.0
 40
0.0540658739777626
 40
0.1049785491249867
 40
0.1536865825141717
 40
0.2008639455546735
 40
0.2474096823389437
 40
0.294816656321268
 40
0.3435246897104529
 40
0.3947203819928994
 40
0.4495629957050068
 40
0.5098109533179472
 40
0.5754033415097072
 40
0.6471366654099966
 40
0.7253793062650793
 40
0.8102893607016647
 40
0.9016383454727446
 40
1.0
 40
1.0
 40
1.0
 40
1.0
 10
59.94828886827482
 20
133.2095334459597
 30
0.0
 10
59.9655442807235
 20
133.2100861772441
 30
0.0
 10
59.9990487453727
 20
133.2111594037364
 30
0.0
 10
60.04763752246218
 20
133.2190574118261
 30
0.0
 10
60.09243463947858
 20
133.233258998955
 30
0.0
 10
60.13369956737105
 20
133.2525995009445
 30
0.0
 10
60.17163072645341
 20
133.2772230244689
 30
0.0
 10
60.20530474850914
 20
133.3081164971019
 30
0.0
 10
60.23567164988718
 20
133.3441562157339
 30
0.0
 10
60.26227829864618
 20
133.3859328206584
 30
0.0
 10
60.28506738600628
 20
133.4339638046901
 30
0.0
 10
60.30498156234256
 20
133.4881443969966
 30
0.0
 10
60.32172249797163
 20
133.5490012910143
 30
0.0
 10
60.33504937659048
 20
133.6165298978364
 30
0.0
 10
60.34586832422779
 20
133.6907310201708
 30
0.0
 10
60.35326524728767
 20
133.7716398278151
 30
0.0
 10
60.3576050931463
 20
133.8591915965018
 30
0.0
 10
60.35822425428834
 20
133.9197312374727
 30
0.0
 10
60.35854527853123
 20
133.9511199844212
 30
0.0
  0
SPLINE
  5
16B
330
1F
100
AcDbEntity
  8
0
  6
Continuous
 62
   144
370
     0
100
AcDbSpline
210
0.0
220
0.0
230
1.0
 70
     8
 71
     3
 72
    23
 73
    19
 74
     0
 42
0.00000001
 43
0.00000001
 40
0.0
 40
0.0
 40
0.0
 40
0.0
 40
0.098431302983302
 40
0.1898742305081179
 40
0.2744844690125163
 40
0.3528635098775258
 40
0.4247523276377367
 40
0.4905149751150155
 40
0.5509414335824695
 40
0.6059662047286045
 40
0.6573327403940179
 40
0.7058687865605774
 40
0.7531083673385157
 40
0.7997197761361106
 40
0.8469096319950613
 40
0.8953219049882971
 40
0.9461250316872227
 40
1.0
 40
1.0
 40
1.0
 40
1.0
 10
60.35854527853123
 20
133.9511199844212
 30
0.0
 10
60.35822254809583
 20
133.9826421062943
 30
0.0
 10
60.35760000027592
 20
134.0434483585049
 30
0.0
 10
60.35328762232698
 20
134.1312694698428
 30
0.0
 10
60.34583714300961
 20
134.2124395295381
 30
0.0
 10
60.33504916517619
 20
134.286909886096
 30
0.0
 10
60.32171910225188
 20
134.3548374111065
 30
0.0
 10
60.30497691024247
 20
134.4160912742131
 30
0.0
 10
60.28506830493944
 20
134.4706743853095
 30
0.0
 10
60.26226078482856
 20
134.5190851920605
 30
0.0
 10
60.23578868793772
 20
134.5612296448083
 30
0.0
 10
60.2053068461969
 20
134.5973377782206
 30
0.0
 10
60.17152750813523
 20
134.6282116870276
 30
0.0
 10
60.13371465812409
 20
134.6531832485474
 30
0.0
 10
60.09261127152075
 20
134.673210683572
 30
0.0
 10
60.0474997567804
 20
134.686503863325
 30
0.0
 10
59.99911026900591
 20
134.6952727084143
 30
0.0
 10
59.96555754348417
 20
134.696223557155
 30
0.0
 10
59.94828886827482
 20
134.6967129331392
 30
0.0
  0
LINE
  5
16C
330
1F
100
AcDbEntity
  8
0
  6
Continuous
 62
     8
370
     0
100
AcDbLine
 10
71.8378209229
 20
119.7544052408
 30
0.0
 11
75.4433721983
 21
119.7544052408
 31
0.0
  0
LINE
  5
16D
330
1F
100
AcDbEntity
  8
0
  6
Continuous
 62
     8
370
     0
100
AcDbLine
 10
41.8378209229
 20
119.7544052408
 30
0.0
 11
45.4433721983
 21
119.7544052408
 31
0.0
  0
DIMENSION
  5
16E
330
1F
100
AcDbEntity
  8
0
  6
Continuous
 62
     7
370
     0
100
AcDbDimension
  2
*D6
 10
26.2404934829
 20
118.9544052408
 30
0.0
 11
26.2404934829
 21
129.9794052408
 31
0.0
 70
   160
 71
     2
 42
-1.0
  3
SLDDIMSTYLE0
100
AcDbAlignedDimension
 13
57.3705965606
 23
141.0044052408
 33
0.0
 14
45.4433721983
 24
118.9544052408
 34
0.0
 50
90.0
100
AcDbRotatedDimension
  0
DIMENSION
  5
181
330
1F
100
AcDbEntity
  8
0
  6
Continuous
 62
     7
370
     0
100
AcDbDimension
  2
*D7
 10
14.2404934829
 20
118.9544052408
 30
0.0
 11
14.2404934829
 21
137.8294052408
 31
0.0
 70
   160
 71
     2
 42
-1.0
  3
SLDDIMSTYLE0
100
AcDbAlignedDimension
 13
38.2405965606
 23
156.7044052408
 33
0.0
 14
45.4433721983
 24
118.9544052408
 34
0.0
 50
90.0
100
AcDbRotatedDimension
  0
DIMENSION
  5
193
330
1F
100
AcDbEntity
  8
0
  6
Continuous
 62
     7
370
     0
100
AcDbDimension
  2
*D8
 10
81.0405965606
 20
178.7044052408
 30
0.0
 11
58.6405965606
 21
178.7044052408
 31
0.0
 70
   160
 71
     2
 42
-1.0
  3
SLDDIMSTYLE0
100
AcDbAlignedDimension
 13
36.2405965606
 23
154.7044052408
 33
0.0
 14
81.0405965606
 24
154.7044052408
 34
0.0
 50
0.0
100
AcDbRotatedDimension
  0
DIMENSION
  5
1A5
330
1F
100
AcDbEntity
  8
0
  6
Continuous
 62
     7
370
     0
100
AcDbDimension
  2
*D9
 10
70.8905965606
 20
171.5328802314
 30
0.0
 11
58.6405965606
 21
171.5328802314
 31
0.0
 70
   160
  1
1"-32 \PC-MOUNT
 71
     2
 42
-1.0
  3
SLDDIMSTYLE1
100
AcDbAlignedDimension
 13
46.3905965606
 23
141.0044052408
 33
0.0
 14
70.8905965606
 24
141.0044052408
 34
0.0
100
AcDbRotatedDimension
  0
INSERT
  5
1B7
102
{ACAD_REACTORS
330
1B9
102
}
330
1F
100
AcDbEntity
  8
0
  6
Continuous
 62
     7
370
     0
100
AcDbBlockReference
  2
SW_NOTE_4
 10
32.9740067516
 20
165.5448409636
 30
0.0
  0
LEADER
  5
1B9
330
1F
100
AcDbEntity
  8
0
  6
Continuous
 62
     7
370
     0
100
AcDbLeader
  3
SLDDIMSTYLE2
 73
     2
 76
     3
 10
57.6549048403
 20
151.5231131389
 30
0.0
 10
39.3240067516
 20
165.5448409636
 30
0.0
 10
32.9740067516
 20
165.5448409636
 30
0.0
340
1B7
  0
INSERT
  5
1C1
330
1F
100
AcDbEntity
  8
0
  6
Continuous
 62
     7
370
     0
100
AcDbBlockReference
  2
SW_CENTERMARKSYMBOL_0
 10
58.6405965606
 20
141.0044052408
 30
0.0
  0
INSERT
  5
1C9
330
1F
100
AcDbEntity
  8
0
  6
Continuous
 62
     7
370
     0
100
AcDbBlockReference
  2
SW_CENTERMARKSYMBOL_1
 10
58.6405965606
 20
150.7544052408
 30
0.0
  0
LINE
  5
1CA
330
1F
100
AcDbEntity
  8
0
  6
Continuous
 62
     7
370
     0
100
AcDbLine
 10
172.7689514628
 20
130.3544052408
 30
0.0
 11
176.6189514628
 21
130.3544052408
 31
0.0
  0
LINE
  5
1CB
330
1F
100
AcDbEntity
  8
0
  6
Continuous
 62
     7
370
     0
100
AcDbLine
 10
176.6189514628
 20
142.2544052408
 30
0.0
 11
172.7689514628
 21
142.2544052408
 31
0.0
  0
LINE
  5
1CC
330
1F
100
AcDbEntity
  8
0
  6
Continuous
 62
     7
370
     0
100
AcDbLine
 10
127.7689514628
 20
156.0044052408
 30
0.0
 11
122.7589514628
 21
156.0044052408
 31
0.0
  0
LINE
  5
1CD
330
1F
100
AcDbEntity
  8
0
  6
Continuous
 62
     7
370
     0
100
AcDbLine
 10
122.7589514628
 20
126.0044052408
 30
0.0
 11
127.7689514628
 21
126.0044052408
 31
0.0
  0
LINE
  5
1CE
330
1F
100
AcDbEntity
  8
0
  6
Continuous
 62
     7
370
     0
100
AcDbLine
 10
122.7589514628
 20
156.0044052408
 30
0.0
 11
121.7589514628
 21
155.0044052408
 31
0.0
  0
LINE
  5
1CF
330
1F
100
AcDbEntity
  8
0
  6
Continuous
 62
     7
370
     0
100
AcDbLine
 10
121.7589514628
 20
127.0044052408
 30
0.0
 11
122.7589514628
 21
126.0044052408
 31
0.0
  0
ARC
  5
1D0
330
1F
100
AcDbEntity
  8
0
  6
Continuous
 62
     7
370
     0
100
AcDbCircle
 10
171.6439514628
 20
147.3044052408
 30
0.0
 40
1.875
100
AcDbArc
 50
306.8698976458
 51
53.1301023542
  0
LINE
  5
1D1
330
1F
100
AcDbEntity
  8
0
  6
Continuous
 62
     7
370
     0
100
AcDbLine
 10
168.7689514628
 20
140.1364560484
 30
0.0
 11
133.7689514628
 21
140.1364560484
 31
0.0
  0
LINE
  5
1D2
330
1F
100
AcDbEntity
  8
0
  6
Continuous
 62
     7
370
     0
100
AcDbLine
 10
168.7689514628
 20
139.1364560484
 30
0.0
 11
133.7689514628
 21
139.1364560484
 31
0.0
  0
LINE
  5
1D3
330
1F
100
AcDbEntity
  8
0
  6
Continuous
 62
     7
370
     0
100
AcDbLine
 10
168.7689514628
 20
127.4044052408
 30
0.0
 11
133.7689514628
 21
127.4044052408
 31
0.0
  0
LINE
  5
1D4
330
1F
100
AcDbEntity
  8
0
  6
Continuous
 62
   144
370
     0
100
AcDbLine
 10
168.7689514628
 20
139.1364560484
 30
0.0
 11
168.7689514628
 21
127.4044052408
 31
0.0
  0
LINE
  5
1D5
330
1F
100
AcDbEntity
  8
0
  6
Continuous
 62
   144
370
     0
100
AcDbLine
 10
133.7689514628
 20
127.4044052408
 30
0.0
 11
133.7689514628
 21
139.1364560484
 31
0.0
  0
LINE
  5
1D6
330
1F
100
AcDbEntity
  8
0
  6
Continuous
 62
     7
370
     0
100
AcDbLine
 10
168.7689514628
 20
125.4044052408
 30
0.0
 11
133.7689514628
 21
125.4044052408
 31
0.0
  0
LINE
  5
1D7
330
1F
100
AcDbEntity
  8
0
  6
Continuous
 62
     7
370
     0
100
AcDbLine
 10
133.7689514628
 20
141.1749085088
 30
0.0
 11
168.7689514628
 21
141.1749085088
 31
0.0
  0
LINE
  5
1D8
330
1F
100
AcDbEntity
  8
0
  6
Continuous
 62
     7
370
     0
100
AcDbLine
 10
133.7689514628
 20
141.6749085088
 30
0.0
 11
168.7689514628
 21
141.6749085088
 31
0.0
  0
LINE
  5
1D9
330
1F
100
AcDbEntity
  8
0
  6
Continuous
 62
     7
370
     0
100
AcDbLine
 10
168.7689514628
 20
142.5044052408
 30
0.0
 11
168.7689514628
 21
154.7044052408
 31
0.0
  0
LINE
  5
1DA
330
1F
100
AcDbEntity
  8
0
  6
Continuous
 62
     7
370
     0
100
AcDbLine
 10
168.7689514628
 20
156.7044052408
 30
0.0
 11
168.7689514628
 21
154.7044052408
 31
0.0
  0
LINE
  5
1DB
330
1F
100
AcDbEntity
  8
0
  6
Continuous
 62
     7
370
     0
100
AcDbLine
 10
168.7689514628
 20
154.7044052408
 30
0.0
 11
133.7689514628
 21
154.7044052408
 31
0.0
  0
LINE
  5
1DC
330
1F
100
AcDbEntity
  8
0
  6
Continuous
 62
     7
370
     0
100
AcDbLine
 10
133.7689514628
 20
142.5044052408
 30
0.0
 11
168.7689514628
 21
142.5044052408
 31
0.0
  0
CIRCLE
  5
1DD
330
1F
100
AcDbEntity
  8
0
  6
Continuous
 62
     7
370
     0
100
AcDbCircle
 10
163.2689514628
 20
146.5044052408
 30
0.0
 40
2.19999999999996
  0
CIRCLE
  5
1DE
330
1F
100
AcDbEntity
  8
0
  6
Continuous
 62
     7
370
     0
100
AcDbCircle
 10
136.7689514628
 20
146.5044052408
 30
0.0
 40
2.19999999999996
  0
LINE
  5
1DF
330
1F
100
AcDbEntity
  8
0
  6
Continuous
 62
   144
370
     0
100
AcDbLine
 10
133.7689514628
 20
154.7044052408
 30
0.0
 11
133.7689514628
 21
142.5044052408
 31
0.0
  0
LINE
  5
1E0
330
1F
100
AcDbEntity
  8
0
  6
Continuous
 62
     7
370
     0
100
AcDbLine
 10
168.7689514628
 20
156.7044052408
 30
0.0
 11
133.7689514628
 21
156.7044052408
 31
0.0
  0
LINE
  5
1E1
330
1F
100
AcDbEntity
  8
0
  6
Continuous
 62
   144
370
     0
100
AcDbLine
 10
133.7689514628
 20
154.7044052408
 30
0.0
 11
133.7689514628
 21
156.7044052408
 31
0.0
  0
CIRCLE
  5
1E2
330
1F
100
AcDbEntity
  8
0
  6
Continuous
 62
     7
370
     0
100
AcDbCircle
 10
136.7689514628
 20
146.5044052408
 30
0.0
 40
1.899999999999977
  0
LINE
  5
1E3
330
1F
100
AcDbEntity
  8
0
  6
Continuous
 62
     7
370
     0
100
AcDbLine
 10
136.1189514628
 20
146.1291275659
 30
0.0
 11
136.7689514628
 21
145.7538498909
 31
0.0
  0
LINE
  5
1E4
330
1F
100
AcDbEntity
  8
0
  6
Continuous
 62
     7
370
     0
100
AcDbLine
 10
136.7689514628
 20
145.7538498909
 30
0.0
 11
137.4189514628
 21
146.1291275659
 31
0.0
  0
LINE
  5
1E5
330
1F
100
AcDbEntity
  8
0
  6
Continuous
 62
     7
370
     0
100
AcDbLine
 10
137.4189514628
 20
146.1291275659
 30
0.0
 11
137.4189514628
 21
146.8796829158
 31
0.0
  0
LINE
  5
1E6
330
1F
100
AcDbEntity
  8
0
  6
Continuous
 62
     7
370
     0
100
AcDbLine
 10
137.4189514628
 20
146.8796829158
 30
0.0
 11
136.7689514628
 21
147.2549605908
 31
0.0
  0
LINE
  5
1E7
330
1F
100
AcDbEntity
  8
0
  6
Continuous
 62
     7
370
     0
100
AcDbLine
 10
136.7689514628
 20
147.2549605908
 30
0.0
 11
136.1189514628
 21
146.8796829158
 31
0.0
  0
LINE
  5
1E8
330
1F
100
AcDbEntity
  8
0
  6
Continuous
 62
     7
370
     0
100
AcDbLine
 10
136.1189514628
 20
146.8796829158
 30
0.0
 11
136.1189514628
 21
146.1291275659
 31
0.0
  0
LINE
  5
1E9
330
1F
100
AcDbEntity
  8
0
  6
Continuous
 62
     7
370
     0
100
AcDbLine
 10
172.7689514628
 20
127.2044052408
 30
0.0
 11
172.7689514628
 21
125.2044052408
 31
0.0
  0
LINE
  5
1EA
330
1F
100
AcDbEntity
  8
0
  6
Continuous
 62
     7
370
     0
100
AcDbLine
 10
172.7689514628
 20
154.6044052408
 30
0.0
 11
172.7689514628
 21
127.2044052408
 31
0.0
  0
LINE
  5
1EB
330
1F
100
AcDbEntity
  8
0
  6
Continuous
 62
     7
370
     0
100
AcDbLine
 10
172.7689514628
 20
156.6044052408
 30
0.0
 11
172.7689514628
 21
154.6044052408
 31
0.0
  0
LINE
  5
1EC
330
1F
100
AcDbEntity
  8
0
  6
Continuous
 62
     7
370
     0
100
AcDbLine
 10
172.7689514628
 20
154.6044052408
 30
0.0
 11
168.7689514628
 21
154.6044052408
 31
0.0
  0
LINE
  5
1ED
330
1F
100
AcDbEntity
  8
0
  6
Continuous
 62
     7
370
     0
100
AcDbLine
 10
172.7689514628
 20
156.6044052408
 30
0.0
 11
168.7689514628
 21
156.6044052408
 31
0.0
  0
LINE
  5
1EE
330
1F
100
AcDbEntity
  8
0
  6
Continuous
 62
     7
370
     0
100
AcDbLine
 10
168.7689514628
 20
127.2044052408
 30
0.0
 11
172.7689514628
 21
127.2044052408
 31
0.0
  0
LINE
  5
1EF
330
1F
100
AcDbEntity
  8
0
  6
Continuous
 62
     7
370
     0
100
AcDbLine
 10
168.7689514628
 20
154.6044052408
 30
0.0
 11
168.7689514628
 21
127.2044052408
 31
0.0
  0
LINE
  5
1F0
330
1F
100
AcDbEntity
  8
0
  6
Continuous
 62
     7
370
     0
100
AcDbLine
 10
168.7689514628
 20
127.2044052408
 30
0.0
 11
168.7689514628
 21
125.2044052408
 31
0.0
  0
LINE
  5
1F1
330
1F
100
AcDbEntity
  8
0
  6
Continuous
 62
     7
370
     0
100
AcDbLine
 10
172.7689514628
 20
125.2044052408
 30
0.0
 11
168.7689514628
 21
125.2044052408
 31
0.0
  0
LINE
  5
1F2
330
1F
100
AcDbEntity
  8
0
  6
Continuous
 62
     7
370
     0
100
AcDbLine
 10
172.7689514628
 20
125.2044052408
 30
0.0
 11
172.7689514628
 21
118.9544052408
 31
0.0
  0
LINE
  5
1F3
330
1F
100
AcDbEntity
  8
0
  6
Continuous
 62
     7
370
     0
100
AcDbLine
 10
172.7689514628
 20
118.9544052408
 30
0.0
 11
172.2689514628
 21
118.9544052408
 31
0.0
  0
LINE
  5
1F4
330
1F
100
AcDbEntity
  8
0
  6
Continuous
 62
     7
370
     0
100
AcDbLine
 10
172.2689514628
 20
118.9544052408
 30
0.0
 11
128.2689514628
 21
118.9544052408
 31
0.0
  0
LINE
  5
1F5
330
1F
100
AcDbEntity
  8
0
  6
Continuous
 62
     7
370
     0
100
AcDbLine
 10
128.2689514628
 20
125.3044052408
 30
0.0
 11
128.2689514628
 21
118.9544052408
 31
0.0
  0
LINE
  5
1F6
330
1F
100
AcDbEntity
  8
0
  6
Continuous
 62
   144
370
     0
100
AcDbLine
 10
168.7689514628
 20
125.3044052408
 30
0.0
 11
133.7689514628
 21
125.3044052408
 31
0.0
  0
LINE
  5
1F7
330
1F
100
AcDbEntity
  8
0
  6
Continuous
 62
     7
370
     0
100
AcDbLine
 10
128.2689514628
 20
118.9544052408
 30
0.0
 11
127.7689514628
 21
118.9544052408
 31
0.0
  0
LINE
  5
1F8
330
1F
100
AcDbEntity
  8
0
  6
Continuous
 62
     7
370
     0
100
AcDbLine
 10
127.7689514628
 20
118.9544052408
 30
0.0
 11
127.7689514628
 21
125.3044052408
 31
0.0
  0
CIRCLE
  5
1F9
330
1F
100
AcDbEntity
  8
0
  6
Continuous
 62
     7
370
     0
100
AcDbCircle
 10
163.2689514628
 20
146.5044052408
 30
0.0
 40
1.899999999999996
  0
LINE
  5
1FA
330
1F
100
AcDbEntity
  8
0
  6
Continuous
 62
     7
370
     0
100
AcDbLine
 10
162.7598539916
 20
147.0559060098
 30
0.0
 11
162.536789051
 21
146.3392642823
 31
0.0
  0
LINE
  5
1FB
330
1F
100
AcDbEntity
  8
0
  6
Continuous
 62
     7
370
     0
100
AcDbLine
 10
162.536789051
 20
146.3392642823
 30
0.0
 11
163.0458865221
 21
145.7877635133
 31
0.0
  0
LINE
  5
1FC
330
1F
100
AcDbEntity
  8
0
  6
Continuous
 62
     7
370
     0
100
AcDbLine
 10
163.0458865221
 20
145.7877635133
 30
0.0
 11
163.7780489339
 21
145.9529044718
 31
0.0
  0
LINE
  5
1FD
330
1F
100
AcDbEntity
  8
0
  6
Continuous
 62
     7
370
     0
100
AcDbLine
 10
163.7780489339
 20
145.9529044718
 30
0.0
 11
164.0011138745
 21
146.6695461993
 31
0.0
  0
LINE
  5
1FE
330
1F
100
AcDbEntity
  8
0
  6
Continuous
 62
     7
370
     0
100
AcDbLine
 10
164.0011138745
 20
146.6695461993
 30
0.0
 11
163.4920164034
 21
147.2210469683
 31
0.0
  0
LINE
  5
1FF
330
1F
100
AcDbEntity
  8
0
  6
Continuous
 62
     7
370
     0
100
AcDbLine
 10
163.4920164034
 20
147.2210469683
 30
0.0
 11
162.7598539916
 21
147.0559060098
 31
0.0
  0
LINE
  5
200
330
1F
100
AcDbEntity
  8
0
  6
Continuous
 62
     7
370
     0
100
AcDbLine
 10
176.6189514628
 20
130.3544052408
 30
0.0
 11
176.6189514628
 21
142.2544052408
 31
0.0
  0
LINE
  5
201
330
1F
100
AcDbEntity
  8
0
  6
Continuous
 62
     7
370
     0
100
AcDbLine
 10
133.7689514628
 20
127.3044052408
 30
0.0
 11
133.7689514628
 21
125.3044052408
 31
0.0
  0
LINE
  5
202
330
1F
100
AcDbEntity
  8
0
  6
Continuous
 62
     7
370
     0
100
AcDbLine
 10
133.7689514628
 20
154.7044052408
 30
0.0
 11
133.7689514628
 21
127.3044052408
 31
0.0
  0
LINE
  5
203
330
1F
100
AcDbEntity
  8
0
  6
Continuous
 62
     7
370
     0
100
AcDbLine
 10
133.7689514628
 20
156.7044052408
 30
0.0
 11
133.7689514628
 21
154.7044052408
 31
0.0
  0
LINE
  5
204
330
1F
100
AcDbEntity
  8
0
  6
Continuous
 62
     7
370
     0
100
AcDbLine
 10
133.7689514628
 20
156.7044052408
 30
0.0
 11
127.7689514628
 21
156.7044052408
 31
0.0
  0
LINE
  5
205
330
1F
100
AcDbEntity
  8
0
  6
Continuous
 62
     7
370
     0
100
AcDbLine
 10
133.7689514628
 20
154.7044052408
 30
0.0
 11
127.7689514628
 21
154.7044052408
 31
0.0
  0
LINE
  5
206
330
1F
100
AcDbEntity
  8
0
  6
Continuous
 62
     7
370
     0
100
AcDbLine
 10
127.7689514628
 20
156.7044052408
 30
0.0
 11
127.7689514628
 21
154.7044052408
 31
0.0
  0
LINE
  5
207
330
1F
100
AcDbEntity
  8
0
  6
Continuous
 62
     7
370
     0
100
AcDbLine
 10
127.7689514628
 20
154.7044052408
 30
0.0
 11
127.7689514628
 21
127.3044052408
 31
0.0
  0
LINE
  5
208
330
1F
100
AcDbEntity
  8
0
  6
Continuous
 62
     7
370
     0
100
AcDbLine
 10
133.7689514628
 20
127.3044052408
 30
0.0
 11
127.7689514628
 21
127.3044052408
 31
0.0
  0
CIRCLE
  5
209
330
1F
100
AcDbEntity
  8
0
  6
Continuous
 62
     7
370
     0
100
AcDbCircle
 10
130.7689514628
 20
132.5044052408
 30
0.0
 40
1.229500000000002
  0
CIRCLE
  5
20A
330
1F
100
AcDbEntity
  8
0
  6
Continuous
 62
     7
370
     0
100
AcDbCircle
 10
130.7689514628
 20
149.5044052408
 30
0.0
 40
1.229500000000002
  0
LINE
  5
20B
330
1F
100
AcDbEntity
  8
0
  6
Continuous
 62
     7
370
     0
100
AcDbLine
 10
127.7689514628
 20
127.3044052408
 30
0.0
 11
127.7689514628
 21
125.3044052408
 31
0.0
  0
LINE
  5
20C
330
1F
100
AcDbEntity
  8
0
  6
Continuous
 62
     7
370
     0
100
AcDbLine
 10
133.7689514628
 20
125.3044052408
 30
0.0
 11
127.7689514628
 21
125.3044052408
 31
0.0
  0
SPLINE
  5
20D
330
1F
100
AcDbEntity
  8
0
  6
Continuous
 62
   144
370
     0
100
AcDbSpline
210
0.0
220
0.0
230
1.0
 70
     8
 71
     3
 72
     8
 73
     4
 74
     0
 42
0.00000001
 43
0.00000001
 40
0.0
 40
0.0
 40
0.0
 40
0.0
 40
0.000201728683644
 40
0.000201728683644
 40
0.000201728683644
 40
0.000201728683644
 10
129.6063379199123
 20
149.9044052408315
 30
0.0
 10
129.6026102682704
 20
149.8381457200077
 30
0.0
 10
129.599855982089
 20
149.7713816731134
 30
0.0
 10
129.5980320143595
 20
149.7044052408315
 30
0.0
  0
LINE
  5
20E
330
1F
100
AcDbEntity
  8
0
  6
Continuous
 62
   144
370
     0
100
AcDbLine
 10
129.5980320144
 20
149.7044052408
 30
0.0
 11
129.5558272935
 21
149.7044052408
 31
0.0
  0
LINE
  5
20F
330
1F
100
AcDbEntity
  8
0
  6
Continuous
 62
   144
370
     0
100
AcDbLine
 10
129.5965729864
 20
149.7044052408
 30
0.0
 11
131.9398709111
 21
149.7044052408
 31
0.0
  0
LINE
  5
210
330
1F
100
AcDbEntity
  8
0
  6
Continuous
 62
   144
370
     0
100
AcDbLine
 10
131.982075632
 20
149.7044052408
 30
0.0
 11
131.9398709111
 21
149.7044052408
 31
0.0
  0
SPLINE
  5
211
330
1F
100
AcDbEntity
  8
0
  6
Continuous
 62
   144
370
     0
100
AcDbSpline
210
0.0
220
0.0
230
1.0
 70
     8
 71
     3
 72
     8
 73
     4
 74
     0
 42
0.00000001
 43
0.00000001
 40
0.0
 40
0.0
 40
0.0
 40
0.0
 40
0.000201728683644
 40
0.000201728683644
 40
0.000201728683644
 40
0.000201728683644
 10
131.9398709111493
 20
149.7044052408315
 30
0.0
 10
131.9380469434199
 20
149.7713816731134
 30
0.0
 10
131.9352926572385
 20
149.8381457200077
 30
0.0
 10
131.9315650055966
 20
149.9044052408315
 30
0.0
  0
LINE
  5
212
330
1F
100
AcDbEntity
  8
0
  6
Continuous
 62
     7
370
     0
100
AcDbLine
 10
122.7589514628
 20
156.0044052408
 30
0.0
 11
122.7589514628
 21
126.0044052408
 31
0.0
  0
LINE
  5
213
330
1F
100
AcDbEntity
  8
0
  6
Continuous
 62
     7
370
     0
100
AcDbLine
 10
121.7589514628
 20
141.0044052408
 30
0.0
 11
121.7589514628
 21
127.0044052408
 31
0.0
  0
LINE
  5
214
330
1F
100
AcDbEntity
  8
0
  6
Continuous
 62
     7
370
     0
100
AcDbLine
 10
121.7589514628
 20
155.0044052408
 30
0.0
 11
121.7589514628
 21
141.0044052408
 31
0.0
  0
LINE
  5
215
330
1F
100
AcDbEntity
  8
0
  6
Continuous
 62
   144
370
     0
100
AcDbLine
 10
137.1244910006
 20
147.0496897429
 30
0.0
 11
137.4189514628
 21
146.83409224
 31
0.0
  0
LINE
  5
216
330
1F
100
AcDbEntity
  8
0
  6
Continuous
 62
   144
370
     0
100
AcDbLine
 10
137.4189514628
 20
146.46914122
 30
0.0
 11
137.3794687794
 21
146.106332228
 31
0.0
  0
LINE
  5
217
330
1F
100
AcDbEntity
  8
0
  6
Continuous
 62
   144
370
     0
100
AcDbLine
 10
136.4744910006
 20
147.0849537637
 30
0.0
 11
136.8084341461
 21
147.2321652529
 31
0.0
  0
LINE
  5
218
330
1F
100
AcDbEntity
  8
0
  6
Continuous
 62
   144
370
     0
100
AcDbLine
 10
136.1189514628
 20
146.5396692616
 30
0.0
 11
136.1584341461
 21
146.9024782537
 31
0.0
  0
LINE
  5
219
330
1F
100
AcDbEntity
  8
0
  6
Continuous
 62
   144
370
     0
100
AcDbLine
 10
137.0634119249
 20
145.923856718
 30
0.0
 11
136.7294687794
 21
145.7766452288
 31
0.0
  0
LINE
  5
21A
330
1F
100
AcDbEntity
  8
0
  6
Continuous
 62
   144
370
     0
100
AcDbLine
 10
136.4134119249
 20
145.9591207388
 30
0.0
 11
136.1189514628
 21
146.1747182416
 31
0.0
  0
LINE
  5
21B
330
1F
100
AcDbEntity
  8
0
  6
Continuous
 62
     8
370
     0
100
AcDbLine
 10
172.2689514628
 20
118.9544052408
 30
0.0
 11
172.2689514628
 21
125.2044052408
 31
0.0
  0
LINE
  5
21C
330
1F
100
AcDbEntity
  8
0
  6
CENTERX2
 62
     7
370
     0
100
AcDbLine
 10
134.6589514628
 20
136.5044052408
 30
0.0
 11
134.6589514628
 21
145.5044052408
 31
0.0
  0
DIMENSION
  5
21D
330
1F
100
AcDbEntity
  8
0
  6
Continuous
 62
     7
370
     0
100
AcDbDimension
  2
*D13
 10
121.7589514628
 20
167.2510586657
 30
0.0
 11
106.9589514628
 21
167.2510586657
 31
0.0
 70
   160
 71
     2
 42
-1.0
  3
SLDDIMSTYLE1
100
AcDbAlignedDimension
 13
134.6589514628
 23
145.5044052408
 33
0.0
 14
121.7589514628
 24
155.0044052408
 34
0.0
100
AcDbRotatedDimension
  0
DIMENSION
  5
22F
330
1F
100
AcDbEntity
  8
0
  6
Continuous
 62
     7
370
     0
100
AcDbDimension
  2
*D14
 10
172.7689514628
 20
187.135359425
 30
0.0
 11
150.2689514628
 21
187.135359425
 31
0.0
 70
   160
 71
     2
 42
-1.0
  3
SLDDIMSTYLE0
100
AcDbAlignedDimension
 13
127.7689514628
 23
154.7044052408
 33
0.0
 14
172.7689514628
 24
154.6044052408
 34
0.0
100
AcDbRotatedDimension
  0
DIMENSION
  5
241
330
1F
100
AcDbEntity
  8
0
  6
Continuous
 62
     7
370
     0
100
AcDbDimension
  2
*D15
 10
121.7589514628
 20
178.7044052408
 30
0.0
 11
141.6098588916
 21
178.7044052408
 31
0.0
 70
   160
 71
     2
 42
-1.0
  3
SLDDIMSTYLE1
100
AcDbAlignedDimension
 13
127.7689514628
 23
154.7044052408
 33
0.0
 14
121.7589514628
 24
155.0044052408
 34
0.0
100
AcDbRotatedDimension
  0
DIMENSION
  5
253
330
1F
100
AcDbEntity
  8
0
  6
Continuous
 62
     7
370
     0
100
AcDbDimension
  2
*D16
 10
176.6189514628
 20
178.7044052408
 30
0.0
 11
158.9650832108
 21
178.7044052408
 31
0.0
 70
   160
 71
     2
 42
-1.0
  3
SLDDIMSTYLE1
100
AcDbAlignedDimension
 13
172.7689514628
 23
154.6044052408
 33
0.0
 14
176.6189514628
 24
142.2544052408
 34
0.0
100
AcDbRotatedDimension
  0
DIMENSION
  5
265
330
1F
100
AcDbEntity
  8
0
  6
Continuous
 62
     7
370
     0
100
AcDbDimension
  2
*D17
 10
176.6189514628
 20
196.7044052408
 30
0.0
 11
149.1889514628
 21
196.7044052408
 31
0.0
 70
   160
 71
     2
 42
-1.0
  3
SLDDIMSTYLE0
100
AcDbAlignedDimension
 13
121.7589514628
 23
155.0044052408
 33
0.0
 14
176.6189514628
 24
142.2544052408
 34
0.0
100
AcDbRotatedDimension
  0
INSERT
  5
27D
102
{ACAD_REACTORS
330
27E
102
}
330
1F
100
AcDbEntity
  8
0
  6
Continuous
 62
     7
370
     0
100
AcDbBlockReference
  2
SW_NOTE_5
 10
113.5136041005
 20
157.1236388266
 30
0.0
  0
LEADER
  5
27E
330
1F
100
AcDbEntity
  8
0
  6
Continuous
 62
     7
370
     0
100
AcDbLeader
  3
SLDDIMSTYLE2
 73
     2
 76
     3
 10
134.6589514628
 20
141.4703053375
 30
0.0
 10
119.8636041005
 20
157.1236388266
 30
0.0
 10
113.5136041005
 20
157.1236388266
 30
0.0
340
27D
  0
ARC
  5
27F
330
1F
100
AcDbEntity
  8
0
  6
Continuous
 62
     7
370
     0
100
AcDbCircle
 10
255.8988147566
 20
154.7044052408
 30
0.0
 40
2.000000000000057
100
AcDbArc
 50
0.0
 51
90.0
  0
ARC
  5
280
330
1F
100
AcDbEntity
  8
0
  6
Continuous
 62
     7
370
     0
100
AcDbCircle
 10
215.0988147566
 20
154.7044052408
 30
0.0
 40
2.0
100
AcDbArc
 50
90.0
 51
180.0
  0
LINE
  5
281
330
1F
100
AcDbEntity
  8
0
  6
Continuous
 62
     7
370
     0
100
AcDbLine
 10
255.8988147566
 20
156.7044052408
 30
0.0
 11
215.0988147566
 21
156.7044052408
 31
0.0
  0
ARC
  5
282
330
1F
100
AcDbEntity
  8
0
  6
Continuous
 62
     7
370
     0
100
AcDbCircle
 10
223.6488147566
 20
133.0044052408
 30
0.0
 40
0.9999999999999716
100
AcDbArc
 50
180.0
 51
270.0
  0
LINE
  5
283
330
1F
100
AcDbEntity
  8
0
  6
Continuous
 62
     7
370
     0
100
AcDbLine
 10
223.6488147566
 20
131.5044052408
 30
0.0
 11
223.6488147566
 21
132.0044052408
 31
0.0
  0
ARC
  5
284
330
1F
100
AcDbEntity
  8
0
  6
Continuous
 62
     7
370
     0
100
AcDbCircle
 10
223.6488147566
 20
133.0044052408
 30
0.0
 40
1.5
100
AcDbArc
 50
180.0
 51
270.0
  0
LINE
  5
285
330
1F
100
AcDbEntity
  8
0
  6
Continuous
 62
     7
370
     0
100
AcDbLine
 10
222.1488147566
 20
133.0044052408
 30
0.0
 11
222.6488147566
 21
133.0044052408
 31
0.0
  0
ARC
  5
286
330
1F
100
AcDbEntity
  8
0
  6
Continuous
 62
     7
370
     0
100
AcDbCircle
 10
223.6488147566
 20
136.2044052408
 30
0.0
 40
0.9999999999999716
100
AcDbArc
 50
90.0
 51
180.0
  0
LINE
  5
287
330
1F
100
AcDbEntity
  8
0
  6
Continuous
 62
     7
370
     0
100
AcDbLine
 10
222.1488147566
 20
136.2044052408
 30
0.0
 11
222.6488147566
 21
136.2044052408
 31
0.0
  0
ARC
  5
288
330
1F
100
AcDbEntity
  8
0
  6
Continuous
 62
     7
370
     0
100
AcDbCircle
 10
223.6488147566
 20
136.2044052408
 30
0.0
 40
1.5
100
AcDbArc
 50
90.0
 51
180.0
  0
LINE
  5
289
330
1F
100
AcDbEntity
  8
0
  6
Continuous
 62
     7
370
     0
100
AcDbLine
 10
223.6488147566
 20
137.2044052408
 30
0.0
 11
223.6488147566
 21
137.7044052408
 31
0.0
  0
LINE
  5
28A
330
1F
100
AcDbEntity
  8
0
  6
Continuous
 62
     7
370
     0
100
AcDbLine
 10
222.6488147566
 20
133.0044052408
 30
0.0
 11
222.6488147566
 21
136.2044052408
 31
0.0
  0
LINE
  5
28B
330
1F
100
AcDbEntity
  8
0
  6
Continuous
 62
     7
370
     0
100
AcDbLine
 10
222.1488147566
 20
133.0044052408
 30
0.0
 11
222.1488147566
 21
136.2044052408
 31
0.0
  0
LINE
  5
28C
330
1F
100
AcDbEntity
  8
0
  6
Continuous
 62
     7
370
     0
100
AcDbLine
 10
230.3488147566
 20
131.5044052408
 30
0.0
 11
223.6488147566
 21
131.5044052408
 31
0.0
  0
LINE
  5
28D
330
1F
100
AcDbEntity
  8
0
  6
Continuous
 62
     7
370
     0
100
AcDbLine
 10
230.3488147566
 20
132.0044052408
 30
0.0
 11
223.6488147566
 21
132.0044052408
 31
0.0
  0
LINE
  5
28E
330
1F
100
AcDbEntity
  8
0
  6
Continuous
 62
     7
370
     0
100
AcDbLine
 10
230.3488147566
 20
131.5044052408
 30
0.0
 11
230.3488147566
 21
132.0044052408
 31
0.0
  0
LINE
  5
28F
330
1F
100
AcDbEntity
  8
0
  6
Continuous
 62
     7
370
     0
100
AcDbLine
 10
223.6488147566
 20
137.2044052408
 30
0.0
 11
230.3488147566
 21
137.2044052408
 31
0.0
  0
LINE
  5
290
330
1F
100
AcDbEntity
  8
0
  6
Continuous
 62
     7
370
     0
100
AcDbLine
 10
223.6488147566
 20
137.7044052408
 30
0.0
 11
230.3488147566
 21
137.7044052408
 31
0.0
  0
LINE
  5
291
330
1F
100
AcDbEntity
  8
0
  6
Continuous
 62
     7
370
     0
100
AcDbLine
 10
230.3488147566
 20
137.7044052408
 30
0.0
 11
230.3488147566
 21
137.2044052408
 31
0.0
  0
ARC
  5
292
330
1F
100
AcDbEntity
  8
0
  6
Continuous
 62
     7
370
     0
100
AcDbCircle
 10
230.3488147566
 20
136.2044052408
 30
0.0
 40
1.5
100
AcDbArc
 50
0.0
 51
90.0
  0
LINE
  5
293
330
1F
100
AcDbEntity
  8
0
  6
Continuous
 62
     7
370
     0
100
AcDbLine
 10
231.8488147566
 20
136.2044052408
 30
0.0
 11
231.3488147566
 21
136.2044052408
 31
0.0
  0
ARC
  5
294
330
1F
100
AcDbEntity
  8
0
  6
Continuous
 62
     7
370
     0
100
AcDbCircle
 10
230.3488147566
 20
136.2044052408
 30
0.0
 40
1.0
100
AcDbArc
 50
0.0
 51
90.0
  0
ARC
  5
295
330
1F
100
AcDbEntity
  8
0
  6
Continuous
 62
     7
370
     0
100
AcDbCircle
 10
230.3488147566
 20
133.0044052408
 30
0.0
 40
1.5
100
AcDbArc
 50
270.0
 51
0.0
  0
ARC
  5
296
330
1F
100
AcDbEntity
  8
0
  6
Continuous
 62
     7
370
     0
100
AcDbCircle
 10
230.3488147566
 20
133.0044052408
 30
0.0
 40
1.0
100
AcDbArc
 50
270.0
 51
0.0
  0
LINE
  5
297
330
1F
100
AcDbEntity
  8
0
  6
Continuous
 62
     7
370
     0
100
AcDbLine
 10
231.8488147566
 20
133.0044052408
 30
0.0
 11
231.3488147566
 21
133.0044052408
 31
0.0
  0
LINE
  5
298
330
1F
100
AcDbEntity
  8
0
  6
Continuous
 62
     7
370
     0
100
AcDbLine
 10
231.8488147566
 20
136.2044052408
 30
0.0
 11
231.8488147566
 21
133.0044052408
 31
0.0
  0
LINE
  5
299
330
1F
100
AcDbEntity
  8
0
  6
Continuous
 62
     7
370
     0
100
AcDbLine
 10
231.3488147566
 20
136.2044052408
 30
0.0
 11
231.3488147566
 21
133.0044052408
 31
0.0
  0
LINE
  5
29A
330
1F
100
AcDbEntity
  8
0
  6
Continuous
 62
     7
370
     0
100
AcDbLine
 10
255.8988147566
 20
156.6044052408
 30
0.0
 11
215.0988147566
 21
156.6044052408
 31
0.0
  0
ARC
  5
29B
330
1F
100
AcDbEntity
  8
0
  6
Continuous
 62
     7
370
     0
100
AcDbCircle
 10
255.8988147566
 20
154.6044052408
 30
0.0
 40
2.0
100
AcDbArc
 50
0.0
 51
90.0
  0
LINE
  5
29C
330
1F
100
AcDbEntity
  8
0
  6
Continuous
 62
     7
370
     0
100
AcDbLine
 10
257.8988147566
 20
127.2044052408
 30
0.0
 11
257.8988147566
 21
154.6044052408
 31
0.0
  0
ARC
  5
29D
330
1F
100
AcDbEntity
  8
0
  6
Continuous
 62
     7
370
     0
100
AcDbCircle
 10
255.8988147566
 20
127.2044052408
 30
0.0
 40
2.000000000000014
100
AcDbArc
 50
270.0
 51
0.0
  0
LINE
  5
29E
330
1F
100
AcDbEntity
  8
0
  6
Continuous
 62
     7
370
     0
100
AcDbLine
 10
215.0988147566
 20
125.2044052408
 30
0.0
 11
255.8988147566
 21
125.2044052408
 31
0.0
  0
ARC
  5
29F
330
1F
100
AcDbEntity
  8
0
  6
Continuous
 62
     7
370
     0
100
AcDbCircle
 10
215.0988147566
 20
127.2044052408
 30
0.0
 40
2.000000000000014
100
AcDbArc
 50
180.0
 51
270.0
  0
LINE
  5
2A0
330
1F
100
AcDbEntity
  8
0
  6
Continuous
 62
     7
370
     0
100
AcDbLine
 10
213.0988147566
 20
154.6044052408
 30
0.0
 11
213.0988147566
 21
127.2044052408
 31
0.0
  0
ARC
  5
2A1
330
1F
100
AcDbEntity
  8
0
  6
Continuous
 62
     7
370
     0
100
AcDbCircle
 10
215.0988147566
 20
154.6044052408
 30
0.0
 40
2.0
100
AcDbArc
 50
90.0
 51
180.0
  0
CIRCLE
  5
2A2
330
1F
100
AcDbEntity
  8
0
  6
Continuous
 62
     7
370
     0
100
AcDbCircle
 10
217.9988147566
 20
132.1044052408
 30
0.0
 40
0.7834999999999752
  0
CIRCLE
  5
2A3
330
1F
100
AcDbEntity
  8
0
  6
Continuous
 62
     7
370
     0
100
AcDbCircle
 10
217.9988147566
 20
137.1044052408
 30
0.0
 40
0.7834999999999752
  0
CIRCLE
  5
2A4
330
1F
100
AcDbEntity
  8
0
  6
Continuous
 62
     7
370
     0
100
AcDbCircle
 10
248.9988147566
 20
147.3044052408
 30
0.0
 40
1.549999999999983
  0
ARC
  5
2A5
330
1F
100
AcDbEntity
  8
0
  6
Continuous
 62
     7
370
     0
100
AcDbCircle
 10
238.4988147566
 20
153.6044052408
 30
0.0
 40
1.5
100
AcDbArc
 50
0.0
 51
90.0
  0
LINE
  5
2A6
330
1F
100
AcDbEntity
  8
0
  6
Continuous
 62
     7
370
     0
100
AcDbLine
 10
216.0988147566
 20
155.1044052408
 30
0.0
 11
238.4988147566
 21
155.1044052408
 31
0.0
  0
ARC
  5
2A7
330
1F
100
AcDbEntity
  8
0
  6
Continuous
 62
     7
370
     0
100
AcDbCircle
 10
216.0988147566
 20
153.6044052408
 30
0.0
 40
1.5
100
AcDbArc
 50
90.0
 51
180.0
  0
LINE
  5
2A8
330
1F
100
AcDbEntity
  8
0
  6
Continuous
 62
     7
370
     0
100
AcDbLine
 10
214.5988147566
 20
144.2044052408
 30
0.0
 11
214.5988147566
 21
153.6044052408
 31
0.0
  0
ARC
  5
2A9
330
1F
100
AcDbEntity
  8
0
  6
Continuous
 62
     7
370
     0
100
AcDbCircle
 10
216.0988147566
 20
144.2044052408
 30
0.0
 40
1.5
100
AcDbArc
 50
180.0
 51
270.0
  0
LINE
  5
2AA
330
1F
100
AcDbEntity
  8
0
  6
Continuous
 62
     7
370
     0
100
AcDbLine
 10
238.4988147566
 20
142.7044052408
 30
0.0
 11
216.0988147566
 21
142.7044052408
 31
0.0
  0
ARC
  5
2AB
330
1F
100
AcDbEntity
  8
0
  6
Continuous
 62
     7
370
     0
100
AcDbCircle
 10
238.4988147566
 20
144.2044052408
 30
0.0
 40
1.5
100
AcDbArc
 50
270.0
 51
0.0
  0
LINE
  5
2AC
330
1F
100
AcDbEntity
  8
0
  6
Continuous
 62
     7
370
     0
100
AcDbLine
 10
239.9988147566
 20
153.6044052408
 30
0.0
 11
239.9988147566
 21
144.2044052408
 31
0.0
  0
CIRCLE
  5
2AD
330
1F
100
AcDbEntity
  8
0
  6
Continuous
 62
     7
370
     0
100
AcDbCircle
 10
244.9988147566
 20
136.3044052408
 30
0.0
 40
7.799999999999983
  0
CIRCLE
  5
2AE
330
1F
100
AcDbEntity
  8
0
  6
Continuous
 62
     7
370
     0
100
AcDbCircle
 10
244.9988147566
 20
136.3044052408
 30
0.0
 40
7.299999999999983
  0
ARC
  5
2AF
330
1F
100
AcDbEntity
  8
0
  6
Continuous
 62
   144
370
     0
100
AcDbCircle
 10
243.6488147566
 20
142.9290341586
 30
0.0
 40
0.5000000000000014
100
AcDbArc
 50
90.0
 51
164.7799466321
  0
LINE
  5
2B0
330
1F
100
AcDbEntity
  8
0
  6
Continuous
 62
   144
370
     0
100
AcDbLine
 10
243.6488147566
 20
143.4290341586
 30
0.0
 11
246.3488147566
 21
143.4290341586
 31
0.0
  0
ARC
  5
2B1
330
1F
100
AcDbEntity
  8
0
  6
Continuous
 62
   144
370
     0
100
AcDbCircle
 10
246.3488147566
 20
142.9290341586
 30
0.0
 40
0.5000000000000014
100
AcDbArc
 50
15.2200533679
 51
90.0
  0
LINE
  5
2B2
330
1F
100
AcDbEntity
  8
0
  6
Continuous
 62
     7
370
     0
100
AcDbLine
 10
255.4988147566
 20
118.9544052408
 30
0.0
 11
254.9988147566
 21
118.9544052408
 31
0.0
  0
LINE
  5
2B3
330
1F
100
AcDbEntity
  8
0
  6
Continuous
 62
     7
370
     0
100
AcDbLine
 10
215.9988147566
 20
118.9544052408
 30
0.0
 11
215.4988147566
 21
118.9544052408
 31
0.0
  0
LINE
  5
2B4
330
1F
100
AcDbEntity
  8
0
  6
Continuous
 62
     7
370
     0
100
AcDbLine
 10
233.9988147566
 20
118.9544052408
 30
0.0
 11
215.9988147566
 21
118.9544052408
 31
0.0
  0
LINE
  5
2B5
330
1F
100
AcDbEntity
  8
0
  6
Continuous
 62
     7
370
     0
100
AcDbLine
 10
233.9988147566
 20
118.9544052408
 30
0.0
 11
236.9988147566
 21
118.9544052408
 31
0.0
  0
LINE
  5
2B6
330
1F
100
AcDbEntity
  8
0
  6
Continuous
 62
     7
370
     0
100
AcDbLine
 10
254.9988147566
 20
118.9544052408
 30
0.0
 11
236.9988147566
 21
118.9544052408
 31
0.0
  0
LINE
  5
2B7
330
1F
100
AcDbEntity
  8
0
  6
Continuous
 62
     7
370
     0
100
AcDbLine
 10
215.4988147566
 20
118.9544052408
 30
0.0
 11
215.4988147566
 21
125.2044052408
 31
0.0
  0
LINE
  5
2B8
330
1F
100
AcDbEntity
  8
0
  6
Continuous
 62
     7
370
     0
100
AcDbLine
 10
215.9988147566
 20
125.3044052408
 30
0.0
 11
215.9988147566
 21
118.9544052408
 31
0.0
  0
LINE
  5
2B9
330
1F
100
AcDbEntity
  8
0
  6
Continuous
 62
     7
370
     0
100
AcDbLine
 10
233.9988147566
 20
118.9544052408
 30
0.0
 11
233.9988147566
 21
122.4544052408
 31
0.0
  0
LINE
  5
2BA
330
1F
100
AcDbEntity
  8
0
  6
Continuous
 62
     7
370
     0
100
AcDbLine
 10
254.9988147566
 20
118.9544052408
 30
0.0
 11
254.9988147566
 21
125.3044052408
 31
0.0
  0
LINE
  5
2BB
330
1F
100
AcDbEntity
  8
0
  6
Continuous
 62
     7
370
     0
100
AcDbLine
 10
236.9988147566
 20
122.4544052408
 30
0.0
 11
236.9988147566
 21
118.9544052408
 31
0.0
  0
LINE
  5
2BC
330
1F
100
AcDbEntity
  8
0
  6
Continuous
 62
     7
370
     0
100
AcDbLine
 10
233.9988147566
 20
122.4544052408
 30
0.0
 11
236.9988147566
 21
122.4544052408
 31
0.0
  0
LINE
  5
2BD
330
1F
100
AcDbEntity
  8
0
  6
Continuous
 62
   144
370
     0
100
AcDbLine
 10
254.9988147566
 20
125.3044052408
 30
0.0
 11
215.9988147566
 21
125.3044052408
 31
0.0
  0
LINE
  5
2BE
330
1F
100
AcDbEntity
  8
0
  6
Continuous
 62
     7
370
     0
100
AcDbLine
 10
255.4988147566
 20
125.2044052408
 30
0.0
 11
255.4988147566
 21
118.9544052408
 31
0.0
  0
LWPOLYLINE
  5
2BF
330
1F
100
AcDbEntity
  8
0
  6
Continuous
 62
   144
370
     0
100
AcDbPolyline
 90
        3
 70
   128
 43
0.0
 10
224.1163721365
 20
137.2044052408
 10
224.1708610455
 20
137.0449274066
 10
224.3544215475
 20
136.5544052408
  0
ARC
  5
2C0
330
1F
100
AcDbEntity
  8
0
  6
Continuous
 62
   144
370
     0
100
AcDbCircle
 10
235.4988147566
 20
141.0044052408
 30
0.0
 40
12.00000000000001
100
AcDbArc
 50
224.0936603557
 51
228.5903778907
  0
CIRCLE
  5
2C1
330
1F
100
AcDbEntity
  8
0
  6
Continuous
 62
     7
370
     0
100
AcDbCircle
 10
244.9988147566
 20
136.3044052408
 30
0.0
 40
5.449999999999989
  0
CIRCLE
  5
2C2
330
1F
100
AcDbEntity
  8
0
  6
Continuous
 62
     7
370
     0
100
AcDbCircle
 10
244.9988147566
 20
136.3044052408
 30
0.0
 40
5.949999999999989
  0
CIRCLE
  5
2C3
330
1F
100
AcDbEntity
  8
0
  6
Continuous
 62
     7
370
     0
100
AcDbCircle
 10
242.7006814273
 20
134.3760424118
 30
0.0
 40
0.25
  0
CIRCLE
  5
2C4
330
1F
100
AcDbEntity
  8
0
  6
Continuous
 62
     7
370
     0
100
AcDbCircle
 10
242.7006814273
 20
138.2327680699
 30
0.0
 40
0.25
  0
CIRCLE
  5
2C5
330
1F
100
AcDbEntity
  8
0
  6
Continuous
 62
     7
370
     0
100
AcDbCircle
 10
241.9988147566
 20
136.3044052408
 30
0.0
 40
0.25
  0
CIRCLE
  5
2C6
330
1F
100
AcDbEntity
  8
0
  6
Continuous
 62
     7
370
     0
100
AcDbCircle
 10
244.4778702236
 20
133.3499819818
 30
0.0
 40
0.25
  0
CIRCLE
  5
2C7
330
1F
100
AcDbEntity
  8
0
  6
Continuous
 62
     7
370
     0
100
AcDbCircle
 10
243.4988147566
 20
135.438379837
 30
0.0
 40
0.25
  0
CIRCLE
  5
2C8
330
1F
100
AcDbEntity
  8
0
  6
Continuous
 62
     7
370
     0
100
AcDbCircle
 10
244.4778702236
 20
139.2588284999
 30
0.0
 40
0.25
  0
CIRCLE
  5
2C9
330
1F
100
AcDbEntity
  8
0
  6
Continuous
 62
     7
370
     0
100
AcDbCircle
 10
246.4988147566
 20
133.7063290295
 30
0.0
 40
0.25
  0
CIRCLE
  5
2CA
330
1F
100
AcDbEntity
  8
0
  6
Continuous
 62
     7
370
     0
100
AcDbCircle
 10
246.4988147566
 20
138.9024814522
 30
0.0
 40
0.25
  0
CIRCLE
  5
2CB
330
1F
100
AcDbEntity
  8
0
  6
Continuous
 62
     7
370
     0
100
AcDbCircle
 10
246.4988147566
 20
135.438379837
 30
0.0
 40
0.25
  0
CIRCLE
  5
2CC
330
1F
100
AcDbEntity
  8
0
  6
Continuous
 62
     7
370
     0
100
AcDbCircle
 10
244.9988147566
 20
138.0364560484
 30
0.0
 40
0.25
  0
CIRCLE
  5
2CD
330
1F
100
AcDbEntity
  8
0
  6
Continuous
 62
     7
370
     0
100
AcDbCircle
 10
247.817892619
 20
135.2783448109
 30
0.0
 40
0.25
  0
CIRCLE
  5
2CE
330
1F
100
AcDbEntity
  8
0
  6
Continuous
 62
     7
370
     0
100
AcDbCircle
 10
247.817892619
 20
137.3304656708
 30
0.0
 40
0.25
  0
CIRCLE
  5
2CF
330
1F
100
AcDbEntity
  8
0
  6
Continuous
 62
   144
370
     0
100
AcDbCircle
 10
244.9988147566
 20
136.3044052408
 30
0.0
 40
7.0
  0
CIRCLE
  5
2D0
330
1F
100
AcDbEntity
  8
0
  6
Continuous
 62
     7
370
     0
100
AcDbCircle
 10
248.9988147566
 20
147.3044052408
 30
0.0
 40
1.499999999999973
  0
LINE
  5
2D1
330
1F
100
AcDbEntity
  8
0
  6
Continuous
 62
     7
370
     0
100
AcDbLine
 10
224.0638147566
 20
133.9610042054
 30
0.0
 11
224.0638147566
 21
133.3544052408
 31
0.0
  0
LINE
  5
2D2
330
1F
100
AcDbEntity
  8
0
  6
Continuous
 62
     7
370
     0
100
AcDbLine
 10
224.0638147566
 20
133.3544052408
 30
0.0
 11
223.9138147566
 21
133.3544052408
 31
0.0
  0
LINE
  5
2D3
330
1F
100
AcDbEntity
  8
0
  6
Continuous
 62
     7
370
     0
100
AcDbLine
 10
223.9138147566
 20
133.3544052408
 30
0.0
 11
223.9138147566
 21
133.9610042054
 31
0.0
  0
LINE
  5
2D4
330
1F
100
AcDbEntity
  8
0
  6
Continuous
 62
     7
370
     0
100
AcDbLine
 10
224.0638147566
 20
133.9610042054
 30
0.0
 11
223.9138147566
 21
133.9610042054
 31
0.0
  0
LINE
  5
2D5
330
1F
100
AcDbEntity
  8
0
  6
Continuous
 62
     7
370
     0
100
AcDbLine
 10
229.6338147566
 20
132.9044052408
 30
0.0
 11
224.3638147566
 21
132.9044052408
 31
0.0
  0
LINE
  5
2D6
330
1F
100
AcDbEntity
  8
0
  6
Continuous
 62
     7
370
     0
100
AcDbLine
 10
224.3638147566
 20
133.0544052408
 30
0.0
 11
224.3638147566
 21
132.9044052408
 31
0.0
  0
LINE
  5
2D7
330
1F
100
AcDbEntity
  8
0
  6
Continuous
 62
     7
370
     0
100
AcDbLine
 10
224.3638147566
 20
133.0544052408
 30
0.0
 11
229.6338147566
 21
133.0544052408
 31
0.0
  0
LINE
  5
2D8
330
1F
100
AcDbEntity
  8
0
  6
Continuous
 62
     7
370
     0
100
AcDbLine
 10
229.6338147566
 20
132.9044052408
 30
0.0
 11
229.6338147566
 21
133.0544052408
 31
0.0
  0
ARC
  5
2D9
330
1F
100
AcDbEntity
  8
0
  6
Continuous
 62
     7
370
     0
100
AcDbCircle
 10
224.3638147566
 20
133.3544052408
 30
0.0
 40
0.3000000000000114
100
AcDbArc
 50
180.0
 51
270.0
  0
ARC
  5
2DA
330
1F
100
AcDbEntity
  8
0
  6
Continuous
 62
     7
370
     0
100
AcDbCircle
 10
224.3638147566
 20
133.3544052408
 30
0.0
 40
0.4499999999999886
100
AcDbArc
 50
180.0
 51
270.0
  0
ARC
  5
2DB
330
1F
100
AcDbEntity
  8
0
  6
Continuous
 62
     7
370
     0
100
AcDbCircle
 10
223.3638147566
 20
133.9610042054
 30
0.0
 40
0.3000000000000114
100
AcDbArc
 50
0.0
 51
40.3696009146
  0
ARC
  5
2DC
330
1F
100
AcDbEntity
  8
0
  6
Continuous
 62
     7
370
     0
100
AcDbCircle
 10
223.8488147566
 20
134.9344052408
 30
0.0
 40
0.2999999999999829
100
AcDbArc
 50
180.0
 51
220.3696009146
  0
LINE
  5
2DD
330
1F
100
AcDbEntity
  8
0
  6
Continuous
 62
     7
370
     0
100
AcDbLine
 10
223.6202501358
 20
134.7400905113
 30
0.0
 11
223.5059678253
 21
134.6429331466
 31
0.0
  0
ARC
  5
2DE
330
1F
100
AcDbEntity
  8
0
  6
Continuous
 62
     7
370
     0
100
AcDbCircle
 10
223.8488147566
 20
134.9344052408
 30
0.0
 40
0.4499999999999653
100
AcDbArc
 50
180.0
 51
220.3696009146
  0
LINE
  5
2DF
330
1F
100
AcDbEntity
  8
0
  6
Continuous
 62
     7
370
     0
100
AcDbLine
 10
223.5488147566
 20
134.9344052408
 30
0.0
 11
223.3988147566
 21
134.9344052408
 31
0.0
  0
LINE
  5
2E0
330
1F
100
AcDbEntity
  8
0
  6
Continuous
 62
     7
370
     0
100
AcDbLine
 10
223.6202501358
 20
134.7400905113
 30
0.0
 11
223.8971322053
 21
134.4144052408
 31
0.0
  0
LINE
  5
2E1
330
1F
100
AcDbEntity
  8
0
  6
Continuous
 62
     7
370
     0
100
AcDbLine
 10
223.8971322053
 20
134.4144052408
 30
0.0
 11
223.7828498948
 21
134.3172478761
 31
0.0
  0
LINE
  5
2E2
330
1F
100
AcDbEntity
  8
0
  6
Continuous
 62
     7
370
     0
100
AcDbLine
 10
223.7828498948
 20
134.3172478761
 30
0.0
 11
223.5059678253
 21
134.6429331466
 31
0.0
  0
ARC
  5
2E3
330
1F
100
AcDbEntity
  8
0
  6
Continuous
 62
     7
370
     0
100
AcDbCircle
 10
223.3638147566
 20
133.9610042054
 30
0.0
 40
0.700000000000017
100
AcDbArc
 50
0.0
 51
40.3696009146
  0
ARC
  5
2E4
330
1F
100
AcDbEntity
  8
0
  6
Continuous
 62
     7
370
     0
100
AcDbCircle
 10
223.3638147566
 20
133.9610042054
 30
0.0
 40
0.5500000000000214
100
AcDbArc
 50
0.0
 51
40.3696009146
  0
LINE
  5
2E5
330
1F
100
AcDbEntity
  8
0
  6
Continuous
 62
     7
370
     0
100
AcDbLine
 10
223.6638147566
 20
133.3544052408
 30
0.0
 11
223.6638147566
 21
133.9610042054
 31
0.0
  0
ARC
  5
2E6
330
1F
100
AcDbEntity
  8
0
  6
Continuous
 62
     7
370
     0
100
AcDbCircle
 10
230.6338147566
 20
133.9610042054
 30
0.0
 40
0.2999999999999985
100
AcDbArc
 50
139.6303990854
 51
180.0
  0
LINE
  5
2E7
330
1F
100
AcDbEntity
  8
0
  6
Continuous
 62
     7
370
     0
100
AcDbLine
 10
230.3338147566
 20
133.9610042054
 30
0.0
 11
230.3338147566
 21
133.3544052408
 31
0.0
  0
ARC
  5
2E8
330
1F
100
AcDbEntity
  8
0
  6
Continuous
 62
     7
370
     0
100
AcDbCircle
 10
229.6338147566
 20
133.3544052408
 30
0.0
 40
0.700000000000017
100
AcDbArc
 50
270.0
 51
0.0
  0
ARC
  5
2E9
330
1F
100
AcDbEntity
  8
0
  6
Continuous
 62
     7
370
     0
100
AcDbCircle
 10
224.3638147566
 20
133.3544052408
 30
0.0
 40
0.6999999999999886
100
AcDbArc
 50
180.0
 51
270.0
  0
LINE
  5
2EA
330
1F
100
AcDbEntity
  8
0
  6
Continuous
 62
     7
370
     0
100
AcDbLine
 10
230.0838147566
 20
133.9610042054
 30
0.0
 11
230.0838147566
 21
133.3544052408
 31
0.0
  0
ARC
  5
2EB
330
1F
100
AcDbEntity
  8
0
  6
Continuous
 62
     7
370
     0
100
AcDbCircle
 10
230.6338147566
 20
133.9610042054
 30
0.0
 40
0.5500000000000214
100
AcDbArc
 50
139.6303990854
 51
180.0
  0
LINE
  5
2EC
330
1F
100
AcDbEntity
  8
0
  6
Continuous
 62
     7
370
     0
100
AcDbLine
 10
230.4916616879
 20
134.6429331466
 30
0.0
 11
230.2147796184
 21
134.3172478761
 31
0.0
  0
ARC
  5
2ED
330
1F
100
AcDbEntity
  8
0
  6
Continuous
 62
     7
370
     0
100
AcDbCircle
 10
230.1488147566
 20
134.9344052408
 30
0.0
 40
0.4500000000000171
100
AcDbArc
 50
319.6303990854
 51
0.0
  0
LINE
  5
2EE
330
1F
100
AcDbEntity
  8
0
  6
Continuous
 62
     7
370
     0
100
AcDbLine
 10
230.5988147566
 20
135.8544052408
 30
0.0
 11
230.5988147566
 21
134.9344052408
 31
0.0
  0
ARC
  5
2EF
330
1F
100
AcDbEntity
  8
0
  6
Continuous
 62
     7
370
     0
100
AcDbCircle
 10
230.1488147566
 20
135.8544052408
 30
0.0
 40
0.4500000000000171
100
AcDbArc
 50
0.0
 51
90.0
  0
LINE
  5
2F0
330
1F
100
AcDbEntity
  8
0
  6
Continuous
 62
     7
370
     0
100
AcDbLine
 10
223.8488147566
 20
136.3044052408
 30
0.0
 11
230.1488147566
 21
136.3044052408
 31
0.0
  0
ARC
  5
2F1
330
1F
100
AcDbEntity
  8
0
  6
Continuous
 62
     7
370
     0
100
AcDbCircle
 10
223.8488147566
 20
135.8544052408
 30
0.0
 40
0.4499999999999886
100
AcDbArc
 50
90.0
 51
180.0
  0
LINE
  5
2F2
330
1F
100
AcDbEntity
  8
0
  6
Continuous
 62
     7
370
     0
100
AcDbLine
 10
223.3988147566
 20
134.9344052408
 30
0.0
 11
223.3988147566
 21
135.8544052408
 31
0.0
  0
ARC
  5
2F3
330
1F
100
AcDbEntity
  8
0
  6
Continuous
 62
     7
370
     0
100
AcDbCircle
 10
229.6338147566
 20
133.3544052408
 30
0.0
 40
0.4500000000000171
100
AcDbArc
 50
270.0
 51
0.0
  0
LINE
  5
2F4
330
1F
100
AcDbEntity
  8
0
  6
Continuous
 62
   144
370
     0
100
AcDbLine
 10
223.1488147566
 20
135.8544052408
 30
0.0
 11
223.1488147566
 21
134.9344052408
 31
0.0
  0
ARC
  5
2F5
330
1F
100
AcDbEntity
  8
0
  6
Continuous
 62
   144
370
     0
100
AcDbCircle
 10
223.8488147566
 20
134.9344052408
 30
0.0
 40
0.6999999999999665
100
AcDbArc
 50
180.0
 51
220.3696009146
  0
LINE
  5
2F6
330
1F
100
AcDbEntity
  8
0
  6
Continuous
 62
   144
370
     0
100
AcDbLine
 10
223.5923793775
 20
134.1553189349
 30
0.0
 11
223.315497308
 21
134.4810042054
 31
0.0
  0
LINE
  5
2F7
330
1F
100
AcDbEntity
  8
0
  6
Continuous
 62
   144
370
     0
100
AcDbLine
 10
229.6338147566
 20
132.6544052408
 30
0.0
 11
224.3638147566
 21
132.6544052408
 31
0.0
  0
LINE
  5
2F8
330
1F
100
AcDbEntity
  8
0
  6
Continuous
 62
   144
370
     0
100
AcDbLine
 10
230.6821322053
 20
134.4810042054
 30
0.0
 11
230.4052501358
 21
134.1553189349
 31
0.0
  0
ARC
  5
2F9
330
1F
100
AcDbEntity
  8
0
  6
Continuous
 62
   144
370
     0
100
AcDbCircle
 10
230.1488147566
 20
134.9344052408
 30
0.0
 40
0.700000000000017
100
AcDbArc
 50
319.6303990854
 51
0.0
  0
LINE
  5
2FA
330
1F
100
AcDbEntity
  8
0
  6
Continuous
 62
   144
370
     0
100
AcDbLine
 10
230.8488147566
 20
134.9344052408
 30
0.0
 11
230.8488147566
 21
135.8544052408
 31
0.0
  0
ARC
  5
2FB
330
1F
100
AcDbEntity
  8
0
  6
Continuous
 62
   144
370
     0
100
AcDbCircle
 10
230.1488147566
 20
135.8544052408
 30
0.0
 40
0.700000000000017
100
AcDbArc
 50
0.0
 51
90.0
  0
LINE
  5
2FC
330
1F
100
AcDbEntity
  8
0
  6
Continuous
 62
   144
370
     0
100
AcDbLine
 10
230.1488147566
 20
136.5544052408
 30
0.0
 11
223.8488147566
 21
136.5544052408
 31
0.0
  0
ARC
  5
2FD
330
1F
100
AcDbEntity
  8
0
  6
Continuous
 62
   144
370
     0
100
AcDbCircle
 10
223.8488147566
 20
135.8544052408
 30
0.0
 40
0.6999999999999886
100
AcDbArc
 50
90.0
 51
180.0
  0
ARC
  5
2FE
330
1F
100
AcDbEntity
  8
0
  6
Continuous
 62
     7
370
     0
100
AcDbCircle
 10
223.8488147566
 20
135.8544052408
 30
0.0
 40
0.3000000000000114
100
AcDbArc
 50
90.0
 51
180.0
  0
LINE
  5
2FF
330
1F
100
AcDbEntity
  8
0
  6
Continuous
 62
     7
370
     0
100
AcDbLine
 10
223.5488147566
 20
135.8544052408
 30
0.0
 11
223.3988147566
 21
135.8544052408
 31
0.0
  0
LINE
  5
300
330
1F
100
AcDbEntity
  8
0
  6
Continuous
 62
     7
370
     0
100
AcDbLine
 10
223.8488147566
 20
136.1544052408
 30
0.0
 11
223.8488147566
 21
136.3044052408
 31
0.0
  0
LINE
  5
301
330
1F
100
AcDbEntity
  8
0
  6
Continuous
 62
     7
370
     0
100
AcDbLine
 10
223.5488147566
 20
135.8544052408
 30
0.0
 11
223.5488147566
 21
134.9344052408
 31
0.0
  0
LINE
  5
302
330
1F
100
AcDbEntity
  8
0
  6
Continuous
 62
     7
370
     0
100
AcDbLine
 10
230.1488147566
 20
136.3044052408
 30
0.0
 11
230.1488147566
 21
136.1544052408
 31
0.0
  0
LINE
  5
303
330
1F
100
AcDbEntity
  8
0
  6
Continuous
 62
     7
370
     0
100
AcDbLine
 10
230.1488147566
 20
136.1544052408
 30
0.0
 11
223.8488147566
 21
136.1544052408
 31
0.0
  0
LINE
  5
304
330
1F
100
AcDbEntity
  8
0
  6
Continuous
 62
     7
370
     0
100
AcDbLine
 10
230.5988147566
 20
135.8544052408
 30
0.0
 11
230.4488147566
 21
135.8544052408
 31
0.0
  0
ARC
  5
305
330
1F
100
AcDbEntity
  8
0
  6
Continuous
 62
     7
370
     0
100
AcDbCircle
 10
230.1488147566
 20
135.8544052408
 30
0.0
 40
0.3000000000000114
100
AcDbArc
 50
0.0
 51
90.0
  0
LINE
  5
306
330
1F
100
AcDbEntity
  8
0
  6
Continuous
 62
     7
370
     0
100
AcDbLine
 10
230.4916616879
 20
134.6429331466
 30
0.0
 11
230.3773793775
 21
134.7400905113
 31
0.0
  0
ARC
  5
307
330
1F
100
AcDbEntity
  8
0
  6
Continuous
 62
     7
370
     0
100
AcDbCircle
 10
230.1488147566
 20
134.9344052408
 30
0.0
 40
0.3000000000000201
100
AcDbArc
 50
319.6303990854
 51
0.0
  0
LINE
  5
308
330
1F
100
AcDbEntity
  8
0
  6
Continuous
 62
     7
370
     0
100
AcDbLine
 10
230.5988147566
 20
134.9344052408
 30
0.0
 11
230.4488147566
 21
134.9344052408
 31
0.0
  0
LINE
  5
309
330
1F
100
AcDbEntity
  8
0
  6
Continuous
 62
     7
370
     0
100
AcDbLine
 10
230.0838147566
 20
133.3544052408
 30
0.0
 11
229.9338147566
 21
133.3544052408
 31
0.0
  0
LINE
  5
30A
330
1F
100
AcDbEntity
  8
0
  6
Continuous
 62
     7
370
     0
100
AcDbLine
 10
229.9338147566
 20
133.3544052408
 30
0.0
 11
229.9338147566
 21
133.9610042054
 31
0.0
  0
LINE
  5
30B
330
1F
100
AcDbEntity
  8
0
  6
Continuous
 62
     7
370
     0
100
AcDbLine
 10
230.0838147566
 20
133.9610042054
 30
0.0
 11
229.9338147566
 21
133.9610042054
 31
0.0
  0
ARC
  5
30C
330
1F
100
AcDbEntity
  8
0
  6
Continuous
 62
     7
370
     0
100
AcDbCircle
 10
229.6338147566
 20
133.3544052408
 30
0.0
 40
0.3000000000000114
100
AcDbArc
 50
270.0
 51
0.0
  0
ARC
  5
30D
330
1F
100
AcDbEntity
  8
0
  6
Continuous
 62
     7
370
     0
100
AcDbCircle
 10
230.6338147566
 20
133.9610042054
 30
0.0
 40
0.700000000000017
100
AcDbArc
 50
139.6303990854
 51
180.0
  0
LINE
  5
30E
330
1F
100
AcDbEntity
  8
0
  6
Continuous
 62
     7
370
     0
100
AcDbLine
 10
230.2147796184
 20
134.3172478761
 30
0.0
 11
230.100497308
 21
134.4144052408
 31
0.0
  0
LINE
  5
30F
330
1F
100
AcDbEntity
  8
0
  6
Continuous
 62
     7
370
     0
100
AcDbLine
 10
230.100497308
 20
134.4144052408
 30
0.0
 11
230.3773793775
 21
134.7400905113
 31
0.0
  0
LINE
  5
310
330
1F
100
AcDbEntity
  8
0
  6
Continuous
 62
     7
370
     0
100
AcDbLine
 10
230.4488147566
 20
134.9344052408
 30
0.0
 11
230.4488147566
 21
135.8544052408
 31
0.0
  0
LINE
  5
311
330
1F
100
AcDbEntity
  8
0
  6
Continuous
 62
     7
370
     0
100
AcDbLine
 10
236.9988147566
 20
120.4544052408
 30
0.0
 11
233.9988147566
 21
120.4544052408
 31
0.0
  0
LINE
  5
312
330
1F
100
AcDbEntity
  8
0
  6
Continuous
 62
     8
370
     0
100
AcDbLine
 10
233.9988147566
 20
120.6544052408
 30
0.0
 11
236.9988147566
 21
120.6544052408
 31
0.0
  0
MTEXT
  5
313
330
1F
100
AcDbEntity
  8
0
  6
Continuous
 62
     7
370
     0
100
AcDbMText
 10
212.2993665469
 20
180.6080015823
 30
0.0
 40
2.1166666667
 41
0.0
 71
     1
 72
     1
  1
READY LED
  7
SLDTEXTSTYLE0
 73
     1
 44
1.0
  0
LEADER
  5
314
330
1F
100
AcDbEntity
  8
0
  6
Continuous
 62
     7
370
     0
100
AcDbLeader
  3
SLDDIMSTYLE2
 76
     3
 10
248.3811134897
 20
148.6713160444
 30
0.0
 10
233.933100475
 20
179.5988738355
 30
0.0
 10
227.583100475
 20
179.5988738355
 30
0.0
  0
MTEXT
  5
315
330
1F
100
AcDbEntity
  8
0
  6
Continuous
 62
     7
370
     0
100
AcDbMText
 10
193.5803958014
 20
167.6036976881
 30
0.0
 40
2.1166666667
 41
0.0
 71
     1
 72
     1
  1
USB-PORT
  7
SLDTEXTSTYLE0
 73
     1
 44
1.0
  0
LEADER
  5
316
330
1F
100
AcDbEntity
  8
0
  6
Continuous
 62
     7
370
     0
100
AcDbLeader
  3
SLDDIMSTYLE2
 76
     3
 10
225.7595545831
 20
136.5544052408
 30
0.0
 10
213.2767169268
 20
166.5944865202
 30
0.0
 10
206.9267169268
 20
166.5944865202
 30
0.0
  0
MTEXT
  5
317
330
1F
100
AcDbEntity
  8
0
  6
Continuous
 62
     7
370
     0
100
AcDbMText
 10
196.0999438065
 20
173.9448764176
 30
0.0
 40
2.1166666667
 41
0.0
 71
     1
 72
     1
  1
TTL TRIGGER INPUT
  7
SLDTEXTSTYLE0
 73
     1
 44
1.0
  0
LEADER
  5
318
330
1F
100
AcDbEntity
  8
0
  6
Continuous
 62
     7
370
     0
100
AcDbLeader
  3
SLDDIMSTYLE2
 76
     3
 10
242.0398815887
 20
140.8812179427
 30
0.0
 10
227.37348346
 20
172.9377643747
 30
0.0
 10
221.02348346
 20
172.9377643747
 30
0.0
  0
LINE
  5
319
330
1F
100
AcDbEntity
  8
0
  6
Continuous
 62
     7
370
     0
100
AcDbLine
 10
172.7689514628
 20
60.2319338344
 30
0.0
 11
176.6189514628
 21
60.2319338344
 31
0.0
  0
LINE
  5
31A
330
1F
100
AcDbEntity
  8
0
  6
Continuous
 62
     7
370
     0
100
AcDbLine
 10
176.6189514628
 20
72.1319338344
 30
0.0
 11
172.7689514628
 21
72.1319338344
 31
0.0
  0
LINE
  5
31B
330
1F
100
AcDbEntity
  8
0
  6
Continuous
 62
     7
370
     0
100
AcDbLine
 10
127.7689514628
 20
90.6819338344
 30
0.0
 11
122.7589514628
 21
90.6819338344
 31
0.0
  0
LINE
  5
31C
330
1F
100
AcDbEntity
  8
0
  6
Continuous
 62
     7
370
     0
100
AcDbLine
 10
122.7589514628
 20
60.6819338344
 30
0.0
 11
127.7689514628
 21
60.6819338344
 31
0.0
  0
LINE
  5
31D
330
1F
100
AcDbEntity
  8
0
  6
Continuous
 62
     7
370
     0
100
AcDbLine
 10
122.7589514628
 20
90.6819338344
 30
0.0
 11
121.7589514628
 21
89.6819338344
 31
0.0
  0
LINE
  5
31E
330
1F
100
AcDbEntity
  8
0
  6
Continuous
 62
     7
370
     0
100
AcDbLine
 10
121.7589514628
 20
61.6819338344
 30
0.0
 11
122.7589514628
 21
60.6819338344
 31
0.0
  0
LINE
  5
31F
330
1F
100
AcDbEntity
  8
0
  6
Continuous
 62
     7
370
     0
100
AcDbLine
 10
168.7689514628
 20
98.0819338344
 30
0.0
 11
133.7689514628
 21
98.0819338344
 31
0.0
  0
LINE
  5
320
330
1F
100
AcDbEntity
  8
0
  6
Continuous
 62
     7
370
     0
100
AcDbLine
 10
168.7689514628
 20
96.0819338344
 30
0.0
 11
133.7689514628
 21
96.0819338344
 31
0.0
  0
LINE
  5
321
330
1F
100
AcDbEntity
  8
0
  6
Continuous
 62
     7
370
     0
100
AcDbLine
 10
133.7689514628
 20
55.2819338344
 30
0.0
 11
168.7689514628
 21
55.2819338344
 31
0.0
  0
ARC
  5
322
330
1F
100
AcDbEntity
  8
0
  6
Continuous
 62
   144
370
     0
100
AcDbCircle
 10
136.7689514628
 20
75.6819338344
 30
0.0
 40
2.200000000000017
100
AcDbArc
 50
327.3768720199
 51
32.6231279801
  0
LINE
  5
323
330
1F
100
AcDbEntity
  8
0
  6
Continuous
 62
     7
370
     0
100
AcDbLine
 10
133.7689514628
 20
53.2819338344
 30
0.0
 11
168.7689514628
 21
53.2819338344
 31
0.0
  0
CIRCLE
  5
324
330
1F
100
AcDbEntity
  8
0
  6
Continuous
 62
     7
370
     0
100
AcDbCircle
 10
130.7689514628
 20
90.6819338344
 30
0.0
 40
2.450000000000022
  0
CIRCLE
  5
325
330
1F
100
AcDbEntity
  8
0
  6
Continuous
 62
     7
370
     0
100
AcDbCircle
 10
130.7689514628
 20
90.6819338344
 30
0.0
 40
2.750000000000002
  0
LINE
  5
326
330
1F
100
AcDbEntity
  8
0
  6
Continuous
 62
     7
370
     0
100
AcDbLine
 10
129.5531656417
 20
89.8827687467
 30
0.0
 11
130.85315582
 21
89.2294498839
 31
0.0
  0
LINE
  5
327
330
1F
100
AcDbEntity
  8
0
  6
Continuous
 62
     7
370
     0
100
AcDbLine
 10
130.85315582
 20
89.2294498839
 30
0.0
 11
132.068941641
 21
90.0286149716
 31
0.0
  0
LINE
  5
328
330
1F
100
AcDbEntity
  8
0
  6
Continuous
 62
     7
370
     0
100
AcDbLine
 10
131.9847372838
 20
91.4810989221
 30
0.0
 11
132.068941641
 21
90.0286149716
 31
0.0
  0
LINE
  5
329
330
1F
100
AcDbEntity
  8
0
  6
Continuous
 62
     7
370
     0
100
AcDbLine
 10
130.6847471055
 20
92.1344177848
 30
0.0
 11
131.9847372838
 21
91.4810989221
 31
0.0
  0
LINE
  5
32A
330
1F
100
AcDbEntity
  8
0
  6
Continuous
 62
     7
370
     0
100
AcDbLine
 10
130.6847471055
 20
92.1344177848
 30
0.0
 11
129.4689612845
 21
91.3352526971
 31
0.0
  0
LINE
  5
32B
330
1F
100
AcDbEntity
  8
0
  6
Continuous
 62
     7
370
     0
100
AcDbLine
 10
129.5531656417
 20
89.8827687467
 30
0.0
 11
129.4689612845
 21
91.3352526971
 31
0.0
  0
ARC
  5
32C
330
1F
100
AcDbEntity
  8
0
  6
Continuous
 62
     7
370
     0
100
AcDbCircle
 10
130.7689514628
 20
90.6819338344
 30
0.0
 40
1.260000000000013
100
AcDbArc
 50
63.317875095
 51
123.317875095
  0
ARC
  5
32D
330
1F
100
AcDbEntity
  8
0
  6
Continuous
 62
     7
370
     0
100
AcDbCircle
 10
130.7689514628
 20
90.6819338344
 30
0.0
 40
1.260000000000007
100
AcDbArc
 50
3.317875095
 51
63.317875095
  0
ARC
  5
32E
330
1F
100
AcDbEntity
  8
0
  6
Continuous
 62
     7
370
     0
100
AcDbCircle
 10
130.7689514628
 20
90.6819338344
 30
0.0
 40
1.260000000000007
100
AcDbArc
 50
303.317875095
 51
3.317875095
  0
ARC
  5
32F
330
1F
100
AcDbEntity
  8
0
  6
Continuous
 62
     7
370
     0
100
AcDbCircle
 10
130.7689514628
 20
90.6819338344
 30
0.0
 40
1.260000000000001
100
AcDbArc
 50
243.317875095
 51
303.317875095
  0
ARC
  5
330
330
1F
100
AcDbEntity
  8
0
  6
Continuous
 62
     7
370
     0
100
AcDbCircle
 10
130.7689514628
 20
90.6819338344
 30
0.0
 40
1.260000000000013
100
AcDbArc
 50
123.317875095
 51
183.317875095
  0
ARC
  5
331
330
1F
100
AcDbEntity
  8
0
  6
Continuous
 62
   144
370
     0
100
AcDbCircle
 10
130.7689514628
 20
90.6819338344
 30
0.0
 40
1.260000000000007
100
AcDbArc
 50
183.317875095
 51
243.317875095
  0
LINE
  5
332
330
1F
100
AcDbEntity
  8
0
  6
Continuous
 62
     7
370
     0
100
AcDbLine
 10
172.7689514628
 20
96.0819338344
 30
0.0
 11
168.7689514628
 21
96.0819338344
 31
0.0
  0
LINE
  5
333
330
1F
100
AcDbEntity
  8
0
  6
Continuous
 62
     7
370
     0
100
AcDbLine
 10
168.7689514628
 20
98.0819338344
 30
0.0
 11
168.7689514628
 21
96.0819338344
 31
0.0
  0
LINE
  5
334
330
1F
100
AcDbEntity
  8
0
  6
Continuous
 62
     7
370
     0
100
AcDbLine
 10
168.7689514628
 20
98.0819338344
 30
0.0
 11
172.7689514628
 21
98.0819338344
 31
0.0
  0
LINE
  5
335
330
1F
100
AcDbEntity
  8
0
  6
Continuous
 62
     7
370
     0
100
AcDbLine
 10
172.7689514628
 20
98.0819338344
 30
0.0
 11
172.7689514628
 21
96.0819338344
 31
0.0
  0
LINE
  5
336
330
1F
100
AcDbEntity
  8
0
  6
Continuous
 62
     7
370
     0
100
AcDbLine
 10
168.7689514628
 20
96.0819338344
 30
0.0
 11
168.7689514628
 21
95.6819338344
 31
0.0
  0
LINE
  5
337
330
1F
100
AcDbEntity
  8
0
  6
Continuous
 62
     7
370
     0
100
AcDbLine
 10
168.7689514628
 20
55.6819338344
 30
0.0
 11
168.7689514628
 21
55.2819338344
 31
0.0
  0
LINE
  5
338
330
1F
100
AcDbEntity
  8
0
  6
Continuous
 62
     7
370
     0
100
AcDbLine
 10
168.7689514628
 20
55.2819338344
 30
0.0
 11
168.7689514628
 21
53.2819338344
 31
0.0
  0
LINE
  5
339
330
1F
100
AcDbEntity
  8
0
  6
Continuous
 62
     7
370
     0
100
AcDbLine
 10
172.7689514628
 20
55.2819338344
 30
0.0
 11
172.7689514628
 21
53.2819338344
 31
0.0
  0
LINE
  5
33A
330
1F
100
AcDbEntity
  8
0
  6
Continuous
 62
     7
370
     0
100
AcDbLine
 10
172.7689514628
 20
96.0819338344
 30
0.0
 11
172.7689514628
 21
95.1819338344
 31
0.0
  0
LINE
  5
33B
330
1F
100
AcDbEntity
  8
0
  6
Continuous
 62
     7
370
     0
100
AcDbLine
 10
172.7689514628
 20
56.1819338344
 30
0.0
 11
172.7689514628
 21
55.2819338344
 31
0.0
  0
LINE
  5
33C
330
1F
100
AcDbEntity
  8
0
  6
Continuous
 62
     7
370
     0
100
AcDbLine
 10
172.7689514628
 20
55.2819338344
 30
0.0
 11
168.7689514628
 21
55.2819338344
 31
0.0
  0
LWPOLYLINE
  5
33D
330
1F
100
AcDbEntity
  8
0
  6
Continuous
 62
   144
370
     0
100
AcDbPolyline
 90
        3
 70
   128
 43
0.0
 10
169.9689514628
 20
75.6819338344
 10
169.9834085049
 20
75.5305328389
 10
169.9997694251
 20
75.4620270518
  0
ARC
  5
33E
330
1F
100
AcDbEntity
  8
0
  6
Continuous
 62
   144
370
     0
100
AcDbCircle
 10
170.7689514628
 20
75.6819338344
 30
0.0
 40
0.7999999999999915
100
AcDbArc
 50
232.3448150246
 51
255.955070347
  0
ARC
  5
33F
330
1F
100
AcDbEntity
  8
0
  6
Continuous
 62
   144
370
     0
100
AcDbCircle
 10
170.7689514628
 20
75.6819338344
 30
0.0
 40
0.7999999999999889
100
AcDbArc
 50
292.3448150246
 51
315.9550703471
  0
ARC
  5
340
330
1F
100
AcDbEntity
  8
0
  6
Continuous
 62
   144
370
     0
100
AcDbCircle
 10
170.7689514628
 20
75.6819338344
 30
0.0
 40
0.800000000000002
100
AcDbArc
 50
352.3448150246
 51
15.955070347
  0
ARC
  5
341
330
1F
100
AcDbEntity
  8
0
  6
Continuous
 62
   144
370
     0
100
AcDbCircle
 10
170.7689514628
 20
75.6819338344
 30
0.0
 40
0.8000000000000111
100
AcDbArc
 50
52.3448150246
 51
75.955070347
  0
ARC
  5
342
330
1F
100
AcDbEntity
  8
0
  6
Continuous
 62
   144
370
     0
100
AcDbCircle
 10
170.7689514628
 20
75.6819338344
 30
0.0
 40
0.8000000000000045
100
AcDbArc
 50
112.3448150246
 51
135.955070347
  0
LINE
  5
343
330
1F
100
AcDbEntity
  8
0
  6
Continuous
 62
   144
370
     0
100
AcDbLine
 10
169.9760813055
 20
75.7885026563
 30
0.0
 11
169.9689514628
 21
75.6819338344
 31
0.0
  0
LINE
  5
344
330
1F
100
AcDbEntity
  8
0
  6
Continuous
 62
     7
370
     0
100
AcDbLine
 10
172.7689514628
 20
53.2819338344
 30
0.0
 11
168.7689514628
 21
53.2819338344
 31
0.0
  0
LINE
  5
345
330
1F
100
AcDbEntity
  8
0
  6
Continuous
 62
     7
370
     0
100
AcDbLine
 10
172.2689514628
 20
95.6819338344
 30
0.0
 11
128.2689514628
 21
95.6819338344
 31
0.0
  0
ARC
  5
346
330
1F
100
AcDbEntity
  8
0
  6
Continuous
 62
     7
370
     0
100
AcDbCircle
 10
172.2689514628
 20
56.1819338344
 30
0.0
 40
0.5
100
AcDbArc
 50
270.0
 51
0.0
  0
LINE
  5
347
330
1F
100
AcDbEntity
  8
0
  6
Continuous
 62
     7
370
     0
100
AcDbLine
 10
128.2689514628
 20
55.6819338344
 30
0.0
 11
172.2689514628
 21
55.6819338344
 31
0.0
  0
ARC
  5
348
330
1F
100
AcDbEntity
  8
0
  6
Continuous
 62
     7
370
     0
100
AcDbCircle
 10
128.2689514628
 20
56.1819338344
 30
0.0
 40
0.5
100
AcDbArc
 50
180.0
 51
270.0
  0
LINE
  5
349
330
1F
100
AcDbEntity
  8
0
  6
Continuous
 62
     7
370
     0
100
AcDbLine
 10
127.7689514628
 20
58.8791581966
 30
0.0
 11
127.7689514628
 21
56.1819338344
 31
0.0
  0
ARC
  5
34A
330
1F
100
AcDbEntity
  8
0
  6
Continuous
 62
     7
370
     0
100
AcDbCircle
 10
130.7689514628
 20
60.6819338344
 30
0.0
 40
3.499999999999994
100
AcDbArc
 50
211.0027191339
 51
148.9972808661
  0
LINE
  5
34B
330
1F
100
AcDbEntity
  8
0
  6
Continuous
 62
     7
370
     0
100
AcDbLine
 10
127.7689514628
 20
88.8791581966
 30
0.0
 11
127.7689514628
 21
62.4847094721
 31
0.0
  0
ARC
  5
34C
330
1F
100
AcDbEntity
  8
0
  6
Continuous
 62
     7
370
     0
100
AcDbCircle
 10
130.7689514628
 20
90.6819338344
 30
0.0
 40
3.499999999999994
100
AcDbArc
 50
211.0027191339
 51
148.9972808661
  0
LINE
  5
34D
330
1F
100
AcDbEntity
  8
0
  6
Continuous
 62
     7
370
     0
100
AcDbLine
 10
127.7689514628
 20
95.1819338344
 30
0.0
 11
127.7689514628
 21
92.4847094721
 31
0.0
  0
ARC
  5
34E
330
1F
100
AcDbEntity
  8
0
  6
Continuous
 62
     7
370
     0
100
AcDbCircle
 10
128.2689514628
 20
95.1819338344
 30
0.0
 40
0.5
100
AcDbArc
 50
90.0
 51
180.0
  0
ARC
  5
34F
330
1F
100
AcDbEntity
  8
0
  6
Continuous
 62
     7
370
     0
100
AcDbCircle
 10
172.2689514628
 20
95.1819338344
 30
0.0
 40
0.5
100
AcDbArc
 50
0.0
 51
90.0
  0
LINE
  5
350
330
1F
100
AcDbEntity
  8
0
  6
Continuous
 62
     7
370
     0
100
AcDbLine
 10
172.7689514628
 20
77.1819338344
 30
0.0
 11
172.7689514628
 21
95.1819338344
 31
0.0
  0
ARC
  5
351
330
1F
100
AcDbEntity
  8
0
  6
Continuous
 62
     7
370
     0
100
AcDbCircle
 10
170.7689514628
 20
75.6819338344
 30
0.0
 40
2.499999999999994
100
AcDbArc
 50
36.8698976458
 51
323.1301023542
  0
LINE
  5
352
330
1F
100
AcDbEntity
  8
0
  6
Continuous
 62
     7
370
     0
100
AcDbLine
 10
172.7689514628
 20
56.1819338344
 30
0.0
 11
172.7689514628
 21
74.1819338344
 31
0.0
  0
CIRCLE
  5
353
330
1F
100
AcDbEntity
  8
0
  6
Continuous
 62
     7
370
     0
100
AcDbCircle
 10
139.7689514628
 20
75.6819338344
 30
0.0
 40
1.649999999999977
  0
CIRCLE
  5
354
330
1F
100
AcDbEntity
  8
0
  6
Continuous
 62
     7
370
     0
100
AcDbCircle
 10
150.1689514628
 20
75.6819338344
 30
0.0
 40
1.727199999999982
  0
LINE
  5
355
330
1F
100
AcDbEntity
  8
0
  6
Continuous
 62
     7
370
     0
100
AcDbLine
 10
127.7689514628
 20
58.8791581966
 30
0.0
 11
127.7689514628
 21
62.4847094721
 31
0.0
  0
LINE
  5
356
330
1F
100
AcDbEntity
  8
0
  6
Continuous
 62
     7
370
     0
100
AcDbLine
 10
127.7689514628
 20
88.8791581966
 30
0.0
 11
127.7689514628
 21
92.4847094721
 31
0.0
  0
LINE
  5
357
330
1F
100
AcDbEntity
  8
0
  6
Continuous
 62
     7
370
     0
100
AcDbLine
 10
172.7689514628
 20
77.1819338344
 30
0.0
 11
172.7689514628
 21
74.1819338344
 31
0.0
  0
CIRCLE
  5
358
330
1F
100
AcDbEntity
  8
0
  6
Continuous
 62
     7
370
     0
100
AcDbCircle
 10
130.7689514628
 20
60.6819338344
 30
0.0
 40
2.449999999999999
  0
CIRCLE
  5
359
330
1F
100
AcDbEntity
  8
0
  6
Continuous
 62
     7
370
     0
100
AcDbCircle
 10
130.7689514628
 20
60.6819338344
 30
0.0
 40
2.749999999999996
  0
LINE
  5
35A
330
1F
100
AcDbEntity
  8
0
  6
Continuous
 62
     7
370
     0
100
AcDbLine
 10
131.8546542236
 20
61.6504633977
 30
0.0
 11
130.473031637
 21
62.1064447879
 31
0.0
  0
LINE
  5
35B
330
1F
100
AcDbEntity
  8
0
  6
Continuous
 62
     7
370
     0
100
AcDbLine
 10
130.473031637
 20
62.1064447879
 30
0.0
 11
129.3873288762
 21
61.1379152246
 31
0.0
  0
LINE
  5
35C
330
1F
100
AcDbEntity
  8
0
  6
Continuous
 62
     7
370
     0
100
AcDbLine
 10
129.6832487019
 20
59.713404271
 30
0.0
 11
129.3873288762
 21
61.1379152246
 31
0.0
  0
LINE
  5
35D
330
1F
100
AcDbEntity
  8
0
  6
Continuous
 62
     7
370
     0
100
AcDbLine
 10
131.0648712885
 20
59.2574228808
 30
0.0
 11
129.6832487019
 21
59.713404271
 31
0.0
  0
LINE
  5
35E
330
1F
100
AcDbEntity
  8
0
  6
Continuous
 62
     7
370
     0
100
AcDbLine
 10
131.0648712885
 20
59.2574228808
 30
0.0
 11
132.1505740493
 21
60.2259524442
 31
0.0
  0
LINE
  5
35F
330
1F
100
AcDbEntity
  8
0
  6
Continuous
 62
     7
370
     0
100
AcDbLine
 10
131.8546542236
 20
61.6504633977
 30
0.0
 11
132.1505740493
 21
60.2259524442
 31
0.0
  0
ARC
  5
360
330
1F
100
AcDbEntity
  8
0
  6
Continuous
 62
     7
370
     0
100
AcDbCircle
 10
130.7689514628
 20
60.6819338344
 30
0.0
 40
1.259999999999999
100
AcDbArc
 50
11.7353921666
 51
71.7353921666
  0
ARC
  5
361
330
1F
100
AcDbEntity
  8
0
  6
Continuous
 62
     7
370
     0
100
AcDbCircle
 10
130.7689514628
 20
60.6819338344
 30
0.0
 40
1.260000000000031
100
AcDbArc
 50
131.7353921666
 51
191.7353921666
  0
ARC
  5
362
330
1F
100
AcDbEntity
  8
0
  6
Continuous
 62
     7
370
     0
100
AcDbCircle
 10
130.7689514628
 20
60.6819338344
 30
0.0
 40
1.260000000000023
100
AcDbArc
 50
71.7353921666
 51
131.7353921666
  0
ARC
  5
363
330
1F
100
AcDbEntity
  8
0
  6
Continuous
 62
     7
370
     0
100
AcDbCircle
 10
130.7689514628
 20
60.6819338344
 30
0.0
 40
1.260000000000005
100
AcDbArc
 50
251.7353921666
 51
311.7353921666
  0
ARC
  5
364
330
1F
100
AcDbEntity
  8
0
  6
Continuous
 62
     7
370
     0
100
AcDbCircle
 10
130.7689514628
 20
60.6819338344
 30
0.0
 40
1.260000000000031
100
AcDbArc
 50
191.7353921666
 51
251.7353921666
  0
ARC
  5
365
330
1F
100
AcDbEntity
  8
0
  6
Continuous
 62
   144
370
     0
100
AcDbCircle
 10
130.7689514628
 20
60.6819338344
 30
0.0
 40
1.259999999999985
100
AcDbArc
 50
311.7353921666
 51
11.7353921666
  0
LINE
  5
366
330
1F
100
AcDbEntity
  8
0
  6
Continuous
 62
     7
370
     0
100
AcDbLine
 10
176.6189514628
 20
60.2319338344
 30
0.0
 11
176.6189514628
 21
72.1319338344
 31
0.0
  0
LINE
  5
367
330
1F
100
AcDbEntity
  8
0
  6
Continuous
 62
     7
370
     0
100
AcDbLine
 10
133.7689514628
 20
98.0819338344
 30
0.0
 11
127.7689514628
 21
98.0819338344
 31
0.0
  0
LINE
  5
368
330
1F
100
AcDbEntity
  8
0
  6
Continuous
 62
     7
370
     0
100
AcDbLine
 10
133.7689514628
 20
98.0819338344
 30
0.0
 11
133.7689514628
 21
96.0819338344
 31
0.0
  0
LINE
  5
369
330
1F
100
AcDbEntity
  8
0
  6
Continuous
 62
     7
370
     0
100
AcDbLine
 10
133.7689514628
 20
96.0819338344
 30
0.0
 11
127.7689514628
 21
96.0819338344
 31
0.0
  0
LINE
  5
36A
330
1F
100
AcDbEntity
  8
0
  6
Continuous
 62
     7
370
     0
100
AcDbLine
 10
127.7689514628
 20
98.0819338344
 30
0.0
 11
127.7689514628
 21
96.0819338344
 31
0.0
  0
LINE
  5
36B
330
1F
100
AcDbEntity
  8
0
  6
Continuous
 62
     7
370
     0
100
AcDbLine
 10
133.7689514628
 20
96.0819338344
 30
0.0
 11
133.7689514628
 21
95.6819338344
 31
0.0
  0
LINE
  5
36C
330
1F
100
AcDbEntity
  8
0
  6
Continuous
 62
     7
370
     0
100
AcDbLine
 10
133.7689514628
 20
55.6819338344
 30
0.0
 11
133.7689514628
 21
55.2819338344
 31
0.0
  0
LINE
  5
36D
330
1F
100
AcDbEntity
  8
0
  6
Continuous
 62
     7
370
     0
100
AcDbLine
 10
133.7689514628
 20
55.2819338344
 30
0.0
 11
133.7689514628
 21
53.2819338344
 31
0.0
  0
LINE
  5
36E
330
1F
100
AcDbEntity
  8
0
  6
Continuous
 62
     7
370
     0
100
AcDbLine
 10
127.7689514628
 20
96.0819338344
 30
0.0
 11
127.7689514628
 21
95.1819538344
 31
0.0
  0
LINE
  5
36F
330
1F
100
AcDbEntity
  8
0
  6
Continuous
 62
     7
370
     0
100
AcDbLine
 10
127.7689514628
 20
56.1819138344
 30
0.0
 11
127.7689514628
 21
55.2819338344
 31
0.0
  0
LINE
  5
370
330
1F
100
AcDbEntity
  8
0
  6
Continuous
 62
     7
370
     0
100
AcDbLine
 10
127.7689514628
 20
55.2819338344
 30
0.0
 11
127.7689514628
 21
53.2819338344
 31
0.0
  0
LINE
  5
371
330
1F
100
AcDbEntity
  8
0
  6
Continuous
 62
     7
370
     0
100
AcDbLine
 10
133.7689514628
 20
55.2819338344
 30
0.0
 11
127.7689514628
 21
55.2819338344
 31
0.0
  0
LINE
  5
372
330
1F
100
AcDbEntity
  8
0
  6
Continuous
 62
     7
370
     0
100
AcDbLine
 10
133.7689514628
 20
53.2819338344
 30
0.0
 11
127.7689514628
 21
53.2819338344
 31
0.0
  0
LINE
  5
373
330
1F
100
AcDbEntity
  8
0
  6
Continuous
 62
     7
370
     0
100
AcDbLine
 10
122.7589514628
 20
90.6819338344
 30
0.0
 11
122.7589514628
 21
60.6819338344
 31
0.0
  0
LINE
  5
374
330
1F
100
AcDbEntity
  8
0
  6
Continuous
 62
     7
370
     0
100
AcDbLine
 10
121.7589514628
 20
89.6819338344
 30
0.0
 11
121.7589514628
 21
61.6819338344
 31
0.0
  0
CIRCLE
  5
375
330
1F
100
AcDbEntity
  8
0
  6
Continuous
 62
     7
370
     0
100
AcDbCircle
 10
170.7689514628
 20
75.6819338344
 30
0.0
 40
1.699999999999996
  0
LINE
  5
376
330
1F
100
AcDbEntity
  8
0
  6
Continuous
 62
     7
370
     0
100
AcDbLine
 10
170.386314526
 20
74.8921729162
 30
0.0
 11
171.2615860124
 21
74.9556800676
 31
0.0
  0
LINE
  5
377
330
1F
100
AcDbEntity
  8
0
  6
Continuous
 62
     7
370
     0
100
AcDbLine
 10
171.2615860124
 20
74.9556800676
 30
0.0
 11
171.6442229492
 21
75.7454409858
 31
0.0
  0
LINE
  5
378
330
1F
100
AcDbEntity
  8
0
  6
Continuous
 62
     7
370
     0
100
AcDbLine
 10
171.1515883996
 20
76.4716947526
 30
0.0
 11
171.6442229492
 21
75.7454409858
 31
0.0
  0
LINE
  5
379
330
1F
100
AcDbEntity
  8
0
  6
Continuous
 62
     7
370
     0
100
AcDbLine
 10
170.2763169131
 20
76.4081876012
 30
0.0
 11
171.1515883996
 21
76.4716947526
 31
0.0
  0
LINE
  5
37A
330
1F
100
AcDbEntity
  8
0
  6
Continuous
 62
     7
370
     0
100
AcDbLine
 10
170.2763169131
 20
76.4081876012
 30
0.0
 11
169.8936799763
 21
75.618426683
 31
0.0
  0
LINE
  5
37B
330
1F
100
AcDbEntity
  8
0
  6
Continuous
 62
     7
370
     0
100
AcDbLine
 10
170.386314526
 20
74.8921729162
 30
0.0
 11
169.8936799763
 21
75.618426683
 31
0.0
  0
CIRCLE
  5
37C
330
1F
100
AcDbEntity
  8
0
  6
Continuous
 62
     7
370
     0
100
AcDbCircle
 10
170.7689514628
 20
75.6819338344
 30
0.0
 40
1.900000000000023
  0
DIMENSION
  5
37D
330
1F
100
AcDbEntity
  8
0
  6
Continuous
 62
     7
370
     0
100
AcDbDimension
  2
*D19
 10
139.7689514628
 20
43.2818307567
 30
0.0
 11
114.3098298241
 21
43.2818307567
 31
0.0
 70
   160
 71
     2
 42
-1.0
  3
SLDDIMSTYLE1
100
AcDbAlignedDimension
 13
127.7689514628
 23
53.2819338344
 33
0.0
 14
139.7689514628
 24
74.4119338344
 34
0.0
 50
0.0
100
AcDbRotatedDimension
  0
DIMENSION
  5
38F
330
1F
100
AcDbEntity
  8
0
  6
Continuous
 62
     7
370
     0
100
AcDbDimension
  2
*D20
 10
150.1689514628
 20
33.6542608903
 30
0.0
 11
138.9689514628
 21
33.6542608903
 31
0.0
 70
   160
 71
     2
 42
-1.0
  3
SLDDIMSTYLE1
100
AcDbAlignedDimension
 13
127.7689514628
 23
53.2819338344
 33
0.0
 14
150.1689514628
 24
74.4119338344
 34
0.0
 50
0.0
100
AcDbRotatedDimension
  0
INSERT
  5
3A6
102
{ACAD_REACTORS
330
3A7
102
}
330
1F
100
AcDbEntity
  8
0
  6
Continuous
 62
     7
370
     0
100
AcDbBlockReference
  2
SW_NOTE_6
 10
125.1531851068
 20
102.8759266146
 30
0.0
  0
LEADER
  5
3A7
330
1F
100
AcDbEntity
  8
0
  6
Continuous
 62
     7
370
     0
100
AcDbLeader
  3
SLDDIMSTYLE2
 73
     2
 76
     3
 10
139.3852435845
 20
77.2866980738
 30
0.0
 10
131.5031851068
 20
102.8759266146
 30
0.0
 10
125.1531851068
 20
102.8759266146
 30
0.0
340
3A6
  0
INSERT
  5
3AD
102
{ACAD_REACTORS
330
3AE
102
}
330
1F
100
AcDbEntity
  8
0
  6
Continuous
 62
     7
370
     0
100
AcDbBlockReference
  2
SW_NOTE_7
 10
131.4564001539
 20
110.5973650472
 30
0.0
  0
LEADER
  5
3AE
330
1F
100
AcDbEntity
  8
0
  6
Continuous
 62
     7
370
     0
100
AcDbLeader
  3
SLDDIMSTYLE2
 73
     2
 76
     3
 10
149.5063034798
 20
77.276962828
 30
0.0
 10
137.8064001539
 20
110.5973650472
 30
0.0
 10
131.4564001539
 20
110.5973650472
 30
0.0
340
3AD
  0
INSERT
  5
3B6
330
1F
100
AcDbEntity
  8
0
  6
Continuous
 62
     7
370
     0
100
AcDbBlockReference
  2
SW_CENTERMARKSYMBOL_2
 10
139.7689514628
 20
75.6819338344
 30
0.0
  0
INSERT
  5
3BE
330
1F
100
AcDbEntity
  8
0
  6
Continuous
 62
     7
370
     0
100
AcDbBlockReference
  2
SW_CENTERMARKSYMBOL_3
 10
150.1689514628
 20
75.6819338344
 30
0.0
  0
OLE2FRAME
  5
3BF
330
1F
100
AcDbEntity
  8
0
100
AcDbOle2Frame
 70
     2
  3
Bitmap
 10
229.0524258301
 20
33.6996297921
 30
0.0
 11
265.1686469208
 21
28.555479607
 31
0.0
 71
     2
 72
     0
 73
     1
 90
     7296
310
80557333EF78ADA16C40002412788DD94040000000000000000041161DC7B292
310
7040002412788DD94040000000000000000041161DC7B2927040F6DD59E9338E
310
3C4000000000000000007333EF78ADA16C40F6DD59E9338E3C40000000000000
310
00000000000001000000000100000100000001000000000001000000001C0000
310
D0CF11E0A1B11AE1000000000000000000000000000000003E000300FEFF0900
310
0600000000000000000000000100000001000000000000000010000002000000
310
01000000FEFFFFFF0000000000000000FFFFFFFFFFFFFFFFFFFFFFFFFFFFFFFF
310
FFFFFFFFFFFFFFFFFFFFFFFFFFFFFFFFFFFFFFFFFFFFFFFFFFFFFFFFFFFFFFFF
310
FFFFFFFFFFFFFFFFFFFFFFFFFFFFFFFFFFFFFFFFFFFFFFFFFFFFFFFFFFFFFFFF
310
FFFFFFFFFFFFFFFFFFFFFFFFFFFFFFFFFFFFFFFFFFFFFFFFFFFFFFFFFFFFFFFF
310
FFFFFFFFFFFFFFFFFFFFFFFFFFFFFFFFFFFFFFFFFFFFFFFFFFFFFFFFFFFFFFFF
310
FFFFFFFFFFFFFFFFFFFFFFFFFFFFFFFFFFFFFFFFFFFFFFFFFFFFFFFFFFFFFFFF
310
FFFFFFFFFFFFFFFFFFFFFFFFFFFFFFFFFFFFFFFFFFFFFFFFFFFFFFFFFFFFFFFF
310
FFFFFFFFFFFFFFFFFFFFFFFFFFFFFFFFFFFFFFFFFFFFFFFFFFFFFFFFFFFFFFFF
310
FFFFFFFFFFFFFFFFFFFFFFFFFFFFFFFFFFFFFFFFFFFFFFFFFFFFFFFFFFFFFFFF
310
FFFFFFFFFFFFFFFFFFFFFFFFFFFFFFFFFFFFFFFFFFFFFFFFFFFFFFFFFFFFFFFF
310
FFFFFFFFFFFFFFFFFFFFFFFFFFFFFFFFFFFFFFFFFFFFFFFFFFFFFFFFFFFFFFFF
310
FFFFFFFFFFFFFFFFFFFFFFFFFFFFFFFFFFFFFFFFFFFFFFFFFFFFFFFFFFFFFFFF
310
FFFFFFFFFFFFFFFFFFFFFFFFFFFFFFFFFFFFFFFFFFFFFFFFFFFFFFFFFFFFFFFF
310
FFFFFFFFFFFFFFFFFFFFFFFFFFFFFFFFFFFFFFFFFFFFFFFFFFFFFFFFFFFFFFFF
310
FDFFFFFFFEFFFFFFFEFFFFFFFEFFFFFF05000000060000000700000008000000
310
090000000A0000000B0000000C000000FEFFFFFFFFFFFFFFFFFFFFFFFFFFFFFF
310
FFFFFFFFFFFFFFFFFFFFFFFFFFFFFFFFFFFFFFFFFFFFFFFFFFFFFFFFFFFFFFFF
310
FFFFFFFFFFFFFFFFFFFFFFFFFFFFFFFFFFFFFFFFFFFFFFFFFFFFFFFFFFFFFFFF
310
FFFFFFFFFFFFFFFFFFFFFFFFFFFFFFFFFFFFFFFFFFFFFFFFFFFFFFFFFFFFFFFF
310
FFFFFFFFFFFFFFFFFFFFFFFFFFFFFFFFFFFFFFFFFFFFFFFFFFFFFFFFFFFFFFFF
310
FFFFFFFFFFFFFFFFFFFFFFFFFFFFFFFFFFFFFFFFFFFFFFFFFFFFFFFFFFFFFFFF
310
FFFFFFFFFFFFFFFFFFFFFFFFFFFFFFFFFFFFFFFFFFFFFFFFFFFFFFFFFFFFFFFF
310
FFFFFFFFFFFFFFFFFFFFFFFFFFFFFFFFFFFFFFFFFFFFFFFFFFFFFFFFFFFFFFFF
310
FFFFFFFFFFFFFFFFFFFFFFFFFFFFFFFFFFFFFFFFFFFFFFFFFFFFFFFFFFFFFFFF
310
FFFFFFFFFFFFFFFFFFFFFFFFFFFFFFFFFFFFFFFFFFFFFFFFFFFFFFFFFFFFFFFF
310
FFFFFFFFFFFFFFFFFFFFFFFFFFFFFFFFFFFFFFFFFFFFFFFFFFFFFFFFFFFFFFFF
310
FFFFFFFFFFFFFFFFFFFFFFFFFFFFFFFFFFFFFFFFFFFFFFFFFFFFFFFFFFFFFFFF
310
FFFFFFFFFFFFFFFFFFFFFFFFFFFFFFFFFFFFFFFFFFFFFFFFFFFFFFFFFFFFFFFF
310
FFFFFFFFFFFFFFFFFFFFFFFFFFFFFFFFFFFFFFFFFFFFFFFFFFFFFFFFFFFFFFFF
310
FFFFFFFFFFFFFFFFFFFFFFFFFFFFFFFFFFFFFFFFFFFFFFFFFFFFFFFFFFFFFFFF
310
52006F006F007400200045006E00740072007900000000000000000000000000
310
0000000000000000000000000000000000000000000000000000000000000000
310
16000500FFFFFFFFFFFFFFFF020000000A00030000000000C000000000000046
310
000000000000000000000000F029BFDC198BCB0103000000C000000000000000
310
01004F006C006500000000000000000000000000000000000000000000000000
310
0000000000000000000000000000000000000000000000000000000000000000
310
0A000200FFFFFFFFFFFFFFFFFFFFFFFF00000000000000000000000000000000
310
0000000000000000000000000000000000000000000000001400000000000000
310
010043006F006D0070004F0062006A0000000000000000000000000000000000
310
0000000000000000000000000000000000000000000000000000000000000000
310
120002010100000003000000FFFFFFFF00000000000000000000000000000000
310
0000000000000000000000000000000000000000010000004D00000000000000
310
01004F006C006500310030004E00610074006900760065000000000000000000
310
0000000000000000000000000000000000000000000000000000000000000000
310
1A000200FFFFFFFFFFFFFFFFFFFFFFFF00000000000000000000000000000000
310
000000000000000000000000000000000000000004000000E411000000000000
310
FEFFFFFF02000000FEFFFFFFFFFFFFFFFFFFFFFFFFFFFFFFFFFFFFFFFFFFFFFF
310
FFFFFFFFFFFFFFFFFFFFFFFFFFFFFFFFFFFFFFFFFFFFFFFFFFFFFFFFFFFFFFFF
310
FFFFFFFFFFFFFFFFFFFFFFFFFFFFFFFFFFFFFFFFFFFFFFFFFFFFFFFFFFFFFFFF
310
FFFFFFFFFFFFFFFFFFFFFFFFFFFFFFFFFFFFFFFFFFFFFFFFFFFFFFFFFFFFFFFF
310
FFFFFFFFFFFFFFFFFFFFFFFFFFFFFFFFFFFFFFFFFFFFFFFFFFFFFFFFFFFFFFFF
310
FFFFFFFFFFFFFFFFFFFFFFFFFFFFFFFFFFFFFFFFFFFFFFFFFFFFFFFFFFFFFFFF
310
FFFFFFFFFFFFFFFFFFFFFFFFFFFFFFFFFFFFFFFFFFFFFFFFFFFFFFFFFFFFFFFF
310
FFFFFFFFFFFFFFFFFFFFFFFFFFFFFFFFFFFFFFFFFFFFFFFFFFFFFFFFFFFFFFFF
310
FFFFFFFFFFFFFFFFFFFFFFFFFFFFFFFFFFFFFFFFFFFFFFFFFFFFFFFFFFFFFFFF
310
FFFFFFFFFFFFFFFFFFFFFFFFFFFFFFFFFFFFFFFFFFFFFFFFFFFFFFFFFFFFFFFF
310
FFFFFFFFFFFFFFFFFFFFFFFFFFFFFFFFFFFFFFFFFFFFFFFFFFFFFFFFFFFFFFFF
310
FFFFFFFFFFFFFFFFFFFFFFFFFFFFFFFFFFFFFFFFFFFFFFFFFFFFFFFFFFFFFFFF
310
FFFFFFFFFFFFFFFFFFFFFFFFFFFFFFFFFFFFFFFFFFFFFFFFFFFFFFFFFFFFFFFF
310
FFFFFFFFFFFFFFFFFFFFFFFFFFFFFFFFFFFFFFFFFFFFFFFFFFFFFFFFFFFFFFFF
310
FFFFFFFFFFFFFFFFFFFFFFFFFFFFFFFFFFFFFFFFFFFFFFFFFFFFFFFFFFFFFFFF
310
FFFFFFFFFFFFFFFFFFFFFFFFFFFFFFFFFFFFFFFFFFFFFFFFFFFFFFFFFFFFFFFF
310
0100000200000000000000000000000000000000000000000000000000000000
310
0000000000000000000000000000000000000000000000000000000000000000
310
0100FEFF030A0000FFFFFFFF0A00030000000000C00000000000004607000000
310
5042727573680007000000504272757368000700000050427275736800F439B2
310
7100000000000000000000000000000000000000000000000000000000000000
310
0000000000000000000000000000000000000000000000000000000000000000
310
0000000000000000000000000000000000000000000000000000000000000000
310
0000000000000000000000000000000000000000000000000000000000000000
310
0000000000000000000000000000000000000000000000000000000000000000
310
0000000000000000000000000000000000000000000000000000000000000000
310
0000000000000000000000000000000000000000000000000000000000000000
310
0000000000000000000000000000000000000000000000000000000000000000
310
0000000000000000000000000000000000000000000000000000000000000000
310
0000000000000000000000000000000000000000000000000000000000000000
310
0000000000000000000000000000000000000000000000000000000000000000
310
0000000000000000000000000000000000000000000000000000000000000000
310
E0110000424DDE11000000000000360400002800000096000000170000000100
310
08000000000000000000E7240000E72400000001000000010000000000FF0101
310
01FF020202FF030303FF040404FF050505FF060606FF070707FF080808FF0909
310
09FF0A0A0AFF0B0B0BFF0C0C0CFF0D0D0DFF0E0E0EFF0F0F0FFF101010FF1111
310
11FF121212FF131313FF141414FF151515FF161616FF171717FF181818FF1919
310
19FF1A1A1AFF1B1B1BFF1C1C1CFF1D1D1DFF1E1E1EFF1F1F1FFF202020FF2121
310
21FF222222FF232323FF242424FF252525FF262626FF272727FF282828FF2929
310
29FF2A2A2AFF2B2B2BFF2C2C2CFF2D2D2DFF2E2E2EFF2F2F2FFF303030FF3131
310
31FF323232FF333333FF343434FF353535FF363636FF373737FF383838FF3939
310
39FF3A3A3AFF3B3B3BFF3C3C3CFF3D3D3DFF3E3E3EFF3F3F3FFF404040FF4141
310
41FF424242FF434343FF444444FF454545FF464646FF474747FF484848FF4949
310
49FF4A4A4AFF4B4B4BFF4C4C4CFF4D4D4DFF4E4E4EFF4F4F4FFF505050FF5151
310
51FF525252FF535353FF545454FF555555FF565656FF575757FF585858FF5959
310
59FF5A5A5AFF5B5B5BFF5C5C5CFF5D5D5DFF5E5E5EFF5F5F5FFF606060FF6161
310
61FF626262FF636363FF646464FF656565FF666666FF676767FF686868FF6969
310
69FF6A6A6AFF6B6B6BFF6C6C6CFF6D6D6DFF6E6E6EFF6F6F6FFF707070FF7171
310
71FF727272FF737373FF747474FF757575FF767676FF777777FF787878FF7979
310
79FF7A7A7AFF7B7B7BFF7C7C7CFF7D7D7DFF7E7E7EFF7F7F7FFF808080FF8181
310
81FF828282FF838383FF848484FF858585FF868686FF878787FF888888FF8989
310
89FF8A8A8AFF8B8B8BFF8C8C8CFF8D8D8DFF8E8E8EFF8F8F8FFF909090FF9191
310
91FF929292FF939393FF949494FF959595FF969696FF979797FF989898FF9999
310
99FF9A9A9AFF9B9B9BFF9C9C9CFF9D9D9DFF9E9E9EFF9F9F9FFFA0A0A0FFA1A1
310
A1FFA2A2A2FFA3A3A3FFA4A4A4FFA5A5A5FFA6A6A6FFA7A7A7FFA8A8A8FFA9A9
310
A9FFAAAAAAFFABABABFFACACACFFADADADFFAEAEAEFFAFAFAFFFB0B0B0FFB1B1
310
B1FFB2B2B2FFB3B3B3FFB4B4B4FFB5B5B5FFB6B6B6FFB7B7B7FFB8B8B8FFB9B9
310
B9FFBABABAFFBBBBBBFFBCBCBCFFBDBDBDFFBEBEBEFFBFBFBFFFC0C0C0FFC1C1
310
C1FFC2C2C2FFC3C3C3FFC4C4C4FFC5C5C5FFC6C6C6FFC7C7C7FFC8C8C8FFC9C9
310
C9FFCACACAFFCBCBCBFFCCCCCCFFCDCDCDFFCECECEFFCFCFCFFFD0D0D0FFD1D1
310
D1FFD2D2D2FFD3D3D3FFD4D4D4FFD5D5D5FFD6D6D6FFD7D7D7FFD8D8D8FFD9D9
310
D9FFDADADAFFDBDBDBFFDCDCDCFFDDDDDDFFDEDEDEFFDFDFDFFFE0E0E0FFE1E1
310
E1FFE2E2E2FFE3E3E3FFE4E4E4FFE5E5E5FFE6E6E6FFE7E7E7FFE8E8E8FFE9E9
310
E9FFEAEAEAFFEBEBEBFFECECECFFEDEDEDFFEEEEEEFFEFEFEFFFF0F0F0FFF1F1
310
F1FFF2F2F2FFF3F3F3FFF4F4F4FFF5F5F5FFF6F6F6FFF7F7F7FFF8F8F8FFF9F9
310
F9FFFAFAFAFFFBFBFBFFFCFCFCFFFDFDFDFFFEFEFEFFFFFFFFFFFFFFFFFFFFFF
310
C94E4E4E4F4E4EFFFFFFFFFFC94E4E4E4E4E72FFFFFFFFFFFFFF734E4D4E4E4E
310
C9FFFFFFFFFFAA683516171616265B9BE9FFFFFFFFFF4E4E4E4D4E4EFFFFFFFF
310
FFFFFFFF4E4E4F4E4D4E4E4E4F4E4E4F4D4E4E4E4E4E4D4E4F4E4D4E4E4EAAFF
310
FFFFFFFFFFEA4E4F4F4E4E4E4E4E4D4D4F4F4E4E4E4E4E5B7FAAFFFFFFFFFFFF
310
C9744E1716171616164D8DEAFFFFFFFF0000FFFFFFFFFFFFBA161617161716FF
310
FFFFFFFFB917171616174FFFFFFFFFFFFFFF4E1716161616B9FFFFFFB9341717
310
1716171617171616268CFFFFFFFF161617161617FFFFFFFFFFFFFFB917161717
310
1617167F807F7F7F7F7F7F807F7F807F7F807F7F7F414EFFFFFFFFFFFF8C167F
310
7F807F7F7F7E7F7F807F807F7F807F4E3417258EFFFFEA4E162674AABAEAEBBA
310
AA74341680FFFFFF0000FFFFFFFFFFFFB9171717171617FFFFFFFFFFBB161616
310
16164EFFFFFFFFFFFFFF4E1717171717B9FFFF9C171617171716161616171616
310
171766FFFFFF161717161617FFFFFFFFFFFFFF8E16171717161616FFFFFFFFFF
310
FFFFFFFFFFFFFFFFFFFFFFFFFFAA16D9FFFFFFFFFF3467FFFFFFFFEAFFFFFFFF
310
FFFFFFFFFFFFFFFFFFCA671667EB26278DFFFFFFFFFFFFFFFFFFFF8C2541EAFF
310
0000FFFFFFFFFFFFB9171717171716FFFFFFFFFFBA16171617174EFFFFFFFFFF
310
FFFF4E1717161616BAFF9B1617161616171716171617161616161667FFFF1616
310
16161716FFFFFFFFFFFFFF7F16161617174017FFFFFFFFFFFFFFFFFFFFFFFFFF
310
FFFFFFFFFFFF344E7F7F7F7E7417DAFFFFFFFF80FFFFFFFFFFFFFFFFFFFFFFFF
310
FFFFFF9B163425CAFFFFFFFFFFFFFFFFFFFFFFFFCA2667FF0000FFFFFFFFFFFF
310
BA171717171617FFFFFFFFFFB916171716164EFFFFFFFFFFFFFF4F1716161717
310
B9C91716171616161716161617171616161617168DFF161716161717FFFFFFFF
310
FFFFFF7F17171716164F16FFFFFFFFFFFFFFFFFFFFFFFFFFFFFFFFFFFFFF9B16
310
17161617174EFFFFFFFFFF34FFFFFFFFD9BABABABABADAFFFFFFFFFF7F16AAFF
310
FFFFFFFFFFFFFFFFFFFFFFFFFF9C16BA0000FFFFFFFFFFFFB9161717161717FF
310
FFFFFFFFB917161716174DFFFFFFFFFFFFFF4E1616161616BA4E161617171716
310
419BEAEAAA4E16161617161726E9171717161616FFFFFFFFFFFFFF4F16161717
310
164E16FFFFFFFFFFBAB9B9B9B9B9BABABACAFFFFFFFFFFFFFFFFFFFFFFFFFFFF
310
FFFFBA16FFFFFFFF7F1617161617174DEAFFFFFFEA41FFFFFFFFFFAA4D16174E
310
9BFFFFFFFFFF34730000FFFFFFFFFFFFB9161617171617FFFFFFFFFFBA161616
310
16164EFFFFFFFFFFFFFF4F16161717169B1617161716175BFFFFFFFFFFFF7417
310
16171616168D171717161617FFFFFFFFFFFFEA2616171717167416FFFFFFFFFF
310
16171616171717171717EAFFFFFFFFFFFFFFFFFFFFFFFFFFFFFF6716FFFFFFFF
310
7F4EFFFFFFFFBA2573FFFFFFFFBAFFFFFFFFAA167FB9BB9B269BFFFFFFFF664F
310
0000FFFFFFFFFFFFB9171616161616FFFFFFFFFFBA16161717164EFFFFFFFFFF
310
FFFF4E16161616174E161617171626EAFFFFFFFFFFFFFF4E16161616164E1716
310
16161617FFFFFFFFFFFF671616161716347F16FFFFFFFFFF16B9FFFFFFFFFFFF
310
D9168DFFFFFFFFFFFFFFFFFFFFFFFFFFFFEA1716FFFFFFFF7F4EFFFFFFFFFF7F
310
4EFFFFFFFFFFFFFFFFFF5B66FFFFFFEA347FFFFFFFFF7F4D0000FFFFFFFFFFFF
310
B9171616171617FFFFFFFFFFBA17161716174EFFFFFFFFFFFFFF4D1716161617
310
17161716161673FFFFFFFFFFFFFFFF9B1617161717161616171616174F4E4E4E
310
4E341616171616167E7F16FFFFFFFFFF16BAFFFFFFFFFFFFFF5B41FFFFFFFF34
310
1616171616BAFFFFFF9B1716FFFFFFFF7F4EFFFFFFFFFF4E4EFFFFFFFF734E4E
310
4E4E267EDA9B67164EEAFFFFFFFF744D0000FFFFFFFFFFFFBA171717161617FF
310
FFFFFFFFBA1616171616347F7F7F7F80807F331616161717161717161716B9FF
310
FFFFFFFFFFFFFFE9161616161616171716161716171616161616171616171734
310
EA7F16FFFFFFFFFF16BAFFFFFFFFFFFFFFAA17C9FFFFFF7326BABA5B25FFFFFF
310
FF401716FFFFFFFF7F264F4E4E4E4217AAFFFFFFEA16677F73261616164173CA
310
FFFFFFFFFFFF417F0000FFFFFFFFFFFFBA171616171617FFFFFFFFFFBA161616
310
17171616161616161616161717161616161616161617EAFFFFFFFFFFFFFFFFFF
310
261717161716161617161616161617161617161616174EEAFF8016FFFFFFFFFF
310
17BAFFFFFFFFFFFFFFFF3467FFFFFFC916C9FF3467FFFFFFDA166716FFFFFFFF
310
9C4D4E4E4E4E67AAFFFFFFFF6834FF7F262567AAEAFFFFFFFFFFFFFFFF9B17D9
310
0000FFFFFFFFFFFFB9161616161616FFFFFFFFFFBA1617161717171616161616
310
1716171716161716161617171716FFFFFFFFFFFFFFFFFFFF4E17161716171616
310
1617171616161716171717161616169BFF7F17FFFFFFFFFF17B9FFFFFFFFFFFF
310
FFFF7326FFFFFFFF3473DA16AAFFFFFF7317AA16FFFFFFFFFFFFFFFFFFFFFFFF
310
FFFFEA6725BA4E167FEAFFFFFFFFFFFFFFFFFFFF9C167FFF0000FFFFFFFFFFFF
310
B9161717171716FFFFFFFFFFBA16161716171616171717161617161716161616
310
171617171617EAFFFFFFFFFFFFFFFFFF26161717161616161616161617171616
310
1616161616171616AA8016FFFFFFFFFF16BAFFFFFFFFFFFFFFFFDA179BFFFFFF
310
74348D26FFFFFFFF2566B917FFFFFFFFD8BAB9BAB9BADAFFFFEA41169B7425C9
310
FFFFFFFFFFFFFFFFFFFFAB4F1680FFFF0000FFFFFFFFFFFFBA161717171617FF
310
FFFFFFFFBA17161717161617171617161616161617171616171716171617BBFF
310
FFFFFFFFFFFFFFE9171616161617161617161716FFFFFFFFFFD9671616161617
310
348017FFFFFFFFFF16BAFFFFFFFFFFFFFFFFFF4E5AFFFFFFC916265AFFFFFFAA
310
16AABA16FFFFFFFF7F1617161616179BFFFFEB4127168DFFFFFFFFFFFFFFD99B
310
6734175AC9FFFFFF0000FFFFFFFFFFFFB9161617171617FFFFFFFFFFBB161616
310
1616347F807F7F7F7F8033171716171617171616161672FFFFFFFFFFFFFFFF9C
310
171617171617161716161617FFFFFFFFFFFFFF4117161616174E17FFFFFFFFFF
310
16BAFFFFFFFFFFFFFFFFFF9B16DAFFFFFF34169BFFFFFF5A26FFB917FFFFFFFF
310
7F4EFFFFFFEA5B26FFFFFFEA2616EAFFFFFFFFDA743416331617414E4E4E4ECA
310
0000FFFFFFFFFFFFBA161716161616FFFFFFFFFFBA17171616164EFFFFFFFFFF
310
FFFF4E16161717174E161717171626EBFFFFFFFFFFFFFF4E16161617165B1616
310
16171617FFFFFFFFFFFFFF6716161616161617FFFFFFFFFF16BAFFFFFFFFFFFF
310
FFFFFFEA268CFFFFFF7316EAFFFFEB1774FFB916FFFFFFFF7F4EFFFFFFFF7316
310
FFFFFFFF6826FFFFFFFFEB264D9CEABA257F807F7F6616BA0000FFFFFFFFFFFF
310
BA161716161616FFFFFFFFFFBA16171616164DFFFFFFFFFFFFFF4E1617161617
310
9B1617171717165BEBFFFFFFFFFF671616161617179B171616161616FFFFFFFF
310
FFFFFF3417161617171617FFFFFFFFFF17BAFFFFFFFFFFFFFFFFFFFF6734FFFF
310
FFEBCAFFFFFF8D17C9FFBA17FFFFFFFF7F357F808066174FFFFFFFFF7F16FFFF
310
FFFFD91673B99B415BFFFFFFFFBA16DA00009B7F7F7F807F671617161616167F
310
80807F7E6617161616164EFFFFFFFFFFFFFF4E1616161617B94E171716161616
310
349BC9D9AA4E16171616161634FF161617161717B9B9BAB9BA9B411716171716
310
163416FFFFFFFFFF16B9FFFFFFFFFFFFFFFFFFFFC917CAFFFFFFFFFFFFFF3342
310
FFFFBA17FFFFFFFF9B4E4E4F4E4E66EAFFFFFFFF5B16C9FFFFFFFFAA4E164E73
310
EAFFFFFFFF8D26FF00004E161716161616171617171616171717171617161616
310
17174EFFFFFFFFFFFFFF4E1717171616B9D92616171716171716171717171716
310
16171716AAFF161717171617161617171616161617161716166717FFFFFFFFFF
310
17B9FFFFFFFFFFFFFFFFFFFFFF3467FFFFFFFFFFFFCA168CFFFFBB17FFFFFFFF
310
FFFFFFFFFFFFFFFFFFFFFFEA26265BFFFFFFFFFFFFFFFFFFFFFFFFFFEA3467FF
310
00004D16161616161617161717161617161616171617171616164EFFFFFFFFFF
310
FFFF4D1617161616BAFF9B1616161616161716161616171717161766FFFF1616
310
16171617161617161716171616171717667F16FFFFFFFFFF17BAFFFFFFFFFFFF
310
FFFFFFFFFF8C26EAFFFFFFFFFF6617EAFFFFBA17FFFFFFFFFFFFFFFFFFFFFFFF
310
FFFFEA5A25BA269BFFFFFFFFFFFFFFFFFFFFFFFF6616DAFF00004E1616171616
310
1616161616161716161617171616171616174EFFFFFFFFFFFFFF4D1717171716
310
B9FFFF9C161616161616161716161717171667FFFFFF17161717171716161617
310
1716161616161641E97E16FFFFFFFFFF16B9FFFFFFFFFFFFFFFFFFFFFFEA169B
310
FFFFFFFFEA265BFFFFFFB916FFFFFFFFFFFFFFFFFFFFFFFFFF9B3416AAFF9B17
310
67EAFFFFFFFFFFFFFFFFEA5B169BFFFF00004D17161716161616161717171616
310
161717161716171716174EFFFFFFFFFFFFFF4D1616161616BAFFFFFFBB411616
310
161716161616171634ABFFFFFFFF161716161617171716171617171617267FFF
310
FF7F164E4E4E4E4F17BAFFFFFFFFFFFFFFFFFFFFFFFF66344D4E4E4F4117AAFF
310
FFFFBA174E4E4E4D4E4D4D4E4E4E4E4116174EBBFFFFFFCA342666ABEAFFFFEA
310
AA6725269CFFFFFF0000724F4E4D4D4D4E4D4D4E4E4E4D4E4E4E4E4E4E4E4E4D
310
4E4E74FFFFFFFFFFFFFF734E4E4E4D4ECAFFFFFFFFFFAA663416171717265B9B
310
FFFFFFFFFFFF7F8080807F80807F7F7F7F7F807FBAFFFFFFFF9B4E4E4F4D4D4E
310
4DC9FFFFFFFFFFFFFFFFFFFFFFFFBA4E4E4E4E4D4E4EFFFFFFFFC94E4E4E4F4E
310
4E4E4D4E4E5A807F9CD9FFFFFFFFFFFFFF9B5B2617171716174E8DEAFFFFFFFF
310
00000000EA0400005A7BEE120000540069006D006500730020004E0065007700
  1
OLE
  0
ENDSEC
  0
SECTION
  2
OBJECTS
  0
DICTIONARY
  5
C
330
0
100
AcDbDictionary
281
     1
  3
ACAD_GROUP
350
D
  3
ACAD_LAYOUT
350
1A
  3
ACAD_MLINESTYLE
350
17
  3
ACAD_PLOTSETTINGS
350
19
  3
ACAD_PLOTSTYLENAME
350
E
  3
ACAD_SCALELIST
350
6C
  3
AcDbVariableDictionary
350
3C0
  0
DICTIONARY
  5
D
102
{ACAD_REACTORS
330
C
102
}
330
C
100
AcDbDictionary
281
     1
  0
DICTIONARY
  5
1A
102
{ACAD_REACTORS
330
C
102
}
330
C
100
AcDbDictionary
281
     1
  3
Layout1
350
1E
  3
Layout2
350
26
  3
Model
350
22
  0
DICTIONARY
  5
17
102
{ACAD_REACTORS
330
C
102
}
330
C
100
AcDbDictionary
281
     1
  3
Standard
350
18
  0
DICTIONARY
  5
19
102
{ACAD_REACTORS
330
C
102
}
330
C
100
AcDbDictionary
281
     1
  0
ACDBDICTIONARYWDFLT
  5
E
102
{ACAD_REACTORS
330
C
102
}
330
C
100
AcDbDictionary
281
     1
  3
Normal
350
F
100
AcDbDictionaryWithDefault
340
F
  0
DICTIONARY
  5
6C
102
{ACAD_REACTORS
330
C
102
}
330
C
100
AcDbDictionary
281
     1
  3
A0
350
6D
  3
A1
350
6E
  3
A2
350
6F
  3
A3
350
70
  3
A4
350
71
  3
A5
350
72
  3
A6
350
73
  3
A7
350
74
  3
A8
350
75
  3
A9
350
76
  3
B0
350
77
  3
B1
350
78
  3
B2
350
79
  3
B3
350
7A
  3
B4
350
7B
  3
B5
350
7C
  3
B6
350
7D
  3
B7
350
7E
  3
B8
350
7F
  3
B9
350
80
  3
C0
350
81
  3
C1
350
82
  3
C2
350
83
  3
C3
350
84
  3
C4
350
85
  3
C5
350
86
  3
C6
350
87
  3
C7
350
88
  3
C8
350
89
  3
C9
350
8A
  3
D0
350
8B
  3
D1
350
8C
  3
D2
350
8D
  0
DICTIONARY
  5
3C0
102
{ACAD_REACTORS
330
C
102
}
330
C
100
AcDbDictionary
281
     1
  3
CANNOSCALE
350
3C1
  0
LAYOUT
  5
1E
102
{ACAD_REACTORS
330
1A
102
}
330
1A
100
AcDbPlotSettings
  1

  2
none_device
  4

  6

 40
0.0
 41
0.0
 42
0.0
 43
0.0
 44
0.0
 45
0.0
 46
0.0
 47
0.0
 48
0.0
 49
0.0
140
0.0
141
0.0
142
1.0
143
1.0
 70
   688
 72
     0
 73
     0
 74
     5
  7

 75
    16
147
1.0
148
0.0
149
0.0
100
AcDbLayout
  1
Layout1
 70
     1
 71
     1
 10
0.0
 20
0.0
 11
420.0
 21
297.0
 12
0.0
 22
0.0
 32
0.0
 14
1.0000000000E+20
 24
1.0000000000E+20
 34
1.0000000000E+20
 15
-1.0000000000E+20
 25
-1.0000000000E+20
 35
-1.0000000000E+20
146
0.0
 13
0.0
 23
0.0
 33
0.0
 16
1.0
 26
0.0
 36
0.0
 17
0.0
 27
1.0
 37
0.0
 76
     0
330
1B
  0
LAYOUT
  5
26
102
{ACAD_REACTORS
330
1A
102
}
330
1A
100
AcDbPlotSettings
  1

  2
none_device
  4

  6

 40
0.0
 41
0.0
 42
0.0
 43
0.0
 44
0.0
 45
0.0
 46
0.0
 47
0.0
 48
0.0
 49
0.0
140
0.0
141
0.0
142
1.0
143
1.0
 70
   688
 72
     0
 73
     0
 74
     5
  7

 75
    16
147
1.0
148
0.0
149
0.0
100
AcDbLayout
  1
Layout2
 70
     1
 71
     2
 10
0.0
 20
0.0
 11
0.0
 21
0.0
 12
0.0
 22
0.0
 32
0.0
 14
0.0
 24
0.0
 34
0.0
 15
0.0
 25
0.0
 35
0.0
146
0.0
 13
0.0
 23
0.0
 33
0.0
 16
1.0
 26
0.0
 36
0.0
 17
0.0
 27
1.0
 37
0.0
 76
     0
330
23
  0
LAYOUT
  5
22
102
{ACAD_REACTORS
330
1A
102
}
330
1A
100
AcDbPlotSettings
  1

  2
none_device
  4

  6

 40
0.0
 41
0.0
 42
0.0
 43
0.0
 44
0.0
 45
0.0
 46
0.0
 47
0.0
 48
0.0
 49
0.0
140
0.0
141
0.0
142
1.0
143
1.0
 70
  1712
 72
     0
 73
     0
 74
     0
  7

 75
     0
147
1.0
148
0.0
149
0.0
100
AcDbLayout
  1
Model
 70
     1
 71
     0
 10
0.0
 20
0.0
 11
279.4
 21
215.9
 12
0.0
 22
0.0
 32
0.0
 14
0.0
 24
0.0
 34
0.0
 15
279.4
 25
215.9
 35
0.0
146
0.0
 13
0.0
 23
0.0
 33
0.0
 16
1.0
 26
0.0
 36
0.0
 17
0.0
 27
1.0
 37
0.0
 76
     0
330
1F
331
29
  0
MLINESTYLE
  5
18
102
{ACAD_REACTORS
330
17
102
}
330
17
100
AcDbMlineStyle
  2
Standard
 70
     0
  3

 62
   256
 51
90.0
 52
90.0
 71
     2
 49
0.5
 62
   256
  6
BYLAYER
 49
-0.5
 62
   256
  6
BYLAYER
  0
ACDBPLACEHOLDER
  5
F
102
{ACAD_REACTORS
330
E
102
}
330
E
  0
SCALE
  5
6D
102
{ACAD_REACTORS
330
6C
102
}
330
6C
100
AcDbScale
 70
     0
300
1:1
140
1.0
141
1.0
290
     1
  0
SCALE
  5
6E
102
{ACAD_REACTORS
330
6C
102
}
330
6C
100
AcDbScale
 70
     0
300
1:2
140
1.0
141
2.0
290
     0
  0
SCALE
  5
6F
102
{ACAD_REACTORS
330
6C
102
}
330
6C
100
AcDbScale
 70
     0
300
1:4
140
1.0
141
4.0
290
     0
  0
SCALE
  5
70
102
{ACAD_REACTORS
330
6C
102
}
330
6C
100
AcDbScale
 70
     0
300
1:5
140
1.0
141
5.0
290
     0
  0
SCALE
  5
71
102
{ACAD_REACTORS
330
6C
102
}
330
6C
100
AcDbScale
 70
     0
300
1:8
140
1.0
141
8.0
290
     0
  0
SCALE
  5
72
102
{ACAD_REACTORS
330
6C
102
}
330
6C
100
AcDbScale
 70
     0
300
1:10
140
1.0
141
10.0
290
     0
  0
SCALE
  5
73
102
{ACAD_REACTORS
330
6C
102
}
330
6C
100
AcDbScale
 70
     0
300
1:16
140
1.0
141
16.0
290
     0
  0
SCALE
  5
74
102
{ACAD_REACTORS
330
6C
102
}
330
6C
100
AcDbScale
 70
     0
300
1:20
140
1.0
141
20.0
290
     0
  0
SCALE
  5
75
102
{ACAD_REACTORS
330
6C
102
}
330
6C
100
AcDbScale
 70
     0
300
1:30
140
1.0
141
30.0
290
     0
  0
SCALE
  5
76
102
{ACAD_REACTORS
330
6C
102
}
330
6C
100
AcDbScale
 70
     0
300
1:40
140
1.0
141
40.0
290
     0
  0
SCALE
  5
77
102
{ACAD_REACTORS
330
6C
102
}
330
6C
100
AcDbScale
 70
     0
300
1:50
140
1.0
141
50.0
290
     0
  0
SCALE
  5
78
102
{ACAD_REACTORS
330
6C
102
}
330
6C
100
AcDbScale
 70
     0
300
1:100
140
1.0
141
100.0
290
     0
  0
SCALE
  5
79
102
{ACAD_REACTORS
330
6C
102
}
330
6C
100
AcDbScale
 70
     0
300
2:1
140
2.0
141
1.0
290
     0
  0
SCALE
  5
7A
102
{ACAD_REACTORS
330
6C
102
}
330
6C
100
AcDbScale
 70
     0
300
4:1
140
4.0
141
1.0
290
     0
  0
SCALE
  5
7B
102
{ACAD_REACTORS
330
6C
102
}
330
6C
100
AcDbScale
 70
     0
300
8:1
140
8.0
141
1.0
290
     0
  0
SCALE
  5
7C
102
{ACAD_REACTORS
330
6C
102
}
330
6C
100
AcDbScale
 70
     0
300
10:1
140
10.0
141
1.0
290
     0
  0
SCALE
  5
7D
102
{ACAD_REACTORS
330
6C
102
}
330
6C
100
AcDbScale
 70
     0
300
100:1
140
100.0
141
1.0
290
     0
  0
SCALE
  5
7E
102
{ACAD_REACTORS
330
6C
102
}
330
6C
100
AcDbScale
 70
     0
300
1/128" = 1'-0"
140
0.0078125
141
12.0
290
     0
  0
SCALE
  5
7F
102
{ACAD_REACTORS
330
6C
102
}
330
6C
100
AcDbScale
 70
     0
300
1/64" = 1'-0"
140
0.015625
141
12.0
290
     0
  0
SCALE
  5
80
102
{ACAD_REACTORS
330
6C
102
}
330
6C
100
AcDbScale
 70
     0
300
1/32" = 1'-0"
140
0.03125
141
12.0
290
     0
  0
SCALE
  5
81
102
{ACAD_REACTORS
330
6C
102
}
330
6C
100
AcDbScale
 70
     0
300
1/16" = 1'-0"
140
0.0625
141
12.0
290
     0
  0
SCALE
  5
82
102
{ACAD_REACTORS
330
6C
102
}
330
6C
100
AcDbScale
 70
     0
300
3/32" = 1'-0"
140
0.09375
141
12.0
290
     0
  0
SCALE
  5
83
102
{ACAD_REACTORS
330
6C
102
}
330
6C
100
AcDbScale
 70
     0
300
1/8" = 1'-0"
140
0.125
141
12.0
290
     0
  0
SCALE
  5
84
102
{ACAD_REACTORS
330
6C
102
}
330
6C
100
AcDbScale
 70
     0
300
3/16" = 1'-0"
140
0.1875
141
12.0
290
     0
  0
SCALE
  5
85
102
{ACAD_REACTORS
330
6C
102
}
330
6C
100
AcDbScale
 70
     0
300
1/4" = 1'-0"
140
0.25
141
12.0
290
     0
  0
SCALE
  5
86
102
{ACAD_REACTORS
330
6C
102
}
330
6C
100
AcDbScale
 70
     0
300
3/8" = 1'-0"
140
0.375
141
12.0
290
     0
  0
SCALE
  5
87
102
{ACAD_REACTORS
330
6C
102
}
330
6C
100
AcDbScale
 70
     0
300
1/2" = 1'-0"
140
0.5
141
12.0
290
     0
  0
SCALE
  5
88
102
{ACAD_REACTORS
330
6C
102
}
330
6C
100
AcDbScale
 70
     0
300
3/4" = 1'-0"
140
0.75
141
12.0
290
     0
  0
SCALE
  5
89
102
{ACAD_REACTORS
330
6C
102
}
330
6C
100
AcDbScale
 70
     0
300
1" = 1'-0"
140
1.0
141
12.0
290
     0
  0
SCALE
  5
8A
102
{ACAD_REACTORS
330
6C
102
}
330
6C
100
AcDbScale
 70
     0
300
1-1/2" = 1'-0"
140
1.5
141
12.0
290
     0
  0
SCALE
  5
8B
102
{ACAD_REACTORS
330
6C
102
}
330
6C
100
AcDbScale
 70
     0
300
3" = 1'-0"
140
3.0
141
12.0
290
     0
  0
SCALE
  5
8C
102
{ACAD_REACTORS
330
6C
102
}
330
6C
100
AcDbScale
 70
     0
300
6" = 1'-0"
140
6.0
141
12.0
290
     0
  0
SCALE
  5
8D
102
{ACAD_REACTORS
330
6C
102
}
330
6C
100
AcDbScale
 70
     0
300
1'-0" = 1'-0"
140
12.0
141
12.0
290
     0
  0
DICTIONARYVAR
  5
3C1
102
{ACAD_REACTORS
330
3C0
102
}
330
3C0
100
DictionaryVariables
280
     0
  1
1:1
  0
ENDSEC
  0
EOF
