  0
SECTION
  2
HEADER
  9
$ACADVER
  1
AC1015
  9
$ACADMAINTVER
 70
     6
  9
$DWGCODEPAGE
  3
ANSI_1252
  9
$INSBASE
 10
0.0
 20
0.0
 30
0.0
  9
$EXTMIN
 10
0.0
 20
0.0
 30
0.0
  9
$EXTMAX
 10
11.0
 20
8.5
 30
0.0
  9
$LIMMIN
 10
0.0
 20
0.0
  9
$LIMMAX
 10
0.0
 20
0.0
  9
$ORTHOMODE
 70
     0
  9
$REGENMODE
 70
     1
  9
$FILLMODE
 70
     1
  9
$QTEXTMODE
 70
     0
  9
$MIRRTEXT
 70
     1
  9
$LTSCALE
 40
1.0
  9
$ATTMODE
 70
     1
  9
$TEXTSIZE
 40
0.1388888889
  9
$TRACEWID
 40
0.05
  9
$TEXTSTYLE
  7
Standard
  9
$CLAYER
  8
0
  9
$CELTYPE
  6
ByLayer
  9
$CECOLOR
 62
   256
  9
$CELTSCALE
 40
1.0
  9
$DISPSILH
 70
     0
  9
$DIMSCALE
 40
1.0
  9
$DIMASZ
 40
0.156
  9
$DIMEXO
 40
0.05
  9
$DIMDLI
 40
0.38
  9
$DIMRND
 40
0.0
  9
$DIMDLE
 40
0.0
  9
$DIMEXE
 40
0.125
  9
$DIMTP
 40
0.0
  9
$DIMTM
 40
0.0
  9
$DIMTXT
 40
0.1388888889
  9
$DIMCEN
 40
0.09
  9
$DIMTSZ
 40
0.0
  9
$DIMTOL
 70
     0
  9
$DIMLIM
 70
     0
  9
$DIMTIH
 70
     1
  9
$DIMTOH
 70
     1
  9
$DIMSE1
 70
     0
  9
$DIMSE2
 70
     0
  9
$DIMTAD
 70
     0
  9
$DIMZIN
 70
     0
  9
$DIMBLK
  1

  9
$DIMASO
 70
     1
  9
$DIMSHO
 70
     1
  9
$DIMPOST
  1

  9
$DIMAPOST
  1

  9
$DIMALT
 70
     0
  9
$DIMALTD
 70
     2
  9
$DIMALTF
 40
25.4
  9
$DIMLFAC
 40
0.5
  9
$DIMTOFL
 70
     0
  9
$DIMTVP
 40
0.0
  9
$DIMTIX
 70
     0
  9
$DIMSOXD
 70
     0
  9
$DIMSAH
 70
     0
  9
$DIMBLK1
  1

  9
$DIMBLK2
  1

  9
$DIMSTYLE
  2
Standard
  9
$DIMCLRD
 70
     0
  9
$DIMCLRE
 70
     0
  9
$DIMCLRT
 70
     0
  9
$DIMTFAC
 40
1.0
  9
$DIMGAP
 40
0.06
  9
$DIMJUST
 70
     0
  9
$DIMSD1
 70
     0
  9
$DIMSD2
 70
     0
  9
$DIMTOLJ
 70
     1
  9
$DIMTZIN
 70
     0
  9
$DIMALTZ
 70
     0
  9
$DIMALTTZ
 70
     0
  9
$DIMUPT
 70
     0
  9
$DIMDEC
 70
     4
  9
$DIMTDEC
 70
     4
  9
$DIMALTU
 70
     2
  9
$DIMALTTD
 70
     2
  9
$DIMTXSTY
  7
Standard
  9
$DIMAUNIT
 70
     0
  9
$DIMADEC
 70
     0
  9
$DIMALTRND
 40
0.0
  9
$DIMAZIN
 70
     0
  9
$DIMDSEP
 70
    46
  9
$DIMATFIT
 70
     3
  9
$DIMFRAC
 70
     0
  9
$DIMLDRBLK
  1

  9
$DIMLUNIT
 70
     2
  9
$DIMLWD
 70
    -2
  9
$DIMLWE
 70
    -2
  9
$DIMTMOVE
 70
     0
  9
$LUNITS
 70
     2
  9
$LUPREC
 70
     2
  9
$SKETCHINC
 40
0.1
  9
$FILLETRAD
 40
0.5
  9
$AUNITS
 70
     0
  9
$AUPREC
 70
     0
  9
$MENU
  1
.
  9
$ELEVATION
 40
0.0
  9
$PELEVATION
 40
0.0
  9
$THICKNESS
 40
0.0
  9
$LIMCHECK
 70
     0
  9
$CHAMFERA
 40
0.5
  9
$CHAMFERB
 40
0.5
  9
$CHAMFERC
 40
1.0
  9
$CHAMFERD
 40
0.0
  9
$SKPOLY
 70
     0
  9
$TDCREATE
 40
2454805.30912419
  9
$TDUCREATE
 40
2454805.517457523
  9
$TDUPDATE
 40
2454805.309124202
  9
$TDUUPDATE
 40
2454805.517457535
  9
$TDINDWG
 40
0.0000000116
  9
$TDUSRTIMER
 40
0.0000000116
  9
$USRTIMER
 70
     1
  9
$ANGBASE
 50
0.0
  9
$ANGDIR
 70
     0
  9
$PDMODE
 70
     0
  9
$PDSIZE
 40
-1.0
  9
$PLINEWID
 40
0.0
  9
$SPLFRAME
 70
     0
  9
$SPLINETYPE
 70
     6
  9
$SPLINESEGS
 70
     8
  9
$HANDSEED
  5
473
  9
$SURFTAB1
 70
     6
  9
$SURFTAB2
 70
     6
  9
$SURFTYPE
 70
     6
  9
$SURFU
 70
     6
  9
$SURFV
 70
     6
  9
$UCSBASE
  2

  9
$UCSNAME
  2

  9
$UCSORG
 10
0.0
 20
0.0
 30
0.0
  9
$UCSXDIR
 10
1.0
 20
0.0
 30
0.0
  9
$UCSYDIR
 10
0.0
 20
1.0
 30
0.0
  9
$UCSORTHOREF
  2

  9
$UCSORTHOVIEW
 70
     0
  9
$UCSORGTOP
 10
0.0
 20
0.0
 30
0.0
  9
$UCSORGBOTTOM
 10
0.0
 20
0.0
 30
0.0
  9
$UCSORGLEFT
 10
0.0
 20
0.0
 30
0.0
  9
$UCSORGRIGHT
 10
0.0
 20
0.0
 30
0.0
  9
$UCSORGFRONT
 10
0.0
 20
0.0
 30
0.0
  9
$UCSORGBACK
 10
0.0
 20
0.0
 30
0.0
  9
$PUCSBASE
  2

  9
$PUCSNAME
  2

  9
$PUCSORG
 10
0.0
 20
0.0
 30
0.0
  9
$PUCSXDIR
 10
1.0
 20
0.0
 30
0.0
  9
$PUCSYDIR
 10
0.0
 20
1.0
 30
0.0
  9
$PUCSORTHOREF
  2

  9
$PUCSORTHOVIEW
 70
     0
  9
$PUCSORGTOP
 10
0.0
 20
0.0
 30
0.0
  9
$PUCSORGBOTTOM
 10
0.0
 20
0.0
 30
0.0
  9
$PUCSORGLEFT
 10
0.0
 20
0.0
 30
0.0
  9
$PUCSORGRIGHT
 10
0.0
 20
0.0
 30
0.0
  9
$PUCSORGFRONT
 10
0.0
 20
0.0
 30
0.0
  9
$PUCSORGBACK
 10
0.0
 20
0.0
 30
0.0
  9
$USERI1
 70
     0
  9
$USERI2
 70
     0
  9
$USERI3
 70
     0
  9
$USERI4
 70
     0
  9
$USERI5
 70
     0
  9
$USERR1
 40
0.0
  9
$USERR2
 40
0.0
  9
$USERR3
 40
0.0
  9
$USERR4
 40
0.0
  9
$USERR5
 40
0.0
  9
$WORLDVIEW
 70
     1
  9
$SHADEDGE
 70
     3
  9
$SHADEDIF
 70
    70
  9
$TILEMODE
 70
     1
  9
$MAXACTVP
 70
    64
  9
$PINSBASE
 10
0.0
 20
0.0
 30
0.0
  9
$PLIMCHECK
 70
     0
  9
$PEXTMIN
 10
1.0000000000E+20
 20
1.0000000000E+20
 30
1.0000000000E+20
  9
$PEXTMAX
 10
-1.0000000000E+20
 20
-1.0000000000E+20
 30
-1.0000000000E+20
  9
$PLIMMIN
 10
0.0
 20
0.0
  9
$PLIMMAX
 10
12.0
 20
9.0
  9
$UNITMODE
 70
     0
  9
$VISRETAIN
 70
     1
  9
$PLINEGEN
 70
     0
  9
$PSLTSCALE
 70
     1
  9
$TREEDEPTH
 70
  3020
  9
$CMLSTYLE
  2
Standard
  9
$CMLJUST
 70
     0
  9
$CMLSCALE
 40
1.0
  9
$PROXYGRAPHICS
 70
     1
  9
$MEASUREMENT
 70
     0
  9
$CELWEIGHT
370
    -1
  9
$ENDCAPS
280
     0
  9
$JOINSTYLE
280
     0
  9
$LWDISPLAY
290
     1
  9
$INSUNITS
 70
     1
  9
$HYPERLINKBASE
  1

  9
$STYLESHEET
  1

  9
$XEDIT
290
     1
  9
$CEPSNTYPE
380
     0
  9
$PSTYLEMODE
290
     1
  9
$FINGERPRINTGUID
  2
{AC5871FC-9242-46DE-92CD-4D985AA67445}
  9
$VERSIONGUID
  2
{FAEB1C32-E019-11D5-929B-00C0DF256EC4}
  9
$EXTNAMES
290
     1
  9
$PSVPSCALE
 40
0.0
  9
$OLESTARTUP
290
     0
  0
ENDSEC
  0
SECTION
  2
CLASSES
  0
CLASS
  1
ACDBDICTIONARYWDFLT
  2
AcDbDictionaryWithDefault
  3
ObjectDBX Classes
 90
        0
280
     0
281
     0
  0
CLASS
  1
ACDBPLACEHOLDER
  2
AcDbPlaceHolder
  3
ObjectDBX Classes
 90
        0
280
     0
281
     0
  0
CLASS
  1
LAYOUT
  2
AcDbLayout
  3
ObjectDBX Classes
 90
        0
280
     0
281
     0
  0
ENDSEC
  0
SECTION
  2
TABLES
  0
TABLE
  2
VPORT
  5
8
330
0
100
AcDbSymbolTable
 70
     1
  0
VPORT
  5
29
330
8
100
AcDbSymbolTableRecord
100
AcDbViewportTableRecord
  2
*Active
 70
     0
 10
0.0
 20
0.0
 11
1.0
 21
1.0
 12
5.5
 22
4.25
 13
0.0
 23
0.0
 14
0.5
 24
0.5
 15
0.5
 25
0.5
 16
0.0
 26
0.0
 36
1.0
 17
0.0
 27
0.0
 37
0.0
 40
8.5
 41
1.2941176471
 42
50.0
 43
0.0
 44
0.0
 50
0.0
 51
0.0
 71
     0
 72
  2000
 73
     1
 74
     3
 75
     0
 76
     0
 77
     0
 78
     0
281
     0
 65
     1
110
0.0
120
0.0
130
0.0
111
1.0
121
0.0
131
0.0
112
0.0
122
1.0
132
0.0
 79
     0
146
0.0
  0
ENDTAB
  0
TABLE
  2
LTYPE
  5
5
330
0
100
AcDbSymbolTable
 70
     6
  0
LTYPE
  5
14
330
5
100
AcDbSymbolTableRecord
100
AcDbLinetypeTableRecord
  2
ByBlock
 70
     0
  3

 72
    65
 73
     0
 40
0.0
  0
LTYPE
  5
15
330
5
100
AcDbSymbolTableRecord
100
AcDbLinetypeTableRecord
  2
ByLayer
 70
     0
  3

 72
    65
 73
     0
 40
0.0
  0
LTYPE
  5
16
330
5
100
AcDbSymbolTableRecord
100
AcDbLinetypeTableRecord
  2
Continuous
 70
     0
  3
Solid line
 72
    65
 73
     0
 40
0.0
  0
LTYPE
  5
2A
330
5
100
AcDbSymbolTableRecord
100
AcDbLinetypeTableRecord
  2
HIDDEN
 70
     0
  3
Hidden __ __ __ __ __ __ __ __ __ __ __ __ __ __
 72
    65
 73
     2
 40
0.075
 49
0.05
 74
     0
 49
-0.025
 74
     0
  0
LTYPE
  5
2B
330
5
100
AcDbSymbolTableRecord
100
AcDbLinetypeTableRecord
  2
PHANTOM
 70
     0
  3
Phantom ______  __  __  ______  __  __  ______
 72
    65
 73
     6
 40
0.5
 49
0.25
 74
     0
 49
-0.05
 74
     0
 49
0.05
 74
     0
 49
-0.05
 74
     0
 49
0.05
 74
     0
 49
-0.05
 74
     0
  0
LTYPE
  5
2C
330
5
100
AcDbSymbolTableRecord
100
AcDbLinetypeTableRecord
  2
CENTER
 70
     0
  3
Center ____ _ ____ _ ____ _ ____ _ ____ _ ____
 72
    65
 73
     4
 40
0.4
 49
0.25
 74
     0
 49
-0.05
 74
     0
 49
0.05
 74
     0
 49
-0.05
 74
     0
  0
LTYPE
  5
2D
330
5
100
AcDbSymbolTableRecord
100
AcDbLinetypeTableRecord
  2
CENTERX2
 70
     0
  3
Center (2x) ________  __  ________  __  _____
 72
    65
 73
     4
 40
0.8
 49
0.5
 74
     0
 49
-0.1
 74
     0
 49
0.1
 74
     0
 49
-0.1
 74
     0
  0
LTYPE
  5
2E
330
5
100
AcDbSymbolTableRecord
100
AcDbLinetypeTableRecord
  2
DOT2
 70
     0
  3
Dot (.5x) ........................................
 72
    65
 73
     2
 40
0.025
 49
0.0
 74
     0
 49
-0.025
 74
     0
  0
ENDTAB
  0
TABLE
  2
LAYER
  5
2
330
0
100
AcDbSymbolTable
 70
     2
  0
LAYER
  5
10
330
2
100
AcDbSymbolTableRecord
100
AcDbLayerTableRecord
  2
0
 70
     0
 62
     7
  6
Continuous
370
    -3
390
F
  0
LAYER
  5
2F
330
2
100
AcDbSymbolTableRecord
100
AcDbLayerTableRecord
  2
FORMAT
 70
     0
 62
     7
  6
Continuous
370
    -3
390
F
  0
ENDTAB
  0
TABLE
  2
STYLE
  5
3
330
0
100
AcDbSymbolTable
 70
    21
  0
STYLE
  5
11
330
3
100
AcDbSymbolTableRecord
100
AcDbTextStyleTableRecord
  2
Standard
 70
     0
 40
0.0
 41
1.0
 50
0.0
 71
     0
 42
0.2
  3
txt
  4

  0
STYLE
  5
4D
330
3
100
AcDbSymbolTableRecord
100
AcDbTextStyleTableRecord
  2
SLDTEXTSTYLE0
 70
     0
 40
0.0
 41
0.75
 50
0.0
 71
     0
 42
0.2
  3
TXT
  4

  0
STYLE
  5
56
330
3
100
AcDbSymbolTableRecord
100
AcDbTextStyleTableRecord
  2
SLDTEXTSTYLE1
 70
     0
 40
0.0
 41
0.6428571429
 50
0.0
 71
     0
 42
0.2
  3
TXT
  4

  0
STYLE
  5
58
330
3
100
AcDbSymbolTableRecord
100
AcDbTextStyleTableRecord
  2
SLDTEXTSTYLE2
 70
     0
 40
0.0
 41
0.7211538462
 50
0.0
 71
     0
 42
0.2
  3
TXT
  4

  0
STYLE
  5
63
330
3
100
AcDbSymbolTableRecord
100
AcDbTextStyleTableRecord
  2
SLDTEXTSTYLE3
 70
     0
 40
0.0
 41
0.6375
 50
0.0
 71
     0
 42
0.2
  3
TXT
  4

  0
STYLE
  5
69
330
3
100
AcDbSymbolTableRecord
100
AcDbTextStyleTableRecord
  2
SLDTEXTSTYLE4
 70
     0
 40
0.0
 41
0.7016129032
 50
0.0
 71
     0
 42
0.2
  3
TXT
  4

  0
STYLE
  5
6B
330
3
100
AcDbSymbolTableRecord
100
AcDbTextStyleTableRecord
  2
SLDTEXTSTYLE5
 70
     0
 40
0.0
 41
0.6853448276
 50
0.0
 71
     0
 42
0.2
  3
TXT
  4

  0
STYLE
  5
6D
330
3
100
AcDbSymbolTableRecord
100
AcDbTextStyleTableRecord
  2
SLDTEXTSTYLE6
 70
     0
 40
0.0
 41
0.689516129
 50
0.0
 71
     0
 42
0.2
  3
TXT
  4

  0
STYLE
  5
6F
330
3
100
AcDbSymbolTableRecord
100
AcDbTextStyleTableRecord
  2
SLDTEXTSTYLE7
 70
     0
 40
0.0
 41
0.6666666667
 50
0.0
 71
     0
 42
0.2
  3
TXT
  4

  0
STYLE
  5
71
330
3
100
AcDbSymbolTableRecord
100
AcDbTextStyleTableRecord
  2
SLDTEXTSTYLE8
 70
     0
 40
0.0
 41
0.7010869565
 50
0.0
 71
     0
 42
0.2
  3
TXT
  4

  0
STYLE
  5
73
330
3
100
AcDbSymbolTableRecord
100
AcDbTextStyleTableRecord
  2
SLDTEXTSTYLE9
 70
     0
 40
0.0
 41
0.7083333333
 50
0.0
 71
     0
 42
0.2
  3
TXT
  4

  0
STYLE
  5
82
330
3
100
AcDbSymbolTableRecord
100
AcDbTextStyleTableRecord
  2
SLDTEXTSTYLE10
 70
     0
 40
0.0
 41
0.65625
 50
0.0
 71
     0
 42
0.2
  3
TXT
  4

  0
STYLE
  5
89
330
3
100
AcDbSymbolTableRecord
100
AcDbTextStyleTableRecord
  2
SLDTEXTSTYLE11
 70
     0
 40
0.0
 41
0.7142857143
 50
0.0
 71
     0
 42
0.2
  3
TXT
  4

  0
STYLE
  5
92
330
3
100
AcDbSymbolTableRecord
100
AcDbTextStyleTableRecord
  2
SLDTEXTSTYLE12
 70
     0
 40
0.0
 41
0.69375
 50
0.0
 71
     0
 42
0.2
  3
TXT
  4

  0
STYLE
  5
94
330
3
100
AcDbSymbolTableRecord
100
AcDbTextStyleTableRecord
  2
SLDTEXTSTYLE13
 70
     0
 40
0.0
 41
0.6988636364
 50
0.0
 71
     0
 42
0.2
  3
TXT
  4

  0
STYLE
  5
96
330
3
100
AcDbSymbolTableRecord
100
AcDbTextStyleTableRecord
  2
SLDTEXTSTYLE14
 70
     0
 40
0.0
 41
0.7115384615
 50
0.0
 71
     0
 42
0.2
  3
TXT
  4

  0
STYLE
  5
99
330
3
100
AcDbSymbolTableRecord
100
AcDbTextStyleTableRecord
  2
SLDTEXTSTYLE15
 70
     0
 40
0.0
 41
0.6796875
 50
0.0
 71
     0
 42
0.2
  3
TXT
  4

  0
STYLE
  5
A3
330
3
100
AcDbSymbolTableRecord
100
AcDbTextStyleTableRecord
  2
SLDTEXTSTYLE16
 70
     0
 40
0.0
 41
0.6995192308
 50
0.0
 71
     0
 42
0.2
  3
TXT
  4

  0
STYLE
  5
437
330
3
100
AcDbSymbolTableRecord
100
AcDbTextStyleTableRecord
  2
SLDTEXTSTYLE17
 70
     0
 40
0.0
 41
0.675
 50
0.0
 71
     0
 42
0.2
  3
TXT
  4

  0
STYLE
  5
439
330
3
100
AcDbSymbolTableRecord
100
AcDbTextStyleTableRecord
  2
SLDTEXTSTYLE18
 70
     0
 40
0.0
 41
0.625
 50
0.0
 71
     0
 42
0.2
  3
TXT
  4

  0
STYLE
  5
43F
330
3
100
AcDbSymbolTableRecord
100
AcDbTextStyleTableRecord
  2
SLDTEXTSTYLE19
 70
     0
 40
0.0
 41
0.6875
 50
0.0
 71
     0
 42
0.2
  3
TXT
  4

  0
ENDTAB
  0
TABLE
  2
VIEW
  5
6
330
0
100
AcDbSymbolTable
 70
     0
  0
ENDTAB
  0
TABLE
  2
UCS
  5
7
330
0
100
AcDbSymbolTable
 70
     0
  0
ENDTAB
  0
TABLE
  2
APPID
  5
9
330
0
100
AcDbSymbolTable
 70
     1
  0
APPID
  5
12
330
9
100
AcDbSymbolTableRecord
100
AcDbRegAppTableRecord
  2
ACAD
 70
     0
  0
ENDTAB
  0
TABLE
  2
DIMSTYLE
  5
A
330
0
100
AcDbSymbolTable
 70
     6
100
AcDbDimStyleTable
  0
DIMSTYLE
105
27
330
A
100
AcDbSymbolTableRecord
100
AcDbDimStyleTableRecord
  2
Standard
 70
     0
340
11
  0
DIMSTYLE
105
D6
102
{ACAD_REACTORS
330
D5
102
}
330
A
100
AcDbSymbolTableRecord
100
AcDbDimStyleTableRecord
  2
SLDDIMSTYLE0
 70
     0
 41
0.156
 44
0.0
 78
     4
140
0.1041666667
147
0.0260416667
170
     1
172
     1
173
     1
271
     3
272
     3
284
    12
340
4D
  0
DIMSTYLE
105
3B4
102
{ACAD_REACTORS
330
3B3
330
3C6
330
3D8
330
3EA
102
}
330
A
100
AcDbSymbolTableRecord
100
AcDbDimStyleTableRecord
  2
SLDDIMSTYLE1
 70
     0
 41
0.156
 44
0.0
 78
    12
140
0.1041666667
147
0.0260416667
170
     1
173
     1
271
     2
272
     2
284
    12
340
4D
  0
DIMSTYLE
105
3FD
102
{ACAD_REACTORS
330
3FC
102
}
330
A
100
AcDbSymbolTableRecord
100
AcDbDimStyleTableRecord
  2
SLDDIMSTYLE2
 70
     0
 41
0.156
 44
0.0
 78
     4
140
0.1041666667
147
0.0260416667
170
     1
173
     1
271
     3
272
     3
284
    12
340
4D
  0
DIMSTYLE
105
410
102
{ACAD_REACTORS
330
40F
330
422
102
}
330
A
100
AcDbSymbolTableRecord
100
AcDbDimStyleTableRecord
  2
SLDDIMSTYLE3
 70
     0
 41
0.156
 44
0.0
 78
     8
140
0.1041666667
147
0.0260416667
170
     1
173
     1
271
     2
272
     2
284
    12
340
4D
  0
DIMSTYLE
105
443
330
A
100
AcDbSymbolTableRecord
100
AcDbDimStyleTableRecord
  2
SLDDIMSTYLE4
 70
     0
 41
0.156
 44
0.0
140
0.156
147
0.039
173
     1
271
     0
272
     0
340
11
  0
ENDTAB
  0
TABLE
  2
BLOCK_RECORD
  5
1
330
0
100
AcDbSymbolTable
 70
    22
  0
BLOCK_RECORD
  5
1F
330
1
100
AcDbSymbolTableRecord
100
AcDbBlockTableRecord
  2
*Model_Space
340
22
  0
BLOCK_RECORD
  5
1B
330
1
100
AcDbSymbolTableRecord
100
AcDbBlockTableRecord
  2
*Paper_Space
340
1E
  0
BLOCK_RECORD
  5
23
330
1
100
AcDbSymbolTableRecord
100
AcDbBlockTableRecord
  2
*Paper_Space0
340
26
  0
BLOCK_RECORD
  5
66
330
1
100
AcDbSymbolTableRecord
100
AcDbBlockTableRecord
  2
SW_NOTE_0
340
0
102
{BLKREFS
331
75
102
}
1001
ACAD
1000
DesignCenter Data
1002
{
1070
     1
1070
     0
1002
}
  0
BLOCK_RECORD
  5
7F
330
1
100
AcDbSymbolTableRecord
100
AcDbBlockTableRecord
  2
SW_NOTE_1
340
0
102
{BLKREFS
331
85
102
}
1001
ACAD
1000
DesignCenter Data
1002
{
1070
     1
1070
     0
1002
}
  0
BLOCK_RECORD
  5
86
330
1
100
AcDbSymbolTableRecord
100
AcDbBlockTableRecord
  2
SW_NOTE_2
340
0
102
{BLKREFS
331
8C
102
}
1001
ACAD
1000
DesignCenter Data
1002
{
1070
     1
1070
     0
1002
}
  0
BLOCK_RECORD
  5
8E
330
1
100
AcDbSymbolTableRecord
100
AcDbBlockTableRecord
  2
SW_NOTE_3
340
0
102
{BLKREFS
331
9D
102
}
1001
ACAD
1000
DesignCenter Data
1002
{
1070
     1
1070
     0
1002
}
  0
BLOCK_RECORD
  5
9F
330
1
100
AcDbSymbolTableRecord
100
AcDbBlockTableRecord
  2
SW_NOTE_4
340
0
102
{BLKREFS
331
A5
102
}
1001
ACAD
1000
DesignCenter Data
1002
{
1070
     1
1070
     0
1002
}
  0
BLOCK_RECORD
  5
A6
330
1
100
AcDbSymbolTableRecord
100
AcDbBlockTableRecord
  2
SW_TABLEANNOTATION_0
340
0
102
{BLKREFS
331
C2
102
}
1001
ACAD
1000
DesignCenter Data
1002
{
1070
     1
1070
     0
1002
}
  0
BLOCK_RECORD
  5
D7
330
1
100
AcDbSymbolTableRecord
100
AcDbBlockTableRecord
  2
*D7
340
0
  0
BLOCK_RECORD
  5
3B5
330
1
100
AcDbSymbolTableRecord
100
AcDbBlockTableRecord
  2
*D8
340
0
  0
BLOCK_RECORD
  5
3C7
330
1
100
AcDbSymbolTableRecord
100
AcDbBlockTableRecord
  2
*D9
340
0
  0
BLOCK_RECORD
  5
3D9
330
1
100
AcDbSymbolTableRecord
100
AcDbBlockTableRecord
  2
*D10
340
0
  0
BLOCK_RECORD
  5
3EB
330
1
100
AcDbSymbolTableRecord
100
AcDbBlockTableRecord
  2
*D11
340
0
  0
BLOCK_RECORD
  5
3FE
330
1
100
AcDbSymbolTableRecord
100
AcDbBlockTableRecord
  2
*D12
340
0
  0
BLOCK_RECORD
  5
411
330
1
100
AcDbSymbolTableRecord
100
AcDbBlockTableRecord
  2
*D13
340
0
  0
BLOCK_RECORD
  5
423
330
1
100
AcDbSymbolTableRecord
100
AcDbBlockTableRecord
  2
*D14
340
0
  0
BLOCK_RECORD
  5
434
330
1
100
AcDbSymbolTableRecord
100
AcDbBlockTableRecord
  2
SW_NOTE_5
340
0
102
{BLKREFS
331
43B
102
}
1001
ACAD
1000
DesignCenter Data
1002
{
1070
     1
1070
     0
1002
}
  0
BLOCK_RECORD
  5
43C
330
1
100
AcDbSymbolTableRecord
100
AcDbBlockTableRecord
  2
SW_NOTE_6
340
0
102
{BLKREFS
331
442
102
}
1001
ACAD
1000
DesignCenter Data
1002
{
1070
     1
1070
     0
1002
}
  0
BLOCK_RECORD
  5
446
330
1
100
AcDbSymbolTableRecord
100
AcDbBlockTableRecord
  2
SW_NOTE_7
340
0
102
{BLKREFS
331
44B
102
}
1001
ACAD
1000
DesignCenter Data
1002
{
1070
     1
1070
     0
1002
}
  0
BLOCK_RECORD
  5
44D
330
1
100
AcDbSymbolTableRecord
100
AcDbBlockTableRecord
  2
SW_NOTE_8
340
0
102
{BLKREFS
331
452
102
}
1001
ACAD
1000
DesignCenter Data
1002
{
1070
     1
1070
     0
1002
}
  0
BLOCK_RECORD
  5
454
330
1
100
AcDbSymbolTableRecord
100
AcDbBlockTableRecord
  2
SW_NOTE_9
340
0
102
{BLKREFS
331
459
102
}
1001
ACAD
1000
DesignCenter Data
1002
{
1070
     1
1070
     0
1002
}
  0
BLOCK_RECORD
  5
45B
330
1
100
AcDbSymbolTableRecord
100
AcDbBlockTableRecord
  2
SW_NOTE_10
340
0
102
{BLKREFS
331
460
102
}
1001
ACAD
1000
DesignCenter Data
1002
{
1070
     1
1070
     0
1002
}
  0
BLOCK_RECORD
  5
462
330
1
100
AcDbSymbolTableRecord
100
AcDbBlockTableRecord
  2
SW_NOTE_11
340
0
102
{BLKREFS
331
467
102
}
1001
ACAD
1000
DesignCenter Data
1002
{
1070
     1
1070
     0
1002
}
  0
ENDTAB
  0
ENDSEC
  0
SECTION
  2
BLOCKS
  0
BLOCK
  5
20
330
1F
100
AcDbEntity
  8
0
100
AcDbBlockBegin
  2
*Model_Space
 70
     0
 71
     0
 10
0.0
 20
0.0
 30
0.0
  3
*Model_Space
  1

  0
ENDBLK
  5
21
330
1F
100
AcDbEntity
  8
0
100
AcDbBlockEnd
  0
BLOCK
  5
1C
330
1B
100
AcDbEntity
 67
     1
  8
0
100
AcDbBlockBegin
  2
*Paper_Space
 70
     0
 71
     0
 10
0.0
 20
0.0
 30
0.0
  3
*Paper_Space
  1

  0
ENDBLK
  5
1D
330
1B
100
AcDbEntity
 67
     1
  8
0
100
AcDbBlockEnd
  0
BLOCK
  5
24
330
23
100
AcDbEntity
  8
0
100
AcDbBlockBegin
  2
*Paper_Space0
 70
     0
 71
     0
 10
0.0
 20
0.0
 30
0.0
  3
*Paper_Space0
  1

  0
ENDBLK
  5
25
330
23
100
AcDbEntity
  8
0
100
AcDbBlockEnd
  0
BLOCK
  5
67
330
66
100
AcDbEntity
  8
0
100
AcDbBlockBegin
  2
SW_NOTE_0
 70
     0
 71
     0
 10
0.0
 20
0.0
 30
0.0
  3
SW_NOTE_0
  1

  0
MTEXT
  5
6A
330
66
100
AcDbEntity
  8
0
  6
Continuous
 62
     0
370
     0
100
AcDbMText
 10
0.0
 20
0.076640625
 30
0.0
 40
0.06
 41
0.0
 71
     1
 72
     1
  1
THE INFORMATION CONTAINED IN THIS
  7
SLDTEXTSTYLE4
 73
     1
 44
1.0
  0
MTEXT
  5
6C
330
66
100
AcDbEntity
  8
0
  6
Continuous
 62
     0
370
     0
100
AcDbMText
 10
0.0
 20
-0.0227294496
 30
0.0
 40
0.06
 41
0.0
 71
     1
 72
     1
  1
DRAWING IS THE SOLE PROPERTY OF
  7
SLDTEXTSTYLE5
 73
     1
 44
1.0
  0
MTEXT
  5
6E
330
66
100
AcDbEntity
  8
0
  6
Continuous
 62
     0
370
     0
100
AcDbMText
 10
0.0
 20
-0.1220995241
 30
0.0
 40
0.06
 41
0.0
 71
     1
 72
     1
  1
THORLABS, INC.  ANY REPRODUCTION 
  7
SLDTEXTSTYLE6
 73
     1
 44
1.0
  0
MTEXT
  5
70
330
66
100
AcDbEntity
  8
0
  6
Continuous
 62
     0
370
     0
100
AcDbMText
 10
0.0
 20
-0.2214695987
 30
0.0
 40
0.06
 41
0.0
 71
     1
 72
     1
  1
IN PART OR AS A WHOLE WITHOUT
  7
SLDTEXTSTYLE7
 73
     1
 44
1.0
  0
MTEXT
  5
72
330
66
100
AcDbEntity
  8
0
  6
Continuous
 62
     0
370
     0
100
AcDbMText
 10
0.0
 20
-0.3208396733
 30
0.0
 40
0.06
 41
0.0
 71
     1
 72
     1
  1
THE WRITTEN PERMISSION OF
  7
SLDTEXTSTYLE8
 73
     1
 44
1.0
  0
MTEXT
  5
74
330
66
100
AcDbEntity
  8
0
  6
Continuous
 62
     0
370
     0
100
AcDbMText
 10
0.0
 20
-0.4202097478
 30
0.0
 40
0.06
 41
0.0
 71
     1
 72
     1
  1
THORLABS, INC. IS PROHIBITED.
  7
SLDTEXTSTYLE9
 73
     1
 44
1.0
  0
ENDBLK
  5
68
330
66
100
AcDbEntity
  8
0
100
AcDbBlockEnd
  0
BLOCK
  5
80
330
7F
100
AcDbEntity
  8
0
100
AcDbBlockBegin
  2
SW_NOTE_1
 70
     0
 71
     0
 10
0.0
 20
0.0
 30
0.0
  3
SW_NOTE_1
  1

  0
MTEXT
  5
83
330
7F
100
AcDbEntity
  8
0
  6
Continuous
 62
     0
370
     0
100
AcDbMText
 10
0.0
 20
0.1330566406
 30
0.0
 40
0.1041666667
 41
0.0
 71
     1
 72
     1
  1
PO BOX 366
  7
SLDTEXTSTYLE10
 73
     1
 44
1.0
  0
MTEXT
  5
84
330
7F
100
AcDbEntity
  8
0
  6
Continuous
 62
     0
370
     0
100
AcDbMText
 10
0.0
 20
-0.0058322466
 30
0.0
 40
0.1041666667
 41
0.0
 71
     1
 72
     1
  1
NEWTON NJ
  7
SLDTEXTSTYLE0
 73
     1
 44
1.0
  0
ENDBLK
  5
81
330
7F
100
AcDbEntity
  8
0
100
AcDbBlockEnd
  0
BLOCK
  5
87
330
86
100
AcDbEntity
  8
0
100
AcDbBlockBegin
  2
SW_NOTE_2
 70
     0
 71
     0
 10
0.0
 20
0.0
 30
0.0
  3
SW_NOTE_2
  1

  0
MTEXT
  5
8A
330
86
100
AcDbEntity
  8
0
  6
Continuous
 62
     0
370
     0
100
AcDbMText
 10
0.0
 20
0.1463623047
 30
0.0
 40
0.1145833333
 41
0.0
 71
     1
 72
     1
  1
MATCHED ACHROMATIC PAIR
  7
SLDTEXTSTYLE11
 73
     1
 44
1.0
  0
MTEXT
  5
8B
330
86
100
AcDbEntity
  8
0
  6
Continuous
 62
     0
370
     0
100
AcDbMText
 10
0.0
 20
-0.0064154712
 30
0.0
 40
0.1145833333
 41
0.0
 71
     1
 72
     1
  1
F1=75mm, F2=100mm
  7
SLDTEXTSTYLE0
 73
     1
 44
1.0
  0
ENDBLK
  5
88
330
86
100
AcDbEntity
  8
0
100
AcDbBlockEnd
  0
BLOCK
  5
8F
330
8E
100
AcDbEntity
  8
0
100
AcDbBlockBegin
  2
SW_NOTE_3
 70
     0
 71
     0
 10
0.0
 20
0.0
 30
0.0
  3
SW_NOTE_3
  1

  0
LINE
  5
91
330
8E
100
AcDbEntity
  8
0
  6
Continuous
 62
     0
370
     0
100
AcDbLine
 10
1.0817708433
 20
-0.6526041506
 30
0.0
 11
1.4039930543
 21
-0.6526041506
 31
0.0
  0
MTEXT
  5
93
330
8E
100
AcDbEntity
  8
0
  6
Continuous
 62
     0
370
     0
100
AcDbMText
 10
0.0
 20
0.1197509766
 30
0.0
 40
0.09375
 41
0.0
 71
     1
 72
     1
  1
DESIGN WAVELENGTH:  486.1, 587.6 & 656.3nm
  7
SLDTEXTSTYLE12
 73
     1
 44
1.0
  0
MTEXT
  5
95
330
8E
100
AcDbEntity
  8
0
  6
Continuous
 62
     0
370
     0
100
AcDbMText
 10
0.0
 20
-0.0052490219
 30
0.0
 40
0.09375
 41
0.0
 71
     1
 72
     1
  1
COATING:  BBAR 400-700nm
  7
SLDTEXTSTYLE13
 73
     1
 44
1.0
  0
MTEXT
  5
97
330
8E
100
AcDbEntity
  8
0
  6
Continuous
 62
     0
370
     0
100
AcDbMText
 10
0.0
 20
-0.1302490204
 30
0.0
 40
0.09375
 41
0.0
 71
     1
 72
     1
  1
COATING RANGE: R(AVG)<0.5% FROM 400-700nm
  7
SLDTEXTSTYLE14
 73
     1
 44
1.0
  0
MTEXT
  5
98
330
8E
100
AcDbEntity
  8
0
  6
Continuous
 62
     0
370
     0
100
AcDbMText
 10
0.0
 20
-0.2552490189
 30
0.0
 40
0.09375
 41
0.0
 71
     1
 72
     1
  1
MAGNIFICATION: 1:1.33
  7
SLDTEXTSTYLE0
 73
     1
 44
1.0
  0
MTEXT
  5
9A
330
8E
100
AcDbEntity
  8
0
  6
Continuous
 62
     0
370
     0
100
AcDbMText
 10
0.0
 20
-0.6091552547
 30
0.0
 40
0.09375
 41
0.0
 71
     1
 72
     1
  1
Dimensions are in 
  7
SLDTEXTSTYLE15
 73
     1
 44
1.0
  0
MTEXT
  5
9B
330
8E
100
AcDbEntity
  8
0
  6
Continuous
 62
     0
370
     0
100
AcDbMText
 10
1.0817708433
 20
-0.5052490159
 30
0.0
 40
0.09375
 41
0.0
 71
     1
 72
     1
  1
[mm]
  7
SLDTEXTSTYLE0
 73
     1
 44
1.0
  0
MTEXT
  5
9C
330
8E
100
AcDbEntity
  8
0
  6
Continuous
 62
     0
370
     0
100
AcDbMText
 10
1.1922743109
 20
-0.6854573399
 30
0.0
 40
0.09375
 41
0.0
 71
     1
 72
     1
  1
in
  7
SLDTEXTSTYLE0
 73
     1
 44
1.0
  0
ENDBLK
  5
90
330
8E
100
AcDbEntity
  8
0
100
AcDbBlockEnd
  0
BLOCK
  5
A0
330
9F
100
AcDbEntity
  8
0
100
AcDbBlockBegin
  2
SW_NOTE_4
 70
     0
 71
     0
 10
0.0
 20
0.0
 30
0.0
  3
SW_NOTE_4
  1

  0
MTEXT
  5
A2
330
9F
100
AcDbEntity
  8
0
  6
Continuous
 62
     0
370
     0
100
AcDbMText
 10
0.0
 20
0.1149609375
 30
0.0
 40
0.09
 41
0.0
 71
     1
 72
     1
  1
NOTE:
  7
SLDTEXTSTYLE0
 73
     1
 44
1.0
  0
MTEXT
  5
A4
330
9F
100
AcDbEntity
  8
0
  6
Continuous
 62
     0
370
     0
100
AcDbMText
 10
0.0
 20
-0.0144091455
 30
0.0
 40
0.09
 41
0.0
 71
     1
 72
     1
  1
FOR INFORMATION ONLY.  NOT INTENDED FOR MANUFACTURING.
  7
SLDTEXTSTYLE16
 73
     1
 44
1.0
  0
ENDBLK
  5
A1
330
9F
100
AcDbEntity
  8
0
100
AcDbBlockEnd
  0
BLOCK
  5
A7
330
A6
100
AcDbEntity
  8
0
100
AcDbBlockBegin
  2
SW_TABLEANNOTATION_0
 70
     0
 71
     0
 10
0.0
 20
0.0
 30
0.0
  3
SW_TABLEANNOTATION_0
  1

  0
LINE
  5
A9
330
A6
100
AcDbEntity
  8
0
  6
Continuous
 62
     0
370
     0
100
AcDbLine
 10
0.0
 20
0.0
 30
0.0
 11
0.0
 21
-1.0877351438
 31
0.0
  0
LINE
  5
AA
330
A6
100
AcDbEntity
  8
0
  6
Continuous
 62
     0
370
     0
100
AcDbLine
 10
0.0
 20
-1.0877351438
 30
0.0
 11
5.3007222216
 21
-1.0877351438
 31
0.0
  0
LINE
  5
AB
330
A6
100
AcDbEntity
  8
0
  6
Continuous
 62
     0
370
     0
100
AcDbLine
 10
5.3007222216
 20
-1.0877351438
 30
0.0
 11
5.3007222216
 21
0.0
 31
0.0
  0
LINE
  5
AC
330
A6
100
AcDbEntity
  8
0
  6
Continuous
 62
     0
370
     0
100
AcDbLine
 10
5.3007222216
 20
0.0
 30
0.0
 11
0.0
 21
0.0
 31
0.0
  0
LINE
  5
AD
330
A6
100
AcDbEntity
  8
0
  6
Continuous
 62
     0
370
     0
100
AcDbLine
 10
1.7669074072
 20
0.0
 30
0.0
 11
1.7669074072
 21
-1.0877351438
 31
0.0
  0
LINE
  5
AE
330
A6
100
AcDbEntity
  8
0
  6
Continuous
 62
     0
370
     0
100
AcDbLine
 10
3.5338148144
 20
0.0
 30
0.0
 11
3.5338148144
 21
-1.0877351438
 31
0.0
  0
LINE
  5
AF
330
A6
100
AcDbEntity
  8
0
  6
Continuous
 62
     0
370
     0
100
AcDbLine
 10
0.0
 20
-0.2175470288
 30
0.0
 11
5.3007222216
 21
-0.2175470288
 31
0.0
  0
LINE
  5
B0
330
A6
100
AcDbEntity
  8
0
  6
Continuous
 62
     0
370
     0
100
AcDbLine
 10
0.0
 20
-0.4350940575
 30
0.0
 11
5.3007222216
 21
-0.4350940575
 31
0.0
  0
LINE
  5
B1
330
A6
100
AcDbEntity
  8
0
  6
Continuous
 62
     0
370
     0
100
AcDbLine
 10
0.0
 20
-0.6526410863
 30
0.0
 11
5.3007222216
 21
-0.6526410863
 31
0.0
  0
LINE
  5
B2
330
A6
100
AcDbEntity
  8
0
  6
Continuous
 62
     0
370
     0
100
AcDbLine
 10
0.0
 20
-0.870188115
 30
0.0
 11
5.3007222216
 21
-0.870188115
 31
0.0
  0
MTEXT
  5
B3
330
A6
100
AcDbEntity
  8
0
  6
Continuous
 62
     0
370
     0
100
AcDbMText
 10
0.7356238447
 20
-0.0630789619
 30
0.0
 40
0.09375
 41
0.0
 71
     1
 72
     1
  1
PART
  7
SLDTEXTSTYLE0
 73
     1
 44
1.0
  0
MTEXT
  5
B4
330
A6
100
AcDbEntity
  8
0
  6
Continuous
 62
     0
370
     0
100
AcDbMText
 10
2.3673749699
 20
-0.0630789619
 30
0.0
 40
0.09375
 41
0.0
 71
     1
 72
     1
  1
PART NO.
  7
SLDTEXTSTYLE0
 73
     1
 44
1.0
  0
MTEXT
  5
B5
330
A6
100
AcDbEntity
  8
0
  6
Continuous
 62
     0
370
     0
100
AcDbMText
 10
4.126122653
 20
-0.0630789619
 30
0.0
 40
0.09375
 41
0.0
 71
     1
 72
     1
  1
MATERIAL
  7
SLDTEXTSTYLE0
 73
     1
 44
1.0
  0
MTEXT
  5
B6
330
A6
100
AcDbEntity
  8
0
  6
Continuous
 62
     0
370
     0
100
AcDbMText
 10
0.8371863406
 20
-0.2806259906
 30
0.0
 40
0.09375
 41
0.0
 71
     1
 72
     1
  1
A
  7
SLDTEXTSTYLE0
 73
     1
 44
1.0
  0
MTEXT
  5
B7
330
A6
100
AcDbEntity
  8
0
  6
Continuous
 62
     0
370
     0
100
AcDbMText
 10
2.2231041565
 20
-0.2806259906
 30
0.0
 40
0.09375
 41
0.0
 71
     1
 72
     1
  1
AC254-075-A1
  7
SLDTEXTSTYLE0
 73
     1
 44
1.0
  0
MTEXT
  5
B8
330
A6
100
AcDbEntity
  8
0
  6
Continuous
 62
     0
370
     0
100
AcDbMText
 10
4.1930497666
 20
-0.2806259906
 30
0.0
 40
0.09375
 41
0.0
 71
     1
 72
     1
  1
BK7-SF5
  7
SLDTEXTSTYLE0
 73
     1
 44
1.0
  0
MTEXT
  5
B9
330
A6
100
AcDbEntity
  8
0
  6
Continuous
 62
     0
370
     0
100
AcDbMText
 10
0.8476030094
 20
-0.4981730194
 30
0.0
 40
0.09375
 41
0.0
 71
     1
 72
     1
  1
B
  7
SLDTEXTSTYLE0
 73
     1
 44
1.0
  0
MTEXT
  5
BA
330
A6
100
AcDbEntity
  8
0
  6
Continuous
 62
     0
370
     0
100
AcDbMText
 10
2.2231041565
 20
-0.4981730194
 30
0.0
 40
0.09375
 41
0.0
 71
     1
 72
     1
  1
AC254-100-A1
  7
SLDTEXTSTYLE0
 73
     1
 44
1.0
  0
MTEXT
  5
BB
330
A6
100
AcDbEntity
  8
0
  6
Continuous
 62
     0
370
     0
100
AcDbMText
 10
4.1930497666
 20
-0.4981730194
 30
0.0
 40
0.09375
 41
0.0
 71
     1
 72
     1
  1
BK7-SF5
  7
SLDTEXTSTYLE0
 73
     1
 44
1.0
  0
MTEXT
  5
BC
330
A6
100
AcDbEntity
  8
0
  6
Continuous
 62
     0
370
     0
100
AcDbMText
 10
0.8326724557
 20
-0.7157200482
 30
0.0
 40
0.09375
 41
0.0
 71
     1
 72
     1
  1
C
  7
SLDTEXTSTYLE0
 73
     1
 44
1.0
  0
MTEXT
  5
BD
330
A6
100
AcDbEntity
  8
0
  6
Continuous
 62
     0
370
     0
100
AcDbMText
 10
2.2676353821
 20
-0.7157200482
 30
0.0
 40
0.09375
 41
0.0
 71
     1
 72
     1
  1
LENS MOUNT
  7
SLDTEXTSTYLE0
 73
     1
 44
1.0
  0
MTEXT
  5
BE
330
A6
100
AcDbEntity
  8
0
  6
Continuous
 62
     0
370
     0
100
AcDbMText
 10
3.8700185332
 20
-0.7219757926
 30
0.0
 40
0.09
 41
0.0
 71
     1
 72
     1
  1
6061-T6 ALUMINUM
  7
SLDTEXTSTYLE0
 73
     1
 44
1.0
  0
MTEXT
  5
BF
330
A6
100
AcDbEntity
  8
0
  6
Continuous
 62
     0
370
     0
100
AcDbMText
 10
0.8369259278
 20
-0.9332670769
 30
0.0
 40
0.09375
 41
0.0
 71
     1
 72
     1
  1
D
  7
SLDTEXTSTYLE0
 73
     1
 44
1.0
  0
MTEXT
  5
C0
330
A6
100
AcDbEntity
  8
0
  6
Continuous
 62
     0
370
     0
100
AcDbMText
 10
2.4512291645
 20
-0.9332670769
 30
0.0
 40
0.09375
 41
0.0
 71
     1
 72
     1
  1
SM1RR
  7
SLDTEXTSTYLE0
 73
     1
 44
1.0
  0
MTEXT
  5
C1
330
A6
100
AcDbEntity
  8
0
  6
Continuous
 62
     0
370
     0
100
AcDbMText
 10
3.8700185332
 20
-0.9395228213
 30
0.0
 40
0.09
 41
0.0
 71
     1
 72
     1
  1
6061-T6 ALUMINUM
  7
SLDTEXTSTYLE0
 73
     1
 44
1.0
  0
ENDBLK
  5
A8
330
A6
100
AcDbEntity
  8
0
100
AcDbBlockEnd
  0
BLOCK
  5
D8
330
D7
100
AcDbEntity
  8
0
100
AcDbBlockBegin
  2
*D7
 70
     1
 71
     0
 10
0.0
 20
0.0
 30
0.0
  3
*D7
  1

  0
SOLID
  5
DA
330
D7
100
AcDbEntity
  8
0
  6
Continuous
 62
     7
370
     0
100
AcDbTrace
 10
1.6709216046
 20
5.123257891
 30
0.0
 11
1.7363032062
 21
5.2672622179
 31
0.0
 12
1.6860649595
 22
5.280683044
 32
0.0
 13
1.6860649595
 23
5.280683044
 33
0.0
  0
LINE
  5
DB
330
D7
100
AcDbEntity
  8
0
  6
Continuous
 62
     7
370
     0
100
AcDbLine
 10
2.1603095653
 20
5.7494293717
 30
0.0
 11
2.1603095653
 21
5.6087864534
 31
0.0
  0
LINE
  5
DC
330
D7
100
AcDbEntity
  8
0
  6
Continuous
 62
     7
370
     0
100
AcDbLine
 10
2.1603095653
 20
5.6087864534
 30
0.0
 11
2.1814107326
 21
5.6087864534
 31
0.0
  0
LINE
  5
DD
330
D7
100
AcDbEntity
  8
0
  6
Continuous
 62
     7
370
     0
100
AcDbLine
 10
2.1603095653
 20
5.7494293717
 30
0.0
 11
2.1814107326
 21
5.7494293717
 31
0.0
  0
LINE
  5
DE
330
D7
100
AcDbEntity
  8
0
  6
Continuous
 62
     7
370
     0
100
AcDbLine
 10
2.5909189038
 20
5.7494293717
 30
0.0
 11
2.5909189038
 21
5.6087864534
 31
0.0
  0
LINE
  5
DF
330
D7
100
AcDbEntity
  8
0
  6
Continuous
 62
     7
370
     0
100
AcDbLine
 10
2.5909189038
 20
5.6087864534
 30
0.0
 11
2.5698177365
 21
5.6087864534
 31
0.0
  0
LINE
  5
E0
330
D7
100
AcDbEntity
  8
0
  6
Continuous
 62
     7
370
     0
100
AcDbLine
 10
2.5909189038
 20
5.7494293717
 30
0.0
 11
2.5698177365
 21
5.7494293717
 31
0.0
  0
LINE
  5
E1
330
D7
100
AcDbEntity
  8
0
  6
Continuous
 62
     7
370
     0
100
AcDbLine
 10
1.6709216046
 20
5.123257891
 30
0.0
 11
1.797312289
 21
5.5963767842
 31
0.0
  0
LINE
  5
E2
330
D7
100
AcDbEntity
  8
0
  6
Continuous
 62
     7
370
     0
100
AcDbLine
 10
1.797312289
 20
5.5963767842
 30
0.0
 11
2.047312289
 21
5.5963767842
 31
0.0
  0
MTEXT
  5
E3
330
D7
100
AcDbEntity
  8
0
  6
Continuous
 62
     7
370
     0
100
AcDbMText
 10
2.1280538844
 20
5.5639711657
 30
0.0
 40
0.1041666667
 41
0.0
 71
     1
 72
     1
  1
%%c
  7
SLDTEXTSTYLE0
 73
     1
 44
1.0
  0
MTEXT
  5
E4
330
D7
100
AcDbEntity
  8
0
  6
Continuous
 62
     7
370
     0
100
AcDbMText
 10
2.2769699155
 20
5.5639711657
 30
0.0
 40
0.1041666667
 41
0.0
 71
     1
 72
     1
  1
1.180
  7
SLDTEXTSTYLE0
 73
     1
 44
1.0
  0
MTEXT
  5
E5
330
D7
100
AcDbEntity
  8
0
  6
Continuous
 62
     7
370
     0
100
AcDbMText
 10
2.2025118999
 20
5.7294334225
 30
0.0
 40
0.1041666667
 41
0.0
 71
     1
 72
     1
  1
29.97
  7
SLDTEXTSTYLE0
 73
     1
 44
1.0
  0
ENDBLK
  5
D9
330
D7
100
AcDbEntity
  8
0
100
AcDbBlockEnd
  0
BLOCK
  5
3B6
330
3B5
100
AcDbEntity
  8
0
100
AcDbBlockBegin
  2
*D8
 70
     1
 71
     0
 10
0.0
 20
0.0
 30
0.0
  3
*D8
  1

  0
SOLID
  5
3B8
330
3B5
100
AcDbEntity
  8
0
  6
Continuous
 62
     7
370
     0
100
AcDbTrace
 10
10.3382276389
 20
3.104548351
 30
0.0
 11
10.1822276389
 21
3.130548351
 31
0.0
 12
10.1822276389
 22
3.078548351
 32
0.0
 13
10.1822276389
 23
3.078548351
 33
0.0
  0
SOLID
  5
3B9
330
3B5
100
AcDbEntity
  8
0
  6
Continuous
 62
     7
370
     0
100
AcDbTrace
 10
7.7775189775
 20
3.104548351
 30
0.0
 11
7.9335189775
 21
3.078548351
 31
0.0
 12
7.9335189775
 22
3.130548351
 32
0.0
 13
7.9335189775
 23
3.130548351
 33
0.0
  0
LINE
  5
3BA
330
3B5
100
AcDbEntity
  8
0
  6
Continuous
 62
     7
370
     0
100
AcDbLine
 10
8.9007969854
 20
3.2576009385
 30
0.0
 11
8.9007969854
 21
3.1169580203
 31
0.0
  0
LINE
  5
3BB
330
3B5
100
AcDbEntity
  8
0
  6
Continuous
 62
     7
370
     0
100
AcDbLine
 10
8.9007969854
 20
3.1169580203
 30
0.0
 11
8.9218981527
 21
3.1169580203
 31
0.0
  0
LINE
  5
3BC
330
3B5
100
AcDbEntity
  8
0
  6
Continuous
 62
     7
370
     0
100
AcDbLine
 10
8.9007969854
 20
3.2576009385
 30
0.0
 11
8.9218981527
 21
3.2576009385
 31
0.0
  0
LINE
  5
3BD
330
3B5
100
AcDbEntity
  8
0
  6
Continuous
 62
     7
370
     0
100
AcDbLine
 10
9.3314063239
 20
3.2576009385
 30
0.0
 11
9.3314063239
 21
3.1169580203
 31
0.0
  0
LINE
  5
3BE
330
3B5
100
AcDbEntity
  8
0
  6
Continuous
 62
     7
370
     0
100
AcDbLine
 10
9.3314063239
 20
3.1169580203
 30
0.0
 11
9.3103051566
 21
3.1169580203
 31
0.0
  0
LINE
  5
3BF
330
3B5
100
AcDbEntity
  8
0
  6
Continuous
 62
     7
370
     0
100
AcDbLine
 10
9.3314063239
 20
3.2576009385
 30
0.0
 11
9.3103051566
 21
3.2576009385
 31
0.0
  0
LINE
  5
3C0
330
3B5
100
AcDbEntity
  8
0
  6
Continuous
 62
     7
370
     0
100
AcDbLine
 10
10.3382276389
 20
4.5032470155
 30
0.0
 11
10.3382276389
 21
2.979548351
 31
0.0
  0
LINE
  5
3C1
330
3B5
100
AcDbEntity
  8
0
  6
Continuous
 62
     7
370
     0
100
AcDbLine
 10
7.7775189775
 20
3.9132470155
 30
0.0
 11
7.7775189775
 21
2.979548351
 31
0.0
  0
LINE
  5
3C2
330
3B5
100
AcDbEntity
  8
0
  6
Continuous
 62
     7
370
     0
100
AcDbLine
 10
10.3382276389
 20
3.104548351
 30
0.0
 11
9.4572462072
 21
3.104548351
 31
0.0
  0
LINE
  5
3C3
330
3B5
100
AcDbEntity
  8
0
  6
Continuous
 62
     7
370
     0
100
AcDbLine
 10
7.7775189775
 20
3.104548351
 30
0.0
 11
8.7749571021
 21
3.104548351
 31
0.0
  0
MTEXT
  5
3C4
330
3B5
100
AcDbEntity
  8
0
  6
Continuous
 62
     7
370
     0
100
AcDbMText
 10
8.9814907597
 20
3.0721427325
 30
0.0
 40
0.1041666667
 41
0.0
 71
     1
 72
     1
  1
2.56
  7
SLDTEXTSTYLE0
 73
     1
 44
1.0
  0
MTEXT
  5
3C5
330
3B5
100
AcDbEntity
  8
0
  6
Continuous
 62
     7
370
     0
100
AcDbMText
 10
8.94299932
 20
3.2376049893
 30
0.0
 40
0.1041666667
 41
0.0
 71
     1
 72
     1
  1
65.04
  7
SLDTEXTSTYLE0
 73
     1
 44
1.0
  0
ENDBLK
  5
3B7
330
3B5
100
AcDbEntity
  8
0
100
AcDbBlockEnd
  0
BLOCK
  5
3C8
330
3C7
100
AcDbEntity
  8
0
100
AcDbBlockBegin
  2
*D9
 70
     1
 71
     0
 10
0.0
 20
0.0
 30
0.0
  3
*D9
  1

  0
SOLID
  5
3CA
330
3C7
100
AcDbEntity
  8
0
  6
Continuous
 62
     7
370
     0
100
AcDbTrace
 10
2.9546449617
 20
3.0791312829
 30
0.0
 11
3.1106449617
 21
3.0531312829
 31
0.0
 12
3.1106449617
 22
3.1051312829
 32
0.0
 13
3.1106449617
 23
3.1051312829
 33
0.0
  0
SOLID
  5
3CB
330
3C7
100
AcDbEntity
  8
0
  6
Continuous
 62
     7
370
     0
100
AcDbTrace
 10
6.5775189775
 20
3.0791312829
 30
0.0
 11
6.4215189775
 21
3.1051312829
 31
0.0
 12
6.4215189775
 22
3.0531312829
 32
0.0
 13
6.4215189775
 23
3.0531312829
 33
0.0
  0
LINE
  5
3CC
330
3C7
100
AcDbEntity
  8
0
  6
Continuous
 62
     7
370
     0
100
AcDbLine
 10
4.7874111586
 20
3.2321838704
 30
0.0
 11
4.7874111586
 21
3.0915409521
 31
0.0
  0
LINE
  5
3CD
330
3C7
100
AcDbEntity
  8
0
  6
Continuous
 62
     7
370
     0
100
AcDbLine
 10
4.7874111586
 20
3.0915409521
 30
0.0
 11
4.8085123259
 21
3.0915409521
 31
0.0
  0
LINE
  5
3CE
330
3C7
100
AcDbEntity
  8
0
  6
Continuous
 62
     7
370
     0
100
AcDbLine
 10
4.7874111586
 20
3.2321838704
 30
0.0
 11
4.8085123259
 21
3.2321838704
 31
0.0
  0
LINE
  5
3CF
330
3C7
100
AcDbEntity
  8
0
  6
Continuous
 62
     7
370
     0
100
AcDbLine
 10
5.2180204972
 20
3.2321838704
 30
0.0
 11
5.2180204972
 21
3.0915409521
 31
0.0
  0
LINE
  5
3D0
330
3C7
100
AcDbEntity
  8
0
  6
Continuous
 62
     7
370
     0
100
AcDbLine
 10
5.2180204972
 20
3.0915409521
 30
0.0
 11
5.1969193298
 21
3.0915409521
 31
0.0
  0
LINE
  5
3D1
330
3C7
100
AcDbEntity
  8
0
  6
Continuous
 62
     7
370
     0
100
AcDbLine
 10
5.2180204972
 20
3.2321838704
 30
0.0
 11
5.1969193298
 21
3.2321838704
 31
0.0
  0
LINE
  5
3D2
330
3C7
100
AcDbEntity
  8
0
  6
Continuous
 62
     7
370
     0
100
AcDbLine
 10
2.9546449617
 20
4.5032470155
 30
0.0
 11
2.9546449617
 21
2.9541312829
 31
0.0
  0
LINE
  5
3D3
330
3C7
100
AcDbEntity
  8
0
  6
Continuous
 62
     7
370
     0
100
AcDbLine
 10
6.5775189775
 20
3.9132470155
 30
0.0
 11
6.5775189775
 21
2.9541312829
 31
0.0
  0
LINE
  5
3D4
330
3C7
100
AcDbEntity
  8
0
  6
Continuous
 62
     7
370
     0
100
AcDbLine
 10
2.9546449617
 20
3.0791312829
 30
0.0
 11
4.6615712754
 21
3.0791312829
 31
0.0
  0
LINE
  5
3D5
330
3C7
100
AcDbEntity
  8
0
  6
Continuous
 62
     7
370
     0
100
AcDbLine
 10
6.5775189775
 20
3.0791312829
 30
0.0
 11
5.3438603804
 21
3.0791312829
 31
0.0
  0
MTEXT
  5
3D6
330
3C7
100
AcDbEntity
  8
0
  6
Continuous
 62
     7
370
     0
100
AcDbMText
 10
4.8681049329
 20
3.0467256644
 30
0.0
 40
0.1041666667
 41
0.0
 71
     1
 72
     1
  1
3.62
  7
SLDTEXTSTYLE0
 73
     1
 44
1.0
  0
MTEXT
  5
3D7
330
3C7
100
AcDbEntity
  8
0
  6
Continuous
 62
     7
370
     0
100
AcDbMText
 10
4.8296134933
 20
3.2121879212
 30
0.0
 40
0.1041666667
 41
0.0
 71
     1
 72
     1
  1
92.02
  7
SLDTEXTSTYLE0
 73
     1
 44
1.0
  0
ENDBLK
  5
3C9
330
3C7
100
AcDbEntity
  8
0
100
AcDbBlockEnd
  0
BLOCK
  5
3DA
330
3D9
100
AcDbEntity
  8
0
100
AcDbBlockBegin
  2
*D10
 70
     1
 71
     0
 10
0.0
 20
0.0
 30
0.0
  3
*D10
  1

  0
SOLID
  5
3DC
330
3D9
100
AcDbEntity
  8
0
  6
Continuous
 62
     7
370
     0
100
AcDbTrace
 10
2.9546449617
 20
5.5549218032
 30
0.0
 11
3.1106449617
 21
5.5289218032
 31
0.0
 12
3.1106449617
 22
5.5809218032
 32
0.0
 13
3.1106449617
 23
5.5809218032
 33
0.0
  0
SOLID
  5
3DD
330
3D9
100
AcDbEntity
  8
0
  6
Continuous
 62
     7
370
     0
100
AcDbTrace
 10
6.7877969052
 20
5.5549218032
 30
0.0
 11
6.6317969052
 21
5.5809218032
 31
0.0
 12
6.6317969052
 22
5.5289218032
 32
0.0
 13
6.6317969052
 23
5.5289218032
 33
0.0
  0
LINE
  5
3DE
330
3D9
100
AcDbEntity
  8
0
  6
Continuous
 62
     7
370
     0
100
AcDbLine
 10
4.7874111586
 20
5.7079743907
 30
0.0
 11
4.7874111586
 21
5.5673314724
 31
0.0
  0
LINE
  5
3DF
330
3D9
100
AcDbEntity
  8
0
  6
Continuous
 62
     7
370
     0
100
AcDbLine
 10
4.7874111586
 20
5.5673314724
 30
0.0
 11
4.8085123259
 21
5.5673314724
 31
0.0
  0
LINE
  5
3E0
330
3D9
100
AcDbEntity
  8
0
  6
Continuous
 62
     7
370
     0
100
AcDbLine
 10
4.7874111586
 20
5.7079743907
 30
0.0
 11
4.8085123259
 21
5.7079743907
 31
0.0
  0
LINE
  5
3E1
330
3D9
100
AcDbEntity
  8
0
  6
Continuous
 62
     7
370
     0
100
AcDbLine
 10
5.2180204972
 20
5.7079743907
 30
0.0
 11
5.2180204972
 21
5.5673314724
 31
0.0
  0
LINE
  5
3E2
330
3D9
100
AcDbEntity
  8
0
  6
Continuous
 62
     7
370
     0
100
AcDbLine
 10
5.2180204972
 20
5.5673314724
 30
0.0
 11
5.1969193298
 21
5.5673314724
 31
0.0
  0
LINE
  5
3E3
330
3D9
100
AcDbEntity
  8
0
  6
Continuous
 62
     7
370
     0
100
AcDbLine
 10
5.2180204972
 20
5.7079743907
 30
0.0
 11
5.1969193298
 21
5.7079743907
 31
0.0
  0
LINE
  5
3E4
330
3D9
100
AcDbEntity
  8
0
  6
Continuous
 62
     7
370
     0
100
AcDbLine
 10
2.9546449617
 20
4.6032470155
 30
0.0
 11
2.9546449617
 21
5.6799218032
 31
0.0
  0
LINE
  5
3E5
330
3D9
100
AcDbEntity
  8
0
  6
Continuous
 62
     7
370
     0
100
AcDbLine
 10
6.7877969052
 20
4.6032470155
 30
0.0
 11
6.7877969052
 21
5.6799218032
 31
0.0
  0
LINE
  5
3E6
330
3D9
100
AcDbEntity
  8
0
  6
Continuous
 62
     7
370
     0
100
AcDbLine
 10
2.9546449617
 20
5.5549218032
 30
0.0
 11
4.6615712754
 21
5.5549218032
 31
0.0
  0
LINE
  5
3E7
330
3D9
100
AcDbEntity
  8
0
  6
Continuous
 62
     7
370
     0
100
AcDbLine
 10
6.7877969052
 20
5.5549218032
 30
0.0
 11
5.3438603804
 21
5.5549218032
 31
0.0
  0
MTEXT
  5
3E8
330
3D9
100
AcDbEntity
  8
0
  6
Continuous
 62
     7
370
     0
100
AcDbMText
 10
4.8681049329
 20
5.5225161847
 30
0.0
 40
0.1041666667
 41
0.0
 71
     1
 72
     1
  1
3.83
  7
SLDTEXTSTYLE0
 73
     1
 44
1.0
  0
MTEXT
  5
3E9
330
3D9
100
AcDbEntity
  8
0
  6
Continuous
 62
     7
370
     0
100
AcDbMText
 10
4.8296134933
 20
5.6879784415
 30
0.0
 40
0.1041666667
 41
0.0
 71
     1
 72
     1
  1
97.36
  7
SLDTEXTSTYLE0
 73
     1
 44
1.0
  0
ENDBLK
  5
3DB
330
3D9
100
AcDbEntity
  8
0
100
AcDbBlockEnd
  0
BLOCK
  5
3EC
330
3EB
100
AcDbEntity
  8
0
100
AcDbBlockBegin
  2
*D11
 70
     1
 71
     0
 10
0.0
 20
0.0
 30
0.0
  3
*D11
  1

  0
SOLID
  5
3EE
330
3EB
100
AcDbEntity
  8
0
  6
Continuous
 62
     7
370
     0
100
AcDbTrace
 10
10.3382276389
 20
5.5549218032
 30
0.0
 11
10.1822276389
 21
5.5809218032
 31
0.0
 12
10.1822276389
 22
5.5289218032
 32
0.0
 13
10.1822276389
 23
5.5289218032
 33
0.0
  0
SOLID
  5
3EF
330
3EB
100
AcDbEntity
  8
0
  6
Continuous
 62
     7
370
     0
100
AcDbTrace
 10
7.5751885655
 20
5.5549218032
 30
0.0
 11
7.7311885655
 21
5.5289218032
 31
0.0
 12
7.7311885655
 22
5.5809218032
 32
0.0
 13
7.7311885655
 23
5.5809218032
 33
0.0
  0
LINE
  5
3F0
330
3EB
100
AcDbEntity
  8
0
  6
Continuous
 62
     7
370
     0
100
AcDbLine
 10
8.9007969854
 20
5.7079743907
 30
0.0
 11
8.9007969854
 21
5.5673314724
 31
0.0
  0
LINE
  5
3F1
330
3EB
100
AcDbEntity
  8
0
  6
Continuous
 62
     7
370
     0
100
AcDbLine
 10
8.9007969854
 20
5.5673314724
 30
0.0
 11
8.9218981527
 21
5.5673314724
 31
0.0
  0
LINE
  5
3F2
330
3EB
100
AcDbEntity
  8
0
  6
Continuous
 62
     7
370
     0
100
AcDbLine
 10
8.9007969854
 20
5.7079743907
 30
0.0
 11
8.9218981527
 21
5.7079743907
 31
0.0
  0
LINE
  5
3F3
330
3EB
100
AcDbEntity
  8
0
  6
Continuous
 62
     7
370
     0
100
AcDbLine
 10
9.3314063239
 20
5.7079743907
 30
0.0
 11
9.3314063239
 21
5.5673314724
 31
0.0
  0
LINE
  5
3F4
330
3EB
100
AcDbEntity
  8
0
  6
Continuous
 62
     7
370
     0
100
AcDbLine
 10
9.3314063239
 20
5.5673314724
 30
0.0
 11
9.3103051566
 21
5.5673314724
 31
0.0
  0
LINE
  5
3F5
330
3EB
100
AcDbEntity
  8
0
  6
Continuous
 62
     7
370
     0
100
AcDbLine
 10
9.3314063239
 20
5.7079743907
 30
0.0
 11
9.3103051566
 21
5.7079743907
 31
0.0
  0
LINE
  5
3F6
330
3EB
100
AcDbEntity
  8
0
  6
Continuous
 62
     7
370
     0
100
AcDbLine
 10
10.3382276389
 20
4.6032470155
 30
0.0
 11
10.3382276389
 21
5.6799218032
 31
0.0
  0
LINE
  5
3F7
330
3EB
100
AcDbEntity
  8
0
  6
Continuous
 62
     7
370
     0
100
AcDbLine
 10
7.5751885655
 20
4.6032470155
 30
0.0
 11
7.5751885655
 21
5.6799218032
 31
0.0
  0
LINE
  5
3F8
330
3EB
100
AcDbEntity
  8
0
  6
Continuous
 62
     7
370
     0
100
AcDbLine
 10
10.3382276389
 20
5.5549218032
 30
0.0
 11
9.4572462072
 21
5.5549218032
 31
0.0
  0
LINE
  5
3F9
330
3EB
100
AcDbEntity
  8
0
  6
Continuous
 62
     7
370
     0
100
AcDbLine
 10
7.5751885655
 20
5.5549218032
 30
0.0
 11
8.7749571021
 21
5.5549218032
 31
0.0
  0
MTEXT
  5
3FA
330
3EB
100
AcDbEntity
  8
0
  6
Continuous
 62
     7
370
     0
100
AcDbMText
 10
8.9814907597
 20
5.5225161847
 30
0.0
 40
0.1041666667
 41
0.0
 71
     1
 72
     1
  1
2.76
  7
SLDTEXTSTYLE0
 73
     1
 44
1.0
  0
MTEXT
  5
3FB
330
3EB
100
AcDbEntity
  8
0
  6
Continuous
 62
     7
370
     0
100
AcDbMText
 10
8.94299932
 20
5.6879784415
 30
0.0
 40
0.1041666667
 41
0.0
 71
     1
 72
     1
  1
70.18
  7
SLDTEXTSTYLE0
 73
     1
 44
1.0
  0
ENDBLK
  5
3ED
330
3EB
100
AcDbEntity
  8
0
100
AcDbBlockEnd
  0
BLOCK
  5
3FF
330
3FE
100
AcDbEntity
  8
0
100
AcDbBlockBegin
  2
*D12
 70
     1
 71
     0
 10
0.0
 20
0.0
 30
0.0
  3
*D12
  1

  0
SOLID
  5
401
330
3FE
100
AcDbEntity
  8
0
  6
Continuous
 62
     7
370
     0
100
AcDbTrace
 10
6.5775189775
 20
2.606690338
 30
0.0
 11
6.7335189775
 21
2.580690338
 31
0.0
 12
6.7335189775
 22
2.632690338
 32
0.0
 13
6.7335189775
 23
2.632690338
 33
0.0
  0
SOLID
  5
402
330
3FE
100
AcDbEntity
  8
0
  6
Continuous
 62
     7
370
     0
100
AcDbTrace
 10
7.7775189775
 20
2.606690338
 30
0.0
 11
7.6215189775
 21
2.632690338
 31
0.0
 12
7.6215189775
 22
2.580690338
 32
0.0
 13
7.6215189775
 23
2.580690338
 33
0.0
  0
LINE
  5
403
330
3FE
100
AcDbEntity
  8
0
  6
Continuous
 62
     7
370
     0
100
AcDbLine
 10
6.985935213
 20
2.7597429255
 30
0.0
 11
6.985935213
 21
2.6191000072
 31
0.0
  0
LINE
  5
404
330
3FE
100
AcDbEntity
  8
0
  6
Continuous
 62
     7
370
     0
100
AcDbLine
 10
6.985935213
 20
2.6191000072
 30
0.0
 11
7.0070363803
 21
2.6191000072
 31
0.0
  0
LINE
  5
405
330
3FE
100
AcDbEntity
  8
0
  6
Continuous
 62
     7
370
     0
100
AcDbLine
 10
6.985935213
 20
2.7597429255
 30
0.0
 11
7.0070363803
 21
2.7597429255
 31
0.0
  0
LINE
  5
406
330
3FE
100
AcDbEntity
  8
0
  6
Continuous
 62
     7
370
     0
100
AcDbLine
 10
7.4165445515
 20
2.7597429255
 30
0.0
 11
7.4165445515
 21
2.6191000072
 31
0.0
  0
LINE
  5
407
330
3FE
100
AcDbEntity
  8
0
  6
Continuous
 62
     7
370
     0
100
AcDbLine
 10
7.4165445515
 20
2.6191000072
 30
0.0
 11
7.3954433842
 21
2.6191000072
 31
0.0
  0
LINE
  5
408
330
3FE
100
AcDbEntity
  8
0
  6
Continuous
 62
     7
370
     0
100
AcDbLine
 10
7.4165445515
 20
2.7597429255
 30
0.0
 11
7.3954433842
 21
2.7597429255
 31
0.0
  0
LINE
  5
409
330
3FE
100
AcDbEntity
  8
0
  6
Continuous
 62
     7
370
     0
100
AcDbLine
 10
6.5775189775
 20
3.9132470155
 30
0.0
 11
6.5775189775
 21
2.481690338
 31
0.0
  0
LINE
  5
40A
330
3FE
100
AcDbEntity
  8
0
  6
Continuous
 62
     7
370
     0
100
AcDbLine
 10
7.7775189775
 20
3.9132470155
 30
0.0
 11
7.7775189775
 21
2.481690338
 31
0.0
  0
LINE
  5
40B
330
3FE
100
AcDbEntity
  8
0
  6
Continuous
 62
     7
370
     0
100
AcDbLine
 10
6.5775189775
 20
2.606690338
 30
0.0
 11
6.8600953297
 21
2.606690338
 31
0.0
  0
LINE
  5
40C
330
3FE
100
AcDbEntity
  8
0
  6
Continuous
 62
     7
370
     0
100
AcDbLine
 10
7.7775189775
 20
2.606690338
 30
0.0
 11
7.5423844348
 21
2.606690338
 31
0.0
  0
MTEXT
  5
40D
330
3FE
100
AcDbEntity
  8
0
  6
Continuous
 62
     7
370
     0
100
AcDbMText
 10
7.0281375476
 20
2.5742847195
 30
0.0
 40
0.1041666667
 41
0.0
 71
     1
 72
     1
  1
1.200
  7
SLDTEXTSTYLE0
 73
     1
 44
1.0
  0
MTEXT
  5
40E
330
3FE
100
AcDbEntity
  8
0
  6
Continuous
 62
     7
370
     0
100
AcDbMText
 10
7.0281375476
 20
2.7397469763
 30
0.0
 40
0.1041666667
 41
0.0
 71
     1
 72
     1
  1
30.48
  7
SLDTEXTSTYLE0
 73
     1
 44
1.0
  0
ENDBLK
  5
400
330
3FE
100
AcDbEntity
  8
0
100
AcDbBlockEnd
  0
BLOCK
  5
412
330
411
100
AcDbEntity
  8
0
100
AcDbBlockBegin
  2
*D13
 70
     1
 71
     0
 10
0.0
 20
0.0
 30
0.0
  3
*D13
  1

  0
SOLID
  5
414
330
411
100
AcDbEntity
  8
0
  6
Continuous
 62
     7
370
     0
100
AcDbTrace
 10
7.043702417
 20
3.5515722277
 30
0.0
 11
6.887702417
 21
3.5775722277
 31
0.0
 12
6.887702417
 22
3.5255722277
 32
0.0
 13
6.887702417
 23
3.5255722277
 33
0.0
  0
SOLID
  5
415
330
411
100
AcDbEntity
  8
0
  6
Continuous
 62
     7
370
     0
100
AcDbTrace
 10
7.2011728175
 20
3.5515722277
 30
0.0
 11
7.3571728175
 21
3.5255722277
 31
0.0
 12
7.3571728175
 22
3.5775722277
 32
0.0
 13
7.3571728175
 23
3.5775722277
 33
0.0
  0
LINE
  5
416
330
411
100
AcDbEntity
  8
0
  6
Continuous
 62
     7
370
     0
100
AcDbLine
 10
7.5178726066
 20
3.7046248153
 30
0.0
 11
7.5178726066
 21
3.563981897
 31
0.0
  0
LINE
  5
417
330
411
100
AcDbEntity
  8
0
  6
Continuous
 62
     7
370
     0
100
AcDbLine
 10
7.5178726066
 20
3.563981897
 30
0.0
 11
7.5389737739
 21
3.563981897
 31
0.0
  0
LINE
  5
418
330
411
100
AcDbEntity
  8
0
  6
Continuous
 62
     7
370
     0
100
AcDbLine
 10
7.5178726066
 20
3.7046248153
 30
0.0
 11
7.5389737739
 21
3.7046248153
 31
0.0
  0
LINE
  5
419
330
411
100
AcDbEntity
  8
0
  6
Continuous
 62
     7
370
     0
100
AcDbLine
 10
7.67911463
 20
3.7046248153
 30
0.0
 11
7.67911463
 21
3.563981897
 31
0.0
  0
LINE
  5
41A
330
411
100
AcDbEntity
  8
0
  6
Continuous
 62
     7
370
     0
100
AcDbLine
 10
7.67911463
 20
3.563981897
 30
0.0
 11
7.6580134626
 21
3.563981897
 31
0.0
  0
LINE
  5
41B
330
411
100
AcDbEntity
  8
0
  6
Continuous
 62
     7
370
     0
100
AcDbLine
 10
7.67911463
 20
3.7046248153
 30
0.0
 11
7.6580134626
 21
3.7046248153
 31
0.0
  0
LINE
  5
41C
330
411
100
AcDbEntity
  8
0
  6
Continuous
 62
     7
370
     0
100
AcDbLine
 10
7.043702417
 20
4.5032470155
 30
0.0
 11
7.043702417
 21
3.4265722277
 31
0.0
  0
LINE
  5
41D
330
411
100
AcDbEntity
  8
0
  6
Continuous
 62
     7
370
     0
100
AcDbLine
 10
7.2011728175
 20
4.5032470155
 30
0.0
 11
7.2011728175
 21
3.4265722277
 31
0.0
  0
LINE
  5
41E
330
411
100
AcDbEntity
  8
0
  6
Continuous
 62
     7
370
     0
100
AcDbLine
 10
7.043702417
 20
3.5515722277
 30
0.0
 11
6.543702417
 21
3.5515722277
 31
0.0
  0
LINE
  5
41F
330
411
100
AcDbEntity
  8
0
  6
Continuous
 62
     7
370
     0
100
AcDbLine
 10
7.2011728175
 20
3.5515722277
 30
0.0
 11
7.3802451747
 21
3.5515722277
 31
0.0
  0
MTEXT
  5
420
330
411
100
AcDbEntity
  8
0
  6
Continuous
 62
     7
370
     0
100
AcDbMText
 10
7.4638827233
 20
3.5191666093
 30
0.0
 40
0.1041666667
 41
0.0
 71
     1
 72
     1
  1
0.16
  7
SLDTEXTSTYLE0
 73
     1
 44
1.0
  0
MTEXT
  5
421
330
411
100
AcDbEntity
  8
0
  6
Continuous
 62
     7
370
     0
100
AcDbMText
 10
7.5600749412
 20
3.6846288661
 30
0.0
 40
0.1041666667
 41
0.0
 71
     1
 72
     1
  1
4
  7
SLDTEXTSTYLE0
 73
     1
 44
1.0
  0
ENDBLK
  5
413
330
411
100
AcDbEntity
  8
0
100
AcDbBlockEnd
  0
BLOCK
  5
424
330
423
100
AcDbEntity
  8
0
100
AcDbBlockBegin
  2
*D14
 70
     1
 71
     0
 10
0.0
 20
0.0
 30
0.0
  3
*D14
  1

  0
SOLID
  5
426
330
423
100
AcDbEntity
  8
0
  6
Continuous
 62
     7
370
     0
100
AcDbTrace
 10
6.7877969052
 20
5.9242174173
 30
0.0
 11
6.6317969052
 21
5.9502174173
 31
0.0
 12
6.6317969052
 22
5.8982174173
 32
0.0
 13
6.6317969052
 23
5.8982174173
 33
0.0
  0
SOLID
  5
427
330
423
100
AcDbEntity
  8
0
  6
Continuous
 62
     7
370
     0
100
AcDbTrace
 10
7.5751885655
 20
5.9242174173
 30
0.0
 11
7.7311885655
 21
5.8982174173
 31
0.0
 12
7.7311885655
 22
5.9502174173
 32
0.0
 13
7.7311885655
 23
5.9502174173
 33
0.0
  0
LINE
  5
428
330
423
100
AcDbEntity
  8
0
  6
Continuous
 62
     7
370
     0
100
AcDbLine
 10
7.0821274309
 20
6.0772700048
 30
0.0
 11
7.0821274309
 21
5.9366270865
 31
0.0
  0
LINE
  5
429
330
423
100
AcDbEntity
  8
0
  6
Continuous
 62
     7
370
     0
100
AcDbLine
 10
7.0821274309
 20
5.9366270865
 30
0.0
 11
7.1032285982
 21
5.9366270865
 31
0.0
  0
LINE
  5
42A
330
423
100
AcDbEntity
  8
0
  6
Continuous
 62
     7
370
     0
100
AcDbLine
 10
7.0821274309
 20
6.0772700048
 30
0.0
 11
7.1032285982
 21
6.0772700048
 31
0.0
  0
LINE
  5
42B
330
423
100
AcDbEntity
  8
0
  6
Continuous
 62
     7
370
     0
100
AcDbLine
 10
7.3203523336
 20
6.0772700048
 30
0.0
 11
7.3203523336
 21
5.9366270865
 31
0.0
  0
LINE
  5
42C
330
423
100
AcDbEntity
  8
0
  6
Continuous
 62
     7
370
     0
100
AcDbLine
 10
7.3203523336
 20
5.9366270865
 30
0.0
 11
7.2992511663
 21
5.9366270865
 31
0.0
  0
LINE
  5
42D
330
423
100
AcDbEntity
  8
0
  6
Continuous
 62
     7
370
     0
100
AcDbLine
 10
7.3203523336
 20
6.0772700048
 30
0.0
 11
7.2992511663
 21
6.0772700048
 31
0.0
  0
LINE
  5
42E
330
423
100
AcDbEntity
  8
0
  6
Continuous
 62
     7
370
     0
100
AcDbLine
 10
6.7877969052
 20
4.6032470155
 30
0.0
 11
6.7877969052
 21
6.0492174173
 31
0.0
  0
LINE
  5
42F
330
423
100
AcDbEntity
  8
0
  6
Continuous
 62
     7
370
     0
100
AcDbLine
 10
7.5751885655
 20
4.6032470155
 30
0.0
 11
7.5751885655
 21
6.0492174173
 31
0.0
  0
LINE
  5
430
330
423
100
AcDbEntity
  8
0
  6
Continuous
 62
     7
370
     0
100
AcDbLine
 10
6.7877969052
 20
5.9242174173
 30
0.0
 11
6.2877969052
 21
5.9242174173
 31
0.0
  0
LINE
  5
431
330
423
100
AcDbEntity
  8
0
  6
Continuous
 62
     7
370
     0
100
AcDbLine
 10
7.5751885655
 20
5.9242174173
 30
0.0
 11
8.0751885655
 21
5.9242174173
 31
0.0
  0
MTEXT
  5
432
330
423
100
AcDbEntity
  8
0
  6
Continuous
 62
     7
370
     0
100
AcDbMText
 10
7.0666289873
 20
5.8918117988
 30
0.0
 40
0.1041666667
 41
0.0
 71
     1
 72
     1
  1
0.79
  7
SLDTEXTSTYLE0
 73
     1
 44
1.0
  0
MTEXT
  5
433
330
423
100
AcDbEntity
  8
0
  6
Continuous
 62
     7
370
     0
100
AcDbMText
 10
7.1243297655
 20
6.0572740556
 30
0.0
 40
0.1041666667
 41
0.0
 71
     1
 72
     1
  1
20
  7
SLDTEXTSTYLE0
 73
     1
 44
1.0
  0
ENDBLK
  5
425
330
423
100
AcDbEntity
  8
0
100
AcDbBlockEnd
  0
BLOCK
  5
435
330
434
100
AcDbEntity
  8
0
100
AcDbBlockBegin
  2
SW_NOTE_5
 70
     0
 71
     0
 10
0.0
 20
0.0
 30
0.0
  3
SW_NOTE_5
  1

  0
MTEXT
  5
438
330
434
100
AcDbEntity
  8
0
  6
Continuous
 62
     0
370
     0
100
AcDbMText
 10
0.0
 20
0.1330566406
 30
0.0
 40
0.1041666667
 41
0.0
 71
     1
 72
     1
  1
SECTION A-A 
  7
SLDTEXTSTYLE17
 73
     1
 44
1.0
  0
MTEXT
  5
43A
330
434
100
AcDbEntity
  8
0
  6
Continuous
 62
     0
370
     0
100
AcDbMText
 10
0.0841049551
 20
-0.0058322466
 30
0.0
 40
0.1041666667
 41
0.0
 71
     1
 72
     1
  1
SCALE 1 : 1
  7
SLDTEXTSTYLE18
 73
     1
 44
1.0
  0
ENDBLK
  5
436
330
434
100
AcDbEntity
  8
0
100
AcDbBlockEnd
  0
BLOCK
  5
43D
330
43C
100
AcDbEntity
  8
0
100
AcDbBlockBegin
  2
SW_NOTE_6
 70
     0
 71
     0
 10
0.0
 20
0.0
 30
0.0
  3
SW_NOTE_6
  1

  0
MTEXT
  5
440
330
43C
100
AcDbEntity
  8
0
  6
Continuous
 62
     0
370
     0
100
AcDbMText
 10
-1.5499365116
 20
0.1872688328
 30
0.0
 40
0.1041666667
 41
0.0
 71
     1
 72
     1
  1
INTERNAL  SM1 THREAD
  7
SLDTEXTSTYLE19
 73
     1
 44
1.0
  0
MTEXT
  5
441
330
43C
100
AcDbEntity
  8
0
  6
Continuous
 62
     0
370
     0
100
AcDbMText
 10
-1.1092535891
 20
0.0483799456
 30
0.0
 40
0.1041666667
 41
0.0
 71
     1
 72
     1
  1
(1.035-40)
  7
SLDTEXTSTYLE0
 73
     1
 44
1.0
  0
ENDBLK
  5
43E
330
43C
100
AcDbEntity
  8
0
100
AcDbBlockEnd
  0
BLOCK
  5
447
330
446
100
AcDbEntity
  8
0
100
AcDbBlockBegin
  2
SW_NOTE_7
 70
     0
 71
     0
 10
0.0
 20
0.0
 30
0.0
  3
SW_NOTE_7
  1

  0
CIRCLE
  5
449
330
446
100
AcDbEntity
  8
0
  6
Continuous
 62
     0
370
     0
100
AcDbCircle
 10
0.1209062525
 20
0.0293111614
 30
0.0
 40
0.1244084646663442
  0
MTEXT
  5
44A
330
446
100
AcDbEntity
  8
0
  6
Continuous
 62
     0
370
     0
100
AcDbMText
 10
0.0529655282
 20
0.1001710716
 30
0.0
 40
0.1377952756
 41
0.0
 71
     1
 72
     1
  1
A
  7
SLDTEXTSTYLE0
 73
     1
 44
1.0
  0
ENDBLK
  5
448
330
446
100
AcDbEntity
  8
0
100
AcDbBlockEnd
  0
BLOCK
  5
44E
330
44D
100
AcDbEntity
  8
0
100
AcDbBlockBegin
  2
SW_NOTE_8
 70
     0
 71
     0
 10
0.0
 20
0.0
 30
0.0
  3
SW_NOTE_8
  1

  0
CIRCLE
  5
450
330
44D
100
AcDbEntity
  8
0
  6
Continuous
 62
     0
370
     0
100
AcDbCircle
 10
-0.1221664018
 20
0.0235124724
 30
0.0
 40
0.124408464666345
  0
MTEXT
  5
451
330
44D
100
AcDbEntity
  8
0
  6
Continuous
 62
     0
370
     0
100
AcDbMText
 10
-0.1748922348
 20
0.0943723826
 30
0.0
 40
0.1377952756
 41
0.0
 71
     1
 72
     1
  1
B
  7
SLDTEXTSTYLE0
 73
     1
 44
1.0
  0
ENDBLK
  5
44F
330
44D
100
AcDbEntity
  8
0
100
AcDbBlockEnd
  0
BLOCK
  5
455
330
454
100
AcDbEntity
  8
0
100
AcDbBlockBegin
  2
SW_NOTE_9
 70
     0
 71
     0
 10
0.0
 20
0.0
 30
0.0
  3
SW_NOTE_9
  1

  0
CIRCLE
  5
457
330
454
100
AcDbEntity
  8
0
  6
Continuous
 62
     0
370
     0
100
AcDbCircle
 10
0.1033591489
 20
-0.0692412624
 30
0.0
 40
0.1244084646663442
  0
MTEXT
  5
458
330
454
100
AcDbEntity
  8
0
  6
Continuous
 62
     0
370
     0
100
AcDbMText
 10
0.0287200428
 20
0.0016186478
 30
0.0
 40
0.1377952756
 41
0.0
 71
     1
 72
     1
  1
C
  7
SLDTEXTSTYLE0
 73
     1
 44
1.0
  0
ENDBLK
  5
456
330
454
100
AcDbEntity
  8
0
100
AcDbBlockEnd
  0
BLOCK
  5
45C
330
45B
100
AcDbEntity
  8
0
100
AcDbBlockBegin
  2
SW_NOTE_10
 70
     0
 71
     0
 10
0.0
 20
0.0
 30
0.0
  3
SW_NOTE_10
  1

  0
CIRCLE
  5
45E
330
45B
100
AcDbEntity
  8
0
  6
Continuous
 62
     0
370
     0
100
AcDbCircle
 10
0.1242104163
 20
-0.0070170199
 30
0.0
 40
0.124408464666345
  0
MTEXT
  5
45F
330
45B
100
AcDbEntity
  8
0
  6
Continuous
 62
     0
370
     0
100
AcDbMText
 10
0.0558869239
 20
0.0638428903
 30
0.0
 40
0.1377952756
 41
0.0
 71
     1
 72
     1
  1
D
  7
SLDTEXTSTYLE0
 73
     1
 44
1.0
  0
ENDBLK
  5
45D
330
45B
100
AcDbEntity
  8
0
100
AcDbBlockEnd
  0
BLOCK
  5
463
330
462
100
AcDbEntity
  8
0
100
AcDbBlockBegin
  2
SW_NOTE_11
 70
     0
 71
     0
 10
0.0
 20
0.0
 30
0.0
  3
SW_NOTE_11
  1

  0
CIRCLE
  5
465
330
462
100
AcDbEntity
  8
0
  6
Continuous
 62
     0
370
     0
100
AcDbCircle
 10
-0.1241247539
 20
-0.008397115
 30
0.0
 40
0.1244084646663442
  0
MTEXT
  5
466
330
462
100
AcDbEntity
  8
0
  6
Continuous
 62
     0
370
     0
100
AcDbMText
 10
-0.1924482463
 20
0.0624627952
 30
0.0
 40
0.1377952756
 41
0.0
 71
     1
 72
     1
  1
D
  7
SLDTEXTSTYLE0
 73
     1
 44
1.0
  0
ENDBLK
  5
464
330
462
100
AcDbEntity
  8
0
100
AcDbBlockEnd
  0
ENDSEC
  0
SECTION
  2
ENTITIES
  0
LINE
  5
30
330
1F
100
AcDbEntity
  8
0
  6
Continuous
 62
     7
370
     0
100
AcDbLine
 10
0.329927
 20
8.1920731707
 30
0.0
 11
10.629927
 21
8.1920731707
 31
0.0
  0
LINE
  5
31
330
1F
100
AcDbEntity
  8
0
  6
Continuous
 62
     7
370
     0
100
AcDbLine
 10
0.329927
 20
8.1920731707
 30
0.0
 11
0.329927
 21
0.3920731707
 31
0.0
  0
LINE
  5
32
330
1F
100
AcDbEntity
  8
0
  6
Continuous
 62
     7
370
     0
100
AcDbLine
 10
10.629927
 20
0.3920731707
 30
0.0
 11
0.329927
 21
0.3920731707
 31
0.0
  0
LINE
  5
33
330
1F
100
AcDbEntity
  8
0
  6
Continuous
 62
     7
370
     0
100
AcDbLine
 10
10.629927
 20
0.3920731707
 30
0.0
 11
10.629927
 21
8.1920731707
 31
0.0
  0
LINE
  5
34
330
1F
100
AcDbEntity
  8
0
  6
Continuous
 62
     7
370
     0
100
AcDbLine
 10
7.8832069922
 20
1.2010186622
 30
0.0
 11
6.3491817542
 21
1.2010186622
 31
0.0
  0
LINE
  5
35
330
1F
100
AcDbEntity
  8
0
  6
Continuous
 62
     7
370
     0
100
AcDbLine
 10
6.3491817542
 20
0.3920731707
 30
0.0
 11
6.3491817542
 21
1.6988536355
 31
0.0
  0
LINE
  5
36
330
1F
100
AcDbEntity
  8
0
  6
Continuous
 62
     7
370
     0
100
AcDbLine
 10
7.8832069922
 20
1.270166923
 30
0.0
 11
10.629927
 21
1.270166923
 31
0.0
  0
LINE
  5
37
330
1F
100
AcDbEntity
  8
0
  6
Continuous
 62
     7
370
     0
100
AcDbLine
 10
7.8832069922
 20
1.9437769943
 30
0.0
 11
7.8832069922
 21
0.3920731707
 31
0.0
  0
LINE
  5
38
330
1F
100
AcDbEntity
  8
0
  6
Continuous
 62
     7
370
     0
100
AcDbLine
 10
7.8832069922
 20
1.323339557
 30
0.0
 11
6.3491817542
 21
1.323339557
 31
0.0
  0
LINE
  5
39
330
1F
100
AcDbEntity
  8
0
  6
Continuous
 62
     7
370
     0
100
AcDbLine
 10
7.8832069922
 20
1.6988536355
 30
0.0
 11
6.3491817542
 21
1.6988536355
 31
0.0
  0
LINE
  5
3A
330
1F
100
AcDbEntity
  8
0
  6
Continuous
 62
     7
370
     0
100
AcDbLine
 10
7.8832069922
 20
0.7890359178
 30
0.0
 11
10.629927
 21
0.7890359178
 31
0.0
  0
LINE
  5
3B
330
1F
100
AcDbEntity
  8
0
  6
Continuous
 62
     7
370
     0
100
AcDbLine
 10
7.8832069922
 20
1.4456604517
 30
0.0
 11
6.3491817542
 21
1.4456604517
 31
0.0
  0
LINE
  5
3C
330
1F
100
AcDbEntity
  8
0
  6
Continuous
 62
     7
370
     0
100
AcDbLine
 10
7.8832069922
 20
1.5679813464
 30
0.0
 11
6.3491817542
 21
1.5679813464
 31
0.0
  0
LINE
  5
3D
330
1F
100
AcDbEntity
  8
0
  6
Continuous
 62
     7
370
     0
100
AcDbLine
 10
6.9294188505
 20
1.6988536355
 30
0.0
 11
6.9294188505
 21
1.2010186622
 31
0.0
  0
LINE
  5
3E
330
1F
100
AcDbEntity
  8
0
  6
Continuous
 62
     7
370
     0
100
AcDbLine
 10
7.2989435727
 20
1.6988536355
 30
0.0
 11
7.2989435727
 21
1.2010186622
 31
0.0
  0
LINE
  5
3F
330
1F
100
AcDbEntity
  8
0
  6
Continuous
 62
     7
370
     0
100
AcDbLine
 10
8.9000563418
 20
0.7890359178
 30
0.0
 11
8.9000563418
 21
0.3920731707
 31
0.0
  0
LINE
  5
40
330
1F
100
AcDbEntity
  8
0
  6
Continuous
 62
     7
370
     0
100
AcDbLine
 10
9.3113942988
 20
0.96139916
 30
0.0
 11
9.3113942988
 21
0.7890359178
 31
0.0
  0
LINE
  5
41
330
1F
100
AcDbEntity
  8
0
  6
Continuous
 62
     7
370
     0
100
AcDbLine
 10
10.0324602448
 20
1.270166923
 30
0.0
 11
10.0324602448
 21
0.96139916
 31
0.0
  0
LINE
  5
42
330
1F
100
AcDbEntity
  8
0
  6
Continuous
 62
     7
370
     0
100
AcDbLine
 10
6.3491817542
 20
1.0381709011
 30
0.0
 11
7.8832069922
 21
1.0381709011
 31
0.0
  0
LINE
  5
43
330
1F
100
AcDbEntity
  8
0
  6
Continuous
 62
     7
370
     0
100
AcDbLine
 10
7.8832069922
 20
1.9437769943
 30
0.0
 11
10.629927
 21
1.9437769943
 31
0.0
  0
LINE
  5
44
330
1F
100
AcDbEntity
  8
0
  6
Continuous
 62
     7
370
     0
100
AcDbLine
 10
10.315241862
 20
1.2693980507
 30
0.0
 11
10.315241862
 21
0.96139916
 31
0.0
  0
LINE
  5
45
330
1F
100
AcDbEntity
  8
0
  6
Continuous
 62
     7
370
     0
100
AcDbLine
 10
7.8832069922
 20
0.96139916
 30
0.0
 11
10.629927
 21
0.96139916
 31
0.0
  0
LINE
  5
46
330
1F
100
AcDbEntity
  8
0
  6
Continuous
 62
     7
370
     0
100
AcDbLine
 10
10.629927
 20
1.9437769943
 30
0.0
 11
10.629927
 21
1.9698084888
 31
0.0
  0
LINE
  5
47
330
1F
100
AcDbEntity
  8
0
  6
Continuous
 62
     7
370
     0
100
AcDbLine
 10
7.8832069922
 20
1.6268095213
 30
0.0
 11
10.629927
 21
1.6268095213
 31
0.0
  0
LINE
  5
48
330
1F
100
AcDbEntity
  8
0
  6
Continuous
 62
     7
370
     0
100
AcDbLine
 10
6.692177
 20
0.3920731707
 30
0.0
 11
6.692177
 21
0.3072739649
 31
0.0
  0
LINE
  5
49
330
1F
100
AcDbEntity
  8
0
  6
Continuous
 62
     7
370
     0
100
AcDbLine
 10
2.754677
 20
0.3920731707
 30
0.0
 11
2.754677
 21
0.3072739649
 31
0.0
  0
LINE
  5
4A
330
1F
100
AcDbEntity
  8
0
  6
Continuous
 62
     7
370
     0
100
AcDbLine
 10
2.754677
 20
0.3920731707
 30
0.0
 11
2.7672319738
 21
0.3575
 31
0.0
  0
LINE
  5
4B
330
1F
100
AcDbEntity
  8
0
  6
Continuous
 62
     7
370
     0
100
AcDbLine
 10
2.7672319738
 20
0.3575
 30
0.0
 11
2.7414258825
 21
0.3575
 31
0.0
  0
LINE
  5
4C
330
1F
100
AcDbEntity
  8
0
  6
Continuous
 62
     7
370
     0
100
AcDbLine
 10
2.7414258825
 20
0.3575
 30
0.0
 11
2.754677
 21
0.3920731707
 31
0.0
  0
MTEXT
  5
4E
330
1F
100
AcDbEntity
  8
0
  6
Continuous
 62
     7
370
     0
100
AcDbMText
 10
10.4043270877
 20
1.1203120088
 30
0.0
 40
0.1041666667
 41
0.0
 71
     1
 72
     1
  1
C
  7
SLDTEXTSTYLE0
 73
     1
 44
1.0
  0
MTEXT
  5
4F
330
1F
100
AcDbEntity
  8
0
  6
Continuous
 62
     7
370
     0
100
AcDbMText
 10
1.7387909509
 20
0.3094873007
 30
0.0
 40
0.09375
 41
0.0
 71
     1
 72
     1
  1
5
  7
SLDTEXTSTYLE0
 73
     1
 44
1.0
  0
MTEXT
  5
50
330
1F
100
AcDbEntity
  8
0
  6
Continuous
 62
     7
370
     0
100
AcDbMText
 10
3.723800327
 20
0.3126246278
 30
0.0
 40
0.09375
 41
0.0
 71
     1
 72
     1
  1
4
  7
SLDTEXTSTYLE0
 73
     1
 44
1.0
  0
MTEXT
  5
51
330
1F
100
AcDbEntity
  8
0
  6
Continuous
 62
     7
370
     0
100
AcDbMText
 10
5.6324457277
 20
0.3105200602
 30
0.0
 40
0.09375
 41
0.0
 71
     1
 72
     1
  1
3
  7
SLDTEXTSTYLE0
 73
     1
 44
1.0
  0
MTEXT
  5
52
330
1F
100
AcDbEntity
  8
0
  6
Continuous
 62
     7
370
     0
100
AcDbMText
 10
7.6059721724
 20
0.3113400111
 30
0.0
 40
0.09375
 41
0.0
 71
     1
 72
     1
  1
2
  7
SLDTEXTSTYLE0
 73
     1
 44
1.0
  0
MTEXT
  5
53
330
1F
100
AcDbEntity
  8
0
  6
Continuous
 62
     7
370
     0
100
AcDbMText
 10
9.6619921328
 20
0.300272888
 30
0.0
 40
0.09375
 41
0.0
 71
     1
 72
     1
  1
1
  7
SLDTEXTSTYLE0
 73
     1
 44
1.0
  0
MTEXT
  5
54
330
1F
100
AcDbEntity
  8
0
  6
Continuous
 62
     7
370
     0
100
AcDbMText
 10
9.3749733533
 20
0.5941666803
 30
0.0
 40
0.09375
 41
0.0
 71
     1
 72
     1
  1
MAP1075100-A1
  7
SLDTEXTSTYLE0
 73
     1
 44
1.0
  0
MTEXT
  5
55
330
1F
100
AcDbEntity
  8
0
  6
Continuous
 62
     7
370
     0
100
AcDbMText
 10
7.9301743649
 20
1.2499730493
 30
0.0
 40
0.0833333333
 41
0.0
 71
     1
 72
     1
  1
MATERIAL:
  7
SLDTEXTSTYLE0
 73
     1
 44
1.0
  0
MTEXT
  5
57
330
1F
100
AcDbEntity
  8
0
  6
Continuous
 62
     7
370
     0
100
AcDbMText
 10
8.9438302275
 20
0.7457341193
 30
0.0
 40
0.0833333333
 41
0.0
 71
     1
 72
     1
  1
PART  NO.
  7
SLDTEXTSTYLE1
 73
     1
 44
1.0
  0
MTEXT
  5
59
330
1F
100
AcDbEntity
  8
0
  6
Continuous
 62
     7
370
     0
100
AcDbMText
 10
6.3927073562
 20
1.1440291591
 30
0.0
 40
0.06
 41
0.0
 71
     1
 72
     1
  1
PROPRIETARY AND CONFIDENTIAL
  7
SLDTEXTSTYLE2
 73
     1
 44
1.0
  0
MTEXT
  5
5A
330
1F
100
AcDbEntity
  8
0
  6
Continuous
 62
     7
370
     0
100
AcDbMText
 10
6.4985660702
 20
1.5406501707
 30
0.0
 40
0.065
 41
0.0
 71
     1
 72
     1
  1
DRAWN
  7
SLDTEXTSTYLE0
 73
     1
 44
1.0
  0
MTEXT
  5
5B
330
1F
100
AcDbEntity
  8
0
  6
Continuous
 62
     7
370
     0
100
AcDbMText
 10
6.4369653776
 20
1.4183941661
 30
0.0
 40
0.065
 41
0.0
 71
     1
 72
     1
  1
ENG APPR.
  7
SLDTEXTSTYLE0
 73
     1
 44
1.0
  0
MTEXT
  5
5C
330
1F
100
AcDbEntity
  8
0
  6
Continuous
 62
     7
370
     0
100
AcDbMText
 10
6.4273055419
 20
1.298296273
 30
0.0
 40
0.065
 41
0.0
 71
     1
 72
     1
  1
MFG APPR.
  7
SLDTEXTSTYLE0
 73
     1
 44
1.0
  0
MTEXT
  5
5D
330
1F
100
AcDbEntity
  8
0
  6
Continuous
 62
     7
370
     0
100
AcDbMText
 10
6.9752663896
 20
1.6608078346
 30
0.0
 40
0.065
 41
0.0
 71
     1
 72
     1
  1
NAME
  7
SLDTEXTSTYLE0
 73
     1
 44
1.0
  0
MTEXT
  5
5E
330
1F
100
AcDbEntity
  8
0
  6
Continuous
 62
     7
370
     0
100
AcDbMText
 10
7.9386050459
 20
1.5661804433
 30
0.0
 40
0.1
 41
0.0
 71
     1
 72
     1
  1
TITLE:
  7
SLDTEXTSTYLE0
 73
     1
 44
1.0
  0
MTEXT
  5
5F
330
1F
100
AcDbEntity
  8
0
  6
Continuous
 62
     7
370
     0
100
AcDbMText
 10
10.0657693915
 20
1.2262994671
 30
0.0
 40
0.0833333333
 41
0.0
 71
     1
 72
     1
  1
SIZE
  7
SLDTEXTSTYLE0
 73
     1
 44
1.0
  0
MTEXT
  5
60
330
1F
100
AcDbEntity
  8
0
  6
Continuous
 62
     7
370
     0
100
AcDbMText
 10
10.1162261111
 20
1.1164461388
 30
0.0
 40
0.1041666667
 41
0.0
 71
     1
 72
     1
  1
A
  7
SLDTEXTSTYLE0
 73
     1
 44
1.0
  0
MTEXT
  5
61
330
1F
100
AcDbEntity
  8
0
  6
Continuous
 62
     7
370
     0
100
AcDbMText
 10
10.335100974
 20
1.2278993505
 30
0.0
 40
0.0833333333
 41
0.0
 71
     1
 72
     1
  1
REV.
  7
SLDTEXTSTYLE0
 73
     1
 44
1.0
  0
MTEXT
  5
62
330
1F
100
AcDbEntity
  8
0
  6
Continuous
 62
     7
370
     0
100
AcDbMText
 10
8.3227727705
 20
0.9309786574
 30
0.0
 40
0.0833333333
 41
0.0
 71
     1
 72
     1
  1
SCALE: 1:1
  7
SLDTEXTSTYLE0
 73
     1
 44
1.0
  0
MTEXT
  5
64
330
1F
100
AcDbEntity
  8
0
  6
Continuous
 62
     7
370
     0
100
AcDbMText
 10
9.6378279873
 20
0.926579063
 30
0.0
 40
0.0833333333
 41
0.0
 71
     1
 72
     1
  1
SHEET 1 OF 1
  7
SLDTEXTSTYLE3
 73
     1
 44
1.0
  0
MTEXT
  5
65
330
1F
100
AcDbEntity
  8
0
  6
Continuous
 62
     7
370
     0
100
AcDbMText
 10
8.0601341557
 20
0.6044052155
 30
0.0
 40
0.1041666667
 41
0.0
 71
     1
 72
     1
  1
13300-E01
  7
SLDTEXTSTYLE0
 73
     1
 44
1.0
  0
INSERT
  5
75
330
1F
100
AcDbEntity
  8
0
  6
Continuous
 62
     7
370
     0
100
AcDbBlockReference
  2
SW_NOTE_0
 10
6.3891646717
 20
0.9312082413
 30
0.0
  0
MTEXT
  5
76
330
1F
100
AcDbEntity
  8
0
  6
Continuous
 62
     7
370
     0
100
AcDbMText
 10
7.9076399399
 20
0.7468305835
 30
0.0
 40
0.0833333333
 41
0.0
 71
     1
 72
     1
  1
DWG.  NO.
  7
SLDTEXTSTYLE1
 73
     1
 44
1.0
  0
MTEXT
  5
77
330
1F
100
AcDbEntity
  8
0
  6
Continuous
 62
     7
370
     0
100
AcDbMText
 10
7.0592138229
 20
1.5434434118
 30
0.0
 40
0.065
 41
0.0
 71
     1
 72
     1
  1
AP
  7
SLDTEXTSTYLE0
 73
     1
 44
1.0
  0
MTEXT
  5
78
330
1F
100
AcDbEntity
  8
0
  6
Continuous
 62
     7
370
     0
100
AcDbMText
 10
7.0628716471
 20
1.4267005168
 30
0.0
 40
0.065
 41
0.0
 71
     1
 72
     1
  1
TO
  7
SLDTEXTSTYLE0
 73
     1
 44
1.0
  0
MTEXT
  5
79
330
1F
100
AcDbEntity
  8
0
  6
Continuous
 62
     7
370
     0
100
AcDbMText
 10
7.0636219211
 20
1.3041261123
 30
0.0
 40
0.065
 41
0.0
 71
     1
 72
     1
  1
TO
  7
SLDTEXTSTYLE0
 73
     1
 44
1.0
  0
MTEXT
  5
7A
330
1F
100
AcDbEntity
  8
0
  6
Continuous
 62
     7
370
     0
100
AcDbMText
 10
7.3775562039
 20
1.5451308061
 30
0.0
 40
0.065
 41
0.0
 71
     1
 72
     1
  1
04/12/06
  7
SLDTEXTSTYLE0
 73
     1
 44
1.0
  0
MTEXT
  5
7B
330
1F
100
AcDbEntity
  8
0
  6
Continuous
 62
     7
370
     0
100
AcDbMText
 10
7.4731545031
 20
1.6582684693
 30
0.0
 40
0.065
 41
0.0
 71
     1
 72
     1
  1
DATE
  7
SLDTEXTSTYLE0
 73
     1
 44
1.0
  0
MTEXT
  5
7C
330
1F
100
AcDbEntity
  8
0
  6
Continuous
 62
     7
370
     0
100
AcDbMText
 10
7.3821011998
 20
1.4184142209
 30
0.0
 40
0.065
 41
0.0
 71
     1
 72
     1
  1
04/13/06
  7
SLDTEXTSTYLE0
 73
     1
 44
1.0
  0
MTEXT
  5
7D
330
1F
100
AcDbEntity
  8
0
  6
Continuous
 62
     7
370
     0
100
AcDbMText
 10
7.3821011998
 20
1.2979456571
 30
0.0
 40
0.065
 41
0.0
 71
     1
 72
     1
  1
04/13/06
  7
SLDTEXTSTYLE0
 73
     1
 44
1.0
  0
MTEXT
  5
7E
330
1F
100
AcDbEntity
  8
0
  6
Continuous
 62
     7
370
     0
100
AcDbMText
 10
7.9182509893
 20
1.8945248266
 30
0.0
 40
0.1875
 41
0.0
 71
     1
 72
     1
  1
THORLABS INC.
  7
SLDTEXTSTYLE0
 73
     1
 44
1.0
  0
INSERT
  5
85
330
1F
100
AcDbEntity
  8
0
  6
Continuous
 62
     7
370
     0
100
AcDbBlockReference
  2
SW_NOTE_1
 10
9.7899715108
 20
1.7786954532
 30
0.0
  0
INSERT
  5
8C
330
1F
100
AcDbEntity
  8
0
  6
Continuous
 62
     7
370
     0
100
AcDbBlockReference
  2
SW_NOTE_2
 10
8.3227727705
 20
1.4202751703
 30
0.0
  0
MTEXT
  5
8D
330
1F
100
AcDbEntity
  8
0
  6
Continuous
 62
     7
370
     0
100
AcDbMText
 10
8.3691642187
 20
1.131481397
 30
0.0
 40
0.1041666667
 41
0.0
 71
     1
 72
     1
  1
SEE TABLE
  7
SLDTEXTSTYLE0
 73
     1
 44
1.0
  0
INSERT
  5
9D
330
1F
100
AcDbEntity
  8
0
  6
Continuous
 62
     7
370
     0
100
AcDbBlockReference
  2
SW_NOTE_3
 10
0.8014463909
 20
1.9507502886
 30
0.0
  0
MTEXT
  5
9E
330
1F
100
AcDbEntity
  8
0
  6
Continuous
 62
     7
370
     0
100
AcDbMText
 10
0.8204544462
 20
2.2570689847
 30
0.0
 40
0.09
 41
0.0
 71
     1
 72
     1
  1
SPECIFICATIONS:
  7
SLDTEXTSTYLE0
 73
     1
 44
1.0
  0
INSERT
  5
A5
330
1F
100
AcDbEntity
  8
0
  6
Continuous
 62
     7
370
     0
100
AcDbBlockReference
  2
SW_NOTE_4
 10
0.4948605893
 20
0.6907607603
 30
0.0
  0
INSERT
  5
C2
330
1F
100
AcDbEntity
  8
0
  6
Continuous
 62
     7
370
     0
100
AcDbBlockReference
  2
SW_TABLEANNOTATION_0
 10
0.3174104478
 20
8.1967910448
 30
0.0
  0
ARC
  5
C3
330
1F
100
AcDbEntity
  8
0
  6
Continuous
 62
     7
370
     0
100
AcDbCircle
 10
1.5186468471
 20
4.5532470155
 30
0.0
 40
0.4499999999999997
100
AcDbArc
 50
88.6585667687
 51
266.7486190211
  0
LINE
  5
C4
330
1F
100
AcDbEntity
  8
0
  6
Continuous
 62
     7
370
     0
100
AcDbLine
 10
1.4911133631
 20
4.0538259081
 30
0.0
 11
1.4931242636
 21
4.1039713955
 31
0.0
  0
ARC
  5
C5
330
1F
100
AcDbEntity
  8
0
  6
Continuous
 62
     7
370
     0
100
AcDbCircle
 10
1.5186468471
 20
4.5532470155
 30
0.0
 40
0.5001794919243121
100
AcDbArc
 50
88.5627533718
 51
266.8444324179
  0
LINE
  5
C6
330
1F
100
AcDbEntity
  8
0
  6
Continuous
 62
     7
370
     0
100
AcDbLine
 10
1.5311923764
 20
5.0532691558
 30
0.0
 11
1.529181477
 21
5.0031237051
 31
0.0
  0
ARC
  5
C7
330
1F
100
AcDbEntity
  8
0
  6
Continuous
 62
     7
370
     0
100
AcDbCircle
 10
1.5186468471
 20
4.5532470155
 30
0.0
 40
0.5001794919243121
100
AcDbArc
 50
268.5627533718
 51
86.8444324179
  0
SPLINE
  5
C8
330
1F
100
AcDbEntity
  8
0
  6
Continuous
 62
     7
370
     0
100
AcDbSpline
210
0.0
220
0.0
230
1.0
 70
    24
 71
     1
 72
     4
 73
     2
 74
     0
 42
0.00000001
 43
0.00000001
 40
0.0
 40
0.0
 40
1.0
 40
1.0
 10
1.546180331154941
 20
5.052668122764375
 30
0.0
 10
1.546376289307882
 20
5.057554742980389
 30
0.0
  0
SPLINE
  5
C9
330
1F
100
AcDbEntity
  8
0
  6
Continuous
 62
     7
370
     0
100
AcDbSpline
210
0.0
220
0.0
230
1.0
 70
    24
 71
     1
 72
     4
 73
     2
 74
     0
 42
0.00000001
 43
0.00000001
 40
0.0
 40
0.0
 40
1.0
 40
1.0
 10
1.505903037170844
 20
4.048280395537108
 30
0.0
 10
1.506101317901122
 20
4.053224875084726
 30
0.0
  0
SPLINE
  5
CA
330
1F
100
AcDbEntity
  8
0
  6
Continuous
 62
     7
370
     0
100
AcDbSpline
210
0.0
220
0.0
230
1.0
 70
    24
 71
     1
 72
     4
 73
     2
 74
     0
 42
0.00000001
 43
0.00000001
 40
0.0
 40
0.0
 40
1.0
 40
1.0
 10
1.491113363126588
 20
4.05382590814154
 30
0.0
 10
1.490890283411957
 20
4.048263015737882
 30
0.0
  0
SPLINE
  5
CB
330
1F
100
AcDbEntity
  8
0
  6
Continuous
 62
     7
370
     0
100
AcDbSpline
210
0.0
220
0.0
230
1.0
 70
    24
 71
     1
 72
     4
 73
     2
 74
     0
 42
0.00000001
 43
0.00000001
 40
0.0
 40
0.0
 40
1.0
 40
1.0
 10
1.531410262092539
 20
5.058702506387995
 30
0.0
 10
1.531192376380407
 20
5.053269155821191
 30
0.0
  0
LINE
  5
CC
330
1F
100
AcDbEntity
  8
0
  6
Continuous
 62
     7
370
     0
100
AcDbLine
 10
1.5461803312
 20
5.0526681228
 30
0.0
 11
1.5441694306
 21
5.0025226354
 31
0.0
  0
LINE
  5
CD
330
1F
100
AcDbEntity
  8
0
  6
Continuous
 62
     7
370
     0
100
AcDbLine
 10
1.5061013179
 20
4.0532248751
 30
0.0
 11
1.5081122173
 21
4.1033703258
 31
0.0
  0
ARC
  5
CE
330
1F
100
AcDbEntity
  8
0
  6
Continuous
 62
     7
370
     0
100
AcDbCircle
 10
1.5186468471
 20
4.5532470155
 30
0.0
 40
0.4499999999999996
100
AcDbArc
 50
268.6585667687
 51
86.7486190211
  0
ARC
  5
CF
330
1F
100
AcDbEntity
  8
0
  6
Continuous
 62
     7
370
     0
100
AcDbCircle
 10
1.5186468471
 20
4.5532470155
 30
0.0
 40
0.4499999999999996
100
AcDbArc
 50
86.7486190211
 51
88.6585667687
  0
ARC
  5
D0
330
1F
100
AcDbEntity
  8
0
  6
Continuous
 62
     7
370
     0
100
AcDbCircle
 10
1.5186468471
 20
4.5532470155
 30
0.0
 40
0.4499999999999997
100
AcDbArc
 50
266.7486190211
 51
268.6585667687
  0
CIRCLE
  5
D1
330
1F
100
AcDbEntity
  8
0
  6
Continuous
 62
     7
370
     0
100
AcDbCircle
 10
1.5186468471
 20
4.5532470155
 30
0.0
 40
0.5899999999999996
  0
CIRCLE
  5
D2
330
1F
100
AcDbEntity
  8
0
  6
Continuous
 62
     7
370
     0
100
AcDbCircle
 10
1.5186468471
 20
4.5532470155
 30
0.0
 40
0.5999999999999996
  0
CIRCLE
  5
D3
330
1F
100
AcDbEntity
  8
0
  6
Continuous
 62
     7
370
     0
100
AcDbCircle
 10
1.5186468471
 20
4.5532470155
 30
0.0
 40
0.5059999999999992
  0
CIRCLE
  5
D4
330
1F
100
AcDbEntity
  8
0
  6
Continuous
 62
     7
370
     0
100
AcDbCircle
 10
1.5186468471
 20
4.5532470155
 30
0.0
 40
0.5159999999999993
  0
DIMENSION
  5
D5
330
1F
100
AcDbEntity
  8
0
  6
Continuous
 62
     7
370
     0
100
AcDbDimension
  2
*D7
 10
1.3663720897
 20
3.9832361399
 30
0.0
 11
2.3673192929
 21
5.5963767842
 31
0.0
 70
   163
  1
<>
 71
     1
 42
-1.0
  3
SLDDIMSTYLE0
100
AcDbDiametricDimension
 15
1.6709216046
 25
5.123257891
 35
0.0
 40
0.0
  0
LINE
  5
E6
330
1F
100
AcDbEntity
  8
0
  6
PHANTOM
 62
     7
370
    30
100
AcDbLine
 10
1.5186468471
 20
5.4022381134
 30
0.0
 11
1.5186468471
 21
3.7299829205
 31
0.0
  0
LINE
  5
E7
330
1F
100
AcDbEntity
  8
0
  6
Continuous
 62
     7
370
    30
100
AcDbLine
 10
1.5186468471
 20
5.4022381134
 30
0.0
 11
1.0486468471
 21
5.4022381134
 31
0.0
  0
SOLID
  5
E8
330
1F
100
AcDbEntity
  8
0
  6
Continuous
 62
     7
370
    30
100
AcDbTrace
 10
1.0486468471
 20
5.4022381134
 30
0.0
 11
1.2886468471
 21
5.3422381134
 31
0.0
 12
1.2886468471
 22
5.4622381134
 32
0.0
 13
1.2886468471
 23
5.4622381134
 33
0.0
  0
LINE
  5
E9
330
1F
100
AcDbEntity
  8
0
  6
Continuous
 62
     7
370
    30
100
AcDbLine
 10
1.5186468471
 20
3.7299829205
 30
0.0
 11
1.0486468471
 21
3.7299829205
 31
0.0
  0
SOLID
  5
EA
330
1F
100
AcDbEntity
  8
0
  6
Continuous
 62
     7
370
    30
100
AcDbTrace
 10
1.0486468471
 20
3.7299829205
 30
0.0
 11
1.2886468471
 21
3.6699829205
 31
0.0
 12
1.2886468471
 22
3.7899829205
 32
0.0
 13
1.2886468471
 23
3.7899829205
 33
0.0
  0
MTEXT
  5
EB
330
1F
100
AcDbEntity
  8
0
  6
Continuous
 62
     7
100
AcDbMText
 10
0.7270359522
 20
5.6006618488
 30
0.0
 40
0.25
 41
0.0
 71
     1
 72
     1
  1
A
  7
SLDTEXTSTYLE0
 73
     1
 44
1.0
  0
MTEXT
  5
EC
330
1F
100
AcDbEntity
  8
0
  6
Continuous
 62
     7
100
AcDbMText
 10
0.7270359522
 20
3.9284066559
 30
0.0
 40
0.25
 41
0.0
 71
     1
 72
     1
  1
A
  7
SLDTEXTSTYLE0
 73
     1
 44
1.0
  0
LINE
  5
ED
330
1F
100
AcDbEntity
  8
0
  6
Continuous
 62
     7
370
     0
100
AcDbLine
 10
6.7476577799
 20
7.169242242
 30
0.0
 11
6.7476577799
 21
7.1610781608
 31
0.0
  0
LINE
  5
EE
330
1F
100
AcDbEntity
  8
0
  6
Continuous
 62
     7
370
     0
100
AcDbLine
 10
7.1647829752
 20
6.4385178385
 30
0.0
 11
7.1718528938
 21
6.4344351345
 31
0.0
  0
LINE
  5
EF
330
1F
100
AcDbEntity
  8
0
  6
Continuous
 62
     7
370
     0
100
AcDbLine
 10
7.0521635817
 20
7.5479863892
 30
0.0
 11
6.8719462288
 21
7.4439491258
 31
0.0
  0
LINE
  5
F0
330
1F
100
AcDbEntity
  8
0
  6
Continuous
 62
     7
370
     0
100
AcDbLine
 10
7.1702298725
 20
7.616144608
 30
0.0
 11
7.0932155521
 21
7.5716851872
 31
0.0
  0
LINE
  5
F1
330
1F
100
AcDbEntity
  8
0
  6
Continuous
 62
     7
370
     0
100
AcDbLine
 10
7.7063322306
 20
7.9256299118
 30
0.0
 11
7.1899935695
 21
7.6275539475
 31
0.0
  0
LINE
  5
F2
330
1F
100
AcDbEntity
  8
0
  6
Continuous
 62
     7
370
     0
100
AcDbLine
 10
7.6931667917
 20
6.5324265524
 30
0.0
 11
8.3062834702
 21
6.886371277
 31
0.0
  0
LINE
  5
F3
330
1F
100
AcDbEntity
  8
0
  6
Continuous
 62
     7
370
     0
100
AcDbLine
 10
7.5654182146
 20
6.4586788686
 30
0.0
 11
7.6358635928
 21
6.4993461198
 31
0.0
  0
LINE
  5
F4
330
1F
100
AcDbEntity
  8
0
  6
Continuous
 62
     7
370
     0
100
AcDbLine
 10
7.5358052917
 20
6.4415836921
 30
0.0
 11
7.5541859261
 21
6.4521946065
 31
0.0
  0
LINE
  5
F5
330
1F
100
AcDbEntity
  8
0
  6
Continuous
 62
     7
370
     0
100
AcDbLine
 10
7.4718974684
 20
6.404690491
 30
0.0
 11
7.5270333235
 21
6.4365197426
 31
0.0
  0
LINE
  5
F6
330
1F
100
AcDbEntity
  8
0
  6
Continuous
 62
     7
370
     0
100
AcDbLine
 10
8.4305719191
 20
7.1610781608
 30
0.0
 11
8.4305719191
 21
7.169242242
 31
0.0
  0
LINE
  5
F7
330
1F
100
AcDbEntity
  8
0
  6
Continuous
 62
     7
370
     0
100
AcDbLine
 10
8.0134467238
 20
7.8918025643
 30
0.0
 11
8.0063768053
 21
7.8958852683
 31
0.0
  0
LINE
  5
F8
330
1F
100
AcDbEntity
  8
0
  6
Continuous
 62
     7
370
     0
100
AcDbLine
 10
7.5541859261
 20
6.4521946065
 30
0.0
 11
7.5654182146
 21
6.4586788686
 31
0.0
  0
LINE
  5
F9
330
1F
100
AcDbEntity
  8
0
  6
Continuous
 62
     7
370
     0
100
AcDbLine
 10
7.5270333235
 20
6.4365197426
 30
0.0
 11
7.5358052917
 21
6.4415836921
 31
0.0
  0
LINE
  5
FA
330
1F
100
AcDbEntity
  8
0
  6
Continuous
 62
     7
370
     0
100
AcDbLine
 10
7.0932155521
 20
7.5716851872
 30
0.0
 11
7.0521635817
 21
7.5479863892
 31
0.0
  0
LINE
  5
FB
330
1F
100
AcDbEntity
  8
0
  6
Continuous
 62
     7
370
     0
100
AcDbLine
 10
7.6358635928
 20
6.4993461198
 30
0.0
 11
7.6931667917
 21
6.5324265524
 31
0.0
  0
LINE
  5
FC
330
1F
100
AcDbEntity
  8
0
  6
Continuous
 62
     7
370
     0
100
AcDbLine
 10
7.1855755154
 20
7.6250034591
 30
0.0
 11
7.1700789776
 21
7.6160574982
 31
0.0
  0
LWPOLYLINE
  5
FD
330
1F
100
AcDbEntity
  8
0
  6
Continuous
 62
     7
370
     0
100
AcDbPolyline
 90
       84
 70
   128
 43
0.0
 10
7.5820064389
 20
6.6858646329
 10
7.5803895766
 20
6.7232111412
 10
7.5763925457
 20
6.7616862001
 10
7.5700382408
 20
6.801069428
 10
7.5613630589
 20
6.8411352414
 10
7.5504166905
 20
6.881654147
 10
7.5372618355
 20
6.922394056
 10
7.5219738437
 20
6.9631216139
 10
7.5046402834
 20
7.0036035371
 10
7.4853604395
 20
7.0436079487
 10
7.4642447454
 20
7.0829057071
 10
7.4414141497
 20
7.1212717183
 10
7.4169994241
 20
7.1584862252
 10
7.3911404139
 20
7.1943360665
 10
7.3639852372
 20
7.2286158976
 10
7.3356894364
 20
7.2611293667
 10
7.3064150872
 20
7.2916902396
 10
7.2763298705
 20
7.3201234663
 10
7.2456061116
 20
7.346266184
 10
7.2144197935
 20
7.3699686495
 10
7.1829495486
 20
7.3910950972
 10
7.1513756357
 20
7.4095245168
 10
7.1198789071
 20
7.4251513462
 10
7.0886397733
 20
7.4378860764
 10
7.0578371693
 20
7.4476557639
 10
7.0276475296
 20
7.4544044489
 10
6.9982437776
 20
7.4580934756
 10
6.9697943355
 20
7.4587017134
 10
6.9424621591
 20
7.4562256785
 10
6.9164038045
 20
7.4506795534
 10
6.8917685317
 20
7.4420951058
 10
6.8686974493
 20
7.4305215067
 10
6.8473227064
 20
7.4160250484
 10
6.8277667355
 20
7.3986887656
 10
6.8101415515
 20
7.3786119587
 10
6.7945481099
 20
7.355909626
 10
6.7810757284
 20
7.3307118044
 10
6.7698015756
 20
7.3031628246
 10
6.760790229
 20
7.2734204848
 10
6.7540933046
 20
7.2416551464
 10
6.7497491618
 20
7.2080487583
 10
6.7477826835
 20
7.1727938149
 10
6.7482051334
 20
7.1360922534
 10
6.751014092
 20
7.098154297
 10
6.7561934696
 20
7.0591972507
 10
6.7637135992
 20
7.0194442572
 10
6.7735314064
 20
6.9791230178
 10
6.7855906554
 20
6.9384644891
 10
6.7998222721
 20
6.8977015593
 10
6.8161447391
 20
6.8570677149
 10
6.8344645627
 20
6.8167957029
 10
6.8546768086
 20
6.7771161976
 10
6.8766657029
 20
6.7382564798
 10
6.9003052953
 20
6.7004391343
 10
6.9254601802
 20
6.6638807754
 10
6.9519862729
 20
6.6287908062
 10
6.9797316341
 20
6.5953702188
 10
7.0085373411
 20
6.5638104432
 10
7.0382383973
 20
6.5342922512
 10
7.0686646778
 20
6.50698472
 10
7.0996419035
 20
6.482044265
 10
7.1309926398
 20
6.4596137426
 10
7.1625373125
 20
6.4398216329
 10
7.1940952365
 20
6.4227813034
 10
7.2254856509
 20
6.4085903594
 10
7.2565287542
 20
6.3973300854
 10
7.2870467345
 20
6.3890649793
 10
7.3168647873
 20
6.3838423829
 10
7.3458121177
 20
6.3816922106
 10
7.373722918
 20
6.3826267785
 10
7.4004373176
 20
6.3866407334
 10
7.4258022988
 20
6.3937110839
 10
7.4496725734
 20
6.4037973315
 10
7.4719114145
 20
6.4168417032
 10
7.4923914401
 20
6.4327694819
 10
7.5109953425
 20
6.4514894348
 10
7.5276165602
 20
6.4728943358
 10
7.5421598884
 20
6.4968615794
 10
7.5545420241
 20
6.5232538834
 10
7.5646920437
 20
6.5519200752
 10
7.5725518088
 20
6.5826959574
 10
7.5780762993
 20
6.6154052486
 10
7.5812338714
 20
6.6498605927
 10
7.5820064389
 20
6.6858646329
  0
LWPOLYLINE
  5
FE
330
1F
100
AcDbEntity
  8
0
  6
Continuous
 62
     7
370
     0
100
AcDbPolyline
 90
       23
 70
   128
 43
0.0
 10
7.5961479416
 20
6.6859742474
 10
7.5953859207
 20
6.6497869981
 10
7.5922557169
 20
6.6151350477
 10
7.5867748357
 20
6.5822121838
 10
7.5789739282
 20
6.5512025245
 10
7.5688966205
 20
6.5222794885
 10
7.5565992687
 20
6.495604825
 10
7.5421506448
 20
6.4713277096
 10
7.5256315513
 20
6.4495839097
 10
7.5071343696
 20
6.4304950256
 10
7.4867625436
 20
6.4141678099
 10
7.4646300007
 20
6.4006935712
 10
7.440860515
 20
6.3901476628
 10
7.4155870153
 20
6.3825890617
 10
7.3889508411
 20
6.3780600387
 10
7.3611009527
 20
6.376585922
 10
7.332193098
 20
6.3781749552
 10
7.3023889415
 20
6.3828182521
 10
7.2718551601
 20
6.3904898453
 10
7.2407625111
 20
6.4011468322
 10
7.2092848772
 20
6.4147296146
 10
7.177598294
 20
6.4311622321
 10
7.1718528938
 20
6.4344351345
  0
LWPOLYLINE
  5
FF
330
1F
100
AcDbEntity
  8
0
  6
Continuous
 62
     7
370
     0
100
AcDbPolyline
 90
       43
 70
   128
 43
0.0
 10
6.7476577799
 20
7.169242242
 10
6.7484577765
 20
7.1988526187
 10
6.7515879803
 20
7.2335045692
 10
6.7570688616
 20
7.266427433
 10
6.764869769
 20
7.2974370923
 10
6.7749470768
 20
7.3263601283
 10
6.7872444285
 20
7.3530347919
 10
6.8016930524
 20
7.3773119073
 10
6.818212146
 20
7.3990557071
 10
6.8367093276
 20
7.4181445913
 10
6.8570811537
 20
7.4344718069
 10
6.8792136966
 20
7.4479460456
 10
6.9029831822
 20
7.458491954
 10
6.928256682
 20
7.4660505551
 10
6.9548928562
 20
7.4705795781
 10
6.9827427446
 20
7.4720536949
 10
7.0116505992
 20
7.4704646616
 10
7.0414547557
 20
7.4658213647
 10
7.0719885371
 20
7.4581497715
 10
7.1030811861
 20
7.4474927846
 10
7.1345588201
 20
7.4339100022
 10
7.1662454032
 20
7.4174773848
 10
7.1979637313
 20
7.3982868301
 10
7.2295364227
 20
7.3764456596
 10
7.26078691
 20
7.3520760179
 10
7.2915404278
 20
7.3253141899
 10
7.32162499
 20
7.2963098388
 10
7.3508723515
 20
7.2652251685
 10
7.3791189492
 20
7.2322340171
 10
7.4062068167
 20
7.1975208846
 10
7.4319844675
 20
7.1612799008
 10
7.4563077428
 20
7.1237137401
 10
7.4790406167
 20
7.0850324877
 10
7.500055958
 20
7.0454524647
 10
7.5192362402
 20
7.0051950188
 10
7.5364741994
 20
6.9644852859
 10
7.551673434
 20
6.9235509314
 10
7.5647489437
 20
6.8826208767
 10
7.5756276049
 20
6.8419240194
 10
7.5842485798
 20
6.8016879528
 10
7.5905636564
 20
6.7621376932
 10
7.5945375181
 20
6.7234944218
 10
7.5961479416
 20
6.6859742474
  0
LINE
  5
100
330
1F
100
AcDbEntity
  8
0
  6
Continuous
 62
     7
370
     0
100
AcDbLine
 10
7.9844249898
 20
7.8187910199
 30
0.0
 11
7.9969141485
 21
7.8260008577
 31
0.0
  0
ARC
  5
101
330
1F
100
AcDbEntity
  8
0
  6
Continuous
 62
     7
370
     0
100
AcDbCircle
 10
7.5652309591
 20
7.2387368382
 30
0.0
 40
0.7156720540974105
100
AcDbArc
 50
49.9584009044
 51
54.145082443
  0
LINE
  5
102
330
1F
100
AcDbEntity
  8
0
  6
Continuous
 62
     7
370
     0
100
AcDbLine
 10
8.0381431679
 20
7.7938491346
 30
0.0
 11
8.0256540091
 21
7.7866392967
 31
0.0
  0
ARC
  5
103
330
1F
100
AcDbEntity
  8
0
  6
Continuous
 62
     7
370
     0
100
AcDbCircle
 10
7.5777201178
 20
7.2459466761
 30
0.0
 40
0.7156720540970433
100
AcDbArc
 50
49.9584009044
 51
54.145082443
  0
SPLINE
  5
104
330
1F
100
AcDbEntity
  8
0
  6
Continuous
 62
     7
370
     0
100
AcDbSpline
210
0.0
220
0.0
230
1.0
 70
     8
 71
     3
 72
     9
 73
     5
 74
     0
 42
0.00000001
 43
0.00000001
 40
0.0
 40
0.0
 40
0.0
 40
0.0
 40
0.5000993720193339
 40
1.0
 40
1.0
 40
1.0
 40
1.0
 10
7.991134978904805
 20
7.845929609094255
 30
0.0
 10
7.981875001022394
 20
7.842252558875786
 30
0.0
 10
7.963358725257
 20
7.834899919732046
 30
0.0
 10
7.940901788674316
 20
7.833375151294333
 30
0.0
 10
7.929675551974111
 20
7.832612918594795
 30
0.0
  0
ARC
  5
105
330
1F
100
AcDbEntity
  8
0
  6
Continuous
 62
     7
370
     0
100
AcDbCircle
 10
7.6458557211
 20
7.3315091635
 30
0.0
 40
0.6195531943999818
100
AcDbArc
 50
56.1304683513
 51
57.8286787572
  0
SPLINE
  5
106
330
1F
100
AcDbEntity
  8
0
  6
Continuous
 62
     7
370
     0
100
AcDbSpline
210
0.0
220
0.0
230
1.0
 70
    24
 71
     1
 72
     4
 73
     2
 74
     0
 42
0.00000001
 43
0.00000001
 40
0.0
 40
0.0
 40
1.0
 40
1.0
 10
7.955480555642549
 20
7.847839734598073
 30
0.0
 10
7.975738465504783
 20
7.855936027477569
 30
0.0
  0
SPLINE
  5
107
330
1F
100
AcDbEntity
  8
0
  6
Continuous
 62
     7
370
     0
100
AcDbSpline
210
0.0
220
0.0
230
1.0
 70
    24
 71
     1
 72
     4
 73
     2
 74
     0
 42
0.00000001
 43
0.00000001
 40
0.0
 40
0.0
 40
1.0
 40
1.0
 10
7.930815389659691
 20
7.842662430579034
 30
0.0
 10
7.955480555642549
 20
7.847839734598073
 30
0.0
  0
SPLINE
  5
108
330
1F
100
AcDbEntity
  8
0
  6
Continuous
 62
     7
370
     0
100
AcDbSpline
210
0.0
220
0.0
230
1.0
 70
    24
 71
     1
 72
     4
 73
     2
 74
     0
 42
0.00000001
 43
0.00000001
 40
0.0
 40
0.0
 40
1.0
 40
1.0
 10
7.9091779973937
 20
7.841738454462273
 30
0.0
 10
7.930815389659691
 20
7.842662430579034
 30
0.0
  0
LINE
  5
109
330
1F
100
AcDbEntity
  8
0
  6
Continuous
 62
     7
370
     0
100
AcDbLine
 10
7.8986058327
 20
7.8356352737
 30
0.0
 11
7.9091779974
 21
7.8417384545
 31
0.0
  0
ARC
  5
10A
330
1F
100
AcDbEntity
  8
0
  6
Continuous
 62
     7
370
     0
100
AcDbCircle
 10
7.5957405328
 20
7.3083395854
 30
0.0
 40
0.6080856294438751
100
AcDbArc
 50
55.0515104594
 51
60.1280306477
  0
LINE
  5
10B
330
1F
100
AcDbEntity
  8
0
  6
Continuous
 62
     7
370
     0
100
AcDbLine
 10
7.9572999768
 20
7.8144014824
 30
0.0
 11
7.9440761617
 21
7.8067675365
 31
0.0
  0
ARC
  5
10C
330
1F
100
AcDbEntity
  8
0
  6
Continuous
 62
     7
370
     0
100
AcDbCircle
 10
7.5987916394
 20
7.3006471621
 30
0.0
 40
0.6264756417230098
100
AcDbArc
 50
55.0918720852
 51
58.1182937314
  0
LINE
  5
10D
330
1F
100
AcDbEntity
  8
0
  6
Continuous
 62
     7
370
     0
100
AcDbLine
 10
7.8577791696
 20
7.892190377
 30
0.0
 11
7.8784872968
 21
7.9041449243
 31
0.0
  0
ARC
  5
10E
330
1F
100
AcDbEntity
  8
0
  6
Continuous
 62
     7
370
     0
100
AcDbCircle
 10
7.8472122776
 20
7.9073428206
 30
0.0
 40
0.0184731089757506
100
AcDbArc
 50
255.8339046921
 51
304.8908448351
  0
SPLINE
  5
10F
330
1F
100
AcDbEntity
  8
0
  6
Continuous
 62
     7
370
     0
100
AcDbSpline
210
0.0
220
0.0
230
1.0
 70
     8
 71
     3
 72
    11
 73
     7
 74
     0
 42
0.00000001
 43
0.00000001
 40
0.0
 40
0.0
 40
0.0
 40
0.0
 40
0.2500620333659201
 40
0.4999138376966722
 40
0.7498401673007575
 40
1.0
 40
1.0
 40
1.0
 40
1.0
 10
7.84129204584188
 20
7.892999803253158
 30
0.0
 10
7.841023434390993
 20
7.892648205018139
 30
0.0
 10
7.840486437312893
 20
7.891945304139385
 30
0.0
 10
7.840523185196944
 20
7.89091892113928
 30
0.0
 10
7.84123332702061
 20
7.890027388880441
 30
0.0
 10
7.842205148235727
 20
7.889630173186205
 30
0.0
 10
7.842691285727448
 20
7.889431472603974
 30
0.0
  0
SPLINE
  5
110
330
1F
100
AcDbEntity
  8
0
  6
Continuous
 62
     7
370
     0
100
AcDbSpline
210
0.0
220
0.0
230
1.0
 70
    24
 71
     1
 72
     4
 73
     2
 74
     0
 42
0.00000001
 43
0.00000001
 40
0.0
 40
0.0
 40
1.0
 40
1.0
 10
7.844616742264319
 20
7.895203357852725
 30
0.0
 10
7.84129204584188
 20
7.892999803253158
 30
0.0
  0
LINE
  5
111
330
1F
100
AcDbEntity
  8
0
  6
Continuous
 62
     7
370
     0
100
AcDbLine
 10
7.8669663673
 20
7.9081055218
 30
0.0
 11
7.8446167423
 21
7.8952033579
 31
0.0
  0
ARC
  5
112
330
1F
100
AcDbEntity
  8
0
  6
Continuous
 62
     7
370
     0
100
AcDbCircle
 10
7.7465456578
 20
7.5401940083
 30
0.0
 40
0.3871175906786148
100
AcDbArc
 50
71.8762681999
 51
74.1998370095
  0
LINE
  5
113
330
1F
100
AcDbEntity
  8
0
  6
Continuous
 62
     7
370
     0
100
AcDbLine
 10
7.8309560884
 20
7.9005650052
 30
0.0
 11
7.8519511907
 21
7.9126852198
 31
0.0
  0
ARC
  5
114
330
1F
100
AcDbEntity
  8
0
  6
Continuous
 62
     7
370
     0
100
AcDbCircle
 10
7.8198438309
 20
7.9167124954
 30
0.0
 40
0.0196016250768959
100
AcDbArc
 50
259.5632724211
 51
304.5346764781
  0
SPLINE
  5
115
330
1F
100
AcDbEntity
  8
0
  6
Continuous
 62
     7
370
     0
100
AcDbSpline
210
0.0
220
0.0
230
1.0
 70
     8
 71
     3
 72
    10
 73
     6
 74
     0
 42
0.00000001
 43
0.00000001
 40
0.0
 40
0.0
 40
0.0
 40
0.0
 40
0.4988226573032887
 40
0.7491700015752213
 40
1.0
 40
1.0
 40
1.0
 40
1.0
 10
7.814422320097866
 20
7.89968133565783
 30
0.0
 10
7.814374744203683
 20
7.899206792166772
 30
0.0
 10
7.814303291088638
 20
7.898494086473198
 30
0.0
 10
7.815217944038303
 20
7.897787877484908
 30
0.0
 10
7.815934420980677
 20
7.897552813538681
 30
0.0
 10
7.816293004450075
 20
7.8974351683775
 30
0.0
  0
SPLINE
  5
116
330
1F
100
AcDbEntity
  8
0
  6
Continuous
 62
     7
370
     0
100
AcDbSpline
210
0.0
220
0.0
230
1.0
 70
     8
 71
     3
 72
     9
 73
     5
 74
     0
 42
0.00000001
 43
0.00000001
 40
0.0
 40
0.0
 40
0.0
 40
0.0
 40
0.501577137328086
 40
1.0
 40
1.0
 40
1.0
 40
1.0
 10
7.817426948014602
 20
7.902320505106236
 30
0.0
 10
7.816707209340497
 20
7.901893463807308
 30
0.0
 10
7.815272258222233
 20
7.901042066749615
 30
0.0
 10
7.814705036414865
 20
7.90013395788016
 30
0.0
 10
7.814422320097866
 20
7.89968133565783
 30
0.0
  0
LINE
  5
117
330
1F
100
AcDbEntity
  8
0
  6
Continuous
 62
     7
370
     0
100
AcDbLine
 10
7.8406030615
 20
7.9156997906
 30
0.0
 11
7.817426948
 21
7.9023205051
 31
0.0
  0
ARC
  5
118
330
1F
100
AcDbEntity
  8
0
  6
Continuous
 62
     7
370
     0
100
AcDbCircle
 10
7.7569883374
 20
7.5794366626
 30
0.0
 40
0.3465029773788755
100
AcDbArc
 50
76.0361140409
 51
78.5378883653
  0
LINE
  5
119
330
1F
100
AcDbEntity
  8
0
  6
Continuous
 62
     7
370
     0
100
AcDbLine
 10
7.8001209179
 20
7.9041786877
 30
0.0
 11
7.8258453708
 21
7.9190290982
 31
0.0
  0
SPLINE
  5
11A
330
1F
100
AcDbEntity
  8
0
  6
Continuous
 62
     7
370
     0
100
AcDbSpline
210
0.0
220
0.0
230
1.0
 70
     8
 71
     3
 72
    13
 73
     9
 74
     0
 42
0.00000001
 43
0.00000001
 40
0.0
 40
0.0
 40
0.0
 40
0.0
 40
0.2493551011004277
 40
0.3758643206478676
 40
0.4994912623304199
 40
0.6184449072904874
 40
0.749784392502
 40
1.0
 40
1.0
 40
1.0
 40
1.0
 10
7.797469639724014
 20
7.891835716135382
 30
0.0
 10
7.79564966790002
 20
7.892397149691197
 30
0.0
 10
7.79290634133399
 20
7.893243424105131
 30
0.0
 10
7.791384749916062
 20
7.895146776910297
 30
0.0
 10
7.791346407865728
 20
7.896802419801951
 30
0.0
 10
7.792461189027581
 20
7.898640558006371
 30
0.0
 10
7.795165219921882
 20
7.901148617450009
 30
0.0
 10
7.798158191591785
 20
7.902978614823127
 30
0.0
 10
7.800120917916026
 20
7.904178687664988
 30
0.0
  0
ARC
  5
11B
330
1F
100
AcDbEntity
  8
0
  6
Continuous
 62
     7
370
     0
100
AcDbCircle
 10
7.8071687471
 20
7.9343392546
 30
0.0
 40
0.0435961404574635
100
AcDbArc
 50
257.1454810688
 51
284.9337000462
  0
SPLINE
  5
11C
330
1F
100
AcDbEntity
  8
0
  6
Continuous
 62
     7
370
     0
100
AcDbSpline
210
0.0
220
0.0
230
1.0
 70
     8
 71
     3
 72
    12
 73
     8
 74
     0
 42
0.00000001
 43
0.00000001
 40
0.0
 40
0.0
 40
0.0
 40
0.0
 40
0.2503533688407839
 40
0.499996194321629
 40
0.7494886161542244
 40
0.8747044873187576
 40
1.0
 40
1.0
 40
1.0
 40
1.0
 10
7.823599454416279
 20
7.884415946287541
 30
0.0
 10
7.822404212509562
 20
7.884842859676886
 30
0.0
 10
7.82001712098601
 20
7.885695474806316
 30
0.0
 10
7.817544984164002
 20
7.887469278245883
 30
0.0
 10
7.81719013469317
 20
7.889386803145315
 30
0.0
 10
7.81765290382434
 20
7.89098949651969
 30
0.0
 10
7.818153263315886
 20
7.891806804238485
 30
0.0
 10
7.818403522597744
 20
7.892215588015386
 30
0.0
  0
ARC
  5
11D
330
1F
100
AcDbEntity
  8
0
  6
Continuous
 62
     7
370
     0
100
AcDbCircle
 10
7.835570629
 20
7.9239279401
 30
0.0
 40
0.041285671546603
100
AcDbArc
 50
253.1444658725
 51
282.772595684
  0
LINE
  5
11E
330
1F
100
AcDbEntity
  8
0
  6
Continuous
 62
     7
370
     0
100
AcDbLine
 10
7.838384697
 20
7.8800191948
 30
0.0
 11
7.8446981504
 21
7.8836638739
 31
0.0
  0
ARC
  5
11F
330
1F
100
AcDbEntity
  8
0
  6
Continuous
 62
     7
370
     0
100
AcDbCircle
 10
7.6904572594
 20
7.4731166796
 30
0.0
 40
0.432957484839777
100
AcDbArc
 50
68.0126168125
 51
70.0215092033
  0
LINE
  5
120
330
1F
100
AcDbEntity
  8
0
  6
Continuous
 62
     7
370
     0
100
AcDbLine
 10
7.893698345
 20
7.8983336285
 30
0.0
 11
7.8525575868
 21
7.8745835743
 31
0.0
  0
ARC
  5
121
330
1F
100
AcDbEntity
  8
0
  6
Continuous
 62
     7
370
     0
100
AcDbCircle
 10
7.7319295721
 20
7.4977174703
 30
0.0
 40
0.4320444908706719
100
AcDbArc
 50
68.0111476366
 51
70.1706980584
  0
SPLINE
  5
122
330
1F
100
AcDbEntity
  8
0
  6
Continuous
 62
     7
370
     0
100
AcDbSpline
210
0.0
220
0.0
230
1.0
 70
    24
 71
     1
 72
     4
 73
     2
 74
     0
 42
0.00000001
 43
0.00000001
 40
0.0
 40
0.0
 40
1.0
 40
1.0
 10
7.805420559447292
 20
7.30316705005505
 30
0.0
 10
7.811793312210142
 20
7.29408165553216
 30
0.0
  0
SPLINE
  5
123
330
1F
100
AcDbEntity
  8
0
  6
Continuous
 62
     7
370
     0
100
AcDbSpline
210
0.0
220
0.0
230
1.0
 70
    24
 71
     1
 72
     4
 73
     2
 74
     0
 42
0.00000001
 43
0.00000001
 40
0.0
 40
0.0
 40
1.0
 40
1.0
 10
7.79870834888913
 20
7.310103841011071
 30
0.0
 10
7.805420559447292
 20
7.30316705005505
 30
0.0
  0
ARC
  5
124
330
1F
100
AcDbEntity
  8
0
  6
Continuous
 62
     7
370
     0
100
AcDbCircle
 10
7.7880119289
 20
7.2950548091
 30
0.0
 40
0.0184631189812755
100
AcDbArc
 50
54.5958774839
 51
118.2237545568
  0
ARC
  5
125
330
1F
100
AcDbEntity
  8
0
  6
Continuous
 62
     7
370
     0
100
AcDbCircle
 10
7.7888520995
 20
7.2969138578
 30
0.0
 40
0.0172984000334539
100
AcDbArc
 50
123.5955805498
 51
211.0030288671
  0
SPLINE
  5
126
330
1F
100
AcDbEntity
  8
0
  6
Continuous
 62
     7
370
     0
100
AcDbSpline
210
0.0
220
0.0
230
1.0
 70
     8
 71
     3
 72
     9
 73
     5
 74
     0
 42
0.00000001
 43
0.00000001
 40
0.0
 40
0.0
 40
0.0
 40
0.0
 40
0.4993318956962338
 40
1.0
 40
1.0
 40
1.0
 40
1.0
 10
7.765778200737657
 20
7.293491401621582
 30
0.0
 10
7.767270082596563
 20
7.292839133590112
 30
0.0
 10
7.770257838579639
 20
7.291532852062554
 30
0.0
 10
7.772768126514351
 20
7.289181157688355
 30
0.0
 10
7.77402494761588
 20
7.288003739324123
 30
0.0
  0
SPLINE
  5
127
330
1F
100
AcDbEntity
  8
0
  6
Continuous
 62
     7
370
     0
100
AcDbSpline
210
0.0
220
0.0
230
1.0
 70
     8
 71
     3
 72
     9
 73
     5
 74
     0
 42
0.00000001
 43
0.00000001
 40
0.0
 40
0.0
 40
0.0
 40
0.0
 40
0.5001300021535715
 40
1.0
 40
1.0
 40
1.0
 40
1.0
 10
7.755067377559971
 20
7.292552069172202
 30
0.0
 10
7.756710399145779
 20
7.293293110815362
 30
0.0
 10
7.759995588154101
 20
7.294774808853806
 30
0.0
 10
7.763850997350804
 20
7.29391912987225
 30
0.0
 10
7.765778200737657
 20
7.293491401621582
 30
0.0
  0
SPLINE
  5
128
330
1F
100
AcDbEntity
  8
0
  6
Continuous
 62
     7
370
     0
100
AcDbSpline
210
0.0
220
0.0
230
1.0
 70
     8
 71
     3
 72
    13
 73
     9
 74
     0
 42
0.00000001
 43
0.00000001
 40
0.0
 40
0.0
 40
0.0
 40
0.0
 40
0.2502329787229426
 40
0.4994066255432654
 40
0.6257013607107784
 40
0.7496002874205938
 40
0.8740371171717026
 40
1.0
 40
1.0
 40
1.0
 40
1.0
 10
7.753571777324492
 20
7.264276213639407
 30
0.0
 10
7.752217065912751
 20
7.266813031132325
 30
0.0
 10
7.749513378100795
 20
7.271875926799487
 30
0.0
 10
7.748137813629951
 20
7.278908307847888
 30
0.0
 10
7.748746601124779
 20
7.284113231587205
 30
0.0
 10
7.75005241642898
 20
7.287620720833893
 30
0.0
 10
7.752143077055085
 20
7.290574750617015
 30
0.0
 10
7.754088658297361
 20
7.291890290481864
 30
0.0
 10
7.755067377559971
 20
7.292552069172202
 30
0.0
  0
ARC
  5
129
330
1F
100
AcDbEntity
  8
0
  6
Continuous
 62
     7
370
     0
100
AcDbCircle
 10
6.8566020727
 20
6.7422787066
 30
0.0
 40
1.037803472928821
100
AcDbArc
 50
27.6669430162
 51
30.197550893
  0
LINE
  5
12A
330
1F
100
AcDbEntity
  8
0
  6
Continuous
 62
     7
370
     0
100
AcDbLine
 10
7.8323133727
 20
7.2568194983
 30
0.0
 11
7.7757448302
 21
7.2241631738
 31
0.0
  0
ARC
  5
12B
330
1F
100
AcDbEntity
  8
0
  6
Continuous
 62
     7
370
     0
100
AcDbCircle
 10
6.9133028567
 20
6.7750067944
 30
0.0
 40
1.037653029753664
100
AcDbArc
 50
27.6668240674
 51
30.0158355133
  0
SPLINE
  5
12C
330
1F
100
AcDbEntity
  8
0
  6
Continuous
 62
     7
370
     0
100
AcDbSpline
210
0.0
220
0.0
230
1.0
 70
    24
 71
     1
 72
     4
 73
     2
 74
     0
 42
0.00000001
 43
0.00000001
 40
0.0
 40
0.0
 40
1.0
 40
1.0
 10
7.652434307327833
 20
7.408040928101152
 30
0.0
 10
7.690093204832327
 20
7.46238401307033
 30
0.0
  0
ARC
  5
12D
330
1F
100
AcDbEntity
  8
0
  6
Continuous
 62
     7
370
     0
100
AcDbCircle
 10
6.9182550424
 20
6.7875082543
 30
0.0
 40
0.9612907948560827
100
AcDbArc
 50
38.570896676
 51
40.2046932088
  0
SPLINE
  5
12E
330
1F
100
AcDbEntity
  8
0
  6
Continuous
 62
     7
370
     0
100
AcDbSpline
210
0.0
220
0.0
230
1.0
 70
    24
 71
     1
 72
     4
 73
     2
 74
     0
 42
0.00000001
 43
0.00000001
 40
0.0
 40
0.0
 40
1.0
 40
1.0
 10
7.744020755307754
 20
7.396737164175335
 30
0.0
 10
7.669828013630923
 20
7.386856284430608
 30
0.0
  0
ARC
  5
12F
330
1F
100
AcDbEntity
  8
0
  6
Continuous
 62
     7
370
     0
100
AcDbCircle
 10
6.9550459794
 20
6.8044265513
 30
0.0
 40
0.9865662973620389
100
AcDbArc
 50
36.8968230947
 51
38.3423002334
  0
SPLINE
  5
130
330
1F
100
AcDbEntity
  8
0
  6
Continuous
 62
     7
370
     0
100
AcDbSpline
210
0.0
220
0.0
230
1.0
 70
    24
 71
     1
 72
     4
 73
     2
 74
     0
 42
0.00000001
 43
0.00000001
 40
0.0
 40
0.0
 40
1.0
 40
1.0
 10
7.716816309145372
 20
7.414036457624966
 30
0.0
 10
7.72882826398474
 20
7.416451089376926
 30
0.0
  0
ARC
  5
131
330
1F
100
AcDbEntity
  8
0
  6
Continuous
 62
     7
370
     0
100
AcDbCircle
 10
6.9652095219
 20
6.8145997784
 30
0.0
 40
0.9613725058080179
100
AcDbArc
 50
38.5737708107
 51
40.1914495325
  0
SPLINE
  5
132
330
1F
100
AcDbEntity
  8
0
  6
Continuous
 62
     7
370
     0
100
AcDbSpline
210
0.0
220
0.0
230
1.0
 70
    24
 71
     1
 72
     4
 73
     2
 74
     0
 42
0.00000001
 43
0.00000001
 40
0.0
 40
0.0
 40
1.0
 40
1.0
 10
7.706609997321365
 20
7.443516794109676
 30
0.0
 10
7.699594619090566
 20
7.435015464902374
 30
0.0
  0
ARC
  5
133
330
1F
100
AcDbEntity
  8
0
  6
Continuous
 62
     7
370
     0
100
AcDbCircle
 10
6.9974273028
 20
6.8393453349
 30
0.0
 40
0.9316454509801095
100
AcDbArc
 50
40.4285537921
 51
41.9707271137
  0
LINE
  5
134
330
1F
100
AcDbEntity
  8
0
  6
Continuous
 62
     7
370
     0
100
AcDbLine
 10
7.5538787493
 20
7.5716607862
 30
0.0
 11
7.5634292824
 21
7.5771741917
 31
0.0
  0
ARC
  5
135
330
1F
100
AcDbEntity
  8
0
  6
Continuous
 62
     7
370
     0
100
AcDbCircle
 10
7.1668282224
 20
7.0329993652
 30
0.0
 40
0.6632980000048525
100
AcDbArc
 50
54.3011904264
 51
55.0739057589
  0
LINE
  5
136
330
1F
100
AcDbEntity
  8
0
  6
Continuous
 62
     7
370
     0
100
AcDbLine
 10
7.533355338
 20
7.5691976245
 30
0.0
 11
7.5465791531
 21
7.5768315705
 31
0.0
  0
ARC
  5
137
330
1F
100
AcDbEntity
  8
0
  6
Continuous
 62
     7
370
     0
100
AcDbCircle
 10
7.1536044073
 20
7.0253654192
 30
0.0
 40
0.6632979999753646
100
AcDbArc
 50
54.3011904264
 51
55.0739057589
  0
LINE
  5
138
330
1F
100
AcDbEntity
  8
0
  6
Continuous
 62
     7
370
     0
100
AcDbLine
 10
7.5061260835
 20
7.5440937591
 30
0.0
 11
7.5406549341
 21
7.5640268403
 31
0.0
  0
ARC
  5
139
330
1F
100
AcDbEntity
  8
0
  6
Continuous
 62
     7
370
     0
100
AcDbCircle
 10
7.1062880562
 20
6.9877094055
 30
0.0
 40
0.6851525355741527
100
AcDbArc
 50
52.8608364376
 51
54.2976019917
  0
SPLINE
  5
13A
330
1F
100
AcDbEntity
  8
0
  6
Continuous
 62
     7
370
     0
100
AcDbSpline
210
0.0
220
0.0
230
1.0
 70
    24
 71
     1
 72
     4
 73
     2
 74
     0
 42
0.00000001
 43
0.00000001
 40
0.0
 40
0.0
 40
1.0
 40
1.0
 10
7.582699698546476
 20
7.531434488380108
 30
0.0
 10
7.519950969908343
 20
7.533893432013633
 30
0.0
  0
LINE
  5
13B
330
1F
100
AcDbEntity
  8
0
  6
Continuous
 62
     7
370
     0
100
AcDbLine
 10
7.5958431606
 20
7.5390220475
 30
0.0
 11
7.5826996985
 21
7.5314344884
 31
0.0
  0
ARC
  5
13C
330
1F
100
AcDbEntity
  8
0
  6
Continuous
 62
     7
370
     0
100
AcDbCircle
 10
7.1277310852
 20
6.9808366441
 30
0.0
 40
0.7284914960559028
100
AcDbArc
 50
50.0157305398
 51
52.8466665384
  0
LINE
  5
13D
330
1F
100
AcDbEntity
  8
0
  6
Continuous
 62
     7
370
     0
100
AcDbLine
 10
7.5772541688
 20
7.5669738646
 30
0.0
 11
7.5677036357
 21
7.5614604592
 31
0.0
  0
ARC
  5
13E
330
1F
100
AcDbEntity
  8
0
  6
Continuous
 62
     7
370
     0
100
AcDbCircle
 10
7.163591255
 20
7.0207898381
 30
0.0
 40
0.6851525355682075
100
AcDbArc
 50
52.8608364376
 51
54.2976019917
  0
ARC
  5
13F
330
1F
100
AcDbEntity
  8
0
  6
Continuous
 62
     7
370
     0
100
AcDbCircle
 10
7.4555455216
 20
7.5807406282
 30
0.0
 40
0.0535877081233248
100
AcDbArc
 50
67.3155524944
 51
126.887081365
  0
SPLINE
  5
140
330
1F
100
AcDbEntity
  8
0
  6
Continuous
 62
     7
370
     0
100
AcDbSpline
210
0.0
220
0.0
230
1.0
 70
    24
 71
     1
 72
     4
 73
     2
 74
     0
 42
0.00000001
 43
0.00000001
 40
0.0
 40
0.0
 40
1.0
 40
1.0
 10
7.411885394386408
 20
7.615386286909984
 30
0.0
 10
7.423380040919798
 20
7.623601149769208
 30
0.0
  0
SPLINE
  5
141
330
1F
100
AcDbEntity
  8
0
  6
Continuous
 62
     7
370
     0
100
AcDbSpline
210
0.0
220
0.0
230
1.0
 70
     8
 71
     3
 72
    12
 73
     8
 74
     0
 42
0.00000001
 43
0.00000001
 40
0.0
 40
0.0
 40
0.0
 40
0.0
 40
0.2503309494299802
 40
0.4997648043321465
 40
0.6249322238031012
 40
0.7501904501281059
 40
1.0
 40
1.0
 40
1.0
 40
1.0
 10
7.41775093246247
 20
7.596880286707195
 30
0.0
 10
7.415426953568439
 20
7.598066562032006
 30
0.0
 10
7.410787324070403
 20
7.60043486150492
 30
0.0
 10
7.407466107435024
 20
7.604363892735348
 30
0.0
 10
7.407116531882274
 20
7.607781677778893
 30
0.0
 10
7.407885767553712
 20
7.611268733652699
 30
0.0
 10
7.41028644858209
 20
7.613740197217073
 30
0.0
 10
7.411885394386408
 20
7.615386286909984
 30
0.0
  0
ARC
  5
142
330
1F
100
AcDbEntity
  8
0
  6
Continuous
 62
     7
370
     0
100
AcDbCircle
 10
7.4402252704
 20
7.6444113399
 30
0.0
 40
0.0525765811166279
100
AcDbArc
 50
244.6935841881
 51
305.0173874812
  0
SPLINE
  5
143
330
1F
100
AcDbEntity
  8
0
  6
Continuous
 62
     7
370
     0
100
AcDbSpline
210
0.0
220
0.0
230
1.0
 70
     8
 71
     3
 72
     9
 73
     5
 74
     0
 42
0.00000001
 43
0.00000001
 40
0.0
 40
0.0
 40
0.0
 40
0.0
 40
0.4986702672090038
 40
1.0
 40
1.0
 40
1.0
 40
1.0
 10
7.486365173328822
 20
7.615462299655873
 30
0.0
 10
7.484510653059733
 20
7.612848725425868
 30
0.0
 10
7.480791722152807
 20
7.607607638475501
 30
0.0
 10
7.473866730884822
 20
7.603441092818136
 30
0.0
 10
7.470395026862863
 20
7.601352279597066
 30
0.0
  0
SPLINE
  5
144
330
1F
100
AcDbEntity
  8
0
  6
Continuous
 62
     7
370
     0
100
AcDbSpline
210
0.0
220
0.0
230
1.0
 70
     8
 71
     3
 72
    10
 73
     6
 74
     0
 42
0.00000001
 43
0.00000001
 40
0.0
 40
0.0
 40
0.0
 40
0.0
 40
0.499206798160621
 40
0.7495375815250996
 40
0.9999999999999999
 40
0.9999999999999999
 40
0.9999999999999999
 40
0.9999999999999999
 10
7.476211922034059
 20
7.63018294159753
 30
0.0
 10
7.479698812682292
 20
7.628253388399568
 30
0.0
 10
7.484934229333566
 20
7.625356247089089
 30
0.0
 10
7.487356233687251
 20
7.61976503739272
 30
0.0
 10
7.486695584666208
 20
7.616896796876916
 30
0.0
 10
7.486365173328822
 20
7.615462299655873
 30
0.0
  0
SPLINE
  5
145
330
1F
100
AcDbEntity
  8
0
  6
Continuous
 62
     7
370
     0
100
AcDbSpline
210
0.0
220
0.0
230
1.0
 70
     8
 71
     3
 72
     9
 73
     5
 74
     0
 42
0.00000001
 43
0.00000001
 40
0.0
 40
0.0
 40
0.0
 40
0.0
 40
0.5000993720193343
 40
1.0
 40
1.0
 40
1.0
 40
1.0
 10
7.410277367216583
 20
7.654939273403543
 30
0.0
 10
7.401047495648074
 20
7.650752288326961
 30
0.0
 10
7.382591420545962
 20
7.642379982119749
 30
0.0
 10
7.360469881122147
 20
7.637177598113039
 30
0.0
 10
7.349411309672282
 20
7.634576923081089
 30
0.0
  0
ARC
  5
146
330
1F
100
AcDbEntity
  8
0
  6
Continuous
 62
     7
370
     0
100
AcDbCircle
 10
7.3068258608
 20
7.3013142175
 30
0.0
 40
0.3684465963707751
100
AcDbArc
 50
73.6933874496
 51
76.0948102879
  0
SPLINE
  5
147
330
1F
100
AcDbEntity
  8
0
  6
Continuous
 62
     7
370
     0
100
AcDbSpline
210
0.0
220
0.0
230
1.0
 70
    24
 71
     1
 72
     4
 73
     2
 74
     0
 42
0.00000001
 43
0.00000001
 40
0.0
 40
0.0
 40
1.0
 40
1.0
 10
7.375227232674269
 20
7.649695922495877
 30
0.0
 10
7.395369460725715
 20
7.658963382542295
 30
0.0
  0
SPLINE
  5
148
330
1F
100
AcDbEntity
  8
0
  6
Continuous
 62
     7
370
     0
100
AcDbSpline
210
0.0
220
0.0
230
1.0
 70
    24
 71
     1
 72
     4
 73
     2
 74
     0
 42
0.00000001
 43
0.00000001
 40
0.0
 40
0.0
 40
1.0
 40
1.0
 10
7.35088730905965
 20
7.641521520774387
 30
0.0
 10
7.375227232674269
 20
7.649695922495877
 30
0.0
  0
SPLINE
  5
149
330
1F
100
AcDbEntity
  8
0
  6
Continuous
 62
     7
370
     0
100
AcDbSpline
210
0.0
220
0.0
230
1.0
 70
    24
 71
     1
 72
     4
 73
     2
 74
     0
 42
0.00000001
 43
0.00000001
 40
0.0
 40
0.0
 40
1.0
 40
1.0
 10
7.329738983044137
 20
7.636667682975427
 30
0.0
 10
7.35088730905965
 20
7.641521520774387
 30
0.0
  0
LINE
  5
14A
330
1F
100
AcDbEntity
  8
0
  6
Continuous
 62
     7
370
     0
100
AcDbLine
 10
7.3191668183
 20
7.6305645022
 30
0.0
 11
7.329738983
 21
7.636667683
 31
0.0
  0
ARC
  5
14B
330
1F
100
AcDbEntity
  8
0
  6
Continuous
 62
     7
370
     0
100
AcDbCircle
 10
7.2526247977
 20
7.2764730855
 30
0.0
 40
0.3602895667636317
100
AcDbArc
 50
72.1594895307
 51
79.3569179879
  0
LINE
  5
14C
330
1F
100
AcDbEntity
  8
0
  6
Continuous
 62
     7
370
     0
100
AcDbLine
 10
7.3762299592
 20
7.6270713595
 30
0.0
 11
7.3630061441
 21
7.6194374135
 31
0.0
  0
ARC
  5
14D
330
1F
100
AcDbEntity
  8
0
  6
Continuous
 62
     7
370
     0
100
AcDbCircle
 10
7.2621962402
 20
7.2712761448
 30
0.0
 40
0.3736227025287968
100
AcDbArc
 50
72.2291477696
 51
76.5008545154
  0
ARC
  5
14E
330
1F
100
AcDbEntity
  8
0
  6
Continuous
 62
     7
370
     0
100
AcDbCircle
 10
7.3219594876
 20
7.5426102984
 30
0.0
 40
0.1269497559596159
100
AcDbArc
 50
99.5135837821
 51
123.7302968135
  0
SPLINE
  5
14F
330
1F
100
AcDbEntity
  8
0
  6
Continuous
 62
     7
370
     0
100
AcDbSpline
210
0.0
220
0.0
230
1.0
 70
    24
 71
     1
 72
     4
 73
     2
 74
     0
 42
0.00000001
 43
0.00000001
 40
0.0
 40
0.0
 40
1.0
 40
1.0
 10
7.23972798600045
 20
7.640867707466616
 30
0.0
 10
7.251466285015773
 20
7.648189410552498
 30
0.0
  0
SPLINE
  5
150
330
1F
100
AcDbEntity
  8
0
  6
Continuous
 62
     7
370
     0
100
AcDbSpline
210
0.0
220
0.0
230
1.0
 70
     8
 71
     3
 72
    12
 73
     8
 74
     0
 42
0.00000001
 43
0.00000001
 40
0.0
 40
0.0
 40
0.0
 40
0.0
 40
0.250330949429978
 40
0.4997648043321462
 40
0.6249322238031049
 40
0.7501904501281081
 40
1.0
 40
1.0
 40
1.0
 40
1.0
 10
7.24257122340545
 20
7.63427700214381
 30
0.0
 10
7.240567242776259
 20
7.634125480252764
 30
0.0
 10
7.236566463051203
 20
7.63382297946969
 30
0.0
 10
7.234058690183846
 20
7.634561693074164
 30
0.0
 10
7.234231696246983
 20
7.635979385803943
 30
0.0
 10
7.235451677419812
 20
7.637769982144215
 30
0.0
 10
7.238018430097112
 20
7.639629318208225
 30
0.0
 10
7.23972798600045
 20
7.640867707466616
 30
0.0
  0
ARC
  5
151
330
1F
100
AcDbEntity
  8
0
  6
Continuous
 62
     7
370
     0
100
AcDbCircle
 10
7.2293485074
 20
7.7510232704
 30
0.0
 40
0.117492686468631
100
AcDbArc
 50
276.4617999916
 51
302.4471562393
  0
SPLINE
  5
152
330
1F
100
AcDbEntity
  8
0
  6
Continuous
 62
     7
370
     0
100
AcDbSpline
210
0.0
220
0.0
230
1.0
 70
     8
 71
     3
 72
     9
 73
     5
 74
     0
 42
0.00000001
 43
0.00000001
 40
0.0
 40
0.0
 40
0.0
 40
0.0
 40
0.4986702672090031
 40
0.9999999999999999
 40
0.9999999999999999
 40
0.9999999999999999
 40
0.9999999999999999
 10
7.308834364630773
 20
7.663579366301589
 30
0.0
 10
7.306827944942008
 20
7.661725347742326
 30
0.0
 10
7.302804405098748
 20
7.658007422930729
 30
0.0
 10
7.295864861741276
 20
7.653921271524329
 30
0.0
 10
7.292385862324186
 20
7.651872762331615
 30
0.0
  0
SPLINE
  5
153
330
1F
100
AcDbEntity
  8
0
  6
Continuous
 62
     7
370
     0
100
AcDbSpline
210
0.0
220
0.0
230
1.0
 70
     8
 71
     3
 72
    10
 73
     6
 74
     0
 42
0.00000001
 43
0.00000001
 40
0.0
 40
0.0
 40
0.0
 40
0.0
 40
0.4992067981606216
 40
0.7495375815250974
 40
1.0
 40
1.0
 40
1.0
 40
1.0
 10
7.30097705016681
 20
7.667814043739956
 30
0.0
 10
7.303993817572064
 20
7.667932915191935
 30
0.0
 10
7.308523364351653
 20
7.668111395575129
 30
0.0
 10
7.310203555889832
 20
7.666031383815054
 30
0.0
 10
7.309290841687084
 20
7.664396848687022
 30
0.0
 10
7.308834364630773
 20
7.663579366301589
 30
0.0
  0
LINE
  5
154
330
1F
100
AcDbEntity
  8
0
  6
Continuous
 62
     7
370
     0
100
AcDbLine
 10
7.1995625554
 20
7.6328189393
 30
0.0
 11
7.2202706825
 21
7.6447734866
 31
0.0
  0
ARC
  5
155
330
1F
100
AcDbEntity
  8
0
  6
Continuous
 62
     7
370
     0
100
AcDbCircle
 10
6.8548119174
 20
8.2309786064
 30
0.0
 40
0.6903969798646518
100
AcDbArc
 50
298.6828735365
 51
299.9570924448
  0
SPLINE
  5
156
330
1F
100
AcDbEntity
  8
0
  6
Continuous
 62
     7
370
     0
100
AcDbSpline
210
0.0
220
0.0
230
1.0
 70
     8
 71
     3
 72
    11
 73
     7
 74
     0
 42
0.00000001
 43
0.00000001
 40
0.0
 40
0.0
 40
0.0
 40
0.0
 40
0.2500620333659146
 40
0.4999138376966655
 40
0.7498401673007622
 40
0.9999999999999999
 40
0.9999999999999999
 40
0.9999999999999999
 40
0.9999999999999999
 10
7.186086013921368
 20
7.625298108173066
 30
0.0
 10
7.185757475717461
 20
7.625108218155647
 30
0.0
 10
7.185100675514188
 20
7.624728597762778
 30
0.0
 10
7.184820685362423
 20
7.624560931354438
 30
0.0
 10
7.185141219105418
 20
7.624731530974958
 30
0.0
 10
7.185830791936582
 20
7.625110763322433
 30
0.0
 10
7.186175739341812
 20
7.625300468032841
 30
0.0
  0
SPLINE
  5
157
330
1F
100
AcDbEntity
  8
0
  6
Continuous
 62
     7
370
     0
100
AcDbSpline
210
0.0
220
0.0
230
1.0
 70
    24
 71
     1
 72
     4
 73
     2
 74
     0
 42
0.00000001
 43
0.00000001
 40
0.0
 40
0.0
 40
1.0
 40
1.0
 10
7.189497562828351
 20
7.627267564670942
 30
0.0
 10
7.186086013921368
 20
7.625298108173066
 30
0.0
  0
LINE
  5
158
330
1F
100
AcDbEntity
  8
0
  6
Continuous
 62
     7
370
     0
100
AcDbLine
 10
7.17989778
 20
7.6214174043
 30
0.0
 11
7.1862112334
 21
7.6250620833
 31
0.0
  0
ARC
  5
159
330
1F
100
AcDbEntity
  8
0
  6
Continuous
 62
     7
370
     0
100
AcDbCircle
 10
7.2714288262
 20
7.442054329
 30
0.0
 40
0.2013679348842979
100
AcDbArc
 50
113.6891199059
 51
117.0357450364
  0
LINE
  5
15A
330
1F
100
AcDbEntity
  8
0
  6
Continuous
 62
     7
370
     0
100
AcDbLine
 10
7.2316652056
 20
7.6502048351
 30
0.0
 11
7.1905244474
 21
7.626454781
 31
0.0
  0
ARC
  5
15B
330
1F
100
AcDbEntity
  8
0
  6
Continuous
 62
     7
370
     0
100
AcDbCircle
 10
7.3125427242
 20
7.4658623838
 30
0.0
 40
0.2013040297201808
100
AcDbArc
 50
113.6887516701
 51
117.2820769038
  0
ARC
  5
15C
330
1F
100
AcDbEntity
  8
0
  6
Continuous
 62
     7
370
     0
100
AcDbCircle
 10
7.6600945315
 20
7.1058681231
 30
0.0
 40
0.0356524840393459
100
AcDbArc
 50
32.0073909355
 51
84.7020111609
  0
LINE
  5
15D
330
1F
100
AcDbEntity
  8
0
  6
Continuous
 62
     7
370
     0
100
AcDbLine
 10
7.7035509305
 20
7.1323989072
 30
0.0
 11
7.6903271154
 21
7.1247649613
 31
0.0
  0
SPLINE
  5
15E
330
1F
100
AcDbEntity
  8
0
  6
Continuous
 62
     7
370
     0
100
AcDbSpline
210
0.0
220
0.0
230
1.0
 70
    24
 71
     1
 72
     4
 73
     2
 74
     0
 42
0.00000001
 43
0.00000001
 40
0.0
 40
0.0
 40
1.0
 40
1.0
 10
7.684726665798773
 20
7.148912979429412
 30
0.0
 10
7.703550930481451
 20
7.132398907239516
 30
0.0
  0
LINE
  5
15F
330
1F
100
AcDbEntity
  8
0
  6
Continuous
 62
     7
370
     0
100
AcDbLine
 10
7.7225499912
 20
7.1707479204
 30
0.0
 11
7.6847266658
 21
7.1489129794
 31
0.0
  0
ARC
  5
160
330
1F
100
AcDbEntity
  8
0
  6
Continuous
 62
     7
370
     0
100
AcDbCircle
 10
6.799783453
 20
6.709216549
 30
0.0
 40
1.031750595251897
100
AcDbArc
 50
26.5724073956
 51
27.8386728167
  0
LINE
  5
161
330
1F
100
AcDbEntity
  8
0
  6
Continuous
 62
     7
370
     0
100
AcDbLine
 10
7.6548222029
 20
7.1579467215
 30
0.0
 11
7.7121254018
 21
7.1910271541
 31
0.0
  0
ARC
  5
162
330
1F
100
AcDbEntity
  8
0
  6
Continuous
 62
     7
370
     0
100
AcDbCircle
 10
6.7419354599
 20
6.6758530572
 30
0.0
 40
1.032364522271979
100
AcDbArc
 50
26.802814446
 51
27.8384446962
  0
LINE
  5
163
330
1F
100
AcDbEntity
  8
0
  6
Continuous
 62
     7
370
     0
100
AcDbLine
 10
7.647183543
 20
7.2098883665
 30
0.0
 11
7.6633459837
 21
7.2192187449
 31
0.0
  0
ARC
  5
164
330
1F
100
AcDbEntity
  8
0
  6
Continuous
 62
     7
370
     0
100
AcDbCircle
 10
6.7521606082
 20
6.6819968624
 30
0.0
 40
1.039103216261547
100
AcDbArc
 50
29.3294343134
 51
30.532435252
  0
LINE
  5
165
330
1F
100
AcDbEntity
  8
0
  6
Continuous
 62
     7
370
     0
100
AcDbLine
 10
7.6742316759
 20
7.2003115761
 30
0.0
 11
7.6580692352
 21
7.1909811976
 31
0.0
  0
ARC
  5
166
330
1F
100
AcDbEntity
  8
0
  6
Continuous
 62
     7
370
     0
100
AcDbCircle
 10
6.7683230489
 20
6.6913272408
 30
0.0
 40
1.039103216255598
100
AcDbArc
 50
29.3294343134
 51
30.532435252
  0
ARC
  5
167
330
1F
100
AcDbEntity
  8
0
  6
Continuous
 62
     7
370
     0
100
AcDbCircle
 10
7.6052456619
 20
7.1975875327
 30
0.0
 40
0.0409728767393189
100
AcDbArc
 50
38.8439657807
 51
86.8038807157
  0
LINE
  5
168
330
1F
100
AcDbEntity
  8
0
  6
Continuous
 62
     7
370
     0
100
AcDbLine
 10
7.6503814853
 20
7.2309197346
 30
0.0
 11
7.6371576702
 21
7.2232857886
 31
0.0
  0
SPLINE
  5
169
330
1F
100
AcDbEntity
  8
0
  6
Continuous
 62
     7
370
     0
100
AcDbSpline
210
0.0
220
0.0
230
1.0
 70
    24
 71
     1
 72
     4
 73
     2
 74
     0
 42
0.00000001
 43
0.00000001
 40
0.0
 40
0.0
 40
1.0
 40
1.0
 10
7.629260711747562
 20
7.246261121194835
 30
0.0
 10
7.650381485340184
 20
7.23091973455991
 30
0.0
  0
LINE
  5
16A
330
1F
100
AcDbEntity
  8
0
  6
Continuous
 62
     7
370
     0
100
AcDbLine
 10
7.6670840371
 20
7.2680960622
 30
0.0
 11
7.6292607117
 21
7.2462611212
 31
0.0
  0
ARC
  5
16B
330
1F
100
AcDbEntity
  8
0
  6
Continuous
 62
     7
370
     0
100
AcDbCircle
 10
6.8025323159
 20
6.7115706169
 30
0.0
 40
1.028187847565423
100
AcDbArc
 50
32.7700164715
 51
34.039205441
  0
LINE
  5
16C
330
1F
100
AcDbEntity
  8
0
  6
Continuous
 62
     7
370
     0
100
AcDbLine
 10
7.5972418535
 20
7.2540286685
 30
0.0
 11
7.6545450524
 21
7.287109101
 31
0.0
  0
ARC
  5
16D
330
1F
100
AcDbEntity
  8
0
  6
Continuous
 62
     7
370
     0
100
AcDbCircle
 10
6.7458283581
 20
6.6788891417
 30
0.0
 40
1.027467963211654
100
AcDbArc
 50
33.0005569387
 51
34.0394749607
  0
SPLINE
  5
16E
330
1F
100
AcDbEntity
  8
0
  6
Continuous
 62
     7
370
     0
100
AcDbSpline
210
0.0
220
0.0
230
1.0
 70
     8
 71
     3
 72
    12
 73
     8
 74
     0
 42
0.00000001
 43
0.00000001
 40
0.0
 40
0.0
 40
0.0
 40
0.0
 40
0.2504263243078009
 40
0.500447661663766
 40
0.7498986181814578
 40
0.8748007466622758
 40
1.0
 40
1.0
 40
1.0
 40
1.0
 10
7.564083934222634
 20
7.338240029708312
 30
0.0
 10
7.563316887181104
 20
7.339102690139415
 30
0.0
 10
7.561784033558861
 20
7.340826615915779
 30
0.0
 10
7.558781395403693
 20
7.342751927640894
 30
0.0
 10
7.556006484785961
 20
7.343694169316294
 30
0.0
 10
7.553808537253172
 20
7.343703521350226
 30
0.0
 10
7.55291120371706
 20
7.343304476001622
 30
0.0
 10
7.552462003924963
 20
7.343104716290862
 30
0.0
  0
SPLINE
  5
16F
330
1F
100
AcDbEntity
  8
0
  6
Continuous
 62
     7
370
     0
100
AcDbSpline
210
0.0
220
0.0
230
1.0
 70
    24
 71
     1
 72
     4
 73
     2
 74
     0
 42
0.00000001
 43
0.00000001
 40
0.0
 40
0.0
 40
1.0
 40
1.0
 10
7.565754096431518
 20
7.335917768162851
 30
0.0
 10
7.564083934222634
 20
7.338240029708312
 30
0.0
  0
SPLINE
  5
170
330
1F
100
AcDbEntity
  8
0
  6
Continuous
 62
     7
370
     0
100
AcDbSpline
210
0.0
220
0.0
230
1.0
 70
    24
 71
     1
 72
     4
 73
     2
 74
     0
 42
0.00000001
 43
0.00000001
 40
0.0
 40
0.0
 40
1.0
 40
1.0
 10
7.57848100303037
 20
7.341981572035476
 30
0.0
 10
7.565754096431518
 20
7.335917768162851
 30
0.0
  0
SPLINE
  5
171
330
1F
100
AcDbEntity
  8
0
  6
Continuous
 62
     7
370
     0
100
AcDbSpline
210
0.0
220
0.0
230
1.0
 70
    24
 71
     1
 72
     4
 73
     2
 74
     0
 42
0.00000001
 43
0.00000001
 40
0.0
 40
0.0
 40
1.0
 40
1.0
 10
7.572978146877799
 20
7.347196954709919
 30
0.0
 10
7.57848100303037
 20
7.341981572035476
 30
0.0
  0
SPLINE
  5
172
330
1F
100
AcDbEntity
  8
0
  6
Continuous
 62
     7
370
     0
100
AcDbSpline
210
0.0
220
0.0
230
1.0
 70
     8
 71
     3
 72
    13
 73
     9
 74
     0
 42
0.00000001
 43
0.00000001
 40
0.0
 40
0.0
 40
0.0
 40
0.0
 40
0.2497052322949549
 40
0.3757637578559438
 40
0.4998603526081883
 40
0.6227837955482325
 40
0.7501230108901087
 40
1.0
 40
1.0
 40
1.0
 40
1.0
 10
7.573654378255181
 20
7.359930190855373
 30
0.0
 10
7.572674695188829
 20
7.359253620320362
 30
0.0
 10
7.571200439374738
 20
7.35823549713426
 30
0.0
 10
7.570131325019297
 20
7.356180108732407
 30
0.0
 10
7.569820603967566
 20
7.354438953215065
 30
0.0
 10
7.570007349289104
 20
7.352579142927549
 30
0.0
 10
7.570852732714138
 20
7.350068886339575
 30
0.0
 10
7.57213123592855
 20
7.348341329478957
 30
0.0
 10
7.572978146877799
 20
7.347196954709919
 30
0.0
  0
ARC
  5
173
330
1F
100
AcDbEntity
  8
0
  6
Continuous
 62
     7
370
     0
100
AcDbCircle
 10
7.5789002792
 20
7.3498259135
 30
0.0
 40
0.0113848977677373
100
AcDbArc
 50
33.7564853085
 51
117.4372678754
  0
ARC
  5
174
330
1F
100
AcDbEntity
  8
0
  6
Continuous
 62
     7
370
     0
100
AcDbCircle
 10
7.5823599561
 20
7.3496209398
 30
0.0
 40
0.0088727485902732
100
AcDbArc
 50
311.6837911217
 51
47.3995329178
  0
SPLINE
  5
175
330
1F
100
AcDbEntity
  8
0
  6
Continuous
 62
     7
370
     0
100
AcDbSpline
210
0.0
220
0.0
230
1.0
 70
    24
 71
     1
 72
     4
 73
     2
 74
     0
 42
0.00000001
 43
0.00000001
 40
0.0
 40
0.0
 40
1.0
 40
1.0
 10
7.603290995224939
 20
7.327215023290331
 30
0.0
 10
7.58826050347932
 20
7.342994537414884
 30
0.0
  0
SPLINE
  5
176
330
1F
100
AcDbEntity
  8
0
  6
Continuous
 62
     7
370
     0
100
AcDbSpline
210
0.0
220
0.0
230
1.0
 70
     8
 71
     3
 72
    12
 73
     8
 74
     0
 42
0.00000001
 43
0.00000001
 40
0.0
 40
0.0
 40
0.0
 40
0.0
 40
0.2504808463210285
 40
0.4996637882954167
 40
0.6228176769796037
 40
0.7500185303840528
 40
0.9999999999999999
 40
0.9999999999999999
 40
0.9999999999999999
 40
0.9999999999999999
 10
7.599104337810552
 20
7.362855706767079
 30
0.0
 10
7.60136766064534
 20
7.35996613872392
 30
0.0
 10
7.605882578565715
 20
7.354201975370962
 30
0.0
 10
7.609040029094589
 20
7.34588207711009
 30
0.0
 10
7.609172198915394
 20
7.339410485999036
 30
0.0
 10
7.607785073893162
 20
7.333316846293197
 30
0.0
 10
7.60508229185788
 20
7.329647151387492
 30
0.0
 10
7.603290995224939
 20
7.327215023290331
 30
0.0
  0
ARC
  5
177
330
1F
100
AcDbEntity
  8
0
  6
Continuous
 62
     7
370
     0
100
AcDbCircle
 10
7.5717819358
 20
7.3460611268
 30
0.0
 40
0.0320713512313027
100
AcDbArc
 50
31.578280568
 51
112.6462391352
  0
ARC
  5
178
330
1F
100
AcDbEntity
  8
0
  6
Continuous
 62
     7
370
     0
100
AcDbCircle
 10
7.5648178827
 20
7.3650210172
 30
0.0
 40
0.0119238474216037
100
AcDbArc
 50
116.8458382442
 51
189.6565468162
  0
SPLINE
  5
179
330
1F
100
AcDbEntity
  8
0
  6
Continuous
 62
     7
370
     0
100
AcDbSpline
210
0.0
220
0.0
230
1.0
 70
    24
 71
     1
 72
     4
 73
     2
 74
     0
 42
0.00000001
 43
0.00000001
 40
0.0
 40
0.0
 40
1.0
 40
1.0
 10
7.5554940504687
 20
7.356832945193074
 30
0.0
 10
7.553062984615147
 20
7.363020889899218
 30
0.0
  0
ARC
  5
17A
330
1F
100
AcDbEntity
  8
0
  6
Continuous
 62
     7
370
     0
100
AcDbCircle
 10
7.5448799576
 20
7.3391822075
 30
0.0
 40
0.0205962984662082
100
AcDbArc
 50
58.9798277911
 51
111.7934342869
  0
SPLINE
  5
17B
330
1F
100
AcDbEntity
  8
0
  6
Continuous
 62
     7
370
     0
100
AcDbSpline
210
0.0
220
0.0
230
1.0
 70
     8
 71
     3
 72
    13
 73
     9
 74
     0
 42
0.00000001
 43
0.00000001
 40
0.0
 40
0.0
 40
0.0
 40
0.0
 40
0.250488384203543
 40
0.5001800141162615
 40
0.6251581803520855
 40
0.750158653020056
 40
0.8750261463238798
 40
1.0
 40
1.0
 40
1.0
 40
1.0
 10
7.542050403680273
 20
7.328153423492975
 30
0.0
 10
7.540047590068766
 20
7.330710941104351
 30
0.0
 10
7.53604833340199
 20
7.335817841366523
 30
0.0
 10
7.532375131167518
 20
7.342814958353363
 30
0.0
 10
7.531490829560282
 20
7.348474571482707
 30
0.0
 10
7.532066961044989
 20
7.352466637709975
 30
0.0
 10
7.533892632368656
 20
7.355990396742371
 30
0.0
 10
7.536119458965244
 20
7.357534216537223
 30
0.0
 10
7.537233346256551
 20
7.358306455045686
 30
0.0
  0
ARC
  5
17C
330
1F
100
AcDbEntity
  8
0
  6
Continuous
 62
     7
370
     0
100
AcDbCircle
 10
7.5705861045
 20
7.3460893206
 30
0.0
 40
0.0337043414010006
100
AcDbArc
 50
212.1511018788
 51
280.0602699924
  0
SPLINE
  5
17D
330
1F
100
AcDbEntity
  8
0
  6
Continuous
 62
     7
370
     0
100
AcDbSpline
210
0.0
220
0.0
230
1.0
 70
    24
 71
     1
 72
     4
 73
     2
 74
     0
 42
0.00000001
 43
0.00000001
 40
0.0
 40
0.0
 40
1.0
 40
1.0
 10
7.56558483184919
 20
7.331063116577925
 30
0.0
 10
7.576473714044791
 20
7.312903198796771
 30
0.0
  0
ARC
  5
17E
330
1F
100
AcDbEntity
  8
0
  6
Continuous
 62
     7
370
     0
100
AcDbCircle
 10
7.561475214
 20
7.3405723052
 30
0.0
 40
0.0103592291138719
100
AcDbArc
 50
215.8667385834
 51
293.3727137276
  0
SPLINE
  5
17F
330
1F
100
AcDbEntity
  8
0
  6
Continuous
 62
     7
370
     0
100
AcDbSpline
210
0.0
220
0.0
230
1.0
 70
     8
 71
     3
 72
    13
 73
     9
 74
     0
 42
0.00000001
 43
0.00000001
 40
0.0
 40
0.0
 40
0.0
 40
0.0
 40
0.125199158423295
 40
0.2501552769130847
 40
0.373819314814287
 40
0.5002363381765681
 40
0.7496760703870127
 40
1.0
 40
1.0
 40
1.0
 40
1.0
 10
7.552462003924963
 20
7.343104716290862
 30
0.0
 10
7.552137226074526
 20
7.342891206192681
 30
0.0
 10
7.551488300841051
 20
7.342464600467798
 30
0.0
 10
7.55085570522454
 20
7.341522076697457
 30
0.0
 10
7.550545117278169
 20
7.340413112697991
 30
0.0
 10
7.55061753856796
 20
7.338799349999653
 30
0.0
 10
7.551395356270807
 20
7.336718457034423
 30
0.0
 10
7.552517978147022
 20
7.33524223098164
 30
0.0
 10
7.553080282173886
 20
7.334502812062743
 30
0.0
  0
SPLINE
  5
180
330
1F
100
AcDbEntity
  8
0
  6
Continuous
 62
     7
370
     0
100
AcDbSpline
210
0.0
220
0.0
230
1.0
 70
     8
 71
     3
 72
    13
 73
     9
 74
     0
 42
0.00000001
 43
0.00000001
 40
0.0
 40
0.0
 40
0.0
 40
0.0
 40
0.2502499937362963
 40
0.3875326883050162
 40
0.5000553989277325
 40
0.6148522551732292
 40
0.7498927631185722
 40
1.0
 40
1.0
 40
1.0
 40
1.0
 10
7.421164435767283
 20
7.492205932711723
 30
0.0
 10
7.420490109457553
 20
7.491783121548416
 30
0.0
 10
7.4194458597307
 20
7.491128363702811
 30
0.0
 10
7.418499507882985
 20
7.490062022345024
 30
0.0
 10
7.418150163157303
 20
7.489162946654471
 30
0.0
 10
7.418386261692527
 20
7.488210705960302
 30
0.0
 10
7.41923984157803
 20
7.486979738202517
 30
0.0
 10
7.420268888125909
 20
7.486168588560356
 30
0.0
 10
7.420937130358062
 20
7.485641844217637
 30
0.0
  0
SPLINE
  5
181
330
1F
100
AcDbEntity
  8
0
  6
Continuous
 62
     7
370
     0
100
AcDbSpline
210
0.0
220
0.0
230
1.0
 70
    24
 71
     1
 72
     4
 73
     2
 74
     0
 42
0.00000001
 43
0.00000001
 40
0.0
 40
0.0
 40
1.0
 40
1.0
 10
7.442214093846353
 20
7.481854702662208
 30
0.0
 10
7.421164435767283
 20
7.492205932711723
 30
0.0
  0
ARC
  5
182
330
1F
100
AcDbEntity
  8
0
  6
Continuous
 62
     7
370
     0
100
AcDbCircle
 10
7.462838086
 20
7.5142442213
 30
0.0
 40
0.0383983067979583
100
AcDbArc
 50
237.5130967324
 51
260.3986540368
  0
SPLINE
  5
183
330
1F
100
AcDbEntity
  8
0
  6
Continuous
 62
     7
370
     0
100
AcDbSpline
210
0.0
220
0.0
230
1.0
 70
     8
 71
     3
 72
     9
 73
     5
 74
     0
 42
0.00000001
 43
0.00000001
 40
0.0
 40
0.0
 40
0.0
 40
0.0
 40
0.5005138828869289
 40
1.0
 40
1.0
 40
1.0
 40
1.0
 10
7.466322149170525
 20
7.478340797023911
 30
0.0
 10
7.464890760653103
 20
7.477643933124548
 30
0.0
 10
7.46203092286166
 20
7.476251636280864
 30
0.0
 10
7.458298068158292
 20
7.476339771193426
 30
0.0
 10
7.456433559056761
 20
7.476383793358682
 30
0.0
  0
SPLINE
  5
184
330
1F
100
AcDbEntity
  8
0
  6
Continuous
 62
     7
370
     0
100
AcDbSpline
210
0.0
220
0.0
230
1.0
 70
     8
 71
     3
 72
    13
 73
     9
 74
     0
 42
0.00000001
 43
0.00000001
 40
0.0
 40
0.0
 40
0.0
 40
0.0
 40
0.2503342404082751
 40
0.4997600710237767
 40
0.6241777149121289
 40
0.7517673256829962
 40
0.8742692938049978
 40
1.0
 40
1.0
 40
1.0
 40
1.0
 10
7.462514500694142
 20
7.496364447557421
 30
0.0
 10
7.464160101556311
 20
7.49499792579067
 30
0.0
 10
7.467445331744614
 20
7.492269841074435
 30
0.0
 10
7.470110993765673
 20
7.488138882143889
 30
0.0
 10
7.470580255669367
 20
7.484721912405264
 30
0.0
 10
7.470177295382064
 20
7.482236440475365
 30
0.0
 10
7.468751092947205
 20
7.479992668562688
 30
0.0
 10
7.467138787462574
 20
7.478896174865532
 30
0.0
 10
7.466322149170525
 20
7.478340797023911
 30
0.0
  0
SPLINE
  5
185
330
1F
100
AcDbEntity
  8
0
  6
Continuous
 62
     7
370
     0
100
AcDbSpline
210
0.0
220
0.0
230
1.0
 70
    24
 71
     1
 72
     4
 73
     2
 74
     0
 42
0.00000001
 43
0.00000001
 40
0.0
 40
0.0
 40
1.0
 40
1.0
 10
7.451158144745653
 20
7.502654175319211
 30
0.0
 10
7.462514500694142
 20
7.496364447557421
 30
0.0
  0
SPLINE
  5
186
330
1F
100
AcDbEntity
  8
0
  6
Continuous
 62
     7
370
     0
100
AcDbSpline
210
0.0
220
0.0
230
1.0
 70
    24
 71
     1
 72
     4
 73
     2
 74
     0
 42
0.00000001
 43
0.00000001
 40
0.0
 40
0.0
 40
1.0
 40
1.0
 10
7.440789135779031
 20
7.504690372848377
 30
0.0
 10
7.451158144745653
 20
7.502654175319211
 30
0.0
  0
SPLINE
  5
187
330
1F
100
AcDbEntity
  8
0
  6
Continuous
 62
     7
370
     0
100
AcDbSpline
210
0.0
220
0.0
230
1.0
 70
     8
 71
     3
 72
     9
 73
     5
 74
     0
 42
0.00000001
 43
0.00000001
 40
0.0
 40
0.0
 40
0.0
 40
0.0
 40
0.4998712278477411
 40
1.0
 40
1.0
 40
1.0
 40
1.0
 10
7.444303020411742
 20
7.508905873311751
 30
0.0
 10
7.44391438553379
 20
7.508125437276975
 30
0.0
 10
7.443136915544919
 20
7.506564163110154
 30
0.0
 10
7.441571863391083
 20
7.505315076833988
 30
0.0
 10
7.440789135779031
 20
7.504690372848377
 30
0.0
  0
ARC
  5
188
330
1F
100
AcDbEntity
  8
0
  6
Continuous
 62
     7
370
     0
100
AcDbCircle
 10
7.0625440503
 20
6.9768999817
 30
0.0
 40
0.6548054520067249
100
AcDbArc
 50
54.3373794646
 51
55.9083171133
  0
SPLINE
  5
189
330
1F
100
AcDbEntity
  8
0
  6
Continuous
 62
     7
370
     0
100
AcDbSpline
210
0.0
220
0.0
230
1.0
 70
     8
 71
     3
 72
     9
 73
     5
 74
     0
 42
0.00000001
 43
0.00000001
 40
0.0
 40
0.0
 40
0.0
 40
0.0
 40
0.5000538352470562
 40
1.0
 40
1.0
 40
1.0
 40
1.0
 10
7.422828956522743
 20
7.512805863668316
 30
0.0
 10
7.424335834858598
 20
7.513696587926003
 30
0.0
 10
7.427349267072572
 20
7.515477844652587
 30
0.0
 10
7.42883301409251
 20
7.517940495035682
 30
0.0
 10
7.429574807724591
 20
7.519171687649838
 30
0.0
  0
LINE
  5
18A
330
1F
100
AcDbEntity
  8
0
  6
Continuous
 62
     7
370
     0
100
AcDbLine
 10
7.4047380428
 20
7.5023622015
 30
0.0
 11
7.4228289565
 21
7.5128058637
 31
0.0
  0
ARC
  5
18B
330
1F
100
AcDbEntity
  8
0
  6
Continuous
 62
     7
370
     0
100
AcDbCircle
 10
7.4088921306
 20
7.4923325794
 30
0.0
 40
0.0108558631017856
100
AcDbArc
 50
112.4984509482
 51
176.1762841473
  0
ARC
  5
18C
330
1F
100
AcDbEntity
  8
0
  6
Continuous
 62
     7
370
     0
100
AcDbCircle
 10
7.4243112434
 20
7.5027841448
 30
0.0
 40
0.0279952077744045
100
AcDbArc
 50
200.332923261
 51
244.7301904753
  0
SPLINE
  5
18D
330
1F
100
AcDbEntity
  8
0
  6
Continuous
 62
     7
370
     0
100
AcDbSpline
210
0.0
220
0.0
230
1.0
 70
     8
 71
     3
 72
     9
 73
     5
 74
     0
 42
0.00000001
 43
0.00000001
 40
0.0
 40
0.0
 40
0.0
 40
0.0
 40
0.4987757766930724
 40
1.0
 40
1.0
 40
1.0
 40
1.0
 10
7.429246053150381
 20
7.468465487928595
 30
0.0
 10
7.426094516375194
 20
7.469671854936825
 30
0.0
 10
7.41977597220675
 20
7.472090510903296
 30
0.0
 10
7.414836428333539
 20
7.475672490470144
 30
0.0
 10
7.412360609292198
 20
7.477467865396438
 30
0.0
  0
ARC
  5
18E
330
1F
100
AcDbEntity
  8
0
  6
Continuous
 62
     7
370
     0
100
AcDbCircle
 10
7.4367409371
 20
7.496505348
 30
0.0
 40
0.0290242491473114
100
AcDbArc
 50
255.0350353408
 51
292.7660598984
  0
SPLINE
  5
18F
330
1F
100
AcDbEntity
  8
0
  6
Continuous
 62
     7
370
     0
100
AcDbSpline
210
0.0
220
0.0
230
1.0
 70
    24
 71
     1
 72
     4
 73
     2
 74
     0
 42
0.00000001
 43
0.00000001
 40
0.0
 40
0.0
 40
1.0
 40
1.0
 10
7.433528152574009
 20
7.483033266200875
 30
0.0
 10
7.447972434500715
 20
7.469742304347956
 30
0.0
  0
SPLINE
  5
190
330
1F
100
AcDbEntity
  8
0
  6
Continuous
 62
     7
370
     0
100
AcDbSpline
210
0.0
220
0.0
230
1.0
 70
     8
 71
     3
 72
     9
 73
     5
 74
     0
 42
0.00000001
 43
0.00000001
 40
0.0
 40
0.0
 40
0.0
 40
0.0
 40
0.4983624828367059
 40
1.0
 40
1.0
 40
1.0
 40
1.0
 10
7.427493489686963
 20
7.482484051725159
 30
0.0
 10
7.428555075959912
 20
7.482418906170656
 30
0.0
 10
7.430685224816436
 20
7.48228818695172
 30
0.0
 10
7.432578443203083
 20
7.482784364784678
 30
0.0
 10
7.433528152574009
 20
7.483033266200875
 30
0.0
  0
SPLINE
  5
191
330
1F
100
AcDbEntity
  8
0
  6
Continuous
 62
     7
370
     0
100
AcDbSpline
210
0.0
220
0.0
230
1.0
 70
     8
 71
     3
 72
     9
 73
     5
 74
     0
 42
0.00000001
 43
0.00000001
 40
0.0
 40
0.0
 40
0.0
 40
0.0
 40
0.5014167496225629
 40
1.0
 40
1.0
 40
1.0
 40
1.0
 10
7.420937130358062
 20
7.485641844217637
 30
0.0
 10
7.421881858420946
 20
7.484965883537615
 30
0.0
 10
7.423765975901255
 20
7.483617782022198
 30
0.0
 10
7.426253334401205
 20
7.482861247277295
 30
0.0
 10
7.427493489686963
 20
7.482484051725159
 30
0.0
  0
ARC
  5
192
330
1F
100
AcDbEntity
  8
0
  6
Continuous
 62
     7
370
     0
100
AcDbCircle
 10
7.341391393
 20
7.5577406997
 30
0.0
 40
0.0197507250977546
100
AcDbArc
 50
248.2302947985
 51
304.9932425957
  0
SPLINE
  5
193
330
1F
100
AcDbEntity
  8
0
  6
Continuous
 62
     7
370
     0
100
AcDbSpline
210
0.0
220
0.0
230
1.0
 70
     8
 71
     3
 72
    12
 73
     8
 74
     0
 42
0.00000001
 43
0.00000001
 40
0.0
 40
0.0
 40
0.0
 40
0.0
 40
0.2500161658406995
 40
0.3794861107514225
 40
0.500360994806102
 40
0.74974249864425
 40
1.0
 40
1.0
 40
1.0
 40
1.0
 10
7.332455227183642
 20
7.545682757080892
 30
0.0
 10
7.331946161623989
 20
7.545140844107038
 30
0.0
 10
7.331173478350889
 20
7.544318303508022
 30
0.0
 10
7.330803747194465
 20
7.543144756948029
 30
0.0
 10
7.330879830191575
 20
7.541981922275855
 30
0.0
 10
7.331854972894121
 20
7.54062172527161
 30
0.0
 10
7.333328334071491
 20
7.539806755170495
 30
0.0
 10
7.334066306253427
 20
7.539398555692343
 30
0.0
  0
SPLINE
  5
194
330
1F
100
AcDbEntity
  8
0
  6
Continuous
 62
     7
370
     0
100
AcDbSpline
210
0.0
220
0.0
230
1.0
 70
    24
 71
     1
 72
     4
 73
     2
 74
     0
 42
0.00000001
 43
0.00000001
 40
0.0
 40
0.0
 40
1.0
 40
1.0
 10
7.314173286907145
 20
7.551797481323778
 30
0.0
 10
7.332455227183642
 20
7.545682757080892
 30
0.0
  0
SPLINE
  5
195
330
1F
100
AcDbEntity
  8
0
  6
Continuous
 62
     7
370
     0
100
AcDbSpline
210
0.0
220
0.0
230
1.0
 70
     8
 71
     3
 72
    12
 73
     8
 74
     0
 42
0.00000001
 43
0.00000001
 40
0.0
 40
0.0
 40
0.0
 40
0.0
 40
0.2504615608200482
 40
0.5001568997101709
 40
0.6235742345075418
 40
0.7505262250100903
 40
1.0
 40
1.0
 40
1.0
 40
1.0
 10
7.323012099918194
 20
7.533054118562096
 30
0.0
 10
7.320682757267074
 20
7.534299307351059
 30
0.0
 10
7.316031197982158
 20
7.536785875598109
 30
0.0
 10
7.311819369727568
 20
7.540541007006897
 30
0.0
 10
7.310610797124777
 20
7.543961120178711
 30
0.0
 10
7.310787984799379
 20
7.547514034337127
 30
0.0
 10
7.312823958394051
 20
7.550090166298582
 30
0.0
 10
7.314173286907145
 20
7.551797481323778
 30
0.0
  0
SPLINE
  5
196
330
1F
100
AcDbEntity
  8
0
  6
Continuous
 62
     7
370
     0
100
AcDbSpline
210
0.0
220
0.0
230
1.0
 70
    24
 71
     1
 72
     4
 73
     2
 74
     0
 42
0.00000001
 43
0.00000001
 40
0.0
 40
0.0
 40
1.0
 40
1.0
 10
7.33675850855882
 20
7.528015524386436
 30
0.0
 10
7.323012099918194
 20
7.533054118562096
 30
0.0
  0
SPLINE
  5
197
330
1F
100
AcDbEntity
  8
0
  6
Continuous
 62
     7
370
     0
100
AcDbSpline
210
0.0
220
0.0
230
1.0
 70
     8
 71
     3
 72
     9
 73
     5
 74
     0
 42
0.00000001
 43
0.00000001
 40
0.0
 40
0.0
 40
0.0
 40
0.0
 40
0.4986120697281863
 40
1.0
 40
1.0
 40
1.0
 40
1.0
 10
7.355936052493841
 20
7.527793406892457
 30
0.0
 10
7.352709226608807
 20
7.527391295756505
 30
0.0
 10
7.346237610535026
 20
7.526584834861624
 30
0.0
 10
7.339924051071089
 20
7.527537746161872
 30
0.0
 10
7.33675850855882
 20
7.528015524386436
 30
0.0
  0
SPLINE
  5
198
330
1F
100
AcDbEntity
  8
0
  6
Continuous
 62
     7
370
     0
100
AcDbSpline
210
0.0
220
0.0
230
1.0
 70
     8
 71
     3
 72
     9
 73
     5
 74
     0
 42
0.00000001
 43
0.00000001
 40
0.0
 40
0.0
 40
0.0
 40
0.0
 40
0.500561584830631
 40
1.0
 40
1.0
 40
1.0
 40
1.0
 10
7.368585744875286
 20
7.532609424483587
 30
0.0
 10
7.36672372742062
 20
7.5315917761293
 30
0.0
 10
7.363003870541676
 20
7.529558762839576
 30
0.0
 10
7.358290227102684
 20
7.528381418088862
 30
0.0
 10
7.355936052493841
 20
7.527793406892457
 30
0.0
  0
SPLINE
  5
199
330
1F
100
AcDbEntity
  8
0
  6
Continuous
 62
     7
370
     0
100
AcDbSpline
210
0.0
220
0.0
230
1.0
 70
     8
 71
     3
 72
    14
 73
    10
 74
     0
 42
0.00000001
 43
0.00000001
 40
0.0
 40
0.0
 40
0.0
 40
0.0
 40
0.2500577725992602
 40
0.379667345631199
 40
0.4999755349867279
 40
0.6255852466956737
 40
0.7499501153978053
 40
0.8610382006715795
 40
1.0
 40
1.0
 40
1.0
 40
1.0
 10
7.364545640808429
 20
7.558189150716384
 30
0.0
 10
7.367591984917913
 20
7.55655429440827
 30
0.0
 10
7.372217305578435
 20
7.554072061808427
 30
0.0
 10
7.376407332802478
 20
7.549806547247323
 30
0.0
 10
7.378045221652416
 20
7.546198388047805
 30
0.0
 10
7.378035061174546
 20
7.542468077950724
 30
0.0
 10
7.376581906690215
 20
7.538875551261297
 30
0.0
 10
7.373303576125485
 20
7.535515480160936
 30
0.0
 10
7.370271036979707
 20
7.533647518562903
 30
0.0
 10
7.368585744875286
 20
7.532609424483587
 30
0.0
  0
ARC
  5
19A
330
1F
100
AcDbEntity
  8
0
  6
Continuous
 62
     7
370
     0
100
AcDbCircle
 10
7.3438489004
 20
7.5162968708
 30
0.0
 40
0.0467259904557383
100
AcDbArc
 50
63.7084797553
 51
111.5736853979
  0
SPLINE
  5
19B
330
1F
100
AcDbEntity
  8
0
  6
Continuous
 62
     7
370
     0
100
AcDbSpline
210
0.0
220
0.0
230
1.0
 70
    24
 71
     1
 72
     4
 73
     2
 74
     0
 42
0.00000001
 43
0.00000001
 40
0.0
 40
0.0
 40
1.0
 40
1.0
 10
7.34127366424313
 20
7.551548029049878
 30
0.0
 10
7.326667871008991
 20
7.559749493387748
 30
0.0
  0
ARC
  5
19C
330
1F
100
AcDbEntity
  8
0
  6
Continuous
 62
     7
370
     0
100
AcDbCircle
 10
7.347611984
 20
7.5351738441
 30
0.0
 40
0.0175581385633828
100
AcDbArc
 50
65.9263723645
 51
111.1610334572
  0
SPLINE
  5
19D
330
1F
100
AcDbEntity
  8
0
  6
Continuous
 62
     7
370
     0
100
AcDbSpline
210
0.0
220
0.0
230
1.0
 70
     8
 71
     3
 72
    13
 73
     9
 74
     0
 42
0.00000001
 43
0.00000001
 40
0.0
 40
0.0
 40
0.0
 40
0.0
 40
0.2503406525418273
 40
0.4995871881514236
 40
0.6259062530598826
 40
0.7464326647530252
 40
0.8687151858304656
 40
1.0
 40
1.0
 40
1.0
 40
1.0
 10
7.352718035331558
 20
7.541560516870649
 30
0.0
 10
7.35384532094302
 20
7.542267959156571
 30
0.0
 10
7.356094965350175
 20
7.543679751843115
 30
0.0
 10
7.357775458804611
 20
7.545895327901396
 30
0.0
 10
7.357971536668502
 20
7.547715222022384
 30
0.0
 10
7.35751781127525
 20
7.549024307895245
 30
0.0
 10
7.356457694502567
 20
7.550226364928499
 30
0.0
 10
7.355348444432678
 20
7.550871033453296
 30
0.0
 10
7.354774128781369
 20
7.551204811411709
 30
0.0
  0
ARC
  5
19E
330
1F
100
AcDbEntity
  8
0
  6
Continuous
 62
     7
370
     0
100
AcDbCircle
 10
7.2323909208
 20
7.6330217316
 30
0.0
 40
0.0646663445625161
100
AcDbArc
 50
259.1415132111
 51
299.1923879823
  0
SPLINE
  5
19F
330
1F
100
AcDbEntity
  8
0
  6
Continuous
 62
     7
370
     0
100
AcDbSpline
210
0.0
220
0.0
230
1.0
 70
     8
 71
     3
 72
    13
 73
     9
 74
     0
 42
0.00000001
 43
0.00000001
 40
0.0
 40
0.0
 40
0.0
 40
0.0
 40
0.2502561190886868
 40
0.3753695374489904
 40
0.5004454107250191
 40
0.6243777276232076
 40
0.7509522925239794
 40
1.0
 40
1.0
 40
1.0
 40
1.0
 10
7.262294978888438
 20
7.594216914075864
 30
0.0
 10
7.265075325061617
 20
7.593551211701602
 30
0.0
 10
7.26924568165779
 20
7.592552697086991
 30
0.0
 10
7.272789301810787
 20
7.590103713111755
 30
0.0
 10
7.273802742574934
 20
7.587712871941779
 30
0.0
 10
7.273233042412007
 20
7.584989995983531
 30
0.0
 10
7.270911440330198
 20
7.581153677517835
 30
0.0
 10
7.266714323572947
 20
7.578396767013833
 30
0.0
 10
7.263931521850918
 20
7.576568860919782
 30
0.0
  0
ARC
  5
1A0
330
1F
100
AcDbEntity
  8
0
  6
Continuous
 62
     7
370
     0
100
AcDbCircle
 10
7.2510209382
 20
7.5343884026
 30
0.0
 40
0.0608814814537232
100
AcDbArc
 50
79.3283653779
 51
111.4923687521
  0
SPLINE
  5
1A1
330
1F
100
AcDbEntity
  8
0
  6
Continuous
 62
     7
370
     0
100
AcDbSpline
210
0.0
220
0.0
230
1.0
 70
    24
 71
     1
 72
     4
 73
     2
 74
     0
 42
0.00000001
 43
0.00000001
 40
0.0
 40
0.0
 40
1.0
 40
1.0
 10
7.242421886155431
 20
7.587845177869331
 30
0.0
 10
7.228715345317312
 20
7.591036573867209
 30
0.0
  0
SPLINE
  5
1A2
330
1F
100
AcDbEntity
  8
0
  6
Continuous
 62
     7
370
     0
100
AcDbSpline
210
0.0
220
0.0
230
1.0
 70
    24
 71
     1
 72
     4
 73
     2
 74
     0
 42
0.00000001
 43
0.00000001
 40
0.0
 40
0.0
 40
1.0
 40
1.0
 10
7.24747916109884
 20
7.588847865740367
 30
0.0
 10
7.242421886155431
 20
7.587845177869331
 30
0.0
  0
ARC
  5
1A3
330
1F
100
AcDbEntity
  8
0
  6
Continuous
 62
     7
370
     0
100
AcDbCircle
 10
7.2496060555
 20
7.5699847507
 30
0.0
 40
0.0189826444487895
100
AcDbArc
 50
80.7173204696
 51
96.4331658342
  0
SPLINE
  5
1A4
330
1F
100
AcDbEntity
  8
0
  6
Continuous
 62
     7
370
     0
100
AcDbSpline
210
0.0
220
0.0
230
1.0
 70
     8
 71
     3
 72
    10
 73
     6
 74
     0
 42
0.00000001
 43
0.00000001
 40
0.0
 40
0.0
 40
0.0
 40
0.0
 40
0.2550650714642253
 40
0.5011546383381825
 40
0.9999999999999999
 40
0.9999999999999999
 40
0.9999999999999999
 40
0.9999999999999999
 10
7.255574504912362
 20
7.586072346573205
 30
0.0
 10
7.255606216911631
 20
7.586382654912548
 30
0.0
 10
7.255668524994165
 20
7.586992352127004
 30
0.0
 10
7.255010380063373
 20
7.588039507438205
 30
0.0
 10
7.253607498983989
 20
7.588446359821979
 30
0.0
 10
7.252668060259067
 20
7.588718808349697
 30
0.0
  0
SPLINE
  5
1A5
330
1F
100
AcDbEntity
  8
0
  6
Continuous
 62
     7
370
     0
100
AcDbSpline
210
0.0
220
0.0
230
1.0
 70
     8
 71
     3
 72
     9
 73
     5
 74
     0
 42
0.00000001
 43
0.00000001
 40
0.0
 40
0.0
 40
0.0
 40
0.0
 40
0.5011160372996567
 40
1.0
 40
1.0
 40
1.0
 40
1.0
 10
7.251984884690421
 20
7.582486512979983
 30
0.0
 10
7.252851234409587
 20
7.58308580616465
 30
0.0
 10
7.25458007494687
 20
7.584281723158041
 30
0.0
 10
7.255243521878213
 20
7.5854763609417
 30
0.0
 10
7.255574504912362
 20
7.586072346573205
 30
0.0
  0
ARC
  5
1A6
330
1F
100
AcDbEntity
  8
0
  6
Continuous
 62
     7
370
     0
100
AcDbCircle
 10
7.1810053445
 20
7.2662356689
 30
0.0
 40
0.324118329484561
100
AcDbArc
 50
77.3501251212
 51
82.7063989069
  0
LINE
  5
1A7
330
1F
100
AcDbEntity
  8
0
  6
Continuous
 62
     7
370
     0
100
AcDbLine
 10
7.2203971202
 20
7.5867175527
 30
0.0
 11
7.2221534082
 21
7.5877314361
 31
0.0
  0
SPLINE
  5
1A8
330
1F
100
AcDbEntity
  8
0
  6
Continuous
 62
     7
370
     0
100
AcDbSpline
210
0.0
220
0.0
230
1.0
 70
     8
 71
     3
 72
    13
 73
     9
 74
     0
 42
0.00000001
 43
0.00000001
 40
0.0
 40
0.0
 40
0.0
 40
0.0
 40
0.2501213163498996
 40
0.3752087323567189
 40
0.5002154264236804
 40
0.6251773972836252
 40
0.7501819867111073
 40
0.9999999999999999
 40
0.9999999999999999
 40
0.9999999999999999
 40
0.9999999999999999
 10
7.220208821123002
 20
7.569513207986378
 30
0.0
 10
7.217246501615291
 20
7.570180812791466
 30
0.0
 10
7.212802705446522
 20
7.571182291419069
 30
0.0
 10
7.209257379760386
 20
7.573417427956517
 30
0.0
 10
7.2082856177507
 20
7.575606789095481
 30
0.0
 10
7.209160299717693
 20
7.57819744774589
 30
0.0
 10
7.212636219712079
 20
7.58197286076967
 30
0.0
 10
7.217293235058379
 20
7.584819966341217
 30
0.0
 10
7.220397120238293
 20
7.586717552699012
 30
0.0
  0
LINE
  5
1A9
330
1F
100
AcDbEntity
  8
0
  6
Continuous
 62
     7
370
     0
100
AcDbLine
 10
7.1701889136
 20
7.5782638323
 30
0.0
 11
7.1508582672
 21
7.5671044876
 31
0.0
  0
SPLINE
  5
1AA
330
1F
100
AcDbEntity
  8
0
  6
Continuous
 62
     7
370
     0
100
AcDbSpline
210
0.0
220
0.0
230
1.0
 70
     8
 71
     3
 72
    11
 73
     7
 74
     0
 42
0.00000001
 43
0.00000001
 40
0.0
 40
0.0
 40
0.0
 40
0.0
 40
0.4989693492838162
 40
0.7492892892638034
 40
0.8746232027899085
 40
1.0
 40
1.0
 40
1.0
 40
1.0
 10
7.176429702005859
 20
7.575205936670383
 30
0.0
 10
7.174586191953667
 20
7.575403999045074
 30
0.0
 10
7.171817840874105
 20
7.575701424159814
 30
0.0
 10
7.17047955161144
 20
7.576818152608661
 30
0.0
 10
7.170131396872186
 20
7.57758892998192
 30
0.0
 10
7.170169739182426
 20
7.578038839192832
 30
0.0
 10
7.170188913616742
 20
7.578263832276428
 30
0.0
  0
ARC
  5
1AB
330
1F
100
AcDbEntity
  8
0
  6
Continuous
 62
     7
370
     0
100
AcDbCircle
 10
7.1762521515
 20
7.6444542578
 30
0.0
 40
0.0692485487320215
100
AcDbArc
 50
270.1469042236
 51
302.3199522371
  0
SPLINE
  5
1AC
330
1F
100
AcDbEntity
  8
0
  6
Continuous
 62
     7
370
     0
100
AcDbSpline
210
0.0
220
0.0
230
1.0
 70
     8
 71
     3
 72
    13
 73
     9
 74
     0
 42
0.00000001
 43
0.00000001
 40
0.0
 40
0.0
 40
0.0
 40
0.0
 40
0.1251834461243183
 40
0.2502299178032112
 40
0.371568437751193
 40
0.5002574982630655
 40
0.7499110761101929
 40
1.0
 40
1.0
 40
1.0
 40
1.0
 10
7.219133903694327
 20
7.59979902992547
 30
0.0
 10
7.220258509483599
 20
7.599692648699708
 30
0.0
 10
7.22250649053
 20
7.599480002649431
 30
0.0
 10
7.224606715518096
 20
7.598481483941251
 30
0.0
 10
7.225323772960844
 20
7.596924216999754
 30
0.0
 10
7.224260975132003
 20
7.59428440729532
 30
0.0
 10
7.220656483923426
 20
7.590490600716246
 30
0.0
 10
7.215737361137275
 20
7.587453743259593
 30
0.0
 10
7.21327565712012
 20
7.585933991766171
 30
0.0
  0
SPLINE
  5
1AD
330
1F
100
AcDbEntity
  8
0
  6
Continuous
 62
     7
370
     0
100
AcDbSpline
210
0.0
220
0.0
230
1.0
 70
    24
 71
     1
 72
     4
 73
     2
 74
     0
 42
0.00000001
 43
0.00000001
 40
0.0
 40
0.0
 40
1.0
 40
1.0
 10
7.210550678502818
 20
7.599119095011692
 30
0.0
 10
7.219133903694327
 20
7.59979902992547
 30
0.0
  0
SPLINE
  5
1AE
330
1F
100
AcDbEntity
  8
0
  6
Continuous
 62
     7
370
     0
100
AcDbSpline
210
0.0
220
0.0
230
1.0
 70
    24
 71
     1
 72
     4
 73
     2
 74
     0
 42
0.00000001
 43
0.00000001
 40
0.0
 40
0.0
 40
1.0
 40
1.0
 10
7.200527356706067
 20
7.596374464039385
 30
0.0
 10
7.210550678502818
 20
7.599119095011692
 30
0.0
  0
LINE
  5
1AF
330
1F
100
AcDbEntity
  8
0
  6
Continuous
 62
     7
370
     0
100
AcDbLine
 10
7.2064160869
 20
7.5997739556
 30
0.0
 11
7.2005273567
 21
7.596374464
 31
0.0
  0
ARC
  5
1B0
330
1F
100
AcDbEntity
  8
0
  6
Continuous
 62
     7
370
     0
100
AcDbCircle
 10
7.2034825159
 20
7.3404006244
 30
0.0
 40
0.2593899203916148
100
AcDbArc
 50
89.3519994174
 51
92.1652395097
  0
LINE
  5
1B1
330
1F
100
AcDbEntity
  8
0
  6
Continuous
 62
     7
370
     0
100
AcDbLine
 10
7.1371138165
 20
7.5669490215
 30
0.0
 11
7.193682359
 21
7.599605346
 31
0.0
  0
ARC
  5
1B2
330
1F
100
AcDbEntity
  8
0
  6
Continuous
 62
     7
370
     0
100
AcDbCircle
 10
7.1469246254
 20
7.3072323772
 30
0.0
 40
0.259901880128424
100
AcDbArc
 50
89.1327893471
 51
92.1633222744
  0
SPLINE
  5
1B3
330
1F
100
AcDbEntity
  8
0
  6
Continuous
 62
     7
370
     0
100
AcDbSpline
210
0.0
220
0.0
230
1.0
 70
     8
 71
     3
 72
    13
 73
     9
 74
     0
 42
0.00000001
 43
0.00000001
 40
0.0
 40
0.0
 40
0.0
 40
0.0
 40
0.2502499937362316
 40
0.3875326883001058
 40
0.500055398927667
 40
0.6148522551710209
 40
0.7498927631186237
 40
1.0
 40
1.0
 40
1.0
 40
1.0
 10
7.0700032740732
 20
7.558261157336972
 30
0.0
 10
7.069321691246826
 20
7.557867357282134
 30
0.0
 10
7.068266204207404
 20
7.557257525523002
 30
0.0
 10
7.067207763335764
 20
7.556640671323177
 30
0.0
 10
7.066708637337497
 20
7.556343873131077
 30
0.0
 10
7.066712414197533
 20
7.556330263074398
 30
0.0
 10
7.067200912879948
 20
7.556582899595376
 30
0.0
 10
7.067938018177451
 20
7.556975653721642
 30
0.0
 10
7.068416679604721
 20
7.557230700390391
 30
0.0
  0
SPLINE
  5
1B4
330
1F
100
AcDbEntity
  8
0
  6
Continuous
 62
     7
370
     0
100
AcDbSpline
210
0.0
220
0.0
230
1.0
 70
    24
 71
     1
 72
     4
 73
     2
 74
     0
 42
0.00000001
 43
0.00000001
 40
0.0
 40
0.0
 40
1.0
 40
1.0
 10
7.086554330792067
 20
7.567016674029866
 30
0.0
 10
7.0700032740732
 20
7.558261157336972
 30
0.0
  0
ARC
  5
1B5
330
1F
100
AcDbEntity
  8
0
  6
Continuous
 62
     7
370
     0
100
AcDbCircle
 10
6.7034491829
 20
8.3609417779
 30
0.0
 40
0.8815251697389225
100
AcDbArc
 50
295.7594332922
 51
296.6157480089
  0
SPLINE
  5
1B6
330
1F
100
AcDbEntity
  8
0
  6
Continuous
 62
     7
370
     0
100
AcDbSpline
210
0.0
220
0.0
230
1.0
 70
     8
 71
     3
 72
     9
 73
     5
 74
     0
 42
0.00000001
 43
0.00000001
 40
0.0
 40
0.0
 40
0.0
 40
0.0
 40
0.5005138828869298
 40
1.0
 40
1.0
 40
1.0
 40
1.0
 10
7.107650354009846
 20
7.577841227666809
 30
0.0
 10
7.106239378669726
 20
7.577039786484887
 30
0.0
 10
7.103420325316041
 20
7.575438549817287
 30
0.0
 10
7.100056769222265
 20
7.573699474399618
 30
0.0
 10
7.098376719649293
 20
7.572830830371879
 30
0.0
  0
SPLINE
  5
1B7
330
1F
100
AcDbEntity
  8
0
  6
Continuous
 62
     7
370
     0
100
AcDbSpline
210
0.0
220
0.0
230
1.0
 70
     8
 71
     3
 72
    13
 73
     9
 74
     0
 42
0.00000001
 43
0.00000001
 40
0.0
 40
0.0
 40
0.0
 40
0.0
 40
0.2503342404082146
 40
0.499760071023662
 40
0.6241777149145104
 40
0.7517673256889393
 40
0.8742692938078057
 40
0.9999999999999999
 40
0.9999999999999999
 40
0.9999999999999999
 40
0.9999999999999999
 10
7.107374290324912
 20
7.579194456606685
 30
0.0
 10
7.108590436921245
 20
7.579761947734319
 30
0.0
 10
7.1110183169762
 20
7.580894870684806
 30
0.0
 10
7.112701519750804
 20
7.581430436341451
 30
0.0
 10
7.112550514813339
 20
7.581030418507282
 30
0.0
 10
7.111776325472452
 20
7.58038043795969
 30
0.0
 10
7.110119556663125
 20
7.579290543317435
 30
0.0
 10
7.108480527790259
 20
7.57832850393435
 30
0.0
 10
7.107650354009844
 20
7.577841227666809
 30
0.0
  0
SPLINE
  5
1B8
330
1F
100
AcDbEntity
  8
0
  6
Continuous
 62
     7
370
     0
100
AcDbSpline
210
0.0
220
0.0
230
1.0
 70
    24
 71
     1
 72
     4
 73
     2
 74
     0
 42
0.00000001
 43
0.00000001
 40
0.0
 40
0.0
 40
1.0
 40
1.0
 10
7.09854816837196
 20
7.574614160236449
 30
0.0
 10
7.107374290324912
 20
7.579194456606685
 30
0.0
  0
SPLINE
  5
1B9
330
1F
100
AcDbEntity
  8
0
  6
Continuous
 62
     7
370
     0
100
AcDbSpline
210
0.0
220
0.0
230
1.0
 70
    24
 71
     1
 72
     4
 73
     2
 74
     0
 42
0.00000001
 43
0.00000001
 40
0.0
 40
0.0
 40
1.0
 40
1.0
 10
7.08987851974631
 20
7.569745485753356
 30
0.0
 10
7.09854816837196
 20
7.574614160236449
 30
0.0
  0
SPLINE
  5
1BA
330
1F
100
AcDbEntity
  8
0
  6
Continuous
 62
     7
370
     0
100
AcDbSpline
210
0.0
220
0.0
230
1.0
 70
     8
 71
     3
 72
     9
 73
     5
 74
     0
 42
0.00000001
 43
0.00000001
 40
0.0
 40
0.0
 40
0.0
 40
0.0
 40
0.4998712278477574
 40
1.0
 40
1.0
 40
1.0
 40
1.0
 10
7.09387209386985
 20
7.572062545552872
 30
0.0
 10
7.093361098369406
 20
7.571765206520517
 30
0.0
 10
7.092338844092751
 20
7.571170375260405
 30
0.0
 10
7.090698768659153
 20
7.570220530464745
 30
0.0
 10
7.08987851974631
 20
7.569745485753356
 30
0.0
  0
SPLINE
  5
1BB
330
1F
100
AcDbEntity
  8
0
  6
Continuous
 62
     7
370
     0
100
AcDbSpline
210
0.0
220
0.0
230
1.0
 70
     8
 71
     3
 72
     9
 73
     5
 74
     0
 42
0.00000001
 43
0.00000001
 40
0.0
 40
0.0
 40
0.0
 40
0.0
 40
0.4987757766930707
 40
1.0
 40
1.0
 40
1.0
 40
1.0
 10
7.072521724613023
 20
7.558526615148057
 30
0.0
 10
7.069912349122477
 20
7.557225213887621
 30
0.0
 10
7.064680788945585
 20
7.554616022901917
 30
0.0
 10
7.061017651101719
 20
7.552744954839776
 30
0.0
 10
7.059181597681061
 20
7.551807130203574
 30
0.0
  0
ARC
  5
1BC
330
1F
100
AcDbEntity
  8
0
  6
Continuous
 62
     7
370
     0
100
AcDbCircle
 10
6.8703448482
 20
7.9593641639
 30
0.0
 40
0.4489390045765327
100
AcDbArc
 50
296.7657409559
 51
299.2382073086
  0
SPLINE
  5
1BD
330
1F
100
AcDbEntity
  8
0
  6
Continuous
 62
     7
370
     0
100
AcDbSpline
210
0.0
220
0.0
230
1.0
 70
    24
 71
     1
 72
     4
 73
     2
 74
     0
 42
0.00000001
 43
0.00000001
 40
0.0
 40
0.0
 40
1.0
 40
1.0
 10
7.079035746886221
 20
7.563006093261458
 30
0.0
 10
7.089625357642386
 20
7.567621534072834
 30
0.0
  0
SPLINE
  5
1BE
330
1F
100
AcDbEntity
  8
0
  6
Continuous
 62
     7
370
     0
100
AcDbSpline
210
0.0
220
0.0
230
1.0
 70
     8
 71
     3
 72
     9
 73
     5
 74
     0
 42
0.00000001
 43
0.00000001
 40
0.0
 40
0.0
 40
0.0
 40
0.0
 40
0.4983624828367147
 40
1.0
 40
1.0
 40
1.0
 40
1.0
 10
7.073572651787451
 20
7.55997997761376
 30
0.0
 10
7.074501488201492
 20
7.560487770666059
 30
0.0
 10
7.076365264962444
 20
7.561506693778826
 30
0.0
 10
7.078143644826595
 20
7.562505203382837
 30
0.0
 10
7.079035746886221
 20
7.563006093261458
 30
0.0
  0
SPLINE
  5
1BF
330
1F
100
AcDbEntity
  8
0
  6
Continuous
 62
     7
370
     0
100
AcDbSpline
210
0.0
220
0.0
230
1.0
 70
     8
 71
     3
 72
     9
 73
     5
 74
     0
 42
0.00000001
 43
0.00000001
 40
0.0
 40
0.0
 40
0.0
 40
0.0
 40
0.5014167496225476
 40
0.9999999999999999
 40
0.9999999999999999
 40
0.9999999999999999
 40
0.9999999999999999
 10
7.068416679604721
 20
7.557230700390391
 30
0.0
 10
7.069110789022991
 20
7.557598065212332
 30
0.0
 10
7.07049508545663
 20
7.558330718882594
 30
0.0
 10
7.072548736016281
 20
7.559431264168117
 30
0.0
 10
7.073572651787451
 20
7.55997997761376
 30
0.0
  0
LINE
  5
1C0
330
1F
100
AcDbEntity
  8
0
  6
Continuous
 62
     7
370
     0
100
AcDbLine
 10
7.451864786
 20
7.2867540762
 30
0.0
 11
7.4746391343
 21
7.2999014276
 31
0.0
  0
ARC
  5
1C1
330
1F
100
AcDbEntity
  8
0
  6
Continuous
 62
     7
370
     0
100
AcDbCircle
 10
6.7324616897
 20
6.6849887193
 30
0.0
 40
0.9379031719294819
100
AcDbArc
 50
39.9117633597
 51
41.75181516
  0
LINE
  5
1C2
330
1F
100
AcDbEntity
  8
0
  6
Continuous
 62
     7
370
     0
100
AcDbLine
 10
7.42041698
 20
7.3027576837
 30
0.0
 11
7.4321714823
 21
7.3095434134
 31
0.0
  0
ARC
  5
1C3
330
1F
100
AcDbEntity
  8
0
  6
Continuous
 62
     7
370
     0
100
AcDbCircle
 10
6.7207071873
 20
6.6782029895
 30
0.0
 40
0.9379031719311589
100
AcDbArc
 50
39.9117633597
 51
41.75181516
  0
LINE
  5
1C4
330
1F
100
AcDbEntity
  8
0
  6
Continuous
 62
     7
370
     0
100
AcDbLine
 10
7.4312944069
 20
7.2748790491
 30
0.0
 11
7.4401102837
 21
7.2799683465
 31
0.0
  0
ARC
  5
1C5
330
1F
100
AcDbEntity
  8
0
  6
Continuous
 62
     7
370
     0
100
AcDbCircle
 10
6.7139067561
 20
6.6748396984
 30
0.0
 40
0.9352498404206777
100
AcDbArc
 50
39.9098776805
 51
42.0606426219
  0
LINE
  5
1C6
330
1F
100
AcDbEntity
  8
0
  6
Continuous
 62
     7
370
     0
100
AcDbLine
 10
7.3950462716
 20
7.2937453195
 30
0.0
 11
7.4082700867
 21
7.3013792655
 31
0.0
  0
ARC
  5
1C7
330
1F
100
AcDbEntity
  8
0
  6
Continuous
 62
     7
370
     0
100
AcDbCircle
 10
6.6916634801
 20
6.6593375408
 30
0.0
 40
0.9472172829278468
100
AcDbArc
 50
38.4537817607
 51
42.0485060118
  0
LINE
  5
1C8
330
1F
100
AcDbEntity
  8
0
  6
Continuous
 62
     7
370
     0
100
AcDbLine
 10
7.4900074059
 20
7.2810523188
 30
0.0
 11
7.4334388634
 21
7.2483959944
 31
0.0
  0
ARC
  5
1C9
330
1F
100
AcDbEntity
  8
0
  6
Continuous
 62
     7
370
     0
100
AcDbCircle
 10
6.7350047768
 20
6.6811645862
 30
0.0
 40
0.9643102518299553
100
AcDbArc
 50
38.4689160724
 51
39.9139721536
  0
LINE
  5
1CA
330
1F
100
AcDbEntity
  8
0
  6
Continuous
 62
     7
370
     0
100
AcDbLine
 10
7.328191434
 20
7.4050650259
 30
0.0
 11
7.3406805927
 21
7.4122748637
 31
0.0
  0
ARC
  5
1CB
330
1F
100
AcDbEntity
  8
0
  6
Continuous
 62
     7
370
     0
100
AcDbCircle
 10
6.8493068706
 20
6.8037347394
 30
0.0
 40
0.7687187642011433
100
AcDbArc
 50
47.4753155139
 51
51.4670513902
  0
LINE
  5
1CC
330
1F
100
AcDbEntity
  8
0
  6
Continuous
 62
     7
370
     0
100
AcDbLine
 10
7.3813790249
 20
7.3774797035
 30
0.0
 11
7.3688898662
 21
7.3702698656
 31
0.0
  0
ARC
  5
1CD
330
1F
100
AcDbEntity
  8
0
  6
Continuous
 62
     7
370
     0
100
AcDbCircle
 10
6.8617960294
 20
6.8109445773
 30
0.0
 40
0.7687187642018715
100
AcDbArc
 50
47.4753155139
 51
51.4670513902
  0
ARC
  5
1CE
330
1F
100
AcDbEntity
  8
0
  6
Continuous
 62
     7
370
     0
100
AcDbCircle
 10
7.2470083731
 20
7.4325895717
 30
0.0
 40
0.0498489305346189
100
AcDbArc
 50
62.6473286572
 51
127.0883258437
  0
SPLINE
  5
1CF
330
1F
100
AcDbEntity
  8
0
  6
Continuous
 62
     7
370
     0
100
AcDbSpline
210
0.0
220
0.0
230
1.0
 70
    24
 71
     1
 72
     4
 73
     2
 74
     0
 42
0.00000001
 43
0.00000001
 40
0.0
 40
0.0
 40
1.0
 40
1.0
 10
7.20546469223185
 20
7.46399671396392
 30
0.0
 10
7.216947201618239
 20
7.472354403474897
 30
0.0
  0
SPLINE
  5
1D0
330
1F
100
AcDbEntity
  8
0
  6
Continuous
 62
     7
370
     0
100
AcDbSpline
210
0.0
220
0.0
230
1.0
 70
     8
 71
     3
 72
    12
 73
     8
 74
     0
 42
0.00000001
 43
0.00000001
 40
0.0
 40
0.0
 40
0.0
 40
0.0
 40
0.2503309494299807
 40
0.4997648043321503
 40
0.6249322238031034
 40
0.7501904501281056
 40
1.0
 40
1.0
 40
1.0
 40
1.0
 10
7.211449731643298
 20
7.443599437054112
 30
0.0
 10
7.209115929433072
 20
7.444996860496758
 30
0.0
 10
7.204456688505815
 20
7.447786699527741
 30
0.0
 10
7.201102690308763
 20
7.452222381004083
 30
0.0
 10
7.200730218522756
 20
7.455958578533234
 30
0.0
 10
7.201478640241725
 20
7.459716172733984
 30
0.0
 10
7.203871173293208
 20
7.462285465958514
 30
0.0
 10
7.20546469223185
 20
7.46399671396392
 30
0.0
  0
ARC
  5
1D1
330
1F
100
AcDbEntity
  8
0
  6
Continuous
 62
     7
370
     0
100
AcDbCircle
 10
7.2358963269
 20
7.4860632251
 30
0.0
 40
0.0489980542279231
100
AcDbArc
 50
240.0707707533
 51
305.1888797662
  0
SPLINE
  5
1D2
330
1F
100
AcDbEntity
  8
0
  6
Continuous
 62
     7
370
     0
100
AcDbSpline
210
0.0
220
0.0
230
1.0
 70
     8
 71
     3
 72
     9
 73
     5
 74
     0
 42
0.00000001
 43
0.00000001
 40
0.0
 40
0.0
 40
0.0
 40
0.0
 40
0.4986702672090043
 40
1.0
 40
1.0
 40
1.0
 40
1.0
 10
7.280103061223992
 20
7.460502618763196
 30
0.0
 10
7.278248581524675
 20
7.457771004704782
 30
0.0
 10
7.274529731973655
 20
7.452293208577692
 30
0.0
 10
7.267604461415632
 20
7.448114263526538
 30
0.0
 10
7.264132617377273
 20
7.446019234120694
 30
0.0
  0
SPLINE
  5
1D3
330
1F
100
AcDbEntity
  8
0
  6
Continuous
 62
     7
370
     0
100
AcDbSpline
210
0.0
220
0.0
230
1.0
 70
     8
 71
     3
 72
    10
 73
     6
 74
     0
 42
0.00000001
 43
0.00000001
 40
0.0
 40
0.0
 40
0.0
 40
0.0
 40
0.499206798160622
 40
0.7495375815250948
 40
1.0
 40
1.0
 40
1.0
 40
1.0
 10
7.269912274619245
 20
7.476865153872238
 30
0.0
 10
7.273410515629276
 20
7.47461352085701
 30
0.0
 10
7.278662974361632
 20
7.471232790524542
 30
0.0
 10
7.281092532721798
 20
7.465093466245721
 30
0.0
 10
7.280432942848369
 20
7.462033169393674
 30
0.0
 10
7.280103061223992
 20
7.460502618763196
 30
0.0
  0
LINE
  5
1D4
330
1F
100
AcDbEntity
  8
0
  6
Continuous
 62
     7
370
     0
100
AcDbLine
 10
7.1495970408
 20
7.506611681
 30
0.0
 11
7.170305168
 21
7.5185662283
 31
0.0
  0
ARC
  5
1D5
330
1F
100
AcDbEntity
  8
0
  6
Continuous
 62
     7
370
     0
100
AcDbCircle
 10
7.1381169294
 20
7.5232399322
 30
0.0
 40
0.0202062291307778
100
AcDbArc
 50
259.9759422125
 51
304.6211213289
  0
SPLINE
  5
1D6
330
1F
100
AcDbEntity
  8
0
  6
Continuous
 62
     7
370
     0
100
AcDbSpline
210
0.0
220
0.0
230
1.0
 70
     8
 71
     3
 72
    11
 73
     7
 74
     0
 42
0.00000001
 43
0.00000001
 40
0.0
 40
0.0
 40
0.0
 40
0.0
 40
0.2500620333659065
 40
0.4999138376966581
 40
0.7498401673007556
 40
1.0
 40
1.0
 40
1.0
 40
1.0
 10
7.133272588214011
 20
7.506526071975283
 30
0.0
 10
7.133000639651756
 20
7.506191907983941
 30
0.0
 10
7.132456971156452
 20
7.505523860935441
 30
0.0
 10
7.132476177970766
 20
7.504589998832142
 30
0.0
 10
7.133164884362155
 20
7.503812817278438
 30
0.0
 10
7.134121345549651
 20
7.5034990920019
 30
0.0
 10
7.134599799441568
 20
7.503342156120429
 30
0.0
  0
SPLINE
  5
1D7
330
1F
100
AcDbEntity
  8
0
  6
Continuous
 62
     7
370
     0
100
AcDbSpline
210
0.0
220
0.0
230
1.0
 70
    24
 71
     1
 72
     4
 73
     2
 74
     0
 42
0.00000001
 43
0.00000001
 40
0.0
 40
0.0
 40
1.0
 40
1.0
 10
7.136602127594949
 20
7.508704383780276
 30
0.0
 10
7.133272588214011
 20
7.506526071975283
 30
0.0
  0
LINE
  5
1D8
330
1F
100
AcDbEntity
  8
0
  6
Continuous
 62
     7
370
     0
100
AcDbLine
 10
7.1589517526
 20
7.5216065477
 30
0.0
 11
7.1366021276
 21
7.5087043838
 31
0.0
  0
ARC
  5
1D9
330
1F
100
AcDbEntity
  8
0
  6
Continuous
 62
     7
370
     0
100
AcDbCircle
 10
7.0744009779
 20
7.1845079967
 30
0.0
 40
0.3475403092689641
100
AcDbArc
 50
75.919591595
 51
78.4163849567
  0
LINE
  5
1DA
330
1F
100
AcDbEntity
  8
0
  6
Continuous
 62
     7
370
     0
100
AcDbLine
 10
7.123191199
 20
7.5128496379
 30
0.0
 11
7.1441863013
 21
7.5249698525
 31
0.0
  0
ARC
  5
1DB
330
1F
100
AcDbEntity
  8
0
  6
Continuous
 62
     7
370
     0
100
AcDbCircle
 10
7.1109540174
 20
7.5308437749
 30
0.0
 40
0.0217609186235248
100
AcDbArc
 50
263.9040579005
 51
304.2182462226
  0
SPLINE
  5
1DC
330
1F
100
AcDbEntity
  8
0
  6
Continuous
 62
     7
370
     0
100
AcDbSpline
210
0.0
220
0.0
230
1.0
 70
     8
 71
     3
 72
    10
 73
     6
 74
     0
 42
0.00000001
 43
0.00000001
 40
0.0
 40
0.0
 40
0.0
 40
0.0
 40
0.4988226573032991
 40
0.7491700015752203
 40
1.0
 40
1.0
 40
1.0
 40
1.0
 10
7.106848840124059
 20
7.511123931725477
 30
0.0
 10
7.106790792654532
 20
7.510693836310429
 30
0.0
 10
7.106703612527083
 20
7.510047886135448
 30
0.0
 10
7.107589989658347
 20
7.509463331178599
 30
0.0
 10
7.108291868588156
 20
7.509291768163529
 30
0.0
 10
7.108643146022031
 20
7.509205904044914
 30
0.0
  0
SPLINE
  5
1DD
330
1F
100
AcDbEntity
  8
0
  6
Continuous
 62
     7
370
     0
100
AcDbSpline
210
0.0
220
0.0
230
1.0
 70
     8
 71
     3
 72
     9
 73
     5
 74
     0
 42
0.00000001
 43
0.00000001
 40
0.0
 40
0.0
 40
0.0
 40
0.0
 40
0.5015771373281095
 40
1.0
 40
1.0
 40
1.0
 40
1.0
 10
7.109874891817161
 20
7.513672772323204
 30
0.0
 10
7.109154868632312
 20
7.513246902258068
 30
0.0
 10
7.107719350281767
 20
7.512397840302405
 30
0.0
 10
7.107138399350362
 20
7.511547674031812
 30
0.0
 10
7.106848840124059
 20
7.511123931725477
 30
0.0
  0
LINE
  5
1DE
330
1F
100
AcDbEntity
  8
0
  6
Continuous
 62
     7
370
     0
100
AcDbLine
 10
7.1330510053
 20
7.5270520579
 30
0.0
 11
7.1098748918
 21
7.5136727723
 31
0.0
  0
ARC
  5
1DF
330
1F
100
AcDbEntity
  8
0
  6
Continuous
 62
     7
370
     0
100
AcDbCircle
 10
7.081046695
 20
7.2199294326
 30
0.0
 40
0.3114943903810699
100
AcDbArc
 50
80.3894072475
 51
83.0752958283
  0
LINE
  5
1E0
330
1F
100
AcDbEntity
  8
0
  6
Continuous
 62
     7
370
     0
100
AcDbLine
 10
7.092877524
 20
7.5143012011
 30
0.0
 11
7.1186019769
 21
7.5291516117
 31
0.0
  0
SPLINE
  5
1E1
330
1F
100
AcDbEntity
  8
0
  6
Continuous
 62
     7
370
     0
100
AcDbSpline
210
0.0
220
0.0
230
1.0
 70
     8
 71
     3
 72
    13
 73
     9
 74
     0
 42
0.00000001
 43
0.00000001
 40
0.0
 40
0.0
 40
0.0
 40
0.0
 40
0.2493551011004929
 40
0.3758643206420051
 40
0.499491262330466
 40
0.6184449072802557
 40
0.749784392501931
 40
1.0
 40
1.0
 40
1.0
 40
1.0
 10
7.08994247723726
 20
7.503083921521736
 30
0.0
 10
7.088162339975169
 20
7.503481632495831
 30
0.0
 10
7.085479057861778
 20
7.504081120392527
 30
0.0
 10
7.08403112881007
 20
7.505693771636162
 30
0.0
 10
7.084038330582712
 20
7.507172227449704
 30
0.0
 10
7.085186278504648
 20
7.508882978332011
 30
0.0
 10
7.087916983805992
 20
7.511289414594835
 30
0.0
 10
7.09091287992583
 20
7.513108369628695
 30
0.0
 10
7.092877524041267
 20
7.514301201142395
 30
0.0
  0
ARC
  5
1E2
330
1F
100
AcDbEntity
  8
0
  6
Continuous
 62
     7
370
     0
100
AcDbCircle
 10
7.0968839545
 20
7.5500010758
 30
0.0
 40
0.047427876564406
100
AcDbArc
 50
261.5840397666
 51
286.8300704855
  0
SPLINE
  5
1E3
330
1F
100
AcDbEntity
  8
0
  6
Continuous
 62
     7
370
     0
100
AcDbSpline
210
0.0
220
0.0
230
1.0
 70
     8
 71
     3
 72
    12
 73
     8
 74
     0
 42
0.00000001
 43
0.00000001
 40
0.0
 40
0.0
 40
0.0
 40
0.0
 40
0.2503533688407894
 40
0.4999961943216273
 40
0.7494886161542261
 40
0.8747044873187648
 40
1.0
 40
1.0
 40
1.0
 40
1.0
 10
7.115608044838253
 20
7.497797011049336
 30
0.0
 10
7.114432535079577
 20
7.498123568811943
 30
0.0
 10
7.112084851849079
 20
7.498775757513402
 30
0.0
 10
7.109672945223889
 20
7.500255835632458
 30
0.0
 10
7.109359671365358
 20
7.501975880058458
 30
0.0
 10
7.109849199665145
 20
7.5034533129151
 30
0.0
 10
7.110360309839736
 20
7.504220786683081
 30
0.0
 10
7.11061594617202
 20
7.504604645563074
 30
0.0
  0
ARC
  5
1E4
330
1F
100
AcDbEntity
  8
0
  6
Continuous
 62
     7
370
     0
100
AcDbCircle
 10
7.1252933552
 20
7.540928656
 30
0.0
 40
0.0442057013486906
100
AcDbArc
 50
257.3440338176
 51
284.6879902317
  0
LINE
  5
1E5
330
1F
100
AcDbEntity
  8
0
  6
Continuous
 62
     7
370
     0
100
AcDbLine
 10
7.1301884868
 20
7.4945228771
 30
0.0
 11
7.1365019402
 21
7.4981675562
 31
0.0
  0
ARC
  5
1E6
330
1F
100
AcDbEntity
  8
0
  6
Continuous
 62
     7
370
     0
100
AcDbCircle
 10
7.0224564775
 20
7.1206212231
 30
0.0
 40
0.389112622167449
100
AcDbArc
 50
71.7696545365
 51
73.9267605439
  0
LINE
  5
1E7
330
1F
100
AcDbEntity
  8
0
  6
Continuous
 62
     7
370
     0
100
AcDbLine
 10
7.1853264527
 20
7.5139529738
 30
0.0
 11
7.1441856946
 21
7.4902029197
 31
0.0
  0
ARC
  5
1E8
330
1F
100
AcDbEntity
  8
0
  6
Continuous
 62
     7
370
     0
100
AcDbCircle
 10
7.0638482481
 20
7.1451681723
 30
0.0
 40
0.3882771999732834
100
AcDbArc
 50
71.7680481825
 51
74.0869881101
  0
LWPOLYLINE
  5
1E9
330
1F
100
AcDbEntity
  8
0
  6
Continuous
 62
     7
370
     0
100
AcDbPolyline
 90
       44
 70
   128
 43
0.0
 10
8.3062834702
 20
6.886371277
 10
8.3211485454
 20
6.8958485959
 10
8.3415203714
 20
6.9121758116
 10
8.3600175531
 20
6.9312646957
 10
8.3765366466
 20
6.9530084955
 10
8.3909852705
 20
6.977285611
 10
8.4032826223
 20
7.0039602745
 10
8.41335993
 20
7.0328833105
 10
8.4211608375
 20
7.0638929698
 10
8.4266417187
 20
7.0968158336
 10
8.4297719225
 20
7.1314677841
 10
8.4305339434
 20
7.1676550334
 10
8.4289235199
 20
7.2051752078
 10
8.4249496582
 20
7.2438184792
 10
8.4186345816
 20
7.2833687387
 10
8.4100136067
 20
7.3236048054
 10
8.3991349455
 20
7.3643016627
 10
8.3860594358
 20
7.4052317174
 10
8.3708602012
 20
7.4461660719
 10
8.353622242
 20
7.4868758048
 10
8.3344419598
 20
7.5271332507
 10
8.3134266185
 20
7.5667132736
 10
8.2906937446
 20
7.6053945261
 10
8.2663704694
 20
7.6429606868
 10
8.2405928185
 20
7.6792016706
 10
8.213504951
 20
7.7139148031
 10
8.1852583533
 20
7.7469059545
 10
8.1560109918
 20
7.7779906248
 10
8.1259264296
 20
7.8069949759
 10
8.0951729118
 20
7.8337568038
 10
8.0639224245
 20
7.8581264455
 10
8.0323497331
 20
7.8799676161
 10
8.000631405
 20
7.8991581707
 10
7.9689448219
 20
7.9155907882
 10
7.9374671879
 20
7.9291735706
 10
7.9063745389
 20
7.9398305575
 10
7.8758407575
 20
7.9475021507
 10
7.846036601
 20
7.9521454476
 10
7.8171287464
 20
7.9537344808
 10
7.789278858
 20
7.9522603641
 10
7.7626426838
 20
7.9477313411
 10
7.737369184
 20
7.94017274
 10
7.7135996984
 20
7.9296268316
 10
7.7063322306
 20
7.9256299118
  0
LINE
  5
1EA
330
1F
100
AcDbEntity
  8
0
  6
Continuous
 62
     7
370
     0
100
AcDbLine
 10
7.074945321
 20
7.5190659407
 30
0.0
 11
7.0956534482
 21
7.531020488
 31
0.0
  0
ARC
  5
1EB
330
1F
100
AcDbEntity
  8
0
  6
Continuous
 62
     7
370
     0
100
AcDbCircle
 10
7.0586645435
 20
7.5437669819
 30
0.0
 40
0.0295838664814625
100
AcDbArc
 50
273.2959294581
 51
303.3893962489
  0
SPLINE
  5
1EC
330
1F
100
AcDbEntity
  8
0
  6
Continuous
 62
     7
370
     0
100
AcDbSpline
210
0.0
220
0.0
230
1.0
 70
     8
 71
     3
 72
    11
 73
     7
 74
     0
 42
0.00000001
 43
0.00000001
 40
0.0
 40
0.0
 40
0.0
 40
0.0
 40
0.2500620333659326
 40
0.499913837696691
 40
0.7498401673007651
 40
0.9999999999999999
 40
0.9999999999999999
 40
0.9999999999999999
 40
0.9999999999999999
 10
7.059362943930162
 20
7.516240288686132
 30
0.0
 10
7.059076071151254
 20
7.5159594069434
 30
0.0
 10
7.058502566769544
 20
7.515397879597334
 30
0.0
 10
7.058443042496986
 20
7.514746868935815
 30
0.0
 10
7.059035122554995
 20
7.514319407507462
 30
0.0
 10
7.059921843962101
 20
7.514261178210586
 30
0.0
 10
7.060365411682175
 20
7.51423204996777
 30
0.0
  0
SPLINE
  5
1ED
330
1F
100
AcDbEntity
  8
0
  6
Continuous
 62
     7
370
     0
100
AcDbSpline
210
0.0
220
0.0
230
1.0
 70
    24
 71
     1
 72
     4
 73
     2
 74
     0
 42
0.00000001
 43
0.00000001
 40
0.0
 40
0.0
 40
1.0
 40
1.0
 10
7.062714123089159
 20
7.518341459901859
 30
0.0
 10
7.059362943930162
 20
7.516240288686132
 30
0.0
  0
LINE
  5
1EE
330
1F
100
AcDbEntity
  8
0
  6
Continuous
 62
     7
370
     0
100
AcDbLine
 10
7.0850637481
 20
7.5312436238
 30
0.0
 11
7.0627141231
 21
7.5183414599
 31
0.0
  0
ARC
  5
1EF
330
1F
100
AcDbEntity
  8
0
  6
Continuous
 62
     7
370
     0
100
AcDbCircle
 10
7.0846882913
 20
7.2749470567
 30
0.0
 40
0.2562968420874443
100
AcDbArc
 50
89.9160656932
 51
92.9749526742
  0
LINE
  5
1F0
330
1F
100
AcDbEntity
  8
0
  6
Continuous
 62
     7
370
     0
100
AcDbLine
 10
7.0503915387
 20
7.5187782777
 30
0.0
 11
7.071386641
 21
7.5308984923
 31
0.0
  0
ARC
  5
1F1
330
1F
100
AcDbEntity
  8
0
  6
Continuous
 62
     7
370
     0
100
AcDbCircle
 10
7.0316194052
 20
7.5478935312
 30
0.0
 40
0.0346423293630112
100
AcDbArc
 50
277.8149029579
 51
302.8120018676
  0
SPLINE
  5
1F2
330
1F
100
AcDbEntity
  8
0
  6
Continuous
 62
     7
370
     0
100
AcDbSpline
210
0.0
220
0.0
230
1.0
 70
     8
 71
     3
 72
    10
 73
     6
 74
     0
 42
0.00000001
 43
0.00000001
 40
0.0
 40
0.0
 40
0.0
 40
0.0
 40
0.4988226573032843
 40
0.7491700015752202
 40
1.0
 40
1.0
 40
1.0
 40
1.0
 10
7.034854237950578
 20
7.514495411880704
 30
0.0
 10
7.034752669560556
 20
7.514200101940009
 30
0.0
 10
7.03460012638755
 20
7.513756582894718
 30
0.0
 10
7.03536845939007
 20
7.513541141641912
 30
0.0
 10
7.036009171413741
 20
7.513562335265047
 30
0.0
 10
7.036329835941439
 20
7.513572942281774
 30
0.0
  0
SPLINE
  5
1F3
330
1F
100
AcDbEntity
  8
0
  6
Continuous
 62
     7
370
     0
100
AcDbSpline
210
0.0
220
0.0
230
1.0
 70
     8
 71
     3
 72
     9
 73
     5
 74
     0
 42
0.00000001
 43
0.00000001
 40
0.0
 40
0.0
 40
0.0
 40
0.0
 40
0.5015771373280962
 40
1.0
 40
1.0
 40
1.0
 40
1.0
 10
7.037969133045708
 20
7.516770413928335
 30
0.0
 10
7.037247939153655
 20
7.516348090929189
 30
0.0
 10
7.035810086750944
 20
7.515506100799025
 30
0.0
 10
7.035172183510024
 20
7.514831598998833
 30
0.0
 10
7.034854237950578
 20
7.514495411880704
 30
0.0
  0
LINE
  5
1F4
330
1F
100
AcDbEntity
  8
0
  6
Continuous
 62
     7
370
     0
100
AcDbLine
 10
7.0611452465
 20
7.5301496995
 30
0.0
 11
7.037969133
 21
7.5167704139
 31
0.0
  0
ARC
  5
1F5
330
1F
100
AcDbEntity
  8
0
  6
Continuous
 62
     7
370
     0
100
AcDbCircle
 10
7.0831688013
 20
7.2961949729
 30
0.0
 40
0.2349890445057282
100
AcDbArc
 50
95.3777459396
 51
98.6188716154
  0
LINE
  5
1F6
330
1F
100
AcDbEntity
  8
0
  6
Continuous
 62
     7
370
     0
100
AcDbLine
 10
7.0222286543
 20
7.5136798931
 30
0.0
 11
7.0479531072
 21
7.5285303037
 31
0.0
  0
SPLINE
  5
1F7
330
1F
100
AcDbEntity
  8
0
  6
Continuous
 62
     7
370
     0
100
AcDbSpline
210
0.0
220
0.0
230
1.0
 70
     8
 71
     3
 72
    13
 73
     9
 74
     0
 42
0.00000001
 43
0.00000001
 40
0.0
 40
0.0
 40
0.0
 40
0.0
 40
0.2493551011003026
 40
0.3758643206425319
 40
0.4994912623307829
 40
0.6184449072916351
 40
0.7497843925021153
 40
1.0
 40
1.0
 40
1.0
 40
1.0
 10
7.018139662027412
 20
7.505866206479326
 30
0.0
 10
7.016523351586131
 20
7.505768120109591
 30
0.0
 10
7.014087013114296
 20
7.505620270049326
 30
0.0
 10
7.012938144240693
 20
7.506354173743929
 30
0.0
 10
7.013129426483895
 20
7.507297366506371
 30
0.0
 10
7.014410897443923
 20
7.508623521699687
 30
0.0
 10
7.017248721590368
 20
7.510723262880719
 30
0.0
 10
7.020256329708443
 20
7.512508906525608
 30
0.0
 10
7.02222865429999
 20
7.513679893148297
 30
0.0
  0
ARC
  5
1F8
330
1F
100
AcDbEntity
  8
0
  6
Continuous
 62
     7
370
     0
100
AcDbCircle
 10
7.0097942622
 20
7.5795921993
 30
0.0
 40
0.074196817384558
100
AcDbArc
 50
276.4580959042
 51
292.1087258283
  0
SPLINE
  5
1F9
330
1F
100
AcDbEntity
  8
0
  6
Continuous
 62
     7
370
     0
100
AcDbSpline
210
0.0
220
0.0
230
1.0
 70
     8
 71
     3
 72
    12
 73
     8
 74
     0
 42
0.00000001
 43
0.00000001
 40
0.0
 40
0.0
 40
0.0
 40
0.0
 40
0.250353368840782
 40
0.4999961943216285
 40
0.7494886161542195
 40
0.8747044873187655
 40
1.0
 40
1.0
 40
1.0
 40
1.0
 10
7.0418234081708
 20
7.507067594596113
 30
0.0
 10
7.040735262973846
 20
7.507087728363163
 30
0.0
 10
7.038562060912035
 20
7.507127938754374
 30
0.0
 10
7.036412759937015
 20
7.507712493641379
 30
0.0
 10
7.036279056217063
 20
7.508831031867832
 30
0.0
 10
7.036883565948016
 20
7.509927142116423
 30
0.0
 10
7.037440712512926
 20
7.510542965895404
 30
0.0
 10
7.037719374358218
 20
7.510850975674937
 30
0.0
  0
ARC
  5
1FA
330
1F
100
AcDbEntity
  8
0
  6
Continuous
 62
     7
370
     0
100
AcDbCircle
 10
7.0402773734
 20
7.5694090701
 30
0.0
 40
0.0623606429880534
100
AcDbArc
 50
271.4206131075
 51
290.1745590935
  0
LINE
  5
1FB
330
1F
100
AcDbEntity
  8
0
  6
Continuous
 62
     7
370
     0
100
AcDbLine
 10
7.0554709488
 20
7.5072298072
 30
0.0
 11
7.0617844022
 21
7.5108744863
 31
0.0
  0
ARC
  5
1FC
330
1F
100
AcDbEntity
  8
0
  6
Continuous
 62
     7
370
     0
100
AcDbCircle
 10
7.0429188264
 20
7.2242182215
 30
0.0
 40
0.2832898046318106
100
AcDbArc
 50
84.7950184713
 51
87.4604833886
  0
LINE
  5
1FD
330
1F
100
AcDbEntity
  8
0
  6
Continuous
 62
     7
370
     0
100
AcDbLine
 10
7.1097593995
 20
7.530089939
 30
0.0
 11
7.0686186413
 21
7.5063398849
 31
0.0
  0
ARC
  5
1FE
330
1F
100
AcDbEntity
  8
0
  6
Continuous
 62
     7
370
     0
100
AcDbCircle
 10
7.0841015223
 20
7.248528319
 30
0.0
 40
0.2827282662938185
100
AcDbArc
 50
84.7931860895
 51
87.6583137233
  0
ARC
  5
1FF
330
1F
100
AcDbEntity
  8
0
  6
Continuous
 62
     7
370
     0
100
AcDbCircle
 10
7.1984370915
 20
7.449200449
 30
0.0
 40
0.0567279838120129
100
AcDbArc
 50
70.6866719901
 51
126.7012320653
  0
SPLINE
  5
200
330
1F
100
AcDbEntity
  8
0
  6
Continuous
 62
     7
370
     0
100
AcDbSpline
210
0.0
220
0.0
230
1.0
 70
    24
 71
     1
 72
     4
 73
     2
 74
     0
 42
0.00000001
 43
0.00000001
 40
0.0
 40
0.0
 40
1.0
 40
1.0
 10
7.153025901521416
 20
7.48656926066077
 30
0.0
 10
7.16453404384032
 20
7.494682835729551
 30
0.0
  0
SPLINE
  5
201
330
1F
100
AcDbEntity
  8
0
  6
Continuous
 62
     7
370
     0
100
AcDbSpline
210
0.0
220
0.0
230
1.0
 70
     8
 71
     3
 72
    12
 73
     8
 74
     0
 42
0.00000001
 43
0.00000001
 40
0.0
 40
0.0
 40
0.0
 40
0.0
 40
0.2503309494299789
 40
0.4997648043321475
 40
0.6249322238031026
 40
0.7501904501281061
 40
1.0
 40
1.0
 40
1.0
 40
1.0
 10
7.158740396968634
 20
7.469407062117796
 30
0.0
 10
7.156430919434223
 20
7.470443091564404
 30
0.0
 10
7.151820240687858
 20
7.472511437707161
 30
0.0
 10
7.14854000245666
 20
7.476080528637531
 30
0.0
 10
7.148217720333377
 20
7.479272246618785
 30
0.0
 10
7.149011058821948
 20
7.482567310116769
 30
0.0
 10
7.151420872813029
 20
7.484969385897677
 30
0.0
 10
7.153025901521416
 20
7.48656926066077
 30
0.0
  0
ARC
  5
202
330
1F
100
AcDbEntity
  8
0
  6
Continuous
 62
     7
370
     0
100
AcDbCircle
 10
7.179526286
 20
7.5209232795
 30
0.0
 40
0.0555515421304957
100
AcDbArc
 50
248.0267895303
 51
304.8644507005
  0
SPLINE
  5
203
330
1F
100
AcDbEntity
  8
0
  6
Continuous
 62
     7
370
     0
100
AcDbSpline
210
0.0
220
0.0
230
1.0
 70
     8
 71
     3
 72
     9
 73
     5
 74
     0
 42
0.00000001
 43
0.00000001
 40
0.0
 40
0.0
 40
0.0
 40
0.0
 40
0.4986702672089998
 40
1.0
 40
1.0
 40
1.0
 40
1.0
 10
7.227265526853877
 20
7.489186110155217
 30
0.0
 10
7.225406558676465
 20
7.486656869342277
 30
0.0
 10
7.221678708231689
 20
7.481584898985804
 30
0.0
 10
7.214753440065491
 20
7.477427229760255
 30
0.0
 10
7.211281597226225
 20
7.475342866558377
 30
0.0
  0
SPLINE
  5
204
330
1F
100
AcDbEntity
  8
0
  6
Continuous
 62
     7
370
     0
100
AcDbSpline
210
0.0
220
0.0
230
1.0
 70
     8
 71
     3
 72
    10
 73
     6
 74
     0
 42
0.00000001
 43
0.00000001
 40
0.0
 40
0.0
 40
0.0
 40
0.0
 40
0.4992067981606261
 40
0.7495375815250989
 40
1.0
 40
1.0
 40
1.0
 40
1.0
 10
7.217198960490256
 20
7.502736011198598
 30
0.0
 10
7.220666170307037
 20
7.501035865962325
 30
0.0
 10
7.225872037034585
 20
7.498483170860147
 30
0.0
 10
7.228268443621805
 20
7.493283101218496
 30
0.0
 10
7.227599891020257
 20
7.490552013134751
 30
0.0
 10
7.227265526853877
 20
7.489186110155217
 30
0.0
  0
ARC
  5
205
330
1F
100
AcDbEntity
  8
0
  6
Continuous
 62
     7
370
     0
100
AcDbCircle
 10
7.2730803756
 20
7.3521781551
 30
0.0
 40
0.0576847921909095
100
AcDbArc
 50
62.5116563245
 51
97.6860132605
  0
LINE
  5
206
330
1F
100
AcDbEntity
  8
0
  6
Continuous
 62
     7
370
     0
100
AcDbLine
 10
7.3129296535
 20
7.4109845545
 30
0.0
 11
7.2997058384
 21
7.4033506085
 31
0.0
  0
SPLINE
  5
207
330
1F
100
AcDbEntity
  8
0
  6
Continuous
 62
     7
370
     0
100
AcDbSpline
210
0.0
220
0.0
230
1.0
 70
    24
 71
     1
 72
     4
 73
     2
 74
     0
 42
0.00000001
 43
0.00000001
 40
0.0
 40
0.0
 40
1.0
 40
1.0
 10
7.287763645740973
 20
7.418508107694226
 30
0.0
 10
7.312929653483286
 20
7.410984554468923
 30
0.0
  0
LINE
  5
208
330
1F
100
AcDbEntity
  8
0
  6
Continuous
 62
     7
370
     0
100
AcDbLine
 10
7.3255869711
 20
7.4403430487
 30
0.0
 11
7.2877636457
 21
7.4185081077
 31
0.0
  0
ARC
  5
209
330
1F
100
AcDbEntity
  8
0
  6
Continuous
 62
     7
370
     0
100
AcDbCircle
 10
6.9445822019
 20
6.9094580213
 30
0.0
 40
0.6534550837370764
100
AcDbArc
 50
54.3338094863
 51
56.0508055137
  0
LINE
  5
20A
330
1F
100
AcDbEntity
  8
0
  6
Continuous
 62
     7
370
     0
100
AcDbLine
 10
7.2522059325
 20
7.4184402074
 30
0.0
 11
7.3095091314
 21
7.45152064
 31
0.0
  0
ARC
  5
20B
330
1F
100
AcDbEntity
  8
0
  6
Continuous
 62
     7
370
     0
100
AcDbCircle
 10
6.8889810158
 20
6.8788569628
 30
0.0
 40
0.6504478595466399
100
AcDbArc
 50
54.6440621231
 51
56.0532059435
  0
LINE
  5
20C
330
1F
100
AcDbEntity
  8
0
  6
Continuous
 62
     7
370
     0
100
AcDbLine
 10
7.3090903677
 20
7.394038215
 30
0.0
 11
7.3215795264
 21
7.4012480529
 31
0.0
  0
ARC
  5
20D
330
1F
100
AcDbEntity
  8
0
  6
Continuous
 62
     7
370
     0
100
AcDbCircle
 10
6.8302058043
 20
6.7927079286
 30
0.0
 40
0.7687187642019093
100
AcDbArc
 50
47.4753155139
 51
51.4670513902
  0
LINE
  5
20E
330
1F
100
AcDbEntity
  8
0
  6
Continuous
 62
     7
370
     0
100
AcDbLine
 10
7.3622779586
 20
7.3664528926
 30
0.0
 11
7.3497887999
 21
7.3592430547
 31
0.0
  0
ARC
  5
20F
330
1F
100
AcDbEntity
  8
0
  6
Continuous
 62
     7
370
     0
100
AcDbCircle
 10
6.8426949631
 20
6.7999177664
 30
0.0
 40
0.768718764200126
100
AcDbArc
 50
47.4753155139
 51
51.4670513903
  0
SPLINE
  5
210
330
1F
100
AcDbEntity
  8
0
  6
Continuous
 62
     7
370
     0
100
AcDbSpline
210
0.0
220
0.0
230
1.0
 70
    24
 71
     1
 72
     4
 73
     2
 74
     0
 42
0.00000001
 43
0.00000001
 40
0.0
 40
0.0
 40
1.0
 40
1.0
 10
7.394649823602278
 20
7.351807251429337
 30
0.0
 10
7.412015822054801
 20
7.346765527913852
 30
0.0
  0
ARC
  5
211
330
1F
100
AcDbEntity
  8
0
  6
Continuous
 62
     7
370
     0
100
AcDbCircle
 10
7.3764981947
 20
7.3168407913
 30
0.0
 40
0.0393971441746515
100
AcDbArc
 50
62.5654775004
 51
112.6580633975
  0
SPLINE
  5
212
330
1F
100
AcDbEntity
  8
0
  6
Continuous
 62
     7
370
     0
100
AcDbSpline
210
0.0
220
0.0
230
1.0
 70
     8
 71
     3
 72
    13
 73
     9
 74
     0
 42
0.00000001
 43
0.00000001
 40
0.0
 40
0.0
 40
0.0
 40
0.0
 40
0.2505513334131603
 40
0.4997574289386813
 40
0.6245242524995239
 40
0.7498907040620204
 40
0.8749266421754157
 40
1.0
 40
1.0
 40
1.0
 40
1.0
 10
7.366519178829
 20
7.322756155996834
 30
0.0
 10
7.364110068433654
 20
7.32528147679179
 30
0.0
 10
7.359304782423773
 20
7.330318559654371
 30
0.0
 10
7.355076856855022
 20
7.337415427687423
 30
0.0
 10
7.354439004706864
 20
7.343128043256947
 30
0.0
 10
7.355365877337354
 20
7.347129971353109
 30
0.0
 10
7.357605298321751
 20
7.350669628484865
 30
0.0
 10
7.360082445945012
 20
7.352354642563191
 30
0.0
 10
7.361321205063926
 20
7.353197275652726
 30
0.0
  0
ARC
  5
213
330
1F
100
AcDbEntity
  8
0
  6
Continuous
 62
     7
370
     0
100
AcDbCircle
 10
7.3937723876
 20
7.3426028925
 30
0.0
 40
0.0337139487401155
100
AcDbArc
 50
216.0634120883
 51
290.3667044936
  0
SPLINE
  5
214
330
1F
100
AcDbEntity
  8
0
  6
Continuous
 62
     7
370
     0
100
AcDbSpline
210
0.0
220
0.0
230
1.0
 70
    24
 71
     1
 72
     4
 73
     2
 74
     0
 42
0.00000001
 43
0.00000001
 40
0.0
 40
0.0
 40
1.0
 40
1.0
 10
7.392473702557109
 20
7.326771165084326
 30
0.0
 10
7.405505762816761
 20
7.310996591753537
 30
0.0
  0
ARC
  5
215
330
1F
100
AcDbEntity
  8
0
  6
Continuous
 62
     7
370
     0
100
AcDbCircle
 10
7.3866868476
 20
7.3386260398
 30
0.0
 40
0.0131918817800827
100
AcDbArc
 50
223.7839585422
 51
296.0189183226
  0
SPLINE
  5
216
330
1F
100
AcDbEntity
  8
0
  6
Continuous
 62
     7
370
     0
100
AcDbSpline
210
0.0
220
0.0
230
1.0
 70
     8
 71
     3
 72
    14
 73
    10
 74
     0
 42
0.00000001
 43
0.00000001
 40
0.0
 40
0.0
 40
0.0
 40
0.0
 40
0.1251988702829361
 40
0.2501891755468096
 40
0.3728829743965836
 40
0.5004529894615078
 40
0.7495671084739932
 40
0.8747153475524693
 40
1.0
 40
1.0
 40
1.0
 40
1.0
 10
7.376724653957154
 20
7.339530087252434
 30
0.0
 10
7.376319261894976
 20
7.339258532122632
 30
0.0
 10
7.375509153101018
 20
7.338715874238526
 30
0.0
 10
7.374715933410555
 20
7.337598640409086
 30
0.0
 10
7.374295479060157
 20
7.336316408219377
 30
0.0
 10
7.374213453306552
 20
7.334481474763394
 30
0.0
 10
7.374815387057938
 20
7.332540480252508
 30
0.0
 10
7.376014196799097
 20
7.330745678991097
 30
0.0
 10
7.376779870557093
 20
7.329914067314145
 30
0.0
 10
7.377162915971273
 20
7.329498034981956
 30
0.0
  0
ARC
  5
217
330
1F
100
AcDbEntity
  8
0
  6
Continuous
 62
     7
370
     0
100
AcDbCircle
 10
7.3845936594
 20
7.3126799095
 30
0.0
 40
0.027979515539078
100
AcDbArc
 50
57.3585362832
 51
106.3343248853
  0
ARC
  5
218
330
1F
100
AcDbEntity
  8
0
  6
Continuous
 62
     7
370
     0
100
AcDbCircle
 10
7.4278273215
 20
7.3914444541
 30
0.0
 40
0.0619633988796951
100
AcDbArc
 50
242.9883056695
 51
287.3038638837
  0
ARC
  5
219
330
1F
100
AcDbEntity
  8
0
  6
Continuous
 62
     7
370
     0
100
AcDbCircle
 10
6.8072300313
 20
6.7459921109
 30
0.0
 40
0.8672348168992251
100
AcDbArc
 50
42.5356758846
 51
46.7358498668
  0
LINE
  5
21A
330
1F
100
AcDbEntity
  8
0
  6
Continuous
 62
     7
370
     0
100
AcDbLine
 10
7.3883767442
 20
7.3698800594
 30
0.0
 11
7.4016005593
 21
7.3775140053
 31
0.0
  0
ARC
  5
21B
330
1F
100
AcDbEntity
  8
0
  6
Continuous
 62
     7
370
     0
100
AcDbCircle
 10
6.8077646431
 20
6.7524468877
 30
0.0
 40
0.8475459476041748
100
AcDbArc
 50
44.5252011893
 51
46.7603909428
  0
LINE
  5
21C
330
1F
100
AcDbEntity
  8
0
  6
Continuous
 62
     7
370
     0
100
AcDbLine
 10
7.1263016798
 20
7.5812760277
 30
0.0
 11
7.1468720589
 21
7.5931510548
 31
0.0
  0
ARC
  5
21D
330
1F
100
AcDbEntity
  8
0
  6
Continuous
 62
     7
370
     0
100
AcDbCircle
 10
7.1775425613
 20
7.3730380879
 30
0.0
 40
0.2144496852524165
100
AcDbArc
 50
103.8240620591
 51
105.9386364743
  0
ARC
  5
21E
330
1F
100
AcDbEntity
  8
0
  6
Continuous
 62
     7
370
     0
100
AcDbCircle
 10
7.1706865114
 20
7.4209718674
 30
0.0
 40
0.1666055437432504
100
AcDbArc
 50
108.1988249478
 51
121.3552820483
  0
SPLINE
  5
21F
330
1F
100
AcDbEntity
  8
0
  6
Continuous
 62
     7
370
     0
100
AcDbSpline
210
0.0
220
0.0
230
1.0
 70
     8
 71
     3
 72
    13
 73
     9
 74
     0
 42
0.00000001
 43
0.00000001
 40
0.0
 40
0.0
 40
0.0
 40
0.0
 40
0.2500373757116303
 40
0.3803456645254551
 40
0.5001717612000199
 40
0.6231396697126689
 40
0.7503495306896837
 40
1.0
 40
1.0
 40
1.0
 40
1.0
 10
7.081213519030222
 20
7.558045007946797
 30
0.0
 10
7.079375487829971
 20
7.55752303732479
 30
0.0
 10
7.076579557036471
 20
7.556729038977443
 30
0.0
 10
7.074691608828065
 20
7.556520692467335
 30
0.0
 10
7.074361563226153
 20
7.556878463965469
 30
0.0
 10
7.075304897665391
 20
7.557822800442309
 30
0.0
 10
7.078111240151735
 20
7.559788242393322
 30
0.0
 10
7.081650113116415
 20
7.561868081002268
 30
0.0
 10
7.083994433347171
 20
7.563245866465699
 30
0.0
  0
ARC
  5
220
330
1F
100
AcDbEntity
  8
0
  6
Continuous
 62
     7
370
     0
100
AcDbCircle
 10
7.1425207154
 20
7.3485761146
 30
0.0
 40
0.2182562475491647
100
AcDbArc
 50
99.9341698889
 51
106.3136578169
  0
LINE
  5
221
330
1F
100
AcDbEntity
  8
0
  6
Continuous
 62
     7
370
     0
100
AcDbLine
 10
7.1614364395
 20
7.596216287
 30
0.0
 11
7.104867897
 21
7.5635599625
 31
0.0
  0
ARC
  5
222
330
1F
100
AcDbEntity
  8
0
  6
Continuous
 62
     7
370
     0
100
AcDbCircle
 10
7.1996592234
 20
7.3784678274
 30
0.0
 40
0.2210777529530992
100
AcDbArc
 50
99.9560638217
 51
103.814070753
  0
LINE
  5
223
330
1F
100
AcDbEntity
  8
0
  6
Continuous
 62
     7
370
     0
100
AcDbLine
 10
7.3000288757
 20
7.5657712019
 30
0.0
 11
7.3195661442
 21
7.5770498269
 31
0.0
  0
ARC
  5
224
330
1F
100
AcDbEntity
  8
0
  6
Continuous
 62
     7
370
     0
100
AcDbCircle
 10
7.288277648
 20
7.582075962
 30
0.0
 40
0.0200981728866482
100
AcDbArc
 50
255.2121177186
 51
305.7811876478
  0
SPLINE
  5
225
330
1F
100
AcDbEntity
  8
0
  6
Continuous
 62
     7
370
     0
100
AcDbSpline
210
0.0
220
0.0
230
1.0
 70
     8
 71
     3
 72
    13
 73
     9
 74
     0
 42
0.00000001
 43
0.00000001
 40
0.0
 40
0.0
 40
0.0
 40
0.0
 40
0.2859863846252093
 40
0.4003931588137595
 40
0.500267107771719
 40
0.6204346281861989
 40
0.7504392972666327
 40
1.0
 40
1.0
 40
1.0
 40
1.0
 10
7.284208252546379
 20
7.568746790315835
 30
0.0
 10
7.283234755124298
 20
7.568142195217044
 30
0.0
 10
7.28187181713536
 20
7.567295736244092
 30
0.0
 10
7.280729448392634
 20
7.566130614836248
 30
0.0
 10
7.280289317659532
 20
7.565332758831242
 30
0.0
 10
7.280352576591826
 20
7.564531748589224
 30
0.0
 10
7.281100918922224
 20
7.563517230216585
 30
0.0
 10
7.2823358252995
 20
7.562990085647443
 30
0.0
 10
7.283147764760283
 20
7.562643492994671
 30
0.0
  0
LINE
  5
226
330
1F
100
AcDbEntity
  8
0
  6
Continuous
 62
     7
370
     0
100
AcDbLine
 10
7.3065808356
 20
7.5816622076
 30
0.0
 11
7.2842082525
 21
7.5687467903
 31
0.0
  0
ARC
  5
227
330
1F
100
AcDbEntity
  8
0
  6
Continuous
 62
     7
370
     0
100
AcDbCircle
 10
7.1813751541
 20
7.2098149823
 30
0.0
 40
0.3923605760562616
100
AcDbArc
 50
71.3909673394
 51
73.6937891668
  0
LINE
  5
228
330
1F
100
AcDbEntity
  8
0
  6
Continuous
 62
     7
370
     0
100
AcDbLine
 10
7.2655156202
 20
7.5713700957
 30
0.0
 11
7.2915385272
 21
7.5863928001
 31
0.0
  0
SPLINE
  5
229
330
1F
100
AcDbEntity
  8
0
  6
Continuous
 62
     7
370
     0
100
AcDbSpline
210
0.0
220
0.0
230
1.0
 70
     8
 71
     3
 72
    13
 73
     9
 74
     0
 42
0.00000001
 43
0.00000001
 40
0.0
 40
0.0
 40
0.0
 40
0.0
 40
0.2494533077504676
 40
0.3744959777606875
 40
0.4995513164959071
 40
0.6197807958336521
 40
0.7498057006248967
 40
0.9999999999999999
 40
0.9999999999999999
 40
0.9999999999999999
 40
0.9999999999999999
 10
7.263593243153498
 20
7.557860475980268
 30
0.0
 10
7.261748875027011
 20
7.558603788395557
 30
0.0
 10
7.258979986327527
 20
7.559719698672539
 30
0.0
 10
7.257350280925892
 20
7.561922304173659
 30
0.0
 10
7.25712808224525
 20
7.563750054822325
 30
0.0
 10
7.258096733476719
 20
7.565723236885958
 30
0.0
 10
7.260616822512071
 20
7.568339946487668
 30
0.0
 10
7.263571418090453
 20
7.570167510300539
 30
0.0
 10
7.265515620178538
 20
7.571370095658445
 30
0.0
  0
ARC
  5
22A
330
1F
100
AcDbEntity
  8
0
  6
Continuous
 62
     7
370
     0
100
AcDbCircle
 10
7.2765080254
 20
7.5983121944
 30
0.0
 40
0.0424633150281184
100
AcDbArc
 50
252.2935829678
 51
280.1521205042
  0
LINE
  5
22B
330
1F
100
AcDbEntity
  8
0
  6
Continuous
 62
     7
370
     0
100
AcDbLine
 10
7.2629976017
 20
7.5443935025
 30
0.0
 11
7.283992704
 21
7.556513717
 31
0.0
  0
ARC
  5
22C
330
1F
100
AcDbEntity
  8
0
  6
Continuous
 62
     7
370
     0
100
AcDbCircle
 10
7.1087344217
 20
7.1319538752
 30
0.0
 40
0.4403448363176169
100
AcDbArc
 50
67.3605668243
 51
69.4928919458
  0
LINE
  5
22D
330
1F
100
AcDbEntity
  8
0
  6
Continuous
 62
     7
370
     0
100
AcDbLine
 10
7.3348051754
 20
7.5710244898
 30
0.0
 11
7.2782366329
 21
7.5383681654
 31
0.0
  0
ARC
  5
22E
330
1F
100
AcDbEntity
  8
0
  6
Continuous
 62
     7
370
     0
100
AcDbCircle
 10
7.1653029642
 20
7.1646101996
 30
0.0
 40
0.440344836316432
100
AcDbArc
 50
67.3605668243
 51
69.4928919458
  0
ARC
  5
22F
330
1F
100
AcDbEntity
  8
0
  6
Continuous
 62
     7
370
     0
100
AcDbCircle
 10
7.0385885174
 20
6.9786094948
 30
0.0
 40
0.6240882218139912
100
AcDbArc
 50
56.4156647685
 51
57.0594656833
  0
LINE
  5
230
330
1F
100
AcDbEntity
  8
0
  6
Continuous
 62
     7
370
     0
100
AcDbLine
 10
7.3955660361
 20
7.5053059646
 30
0.0
 11
7.3838115338
 21
7.4985202349
 31
0.0
  0
ARC
  5
231
330
1F
100
AcDbEntity
  8
0
  6
Continuous
 62
     7
370
     0
100
AcDbCircle
 10
7.0503430198
 20
6.9853952246
 30
0.0
 40
0.6240882217612899
100
AcDbArc
 50
56.4156647684
 51
57.0594656833
  0
LINE
  5
232
330
1F
100
AcDbEntity
  8
0
  6
Continuous
 62
     7
370
     0
100
AcDbLine
 10
7.4039823006
 20
7.517395743
 30
0.0
 11
7.3897024169
 21
7.5091521417
 31
0.0
  0
SPLINE
  5
233
330
1F
100
AcDbEntity
  8
0
  6
Continuous
 62
     7
370
     0
100
AcDbSpline
210
0.0
220
0.0
230
1.0
 70
     8
 71
     3
 72
    13
 73
     9
 74
     0
 42
0.00000001
 43
0.00000001
 40
0.0
 40
0.0
 40
0.0
 40
0.0
 40
0.2500945475838802
 40
0.3790132877184047
 40
0.4995783988416517
 40
0.6244157670478321
 40
0.7495373859022237
 40
0.9999999999999999
 40
0.9999999999999999
 40
0.9999999999999999
 40
0.9999999999999999
 10
7.405741690945181
 20
7.535393274171527
 30
0.0
 10
7.407790971101904
 20
7.53407670010247
 30
0.0
 10
7.410896614216315
 20
7.532081458417839
 30
0.0
 10
7.413375311909679
 20
7.528715891432285
 30
0.0
 10
7.413618891689794
 20
7.525973013749963
 30
0.0
 10
7.412344163564646
 20
7.523415662967333
 30
0.0
 10
7.409103402162263
 20
7.5204809485143
 30
0.0
 10
7.406031100139945
 20
7.518630041453283
 30
0.0
 10
7.403982300620967
 20
7.51739574304488
 30
0.0
  0
SPLINE
  5
234
330
1F
100
AcDbEntity
  8
0
  6
Continuous
 62
     7
370
     0
100
AcDbSpline
210
0.0
220
0.0
230
1.0
 70
    24
 71
     1
 72
     4
 73
     2
 74
     0
 42
0.00000001
 43
0.00000001
 40
0.0
 40
0.0
 40
1.0
 40
1.0
 10
7.393598429643498
 20
7.541134406167592
 30
0.0
 10
7.405741690945181
 20
7.535393274171527
 30
0.0
  0
SPLINE
  5
235
330
1F
100
AcDbEntity
  8
0
  6
Continuous
 62
     7
370
     0
100
AcDbSpline
210
0.0
220
0.0
230
1.0
 70
    24
 71
     1
 72
     4
 73
     2
 74
     0
 42
0.00000001
 43
0.00000001
 40
0.0
 40
0.0
 40
1.0
 40
1.0
 10
7.384047888316022
 20
7.534237675481411
 30
0.0
 10
7.393598429643498
 20
7.541134406167592
 30
0.0
  0
SPLINE
  5
236
330
1F
100
AcDbEntity
  8
0
  6
Continuous
 62
     7
370
     0
100
AcDbSpline
210
0.0
220
0.0
230
1.0
 70
    24
 71
     1
 72
     4
 73
     2
 74
     0
 42
0.00000001
 43
0.00000001
 40
0.0
 40
0.0
 40
1.0
 40
1.0
 10
7.390074034437623
 20
7.531834885595314
 30
0.0
 10
7.384047888316022
 20
7.534237675481411
 30
0.0
  0
SPLINE
  5
237
330
1F
100
AcDbEntity
  8
0
  6
Continuous
 62
     7
370
     0
100
AcDbSpline
210
0.0
220
0.0
230
1.0
 70
     8
 71
     3
 72
    10
 73
     6
 74
     0
 42
0.00000001
 43
0.00000001
 40
0.0
 40
0.0
 40
0.0
 40
0.0
 40
0.2505976234532387
 40
0.5007350246834453
 40
1.0
 40
1.0
 40
1.0
 40
1.0
 10
7.391577207921086
 20
7.529404170868849
 30
0.0
 10
7.391631997016903
 20
7.529627508950127
 30
0.0
 10
7.391741474588429
 20
7.530073774952575
 30
0.0
 10
7.391336545311521
 20
7.530969682518886
 30
0.0
 10
7.390578834582636
 20
7.531488944306826
 30
0.0
 10
7.390074034437623
 20
7.531834885595314
 30
0.0
  0
SPLINE
  5
238
330
1F
100
AcDbEntity
  8
0
  6
Continuous
 62
     7
370
     0
100
AcDbSpline
210
0.0
220
0.0
230
1.0
 70
     8
 71
     3
 72
     9
 73
     5
 74
     0
 42
0.00000001
 43
0.00000001
 40
0.0
 40
0.0
 40
0.0
 40
0.0
 40
0.5017738075813045
 40
1.0
 40
1.0
 40
1.0
 40
1.0
 10
7.388661390232739
 20
7.527110298291728
 30
0.0
 10
7.389253490789414
 20
7.527446999282905
 30
0.0
 10
7.3904335056641
 20
7.528118020739366
 30
0.0
 10
7.391196876550802
 20
7.528976469307407
 30
0.0
 10
7.391577207921086
 20
7.529404170868849
 30
0.0
  0
LINE
  5
239
330
1F
100
AcDbEntity
  8
0
  6
Continuous
 62
     7
370
     0
100
AcDbLine
 10
7.3742896745
 20
7.5188136834
 30
0.0
 11
7.3886613902
 21
7.5271102983
 31
0.0
  0
ARC
  5
23A
330
1F
100
AcDbEntity
  8
0
  6
Continuous
 62
     7
370
     0
100
AcDbCircle
 10
7.0748763063
 20
7.0246471151
 30
0.0
 40
0.5777966443829603
100
AcDbArc
 50
58.7885105713
 51
59.8051265264
  0
LINE
  5
23B
330
1F
100
AcDbEntity
  8
0
  6
Continuous
 62
     7
370
     0
100
AcDbLine
 10
7.3537203586
 20
7.5172624689
 30
0.0
 11
7.3654748609
 21
7.5240481987
 31
0.0
  0
ARC
  5
23C
330
1F
100
AcDbEntity
  8
0
  6
Continuous
 62
     7
370
     0
100
AcDbCircle
 10
7.063121804
 20
7.0178613853
 30
0.0
 40
0.5777966443793917
100
AcDbArc
 50
58.7885105713
 51
59.8051265264
  0
LINE
  5
23D
330
1F
100
AcDbEntity
  8
0
  6
Continuous
 62
     7
370
     0
100
AcDbLine
 10
7.3471073878
 20
7.5031216833
 30
0.0
 11
7.3625351721
 21
7.5120279536
 31
0.0
  0
SPLINE
  5
23E
330
1F
100
AcDbEntity
  8
0
  6
Continuous
 62
     7
370
     0
100
AcDbSpline
210
0.0
220
0.0
230
1.0
 70
    24
 71
     1
 72
     4
 73
     2
 74
     0
 42
0.00000001
 43
0.00000001
 40
0.0
 40
0.0
 40
1.0
 40
1.0
 10
7.370498039570299
 20
7.498065690592065
 30
0.0
 10
7.347107387831841
 20
7.503121683317717
 30
0.0
  0
LINE
  5
23F
330
1F
100
AcDbEntity
  8
0
  6
Continuous
 62
     7
370
     0
100
AcDbLine
 10
7.3779479146
 20
7.5023664119
 30
0.0
 11
7.3704980396
 21
7.4980656906
 31
0.0
  0
LINE
  5
240
330
1F
100
AcDbEntity
  8
0
  6
Continuous
 62
     7
370
     0
100
AcDbLine
 10
7.4885403076
 20
7.4100274817
 30
0.0
 11
7.5318505979
 21
7.4350299801
 31
0.0
  0
SPLINE
  5
241
330
1F
100
AcDbEntity
  8
0
  6
Continuous
 62
     7
370
     0
100
AcDbSpline
210
0.0
220
0.0
230
1.0
 70
    24
 71
     1
 72
     4
 73
     2
 74
     0
 42
0.00000001
 43
0.00000001
 40
0.0
 40
0.0
 40
1.0
 40
1.0
 10
7.521696653286992
 20
7.444781724656271
 30
0.0
 10
7.488540307584019
 20
7.410027481689576
 30
0.0
  0
ARC
  5
242
330
1F
100
AcDbEntity
  8
0
  6
Continuous
 62
     7
370
     0
100
AcDbCircle
 10
6.9620214521
 20
6.8521526026
 30
0.0
 40
0.8151353305372859
100
AcDbArc
 50
46.638114216
 51
47.8409391925
  0
SPLINE
  5
243
330
1F
100
AcDbEntity
  8
0
  6
Continuous
 62
     7
370
     0
100
AcDbSpline
210
0.0
220
0.0
230
1.0
 70
    24
 71
     1
 72
     4
 73
     2
 74
     0
 42
0.00000001
 43
0.00000001
 40
0.0
 40
0.0
 40
1.0
 40
1.0
 10
7.455484649892403
 20
7.440594461657213
 30
0.0
 10
7.50913302753685
 20
7.456399680505394
 30
0.0
  0
LINE
  5
244
330
1F
100
AcDbEntity
  8
0
  6
Continuous
 62
     7
370
     0
100
AcDbLine
 10
7.4987949402
 20
7.4655969601
 30
0.0
 11
7.4554846499
 21
7.4405944617
 31
0.0
  0
ARC
  5
245
330
1F
100
AcDbEntity
  8
0
  6
Continuous
 62
     7
370
     0
100
AcDbCircle
 10
6.9936206289
 20
6.8877235921
 30
0.0
 40
0.7675537207687392
100
AcDbArc
 50
48.8401910795
 51
50.2422940904
  0
LINE
  5
246
330
1F
100
AcDbEntity
  8
0
  6
Continuous
 62
     7
370
     0
100
AcDbLine
 10
7.4279352354
 20
7.4451286613
 30
0.0
 11
7.4845037779
 21
7.4777849858
 31
0.0
  0
ARC
  5
247
330
1F
100
AcDbEntity
  8
0
  6
Continuous
 62
     7
370
     0
100
AcDbCircle
 10
6.9315163209
 20
6.8485544567
 30
0.0
 40
0.7761008441801254
100
AcDbArc
 50
48.0153057782
 51
50.2356178419
  0
SPLINE
  5
248
330
1F
100
AcDbEntity
  8
0
  6
Continuous
 62
     7
370
     0
100
AcDbSpline
210
0.0
220
0.0
230
1.0
 70
    24
 71
     1
 72
     4
 73
     2
 74
     0
 42
0.00000001
 43
0.00000001
 40
0.0
 40
0.0
 40
1.0
 40
1.0
 10
7.493156144973705
 20
7.437838029112162
 30
0.0
 10
7.450675058556967
 20
7.425448489753323
 30
0.0
  0
SPLINE
  5
249
330
1F
100
AcDbEntity
  8
0
  6
Continuous
 62
     7
370
     0
100
AcDbSpline
210
0.0
220
0.0
230
1.0
 70
    24
 71
     1
 72
     4
 73
     2
 74
     0
 42
0.00000001
 43
0.00000001
 40
0.0
 40
0.0
 40
1.0
 40
1.0
 10
7.466910040227167
 20
7.410437735196313
 30
0.0
 10
7.493156144973705
 20
7.437838029112162
 30
0.0
  0
ARC
  5
24A
330
1F
100
AcDbEntity
  8
0
  6
Continuous
 62
     7
370
     0
100
AcDbCircle
 10
6.8799531328
 20
6.7927180348
 30
0.0
 40
0.8521126917484062
100
AcDbArc
 50
44.3694284857
 51
46.4627952596
  0
LINE
  5
24B
330
1F
100
AcDbEntity
  8
0
  6
Continuous
 62
     7
370
     0
100
AcDbLine
 10
7.5456509392
 20
7.4212414412
 30
0.0
 11
7.4890823967
 21
7.3885851167
 31
0.0
  0
ARC
  5
24C
330
1F
100
AcDbEntity
  8
0
  6
Continuous
 62
     7
370
     0
100
AcDbCircle
 10
6.9309373593
 20
6.8198020424
 30
0.0
 40
0.8600012417337006
100
AcDbArc
 50
44.3746474648
 51
45.6743739827
  0
LINE
  5
24D
330
1F
100
AcDbEntity
  8
0
  6
Continuous
 62
     7
370
     0
100
AcDbLine
 10
7.6103480485
 20
7.3172204417
 30
0.0
 11
7.6265104893
 21
7.3265508201
 31
0.0
  0
ARC
  5
24E
330
1F
100
AcDbEntity
  8
0
  6
Continuous
 62
     7
370
     0
100
AcDbCircle
 10
6.8060848374
 20
6.7159955113
 30
0.0
 40
1.004146767008917
100
AcDbArc
 50
35.5490976524
 51
36.7798592479
  0
LINE
  5
24F
330
1F
100
AcDbEntity
  8
0
  6
Continuous
 62
     7
370
     0
100
AcDbLine
 10
7.6392387668
 20
7.3091371924
 30
0.0
 11
7.6230763261
 21
7.299806814
 31
0.0
  0
ARC
  5
250
330
1F
100
AcDbEntity
  8
0
  6
Continuous
 62
     7
370
     0
100
AcDbCircle
 10
6.8222472781
 20
6.7253258897
 30
0.0
 40
1.004146767016721
100
AcDbArc
 50
35.5490976524
 51
36.7798592478
  0
LINE
  5
251
330
1F
100
AcDbEntity
  8
0
  6
Continuous
 62
     7
370
     0
100
AcDbLine
 10
7.6721618605
 20
7.2243080422
 30
0.0
 11
7.6883243012
 21
7.2336384206
 31
0.0
  0
ARC
  5
252
330
1F
100
AcDbEntity
  8
0
  6
Continuous
 62
     7
370
     0
100
AcDbCircle
 10
6.7771389256
 20
6.6964165381
 30
0.0
 40
1.039103216270417
100
AcDbArc
 50
29.3294343134
 51
30.532435252
  0
LINE
  5
253
330
1F
100
AcDbEntity
  8
0
  6
Continuous
 62
     7
370
     0
100
AcDbLine
 10
7.6992099933
 20
7.2147312518
 30
0.0
 11
7.6830475526
 21
7.2054008734
 31
0.0
  0
ARC
  5
254
330
1F
100
AcDbEntity
  8
0
  6
Continuous
 62
     7
370
     0
100
AcDbCircle
 10
6.7933013663
 20
6.7057469165
 30
0.0
 40
1.039103216262691
100
AcDbArc
 50
29.3294343134
 51
30.532435252
  0
LINE
  5
255
330
1F
100
AcDbEntity
  8
0
  6
Continuous
 62
     7
370
     0
100
AcDbLine
 10
7.2419047095
 20
7.6493485905
 30
0.0
 11
7.2614419781
 21
7.6606272156
 31
0.0
  0
ARC
  5
256
330
1F
100
AcDbEntity
  8
0
  6
Continuous
 62
     7
370
     0
100
AcDbCircle
 10
7.2021873949
 20
7.7137976846
 30
0.0
 40
0.0757043645193568
100
AcDbArc
 50
288.5885135848
 51
301.6438129903
  0
SPLINE
  5
257
330
1F
100
AcDbEntity
  8
0
  6
Continuous
 62
     7
370
     0
100
AcDbSpline
210
0.0
220
0.0
230
1.0
 70
     8
 71
     3
 72
    13
 73
     9
 74
     0
 42
0.00000001
 43
0.00000001
 40
0.0
 40
0.0
 40
0.0
 40
0.0
 40
0.2859863846192522
 40
0.4003931588091671
 40
0.5002671077709837
 40
0.6204346281900468
 40
0.7504392972667322
 40
1.0
 40
1.0
 40
1.0
 40
1.0
 10
7.228519760932212
 20
7.644595653053805
 30
0.0
 10
7.227537155736786
 20
7.64401894903079
 30
0.0
 10
7.226161466475976
 20
7.643211538755717
 30
0.0
 10
7.224911733876193
 20
7.642376480721743
 30
0.0
 10
7.224356613136964
 20
7.641932967647378
 30
0.0
 10
7.22424394826293
 20
7.641676184927943
 30
0.0
 10
7.224691011810605
 20
7.641598296138539
 30
0.0
 10
7.225673587614071
 20
7.641866378428004
 30
0.0
 10
7.226319622068774
 20
7.642042640040675
 30
0.0
  0
LINE
  5
258
330
1F
100
AcDbEntity
  8
0
  6
Continuous
 62
     7
370
     0
100
AcDbLine
 10
7.250892344
 20
7.6575110703
 30
0.0
 11
7.2285197609
 21
7.6445956531
 31
0.0
  0
ARC
  5
259
330
1F
100
AcDbEntity
  8
0
  6
Continuous
 62
     7
370
     0
100
AcDbCircle
 10
7.3145504072
 20
7.4609525818
 30
0.0
 40
0.206609749087537
100
AcDbArc
 50
107.9452311658
 51
111.4767669954
  0
LINE
  5
25A
330
1F
100
AcDbEntity
  8
0
  6
Continuous
 62
     7
370
     0
100
AcDbLine
 10
7.2128827291
 20
7.6381939068
 30
0.0
 11
7.2389056361
 21
7.6532166113
 31
0.0
  0
SPLINE
  5
25B
330
1F
100
AcDbEntity
  8
0
  6
Continuous
 62
     7
370
     0
100
AcDbSpline
210
0.0
220
0.0
230
1.0
 70
     8
 71
     3
 72
    13
 73
     9
 74
     0
 42
0.00000001
 43
0.00000001
 40
0.0
 40
0.0
 40
0.0
 40
0.0
 40
0.2494610831737724
 40
0.376604957511215
 40
0.4996281366120132
 40
0.6186892926585024
 40
0.7498727238261944
 40
0.9999999999999999
 40
0.9999999999999999
 40
0.9999999999999999
 40
0.9999999999999999
 10
7.208185224134397
 20
7.633065516232911
 30
0.0
 10
7.206721286861733
 20
7.632607681648909
 30
0.0
 10
7.204511218552255
 20
7.631916500596293
 30
0.0
 10
7.203555055989876
 20
7.631971842497967
 30
0.0
 10
7.203788197622464
 20
7.632465145998437
 30
0.0
 10
7.205076040737226
 20
7.633457798792461
 30
0.0
 10
7.207911293921523
 20
7.635290009453257
 30
0.0
 10
7.210913427944864
 20
7.637043605515101
 30
0.0
 10
7.212882729072551
 20
7.638193906825852
 30
0.0
  0
ARC
  5
25C
330
1F
100
AcDbEntity
  8
0
  6
Continuous
 62
     7
370
     0
100
AcDbCircle
 10
7.1512694093
 20
7.8026718424
 30
0.0
 40
0.1789014138053328
100
AcDbArc
 50
288.5505174103
 51
295.416567302
  0
LINE
  5
25D
330
1F
100
AcDbEntity
  8
0
  6
Continuous
 62
     7
370
     0
100
AcDbLine
 10
7.2211543548
 20
7.6371034368
 30
0.0
 11
7.2280532375
 21
7.641086077
 31
0.0
  0
ARC
  5
25E
330
1F
100
AcDbEntity
  8
0
  6
Continuous
 62
     7
370
     0
100
AcDbCircle
 10
7.2766095027
 20
7.4261427186
 30
0.0
 40
0.2181277104143182
100
AcDbArc
 50
101.5551968008
 51
104.7281105277
  0
LINE
  5
25F
330
1F
100
AcDbEntity
  8
0
  6
Continuous
 62
     7
370
     0
100
AcDbLine
 10
7.2740566918
 20
7.6635995112
 30
0.0
 11
7.2329159336
 21
7.6398494571
 31
0.0
  0
ARC
  5
260
330
1F
100
AcDbEntity
  8
0
  6
Continuous
 62
     7
370
     0
100
AcDbCircle
 10
7.3176942957
 20
7.4501420592
 30
0.0
 40
0.2178722660537517
100
AcDbArc
 50
101.5539092974
 51
104.9626568045
  0
ARC
  5
261
330
1F
100
AcDbEntity
  8
0
  6
Continuous
 62
     7
370
     0
100
AcDbCircle
 10
7.3476837103
 20
7.580030507
 30
0.0
 40
0.0875450669071813
100
AcDbArc
 50
89.5691187016
 51
125.0106010092
  0
SPLINE
  5
262
330
1F
100
AcDbEntity
  8
0
  6
Continuous
 62
     7
370
     0
100
AcDbSpline
210
0.0
220
0.0
230
1.0
 70
    24
 71
     1
 72
     4
 73
     2
 74
     0
 42
0.00000001
 43
0.00000001
 40
0.0
 40
0.0
 40
1.0
 40
1.0
 10
7.285816741683637
 20
7.644154053826237
 30
0.0
 10
7.297456655224132
 20
7.651733935651253
 30
0.0
  0
SPLINE
  5
263
330
1F
100
AcDbEntity
  8
0
  6
Continuous
 62
     7
370
     0
100
AcDbSpline
210
0.0
220
0.0
230
1.0
 70
     8
 71
     3
 72
    12
 73
     8
 74
     0
 42
0.00000001
 43
0.00000001
 40
0.0
 40
0.0
 40
0.0
 40
0.0
 40
0.2503309494299774
 40
0.4997648043321494
 40
0.6249322238031068
 40
0.7501904501281074
 40
1.0
 40
1.0
 40
1.0
 40
1.0
 10
7.289912723158591
 20
7.634104375097291
 30
0.0
 10
7.287773154751542
 20
7.634342458123434
 30
0.0
 10
7.283501685367757
 20
7.634817770973272
 30
0.0
 10
7.28065738406606
 20
7.636482351643814
 30
0.0
 10
7.280616107403525
 20
7.638479681052893
 30
0.0
 10
7.281652371946398
 20
7.640761436419408
 30
0.0
 10
7.284151935991127
 20
7.642797774454381
 30
0.0
 10
7.285816741683637
 20
7.644154053826237
 30
0.0
  0
ARC
  5
264
330
1F
100
AcDbEntity
  8
0
  6
Continuous
 62
     7
370
     0
100
AcDbCircle
 10
7.2947988223
 20
7.717632539
 30
0.0
 40
0.0836709515611322
100
AcDbArc
 50
266.6522166426
 51
303.4970582292
  0
SPLINE
  5
265
330
1F
100
AcDbEntity
  8
0
  6
Continuous
 62
     7
370
     0
100
AcDbSpline
210
0.0
220
0.0
230
1.0
 70
     8
 71
     3
 72
     9
 73
     5
 74
     0
 42
0.00000001
 43
0.00000001
 40
0.0
 40
0.0
 40
0.0
 40
0.0
 40
0.4986702672090049
 40
1.0
 40
1.0
 40
1.0
 40
1.0
 10
7.357206536353105
 20
7.660270919863234
 30
0.0
 10
7.355269295580741
 20
7.658193776469055
 30
0.0
 10
7.35138448250936
 20
7.654028412037357
 30
0.0
 10
7.344451861643888
 20
7.649918545891143
 30
0.0
 10
7.340976332677861
 20
7.647858147794255
 30
0.0
  0
SPLINE
  5
266
330
1F
100
AcDbEntity
  8
0
  6
Continuous
 62
     7
370
     0
100
AcDbSpline
210
0.0
220
0.0
230
1.0
 70
     8
 71
     3
 72
    10
 73
     6
 74
     0
 42
0.00000001
 43
0.00000001
 40
0.0
 40
0.0
 40
0.0
 40
0.0
 40
0.499206798160623
 40
0.7495375815250979
 40
1.0
 40
1.0
 40
1.0
 40
1.0
 10
7.348342069057469
 20
7.667573098404269
 30
0.0
 10
7.351561245498814
 20
7.667094129611836
 30
0.0
 10
7.356394700758718
 20
7.666374978527297
 30
0.0
 10
7.358405067528901
 20
7.66326608268205
 30
0.0
 10
7.357606116747301
 20
7.661269482407117
 30
0.0
 10
7.357206536353105
 20
7.660270919863234
 30
0.0
  0
LINE
  5
267
330
1F
100
AcDbEntity
  8
0
  6
Continuous
 62
     7
370
     0
100
AcDbLine
 10
7.3974183338
 20
7.6347578785
 30
0.0
 11
7.4099074925
 21
7.6419677163
 31
0.0
  0
ARC
  5
268
330
1F
100
AcDbEntity
  8
0
  6
Continuous
 62
     7
370
     0
100
AcDbCircle
 10
7.2630126301
 20
7.2334367871
 30
0.0
 40
0.4232298566042482
100
AcDbArc
 50
68.1475592232
 51
71.4838823372
  0
LINE
  5
269
330
1F
100
AcDbEntity
  8
0
  6
Continuous
 62
     7
370
     0
100
AcDbLine
 10
7.4330353436
 20
7.6334655281
 30
0.0
 11
7.4205461849
 21
7.6262556902
 31
0.0
  0
ARC
  5
26A
330
1F
100
AcDbEntity
  8
0
  6
Continuous
 62
     7
370
     0
100
AcDbCircle
 10
7.2755017888
 20
7.240646625
 30
0.0
 40
0.4232298566038544
100
AcDbArc
 50
68.1475592232
 51
71.4838823372
  0
ARC
  5
26B
330
1F
100
AcDbEntity
  8
0
  6
Continuous
 62
     7
370
     0
100
AcDbCircle
 10
7.5048888814
 20
7.5600341813
 30
0.0
 40
0.0476687083332849
100
AcDbArc
 50
59.5341420685
 51
127.1894299306
  0
SPLINE
  5
26C
330
1F
100
AcDbEntity
  8
0
  6
Continuous
 62
     7
370
     0
100
AcDbSpline
210
0.0
220
0.0
230
1.0
 70
    24
 71
     1
 72
     4
 73
     2
 74
     0
 42
0.00000001
 43
0.00000001
 40
0.0
 40
0.0
 40
1.0
 40
1.0
 10
7.46459624101302
 20
7.589554733080208
 30
0.0
 10
7.47607542772962
 20
7.598009049817996
 30
0.0
  0
SPLINE
  5
26D
330
1F
100
AcDbEntity
  8
0
  6
Continuous
 62
     7
370
     0
100
AcDbSpline
210
0.0
220
0.0
230
1.0
 70
     8
 71
     3
 72
    12
 73
     8
 74
     0
 42
0.00000001
 43
0.00000001
 40
0.0
 40
0.0
 40
0.0
 40
0.0
 40
0.2503309494299799
 40
0.4997648043321498
 40
0.6249322238031049
 40
0.7501904501281066
 40
1.0
 40
1.0
 40
1.0
 40
1.0
 10
7.470595830901421
 20
7.567880514029912
 30
0.0
 10
7.468262917872902
 20
7.569420279727388
 30
0.0
 10
7.463605452122557
 20
7.572494293165473
 30
0.0
 10
7.460247006890778
 20
7.577272100034189
 30
0.0
 10
7.459870101203625
 20
7.581223454963073
 30
0.0
 10
7.460613783827443
 20
7.585163941986157
 30
0.0
 10
7.46300415918286
 20
7.587799410073552
 30
0.0
 10
7.46459624101302
 20
7.589554733080208
 30
0.0
  0
ARC
  5
26E
330
1F
100
AcDbEntity
  8
0
  6
Continuous
 62
     7
370
     0
100
AcDbCircle
 10
7.4961461768
 20
7.6071983874
 30
0.0
 40
0.0468904611101364
100
AcDbArc
 50
236.9825578838
 51
305.2811203337
  0
SPLINE
  5
26F
330
1F
100
AcDbEntity
  8
0
  6
Continuous
 62
     7
370
     0
100
AcDbSpline
210
0.0
220
0.0
230
1.0
 70
     8
 71
     3
 72
     9
 73
     5
 74
     0
 42
0.00000001
 43
0.00000001
 40
0.0
 40
0.0
 40
0.0
 40
0.0
 40
0.498670267209003
 40
1.0
 40
1.0
 40
1.0
 40
1.0
 10
7.539214214766933
 20
7.583654372898937
 30
0.0
 10
7.537355343376861
 20
7.580843524363299
 30
0.0
 10
7.533627687022944
 20
7.575206836715227
 30
0.0
 10
7.526701752554255
 20
7.571019586244986
 30
0.0
 10
7.523229575677738
 20
7.568920393085611
 30
0.0
  0
SPLINE
  5
270
330
1F
100
AcDbEntity
  8
0
  6
Continuous
 62
     7
370
     0
100
AcDbSpline
210
0.0
220
0.0
230
1.0
 70
     8
 71
     3
 72
    10
 73
     6
 74
     0
 42
0.00000001
 43
0.00000001
 40
0.0
 40
0.0
 40
0.0
 40
0.0
 40
0.4992067981606219
 40
0.7495375815250999
 40
0.9999999999999999
 40
0.9999999999999999
 40
0.9999999999999999
 40
0.9999999999999999
 10
7.52905810038119
 20
7.601121339919279
 30
0.0
 10
7.532552388766119
 20
7.598652808578998
 30
0.0
 10
7.53779891280153
 20
7.594946414720722
 30
0.0
 10
7.540213340988669
 20
7.588438707636486
 30
0.0
 10
7.539547315196521
 20
7.585249430582044
 30
0.0
 10
7.539214214766933
 20
7.583654372898937
 30
0.0
  0
ARC
  5
271
330
1F
100
AcDbEntity
  8
0
  6
Continuous
 62
     7
370
     0
100
AcDbCircle
 10
7.0133499809
 20
6.8618964567
 30
0.0
 40
0.87899251685743
100
AcDbArc
 50
43.9928357073
 51
44.1279359311
  0
ARC
  5
272
330
1F
100
AcDbEntity
  8
0
  6
Continuous
 62
     7
370
     0
100
AcDbCircle
 10
7.6510727875
 20
7.4808780448
 30
0.0
 40
0.0097343105437358
100
AcDbArc
 50
192.5932249084
 51
225.7419405012
  0
SPLINE
  5
273
330
1F
100
AcDbEntity
  8
0
  6
Continuous
 62
     7
370
     0
100
AcDbSpline
210
0.0
220
0.0
230
1.0
 70
    24
 71
     1
 72
     4
 73
     2
 74
     0
 42
0.00000001
 43
0.00000001
 40
0.0
 40
0.0
 40
1.0
 40
1.0
 10
7.642935648200359
 20
7.484255746524717
 30
0.0
 10
7.641572659649027
 20
7.478755694087196
 30
0.0
  0
SPLINE
  5
274
330
1F
100
AcDbEntity
  8
0
  6
Continuous
 62
     7
370
     0
100
AcDbSpline
210
0.0
220
0.0
230
1.0
 70
    24
 71
     1
 72
     4
 73
     2
 74
     0
 42
0.00000001
 43
0.00000001
 40
0.0
 40
0.0
 40
1.0
 40
1.0
 10
7.651337752136088
 20
7.502844731051061
 30
0.0
 10
7.642935648200358
 20
7.484255746524718
 30
0.0
  0
ARC
  5
275
330
1F
100
AcDbEntity
  8
0
  6
Continuous
 62
     7
370
     0
100
AcDbCircle
 10
7.0704771341
 20
6.9096816
 30
0.0
 40
0.8302057320846302
100
AcDbArc
 50
45.6003765023
 51
47.4019268252
  0
SPLINE
  5
276
330
1F
100
AcDbEntity
  8
0
  6
Continuous
 62
     7
370
     0
100
AcDbSpline
210
0.0
220
0.0
230
1.0
 70
    24
 71
     1
 72
     4
 73
     2
 74
     0
 42
0.00000001
 43
0.00000001
 40
0.0
 40
0.0
 40
1.0
 40
1.0
 10
7.624624703768933
 20
7.503717997828305
 30
0.0
 10
7.632402892361666
 20
7.520812518729374
 30
0.0
  0
SPLINE
  5
277
330
1F
100
AcDbEntity
  8
0
  6
Continuous
 62
     7
370
     0
100
AcDbSpline
210
0.0
220
0.0
230
1.0
 70
    24
 71
     1
 72
     4
 73
     2
 74
     0
 42
0.00000001
 43
0.00000001
 40
0.0
 40
0.0
 40
1.0
 40
1.0
 10
7.622980439441244
 20
7.495201484788337
 30
0.0
 10
7.624624703768933
 20
7.503717997828305
 30
0.0
  0
SPLINE
  5
278
330
1F
100
AcDbEntity
  8
0
  6
Continuous
 62
     7
370
     0
100
AcDbSpline
210
0.0
220
0.0
230
1.0
 70
    24
 71
     1
 72
     4
 73
     2
 74
     0
 42
0.00000001
 43
0.00000001
 40
0.0
 40
0.0
 40
1.0
 40
1.0
 10
7.625130331337841
 20
7.489839757579154
 30
0.0
 10
7.622980439441244
 20
7.495201484788337
 30
0.0
  0
SPLINE
  5
279
330
1F
100
AcDbEntity
  8
0
  6
Continuous
 62
     7
370
     0
100
AcDbSpline
210
0.0
220
0.0
230
1.0
 70
    24
 71
     1
 72
     4
 73
     2
 74
     0
 42
0.00000001
 43
0.00000001
 40
0.0
 40
0.0
 40
1.0
 40
1.0
 10
7.616906363525451
 20
7.494306275874658
 30
0.0
 10
7.625130331337841
 20
7.489839757579154
 30
0.0
  0
ARC
  5
27A
330
1F
100
AcDbEntity
  8
0
  6
Continuous
 62
     7
370
     0
100
AcDbCircle
 10
7.6073937746
 20
7.4710769802
 30
0.0
 40
0.0251015841623705
100
AcDbArc
 50
67.7304940165
 51
117.440141929
  0
SPLINE
  5
27B
330
1F
100
AcDbEntity
  8
0
  6
Continuous
 62
     7
370
     0
100
AcDbSpline
210
0.0
220
0.0
230
1.0
 70
     8
 71
     3
 72
    14
 73
    10
 74
     0
 42
0.00000001
 43
0.00000001
 40
0.0
 40
0.0
 40
0.0
 40
0.0
 40
0.2503552942231803
 40
0.3755117362839585
 40
0.5003668258907387
 40
0.6248775190318446
 40
0.7504411376293612
 40
0.8747830016609897
 40
1.0
 40
1.0
 40
1.0
 40
1.0
 10
7.600975237088415
 20
7.464049929509854
 30
0.0
 10
7.59858093565254
 20
7.466506879897155
 30
0.0
 10
7.594989686295653
 20
7.470192097374826
 30
0.0
 10
7.591010363977987
 20
7.475402848634372
 30
0.0
 10
7.58894964657658
 20
7.479557562679187
 30
0.0
 10
7.588539699820741
 20
7.483758094662138
 30
0.0
 10
7.589618177807171
 20
7.487628319133813
 30
0.0
 10
7.592113488776055
 20
7.490937108976986
 30
0.0
 10
7.594585886459225
 20
7.492546790795018
 30
0.0
 10
7.595826420310222
 20
7.493354454059788
 30
0.0
  0
ARC
  5
27C
330
1F
100
AcDbEntity
  8
0
  6
Continuous
 62
     7
370
     0
100
AcDbCircle
 10
6.9752455005
 20
6.8381136366
 30
0.0
 40
0.8850615492979775
100
AcDbArc
 50
42.4623771808
 51
45.009455244
  0
LINE
  5
27D
330
1F
100
AcDbEntity
  8
0
  6
Continuous
 62
     7
370
     0
100
AcDbLine
 10
7.6847423561
 20
7.4682802655
 30
0.0
 11
7.6281738136
 21
7.4356239411
 31
0.0
  0
ARC
  5
27E
330
1F
100
AcDbEntity
  8
0
  6
Continuous
 62
     7
370
     0
100
AcDbCircle
 10
7.0246771422
 20
6.8640808212
 30
0.0
 40
0.8948424750991558
100
AcDbArc
 50
42.4698399718
 51
43.9887513323
  0
LINE
  5
27F
330
1F
100
AcDbEntity
  8
0
  6
Continuous
 62
     7
370
     0
100
AcDbLine
 10
7.6457206272
 20
7.472416899
 30
0.0
 11
7.6684949755
 21
7.4855642504
 31
0.0
  0
SPLINE
  5
280
330
1F
100
AcDbEntity
  8
0
  6
Continuous
 62
     7
370
     0
100
AcDbSpline
210
0.0
220
0.0
230
1.0
 70
    24
 71
     1
 72
     4
 73
     2
 74
     0
 42
0.00000001
 43
0.00000001
 40
0.0
 40
0.0
 40
1.0
 40
1.0
 10
7.758017122964938
 20
7.376061034367439
 30
0.0
 10
7.765124331739693
 20
7.367552459720178
 30
0.0
  0
SPLINE
  5
281
330
1F
100
AcDbEntity
  8
0
  6
Continuous
 62
     7
370
     0
100
AcDbSpline
210
0.0
220
0.0
230
1.0
 70
    24
 71
     1
 72
     4
 73
     2
 74
     0
 42
0.00000001
 43
0.00000001
 40
0.0
 40
0.0
 40
1.0
 40
1.0
 10
7.750695204131421
 20
7.382489721284832
 30
0.0
 10
7.758017122964938
 20
7.376061034367439
 30
0.0
  0
ARC
  5
282
330
1F
100
AcDbEntity
  8
0
  6
Continuous
 62
     7
370
     0
100
AcDbCircle
 10
7.7400954629
 20
7.3649871493
 30
0.0
 40
0.0204620268369993
100
AcDbArc
 50
58.8004626316
 51
117.7117802573
  0
SPLINE
  5
283
330
1F
100
AcDbEntity
  8
0
  6
Continuous
 62
     7
370
     0
100
AcDbSpline
210
0.0
220
0.0
230
1.0
 70
     8
 71
     3
 72
    12
 73
     8
 74
     0
 42
0.00000001
 43
0.00000001
 40
0.0
 40
0.0
 40
0.0
 40
0.0
 40
0.2503638791655057
 40
0.4997444809985518
 40
0.6245272986229767
 40
0.7501926945849134
 40
1.0
 40
1.0
 40
1.0
 40
1.0
 10
7.72645339967189
 20
7.360760350561345
 30
0.0
 10
7.725566522892588
 20
7.362934293991385
 30
0.0
 10
7.72379625244759
 20
7.367273642921377
 30
0.0
 10
7.723358467339617
 20
7.372862541315047
 30
0.0
 10
7.72450166077934
 20
7.376771106008575
 30
0.0
 10
7.72648270945331
 20
7.380233668673611
 30
0.0
 10
7.728943157093084
 20
7.381956150091381
 30
0.0
 10
7.73058012775101
 20
7.383102141371233
 30
0.0
  0
SPLINE
  5
284
330
1F
100
AcDbEntity
  8
0
  6
Continuous
 62
     7
370
     0
100
AcDbSpline
210
0.0
220
0.0
230
1.0
 70
     8
 71
     3
 72
     9
 73
     5
 74
     0
 42
0.00000001
 43
0.00000001
 40
0.0
 40
0.0
 40
0.0
 40
0.0
 40
0.4993318956962342
 40
1.0
 40
1.0
 40
1.0
 40
1.0
 10
7.717631380732757
 20
7.365762170299247
 30
0.0
 10
7.719207585760717
 20
7.365182652558124
 30
0.0
 10
7.722364213730102
 20
7.364022066290516
 30
0.0
 10
7.725089124008438
 20
7.361848557224909
 30
0.0
 10
7.72645339967189
 20
7.360760350561345
 30
0.0
  0
SPLINE
  5
285
330
1F
100
AcDbEntity
  8
0
  6
Continuous
 62
     7
370
     0
100
AcDbSpline
210
0.0
220
0.0
230
1.0
 70
     8
 71
     3
 72
     9
 73
     5
 74
     0
 42
0.00000001
 43
0.00000001
 40
0.0
 40
0.0
 40
0.0
 40
0.0
 40
0.500130002153579
 40
1.0
 40
1.0
 40
1.0
 40
1.0
 10
7.706630158375336
 20
7.364568011208987
 30
0.0
 10
7.708284544247144
 20
7.365319329817607
 30
0.0
 10
7.711592455919475
 20
7.366821576444254
 30
0.0
 10
7.715618754746675
 20
7.366115244464464
 30
0.0
 10
7.717631380732757
 20
7.365762170299247
 30
0.0
  0
SPLINE
  5
286
330
1F
100
AcDbEntity
  8
0
  6
Continuous
 62
     7
370
     0
100
AcDbSpline
210
0.0
220
0.0
230
1.0
 70
     8
 71
     3
 72
    13
 73
     9
 74
     0
 42
0.00000001
 43
0.00000001
 40
0.0
 40
0.0
 40
0.0
 40
0.0
 40
0.2502329787226057
 40
0.4994066255425945
 40
0.6257013607145739
 40
0.7496002874221421
 40
0.874037117176416
 40
1.0
 40
1.0
 40
1.0
 40
1.0
 10
7.706682193233274
 20
7.337577673638682
 30
0.0
 10
7.705136610853379
 20
7.339964358766679
 30
0.0
 10
7.702051989134925
 20
7.344727625271718
 30
0.0
 10
7.700236147290249
 20
7.351390483986726
 30
0.0
 10
7.700574363417861
 20
7.356362377739279
 30
0.0
 10
7.701727564422273
 20
7.35973624339764
 30
0.0
 10
7.703721787216542
 20
7.362604875984832
 30
0.0
 10
7.705656770424571
 20
7.363910979465587
 30
0.0
 10
7.706630158375336
 20
7.364568011208987
 30
0.0
  0
ARC
  5
287
330
1F
100
AcDbEntity
  8
0
  6
Continuous
 62
     7
370
     0
100
AcDbCircle
 10
6.8668407957
 20
6.7488511329
 30
0.0
 40
1.025637612761675
100
AcDbArc
 50
32.4797685543
 51
35.0303514317
  0
LINE
  5
288
330
1F
100
AcDbEntity
  8
0
  6
Continuous
 62
     7
370
     0
100
AcDbLine
 10
7.7886178608
 20
7.3322766696
 30
0.0
 11
7.7320493183
 21
7.2996203452
 31
0.0
  0
ARC
  5
289
330
1F
100
AcDbEntity
  8
0
  6
Continuous
 62
     7
370
     0
100
AcDbCircle
 10
6.9228486764
 20
6.7811391949
 30
0.0
 40
1.026308334157014
100
AcDbArc
 50
32.480303536
 51
34.8465957465
  0
LINE
  5
28A
330
1F
100
AcDbEntity
  8
0
  6
Continuous
 62
     7
370
     0
100
AcDbLine
 10
7.7816194122
 20
7.9109450663
 30
0.0
 11
7.8023275393
 21
7.9228996137
 31
0.0
  0
ARC
  5
28B
330
1F
100
AcDbEntity
  8
0
  6
Continuous
 62
     7
370
     0
100
AcDbCircle
 10
7.7674475555
 20
7.9320574152
 30
0.0
 40
0.0254277957421938
100
AcDbArc
 50
268.7134908592
 51
303.8718471459
  0
SPLINE
  5
28C
330
1F
100
AcDbEntity
  8
0
  6
Continuous
 62
     7
370
     0
100
AcDbSpline
210
0.0
220
0.0
230
1.0
 70
     8
 71
     3
 72
    11
 73
     7
 74
     0
 42
0.00000001
 43
0.00000001
 40
0.0
 40
0.0
 40
0.0
 40
0.0
 40
0.2500620333659066
 40
0.4999138376966821
 40
0.7498401673007691
 40
1.0
 40
1.0
 40
1.0
 40
1.0
 10
7.765748213263491
 20
7.909038381000392
 30
0.0
 10
7.765467116267646
 20
7.908739644067398
 30
0.0
 10
7.76490515859632
 20
7.908142421351803
 30
0.0
 10
7.764876135652632
 20
7.907396610681934
 30
0.0
 10
7.765505696278651
 20
7.906851916117589
 30
0.0
 10
7.766419524753942
 20
7.906708013897743
 30
0.0
 10
7.766876652336601
 20
7.906636029191997
 30
0.0
  0
SPLINE
  5
28D
330
1F
100
AcDbEntity
  8
0
  6
Continuous
 62
     7
370
     0
100
AcDbSpline
210
0.0
220
0.0
230
1.0
 70
    24
 71
     1
 72
     4
 73
     2
 74
     0
 42
0.00000001
 43
0.00000001
 40
0.0
 40
0.0
 40
1.0
 40
1.0
 10
7.769091019782305
 20
7.91116540148711
 30
0.0
 10
7.765748213263491
 20
7.909038381000392
 30
0.0
  0
LINE
  5
28E
330
1F
100
AcDbEntity
  8
0
  6
Continuous
 62
     7
370
     0
100
AcDbLine
 10
7.7914406448
 20
7.9240675654
 30
0.0
 11
7.7690910198
 21
7.9111654015
 31
0.0
  0
ARC
  5
28F
330
1F
100
AcDbEntity
  8
0
  6
Continuous
 62
     7
370
     0
100
AcDbCircle
 10
7.7665100316
 20
7.6432251905
 30
0.0
 40
0.2819467591425665
100
AcDbArc
 50
84.9271029444
 51
87.7975229439
  0
LINE
  5
290
330
1F
100
AcDbEntity
  8
0
  6
Continuous
 62
     7
370
     0
100
AcDbLine
 10
7.756350428
 20
7.9128434486
 30
0.0
 11
7.7773455303
 21
7.9249636632
 31
0.0
  0
ARC
  5
291
330
1F
100
AcDbEntity
  8
0
  6
Continuous
 62
     7
370
     0
100
AcDbCircle
 10
7.7405826603
 20
7.9367970897
 30
0.0
 40
0.028677507174863
100
AcDbArc
 50
273.0402657256
 51
303.3553842335
  0
SPLINE
  5
292
330
1F
100
AcDbEntity
  8
0
  6
Continuous
 62
     7
370
     0
100
AcDbSpline
210
0.0
220
0.0
230
1.0
 70
     8
 71
     3
 72
    10
 73
     6
 74
     0
 42
0.00000001
 43
0.00000001
 40
0.0
 40
0.0
 40
0.0
 40
0.0
 40
0.4988226573033001
 40
0.7491700015752237
 40
1.0
 40
1.0
 40
1.0
 40
1.0
 10
7.740507272496878
 20
7.909414836646602
 30
0.0
 10
7.740422176240868
 20
7.9090745324138
 30
0.0
 10
7.740294372178012
 20
7.908563437500826
 30
0.0
 10
7.74110744695593
 20
7.908224743963832
 30
0.0
 10
7.7417713697017
 20
7.908181559090389
 30
0.0
 10
7.742103650766883
 20
7.908159945859272
 30
0.0
  0
SPLINE
  5
293
330
1F
100
AcDbEntity
  8
0
  6
Continuous
 62
     7
370
     0
100
AcDbSpline
210
0.0
220
0.0
230
1.0
 70
     8
 71
     3
 72
     9
 73
     5
 74
     0
 42
0.00000001
 43
0.00000001
 40
0.0
 40
0.0
 40
0.0
 40
0.0
 40
0.5015771373281006
 40
1.0
 40
1.0
 40
1.0
 40
1.0
 10
7.743588565077028
 20
7.91178123918301
 30
0.0
 10
7.742867812867175
 20
7.911357732859008
 30
0.0
 10
7.741430841051249
 20
7.910513383520723
 30
0.0
 10
7.740814480624977
 20
7.909780248101151
 30
0.0
 10
7.740507272496878
 20
7.909414836646602
 30
0.0
  0
LINE
  5
294
330
1F
100
AcDbEntity
  8
0
  6
Continuous
 62
     7
370
     0
100
AcDbLine
 10
7.7667646786
 20
7.9251605247
 30
0.0
 11
7.7435885651
 21
7.9117812392
 31
0.0
  0
ARC
  5
295
330
1F
100
AcDbEntity
  8
0
  6
Continuous
 62
     7
370
     0
100
AcDbCircle
 10
7.7670292259
 20
7.6695071047
 30
0.0
 40
0.2556535568601964
100
AcDbArc
 50
90.05928902
 51
93.1233055101
  0
LINE
  5
296
330
1F
100
AcDbEntity
  8
0
  6
Continuous
 62
     7
370
     0
100
AcDbLine
 10
7.7273754964
 20
7.9099305009
 30
0.0
 11
7.7530999492
 21
7.9247809114
 31
0.0
  0
SPLINE
  5
297
330
1F
100
AcDbEntity
  8
0
  6
Continuous
 62
     7
370
     0
100
AcDbSpline
210
0.0
220
0.0
230
1.0
 70
     8
 71
     3
 72
    13
 73
     9
 74
     0
 42
0.00000001
 43
0.00000001
 40
0.0
 40
0.0
 40
0.0
 40
0.0
 40
0.2493551011005135
 40
0.3758643206473669
 40
0.4994912623305494
 40
0.6184449072841405
 40
0.7497843925019095
 40
1.0
 40
1.0
 40
1.0
 40
1.0
 10
7.723720193528085
 20
7.900982271018284
 30
0.0
 10
7.722042085134433
 20
7.901049580269531
 30
0.0
 10
7.719512595789442
 20
7.901151038574901
 30
0.0
 10
7.71825139069572
 20
7.90217782730567
 30
0.0
 10
7.718373628055958
 20
7.903299364789664
 30
0.0
 10
7.719605083078102
 20
7.904753625970307
 30
0.0
 10
7.722402815195911
 20
7.906955505778932
 30
0.0
 10
7.725406043782124
 20
7.908752240789314
 30
0.0
 10
7.72737549637102
 20
7.909930500890458
 30
0.0
  0
ARC
  5
298
330
1F
100
AcDbEntity
  8
0
  6
Continuous
 62
     7
370
     0
100
AcDbCircle
 10
7.7223884106
 20
7.962078679
 30
0.0
 40
0.061110921426225
100
AcDbArc
 50
271.2487388973
 51
290.4252997877
  0
SPLINE
  5
299
330
1F
100
AcDbEntity
  8
0
  6
Continuous
 62
     7
370
     0
100
AcDbSpline
210
0.0
220
0.0
230
1.0
 70
     8
 71
     3
 72
    12
 73
     8
 74
     0
 42
0.00000001
 43
0.00000001
 40
0.0
 40
0.0
 40
0.0
 40
0.0
 40
0.250353368840782
 40
0.4999961943216239
 40
0.7494886161542155
 40
0.8747044873187675
 40
1.0
 40
1.0
 40
1.0
 40
1.0
 10
7.748160346654965
 20
7.9000143285316
 30
0.0
 10
7.747038489463929
 20
7.900137100657389
 30
0.0
 10
7.744797959094047
 20
7.900382296461814
 30
0.0
 10
7.742547784534723
 20
7.901266593080676
 30
0.0
 10
7.74234529874227
 20
7.902586366698999
 30
0.0
 10
7.742905835265691
 20
7.903810015051128
 30
0.0
 10
7.743445394234848
 20
7.904476550790916
 30
0.0
 10
7.743715259486575
 20
7.904809924611918
 30
0.0
  0
ARC
  5
29A
330
1F
100
AcDbEntity
  8
0
  6
Continuous
 62
     7
370
     0
100
AcDbCircle
 10
7.7514672945
 20
7.9538271255
 30
0.0
 40
0.0539143118107688
100
AcDbArc
 50
266.4834353381
 51
288.3988675393
  0
LINE
  5
29B
330
1F
100
AcDbEntity
  8
0
  6
Continuous
 62
     7
370
     0
100
AcDbLine
 10
7.7621708305
 20
7.8990241129
 30
0.0
 11
7.7684842839
 21
7.902668792
 31
0.0
  0
ARC
  5
29C
330
1F
100
AcDbEntity
  8
0
  6
Continuous
 62
     7
370
     0
100
AcDbCircle
 10
7.7218949763
 20
7.5876427157
 30
0.0
 40
0.3139753476265238
100
AcDbArc
 50
80.1411276157
 51
82.629954842
  0
LINE
  5
29D
330
1F
100
AcDbEntity
  8
0
  6
Continuous
 62
     7
370
     0
100
AcDbLine
 10
7.8167952003
 20
7.9207314819
 30
0.0
 11
7.7756544421
 21
7.8969814278
 31
0.0
  0
ARC
  5
29E
330
1F
100
AcDbEntity
  8
0
  6
Continuous
 62
     7
370
     0
100
AcDbCircle
 10
7.7631385346
 20
7.6120420083
 30
0.0
 40
0.3133180953450924
100
AcDbArc
 50
80.1393205421
 51
82.8147759213
  0
SPLINE
  5
29F
330
1F
100
AcDbEntity
  8
0
  6
Continuous
 62
     7
370
     0
100
AcDbSpline
210
0.0
220
0.0
230
1.0
 70
    24
 71
     1
 72
     4
 73
     2
 74
     0
 42
0.00000001
 43
0.00000001
 40
0.0
 40
0.0
 40
1.0
 40
1.0
 10
7.903893748857925
 20
7.867401572155514
 30
0.0
 10
7.909810488497491
 20
7.867014199106592
 30
0.0
  0
SPLINE
  5
2A0
330
1F
100
AcDbEntity
  8
0
  6
Continuous
 62
     7
370
     0
100
AcDbSpline
210
0.0
220
0.0
230
1.0
 70
    24
 71
     1
 72
     4
 73
     2
 74
     0
 42
0.00000001
 43
0.00000001
 40
0.0
 40
0.0
 40
1.0
 40
1.0
 10
7.89854390070913
 20
7.869071761381894
 30
0.0
 10
7.903893748857925
 20
7.867401572155514
 30
0.0
  0
SPLINE
  5
2A1
330
1F
100
AcDbEntity
  8
0
  6
Continuous
 62
     7
370
     0
100
AcDbSpline
210
0.0
220
0.0
230
1.0
 70
     8
 71
     3
 72
    13
 73
     9
 74
     0
 42
0.00000001
 43
0.00000001
 40
0.0
 40
0.0
 40
0.0
 40
0.0
 40
0.2498441747939545
 40
0.3817947059243573
 40
0.4998701509659949
 40
0.6229414449755509
 40
0.7501704474544262
 40
0.9999999999999999
 40
0.9999999999999999
 40
0.9999999999999999
 40
0.9999999999999999
 10
7.898595471575658
 20
7.877514351702575
 30
0.0
 10
7.897576097125488
 20
7.876861909891141
 30
0.0
 10
7.896018359112382
 20
7.875864893131656
 30
0.0
 10
7.8948458167447
 20
7.874313137604693
 30
0.0
 10
7.894566012994546
 20
7.873105102414426
 30
0.0
 10
7.894926030999642
 20
7.871952983424924
 30
0.0
 10
7.89601149664727
 20
7.87049445860483
 30
0.0
 10
7.897534678543325
 20
7.869638739453933
 30
0.0
 10
7.89854390070913
 20
7.869071761381894
 30
0.0
  0
ARC
  5
2A2
330
1F
100
AcDbEntity
  8
0
  6
Continuous
 62
     7
370
     0
100
AcDbCircle
 10
7.907485113
 20
7.8628252141
 30
0.0
 40
0.0171696385835844
100
AcDbArc
 50
65.1708045686
 51
121.1816846395
  0
SPLINE
  5
2A3
330
1F
100
AcDbEntity
  8
0
  6
Continuous
 62
     7
370
     0
100
AcDbSpline
210
0.0
220
0.0
230
1.0
 70
     8
 71
     3
 72
    13
 73
     9
 74
     0
 42
0.00000001
 43
0.00000001
 40
0.0
 40
0.0
 40
0.0
 40
0.0
 40
0.2497059556549706
 40
0.3754902122156119
 40
0.4999844705106245
 40
0.7494478519747868
 40
0.87466854146763
 40
1.0
 40
1.0
 40
1.0
 40
1.0
 10
7.916249868326095
 20
7.870494267273903
 30
0.0
 10
7.916945390667479
 20
7.871158565716065
 30
0.0
 10
7.917991268131161
 20
7.872157490881335
 30
0.0
 10
7.918462690246127
 20
7.873639560084513
 30
0.0
 10
7.918394018412393
 20
7.875109867615832
 30
0.0
 10
7.917521219995248
 20
7.876494199172325
 30
0.0
 10
7.916082962802956
 20
7.877671848897264
 30
0.0
 10
7.915157720454588
 20
7.878162379683737
 30
0.0
 10
7.914694894755703
 20
7.87840775350874
 30
0.0
  0
SPLINE
  5
2A4
330
1F
100
AcDbEntity
  8
0
  6
Continuous
 62
     7
370
     0
100
AcDbSpline
210
0.0
220
0.0
230
1.0
 70
    24
 71
     1
 72
     4
 73
     2
 74
     0
 42
0.00000001
 43
0.00000001
 40
0.0
 40
0.0
 40
1.0
 40
1.0
 10
7.933135198771252
 20
7.863113069179578
 30
0.0
 10
7.916249868326095
 20
7.870494267273903
 30
0.0
  0
SPLINE
  5
2A5
330
1F
100
AcDbEntity
  8
0
  6
Continuous
 62
     7
370
     0
100
AcDbSpline
210
0.0
220
0.0
230
1.0
 70
     8
 71
     3
 72
    12
 73
     8
 74
     0
 42
0.00000001
 43
0.00000001
 40
0.0
 40
0.0
 40
0.0
 40
0.0
 40
0.2504168115017477
 40
0.4997978941598374
 40
0.6250016503732541
 40
0.7501548209131077
 40
1.0
 40
1.0
 40
1.0
 40
1.0
 10
7.925531597210744
 20
7.884859143985059
 30
0.0
 10
7.928052782217359
 20
7.883508750686209
 30
0.0
 10
7.933084724559954
 20
7.880813549341676
 30
0.0
 10
7.937165284712038
 20
7.876186937170972
 30
0.0
 10
7.937898965988627
 20
7.872089788940875
 30
0.0
 10
7.937308967455684
 20
7.867899991710901
 30
0.0
 10
7.93480409016007
 20
7.865027131600255
 30
0.0
 10
7.933135198771252
 20
7.863113069179578
 30
0.0
  0
ARC
  5
2A6
330
1F
100
AcDbEntity
  8
0
  6
Continuous
 62
     7
370
     0
100
AcDbCircle
 10
7.904941619
 20
7.8422694908
 30
0.0
 40
0.0473056630926328
100
AcDbArc
 50
64.1985438181
 51
119.1019851671
  0
SPLINE
  5
2A7
330
1F
100
AcDbEntity
  8
0
  6
Continuous
 62
     7
370
     0
100
AcDbSpline
210
0.0
220
0.0
230
1.0
 70
     8
 71
     3
 72
    13
 73
     9
 74
     0
 42
0.00000001
 43
0.00000001
 40
0.0
 40
0.0
 40
0.0
 40
0.0
 40
0.2498089441007355
 40
0.3754926332067326
 40
0.5002625661608965
 40
0.6265425410131495
 40
0.7507234029546223
 40
1.0
 40
1.0
 40
1.0
 40
1.0
 10
7.883027393872663
 20
7.864887701193132
 30
0.0
 10
7.880785498926531
 20
7.86613406524808
 30
0.0
 10
7.877415663471977
 20
7.868007499054112
 30
0.0
 10
7.875050553986897
 20
7.871182882975327
 30
0.0
 10
7.874304365195048
 20
7.873739128959634
 30
0.0
 10
7.874626093965308
 20
7.876358532714955
 30
0.0
 10
7.876413445955439
 20
7.87985323087093
 30
0.0
 10
7.879724017920728
 20
7.882102031384536
 30
0.0
 10
7.881933769242927
 20
7.883603068051434
 30
0.0
  0
SPLINE
  5
2A8
330
1F
100
AcDbEntity
  8
0
  6
Continuous
 62
     7
370
     0
100
AcDbSpline
210
0.0
220
0.0
230
1.0
 70
     8
 71
     3
 72
     9
 73
     5
 74
     0
 42
0.00000001
 43
0.00000001
 40
0.0
 40
0.0
 40
0.0
 40
0.0
 40
0.50034825904747
 40
1.0
 40
1.0
 40
1.0
 40
1.0
 10
7.89598226489519
 20
7.861508594042395
 30
0.0
 10
7.89359056470127
 20
7.86186475243709
 30
0.0
 10
7.888810493719363
 20
7.862576573430277
 30
0.0
 10
7.884954198495095
 20
7.864117683075765
 30
0.0
 10
7.883027393872663
 20
7.864887701193132
 30
0.0
  0
SPLINE
  5
2A9
330
1F
100
AcDbEntity
  8
0
  6
Continuous
 62
     7
370
     0
100
AcDbSpline
210
0.0
220
0.0
230
1.0
 70
    24
 71
     1
 72
     4
 73
     2
 74
     0
 42
0.00000001
 43
0.00000001
 40
0.0
 40
0.0
 40
1.0
 40
1.0
 10
7.885803415498204
 20
7.857255016627143
 30
0.0
 10
7.89598226489519
 20
7.861508594042395
 30
0.0
  0
ARC
  5
2AA
330
1F
100
AcDbEntity
  8
0
  6
Continuous
 62
     7
370
     0
100
AcDbCircle
 10
7.6667603093
 20
7.4212405392
 30
0.0
 40
0.487943139046233
100
AcDbArc
 50
63.3261553397
 51
66.507203962
  0
LINE
  5
2AB
330
1F
100
AcDbEntity
  8
0
  6
Continuous
 62
     7
370
     0
100
AcDbLine
 10
7.8480471029
 20
7.8611042245
 30
0.0
 11
7.861270918
 21
7.8687381705
 31
0.0
  0
ARC
  5
2AC
330
1F
100
AcDbEntity
  8
0
  6
Continuous
 62
     7
370
     0
100
AcDbCircle
 10
7.6487838041
 20
7.4033267504
 30
0.0
 40
0.4992655385808023
100
AcDbArc
 50
61.8079751758
 51
66.4772689908
  0
SPLINE
  5
2AD
330
1F
100
AcDbEntity
  8
0
  6
Continuous
 62
     7
370
     0
100
AcDbSpline
210
0.0
220
0.0
230
1.0
 70
    24
 71
     1
 72
     4
 73
     2
 74
     0
 42
0.00000001
 43
0.00000001
 40
0.0
 40
0.0
 40
1.0
 40
1.0
 10
7.921656730239746
 20
7.858974634967203
 30
0.0
 10
7.884650868345307
 20
7.843364028404274
 30
0.0
  0
SPLINE
  5
2AE
330
1F
100
AcDbEntity
  8
0
  6
Continuous
 62
     7
370
     0
100
AcDbSpline
210
0.0
220
0.0
230
1.0
 70
    24
 71
     1
 72
     4
 73
     2
 74
     0
 42
0.00000001
 43
0.00000001
 40
0.0
 40
0.0
 40
1.0
 40
1.0
 10
7.909810488497491
 20
7.867014199106592
 30
0.0
 10
7.921656730239746
 20
7.858974634967203
 30
0.0
  0
LINE
  5
2AF
330
1F
100
AcDbEntity
  8
0
  6
Continuous
 62
     7
370
     0
100
AcDbLine
 10
7.9653239235
 20
7.807764209
 30
0.0
 11
7.9778130822
 21
7.8149740469
 31
0.0
  0
ARC
  5
2B0
330
1F
100
AcDbEntity
  8
0
  6
Continuous
 62
     7
370
     0
100
AcDbCircle
 10
7.5461298928
 20
7.2277100274
 30
0.0
 40
0.7156720540970498
100
AcDbArc
 50
49.9584009044
 51
54.145082443
  0
LINE
  5
2B1
330
1F
100
AcDbEntity
  8
0
  6
Continuous
 62
     7
370
     0
100
AcDbLine
 10
8.0190421016
 20
7.7828223237
 30
0.0
 11
8.0065529428
 21
7.7756124858
 31
0.0
  0
ARC
  5
2B2
330
1F
100
AcDbEntity
  8
0
  6
Continuous
 62
     7
370
     0
100
AcDbCircle
 10
7.5586190515
 20
7.2349198652
 30
0.0
 40
0.715672054097039
100
AcDbArc
 50
49.9584009044
 51
54.145082443
  0
ARC
  5
2B3
330
1F
100
AcDbEntity
  8
0
  6
Continuous
 62
     7
370
     0
100
AcDbCircle
 10
8.0278352653
 20
7.68868204
 30
0.0
 40
0.0517440295457386
100
AcDbArc
 50
54.2656316531
 51
93.6390537217
  0
LINE
  5
2B4
330
1F
100
AcDbEntity
  8
0
  6
Continuous
 62
     7
370
     0
100
AcDbLine
 10
8.0712790543
 20
7.7383183404
 30
0.0
 11
8.0580552392
 21
7.7306843944
 31
0.0
  0
SPLINE
  5
2B5
330
1F
100
AcDbEntity
  8
0
  6
Continuous
 62
     7
370
     0
100
AcDbSpline
210
0.0
220
0.0
230
1.0
 70
    24
 71
     1
 72
     4
 73
     2
 74
     0
 42
0.00000001
 43
0.00000001
 40
0.0
 40
0.0
 40
1.0
 40
1.0
 10
8.046835975610671
 20
7.748936529142502
 30
0.0
 10
8.07127905429031
 20
7.738318340379538
 30
0.0
  0
LINE
  5
2B6
330
1F
100
AcDbEntity
  8
0
  6
Continuous
 62
     7
370
     0
100
AcDbLine
 10
8.084659301
 20
7.7707714701
 30
0.0
 11
8.0468359756
 21
7.7489365291
 31
0.0
  0
ARC
  5
2B7
330
1F
100
AcDbEntity
  8
0
  6
Continuous
 62
     7
370
     0
100
AcDbCircle
 10
7.5284893358
 20
7.1805978705
 30
0.0
 40
0.8109438376626048
100
AcDbArc
 50
46.6990487775
 51
48.1858398131
  0
LINE
  5
2B8
330
1F
100
AcDbEntity
  8
0
  6
Continuous
 62
     7
370
     0
100
AcDbLine
 10
8.0118559267
 20
7.7519230023
 30
0.0
 11
8.0691591256
 21
7.7850034349
 31
0.0
  0
ARC
  5
2B9
330
1F
100
AcDbEntity
  8
0
  6
Continuous
 62
     7
370
     0
100
AcDbCircle
 10
7.473048721
 20
7.1495669758
 30
0.0
 40
0.8081744784324725
100
AcDbArc
 50
46.96813416
 51
48.1873813402
  0
LINE
  5
2BA
330
1F
100
AcDbEntity
  8
0
  6
Continuous
 62
     7
370
     0
100
AcDbLine
 10
8.1105307047
 20
7.7079103068
 30
0.0
 11
8.133305053
 21
7.7210576583
 31
0.0
  0
ARC
  5
2BB
330
1F
100
AcDbEntity
  8
0
  6
Continuous
 62
     7
370
     0
100
AcDbCircle
 10
7.4446522452
 20
7.1057357356
 30
0.0
 40
0.8977796706675382
100
AcDbArc
 50
42.1240177786
 51
44.0184965082
  0
LINE
  5
2BC
330
1F
100
AcDbEntity
  8
0
  6
Continuous
 62
     7
370
     0
100
AcDbLine
 10
8.0785050284
 20
7.7228086196
 30
0.0
 11
8.0902595307
 21
7.7295943493
 31
0.0
  0
ARC
  5
2BD
330
1F
100
AcDbEntity
  8
0
  6
Continuous
 62
     7
370
     0
100
AcDbCircle
 10
7.4328977428
 20
7.0989500059
 30
0.0
 40
0.897779670660139
100
AcDbArc
 50
42.1240177786
 51
44.0184965082
  0
LINE
  5
2BE
330
1F
100
AcDbEntity
  8
0
  6
Continuous
 62
     7
370
     0
100
AcDbLine
 10
8.0899603256
 20
7.6960352798
 30
0.0
 11
8.0987762023
 21
7.7011245771
 31
0.0
  0
ARC
  5
2BF
330
1F
100
AcDbEntity
  8
0
  6
Continuous
 62
     7
370
     0
100
AcDbCircle
 10
7.4262964875
 20
7.0959120768
 30
0.0
 40
0.8947611685334096
100
AcDbArc
 50
42.1217087385
 51
44.3368825656
  0
LINE
  5
2C0
330
1F
100
AcDbEntity
  8
0
  6
Continuous
 62
     7
370
     0
100
AcDbLine
 10
8.0530443349
 20
7.7136051012
 30
0.0
 11
8.06626815
 21
7.7212390472
 31
0.0
  0
ARC
  5
2C1
330
1F
100
AcDbEntity
  8
0
  6
Continuous
 62
     7
370
     0
100
AcDbCircle
 10
7.4030451437
 20
7.0788130825
 30
0.0
 40
0.9085482131278726
100
AcDbArc
 50
40.6258232324
 51
44.3218617117
  0
LINE
  5
2C2
330
1F
100
AcDbEntity
  8
0
  6
Continuous
 62
     7
370
     0
100
AcDbLine
 10
8.1491817247
 20
7.7030400079
 30
0.0
 11
8.0926131822
 21
7.6703836834
 31
0.0
  0
ARC
  5
2C3
330
1F
100
AcDbEntity
  8
0
  6
Continuous
 62
     7
370
     0
100
AcDbCircle
 10
7.4447287264
 20
7.098298737
 30
0.0
 40
0.9284212575562927
100
AcDbArc
 50
40.6446091424
 51
42.1266709239
  0
LINE
  5
2C4
330
1F
100
AcDbEntity
  8
0
  6
Continuous
 62
     7
370
     0
100
AcDbLine
 10
7.6436587573
 20
6.5040863332
 30
0.0
 11
7.7009619562
 21
6.5371667658
 31
0.0
  0
LWPOLYLINE
  5
2C5
330
1F
100
AcDbEntity
  8
0
  6
Continuous
 62
     7
370
     0
100
AcDbPolyline
 90
       79
 70
   128
 43
0.0
 10
7.5296852208
 20
6.7152605854
 10
7.5288949922
 20
6.681798143
 10
7.5257437973
 20
6.649882073
 10
7.5202520726
 20
6.6197193634
 10
7.5124554342
 20
6.5915056311
 10
7.5024044462
 20
6.5654238527
 10
7.4901642932
 20
6.5416431788
 10
7.4758143572
 20
6.520317836
 10
7.4594477031
 20
6.5015861275
 10
7.4411704749
 20
6.4855695355
 10
7.4211012074
 20
6.4723719338
 10
7.3993700576
 20
6.4620789139
 10
7.3761179603
 20
6.45475723
 10
7.3514957143
 20
6.4504543659
 10
7.3256630043
 20
6.4491982275
 10
7.2987873652
 20
6.4509969613
 10
7.2710430961
 20
6.4558389018
 10
7.242610129
 20
6.4636926471
 10
7.2136728627
 20
6.4745072627
 10
7.1844189665
 20
6.4882126117
 10
7.1550381631
 20
6.5047198096
 10
7.1257209982
 20
6.5239218009
 10
7.0966576051
 20
6.5456940534
 10
7.0680364708
 20
6.5698953655
 10
7.0400432145
 20
6.5963687826
 10
7.0128593831
 20
6.6249426143
 10
6.9866612743
 20
6.6554315484
 10
6.9616187929
 20
6.6876378524
 10
6.9378943488
 20
6.7213526562
 10
6.9156418043
 20
6.7563573062
 10
6.8950054756
 20
6.7924247839
 10
6.8761191973
 20
6.8293211778
 10
6.8591054541
 20
6.8668072008
 10
6.8440745867
 20
6.9046397414
 10
6.831124076
 20
6.9425734413
 10
6.820337911
 20
6.9803622857
 10
6.8117860442
 20
7.0177611995
 10
6.8055239377
 20
7.0545276365
 10
6.8015922036
 20
7.0904231522
 10
6.8000163409
 20
7.1252149503
 10
6.8008065694
 20
7.1586773927
 10
6.8039577644
 20
7.1905934627
 10
6.809449489
 20
7.2207561723
 10
6.8172461275
 20
7.2489699047
 10
6.8272971154
 20
7.275051683
 10
6.8395372685
 20
7.2988323569
 10
6.8538872045
 20
7.3201576997
 10
6.8702538586
 20
7.3388894082
 10
6.8885310868
 20
7.3549060002
 10
6.9086003542
 20
7.3681036019
 10
6.930331504
 20
7.3783966218
 10
6.9535836013
 20
7.3857183057
 10
6.9782058473
 20
7.3900211698
 10
7.0040385574
 20
7.3912773082
 10
7.0309141964
 20
7.3894785744
 10
7.0586584656
 20
7.3846366339
 10
7.0870914326
 20
7.3767828886
 10
7.1160286989
 20
7.365968273
 10
7.1452825952
 20
7.352262924
 10
7.1746633986
 20
7.3357557261
 10
7.2039805634
 20
7.3165537348
 10
7.2330439566
 20
7.2947814824
 10
7.2616650908
 20
7.2705801702
 10
7.2896583471
 20
7.2441067531
 10
7.3168421785
 20
7.2155329214
 10
7.3430402873
 20
7.1850439873
 10
7.3680827688
 20
7.1528376833
 10
7.3918072128
 20
7.1191228795
 10
7.4140597573
 20
7.0841182295
 10
7.434696086
 20
7.0480507518
 10
7.4535823643
 20
7.0111543579
 10
7.4705961075
 20
6.9736683349
 10
7.4856269749
 20
6.9358357943
 10
7.4985774856
 20
6.8979020945
 10
7.5093636506
 20
6.86011325
 10
7.5179155174
 20
6.8227143362
 10
7.5241776239
 20
6.7859478992
 10
7.528109358
 20
6.7500523835
 10
7.5296852208
 20
6.7152605854
  0
LWPOLYLINE
  5
2C6
330
1F
100
AcDbEntity
  8
0
  6
Continuous
 62
     7
370
     0
100
AcDbPolyline
 90
       51
 70
   128
 43
0.0
 10
7.0421501028
 20
7.3878674239
 10
7.0374433266
 20
7.3883258783
 10
7.0110576032
 20
7.3891474276
 10
6.9857768529
 20
7.3868955121
 10
6.9617693147
 20
7.381585118
 10
6.9391947549
 20
7.3732515851
 10
6.9182034034
 20
7.3619503717
 10
6.8989349544
 20
7.3477566855
 10
6.881517636
 20
7.3307649831
 10
6.8660673577
 20
7.3110883415
 10
6.8526869386
 20
7.2888577055
 10
6.8414654231
 20
7.2642210164
 10
6.8324774885
 20
7.2373422272
 10
6.8257829481
 20
7.2084002118
 10
6.8214263529
 20
7.1775875745
 10
6.8194366954
 20
7.1451093685
 10
6.8198272164
 20
7.1111817308
 10
6.822595317
 20
7.0760304441
 10
6.827722576
 20
7.0398894346
 10
6.8351748724
 20
7.0029992147
 10
6.8449026123
 20
6.9656052828
 10
6.8568410592
 20
6.9279564891
 10
6.8709107647
 20
6.8903033804
 10
6.8870180973
 20
6.8528965317
 10
6.9050558654
 20
6.8159848796
 10
6.9249040304
 20
6.7798140649
 10
6.9464305063
 20
6.7446247985
 10
6.9694920378
 20
6.7106512591
 10
6.9939351543
 20
6.6781195351
 10
7.0195971908
 20
6.6472461196
 10
7.0463073707
 20
6.6182364702
 10
7.0738879422
 20
6.5912836413
 10
7.1021553611
 20
6.5665669995
 10
7.1309215125
 20
6.5442510301
 10
7.1599949623
 20
6.524484242
 10
7.1891822315
 20
6.50739818
 10
7.2182890837
 20
6.4931065491
 10
7.2471218176
 20
6.4817044576
 10
7.275488556
 20
6.4732677847
 10
7.303200523
 20
6.467852675
 10
7.3300733001
 20
6.4654951651
 10
7.3559280533
 20
6.4662109439
 10
7.3805927236
 20
6.4699952479
 10
7.4039031715
 20
6.4768228934
 10
7.42570427
 20
6.4866484434
 10
7.4458509363
 20
6.4994065105
 10
7.4642090977
 20
6.5150121918
 10
7.4806565836
 20
6.5333616342
 10
7.4950839388
 20
6.5543327252
 10
7.5073951516
 20
6.5777859055
 10
7.5084476898
 20
6.5801287916
  0
SPLINE
  5
2C7
330
1F
100
AcDbEntity
  8
0
  6
Continuous
 62
     7
370
     0
100
AcDbSpline
210
0.0
220
0.0
230
1.0
 70
     8
 71
     3
 72
    13
 73
     9
 74
     0
 42
0.00000001
 43
0.00000001
 40
0.0
 40
0.0
 40
0.0
 40
0.0
 40
0.500463976692327
 40
0.6282475802576554
 40
0.7518824419766852
 40
0.8133314421062888
 40
0.8755414302564688
 40
0.9999999999999999
 40
0.9999999999999999
 40
0.9999999999999999
 40
0.9999999999999999
 10
7.248882579667
 20
7.455461939447801
 30
0.0
 10
7.252516004930436
 20
7.45761729045535
 30
0.0
 10
7.25707715365664
 20
7.460322967823076
 30
0.0
 10
7.26088358413315
 20
7.464271231259524
 30
0.0
 10
7.261660358818652
 20
7.466121874757505
 30
0.0
 10
7.261599506080966
 20
7.467599528386883
 30
0.0
 10
7.260979138887429
 20
7.469053941784344
 30
0.0
 10
7.259740937708847
 20
7.469915906320478
 30
0.0
 10
7.258915384924385
 20
7.470490608747857
 30
0.0
  0
ARC
  5
2C8
330
1F
100
AcDbEntity
  8
0
  6
Continuous
 62
     7
370
     0
100
AcDbCircle
 10
7.2505740558
 20
7.4470516697
 30
0.0
 40
0.0248789396224246
100
AcDbArc
 50
70.4106342425
 51
134.501777708
  0
SPLINE
  5
2C9
330
1F
100
AcDbEntity
  8
0
  6
Continuous
 62
     7
370
     0
100
AcDbSpline
210
0.0
220
0.0
230
1.0
 70
     8
 71
     3
 72
    13
 73
     9
 74
     0
 42
0.00000001
 43
0.00000001
 40
0.0
 40
0.0
 40
0.0
 40
0.0
 40
0.5004231501092425
 40
0.6255784393529471
 40
0.7503815851608587
 40
0.812655222336259
 40
0.8754890600875417
 40
1.0
 40
1.0
 40
1.0
 40
1.0
 10
7.233135625929483
 20
7.464796043492517
 30
0.0
 10
7.229418786899926
 20
7.462596496826019
 30
0.0
 10
7.224772370444316
 20
7.459846845914364
 30
0.0
 10
7.220780096108587
 20
7.455906191030221
 30
0.0
 10
7.219995217295592
 20
7.454048185565517
 30
0.0
 10
7.220139495995176
 20
7.452554400939539
 30
0.0
 10
7.220861791282481
 20
7.451102946906758
 30
0.0
 10
7.222151737426097
 20
7.450234668365044
 30
0.0
 10
7.223009046654466
 20
7.449657603027636
 30
0.0
  0
SPLINE
  5
2CA
330
1F
100
AcDbEntity
  8
0
  6
Continuous
 62
     7
370
     0
100
AcDbSpline
210
0.0
220
0.0
230
1.0
 70
     8
 71
     3
 72
    13
 73
     9
 74
     0
 42
0.00000001
 43
0.00000001
 40
0.0
 40
0.0
 40
0.0
 40
0.0
 40
0.1245513980941973
 40
0.1859899457722044
 40
0.2495609023918275
 40
0.3742835246962721
 40
0.4994689293692381
 40
1.0
 40
1.0
 40
1.0
 40
1.0
 10
7.223009046654466
 20
7.449657603027636
 30
0.0
 10
7.224008284633293
 20
7.449184064698807
 30
0.0
 10
7.225500425390758
 20
7.448476940014157
 30
0.0
 10
7.228013194442203
 20
7.448068967713721
 30
0.0
 10
7.230603848007193
 20
7.447990758771
 30
0.0
 10
7.233797880034
 20
7.448491770279048
 30
0.0
 10
7.240504271330455
 20
7.45075418337659
 30
0.0
 10
7.245159061105825
 20
7.453369701204887
 30
0.0
 10
7.248882579667
 20
7.455461939447801
 30
0.0
  0
ARC
  5
2CB
330
1F
100
AcDbEntity
  8
0
  6
Continuous
 62
     7
370
     0
100
AcDbCircle
 10
6.8771053393
 20
6.7541220529
 30
0.0
 40
1.038725666025322
100
AcDbArc
 50
29.0428905004
 51
29.5988827569
  0
SPLINE
  5
2CC
330
1F
100
AcDbEntity
  8
0
  6
Continuous
 62
     7
370
     0
100
AcDbSpline
210
0.0
220
0.0
230
1.0
 70
     8
 71
     3
 72
    13
 73
     9
 74
     0
 42
0.00000001
 43
0.00000001
 40
0.0
 40
0.0
 40
0.0
 40
0.0
 40
0.250562727700854
 40
0.5000471093107195
 40
0.6243230553565715
 40
0.7497534526002957
 40
0.8747558534753461
 40
0.9999999999999999
 40
0.9999999999999999
 40
0.9999999999999999
 40
0.9999999999999999
 10
7.780282043553365
 20
7.267174535756883
 30
0.0
 10
7.77969785841357
 20
7.26814481745522
 30
0.0
 10
7.778532002289888
 20
7.27008120505334
 30
0.0
 10
7.776655944392123
 20
7.272263232172475
 30
0.0
 10
7.774762712599011
 20
7.273312324574816
 30
0.0
 10
7.773268381024002
 20
7.273563388322726
 30
0.0
 10
7.771836342240406
 20
7.273368304384533
 30
0.0
 10
7.771008180400186
 20
7.272945850621098
 30
0.0
 10
7.770593699465523
 20
7.272734419687895
 30
0.0
  0
SPLINE
  5
2CD
330
1F
100
AcDbEntity
  8
0
  6
Continuous
 62
     7
370
     0
100
AcDbSpline
210
0.0
220
0.0
230
1.0
 70
     8
 71
     3
 72
    13
 73
     9
 74
     0
 42
0.00000001
 43
0.00000001
 40
0.0
 40
0.0
 40
0.0
 40
0.0
 40
0.1251815832453393
 40
0.2501778431342466
 40
0.3742188627429878
 40
0.4998769269689405
 40
0.7494759856933166
 40
1.0
 40
1.0
 40
1.0
 40
1.0
 10
7.770593699465522
 20
7.272734419687897
 30
0.0
 10
7.770215745387794
 20
7.272486520319671
 30
0.0
 10
7.769460396769262
 20
7.271991088582433
 30
0.0
 10
7.768651609956075
 20
7.270840718123162
 30
0.0
 10
7.768179379553841
 20
7.269443059100887
 30
0.0
 10
7.768192118871543
 20
7.26733424329462
 30
0.0
 10
7.769102831385142
 20
7.264694377836766
 30
0.0
 10
7.770139864881723
 20
7.262758091154061
 30
0.0
 10
7.770659340603887
 20
7.261788157274268
 30
0.0
  0
ARC
  5
2CE
330
1F
100
AcDbEntity
  8
0
  6
Continuous
 62
     7
370
     0
100
AcDbCircle
 10
6.8675506701
 20
6.748606333
 30
0.0
 40
1.038730405612944
100
AcDbArc
 50
29.0428913548
 51
29.6069397005
  0
LINE
  5
2CF
330
1F
100
AcDbEntity
  8
0
  6
Continuous
 62
     7
370
     0
100
AcDbLine
 10
7.7756675162
 20
7.2528727798
 30
0.0
 11
7.7852180493
 21
7.2583861852
 31
0.0
  0
ARC
  5
2D0
330
1F
100
AcDbEntity
  8
0
  6
Continuous
 62
     7
370
     0
100
AcDbCircle
 10
6.8990823119
 20
6.7668101714
 30
0.0
 40
1.038797550626868
100
AcDbArc
 50
29.0429048423
 51
29.7286853499
  0
SPLINE
  5
2D1
330
1F
100
AcDbEntity
  8
0
  6
Continuous
 62
     7
370
     0
100
AcDbSpline
210
0.0
220
0.0
230
1.0
 70
     8
 71
     3
 72
    13
 73
     9
 74
     0
 42
0.00000001
 43
0.00000001
 40
0.0
 40
0.0
 40
0.0
 40
0.0
 40
0.2504598900568579
 40
0.49989474669687
 40
0.6257393024666416
 40
0.7498233176503818
 40
0.87479606876164
 40
1.0
 40
1.0
 40
1.0
 40
1.0
 10
7.801156811248416
 20
7.281943114215739
 30
0.0
 10
7.800469177615272
 20
7.283075972083428
 30
0.0
 10
7.799096724561882
 20
7.285337051478949
 30
0.0
 10
7.796855296655257
 20
7.287849340386905
 30
0.0
 10
7.794644577928973
 20
7.289082196926536
 30
0.0
 10
7.792897564405105
 20
7.289451906482499
 30
0.0
 10
7.791200802562071
 20
7.289308585173847
 30
0.0
 10
7.790224934119489
 20
7.288825565058709
 30
0.0
 10
7.789736549014068
 20
7.288583831829558
 30
0.0
  0
SPLINE
  5
2D2
330
1F
100
AcDbEntity
  8
0
  6
Continuous
 62
     7
370
     0
100
AcDbSpline
210
0.0
220
0.0
230
1.0
 70
     8
 71
     3
 72
    13
 73
     9
 74
     0
 42
0.00000001
 43
0.00000001
 40
0.0
 40
0.0
 40
0.0
 40
0.0
 40
0.1295610237595511
 40
0.2496774389405505
 40
0.3752077547204082
 40
0.4998009282122928
 40
0.749574284111372
 40
0.9999999999999999
 40
0.9999999999999999
 40
0.9999999999999999
 40
0.9999999999999999
 10
7.789736549014068
 20
7.288583831829558
 30
0.0
 10
7.789280635792116
 20
7.288270065614173
 30
0.0
 10
7.788402044049528
 20
7.287665405795888
 30
0.0
 10
7.787516578274306
 20
7.286237384396621
 30
0.0
 10
7.787077264107139
 20
7.284552455695752
 30
0.0
 10
7.78718798006603
 20
7.282055141625746
 30
0.0
 10
7.788310670603551
 20
7.278965371390927
 30
0.0
 10
7.789543763740214
 20
7.276682250696163
 30
0.0
 10
7.790161114409024
 20
7.275539201524954
 30
0.0
  0
ARC
  5
2D3
330
1F
100
AcDbEntity
  8
0
  6
Continuous
 62
     7
370
     0
100
AcDbCircle
 10
6.8880636789
 20
6.7604492297
 30
0.0
 40
1.03879616007805
100
AcDbArc
 50
29.0429045356
 51
29.7259998548
  0
LINE
  5
2D4
330
1F
100
AcDbEntity
  8
0
  6
Continuous
 62
     7
370
     0
100
AcDbLine
 10
7.7962378953
 20
7.2647478069
 30
0.0
 11
7.8072577412
 21
7.2711094285
 31
0.0
  0
ARC
  5
2D5
330
1F
100
AcDbEntity
  8
0
  6
Continuous
 62
     7
370
     0
100
AcDbCircle
 10
6.8902760218
 20
6.7626234918
 30
0.0
 40
1.023047919311122
100
AcDbArc
 50
33.8663843404
 51
34.4280424445
  0
SPLINE
  5
2D6
330
1F
100
AcDbEntity
  8
0
  6
Continuous
 62
     7
370
     0
100
AcDbSpline
210
0.0
220
0.0
230
1.0
 70
     8
 71
     3
 72
    13
 73
     9
 74
     0
 42
0.00000001
 43
0.00000001
 40
0.0
 40
0.0
 40
0.0
 40
0.0
 40
0.250562727701295
 40
0.5000471093115837
 40
0.6243230553377496
 40
0.7497534525998595
 40
0.8747558534751284
 40
1.0
 40
1.0
 40
1.0
 40
1.0
 10
7.734123681728312
 20
7.341024885288264
 30
0.0
 10
7.733462483275288
 20
7.341938881783427
 30
0.0
 10
7.732142931967117
 20
7.343762941209663
 30
0.0
 10
7.730076191492419
 20
7.3458018503982
 30
0.0
 10
7.728058358459425
 20
7.346756269566738
 30
0.0
 10
7.726499398918646
 20
7.346957861943866
 30
0.0
 10
7.725030760116444
 20
7.346734640225854
 30
0.0
 10
7.72419937656216
 20
7.346309704736356
 30
0.0
 10
7.723783283214328
 20
7.346097031741411
 30
0.0
  0
SPLINE
  5
2D7
330
1F
100
AcDbEntity
  8
0
  6
Continuous
 62
     7
370
     0
100
AcDbSpline
210
0.0
220
0.0
230
1.0
 70
     8
 71
     3
 72
    13
 73
     9
 74
     0
 42
0.00000001
 43
0.00000001
 40
0.0
 40
0.0
 40
0.0
 40
0.0
 40
0.1251815832449516
 40
0.2501778431334732
 40
0.3742188627351419
 40
0.4998769269704538
 40
0.7494759856940619
 40
1.0
 40
1.0
 40
1.0
 40
1.0
 10
7.723783283214328
 20
7.346097031741411
 30
0.0
 10
7.723407049571666
 20
7.34585045790896
 30
0.0
 10
7.722655139276274
 20
7.345357675280903
 30
0.0
 10
7.721885959467286
 20
7.344237749063828
 30
0.0
 10
7.72147902261374
 20
7.342890050978913
 30
0.0
 10
7.721614872482819
 20
7.340874743814664
 30
0.0
 10
7.722710468034351
 20
7.338373624616179
 30
0.0
 10
7.723896775496291
 20
7.336546515597159
 30
0.0
 10
7.724491026238946
 20
7.335631271508845
 30
0.0
  0
ARC
  5
2D8
330
1F
100
AcDbEntity
  8
0
  6
Continuous
 62
     7
370
     0
100
AcDbCircle
 10
6.8807516387
 20
6.7571277613
 30
0.0
 40
1.023016356348382
100
AcDbArc
 50
33.8663785243
 51
34.4361882676
  0
LINE
  5
2D9
330
1F
100
AcDbEntity
  8
0
  6
Continuous
 62
     7
370
     0
100
AcDbLine
 10
7.730202457
 20
7.3272117663
 30
0.0
 11
7.7397529901
 21
7.3327251717
 31
0.0
  0
ARC
  5
2DA
330
1F
100
AcDbEntity
  8
0
  6
Continuous
 62
     7
370
     0
100
AcDbCircle
 10
6.912740469
 20
6.7756340506
 30
0.0
 40
1.022535119292257
100
AcDbArc
 50
33.8662795015
 51
34.5593120604
  0
SPLINE
  5
2DB
330
1F
100
AcDbEntity
  8
0
  6
Continuous
 62
     7
370
     0
100
AcDbSpline
210
0.0
220
0.0
230
1.0
 70
     8
 71
     3
 72
    13
 73
     9
 74
     0
 42
0.00000001
 43
0.00000001
 40
0.0
 40
0.0
 40
0.0
 40
0.0
 40
0.2504598900565007
 40
0.4998947466961207
 40
0.6257393024817531
 40
0.7498233176507514
 40
0.8747960687618198
 40
0.9999999999999999
 40
0.9999999999999999
 40
0.9999999999999999
 40
0.9999999999999999
 10
7.754838436524795
 20
7.355676362327849
 30
0.0
 10
7.754061129123976
 20
7.356742683999842
 30
0.0
 10
7.752509695534552
 20
7.358870963310342
 30
0.0
 10
7.750047373781521
 20
7.361214215427211
 30
0.0
 10
7.747691717562867
 20
7.362334577647483
 30
0.0
 10
7.745865320099015
 20
7.362642130997138
 30
0.0
 10
7.744120485127133
 20
7.362460956307411
 30
0.0
 10
7.743140002246126
 20
7.361974292970573
 30
0.0
 10
7.742649307789469
 20
7.361730736447282
 30
0.0
  0
SPLINE
  5
2DC
330
1F
100
AcDbEntity
  8
0
  6
Continuous
 62
     7
370
     0
100
AcDbSpline
210
0.0
220
0.0
230
1.0
 70
     8
 71
     3
 72
    13
 73
     9
 74
     0
 42
0.00000001
 43
0.00000001
 40
0.0
 40
0.0
 40
0.0
 40
0.0
 40
0.1295610237632901
 40
0.2496774389486124
 40
0.3752077547236004
 40
0.4998009282123135
 40
0.7495742841113943
 40
1.0
 40
1.0
 40
1.0
 40
1.0
 10
7.742649307789469
 20
7.361730736447282
 30
0.0
 10
7.74219629931322
 20
7.361419263862062
 30
0.0
 10
7.74132330531482
 20
7.360819024105369
 30
0.0
 10
7.740490556132561
 20
7.359432496736487
 30
0.0
 10
7.740133701356491
 20
7.357812089343164
 30
0.0
 10
7.740392418096588
 20
7.355429527892952
 30
0.0
 10
7.741732115024005
 20
7.352505633927219
 30
0.0
 10
7.743140787999489
 20
7.350352736531272
 30
0.0
 10
7.743846043083385
 20
7.349274883928133
 30
0.0
  0
ARC
  5
2DD
330
1F
100
AcDbEntity
  8
0
  6
Continuous
 62
     7
370
     0
100
AcDbCircle
 10
6.9017117606
 20
6.7692664294
 30
0.0
 40
1.022545821484391
100
AcDbArc
 50
33.8662819136
 51
34.5565954553
  0
LINE
  5
2DE
330
1F
100
AcDbEntity
  8
0
  6
Continuous
 62
     7
370
     0
100
AcDbLine
 10
7.7507728361
 20
7.3390867934
 30
0.0
 11
7.761792682
 21
7.345448415
 31
0.0
  0
SPLINE
  5
2DF
330
1F
100
AcDbEntity
  8
0
  6
Continuous
 62
     7
370
     0
100
AcDbSpline
210
0.0
220
0.0
230
1.0
 70
     8
 71
     3
 72
    13
 73
     9
 74
     0
 42
0.00000001
 43
0.00000001
 40
0.0
 40
0.0
 40
0.0
 40
0.0
 40
0.5004639766923099
 40
0.628247580256437
 40
0.7518824419766685
 40
0.813331442106562
 40
0.8755414302566624
 40
0.9999999999999999
 40
0.9999999999999999
 40
0.9999999999999999
 40
0.9999999999999999
 10
7.196103856819072
 20
7.482525821517699
 30
0.0
 10
7.199737570921874
 20
7.48467391642578
 30
0.0
 10
7.204299082236867
 20
7.487370484992177
 30
0.0
 10
7.20811646060885
 20
7.491095507739717
 30
0.0
 10
7.208902408165588
 20
7.492766716478241
 30
0.0
 10
7.2088520744644
 20
7.494049792813714
 30
0.0
 10
7.208244762300272
 20
7.49527035205441
 30
0.0
 10
7.20701906991892
 20
7.495927043645561
 30
0.0
 10
7.206201857194666
 20
7.496364883296328
 30
0.0
  0
ARC
  5
2E0
330
1F
100
AcDbEntity
  8
0
  6
Continuous
 62
     7
370
     0
100
AcDbCircle
 10
7.1999313519
 20
7.4684568943
 30
0.0
 40
0.0286037600458708
100
AcDbArc
 50
77.3367986431
 51
132.7707677091
  0
SPLINE
  5
2E1
330
1F
100
AcDbEntity
  8
0
  6
Continuous
 62
     7
370
     0
100
AcDbSpline
210
0.0
220
0.0
230
1.0
 70
     8
 71
     3
 72
    13
 73
     9
 74
     0
 42
0.00000001
 43
0.00000001
 40
0.0
 40
0.0
 40
0.0
 40
0.0
 40
0.500423150109423
 40
0.6255784393531677
 40
0.7503815851611264
 40
0.8126552223354
 40
0.8754890600874945
 40
0.9999999999999999
 40
0.9999999999999999
 40
0.9999999999999999
 40
0.9999999999999999
 10
7.1805074862178
 20
7.489454240016337
 30
0.0
 10
7.176790029654778
 20
7.487262009062546
 30
0.0
 10
7.172142841221249
 20
7.484521503515442
 30
0.0
 10
7.16813392717309
 20
7.480799674061455
 30
0.0
 10
7.167335179911308
 20
7.479128915359298
 30
0.0
 10
7.167464619518227
 20
7.477844160741354
 30
0.0
 10
7.16816985675468
 20
7.476639519155819
 30
0.0
 10
7.169446318610136
 20
7.475982323532891
 30
0.0
 10
7.170294666065383
 20
7.475545545706805
 30
0.0
  0
ARC
  5
2E2
330
1F
100
AcDbEntity
  8
0
  6
Continuous
 62
     7
370
     0
100
AcDbCircle
 10
7.1766403663
 20
7.5032868422
 30
0.0
 40
0.0284578186769103
100
AcDbArc
 50
257.1155135801
 51
313.1524390972
  0
SPLINE
  5
2E3
330
1F
100
AcDbEntity
  8
0
  6
Continuous
 62
     7
370
     0
100
AcDbSpline
210
0.0
220
0.0
230
1.0
 70
    24
 71
     1
 72
     4
 73
     2
 74
     0
 42
0.00000001
 43
0.00000001
 40
0.0
 40
0.0
 40
1.0
 40
1.0
 10
7.675816871396518
 20
7.405681561041815
 30
0.0
 10
7.701099826618838
 20
7.410850769996697
 30
0.0
  0
ARC
  5
2E4
330
1F
100
AcDbEntity
  8
0
  6
Continuous
 62
     7
370
     0
100
AcDbCircle
 10
6.9526563177
 20
6.8073606422
 30
0.0
 40
0.9614405964579097
100
AcDbArc
 50
38.8801662011
 51
39.8841114849
  0
SPLINE
  5
2E5
330
1F
100
AcDbEntity
  8
0
  6
Continuous
 62
     7
370
     0
100
AcDbSpline
210
0.0
220
0.0
230
1.0
 70
    24
 71
     1
 72
     4
 73
     2
 74
     0
 42
0.00000001
 43
0.00000001
 40
0.0
 40
0.0
 40
1.0
 40
1.0
 10
7.690411029959984
 20
7.423871797759008
 30
0.0
 10
7.675816871396518
 20
7.405681561041815
 30
0.0
  0
SPLINE
  5
2E6
330
1F
100
AcDbEntity
  8
0
  6
Continuous
 62
     7
370
     0
100
AcDbSpline
210
0.0
220
0.0
230
1.0
 70
     8
 71
     3
 72
     9
 73
     5
 74
     0
 42
0.00000001
 43
0.00000001
 40
0.0
 40
0.0
 40
0.0
 40
0.0
 40
0.4999994377870614
 40
1.0
 40
1.0
 40
1.0
 40
1.0
 10
7.429245656123701
 20
7.496871121922138
 30
0.0
 10
7.430653198770071
 20
7.496257264252352
 30
0.0
 10
7.433468287228168
 20
7.495029547532304
 30
0.0
 10
7.436176346225803
 20
7.49366911786615
 30
0.0
 10
7.437530377247127
 20
7.492988902268224
 30
0.0
  0
SPLINE
  5
2E7
330
1F
100
AcDbEntity
  8
0
  6
Continuous
 62
     7
370
     0
100
AcDbSpline
210
0.0
220
0.0
230
1.0
 70
    24
 71
     1
 72
     4
 73
     2
 74
     0
 42
0.00000001
 43
0.00000001
 40
0.0
 40
0.0
 40
1.0
 40
1.0
 10
7.437530377247127
 20
7.492988902268224
 30
0.0
 10
7.445510130196923
 20
7.489722949745687
 30
0.0
  0
ARC
  5
2E8
330
1F
100
AcDbEntity
  8
0
  6
Continuous
 62
     7
370
     0
100
AcDbCircle
 10
7.4468047991
 20
7.4948486886
 30
0.0
 40
0.0052867160061624
100
AcDbArc
 50
255.8246105682
 51
296.54218656
  0
SPLINE
  5
2E9
330
1F
100
AcDbEntity
  8
0
  6
Continuous
 62
     7
370
     0
100
AcDbSpline
210
0.0
220
0.0
230
1.0
 70
     8
 71
     3
 72
    13
 73
     9
 74
     0
 42
0.00000001
 43
0.00000001
 40
0.0
 40
0.0
 40
0.0
 40
0.0
 40
0.1250915069581346
 40
0.2499455687837698
 40
0.3709820857081058
 40
0.5001127109822776
 40
0.7496528854790314
 40
1.0
 40
1.0
 40
1.0
 40
1.0
 10
7.449167203196936
 20
7.490119162901824
 30
0.0
 10
7.449434493911612
 20
7.490298882940428
 30
0.0
 10
7.449968567977352
 20
7.490657981878184
 30
0.0
 10
7.450380534501276
 20
7.491388319547298
 30
0.0
 10
7.450475120656592
 20
7.492187546135318
 30
0.0
 10
7.450209324420468
 20
7.493273655199057
 30
0.0
 10
7.449262313237391
 20
7.494570594729778
 30
0.0
 10
7.448175466495852
 20
7.495438804568892
 30
0.0
 10
7.447631165907202
 20
7.495873610239682
 30
0.0
  0
ARC
  5
2EA
330
1F
100
AcDbEntity
  8
0
  6
Continuous
 62
     7
370
     0
100
AcDbCircle
 10
7.4378340226
 20
7.484762305
 30
0.0
 40
0.0148136802211746
100
AcDbArc
 50
48.5964895412
 51
116.1711130419
  0
LINE
  5
2EB
330
1F
100
AcDbEntity
  8
0
  6
Continuous
 62
     7
370
     0
100
AcDbLine
 10
7.4313003982
 20
7.4980572993
 30
0.0
 11
7.4292456561
 21
7.4968711219
 31
0.0
  0
ARC
  5
2EC
330
1F
100
AcDbEntity
  8
0
  6
Continuous
 62
     7
370
     0
100
AcDbCircle
 10
7.0059546092
 20
6.8590501613
 30
0.0
 40
0.8739433389503793
100
AcDbArc
 50
43.992076913
 51
44.6460653897
  0
SPLINE
  5
2ED
330
1F
100
AcDbEntity
  8
0
  6
Continuous
 62
     7
370
     0
100
AcDbSpline
210
0.0
220
0.0
230
1.0
 70
    24
 71
     1
 72
     4
 73
     2
 74
     0
 42
0.00000001
 43
0.00000001
 40
0.0
 40
0.0
 40
1.0
 40
1.0
 10
7.627731464527095
 20
7.473192247400391
 30
0.0
 10
7.62259436029174
 20
7.477193136103716
 30
0.0
  0
ARC
  5
2EE
330
1F
100
AcDbEntity
  8
0
  6
Continuous
 62
     7
370
     0
100
AcDbCircle
 10
7.6175796805
 20
7.4710820531
 30
0.0
 40
0.0079052102187585
100
AcDbArc
 50
50.6281173455
 51
117.0035753777
  0
SPLINE
  5
2EF
330
1F
100
AcDbEntity
  8
0
  6
Continuous
 62
     7
370
     0
100
AcDbSpline
210
0.0
220
0.0
230
1.0
 70
     8
 71
     3
 72
    12
 73
     8
 74
     0
 42
0.00000001
 43
0.00000001
 40
0.0
 40
0.0
 40
0.0
 40
0.0
 40
0.1254669244528723
 40
0.250600270897516
 40
0.3754476425704327
 40
0.5006747216460369
 40
1.0
 40
1.0
 40
1.0
 40
1.0
 10
7.613990350637176
 20
7.478125423033066
 30
0.0
 10
7.613537121633984
 20
7.477825606544692
 30
0.0
 10
7.612631868624286
 20
7.477226770687881
 30
0.0
 10
7.611756485192423
 20
7.475969027175638
 30
0.0
 10
7.611455875613292
 20
7.474474237332532
 30
0.0
 10
7.612358210255011
 20
7.471291692017967
 30
0.0
 10
7.614616257876939
 20
7.468975739281825
 30
0.0
 10
7.616421551290603
 20
7.467124151130932
 30
0.0
  0
ARC
  5
2F0
330
1F
100
AcDbEntity
  8
0
  6
Continuous
 62
     7
370
     0
100
AcDbCircle
 10
6.9951255182
 20
6.8528741356
 30
0.0
 40
0.8736771956702019
100
AcDbArc
 50
43.9920091112
 51
44.6732596939
  0
LINE
  5
2F1
330
1F
100
AcDbEntity
  8
0
  6
Continuous
 62
     7
370
     0
100
AcDbLine
 10
7.6236809353
 20
7.4596936557
 30
0.0
 11
7.6347007813
 21
7.4660552773
 31
0.0
  0
SPLINE
  5
2F2
330
1F
100
AcDbEntity
  8
0
  6
Continuous
 62
     7
370
     0
100
AcDbSpline
210
0.0
220
0.0
230
1.0
 70
    24
 71
     1
 72
     4
 73
     2
 74
     0
 42
0.00000001
 43
0.00000001
 40
0.0
 40
0.0
 40
1.0
 40
1.0
 10
7.53669883993677
 20
7.543561771584651
 30
0.0
 10
7.569361497842212
 20
7.542243340968282
 30
0.0
  0
ARC
  5
2F3
330
1F
100
AcDbEntity
  8
0
  6
Continuous
 62
     7
370
     0
100
AcDbCircle
 10
7.1228826338
 20
6.9839733641
 30
0.0
 40
0.7148487554487184
100
AcDbArc
 50
51.3487735634
 51
52.8603246152
  0
LINE
  5
2F4
330
1F
100
AcDbEntity
  8
0
  6
Continuous
 62
     7
370
     0
100
AcDbLine
 10
7.5544798205
 20
7.5538265132
 30
0.0
 11
7.5366988399
 21
7.5435617716
 31
0.0
  0
SPLINE
  5
2F5
330
1F
100
AcDbEntity
  8
0
  6
Continuous
 62
     7
370
     0
100
AcDbSpline
210
0.0
220
0.0
230
1.0
 70
     8
 71
     3
 72
    13
 73
     9
 74
     0
 42
0.00000001
 43
0.00000001
 40
0.0
 40
0.0
 40
0.0
 40
0.0
 40
0.5004639766923056
 40
0.6282475802568878
 40
0.7518824419779384
 40
0.8133314421076375
 40
0.8755414302574582
 40
1.0
 40
1.0
 40
1.0
 40
1.0
 10
7.508019121217562
 20
7.579249002147051
 30
0.0
 10
7.511652649413282
 20
7.581407200751597
 30
0.0
 10
7.516213927353493
 20
7.584116452794035
 30
0.0
 10
7.520022645729486
 20
7.588152432270278
 30
0.0
 10
7.52080110023078
 20
7.590073598904974
 30
0.0
 10
7.52074182517017
 20
7.591627756840038
 30
0.0
 10
7.520123178188118
 20
7.59317413893094
 30
0.0
 10
7.518886039601034
 20
7.594116886413381
 30
0.0
 10
7.518061195284132
 20
7.59474544970555
 30
0.0
  0
ARC
  5
2F6
330
1F
100
AcDbEntity
  8
0
  6
Continuous
 62
     7
370
     0
100
AcDbCircle
 10
7.5090794249
 20
7.5728247355
 30
0.0
 40
0.0236894472244387
100
AcDbArc
 50
67.7191765734
 51
135.1559639597
  0
SPLINE
  5
2F7
330
1F
100
AcDbEntity
  8
0
  6
Continuous
 62
     7
370
     0
100
AcDbSpline
210
0.0
220
0.0
230
1.0
 70
     8
 71
     3
 72
    13
 73
     9
 74
     0
 42
0.00000001
 43
0.00000001
 40
0.0
 40
0.0
 40
0.0
 40
0.0
 40
0.5004231501093604
 40
0.6255784393530956
 40
0.7503815851610411
 40
0.8126552223360388
 40
0.8754890600875068
 40
1.0
 40
1.0
 40
1.0
 40
1.0
 10
7.492282920642045
 20
7.589530044751591
 30
0.0
 10
7.488566116960829
 20
7.587327610147321
 30
0.0
 10
7.48391974469414
 20
7.584574349027776
 30
0.0
 10
7.479927746718659
 20
7.580547406129612
 30
0.0
 10
7.479142946640293
 20
7.578615584076024
 30
0.0
 10
7.479287039205977
 20
7.577039428827902
 30
0.0
 10
7.480008917219482
 20
7.575490739634102
 30
0.0
 10
7.481298035648662
 20
7.574539359421681
 30
0.0
 10
7.482154794770946
 20
7.573907064003898
 30
0.0
  0
SPLINE
  5
2F8
330
1F
100
AcDbEntity
  8
0
  6
Continuous
 62
     7
370
     0
100
AcDbSpline
210
0.0
220
0.0
230
1.0
 70
     8
 71
     3
 72
    13
 73
     9
 74
     0
 42
0.00000001
 43
0.00000001
 40
0.0
 40
0.0
 40
0.0
 40
0.0
 40
0.1245513980942017
 40
0.1859899457713178
 40
0.2495609023918205
 40
0.3742835246962662
 40
0.4994689293692304
 40
1.0
 40
1.0
 40
1.0
 40
1.0
 10
7.482154794770946
 20
7.573907064003898
 30
0.0
 10
7.483153315699659
 20
7.573379727277537
 30
0.0
 10
7.484644385701477
 20
7.572592266593514
 30
0.0
 10
7.487155374638702
 20
7.572090019670701
 30
0.0
 10
7.489744362085329
 20
7.571932267183078
 30
0.0
 10
7.492936757841972
 20
7.572365790266129
 30
0.0
 10
7.499641036651992
 20
7.574547606634129
 30
0.0
 10
7.504295702105504
 20
7.577159590686812
 30
0.0
 10
7.508019121217562
 20
7.579249002147051
 30
0.0
  0
SPLINE
  5
2F9
330
1F
100
AcDbEntity
  8
0
  6
Continuous
 62
     7
370
     0
100
AcDbSpline
210
0.0
220
0.0
230
1.0
 70
     8
 71
     3
 72
    13
 73
     9
 74
     0
 42
0.00000001
 43
0.00000001
 40
0.0
 40
0.0
 40
0.0
 40
0.0
 40
0.5004639766923096
 40
0.6282475802571454
 40
0.7518824419784338
 40
0.8133314421077091
 40
0.875541430257521
 40
1.0
 40
1.0
 40
1.0
 40
1.0
 10
7.455158701706948
 20
7.609476439868358
 30
0.0
 10
7.458792204895956
 20
7.611627555769761
 30
0.0
 10
7.463353451444484
 20
7.614327916680533
 30
0.0
 10
7.467163511879803
 20
7.618145838240899
 30
0.0
 10
7.467943427384704
 20
7.619891708379376
 30
0.0
 10
7.467886322543179
 20
7.621255734352552
 30
0.0
 10
7.467270706497659
 20
7.622573574530485
 30
0.0
 10
7.466037303156821
 20
7.623315634725921
 30
0.0
 10
7.465214949261503
 20
7.62381039266282
 30
0.0
  0
ARC
  5
2FA
330
1F
100
AcDbEntity
  8
0
  6
Continuous
 62
     7
370
     0
100
AcDbCircle
 10
7.4579953231
 20
7.5978877144
 30
0.0
 40
0.0269092595601089
100
AcDbArc
 50
74.4371513339
 51
133.5054349742
  0
SPLINE
  5
2FB
330
1F
100
AcDbEntity
  8
0
  6
Continuous
 62
     7
370
     0
100
AcDbSpline
210
0.0
220
0.0
230
1.0
 70
     8
 71
     3
 72
    13
 73
     9
 74
     0
 42
0.00000001
 43
0.00000001
 40
0.0
 40
0.0
 40
0.0
 40
0.0
 40
0.5004231501093915
 40
0.625578439353134
 40
0.7503815851610858
 40
0.8126552223378811
 40
0.8754890600875007
 40
1.0
 40
1.0
 40
1.0
 40
1.0
 10
7.439470359665191
 20
7.617405244476028
 30
0.0
 10
7.435753246971058
 20
7.615209974812802
 30
0.0
 10
7.431106488407656
 20
7.612465670578318
 30
0.0
 10
7.427107123462729
 20
7.608652908275566
 30
0.0
 10
7.426316398492052
 20
7.606904331177768
 30
0.0
 10
7.426454535198464
 20
7.605532691214789
 30
0.0
 10
7.427169855270489
 20
7.604225449564579
 30
0.0
 10
7.42845449623364
 20
7.603480482621476
 30
0.0
 10
7.429308279593754
 20
7.602985371226075
 30
0.0
  0
ARC
  5
2FC
330
1F
100
AcDbEntity
  8
0
  6
Continuous
 62
     7
370
     0
100
AcDbCircle
 10
7.436574517
 20
7.6287675425
 30
0.0
 40
0.0267865369877286
100
AcDbArc
 50
254.2604723108
 51
313.9307351496
  0
ARC
  5
2FD
330
1F
100
AcDbEntity
  8
0
  6
Continuous
 62
     7
370
     0
100
AcDbCircle
 10
7.2325085942
 20
7.5958209547
 30
0.0
 40
0.0209419896362681
100
AcDbArc
 50
260.7056326988
 51
283.4328412333
  0
SPLINE
  5
2FE
330
1F
100
AcDbEntity
  8
0
  6
Continuous
 62
     7
370
     0
100
AcDbSpline
210
0.0
220
0.0
230
1.0
 70
     8
 71
     3
 72
     9
 73
     5
 74
     0
 42
0.00000001
 43
0.00000001
 40
0.0
 40
0.0
 40
0.0
 40
0.0
 40
0.4990303792097008
 40
0.9999999999999999
 40
0.9999999999999999
 40
0.9999999999999999
 40
0.9999999999999999
 10
7.237373532495205
 20
7.575451877506117
 30
0.0
 10
7.238555670000288
 20
7.575772422903184
 30
0.0
 10
7.240924538819367
 20
7.576414759342853
 30
0.0
 10
7.242887403501603
 20
7.577356762841213
 30
0.0
 10
7.243870739077127
 20
7.577828677976571
 30
0.0
  0
ARC
  5
2FF
330
1F
100
AcDbEntity
  8
0
  6
Continuous
 62
     7
370
     0
100
AcDbCircle
 10
7.1708288719
 20
7.2510943063
 30
0.0
 40
0.3347991398171446
100
AcDbArc
 50
77.3986501627
 51
79.9526841275
  0
SPLINE
  5
300
330
1F
100
AcDbEntity
  8
0
  6
Continuous
 62
     7
370
     0
100
AcDbSpline
210
0.0
220
0.0
230
1.0
 70
     8
 71
     3
 72
    14
 73
    10
 74
     0
 42
0.00000001
 43
0.00000001
 40
0.0
 40
0.0
 40
0.0
 40
0.0
 40
0.2498680581563202
 40
0.3817391960433534
 40
0.4998759012711279
 40
0.6215720652071831
 40
0.7497806842470944
 40
0.8748255772341405
 40
1.0
 40
1.0
 40
1.0
 40
1.0
 10
7.229238395247837
 20
7.580758971645411
 30
0.0
 10
7.228411128301244
 20
7.580166414071236
 30
0.0
 10
7.227147260396574
 20
7.579261126482083
 30
0.0
 10
7.22611522551463
 20
7.578073654913886
 30
0.0
 10
7.225797293208904
 20
7.577239281475888
 30
0.0
 10
7.226022713589218
 20
7.576521794174225
 30
0.0
 10
7.226713874008835
 20
7.575929362057214
 30
0.0
 10
7.227762770607143
 20
7.575462582258846
 30
0.0
 10
7.228671646969397
 20
7.57525682952053
 30
0.0
 10
7.229126320397259
 20
7.575153899895878
 30
0.0
  0
SPLINE
  5
301
330
1F
100
AcDbEntity
  8
0
  6
Continuous
 62
     7
370
     0
100
AcDbSpline
210
0.0
220
0.0
230
1.0
 70
     8
 71
     3
 72
    13
 73
     9
 74
     0
 42
0.00000001
 43
0.00000001
 40
0.0
 40
0.0
 40
0.0
 40
0.0
 40
0.2503907102768607
 40
0.4999495678156692
 40
0.6253606354929678
 40
0.7501944146350285
 40
0.8700210567375516
 40
1.0
 40
1.0
 40
1.0
 40
1.0
 10
7.186512176537197
 20
7.587748142139906
 30
0.0
 10
7.185397337582498
 20
7.587084000769197
 30
0.0
 10
7.183171363412095
 20
7.58575792445076
 30
0.0
 10
7.18117569803699
 20
7.584129420633468
 30
0.0
 10
7.180533736009724
 20
7.583024877484441
 30
0.0
 10
7.180648539431171
 20
7.582369852800545
 30
0.0
 10
7.181375943155571
 20
7.58191504746153
 30
0.0
 10
7.182331800810941
 20
7.581827711419456
 30
0.0
 10
7.182829153052977
 20
7.581782268694704
 30
0.0
  0
ARC
  5
302
330
1F
100
AcDbEntity
  8
0
  6
Continuous
 62
     7
370
     0
100
AcDbCircle
 10
7.1805306741
 20
7.6138077279
 30
0.0
 40
0.0321078345865663
100
AcDbArc
 50
274.105100401
 51
305.0280428303
  0
SPLINE
  5
303
330
1F
100
AcDbEntity
  8
0
  6
Continuous
 62
     7
370
     0
100
AcDbSpline
210
0.0
220
0.0
230
1.0
 70
     8
 71
     3
 72
    13
 73
     9
 74
     0
 42
0.00000001
 43
0.00000001
 40
0.0
 40
0.0
 40
0.0
 40
0.0
 40
0.2504308113691466
 40
0.5001650640267739
 40
0.6247953729383701
 40
0.7514764919592601
 40
0.8754581573943627
 40
0.9999999999999999
 40
0.9999999999999999
 40
0.9999999999999999
 40
0.9999999999999999
 10
7.198959842046129
 20
7.587515546360028
 30
0.0
 10
7.200050532270942
 20
7.588165788938271
 30
0.0
 10
7.202228879029255
 20
7.589464465482909
 30
0.0
 10
7.204339683080049
 20
7.591101324256778
 30
0.0
 10
7.205130331524751
 20
7.592263141297131
 30
0.0
 10
7.205194250454069
 20
7.592998070290199
 30
0.0
 10
7.204626931392387
 20
7.59353302533482
 30
0.0
 10
7.203691503526772
 20
7.593620255034026
 30
0.0
 10
7.203222735357004
 20
7.59366396819241
 30
0.0
  0
ARC
  5
304
330
1F
100
AcDbEntity
  8
0
  6
Continuous
 62
     7
370
     0
100
AcDbCircle
 10
7.2061715935
 20
7.558775019
 30
0.0
 40
0.0350133480126738
100
AcDbArc
 50
94.8312291274
 51
124.1584534198
  0
ARC
  5
305
330
1F
100
AcDbEntity
  8
0
  6
Continuous
 62
     7
370
     0
100
AcDbCircle
 10
7.5298171416
 20
7.1309283633
 30
0.0
 40
0.9015692555233822
100
AcDbArc
 50
2.4356252457
 51
57.5589982216
  0
SPLINE
  5
306
330
1F
100
AcDbEntity
  8
0
  6
Continuous
 62
     7
370
     0
100
AcDbSpline
210
0.0
220
0.0
230
1.0
 70
     8
 71
     3
 72
    13
 73
     9
 74
     0
 42
0.00000001
 43
0.00000001
 40
0.0
 40
0.0
 40
0.0
 40
0.0
 40
0.5004639766923102
 40
0.6282475802591589
 40
0.7518824419781327
 40
0.8133314421054583
 40
0.8755414302558442
 40
1.0
 40
1.0
 40
1.0
 40
1.0
 10
7.326713577499809
 20
7.650005651962871
 30
0.0
 10
7.33035033437487
 20
7.652137610621303
 30
0.0
 10
7.334915665374016
 20
7.654813922865046
 30
0.0
 10
7.338830466095944
 20
7.658043686937655
 30
0.0
 10
7.339695408660932
 20
7.659317035425246
 30
0.0
 10
7.33973179326934
 20
7.660169005716959
 30
0.0
 10
7.339229466517398
 20
7.660871674808124
 30
0.0
 10
7.338097867078137
 20
7.66107437658644
 30
0.0
 10
7.337343389466471
 20
7.661209525074748
 30
0.0
  0
ARC
  5
307
330
1F
100
AcDbEntity
  8
0
  6
Continuous
 62
     7
370
     0
100
AcDbCircle
 10
7.340031749
 20
7.6164977828
 30
0.0
 40
0.0447924901172377
100
AcDbArc
 50
93.4408509476
 51
128.3701420956
  0
SPLINE
  5
308
330
1F
100
AcDbEntity
  8
0
  6
Continuous
 62
     7
370
     0
100
AcDbSpline
210
0.0
220
0.0
230
1.0
 70
     8
 71
     3
 72
    13
 73
     9
 74
     0
 42
0.00000001
 43
0.00000001
 40
0.0
 40
0.0
 40
0.0
 40
0.0
 40
0.5004231501094409
 40
0.6255784393531968
 40
0.7503815851611629
 40
0.8126552223368849
 40
0.875489060087487
 40
1.0
 40
1.0
 40
1.0
 40
1.0
 10
7.312227290137241
 20
7.651615858473853
 30
0.0
 10
7.308506162921429
 20
7.649439708262453
 30
0.0
 10
7.303854385808813
 20
7.64671930523404
 30
0.0
 10
7.299739060491487
 20
7.643479533924421
 30
0.0
 10
7.298849941715625
 20
7.642221480866883
 30
0.0
 10
7.298879683948979
 20
7.641397814211642
 30
0.0
 10
7.29946805920255
 20
7.640737869805688
 30
0.0
 10
7.300646616812266
 20
7.640547155392115
 30
0.0
 10
7.301429896269302
 20
7.640420404963386
 30
0.0
  0
ARC
  5
309
330
1F
100
AcDbEntity
  8
0
  6
Continuous
 62
     7
370
     0
100
AcDbCircle
 10
7.2991408502
 20
7.68459728
 30
0.0
 40
0.0442361392685916
100
AcDbArc
 50
272.9661557299
 51
308.5580863766
  0
ARC
  5
30A
330
1F
100
AcDbEntity
  8
0
  6
Continuous
 62
     7
370
     0
100
AcDbCircle
 10
7.1660908986
 20
7.3650663664
 30
0.0
 40
0.2156736847637448
100
AcDbArc
 50
103.8269007022
 51
104.7129237876
  0
ARC
  5
30B
330
1F
100
AcDbEntity
  8
0
  6
Continuous
 62
     7
370
     0
100
AcDbCircle
 10
7.1256435976
 20
7.5214964318
 30
0.0
 40
0.054103657479057
100
AcDbArc
 50
105.3572825978
 51
120.3580889426
  0
SPLINE
  5
30C
330
1F
100
AcDbEntity
  8
0
  6
Continuous
 62
     7
370
     0
100
AcDbSpline
210
0.0
220
0.0
230
1.0
 70
     8
 71
     3
 72
    13
 73
     9
 74
     0
 42
0.00000001
 43
0.00000001
 40
0.0
 40
0.0
 40
0.0
 40
0.0
 40
0.2485126094817095
 40
0.3782641238603638
 40
0.4992248968171544
 40
0.5972187856418242
 40
0.7114003712183963
 40
1.0
 40
1.0
 40
1.0
 40
1.0
 10
7.098299462322599
 20
7.568181590280767
 30
0.0
 10
7.09741687602439
 20
7.567649885518657
 30
0.0
 10
7.096073480477904
 20
7.566840571108369
 30
0.0
 10
7.095200403608766
 20
7.566112074036635
 30
0.0
 10
7.095003883729706
 20
7.565780319411652
 30
0.0
 10
7.095320537597207
 20
7.565697316221881
 30
0.0
 10
7.096257269216363
 20
7.565800347261606
 30
0.0
 10
7.097450924284367
 20
7.566103808626837
 30
0.0
 10
7.098306198555457
 20
7.566321243885069
 30
0.0
  0
ARC
  5
30D
330
1F
100
AcDbEntity
  8
0
  6
Continuous
 62
     7
370
     0
100
AcDbCircle
 10
7.1535659338
 20
7.3579985941
 30
0.0
 40
0.2155271786679746
100
AcDbArc
 50
103.8266836758
 51
104.8561633385
  0
LINE
  5
30E
330
1F
100
AcDbEntity
  8
0
  6
Continuous
 62
     7
370
     0
100
AcDbLine
 10
7.1020580187
 20
7.5672804601
 30
0.0
 11
7.1145471775
 21
7.574490298
 31
0.0
  0
SPLINE
  5
30F
330
1F
100
AcDbEntity
  8
0
  6
Continuous
 62
     7
370
     0
100
AcDbSpline
210
0.0
220
0.0
230
1.0
 70
     8
 71
     3
 72
    13
 73
     9
 74
     0
 42
0.00000001
 43
0.00000001
 40
0.0
 40
0.0
 40
0.0
 40
0.0
 40
0.5004639766923273
 40
0.6282475802583346
 40
0.7518824419730609
 40
0.8133314421060968
 40
0.8755414302563167
 40
1.0
 40
1.0
 40
1.0
 40
1.0
 10
7.278911961538228
 20
7.651540828904452
 30
0.0
 10
7.282551293323468
 20
7.653664856795626
 30
0.0
 10
7.287119856685303
 20
7.656331213307142
 30
0.0
 10
7.291115399977294
 20
7.65931809814237
 30
0.0
 10
7.292045516975589
 20
7.660396429410739
 30
0.0
 10
7.29215299874941
 20
7.661037235254746
 30
0.0
 10
7.291736425520186
 20
7.661486338634033
 30
0.0
 10
7.290680874228678
 20
7.661467034222643
 30
0.0
 10
7.289977100623124
 20
7.661454163284666
 30
0.0
  0
ARC
  5
310
330
1F
100
AcDbEntity
  8
0
  6
Continuous
 62
     7
370
     0
100
AcDbCircle
 10
7.3032604258
 20
7.5980798279
 30
0.0
 40
0.0647514718851152
100
AcDbArc
 50
101.8378829071
 51
125.8695187297
  0
SPLINE
  5
311
330
1F
100
AcDbEntity
  8
0
  6
Continuous
 62
     7
370
     0
100
AcDbSpline
210
0.0
220
0.0
230
1.0
 70
     8
 71
     3
 72
    13
 73
     9
 74
     0
 42
0.00000001
 43
0.00000001
 40
0.0
 40
0.0
 40
0.0
 40
0.0
 40
0.5004231501093814
 40
0.6255784393531197
 40
0.7503815851610686
 40
0.8126552223382243
 40
0.8754890600875054
 40
1.0
 40
1.0
 40
1.0
 40
1.0
 10
7.265319862072257
 20
7.650551408172814
 30
0.0
 10
7.261595897701486
 20
7.648383076873978
 30
0.0
 10
7.256940573864521
 20
7.645672448259715
 30
0.0
 10
7.25274173774146
 20
7.64266754757427
 30
0.0
 10
7.251781432945625
 20
7.641610671691751
 30
0.0
 10
7.251732182634305
 20
7.641011934690436
 30
0.0
 10
7.252227629578799
 20
7.64061782753327
 30
0.0
 10
7.253327527467692
 20
7.640655065795631
 30
0.0
 10
7.254058529002205
 20
7.64067981466296
 30
0.0
  0
ARC
  5
312
330
1F
100
AcDbEntity
  8
0
  6
Continuous
 62
     7
370
     0
100
AcDbCircle
 10
7.2417310142
 20
7.7027558246
 30
0.0
 40
0.0632882187393675
100
AcDbArc
 50
281.2320895439
 51
305.9788148374
  0
SPLINE
  5
313
330
1F
100
AcDbEntity
  8
0
  6
Continuous
 62
     7
370
     0
100
AcDbSpline
210
0.0
220
0.0
230
1.0
 70
     8
 71
     3
 72
     9
 73
     5
 74
     0
 42
0.00000001
 43
0.00000001
 40
0.0
 40
0.0
 40
0.0
 40
0.0
 40
0.4999994377870661
 40
1.0
 40
1.0
 40
1.0
 40
1.0
 10
7.078084494429617
 20
7.562926346547386
 30
0.0
 10
7.079186132788173
 20
7.563543904070029
 30
0.0
 10
7.08138941198271
 20
7.56477902050411
 30
0.0
 10
7.083497975391752
 20
7.565915752312673
 30
0.0
 10
7.084552258281734
 20
7.566484118856039
 30
0.0
  0
SPLINE
  5
314
330
1F
100
AcDbEntity
  8
0
  6
Continuous
 62
     7
370
     0
100
AcDbSpline
210
0.0
220
0.0
230
1.0
 70
    24
 71
     1
 72
     4
 73
     2
 74
     0
 42
0.00000001
 43
0.00000001
 40
0.0
 40
0.0
 40
1.0
 40
1.0
 10
7.084552258281734
 20
7.566484118856039
 30
0.0
 10
7.090973937694121
 20
7.569887198890536
 30
0.0
  0
ARC
  5
315
330
1F
100
AcDbEntity
  8
0
  6
Continuous
 62
     7
370
     0
100
AcDbCircle
 10
7.0347796143
 20
7.6756129049
 30
0.0
 40
0.1197318958809149
100
AcDbArc
 50
297.9911137119
 51
299.8109076423
  0
SPLINE
  5
316
330
1F
100
AcDbEntity
  8
0
  6
Continuous
 62
     7
370
     0
100
AcDbSpline
210
0.0
220
0.0
230
1.0
 70
     8
 71
     3
 72
    13
 73
     9
 74
     0
 42
0.00000001
 43
0.00000001
 40
0.0
 40
0.0
 40
0.0
 40
0.0
 40
0.1250915069580428
 40
0.2499455687835954
 40
0.3709820857069081
 40
0.5001127109825984
 40
0.7496528854791943
 40
1.0
 40
1.0
 40
1.0
 40
1.0
 10
7.094303027484472
 20
7.571725031808332
 30
0.0
 10
7.094575145147738
 20
7.571883419690811
 30
0.0
 10
7.09511886394828
 20
7.572199894808405
 30
0.0
 10
7.095624588357445
 20
7.572516644571207
 30
0.0
 10
7.095861587603792
 20
7.572689928171829
 30
0.0
 10
7.095834355391839
 20
7.572732590494478
 30
0.0
 10
7.095245593682061
 20
7.572474220316431
 30
0.0
 10
7.094455457108984
 20
7.572074753996891
 30
0.0
 10
7.094059751085862
 20
7.571874698419079
 30
0.0
  0
ARC
  5
317
330
1F
100
AcDbEntity
  8
0
  6
Continuous
 62
     7
370
     0
100
AcDbCircle
 10
7.2725460524
 20
7.2354177954
 30
0.0
 40
0.3808682283584776
100
AcDbArc
 50
117.9454075637
 51
120.3432677767
  0
LINE
  5
318
330
1F
100
AcDbEntity
  8
0
  6
Continuous
 62
     7
370
     0
100
AcDbLine
 10
7.0801392365
 20
7.5641125239
 30
0.0
 11
7.0780844944
 21
7.5629263465
 31
0.0
  0
ARC
  5
319
330
1F
100
AcDbEntity
  8
0
  6
Continuous
 62
     7
370
     0
100
AcDbCircle
 10
7.4279822054
 20
6.8149967933
 30
0.0
 40
0.288182308495219
100
AcDbArc
 50
235.0494259705
 51
280.2132058934
  0
SPLINE
  5
31A
330
1F
100
AcDbEntity
  8
0
  6
Continuous
 62
     7
370
     0
100
AcDbSpline
210
0.0
220
0.0
230
1.0
 70
    24
 71
     1
 72
     4
 73
     2
 74
     0
 42
0.00000001
 43
0.00000001
 40
0.0
 40
0.0
 40
1.0
 40
1.0
 10
7.265102611288171
 20
6.575506746667883
 30
0.0
 10
7.262891326011893
 20
6.578789163316351
 30
0.0
  0
LWPOLYLINE
  5
31B
330
1F
100
AcDbEntity
  8
0
  6
Continuous
 62
     7
370
     0
100
AcDbPolyline
 90
       12
 70
   128
 43
0.0
 10
7.2643132471
 20
6.61891412
 10
7.2917727307
 20
6.6036886837
 10
7.3190831359
 20
6.591281362
 10
7.346040999
 20
6.5817845901
 10
7.3724454823
 20
6.5752691193
 10
7.3980998712
 20
6.5717834903
 10
7.4228130392
 20
6.5713536712
 10
7.4464008718
 20
6.5739828641
 10
7.4686876386
 20
6.5796514815
 10
7.489507302
 20
6.5883172918
 10
7.5087047545
 20
6.5999157344
 10
7.5168520828
 20
6.6061318906
  0
LINE
  5
31C
330
1F
100
AcDbEntity
  8
0
  6
Continuous
 62
     7
370
     0
100
AcDbLine
 10
7.262891326
 20
6.5787891633
 30
0.0
 11
7.2643132471
 21
6.61891412
 31
0.0
  0
LINE
  5
31D
330
1F
100
AcDbEntity
  8
0
  6
Continuous
 62
     7
370
     0
100
AcDbLine
 10
7.2643132471
 20
6.61891412
 30
0.0
 11
7.2819909167
 21
6.6291192214
 31
0.0
  0
ARC
  5
31E
330
1F
100
AcDbEntity
  8
0
  6
Continuous
 62
     7
370
     0
100
AcDbCircle
 10
7.5147396916
 20
7.0141581662
 30
0.0
 40
0.4499188606951227
100
AcDbArc
 50
237.2572312298
 51
238.8478301564
  0
LINE
  5
31F
330
1F
100
AcDbEntity
  8
0
  6
Continuous
 62
     7
370
     0
100
AcDbLine
 10
7.2537151635
 20
6.6255230347
 30
0.0
 11
7.271392833
 21
6.6357281361
 31
0.0
  0
LWPOLYLINE
  5
320
330
1F
100
AcDbEntity
  8
0
  6
Continuous
 62
     7
370
     0
100
AcDbPolyline
 90
       29
 70
   128
 43
0.0
 10
7.0688711064
 20
7.3821417847
 10
7.0540174081
 20
7.3755957201
 10
7.0348199557
 20
7.3639972775
 10
7.0173877362
 20
7.3495526118
 10
7.0018506206
 20
7.3323693363
 10
6.9883243612
 20
7.3125754673
 10
6.9769097293
 20
7.2903184702
 10
6.9676917645
 20
7.2657641607
 10
6.9607391411
 20
7.2390954698
 10
6.9561036565
 20
7.2105110804
 10
6.9538198453
 20
7.1802239479
 10
6.953904722
 20
7.1484597127
 10
6.9563576543
 20
7.1154550202
 10
6.9611603677
 20
7.0814557569
 10
6.9682770818
 20
7.0467152192
 10
6.9776547766
 20
7.0114922257
 10
6.9892235879
 20
6.9760491896
 10
7.0028973274
 20
6.9406501634
 10
7.018574125
 20
6.9055588714
 10
7.0361371879
 20
6.8710367458
 10
7.0554556703
 20
6.837340978
 10
7.0763856486
 20
6.8047226033
 10
7.0987711932
 20
6.7734246302
 10
7.1224455309
 20
6.7436802302
 10
7.1472322865
 20
6.7157110006
 10
7.1729467974
 20
6.6897253136
 10
7.1993974893
 20
6.6659167639
 10
7.2263873032
 20
6.6444627264
 10
7.2537151635
 20
6.6255230347
  0
LWPOLYLINE
  5
321
330
1F
100
AcDbEntity
  8
0
  6
Continuous
 62
     7
370
     0
100
AcDbPolyline
 90
       34
 70
   128
 43
0.0
 10
7.0727961496
 20
7.3810846533
 10
7.0593595675
 20
7.3662114232
 10
7.0455654745
 20
7.3463570949
 10
7.033923397
 20
7.3239779925
 10
7.0245219384
 20
7.2992444345
 10
7.0174326494
 20
7.272344658
 10
7.0127094839
 20
7.2434833867
 10
7.0103883878
 20
7.2128802723
 10
7.0104870262
 20
7.180768223
 10
7.0130046484
 20
7.1473916308
 10
7.0179220938
 20
7.1130045117
 10
7.0252019376
 20
7.0778685725
 10
7.0347887758
 20
7.042251219
 10
7.0466096468
 20
7.0064235206
 10
7.0605745866
 20
6.9706581478
 10
7.0765773137
 20
6.9352272966
 10
7.0944960375
 20
6.9004006174
 10
7.1141943858
 20
6.866443162
 10
7.1355224422
 20
6.8336133673
 10
7.1583178874
 20
6.8021610878
 10
7.1824072343
 20
6.7723256943
 10
7.2076071484
 20
6.7443342522
 10
7.2337258431
 20
6.7183997933
 10
7.2605645394
 20
6.6947196945
 10
7.2879189786
 20
6.6734741756
 10
7.3155809769
 20
6.6548249278
 10
7.3433400097
 20
6.6389138833
 10
7.3709848142
 20
6.6258621345
 10
7.3983049966
 20
6.6157690133
 10
7.4250926339
 20
6.6087113344
 10
7.451143856
 20
6.604742811
 10
7.4762603972
 20
6.6038936459
 10
7.5002511057
 20
6.6061703017
 10
7.5178994702
 20
6.6100595452
  0
LWPOLYLINE
  5
322
330
1F
100
AcDbEntity
  8
0
  6
Continuous
 62
     7
370
     0
100
AcDbPolyline
 90
       28
 70
   128
 43
0.0
 10
6.9852492932
 20
7.3868138234
 10
6.9825330308
 20
7.3839871589
 10
6.9668524971
 20
7.3649336428
 10
6.9532152522
 20
7.3433136865
 10
6.9417126832
 20
7.3192721716
 10
6.9324218722
 20
7.2929702072
 10
6.9254050796
 20
7.2645840504
 10
6.9207093269
 20
7.234303925
 10
6.9183660817
 20
7.2023327467
 10
6.9183910469
 20
7.1688847638
 10
6.9207840549
 20
7.1341841207
 10
6.9255290698
 20
7.0984633566
 10
6.9325942937
 20
7.0619618464
 10
6.9419323804
 20
7.0249241974
 10
6.953480753
 20
6.9875986095
 10
6.9671620222
 20
6.9502352122
 10
6.9828845061
 20
6.9130843885
 10
7.0005428437
 20
6.8763950967
 10
7.0200187014
 20
6.8404132023
 10
7.0411815659
 20
6.8053798304
 10
7.0638896187
 20
6.7715297496
 10
7.0879906867
 20
6.7390897992
 10
7.1133232615
 20
6.7082773687
 10
7.1397175824
 20
6.6792989408
 10
7.1669967733
 20
6.6523487086
 10
7.1949780287
 20
6.6276072732
 10
7.2234738379
 20
6.6052404341
 10
7.2522932424
 20
6.585398078
  0
SPLINE
  5
323
330
1F
100
AcDbEntity
  8
0
  6
Continuous
 62
     7
370
     0
100
AcDbSpline
210
0.0
220
0.0
230
1.0
 70
    24
 71
     1
 72
     4
 73
     2
 74
     0
 42
0.00000001
 43
0.00000001
 40
0.0
 40
0.0
 40
1.0
 40
1.0
 10
7.252293242352752
 20
6.585398078046342
 30
0.0
 10
7.254504523124961
 20
6.582115655983134
 30
0.0
  0
LINE
  5
324
330
1F
100
AcDbEntity
  8
0
  6
Continuous
 62
     7
370
     0
100
AcDbLine
 10
7.2522932424
 20
6.585398078
 30
0.0
 11
7.2537151635
 21
6.6255230347
 31
0.0
  0
LINE
  5
325
330
1F
100
AcDbEntity
  8
0
  6
Continuous
 62
     7
370
     0
100
AcDbLine
 10
7.2709324008
 20
6.6227352761
 30
0.0
 11
7.271392833
 21
6.6357281361
 31
0.0
  0
SPLINE
  5
326
330
1F
100
AcDbEntity
  8
0
  6
Continuous
 62
     7
370
     0
100
AcDbSpline
210
0.0
220
0.0
230
1.0
 70
    24
 71
     1
 72
     4
 73
     2
 74
     0
 42
0.00000001
 43
0.00000001
 40
0.0
 40
0.0
 40
1.0
 40
1.0
 10
7.537632780321633
 20
6.442666833119809
 30
0.0
 10
7.535768653253167
 20
6.441647941497344
 30
0.0
  0
SPLINE
  5
327
330
1F
100
AcDbEntity
  8
0
  6
Continuous
 62
     7
370
     0
100
AcDbSpline
210
0.0
220
0.0
230
1.0
 70
     8
 71
     3
 72
     9
 73
     5
 74
     0
 42
0.00000001
 43
0.00000001
 40
0.0
 40
0.0
 40
0.0
 40
0.0
 40
0.0339071138411977
 40
1.0
 40
1.0
 40
1.0
 40
1.0
 10
7.527032340386474
 20
6.436521460505037
 30
0.0
 10
7.527152981136458
 20
6.436590352923591
 30
0.0
 10
7.530710958690912
 20
6.438622151291242
 30
0.0
 10
7.534231556155788
 20
6.440679369369311
 30
0.0
 10
7.537632780321633
 20
6.442666833119809
 30
0.0
  0
SPLINE
  5
328
330
1F
100
AcDbEntity
  8
0
  6
Continuous
 62
     7
370
     0
100
AcDbSpline
210
0.0
220
0.0
230
1.0
 70
     8
 71
     3
 72
     9
 73
     5
 74
     0
 42
0.00000001
 43
0.00000001
 40
0.0
 40
0.0
 40
0.0
 40
0.0
 40
0.8049895461636587
 40
1.0
 40
1.0
 40
1.0
 40
1.0
 10
7.558763440155686
 20
6.454877157230688
 30
0.0
 10
7.561235146866277
 20
6.456282686183384
 30
0.0
 10
7.564305629858721
 20
6.45802870755645
 30
0.0
 10
7.565232413872708
 20
6.458580151561025
 30
0.0
 10
7.565413146443883
 20
6.458687688906624
 30
0.0
  0
SPLINE
  5
329
330
1F
100
AcDbEntity
  8
0
  6
Continuous
 62
     7
370
     0
100
AcDbSpline
210
0.0
220
0.0
230
1.0
 70
    24
 71
     1
 72
     4
 73
     2
 74
     0
 42
0.00000001
 43
0.00000001
 40
0.0
 40
0.0
 40
1.0
 40
1.0
 10
7.554144943720413
 20
6.452266306913813
 30
0.0
 10
7.558763440155686
 20
6.454877157230688
 30
0.0
  0
ARC
  5
32A
330
1F
100
AcDbEntity
  8
0
  6
Continuous
 62
     7
370
     0
100
AcDbCircle
 10
7.580939049
 20
6.899511005
 30
0.0
 40
0.8259748274928892
100
AcDbArc
 50
118.5478986688
 51
119.8174094658
  0
SPLINE
  5
32B
330
1F
100
AcDbEntity
  8
0
  6
Continuous
 62
     7
370
     0
100
AcDbSpline
210
0.0
220
0.0
230
1.0
 70
     8
 71
     3
 72
     9
 73
     5
 74
     0
 42
0.00000001
 43
0.00000001
 40
0.0
 40
0.0
 40
0.0
 40
0.0
 40
0.8808436694808136
 40
1.0
 40
1.0
 40
1.0
 40
1.0
 10
7.059181597681061
 20
7.551807130203574
 30
0.0
 10
7.056756367111706
 20
7.550522072607405
 30
0.0
 10
7.054003062917803
 20
7.54906317854857
 30
0.0
 10
7.052362700379012
 20
7.548095390309525
 30
0.0
 10
7.052167240798169
 20
7.547980072214241
 30
0.0
  0
ARC
  5
32C
330
1F
100
AcDbEntity
  8
0
  6
Continuous
 62
     7
370
     0
100
AcDbCircle
 10
7.5931022631
 20
6.7057597975
 30
0.0
 40
0.2001432580977495
100
AcDbArc
 50
299.9976529081
 51
302.6096351117
  0
ARC
  5
32D
330
1F
100
AcDbEntity
  8
0
  6
Continuous
 62
     7
370
     0
100
AcDbCircle
 10
7.5358034173
 20
6.6726722063
 30
0.0
 40
0.2001348819898436
100
AcDbArc
 50
299.9975982399
 51
302.6096897799
  0
LINE
  5
32E
330
1F
100
AcDbEntity
  8
0
  6
Continuous
 62
     7
370
     0
100
AcDbLine
 10
7.5751885655
 20
4.5532470155
 30
0.0
 11
10.3382276389
 21
4.5532470155
 31
0.0
  0
LINE
  5
32F
330
1F
100
AcDbEntity
  8
0
  6
Continuous
 62
     7
370
     0
100
AcDbLine
 10
10.3382276389
 20
4.5532470155
 30
0.0
 11
7.5592551902
 21
4.8990942005
 31
0.0
  0
LINE
  5
330
330
1F
100
AcDbEntity
  8
0
  6
Continuous
 62
     7
370
     0
100
AcDbLine
 10
10.3382276389
 20
4.5532470155
 30
0.0
 11
7.5589816585
 21
4.2044502008
 31
0.0
  0
LINE
  5
331
330
1F
100
AcDbEntity
  8
0
  6
Continuous
 62
     7
370
     0
100
AcDbLine
 10
7.5751885655
 20
4.5532470155
 30
0.0
 11
6.7877969052
 21
4.5532470155
 31
0.0
  0
LINE
  5
332
330
1F
100
AcDbEntity
  8
0
  6
Continuous
 62
     7
370
     0
100
AcDbLine
 10
6.7877969052
 20
4.5532470155
 30
0.0
 11
2.9546449617
 21
4.5532470155
 31
0.0
  0
LINE
  5
333
330
1F
100
AcDbEntity
  8
0
  6
Continuous
 62
     7
370
     0
100
AcDbLine
 10
2.9546449617
 20
4.5532470155
 30
0.0
 11
6.7996571324
 21
4.8990942005
 31
0.0
  0
LINE
  5
334
330
1F
100
AcDbEntity
  8
0
  6
Continuous
 62
     7
370
     0
100
AcDbLine
 10
2.9546449617
 20
4.5532470155
 30
0.0
 11
6.7998605433
 21
4.2044502008
 31
0.0
  0
LINE
  5
335
330
1F
100
AcDbEntity
  8
0
  6
Continuous
 62
     7
370
     0
100
AcDbLine
 10
7.5645167144
 20
4.0357470155
 30
0.0
 11
7.6171962064
 21
4.0357470155
 31
0.0
  0
LINE
  5
336
330
1F
100
AcDbEntity
  8
0
  6
Continuous
 62
     7
370
     0
100
AcDbLine
 10
7.6171962064
 20
5.0707470155
 30
0.0
 11
7.5645167144
 21
5.0707470155
 31
0.0
  0
LINE
  5
337
330
1F
100
AcDbEntity
  8
0
  6
Continuous
 62
     7
370
     0
100
AcDbLine
 10
7.5471962064
 20
5.0607470155
 30
0.0
 11
7.5645167144
 21
5.0707470155
 31
0.0
  0
LINE
  5
338
330
1F
100
AcDbEntity
  8
0
  6
Continuous
 62
     7
370
     0
100
AcDbLine
 10
7.5645167144
 20
4.0357470155
 30
0.0
 11
7.5471962064
 21
4.0457470155
 31
0.0
  0
LINE
  5
339
330
1F
100
AcDbEntity
  8
0
  6
Continuous
 62
     7
370
     0
100
AcDbLine
 10
7.6271962064
 20
4.1040082524
 30
0.0
 11
7.6021962064
 21
4.1040082524
 31
0.0
  0
LINE
  5
33A
330
1F
100
AcDbEntity
  8
0
  6
Continuous
 62
     7
370
     0
100
AcDbLine
 10
7.6021962064
 20
4.1033858308
 30
0.0
 11
7.6021962064
 21
4.1040082524
 31
0.0
  0
LINE
  5
33B
330
1F
100
AcDbEntity
  8
0
  6
Continuous
 62
     7
370
     0
100
AcDbLine
 10
7.6271962064
 20
4.1033858308
 30
0.0
 11
7.6021962064
 21
4.1033858308
 31
0.0
  0
LINE
  5
33C
330
1F
100
AcDbEntity
  8
0
  6
Continuous
 62
     7
370
     0
100
AcDbLine
 10
7.6271962064
 20
4.1032470155
 30
0.0
 11
7.6271962064
 21
4.1033858308
 31
0.0
  0
LINE
  5
33D
330
1F
100
AcDbEntity
  8
0
  6
Continuous
 62
     7
370
     0
100
AcDbLine
 10
7.5471962064
 20
4.1032470155
 30
0.0
 11
7.6271962064
 21
4.1032470155
 31
0.0
  0
LINE
  5
33E
330
1F
100
AcDbEntity
  8
0
  6
Continuous
 62
     7
370
     0
100
AcDbLine
 10
7.6271962064
 20
5.0032470155
 30
0.0
 11
7.5471962064
 21
5.0032470155
 31
0.0
  0
LINE
  5
33F
330
1F
100
AcDbEntity
  8
0
  6
Continuous
 62
     7
370
     0
100
AcDbLine
 10
7.6271962064
 20
4.1040082524
 30
0.0
 11
7.6271962064
 21
5.0032470155
 31
0.0
  0
LINE
  5
340
330
1F
100
AcDbEntity
  8
0
  6
Continuous
 62
     7
370
     0
100
AcDbLine
 10
7.6171962064
 20
5.0707470155
 30
0.0
 11
7.6271962064
 21
5.0534265074
 31
0.0
  0
LINE
  5
341
330
1F
100
AcDbEntity
  8
0
  6
Continuous
 62
     7
370
     0
100
AcDbLine
 10
7.6271962064
 20
4.1032470155
 30
0.0
 11
7.6271962064
 21
4.0530675235
 31
0.0
  0
LINE
  5
342
330
1F
100
AcDbEntity
  8
0
  6
Continuous
 62
     7
370
     0
100
AcDbLine
 10
7.6271962064
 20
4.0530675235
 30
0.0
 11
7.6171962064
 21
4.0357470155
 31
0.0
  0
LINE
  5
343
330
1F
100
AcDbEntity
  8
0
  6
Continuous
 62
     7
370
     0
100
AcDbLine
 10
7.5471962064
 20
4.1032470155
 30
0.0
 11
7.5471962064
 21
4.0457470155
 31
0.0
  0
LINE
  5
344
330
1F
100
AcDbEntity
  8
0
  6
Continuous
 62
     7
370
     0
100
AcDbLine
 10
7.6271962064
 20
5.0534265074
 30
0.0
 11
7.6271962064
 21
5.0032470155
 31
0.0
  0
LINE
  5
345
330
1F
100
AcDbEntity
  8
0
  6
Continuous
 62
     7
370
     0
100
AcDbLine
 10
7.5471962064
 20
5.0607470155
 30
0.0
 11
7.5471962064
 21
5.0032470155
 31
0.0
  0
LINE
  5
346
330
1F
100
AcDbEntity
  8
0
  6
Continuous
 62
     7
370
     0
100
AcDbLine
 10
7.6271962064
 20
4.1033858308
 30
0.0
 11
7.6271962064
 21
4.1040082524
 31
0.0
  0
LINE
  5
347
330
1F
100
AcDbEntity
  8
0
  6
Continuous
 62
     7
370
     0
100
AcDbLine
 10
6.8087147758
 20
4.0457470155
 30
0.0
 11
6.7913942677
 21
4.0357470155
 31
0.0
  0
LINE
  5
348
330
1F
100
AcDbEntity
  8
0
  6
Continuous
 62
     7
370
     0
100
AcDbLine
 10
6.7913942677
 20
5.0707470155
 30
0.0
 11
6.8087147758
 21
5.0607470155
 31
0.0
  0
LINE
  5
349
330
1F
100
AcDbEntity
  8
0
  6
Continuous
 62
     7
370
     0
100
AcDbLine
 10
6.7913942677
 20
5.0707470155
 30
0.0
 11
6.7387147758
 21
5.0707470155
 31
0.0
  0
LINE
  5
34A
330
1F
100
AcDbEntity
  8
0
  6
Continuous
 62
     7
370
     0
100
AcDbLine
 10
6.7387147758
 20
4.0357470155
 30
0.0
 11
6.7913942677
 21
4.0357470155
 31
0.0
  0
LINE
  5
34B
330
1F
100
AcDbEntity
  8
0
  6
Continuous
 62
     7
370
     0
100
AcDbLine
 10
6.7287147758
 20
4.1033703417
 30
0.0
 11
6.7537147758
 21
4.1033703417
 31
0.0
  0
LINE
  5
34C
330
1F
100
AcDbEntity
  8
0
  6
Continuous
 62
     7
370
     0
100
AcDbLine
 10
6.7537147758
 20
4.1039713787
 30
0.0
 11
6.7537147758
 21
4.1033703417
 31
0.0
  0
LINE
  5
34D
330
1F
100
AcDbEntity
  8
0
  6
Continuous
 62
     7
370
     0
100
AcDbLine
 10
6.7287147758
 20
4.1039713787
 30
0.0
 11
6.7537147758
 21
4.1039713787
 31
0.0
  0
LINE
  5
34E
330
1F
100
AcDbEntity
  8
0
  6
Continuous
 62
     7
370
     0
100
AcDbLine
 10
6.7287147758
 20
5.0032470155
 30
0.0
 11
6.7287147758
 21
4.1039713787
 31
0.0
  0
LINE
  5
34F
330
1F
100
AcDbEntity
  8
0
  6
Continuous
 62
     7
370
     0
100
AcDbLine
 10
6.8087147758
 20
5.0032470155
 30
0.0
 11
6.7287147758
 21
5.0032470155
 31
0.0
  0
LINE
  5
350
330
1F
100
AcDbEntity
  8
0
  6
Continuous
 62
     7
370
     0
100
AcDbLine
 10
6.7287147758
 20
4.1032470155
 30
0.0
 11
6.8087147758
 21
4.1032470155
 31
0.0
  0
LINE
  5
351
330
1F
100
AcDbEntity
  8
0
  6
Continuous
 62
     7
370
     0
100
AcDbLine
 10
6.7287147758
 20
4.1033703417
 30
0.0
 11
6.7287147758
 21
4.1032470155
 31
0.0
  0
LINE
  5
352
330
1F
100
AcDbEntity
  8
0
  6
Continuous
 62
     7
370
     0
100
AcDbLine
 10
6.7287147758
 20
5.0534265074
 30
0.0
 11
6.7387147758
 21
5.0707470155
 31
0.0
  0
LINE
  5
353
330
1F
100
AcDbEntity
  8
0
  6
Continuous
 62
     7
370
     0
100
AcDbLine
 10
6.7287147758
 20
5.0032470155
 30
0.0
 11
6.7287147758
 21
5.0534265074
 31
0.0
  0
LINE
  5
354
330
1F
100
AcDbEntity
  8
0
  6
Continuous
 62
     7
370
     0
100
AcDbLine
 10
6.8087147758
 20
5.0032470155
 30
0.0
 11
6.8087147758
 21
5.0607470155
 31
0.0
  0
LINE
  5
355
330
1F
100
AcDbEntity
  8
0
  6
Continuous
 62
     7
370
     0
100
AcDbLine
 10
6.7387147758
 20
4.0357470155
 30
0.0
 11
6.7287147758
 21
4.0530675235
 31
0.0
  0
LINE
  5
356
330
1F
100
AcDbEntity
  8
0
  6
Continuous
 62
     7
370
     0
100
AcDbLine
 10
6.7287147758
 20
4.0530675235
 30
0.0
 11
6.7287147758
 21
4.1032470155
 31
0.0
  0
LINE
  5
357
330
1F
100
AcDbEntity
  8
0
  6
Continuous
 62
     7
370
     0
100
AcDbLine
 10
6.8087147758
 20
4.0457470155
 30
0.0
 11
6.8087147758
 21
4.1032470155
 31
0.0
  0
LINE
  5
358
330
1F
100
AcDbEntity
  8
0
  6
Continuous
 62
     7
370
     0
100
AcDbLine
 10
6.7287147758
 20
4.1033703417
 30
0.0
 11
6.7287147758
 21
4.1039713787
 31
0.0
  0
LINE
  5
359
330
1F
100
AcDbEntity
  8
0
  6
Continuous
 62
     7
370
     0
100
AcDbLine
 10
6.719012484
 20
3.9532470155
 30
0.0
 11
6.8204410554
 21
3.9532470155
 31
0.0
  0
LINE
  5
35A
330
1F
100
AcDbEntity
  8
0
  6
Continuous
 62
     7
370
     0
100
AcDbLine
 10
6.8381021034
 20
3.9532470155
 30
0.0
 11
7.7675189775
 21
3.9532470155
 31
0.0
  0
LINE
  5
35B
330
1F
100
AcDbEntity
  8
0
  6
Continuous
 62
     7
370
     0
100
AcDbLine
 10
7.7675189775
 20
5.1532470155
 30
0.0
 11
7.6346755001
 21
5.1532470155
 31
0.0
  0
LINE
  5
35C
330
1F
100
AcDbEntity
  8
0
  6
Continuous
 62
     7
370
     0
100
AcDbLine
 10
7.6175189775
 20
5.1532470155
 30
0.0
 11
7.0622743295
 21
5.1532470155
 31
0.0
  0
LINE
  5
35D
330
1F
100
AcDbEntity
  8
0
  6
Continuous
 62
     7
370
     0
100
AcDbLine
 10
6.9949115208
 20
5.1532470155
 30
0.0
 11
6.7330596962
 21
5.1532470155
 31
0.0
  0
LINE
  5
35E
330
1F
100
AcDbEntity
  8
0
  6
Continuous
 62
     7
370
     0
100
AcDbLine
 10
6.6520569664
 20
5.1532470155
 30
0.0
 11
6.5875189775
 21
5.1532470155
 31
0.0
  0
LINE
  5
35F
330
1F
100
AcDbEntity
  8
0
  6
Continuous
 62
     7
370
     0
100
AcDbLine
 10
6.5875189775
 20
3.9532470155
 30
0.0
 11
6.6525189775
 21
3.9532470155
 31
0.0
  0
LINE
  5
360
330
1F
100
AcDbEntity
  8
0
  6
Continuous
 62
     7
370
     0
100
AcDbLine
 10
7.7775189775
 20
3.9632470155
 30
0.0
 11
7.7675189775
 21
3.9532470155
 31
0.0
  0
LINE
  5
361
330
1F
100
AcDbEntity
  8
0
  6
Continuous
 62
     7
370
     0
100
AcDbLine
 10
7.7675189775
 20
5.1532470155
 30
0.0
 11
7.7775189775
 21
5.1432470155
 31
0.0
  0
LINE
  5
362
330
1F
100
AcDbEntity
  8
0
  6
Continuous
 62
     7
370
     0
100
AcDbLine
 10
6.5775189775
 20
5.1432470155
 30
0.0
 11
6.5875189775
 21
5.1532470155
 31
0.0
  0
LINE
  5
363
330
1F
100
AcDbEntity
  8
0
  6
Continuous
 62
     7
370
     0
100
AcDbLine
 10
6.5875189775
 20
3.9532470155
 30
0.0
 11
6.5775189775
 21
3.9632470155
 31
0.0
  0
LINE
  5
364
330
1F
100
AcDbEntity
  8
0
  6
Continuous
 62
     7
370
     0
100
AcDbLine
 10
7.2575189775
 20
4.0282470155
 30
0.0
 11
7.2775189775
 21
4.0282470155
 31
0.0
  0
LINE
  5
365
330
1F
100
AcDbEntity
  8
0
  6
Continuous
 62
     7
370
     0
100
AcDbLine
 10
7.2775189775
 20
5.0782470155
 30
0.0
 11
7.2575189775
 21
5.0782470155
 31
0.0
  0
LINE
  5
366
330
1F
100
AcDbEntity
  8
0
  6
Continuous
 62
     7
370
     0
100
AcDbLine
 10
6.9825189775
 20
5.0782470155
 30
0.0
 11
7.0025189775
 21
5.0782470155
 31
0.0
  0
LINE
  5
367
330
1F
100
AcDbEntity
  8
0
  6
Continuous
 62
     7
370
     0
100
AcDbLine
 10
7.0025189775
 20
4.0282470155
 30
0.0
 11
6.9825189775
 21
4.0282470155
 31
0.0
  0
LINE
  5
368
330
1F
100
AcDbEntity
  8
0
  6
Continuous
 62
     7
370
     0
100
AcDbLine
 10
7.7775189775
 20
5.0692470155
 30
0.0
 11
7.7601984694
 21
5.0592470155
 31
0.0
  0
LINE
  5
369
330
1F
100
AcDbEntity
  8
0
  6
Continuous
 62
     7
370
     0
100
AcDbLine
 10
7.7601984694
 20
4.0472470155
 30
0.0
 11
7.7775189775
 21
4.0372470155
 31
0.0
  0
LINE
  5
36A
330
1F
100
AcDbEntity
  8
0
  6
Continuous
 62
     7
370
     0
100
AcDbLine
 10
7.7601984694
 20
4.0472470155
 30
0.0
 11
7.7601984694
 21
5.0592470155
 31
0.0
  0
LINE
  5
36B
330
1F
100
AcDbEntity
  8
0
  6
Continuous
 62
     7
370
     0
100
AcDbLine
 10
7.7775189775
 20
5.0692470155
 30
0.0
 11
7.7775189775
 21
4.0372470155
 31
0.0
  0
LINE
  5
36C
330
1F
100
AcDbEntity
  8
0
  6
Continuous
 62
     7
370
     0
100
AcDbLine
 10
6.5775189775
 20
4.0372470155
 30
0.0
 11
6.5948394856
 21
4.0472470155
 31
0.0
  0
LINE
  5
36D
330
1F
100
AcDbEntity
  8
0
  6
Continuous
 62
     7
370
     0
100
AcDbLine
 10
6.5948394856
 20
5.0592470155
 30
0.0
 11
6.5775189775
 21
5.0692470155
 31
0.0
  0
LINE
  5
36E
330
1F
100
AcDbEntity
  8
0
  6
Continuous
 62
     7
370
     0
100
AcDbLine
 10
6.5948394856
 20
5.0592470155
 30
0.0
 11
6.5948394856
 21
4.0472470155
 31
0.0
  0
LINE
  5
36F
330
1F
100
AcDbEntity
  8
0
  6
Continuous
 62
     7
370
     0
100
AcDbLine
 10
6.5775189775
 20
4.0372470155
 30
0.0
 11
6.5775189775
 21
5.0692470155
 31
0.0
  0
LINE
  5
370
330
1F
100
AcDbEntity
  8
0
  6
Continuous
 62
     7
370
     0
100
AcDbLine
 10
7.4765189775
 20
4.0472470155
 30
0.0
 11
7.4765189775
 21
4.0532470155
 31
0.0
  0
LINE
  5
371
330
1F
100
AcDbEntity
  8
0
  6
Continuous
 62
     7
370
     0
100
AcDbLine
 10
7.4765189775
 20
5.0532470155
 30
0.0
 11
7.4765189775
 21
5.0592470155
 31
0.0
  0
LINE
  5
372
330
1F
100
AcDbEntity
  8
0
  6
Continuous
 62
     7
370
     0
100
AcDbLine
 10
7.4765189775
 20
5.0592470155
 30
0.0
 11
7.7601984694
 21
5.0592470155
 31
0.0
  0
LINE
  5
373
330
1F
100
AcDbEntity
  8
0
  6
Continuous
 62
     7
370
     0
100
AcDbLine
 10
7.7601984694
 20
4.0472470155
 30
0.0
 11
7.4765189775
 21
4.0472470155
 31
0.0
  0
LINE
  5
374
330
1F
100
AcDbEntity
  8
0
  6
Continuous
 62
     7
370
     0
100
AcDbLine
 10
7.475364277
 20
5.0572470155
 30
0.0
 11
7.475364277
 21
5.0532470155
 31
0.0
  0
LINE
  5
375
330
1F
100
AcDbEntity
  8
0
  6
Continuous
 62
     7
370
     0
100
AcDbLine
 10
7.475364277
 20
4.0532470155
 30
0.0
 11
7.475364277
 21
4.0492470155
 31
0.0
  0
LINE
  5
376
330
1F
100
AcDbEntity
  8
0
  6
Continuous
 62
     7
370
     0
100
AcDbLine
 10
7.475364277
 20
5.0572470155
 30
0.0
 11
7.4765189775
 21
5.0592470155
 31
0.0
  0
LINE
  5
377
330
1F
100
AcDbEntity
  8
0
  6
Continuous
 62
     7
370
     0
100
AcDbLine
 10
7.4765189775
 20
4.0472470155
 30
0.0
 11
7.475364277
 21
4.0492470155
 31
0.0
  0
LINE
  5
378
330
1F
100
AcDbEntity
  8
0
  6
Continuous
 62
     7
370
     0
100
AcDbLine
 10
6.879673678
 20
4.0492470155
 30
0.0
 11
6.879673678
 21
4.0532470155
 31
0.0
  0
LINE
  5
379
330
1F
100
AcDbEntity
  8
0
  6
Continuous
 62
     7
370
     0
100
AcDbLine
 10
6.879673678
 20
5.0532470155
 30
0.0
 11
6.879673678
 21
5.0572470155
 31
0.0
  0
LINE
  5
37A
330
1F
100
AcDbEntity
  8
0
  6
Continuous
 62
     7
370
     0
100
AcDbLine
 10
6.879673678
 20
4.0492470155
 30
0.0
 11
6.8785189775
 21
4.0472470155
 31
0.0
  0
LINE
  5
37B
330
1F
100
AcDbEntity
  8
0
  6
Continuous
 62
     7
370
     0
100
AcDbLine
 10
6.8785189775
 20
5.0592470155
 30
0.0
 11
6.8785189775
 21
5.0532470155
 31
0.0
  0
LINE
  5
37C
330
1F
100
AcDbEntity
  8
0
  6
Continuous
 62
     7
370
     0
100
AcDbLine
 10
6.8785189775
 20
4.0532470155
 30
0.0
 11
6.8785189775
 21
4.0472470155
 31
0.0
  0
LINE
  5
37D
330
1F
100
AcDbEntity
  8
0
  6
Continuous
 62
     7
370
     0
100
AcDbLine
 10
6.8785189775
 20
5.0592470155
 30
0.0
 11
6.879673678
 21
5.0572470155
 31
0.0
  0
LINE
  5
37E
330
1F
100
AcDbEntity
  8
0
  6
Continuous
 62
     7
370
     0
100
AcDbLine
 10
6.8785189775
 20
4.0472470155
 30
0.0
 11
6.5948394856
 21
4.0472470155
 31
0.0
  0
LINE
  5
37F
330
1F
100
AcDbEntity
  8
0
  6
Continuous
 62
     7
370
     0
100
AcDbLine
 10
6.5948394856
 20
5.0592470155
 30
0.0
 11
6.8785189775
 21
5.0592470155
 31
0.0
  0
LINE
  5
380
330
1F
100
AcDbEntity
  8
0
  6
Continuous
 62
     7
370
     0
100
AcDbLine
 10
7.2775189775
 20
4.0492470155
 30
0.0
 11
7.475364277
 21
4.0492470155
 31
0.0
  0
LINE
  5
381
330
1F
100
AcDbEntity
  8
0
  6
Continuous
 62
     7
370
     0
100
AcDbLine
 10
7.475364277
 20
5.0572470155
 30
0.0
 11
7.2775189775
 21
5.0572470155
 31
0.0
  0
LINE
  5
382
330
1F
100
AcDbEntity
  8
0
  6
Continuous
 62
     7
370
     0
100
AcDbLine
 10
7.2775189775
 20
4.0492470155
 30
0.0
 11
7.2775189775
 21
4.0532470155
 31
0.0
  0
LINE
  5
383
330
1F
100
AcDbEntity
  8
0
  6
Continuous
 62
     7
370
     0
100
AcDbLine
 10
7.2775189775
 20
5.0532470155
 30
0.0
 11
7.2775189775
 21
5.0572470155
 31
0.0
  0
LINE
  5
384
330
1F
100
AcDbEntity
  8
0
  6
Continuous
 62
     7
370
     0
100
AcDbLine
 10
6.9825189775
 20
5.0572470155
 30
0.0
 11
6.879673678
 21
5.0572470155
 31
0.0
  0
LINE
  5
385
330
1F
100
AcDbEntity
  8
0
  6
Continuous
 62
     7
370
     0
100
AcDbLine
 10
6.879673678
 20
4.0492470155
 30
0.0
 11
6.9825189775
 21
4.0492470155
 31
0.0
  0
LINE
  5
386
330
1F
100
AcDbEntity
  8
0
  6
Continuous
 62
     7
370
     0
100
AcDbLine
 10
6.9825189775
 20
5.0572470155
 30
0.0
 11
6.9825189775
 21
5.0532470155
 31
0.0
  0
LINE
  5
387
330
1F
100
AcDbEntity
  8
0
  6
Continuous
 62
     7
370
     0
100
AcDbLine
 10
6.9825189775
 20
4.0532470155
 30
0.0
 11
6.9825189775
 21
4.0492470155
 31
0.0
  0
LINE
  5
388
330
1F
100
AcDbEntity
  8
0
  6
Continuous
 62
     7
370
     0
100
AcDbLine
 10
7.2575189775
 20
5.0042470155
 30
0.0
 11
7.0025189775
 21
5.0042470155
 31
0.0
  0
LINE
  5
389
330
1F
100
AcDbEntity
  8
0
  6
Continuous
 62
     7
370
     0
100
AcDbLine
 10
7.0025189775
 20
4.1022470155
 30
0.0
 11
7.2575189775
 21
4.1022470155
 31
0.0
  0
LINE
  5
38A
330
1F
100
AcDbEntity
  8
0
  6
Continuous
 62
     7
370
     0
100
AcDbLine
 10
7.0025189775
 20
5.0042470155
 30
0.0
 11
7.0025189775
 21
5.0024563529
 31
0.0
  0
LINE
  5
38B
330
1F
100
AcDbEntity
  8
0
  6
Continuous
 62
     7
370
     0
100
AcDbLine
 10
7.0025189775
 20
4.104037678
 30
0.0
 11
7.0025189775
 21
4.1022470155
 31
0.0
  0
LINE
  5
38C
330
1F
100
AcDbEntity
  8
0
  6
Continuous
 62
     7
370
     0
100
AcDbLine
 10
7.2575189775
 20
5.0042470155
 30
0.0
 11
7.2575189775
 21
5.004145435
 31
0.0
  0
LINE
  5
38D
330
1F
100
AcDbEntity
  8
0
  6
Continuous
 62
     7
370
     0
100
AcDbLine
 10
7.2575189775
 20
4.1023485959
 30
0.0
 11
7.2575189775
 21
4.1022470155
 31
0.0
  0
LINE
  5
38E
330
1F
100
AcDbEntity
  8
0
  6
Continuous
 62
     7
370
     0
100
AcDbLine
 10
6.8204410554
 20
3.9532470155
 30
0.0
 11
6.8381021034
 21
3.9532470155
 31
0.0
  0
LINE
  5
38F
330
1F
100
AcDbEntity
  8
0
  6
Continuous
 62
     7
370
     0
100
AcDbLine
 10
6.7013501463
 20
3.9532470155
 30
0.0
 11
6.719012484
 21
3.9532470155
 31
0.0
  0
LINE
  5
390
330
1F
100
AcDbEntity
  8
0
  6
Continuous
 62
     7
370
     0
100
AcDbLine
 10
6.6981168122
 20
3.9532470155
 30
0.0
 11
6.7013501463
 21
3.9532470155
 31
0.0
  0
LINE
  5
391
330
1F
100
AcDbEntity
  8
0
  6
Continuous
 62
     7
370
     0
100
AcDbLine
 10
6.6525189775
 20
3.9532470155
 30
0.0
 11
6.6981168122
 21
3.9532470155
 31
0.0
  0
LINE
  5
392
330
1F
100
AcDbEntity
  8
0
  6
Continuous
 62
     7
370
     0
100
AcDbLine
 10
6.9825189775
 20
4.0282470155
 30
0.0
 11
6.9825189775
 21
4.0492470155
 31
0.0
  0
LINE
  5
393
330
1F
100
AcDbEntity
  8
0
  6
Continuous
 62
     7
370
     0
100
AcDbLine
 10
7.0025189775
 20
4.0282470155
 30
0.0
 11
7.0025189775
 21
4.1022470155
 31
0.0
  0
LINE
  5
394
330
1F
100
AcDbEntity
  8
0
  6
Continuous
 62
     7
370
     0
100
AcDbLine
 10
7.2575189775
 20
4.0282470155
 30
0.0
 11
7.2575189775
 21
4.1022470155
 31
0.0
  0
LINE
  5
395
330
1F
100
AcDbEntity
  8
0
  6
Continuous
 62
     7
370
     0
100
AcDbLine
 10
7.2775189775
 20
4.0492470155
 30
0.0
 11
7.2775189775
 21
4.0282470155
 31
0.0
  0
LINE
  5
396
330
1F
100
AcDbEntity
  8
0
  6
Continuous
 62
     7
370
     0
100
AcDbLine
 10
6.5775189775
 20
3.9632470155
 30
0.0
 11
6.5775189775
 21
4.0372470155
 31
0.0
  0
LINE
  5
397
330
1F
100
AcDbEntity
  8
0
  6
Continuous
 62
     7
370
     0
100
AcDbLine
 10
7.7775189775
 20
4.0372470155
 30
0.0
 11
7.7775189775
 21
3.9632470155
 31
0.0
  0
LINE
  5
398
330
1F
100
AcDbEntity
  8
0
  6
Continuous
 62
     7
370
     0
100
AcDbLine
 10
6.6704028996
 20
5.1532470155
 30
0.0
 11
6.6520569664
 21
5.1532470155
 31
0.0
  0
LINE
  5
399
330
1F
100
AcDbEntity
  8
0
  6
Continuous
 62
     7
370
     0
100
AcDbLine
 10
6.7141866507
 20
5.1532470155
 30
0.0
 11
6.6704028996
 21
5.1532470155
 31
0.0
  0
LINE
  5
39A
330
1F
100
AcDbEntity
  8
0
  6
Continuous
 62
     7
370
     0
100
AcDbLine
 10
6.7330596962
 20
5.1532470155
 30
0.0
 11
6.7141866507
 21
5.1532470155
 31
0.0
  0
LINE
  5
39B
330
1F
100
AcDbEntity
  8
0
  6
Continuous
 62
     7
370
     0
100
AcDbLine
 10
7.0622743295
 20
5.1532470155
 30
0.0
 11
6.9949115208
 21
5.1532470155
 31
0.0
  0
LINE
  5
39C
330
1F
100
AcDbEntity
  8
0
  6
Continuous
 62
     7
370
     0
100
AcDbLine
 10
7.6346755001
 20
5.1532470155
 30
0.0
 11
7.6175189775
 21
5.1532470155
 31
0.0
  0
LINE
  5
39D
330
1F
100
AcDbEntity
  8
0
  6
Continuous
 62
     7
370
     0
100
AcDbLine
 10
6.9825189775
 20
5.0572470155
 30
0.0
 11
6.9825189775
 21
5.0782470155
 31
0.0
  0
LINE
  5
39E
330
1F
100
AcDbEntity
  8
0
  6
Continuous
 62
     7
370
     0
100
AcDbLine
 10
7.0025189775
 20
5.0042470155
 30
0.0
 11
7.0025189775
 21
5.0782470155
 31
0.0
  0
LINE
  5
39F
330
1F
100
AcDbEntity
  8
0
  6
Continuous
 62
     7
370
     0
100
AcDbLine
 10
7.2575189775
 20
5.0042470155
 30
0.0
 11
7.2575189775
 21
5.0782470155
 31
0.0
  0
LINE
  5
3A0
330
1F
100
AcDbEntity
  8
0
  6
Continuous
 62
     7
370
     0
100
AcDbLine
 10
7.2775189775
 20
5.0782470155
 30
0.0
 11
7.2775189775
 21
5.0572470155
 31
0.0
  0
LINE
  5
3A1
330
1F
100
AcDbEntity
  8
0
  6
Continuous
 62
     7
370
     0
100
AcDbLine
 10
6.5775189775
 20
5.0692470155
 30
0.0
 11
6.5775189775
 21
5.1432470155
 31
0.0
  0
LINE
  5
3A2
330
1F
100
AcDbEntity
  8
0
  6
Continuous
 62
     7
370
     0
100
AcDbLine
 10
7.7775189775
 20
5.1432470155
 30
0.0
 11
7.7775189775
 21
5.0692470155
 31
0.0
  0
ARC
  5
3A3
330
1F
100
AcDbEntity
  8
0
  6
Continuous
 62
     7
370
     0
100
AcDbCircle
 10
8.6858284012
 20
4.5532470155
 30
0.0
 40
1.799606299212595
100
AcDbArc
 50
163.8687552727
 51
196.1312447273
  0
LINE
  5
3A4
330
1F
100
AcDbEntity
  8
0
  6
Continuous
 62
     7
370
     0
100
AcDbLine
 10
6.81261812
 20
4.0532470155
 30
0.0
 11
6.9570765879
 21
4.0532470155
 31
0.0
  0
ARC
  5
3A5
330
1F
100
AcDbEntity
  8
0
  6
Continuous
 62
     7
370
     0
100
AcDbCircle
 10
11.836222102
 20
4.5532470155
 30
0.0
 40
5.048425196850355
100
AcDbArc
 50
174.3160626373
 51
185.6839373627
  0
LINE
  5
3A6
330
1F
100
AcDbEntity
  8
0
  6
Continuous
 62
     7
370
     0
100
AcDbLine
 10
6.9570765879
 20
5.0532470155
 30
0.0
 11
6.81261812
 21
5.0532470155
 31
0.0
  0
ARC
  5
3A7
330
1F
100
AcDbEntity
  8
0
  6
Continuous
 62
     7
370
     0
100
AcDbCircle
 10
4.573229976
 20
4.5532470155
 30
0.0
 40
2.470472440944878
100
AcDbArc
 50
348.3232197246
 51
11.6767802754
  0
LINE
  5
3A8
330
1F
100
AcDbEntity
  8
0
  6
Continuous
 62
     7
370
     0
100
AcDbLine
 10
6.9570765879
 20
4.0532470155
 30
0.0
 11
6.9925757722
 21
4.0532470155
 31
0.0
  0
ARC
  5
3A9
330
1F
100
AcDbEntity
  8
0
  6
Continuous
 62
     7
370
     0
100
AcDbCircle
 10
8.6858284012
 20
4.5532470155
 30
0.0
 40
1.799606299212595
100
AcDbArc
 50
163.8687552727
 51
196.1312447273
  0
LINE
  5
3AA
330
1F
100
AcDbEntity
  8
0
  6
Continuous
 62
     7
370
     0
100
AcDbLine
 10
6.9925757722
 20
5.0532470155
 30
0.0
 11
6.9570765879
 21
5.0532470155
 31
0.0
  0
ARC
  5
3AB
330
1F
100
AcDbEntity
  8
0
  6
Continuous
 62
     7
370
     0
100
AcDbCircle
 10
6.1417239986
 20
4.5532470155
 30
0.0
 40
1.335039370078739
100
AcDbArc
 50
338.0053021447
 51
21.9946978553
  0
LINE
  5
3AC
330
1F
100
AcDbEntity
  8
0
  6
Continuous
 62
     7
370
     0
100
AcDbLine
 10
7.2707133358
 20
4.0532470155
 30
0.0
 11
7.379597223
 21
4.0532470155
 31
0.0
  0
ARC
  5
3AD
330
1F
100
AcDbEntity
  8
0
  6
Continuous
 62
     7
370
     0
100
AcDbCircle
 10
9.0334562821
 20
4.5532470155
 30
0.0
 40
1.832283464566929
100
AcDbArc
 50
164.16407335
 51
195.83592665
  0
LINE
  5
3AE
330
1F
100
AcDbEntity
  8
0
  6
Continuous
 62
     7
370
     0
100
AcDbLine
 10
7.379597223
 20
5.0532470155
 30
0.0
 11
7.2707133358
 21
5.0532470155
 31
0.0
  0
ARC
  5
3AF
330
1F
100
AcDbEntity
  8
0
  6
Continuous
 62
     7
370
     0
100
AcDbCircle
 10
3.8137712427
 20
4.5532470155
 30
0.0
 40
3.761417322834653
100
AcDbArc
 50
352.3611411862
 51
7.6388588138
  0
LINE
  5
3B0
330
1F
100
AcDbEntity
  8
0
  6
Continuous
 62
     7
370
     0
100
AcDbLine
 10
7.379597223
 20
4.0532470155
 30
0.0
 11
7.5418082968
 21
4.0532470155
 31
0.0
  0
ARC
  5
3B1
330
1F
100
AcDbEntity
  8
0
  6
Continuous
 62
     7
370
     0
100
AcDbCircle
 10
6.1417239986
 20
4.5532470155
 30
0.0
 40
1.335039370078739
100
AcDbArc
 50
338.0053021447
 51
21.9946978553
  0
LINE
  5
3B2
330
1F
100
AcDbEntity
  8
0
  6
Continuous
 62
     7
370
     0
100
AcDbLine
 10
7.5418082968
 20
5.0532470155
 30
0.0
 11
7.379597223
 21
5.0532470155
 31
0.0
  0
DIMENSION
  5
3B3
330
1F
100
AcDbEntity
  8
0
  6
Continuous
 62
     7
370
     0
100
AcDbDimension
  2
*D8
 10
7.7775189775
 20
3.104548351
 30
0.0
 11
9.1161016547
 21
3.104548351
 31
0.0
 70
   160
 71
     1
 42
-1.0
  3
SLDDIMSTYLE1
100
AcDbAlignedDimension
 13
10.3382276389
 23
4.5532470155
 33
0.0
 14
7.7775189775
 24
3.9632470155
 34
0.0
100
AcDbRotatedDimension
  0
DIMENSION
  5
3C6
330
1F
100
AcDbEntity
  8
0
  6
Continuous
 62
     7
370
     0
100
AcDbDimension
  2
*D9
 10
6.5775189775
 20
3.0791312829
 30
0.0
 11
5.0027158279
 21
3.0791312829
 31
0.0
 70
   160
 71
     1
 42
-1.0
  3
SLDDIMSTYLE1
100
AcDbAlignedDimension
 13
2.9546449617
 23
4.5532470155
 33
0.0
 14
6.5775189775
 24
3.9632470155
 34
0.0
 50
0.0
100
AcDbRotatedDimension
  0
DIMENSION
  5
3D8
330
1F
100
AcDbEntity
  8
0
  6
Continuous
 62
     7
370
     0
100
AcDbDimension
  2
*D10
 10
6.7877969052
 20
5.5549218032
 30
0.0
 11
5.0027158279
 21
5.5549218032
 31
0.0
 70
   160
 71
     1
 42
-1.0
  3
SLDDIMSTYLE1
100
AcDbAlignedDimension
 13
2.9546449617
 23
4.5532470155
 33
0.0
 14
6.7877969052
 24
4.5532470155
 34
0.0
100
AcDbRotatedDimension
  0
DIMENSION
  5
3EA
330
1F
100
AcDbEntity
  8
0
  6
Continuous
 62
     7
370
     0
100
AcDbDimension
  2
*D11
 10
7.5751885655
 20
5.5549218032
 30
0.0
 11
9.1161016547
 21
5.5549218032
 31
0.0
 70
   160
 71
     1
 42
-1.0
  3
SLDDIMSTYLE1
100
AcDbAlignedDimension
 13
10.3382276389
 23
4.5532470155
 33
0.0
 14
7.5751885655
 24
4.5532470155
 34
0.0
 50
0.0
100
AcDbRotatedDimension
  0
DIMENSION
  5
3FC
330
1F
100
AcDbEntity
  8
0
  6
Continuous
 62
     7
370
     0
100
AcDbDimension
  2
*D12
 10
7.7775189775
 20
2.606690338
 30
0.0
 11
7.2012398822
 21
2.606690338
 31
0.0
 70
   160
 71
     1
 42
-1.0
  3
SLDDIMSTYLE2
100
AcDbAlignedDimension
 13
6.5775189775
 23
3.9632470155
 33
0.0
 14
7.7775189775
 24
3.9632470155
 34
0.0
100
AcDbRotatedDimension
  0
DIMENSION
  5
40F
330
1F
100
AcDbEntity
  8
0
  6
Continuous
 62
     7
370
     0
100
AcDbDimension
  2
*D13
 10
7.2011728175
 20
3.5515722277
 30
0.0
 11
7.5984936183
 21
3.5515722277
 31
0.0
 70
   160
 71
     1
 42
-1.0
  3
SLDDIMSTYLE3
100
AcDbAlignedDimension
 13
7.043702417
 23
4.5532470155
 33
0.0
 14
7.2011728175
 24
4.5532470155
 34
0.0
100
AcDbRotatedDimension
  0
DIMENSION
  5
422
330
1F
100
AcDbEntity
  8
0
  6
Continuous
 62
     7
370
     0
100
AcDbDimension
  2
*D14
 10
7.5751885655
 20
5.9242174173
 30
0.0
 11
7.2012398822
 21
5.9242174173
 31
0.0
 70
   160
 71
     1
 42
-1.0
  3
SLDDIMSTYLE3
100
AcDbAlignedDimension
 13
6.7877969052
 23
4.5532470155
 33
0.0
 14
7.5751885655
 24
4.5532470155
 34
0.0
100
AcDbRotatedDimension
  0
INSERT
  5
43B
330
1F
100
AcDbEntity
  8
0
  6
Continuous
 62
     7
370
     0
100
AcDbBlockReference
  2
SW_NOTE_5
 10
6.7515870766
 20
3.0738770547
 30
0.0
  0
INSERT
  5
442
102
{ACAD_REACTORS
330
444
330
445
102
}
330
1F
100
AcDbEntity
  8
0
  6
Continuous
 62
     7
370
     0
100
AcDbBlockReference
  2
SW_NOTE_6
 10
4.9179379577
 20
3.6055776265
 30
0.0
  0
LEADER
  5
444
330
1F
100
AcDbEntity
  8
0
  6
Continuous
 62
     7
370
     0
100
AcDbLeader
  3
SLDDIMSTYLE4
 73
     2
 76
     3
 10
6.6542547052
 20
4.0472470155
 30
0.0
 10
5.1679379577
 20
3.6055776265
 30
0.0
 10
4.9179379577
 20
3.6055776265
 30
0.0
340
442
  0
LEADER
  5
445
330
1F
100
AcDbEntity
  8
0
  6
Continuous
 62
     7
370
     0
100
AcDbLeader
  3
SLDDIMSTYLE4
 73
     2
 76
     3
 10
7.6906160984
 20
4.0472470155
 30
0.0
 10
5.1679379577
 20
3.6055776265
 30
0.0
 10
4.9179379577
 20
3.6055776265
 30
0.0
340
442
  0
INSERT
  5
44B
330
1F
100
AcDbEntity
  8
0
  6
Continuous
 62
     7
370
     0
100
AcDbBlockReference
  2
SW_NOTE_7
 10
8.4782003623
 20
5.1699427062
 30
0.0
  0
LEADER
  5
44C
330
1F
100
AcDbEntity
  8
0
  6
Continuous
 62
     7
370
     0
100
AcDbLeader
  3
SLDDIMSTYLE4
 76
     2
 10
7.4268022796
 20
4.9150534986
 30
0.0
 10
8.4782003623
 20
5.1699427062
 30
0.0
  0
INSERT
  5
452
102
{ACAD_REACTORS
330
453
102
}
330
1F
100
AcDbEntity
  8
0
  6
Continuous
 62
     7
370
     0
100
AcDbBlockReference
  2
SW_NOTE_8
 10
5.8486037559
 20
5.1757413952
 30
0.0
  0
LEADER
  5
453
330
1F
100
AcDbEntity
  8
0
  6
Continuous
 62
     7
370
     0
100
AcDbLeader
  3
SLDDIMSTYLE4
 73
     2
 76
     2
 10
6.9343772489
 20
4.9667705252
 30
0.0
 10
5.8486037559
 20
5.1757413952
 30
0.0
340
452
  0
INSERT
  5
459
330
1F
100
AcDbEntity
  8
0
  6
Continuous
 62
     7
370
     0
100
AcDbBlockReference
  2
SW_NOTE_9
 10
8.4957474659
 20
3.556099021
 30
0.0
  0
LEADER
  5
45A
330
1F
100
AcDbEntity
  8
0
  6
Continuous
 62
     7
370
     0
100
AcDbLeader
  3
SLDDIMSTYLE4
 76
     2
 10
7.7775189775
 20
4.0372470155
 30
0.0
 10
8.4957474659
 20
3.556099021
 30
0.0
  0
INSERT
  5
460
330
1F
100
AcDbEntity
  8
0
  6
Continuous
 62
     7
370
     0
100
AcDbBlockReference
  2
SW_NOTE_10
 10
8.9471257705
 20
4.028680226
 30
0.0
  0
LEADER
  5
461
330
1F
100
AcDbEntity
  8
0
  6
Continuous
 62
     7
370
     0
100
AcDbLeader
  3
SLDDIMSTYLE4
 76
     2
 10
7.6271962064
 20
4.1032470155
 30
0.0
 10
8.9471257705
 20
4.028680226
 30
0.0
  0
INSERT
  5
467
102
{ACAD_REACTORS
330
468
102
}
330
1F
100
AcDbEntity
  8
0
  6
Continuous
 62
     7
370
     0
100
AcDbBlockReference
  2
SW_NOTE_11
 10
5.8508531586
 20
4.0300603212
 30
0.0
  0
LEADER
  5
468
330
1F
100
AcDbEntity
  8
0
  6
Continuous
 62
     7
370
     0
100
AcDbLeader
  3
SLDDIMSTYLE4
 73
     2
 76
     2
 10
6.7325189775
 20
4.0897055494
 30
0.0
 10
5.8508531586
 20
4.0300603212
 30
0.0
340
467
  0
HATCH
  5
469
330
1F
100
AcDbEntity
  8
0
  6
Continuous
 62
     7
370
     0
100
AcDbHatch
 10
0.0
 20
0.0
 30
0.0
210
0.0
220
0.0
230
1.0
  2
ANSI35
 70
     0
 71
     0
 91
        1
 92
        0
 93
        4
 72
     1
 10
6.992575772215075
 20
5.053247015452962
 11
6.957076587885857
 21
5.053247015452958
 72
     2
 10
8.685828401237227
 20
4.553247015452958
 40
1.799606299212595
 50
163.8687552727385
 51
196.1312447272624
 73
     1
 72
     1
 10
6.957076587885857
 20
4.053247015452958
 11
6.992575772215075
 21
4.053247015452954
 72
     2
 10
4.573229976040387
 20
4.553247015452958
 40
2.470472440944878
 50
348.3232197245635
 51
371.6767802754382
 73
     1
 97
        0
 75
     0
 76
     1
 52
0.0
 41
1.0
 77
     0
 78
     2
 53
45.0
 43
0.0
 44
0.0
 45
-0.1767766952966369
 46
0.1767766952966369
 79
     0
 53
45.0
 43
0.176776695
 44
0.0
 45
-0.1767766952966369
 46
0.1767766952966369
 79
     4
 49
0.3125
 49
-0.0625
 49
0.0
 49
-0.0625
 98
        1
 10
0.0
 20
0.0
  0
HATCH
  5
46A
330
1F
100
AcDbEntity
  8
0
  6
Continuous
 62
     7
370
     0
100
AcDbHatch
 10
0.0
 20
0.0
 30
0.0
210
0.0
220
0.0
230
1.0
  2
ANSI35
 70
     0
 71
     0
 91
        1
 92
        0
 93
        4
 72
     1
 10
7.379597222984398
 20
5.053247015452958
 11
7.270713335817707
 21
5.053247015452958
 72
     2
 10
9.033456282059554
 20
4.553247015452958
 40
1.832283464566929
 50
164.1640733499586
 51
195.8359266500422
 73
     1
 72
     1
 10
7.270713335817707
 20
4.053247015452958
 11
7.379597222984398
 21
4.053247015452958
 72
     2
 10
6.141723998594988
 20
4.553247015452958
 40
1.33503937007874
 50
338.0053021446889
 51
381.9946978553128
 73
     1
 97
        0
 75
     0
 76
     1
 52
0.0
 41
1.0
 77
     0
 78
     2
 53
45.0
 43
0.0
 44
0.0
 45
-0.1767766952966369
 46
0.1767766952966369
 79
     0
 53
45.0
 43
0.176776695
 44
0.0
 45
-0.1767766952966369
 46
0.1767766952966369
 79
     4
 49
0.3125
 49
-0.0625
 49
0.0
 49
-0.0625
 98
        1
 10
0.0
 20
0.0
  0
HATCH
  5
46B
330
1F
100
AcDbEntity
  8
0
  6
Continuous
 62
     7
370
     0
100
AcDbHatch
 10
0.0
 20
0.0
 30
0.0
210
0.0
220
0.0
230
1.0
  2
ANSI35
 70
     0
 71
     0
 91
        1
 92
        0
 93
        4
 72
     1
 10
7.541808296759695
 20
5.053247015452955
 11
7.3795972229844
 21
5.053247015452958
 72
     2
 10
6.141723998594988
 20
4.553247015452958
 40
1.33503937007874
 50
338.0053021446889
 51
381.9946978553128
 73
     0
 72
     1
 10
7.3795972229844
 20
4.053247015452958
 11
7.541808296759695
 21
4.053247015452956
 72
     2
 10
3.813771242689467
 20
4.553247015452954
 40
3.761417322834654
 50
352.3611411862256
 51
367.6388588137761
 73
     1
 97
        0
 75
     0
 76
     1
 52
0.0
 41
1.0
 77
     0
 78
     2
 53
45.0
 43
0.0
 44
0.0
 45
-0.1767766952966369
 46
0.1767766952966369
 79
     0
 53
45.0
 43
0.176776695
 44
0.0
 45
-0.1767766952966369
 46
0.1767766952966369
 79
     4
 49
0.3125
 49
-0.0625
 49
0.0
 49
-0.0625
 98
        1
 10
0.0
 20
0.0
  0
HATCH
  5
46C
330
1F
100
AcDbEntity
  8
0
  6
Continuous
 62
     7
370
     0
100
AcDbHatch
 10
0.0
 20
0.0
 30
0.0
210
0.0
220
0.0
230
1.0
  2
ANSI31
 70
     0
 71
     0
 91
        1
 92
        0
 93
        6
 72
     1
 10
7.627196206351066
 20
4.103247015452958
 11
7.547196206351066
 21
4.103247015452958
 72
     1
 10
7.547196206351066
 20
4.103247015452958
 11
7.547196206351066
 21
4.045747015452958
 72
     1
 10
7.547196206351066
 20
4.045747015452958
 11
7.564516714426754
 21
4.035747015452959
 72
     1
 10
7.564516714426754
 20
4.035747015452959
 11
7.617196206351066
 21
4.035747015452959
 72
     1
 10
7.617196206351066
 20
4.035747015452959
 11
7.627196206351066
 21
4.053067523528647
 72
     1
 10
7.627196206351066
 20
4.053067523528647
 11
7.627196206351066
 21
4.103247015452958
 97
        0
 75
     0
 76
     1
 52
0.0
 41
1.0
 77
     0
 78
     1
 53
45.0
 43
0.0
 44
0.0
 45
-0.0883883476483184
 46
0.0883883476483184
 79
     0
 98
        1
 10
0.0
 20
0.0
  0
HATCH
  5
46D
330
1F
100
AcDbEntity
  8
0
  6
Continuous
 62
     7
370
     0
100
AcDbHatch
 10
0.0
 20
0.0
 30
0.0
210
0.0
220
0.0
230
1.0
  2
ANSI31
 70
     0
 71
     0
 91
        1
 92
        0
 93
        6
 72
     1
 10
7.627196206351066
 20
5.003247015452958
 11
7.627196206351066
 21
5.053426507377269
 72
     1
 10
7.627196206351066
 20
5.053426507377269
 11
7.617196206351066
 21
5.070747015452958
 72
     1
 10
7.617196206351066
 20
5.070747015452958
 11
7.564516714426754
 21
5.070747015452958
 72
     1
 10
7.564516714426754
 20
5.070747015452958
 11
7.547196206351066
 21
5.060747015452958
 72
     1
 10
7.547196206351066
 20
5.060747015452958
 11
7.547196206351066
 21
5.003247015452958
 72
     1
 10
7.547196206351066
 20
5.003247015452958
 11
7.627196206351066
 21
5.003247015452958
 97
        0
 75
     0
 76
     1
 52
0.0
 41
1.0
 77
     0
 78
     1
 53
45.0
 43
0.0
 44
0.0
 45
-0.0883883476483184
 46
0.0883883476483184
 79
     0
 98
        1
 10
0.0
 20
0.0
  0
HATCH
  5
46E
330
1F
100
AcDbEntity
  8
0
  6
Continuous
 62
     7
370
     0
100
AcDbHatch
 10
0.0
 20
0.0
 30
0.0
210
0.0
220
0.0
230
1.0
  2
ANSI31
 70
     0
 71
     0
 91
        1
 92
        0
 93
        6
 72
     1
 10
6.728714775795378
 20
5.003247015452958
 11
6.808714775795378
 21
5.003247015452958
 72
     1
 10
6.808714775795378
 20
5.003247015452958
 11
6.808714775795378
 21
5.060747015452958
 72
     1
 10
6.808714775795378
 20
5.060747015452958
 11
6.791394267719689
 21
5.070747015452958
 72
     1
 10
6.791394267719689
 20
5.070747015452958
 11
6.738714775795378
 21
5.070747015452958
 72
     1
 10
6.738714775795378
 20
5.070747015452958
 11
6.728714775795378
 21
5.053426507377269
 72
     1
 10
6.728714775795378
 20
5.053426507377269
 11
6.728714775795378
 21
5.003247015452958
 97
        0
 75
     0
 76
     1
 52
0.0
 41
1.0
 77
     0
 78
     1
 53
45.0
 43
0.0
 44
0.0
 45
-0.0883883476483184
 46
0.0883883476483184
 79
     0
 98
        1
 10
0.0
 20
0.0
  0
HATCH
  5
46F
330
1F
100
AcDbEntity
  8
0
  6
Continuous
 62
     7
370
     0
100
AcDbHatch
 10
0.0
 20
0.0
 30
0.0
210
0.0
220
0.0
230
1.0
  2
ANSI31
 70
     0
 71
     0
 91
        1
 92
        0
 93
        6
 72
     1
 10
6.728714775795378
 20
4.103247015452958
 11
6.728714775795378
 21
4.053067523528647
 72
     1
 10
6.728714775795378
 20
4.053067523528647
 11
6.738714775795377
 21
4.035747015452958
 72
     1
 10
6.738714775795377
 20
4.035747015452958
 11
6.791394267719689
 21
4.035747015452958
 72
     1
 10
6.791394267719689
 20
4.035747015452958
 11
6.808714775795378
 21
4.045747015452958
 72
     1
 10
6.808714775795378
 20
4.045747015452958
 11
6.808714775795378
 21
4.103247015452958
 72
     1
 10
6.808714775795378
 20
4.103247015452958
 11
6.728714775795378
 21
4.103247015452958
 97
        0
 75
     0
 76
     1
 52
0.0
 41
1.0
 77
     0
 78
     1
 53
45.0
 43
0.0
 44
0.0
 45
-0.0883883476483184
 46
0.0883883476483184
 79
     0
 98
        1
 10
0.0
 20
0.0
  0
HATCH
  5
470
330
1F
100
AcDbEntity
  8
0
  6
Continuous
 62
     7
370
     0
100
AcDbHatch
 10
0.0
 20
0.0
 30
0.0
210
0.0
220
0.0
230
1.0
  2
ANSI31
 70
     0
 71
     0
 91
        1
 92
        0
 93
       28
 72
     1
 10
7.475364276959388
 20
5.057247015452957
 11
7.476518977497767
 21
5.059247015452957
 72
     1
 10
7.476518977497767
 20
5.059247015452957
 11
7.760198469422077
 21
5.059247015452957
 72
     1
 10
7.760198469422077
 20
5.059247015452957
 11
7.777518977497766
 21
5.069247015452958
 72
     1
 10
7.777518977497766
 20
5.069247015452958
 11
7.777518977497766
 21
5.143247015452958
 72
     1
 10
7.777518977497766
 20
5.143247015452958
 11
7.767518977497767
 21
5.153247015452957
 72
     1
 10
7.767518977497767
 20
5.153247015452957
 11
7.634675500134707
 21
5.153247015452957
 72
     1
 10
7.634675500134707
 20
5.153247015452957
 11
7.617518977497767
 21
5.153247015452957
 72
     1
 10
7.617518977497767
 20
5.153247015452957
 11
7.062274329530536
 21
5.153247015452957
 72
     1
 10
7.062274329530536
 20
5.153247015452957
 11
6.99491152078368
 21
5.153247015452957
 72
     1
 10
6.99491152078368
 20
5.153247015452957
 11
6.733059696184919
 21
5.153247015452957
 72
     1
 10
6.733059696184919
 20
5.153247015452957
 11
6.71418665068795
 21
5.153247015452957
 72
     1
 10
6.71418665068795
 20
5.153247015452957
 11
6.670402899601121
 21
5.153247015452957
 72
     1
 10
6.670402899601121
 20
5.153247015452957
 11
6.652056966393362
 21
5.153247015452957
 72
     1
 10
6.652056966393362
 20
5.153247015452957
 11
6.587518977497766
 21
5.153247015452957
 72
     1
 10
6.587518977497766
 20
5.153247015452957
 11
6.577518977497767
 21
5.143247015452957
 72
     1
 10
6.577518977497767
 20
5.143247015452957
 11
6.577518977497767
 21
5.069247015452958
 72
     1
 10
6.577518977497767
 20
5.069247015452958
 11
6.594839485573456
 21
5.059247015452957
 72
     1
 10
6.594839485573456
 20
5.059247015452957
 11
6.878518977497766
 21
5.059247015452957
 72
     1
 10
6.878518977497766
 20
5.059247015452957
 11
6.879673678036145
 21
5.057247015452957
 72
     1
 10
6.879673678036145
 20
5.057247015452957
 11
6.982518977497767
 21
5.057247015452957
 72
     1
 10
6.982518977497767
 20
5.057247015452957
 11
6.982518977497767
 21
5.078247015452957
 72
     1
 10
6.982518977497767
 20
5.078247015452957
 11
7.002518977497767
 21
5.078247015452957
 72
     1
 10
7.002518977497767
 20
5.078247015452957
 11
7.002518977497767
 21
5.004247015452958
 72
     1
 10
7.002518977497767
 20
5.004247015452958
 11
7.257518977497766
 21
5.004247015452958
 72
     1
 10
7.257518977497766
 20
5.004247015452958
 11
7.257518977497766
 21
5.078247015452957
 72
     1
 10
7.257518977497766
 20
5.078247015452957
 11
7.277518977497767
 21
5.078247015452957
 72
     1
 10
7.277518977497767
 20
5.078247015452957
 11
7.277518977497767
 21
5.057247015452957
 72
     1
 10
7.277518977497767
 20
5.057247015452957
 11
7.475364276959388
 21
5.057247015452957
 97
        0
 75
     0
 76
     1
 52
0.0
 41
1.0
 77
     0
 78
     1
 53
45.0
 43
0.0
 44
0.0
 45
-0.0883883476483184
 46
0.0883883476483184
 79
     0
 98
        1
 10
0.0
 20
0.0
  0
HATCH
  5
471
330
1F
100
AcDbEntity
  8
0
  6
Continuous
 62
     7
370
     0
100
AcDbHatch
 10
0.0
 20
0.0
 30
0.0
210
0.0
220
0.0
230
1.0
  2
ANSI31
 70
     0
 71
     0
 91
        1
 92
        0
 93
       26
 72
     1
 10
7.760198469422077
 20
4.047247015452959
 11
7.476518977497767
 21
4.047247015452959
 72
     1
 10
7.476518977497767
 20
4.047247015452959
 11
7.475364276959388
 21
4.049247015452958
 72
     1
 10
7.475364276959388
 20
4.049247015452958
 11
7.277518977497767
 21
4.049247015452958
 72
     1
 10
7.277518977497767
 20
4.049247015452958
 11
7.277518977497767
 21
4.028247015452957
 72
     1
 10
7.277518977497767
 20
4.028247015452957
 11
7.257518977497766
 21
4.028247015452957
 72
     1
 10
7.257518977497766
 20
4.028247015452957
 11
7.257518977497766
 21
4.102247015452957
 72
     1
 10
7.257518977497766
 20
4.102247015452957
 11
7.002518977497767
 21
4.102247015452957
 72
     1
 10
7.002518977497767
 20
4.102247015452957
 11
7.002518977497767
 21
4.028247015452957
 72
     1
 10
7.002518977497767
 20
4.028247015452957
 11
6.982518977497767
 21
4.028247015452957
 72
     1
 10
6.982518977497767
 20
4.028247015452957
 11
6.982518977497767
 21
4.049247015452958
 72
     1
 10
6.982518977497767
 20
4.049247015452958
 11
6.879673678036145
 21
4.049247015452958
 72
     1
 10
6.879673678036145
 20
4.049247015452958
 11
6.878518977497766
 21
4.047247015452959
 72
     1
 10
6.878518977497766
 20
4.047247015452959
 11
6.594839485573456
 21
4.047247015452959
 72
     1
 10
6.594839485573456
 20
4.047247015452959
 11
6.577518977497767
 21
4.037247015452959
 72
     1
 10
6.577518977497767
 20
4.037247015452959
 11
6.577518977497767
 21
3.963247015452958
 72
     1
 10
6.577518977497767
 20
3.963247015452958
 11
6.587518977497766
 21
3.953247015452958
 72
     1
 10
6.587518977497766
 20
3.953247015452958
 11
6.652518977497767
 21
3.953247015452958
 72
     1
 10
6.652518977497767
 20
3.953247015452958
 11
6.698116812224028
 21
3.953247015452958
 72
     1
 10
6.698116812224028
 20
3.953247015452958
 11
6.701350146328935
 21
3.953247015452958
 72
     1
 10
6.701350146328935
 20
3.953247015452958
 11
6.719012483991273
 21
3.953247015452958
 72
     1
 10
6.719012483991273
 20
3.953247015452958
 11
6.820441055419844
 21
3.953247015452958
 72
     1
 10
6.820441055419844
 20
3.953247015452958
 11
6.838102103415828
 21
3.953247015452958
 72
     1
 10
6.838102103415828
 20
3.953247015452958
 11
7.767518977497767
 21
3.953247015452958
 72
     1
 10
7.767518977497767
 20
3.953247015452958
 11
7.777518977497766
 21
3.963247015452958
 72
     1
 10
7.777518977497766
 20
3.963247015452958
 11
7.777518977497766
 21
4.037247015452958
 72
     1
 10
7.777518977497766
 20
4.037247015452958
 11
7.760198469422077
 21
4.047247015452959
 97
        0
 75
     0
 76
     1
 52
0.0
 41
1.0
 77
     0
 78
     1
 53
45.0
 43
0.0
 44
0.0
 45
-0.0883883476483184
 46
0.0883883476483184
 79
     0
 98
        1
 10
0.0
 20
0.0
  0
HATCH
  5
472
330
1F
100
AcDbEntity
  8
0
  6
Continuous
 62
     7
370
     0
100
AcDbHatch
 10
0.0
 20
0.0
 30
0.0
210
0.0
220
0.0
230
1.0
  2
ANSI35
 70
     0
 71
     0
 91
        1
 92
        0
 93
        4
 72
     1
 10
6.957076587885857
 20
5.05324701545296
 11
6.812618120001972
 21
5.053247015452958
 72
     2
 10
11.83622210202459
 20
4.553247015452958
 40
5.048425196850355
 50
174.316062637307
 51
185.6839373626938
 73
     1
 72
     1
 10
6.812618120001972
 20
4.053247015452958
 11
6.957076587885857
 21
4.053247015452957
 72
     2
 10
8.685828401237227
 20
4.553247015452959
 40
1.799606299212595
 50
163.8687552727384
 51
196.1312447272624
 73
     0
 97
        0
 75
     0
 76
     1
 52
0.0
 41
1.0
 77
     0
 78
     2
 53
45.0
 43
0.0
 44
0.0
 45
-0.1767766952966369
 46
0.1767766952966369
 79
     0
 53
45.0
 43
0.176776695
 44
0.0
 45
-0.1767766952966369
 46
0.1767766952966369
 79
     4
 49
0.3125
 49
-0.0625
 49
0.0
 49
-0.0625
 98
        1
 10
0.0
 20
0.0
  0
ENDSEC
  0
SECTION
  2
OBJECTS
  0
DICTIONARY
  5
C
330
0
100
AcDbDictionary
281
     1
  3
ACAD_GROUP
350
D
  3
ACAD_LAYOUT
350
1A
  3
ACAD_MLINESTYLE
350
17
  3
ACAD_PLOTSETTINGS
350
19
  3
ACAD_PLOTSTYLENAME
350
E
  0
DICTIONARY
  5
D
102
{ACAD_REACTORS
330
C
102
}
330
C
100
AcDbDictionary
281
     1
  0
DICTIONARY
  5
1A
102
{ACAD_REACTORS
330
C
102
}
330
C
100
AcDbDictionary
281
     1
  3
Layout1
350
1E
  3
Layout2
350
26
  3
Model
350
22
  0
DICTIONARY
  5
17
102
{ACAD_REACTORS
330
C
102
}
330
C
100
AcDbDictionary
281
     1
  3
Standard
350
18
  0
DICTIONARY
  5
19
102
{ACAD_REACTORS
330
C
102
}
330
C
100
AcDbDictionary
281
     1
  0
ACDBDICTIONARYWDFLT
  5
E
102
{ACAD_REACTORS
330
C
102
}
330
C
100
AcDbDictionary
281
     1
  3
Normal
350
F
100
AcDbDictionaryWithDefault
340
F
  0
LAYOUT
  5
1E
102
{ACAD_REACTORS
330
1A
102
}
330
1A
100
AcDbPlotSettings
  1

  2
none_device
  4

  6

 40
0.0
 41
0.0
 42
0.0
 43
0.0
 44
0.0
 45
0.0
 46
0.0
 47
0.0
 48
0.0
 49
0.0
140
0.0
141
0.0
142
1.0
143
1.0
 70
   688
 72
     0
 73
     0
 74
     5
  7

 75
    16
147
1.0
148
0.0
149
0.0
100
AcDbLayout
  1
Layout1
 70
     1
 71
     1
 10
0.0
 20
0.0
 11
12.0
 21
9.0
 12
0.0
 22
0.0
 32
0.0
 14
1.0000000000E+20
 24
1.0000000000E+20
 34
1.0000000000E+20
 15
-1.0000000000E+20
 25
-1.0000000000E+20
 35
-1.0000000000E+20
146
0.0
 13
0.0
 23
0.0
 33
0.0
 16
1.0
 26
0.0
 36
0.0
 17
0.0
 27
1.0
 37
0.0
 76
     0
330
1B
  0
LAYOUT
  5
26
102
{ACAD_REACTORS
330
1A
102
}
330
1A
100
AcDbPlotSettings
  1

  2
none_device
  4

  6

 40
0.0
 41
0.0
 42
0.0
 43
0.0
 44
0.0
 45
0.0
 46
0.0
 47
0.0
 48
0.0
 49
0.0
140
0.0
141
0.0
142
1.0
143
1.0
 70
   688
 72
     0
 73
     0
 74
     5
  7

 75
    16
147
1.0
148
0.0
149
0.0
100
AcDbLayout
  1
Layout2
 70
     1
 71
     2
 10
0.0
 20
0.0
 11
0.0
 21
0.0
 12
0.0
 22
0.0
 32
0.0
 14
0.0
 24
0.0
 34
0.0
 15
0.0
 25
0.0
 35
0.0
146
0.0
 13
0.0
 23
0.0
 33
0.0
 16
1.0
 26
0.0
 36
0.0
 17
0.0
 27
1.0
 37
0.0
 76
     0
330
23
  0
LAYOUT
  5
22
102
{ACAD_REACTORS
330
1A
102
}
330
1A
100
AcDbPlotSettings
  1

  2
none_device
  4

  6

 40
0.0
 41
0.0
 42
0.0
 43
0.0
 44
0.0
 45
0.0
 46
0.0
 47
0.0
 48
0.0
 49
0.0
140
0.0
141
0.0
142
1.0
143
1.0
 70
  1712
 72
     0
 73
     0
 74
     0
  7

 75
     0
147
1.0
148
0.0
149
0.0
100
AcDbLayout
  1
Model
 70
     1
 71
     0
 10
0.0
 20
0.0
 11
0.0
 21
0.0
 12
0.0
 22
0.0
 32
0.0
 14
0.0
 24
0.0
 34
0.0
 15
11.0
 25
8.5
 35
0.0
146
0.0
 13
0.0
 23
0.0
 33
0.0
 16
1.0
 26
0.0
 36
0.0
 17
0.0
 27
1.0
 37
0.0
 76
     0
330
1F
  0
MLINESTYLE
  5
18
102
{ACAD_REACTORS
330
17
102
}
330
17
100
AcDbMlineStyle
  2
Standard
 70
     0
  3

 62
   256
 51
90.0
 52
90.0
 71
     2
 49
0.5
 62
   256
  6
BYLAYER
 49
-0.5
 62
   256
  6
BYLAYER
  0
ACDBPLACEHOLDER
  5
F
102
{ACAD_REACTORS
330
E
102
}
330
E
  0
ENDSEC
  0
EOF
