  0
SECTION
  2
HEADER
  9
$ACADVER
  1
AC1015
  9
$ACADMAINTVER
 70
     6
  9
$DWGCODEPAGE
  3
ANSI_1252
  9
$INSBASE
 10
0.0
 20
0.0
 30
0.0
  9
$EXTMIN
 10
0.0
 20
0.0
 30
0.0
  9
$EXTMAX
 10
279.4
 20
215.9
 30
0.0
  9
$LIMMIN
 10
0.0
 20
0.0
  9
$LIMMAX
 10
279.4
 20
215.9
  9
$ORTHOMODE
 70
     0
  9
$REGENMODE
 70
     1
  9
$FILLMODE
 70
     1
  9
$QTEXTMODE
 70
     0
  9
$MIRRTEXT
 70
     1
  9
$LTSCALE
 40
1.0
  9
$ATTMODE
 70
     1
  9
$TEXTSIZE
 40
2.8222222222
  9
$TRACEWID
 40
1.0
  9
$TEXTSTYLE
  7
Standard
  9
$CLAYER
  8
0
  9
$CELTYPE
  6
ByLayer
  9
$CECOLOR
 62
   256
  9
$CELTSCALE
 40
1.0
  9
$DISPSILH
 70
     0
  9
$DIMSCALE
 40
1.0
  9
$DIMASZ
 40
3.175
  9
$DIMEXO
 40
1.27
  9
$DIMDLI
 40
3.75
  9
$DIMRND
 40
0.0
  9
$DIMDLE
 40
0.0
  9
$DIMEXE
 40
1.778
  9
$DIMTP
 40
0.0
  9
$DIMTM
 40
0.0
  9
$DIMTXT
 40
2.8222222222
  9
$DIMCEN
 40
2.5
  9
$DIMTSZ
 40
0.0
  9
$DIMTOL
 70
     0
  9
$DIMLIM
 70
     0
  9
$DIMTIH
 70
     1
  9
$DIMTOH
 70
     1
  9
$DIMSE1
 70
     0
  9
$DIMSE2
 70
     0
  9
$DIMTAD
 70
     1
  9
$DIMZIN
 70
     1
  9
$DIMBLK
  1

  9
$DIMASO
 70
     1
  9
$DIMSHO
 70
     1
  9
$DIMPOST
  1

  9
$DIMAPOST
  1

  9
$DIMALT
 70
     0
  9
$DIMALTD
 70
     3
  9
$DIMALTF
 40
0.0393700787
  9
$DIMLFAC
 40
1.0
  9
$DIMTOFL
 70
     1
  9
$DIMTVP
 40
0.0
  9
$DIMTIX
 70
     0
  9
$DIMSOXD
 70
     0
  9
$DIMSAH
 70
     0
  9
$DIMBLK1
  1

  9
$DIMBLK2
  1

  9
$DIMSTYLE
  2
ISO-25
  9
$DIMCLRD
 70
     0
  9
$DIMCLRE
 70
     0
  9
$DIMCLRT
 70
     0
  9
$DIMTFAC
 40
1.0
  9
$DIMGAP
 40
2.54
  9
$DIMJUST
 70
     0
  9
$DIMSD1
 70
     0
  9
$DIMSD2
 70
     0
  9
$DIMTOLJ
 70
     0
  9
$DIMTZIN
 70
     1
  9
$DIMALTZ
 70
     0
  9
$DIMALTTZ
 70
     0
  9
$DIMUPT
 70
     0
  9
$DIMDEC
 70
     1
  9
$DIMTDEC
 70
     1
  9
$DIMALTU
 70
     2
  9
$DIMALTTD
 70
     3
  9
$DIMTXSTY
  7
Standard
  9
$DIMAUNIT
 70
     0
  9
$DIMADEC
 70
     0
  9
$DIMALTRND
 40
0.0
  9
$DIMAZIN
 70
     0
  9
$DIMDSEP
 70
    44
  9
$DIMATFIT
 70
     3
  9
$DIMFRAC
 70
     0
  9
$DIMLDRBLK
  1

  9
$DIMLUNIT
 70
     2
  9
$DIMLWD
 70
    -2
  9
$DIMLWE
 70
    -2
  9
$DIMTMOVE
 70
     0
  9
$LUNITS
 70
     2
  9
$LUPREC
 70
     1
  9
$SKETCHINC
 40
1.0
  9
$FILLETRAD
 40
10.0
  9
$AUNITS
 70
     0
  9
$AUPREC
 70
     0
  9
$MENU
  1
.
  9
$ELEVATION
 40
0.0
  9
$PELEVATION
 40
0.0
  9
$THICKNESS
 40
0.0
  9
$LIMCHECK
 70
     0
  9
$CHAMFERA
 40
10.0
  9
$CHAMFERB
 40
10.0
  9
$CHAMFERC
 40
20.0
  9
$CHAMFERD
 40
0.0
  9
$SKPOLY
 70
     0
  9
$TDCREATE
 40
2455757.474668738
  9
$TDUCREATE
 40
2455757.641335405
  9
$TDUPDATE
 40
2455757.47466875
  9
$TDUUPDATE
 40
2455757.641335417
  9
$TDINDWG
 40
0.0000000116
  9
$TDUSRTIMER
 40
0.0000000116
  9
$USRTIMER
 70
     1
  9
$ANGBASE
 50
0.0
  9
$ANGDIR
 70
     0
  9
$PDMODE
 70
     0
  9
$PDSIZE
 40
-1.0
  9
$PLINEWID
 40
0.0
  9
$SPLFRAME
 70
     0
  9
$SPLINETYPE
 70
     6
  9
$SPLINESEGS
 70
     8
  9
$HANDSEED
  5
230
  9
$SURFTAB1
 70
     6
  9
$SURFTAB2
 70
     6
  9
$SURFTYPE
 70
     6
  9
$SURFU
 70
     6
  9
$SURFV
 70
     6
  9
$UCSBASE
  2

  9
$UCSNAME
  2

  9
$UCSORG
 10
0.0
 20
0.0
 30
0.0
  9
$UCSXDIR
 10
1.0
 20
0.0
 30
0.0
  9
$UCSYDIR
 10
0.0
 20
1.0
 30
0.0
  9
$UCSORTHOREF
  2

  9
$UCSORTHOVIEW
 70
     0
  9
$UCSORGTOP
 10
0.0
 20
0.0
 30
0.0
  9
$UCSORGBOTTOM
 10
0.0
 20
0.0
 30
0.0
  9
$UCSORGLEFT
 10
0.0
 20
0.0
 30
0.0
  9
$UCSORGRIGHT
 10
0.0
 20
0.0
 30
0.0
  9
$UCSORGFRONT
 10
0.0
 20
0.0
 30
0.0
  9
$UCSORGBACK
 10
0.0
 20
0.0
 30
0.0
  9
$PUCSBASE
  2

  9
$PUCSNAME
  2

  9
$PUCSORG
 10
0.0
 20
0.0
 30
0.0
  9
$PUCSXDIR
 10
1.0
 20
0.0
 30
0.0
  9
$PUCSYDIR
 10
0.0
 20
1.0
 30
0.0
  9
$PUCSORTHOREF
  2

  9
$PUCSORTHOVIEW
 70
     0
  9
$PUCSORGTOP
 10
0.0
 20
0.0
 30
0.0
  9
$PUCSORGBOTTOM
 10
0.0
 20
0.0
 30
0.0
  9
$PUCSORGLEFT
 10
0.0
 20
0.0
 30
0.0
  9
$PUCSORGRIGHT
 10
0.0
 20
0.0
 30
0.0
  9
$PUCSORGFRONT
 10
0.0
 20
0.0
 30
0.0
  9
$PUCSORGBACK
 10
0.0
 20
0.0
 30
0.0
  9
$USERI1
 70
     0
  9
$USERI2
 70
     0
  9
$USERI3
 70
     0
  9
$USERI4
 70
     0
  9
$USERI5
 70
     0
  9
$USERR1
 40
0.0
  9
$USERR2
 40
0.0
  9
$USERR3
 40
0.0
  9
$USERR4
 40
0.0
  9
$USERR5
 40
0.0
  9
$WORLDVIEW
 70
     1
  9
$SHADEDGE
 70
     3
  9
$SHADEDIF
 70
    70
  9
$TILEMODE
 70
     1
  9
$MAXACTVP
 70
    64
  9
$PINSBASE
 10
0.0
 20
0.0
 30
0.0
  9
$PLIMCHECK
 70
     0
  9
$PEXTMIN
 10
1.0000000000E+20
 20
1.0000000000E+20
 30
1.0000000000E+20
  9
$PEXTMAX
 10
-1.0000000000E+20
 20
-1.0000000000E+20
 30
-1.0000000000E+20
  9
$PLIMMIN
 10
0.0
 20
0.0
  9
$PLIMMAX
 10
420.0
 20
297.0
  9
$UNITMODE
 70
     0
  9
$VISRETAIN
 70
     1
  9
$PLINEGEN
 70
     0
  9
$PSLTSCALE
 70
     1
  9
$TREEDEPTH
 70
  3020
  9
$CMLSTYLE
  2
Standard
  9
$CMLJUST
 70
     0
  9
$CMLSCALE
 40
20.0
  9
$PROXYGRAPHICS
 70
     1
  9
$MEASUREMENT
 70
     1
  9
$CELWEIGHT
370
    -1
  9
$ENDCAPS
280
     0
  9
$JOINSTYLE
280
     0
  9
$LWDISPLAY
290
     1
  9
$INSUNITS
 70
     4
  9
$HYPERLINKBASE
  1

  9
$STYLESHEET
  1

  9
$XEDIT
290
     1
  9
$CEPSNTYPE
380
     0
  9
$PSTYLEMODE
290
     1
  9
$FINGERPRINTGUID
  2
{2EEC8A9F-C0BE-421E-9427-2B7B11CFC478}
  9
$VERSIONGUID
  2
{FAEB1C32-E019-11D5-929B-00C0DF256EC4}
  9
$EXTNAMES
290
     1
  9
$PSVPSCALE
 40
0.0
  9
$OLESTARTUP
290
     0
  0
ENDSEC
  0
SECTION
  2
CLASSES
  0
CLASS
  1
ACDBDICTIONARYWDFLT
  2
AcDbDictionaryWithDefault
  3
ObjectDBX Classes
 90
        0
280
     0
281
     0
  0
CLASS
  1
VISUALSTYLE
  2
AcDbVisualStyle
  3
ObjectDBX Classes
 90
     4095
280
     0
281
     0
  0
CLASS
  1
MATERIAL
  2
AcDbMaterial
  3
ObjectDBX Classes
 90
     1153
280
     0
281
     0
  0
CLASS
  1
ACDBPLACEHOLDER
  2
AcDbPlaceHolder
  3
ObjectDBX Classes
 90
        0
280
     0
281
     0
  0
CLASS
  1
LAYOUT
  2
AcDbLayout
  3
ObjectDBX Classes
 90
        0
280
     0
281
     0
  0
ENDSEC
  0
SECTION
  2
TABLES
  0
TABLE
  2
VPORT
  5
8
330
0
100
AcDbSymbolTable
 70
     1
  0
VPORT
  5
29
330
8
100
AcDbSymbolTableRecord
100
AcDbViewportTableRecord
  2
*Active
 70
     0
 10
0.0
 20
0.0
 11
1.0
 21
1.0
 12
139.7
 22
107.95
 13
0.0
 23
0.0
 14
10.0
 24
10.0
 15
10.0
 25
10.0
 16
0.0
 26
0.0
 36
1.0
 17
0.0
 27
0.0
 37
0.0
 40
215.9
 41
1.2941176471
 42
50.0
 43
0.0
 44
0.0
 50
0.0
 51
0.0
 71
     0
 72
  2000
 73
     1
 74
     3
 75
     0
 76
     0
 77
     0
 78
     0
281
     0
 65
     1
110
0.0
120
0.0
130
0.0
111
1.0
121
0.0
131
0.0
112
0.0
122
1.0
132
0.0
 79
     0
146
0.0
  0
ENDTAB
  0
TABLE
  2
LTYPE
  5
5
330
0
100
AcDbSymbolTable
 70
     6
  0
LTYPE
  5
14
330
5
100
AcDbSymbolTableRecord
100
AcDbLinetypeTableRecord
  2
ByBlock
 70
     0
  3

 72
    65
 73
     0
 40
0.0
  0
LTYPE
  5
15
330
5
100
AcDbSymbolTableRecord
100
AcDbLinetypeTableRecord
  2
ByLayer
 70
     0
  3

 72
    65
 73
     0
 40
0.0
  0
LTYPE
  5
16
330
5
100
AcDbSymbolTableRecord
100
AcDbLinetypeTableRecord
  2
Continuous
 70
     0
  3
Solid line
 72
    65
 73
     0
 40
0.0
  0
LTYPE
  5
3F
330
5
100
AcDbSymbolTableRecord
100
AcDbLinetypeTableRecord
  2
HIDDEN
 70
     0
  3
Hidden __ __ __ __ __ __ __ __ __ __ __ __ __ __
 72
    65
 73
     2
 40
1.905
 49
1.27
 74
     0
 49
-0.635
 74
     0
  0
LTYPE
  5
40
330
5
100
AcDbSymbolTableRecord
100
AcDbLinetypeTableRecord
  2
PHANTOM
 70
     0
  3
Phantom ______  __  __  ______  __  __  ______
 72
    65
 73
     6
 40
12.7
 49
6.35
 74
     0
 49
-1.27
 74
     0
 49
1.27
 74
     0
 49
-1.27
 74
     0
 49
1.27
 74
     0
 49
-1.27
 74
     0
  0
LTYPE
  5
41
330
5
100
AcDbSymbolTableRecord
100
AcDbLinetypeTableRecord
  2
CENTER
 70
     0
  3
Center ____ _ ____ _ ____ _ ____ _ ____ _ ____
 72
    65
 73
     4
 40
10.16
 49
6.35
 74
     0
 49
-1.27
 74
     0
 49
1.27
 74
     0
 49
-1.27
 74
     0
  0
LTYPE
  5
42
330
5
100
AcDbSymbolTableRecord
100
AcDbLinetypeTableRecord
  2
CENTERX2
 70
     0
  3
Center (2x) ________  __  ________  __  _____
 72
    65
 73
     4
 40
20.32
 49
12.7
 74
     0
 49
-2.54
 74
     0
 49
2.54
 74
     0
 49
-2.54
 74
     0
  0
LTYPE
  5
43
330
5
100
AcDbSymbolTableRecord
100
AcDbLinetypeTableRecord
  2
DOT2
 70
     0
  3
Dot (.5x) ........................................
 72
    65
 73
     2
 40
0.635
 49
0.0
 74
     0
 49
-0.635
 74
     0
  0
ENDTAB
  0
TABLE
  2
LAYER
  5
2
330
0
100
AcDbSymbolTable
 70
     2
  0
LAYER
  5
10
330
2
100
AcDbSymbolTableRecord
100
AcDbLayerTableRecord
  2
0
 70
     0
 62
     7
  6
Continuous
370
    -3
390
F
  0
LAYER
  5
44
330
2
100
AcDbSymbolTableRecord
100
AcDbLayerTableRecord
  2
FORMAT
 70
     0
 62
     7
  6
Continuous
370
    -3
390
F
  0
ENDTAB
  0
TABLE
  2
STYLE
  5
3
330
0
100
AcDbSymbolTable
 70
     5
  0
STYLE
  5
11
330
3
100
AcDbSymbolTableRecord
100
AcDbTextStyleTableRecord
  2
Standard
 70
     0
 40
0.0
 41
1.0
 50
0.0
 71
     0
 42
2.5
  3
txt
  4

  0
STYLE
  5
6B
330
3
100
AcDbSymbolTableRecord
100
AcDbTextStyleTableRecord
  2
SLDTEXTSTYLE0
 70
     0
 40
0.0
 41
0.75
 50
0.0
 71
     0
 42
0.2
  3
TXT
  4

  0
STYLE
  5
75
330
3
100
AcDbSymbolTableRecord
100
AcDbTextStyleTableRecord
  2
SLDTEXTSTYLE1
 70
     0
 40
0.0
 41
0.6
 50
0.0
 71
     0
 42
0.2
  3
TXT
  4

  0
STYLE
  5
9E
330
3
100
AcDbSymbolTableRecord
100
AcDbTextStyleTableRecord
  2
SLDTEXTSTYLE2
 70
     0
 40
0.0
 41
0.75
 50
0.0
 71
     0
 42
0.2
  3
TXT
  4
bigfont
  0
STYLE
  5
B2
330
3
100
AcDbSymbolTableRecord
100
AcDbTextStyleTableRecord
  2
SLDTEXTSTYLE3
 70
     0
 40
0.0
 41
0.7
 50
0.0
 71
     0
 42
0.2
  3
TXT
  4

  0
ENDTAB
  0
TABLE
  2
VIEW
  5
6
330
0
100
AcDbSymbolTable
 70
     0
  0
ENDTAB
  0
TABLE
  2
UCS
  5
7
330
0
100
AcDbSymbolTable
 70
     0
  0
ENDTAB
  0
TABLE
  2
APPID
  5
9
330
0
100
AcDbSymbolTable
 70
     1
  0
APPID
  5
12
330
9
100
AcDbSymbolTableRecord
100
AcDbRegAppTableRecord
  2
ACAD
 70
     0
  0
ENDTAB
  0
TABLE
  2
DIMSTYLE
  5
A
330
0
100
AcDbSymbolTable
 70
     5
100
AcDbDimStyleTable
  0
DIMSTYLE
105
27
330
A
100
AcDbSymbolTableRecord
100
AcDbDimStyleTableRecord
  2
ISO-25
 70
     0
 41
2.5
 42
0.625
 43
3.75
 44
1.25
 73
     0
 74
     0
 77
     1
 78
     8
140
2.5
141
2.5
143
0.0393700787
147
0.625
171
     3
172
     1
178
     0
271
     2
272
     2
274
     3
278
    44
283
     0
284
     8
340
11
  0
DIMSTYLE
105
BB
102
{ACAD_REACTORS
330
BA
102
}
330
A
100
AcDbSymbolTableRecord
100
AcDbDimStyleTableRecord
  2
SLDDIMSTYLE0
 70
     0
 41
3.175
 44
0.0
 45
0.000000001
 78
    12
 79
     3
140
2.1166666667
141
0.0
143
0.0393700787
147
0.5291666667
148
0.000000001
170
     1
173
     1
178
     0
271
     1
272
     1
276
     2
284
    12
340
6B
  0
DIMSTYLE
105
1F7
102
{ACAD_REACTORS
330
1F6
102
}
330
A
100
AcDbSymbolTableRecord
100
AcDbDimStyleTableRecord
  2
SLDDIMSTYLE1
 70
     0
 41
3.175
 44
0.0
 45
0.000000001
 78
     4
 79
     1
140
2.1166666667
141
0.0
143
0.0393700787
147
0.5291666667
148
0.000000001
170
     1
173
     1
178
     0
271
     1
272
     1
276
     2
284
    12
340
6B
  0
DIMSTYLE
105
208
102
{ACAD_REACTORS
330
207
102
}
330
A
100
AcDbSymbolTableRecord
100
AcDbDimStyleTableRecord
  2
SLDDIMSTYLE2
 70
     0
 41
3.175
 44
0.0
 45
0.000000001
 78
     4
 79
     1
140
2.1166666667
143
0.0393700787
147
0.5291666667
148
0.000000001
170
     1
172
     1
173
     1
178
     0
271
     1
272
     1
276
     2
284
    12
289
     0
340
6B
  0
DIMSTYLE
105
21B
102
{ACAD_REACTORS
330
21A
102
}
330
A
100
AcDbSymbolTableRecord
100
AcDbDimStyleTableRecord
  2
SLDDIMSTYLE3
 70
     0
 41
3.175
 44
0.0
 45
0.000000001
 78
    12
 79
     3
140
2.1166666667
143
0.0393700787
147
0.5291666667
148
0.000000001
170
     1
172
     1
173
     1
178
     0
271
     1
272
     1
276
     2
284
    12
289
     0
340
6B
  0
ENDTAB
  0
TABLE
  2
BLOCK_RECORD
  5
1
330
0
100
AcDbSymbolTable
 70
    12
  0
BLOCK_RECORD
  5
1F
330
1
100
AcDbSymbolTableRecord
100
AcDbBlockTableRecord
  2
*Model_Space
340
22
  0
BLOCK_RECORD
  5
1B
330
1
100
AcDbSymbolTableRecord
100
AcDbBlockTableRecord
  2
*Paper_Space
340
1E
  0
BLOCK_RECORD
  5
23
330
1
100
AcDbSymbolTableRecord
100
AcDbBlockTableRecord
  2
*Paper_Space0
340
26
  0
BLOCK_RECORD
  5
45
330
1
100
AcDbSymbolTableRecord
100
AcDbBlockTableRecord
  2
Third Angle Projection Block
340
0
102
{BLKREFS
331
6A
102
}
  0
BLOCK_RECORD
  5
7B
330
1
100
AcDbSymbolTableRecord
100
AcDbBlockTableRecord
  2
SW_NOTE_0
340
0
102
{BLKREFS
331
80
102
}
  0
BLOCK_RECORD
  5
81
330
1
100
AcDbSymbolTableRecord
100
AcDbBlockTableRecord
  2
SW_NOTE_1
340
0
102
{BLKREFS
331
86
102
}
  0
BLOCK_RECORD
  5
88
330
1
100
AcDbSymbolTableRecord
100
AcDbBlockTableRecord
  2
SW_NOTE_2
340
0
102
{BLKREFS
331
8D
102
}
  0
BLOCK_RECORD
  5
8F
330
1
100
AcDbSymbolTableRecord
100
AcDbBlockTableRecord
  2
SW_NOTE_3
340
0
102
{BLKREFS
331
95
102
}
  0
BLOCK_RECORD
  5
96
330
1
100
AcDbSymbolTableRecord
100
AcDbBlockTableRecord
  2
SW_NOTE_4
340
0
102
{BLKREFS
331
B5
102
}
  0
BLOCK_RECORD
  5
BC
330
1
100
AcDbSymbolTableRecord
100
AcDbBlockTableRecord
  2
*D7
340
0
  0
BLOCK_RECORD
  5
CB
330
1
100
AcDbSymbolTableRecord
100
AcDbBlockTableRecord
  2
SW_CENTERMARKSYMBOL_0
340
0
102
{BLKREFS
331
D2
102
}
  0
BLOCK_RECORD
  5
1F8
330
1
100
AcDbSymbolTableRecord
100
AcDbBlockTableRecord
  2
*D9
340
0
  0
BLOCK_RECORD
  5
209
330
1
100
AcDbSymbolTableRecord
100
AcDbBlockTableRecord
  2
*D10
340
0
  0
BLOCK_RECORD
  5
21C
330
1
100
AcDbSymbolTableRecord
100
AcDbBlockTableRecord
  2
*D11
340
0
  0
ENDTAB
  0
ENDSEC
  0
SECTION
  2
BLOCKS
  0
BLOCK
  5
20
330
1F
100
AcDbEntity
  8
0
100
AcDbBlockBegin
  2
*Model_Space
 70
     0
 10
0.0
 20
0.0
 30
0.0
  3
*Model_Space
  1

  0
ENDBLK
  5
21
330
1F
100
AcDbEntity
  8
0
100
AcDbBlockEnd
  0
BLOCK
  5
1C
330
1B
100
AcDbEntity
 67
     1
  8
0
100
AcDbBlockBegin
  2
*Paper_Space
 70
     0
 10
0.0
 20
0.0
 30
0.0
  3
*Paper_Space
  1

  0
ENDBLK
  5
1D
330
1B
100
AcDbEntity
 67
     1
  8
0
100
AcDbBlockEnd
  0
BLOCK
  5
24
330
23
100
AcDbEntity
  8
0
100
AcDbBlockBegin
  2
*Paper_Space0
 70
     0
 10
0.0
 20
0.0
 30
0.0
  3
*Paper_Space0
  1

  0
ENDBLK
  5
25
330
23
100
AcDbEntity
  8
0
100
AcDbBlockEnd
  0
BLOCK
  5
46
330
45
100
AcDbEntity
  8
0
100
AcDbBlockBegin
  2
Third Angle Projection Block
 70
     0
 10
0.0
 20
0.0
 30
0.0
  3
Third Angle Projection Block
  1

  0
CIRCLE
  5
48
330
45
100
AcDbEntity
  8
0
  6
Continuous
 62
     7
370
    30
100
AcDbCircle
 10
101.4766388944
 20
18.9404083667
 30
0.0
 40
1.768227153674871
  0
CIRCLE
  5
49
330
45
100
AcDbEntity
  8
0
  6
Continuous
 62
     7
370
    30
100
AcDbCircle
 10
101.4766388944
 20
18.9404083667
 30
0.0
 40
3.901228248531818
  0
LINE
  5
4A
330
45
100
AcDbEntity
  8
0
  6
CENTERX2
 62
     7
370
     0
100
AcDbLine
 10
110.1367822585
 20
18.9404083667
 30
0.0
 11
119.4527334874
 21
18.9404083667
 31
0.0
  0
LINE
  5
4B
330
45
100
AcDbEntity
  8
0
  6
Continuous
 62
     7
370
    30
100
AcDbLine
 10
111.0016388944
 20
20.7086355204
 30
0.0
 11
111.0016388944
 21
17.172181213
 31
0.0
  0
LINE
  5
4C
330
45
100
AcDbEntity
  8
0
  6
Continuous
 62
     7
370
    30
100
AcDbLine
 10
111.0016388944
 20
17.172181213
 30
0.0
 11
118.6216388944
 21
15.1304083667
 31
0.0
  0
LINE
  5
4D
330
45
100
AcDbEntity
  8
0
  6
Continuous
 62
     7
370
    30
100
AcDbLine
 10
118.6216388944
 20
15.1304083667
 30
0.0
 11
118.6216388944
 21
22.7504083667
 31
0.0
  0
LINE
  5
4E
330
45
100
AcDbEntity
  8
0
  6
Continuous
 62
     7
370
    30
100
AcDbLine
 10
118.6216388944
 20
22.7504083667
 30
0.0
 11
111.0016388944
 21
20.7086355204
 31
0.0
  0
LINE
  5
4F
330
45
100
AcDbEntity
  8
0
  6
CENTERX2
 62
     7
370
     0
100
AcDbLine
 10
96.6025854619
 20
18.9404083667
 30
0.0
 11
106.3506923269
 21
18.9404083667
 31
0.0
  0
LINE
  5
50
330
45
100
AcDbEntity
  8
0
  6
CENTERX2
 62
     7
370
     0
100
AcDbLine
 10
101.4766388944
 20
23.8144617992
 30
0.0
 11
101.4766388944
 21
14.0663549342
 31
0.0
  0
POINT
  5
51
330
45
100
AcDbEntity
  8
0
  6
Continuous
 62
     7
370
     0
100
AcDbPoint
 10
101.4766388944
 20
18.9404083667
 30
0.0
  0
ENDBLK
  5
47
330
45
100
AcDbEntity
  8
0
100
AcDbBlockEnd
  0
BLOCK
  5
7C
330
7B
100
AcDbEntity
  8
0
100
AcDbBlockBegin
  2
SW_NOTE_0
 70
     0
 10
0.0
 20
0.0
 30
0.0
  3
SW_NOTE_0
  1

  0
MTEXT
  5
7E
330
7B
100
AcDbEntity
  8
0
  6
Continuous
 62
     0
370
     0
100
AcDbMText
 10
19.90725
 20
1.9645392354
 30
0.0
 40
1.524
 41
0.0
 71
     2
 72
     1
  1
VALUES IN PARENTHESIS ARE CALCULATED
  7
SLDTEXTSTYLE0
 73
     1
 44
1.0
  0
MTEXT
  5
7F
330
7B
100
AcDbEntity
  8
0
  6
Continuous
 62
     0
370
     0
100
AcDbMText
 10
19.8778795174
 20
-0.5594606586
 30
0.0
 40
1.524
 41
0.0
 71
     2
 72
     1
  1
AND MAY CONTAIN ROUNDOFF ERRORS
  7
SLDTEXTSTYLE0
 73
     1
 44
1.0
  0
ENDBLK
  5
7D
330
7B
100
AcDbEntity
  8
0
100
AcDbBlockEnd
  0
BLOCK
  5
82
330
81
100
AcDbEntity
  8
0
100
AcDbBlockBegin
  2
SW_NOTE_1
 70
     0
 10
0.0
 20
0.0
 30
0.0
  3
SW_NOTE_1
  1

  0
MTEXT
  5
84
330
81
100
AcDbEntity
  8
0
  6
Continuous
 62
     0
370
     0
100
AcDbMText
 10
0.0
 20
2.7285267159
 30
0.0
 40
2.1166666667
 41
0.0
 71
     1
 72
     1
  1
DRAWING
  7
SLDTEXTSTYLE0
 73
     1
 44
1.0
  0
MTEXT
  5
85
330
81
100
AcDbEntity
  8
0
  6
Continuous
 62
     0
370
     0
100
AcDbMText
 10
0.0
 20
-0.0936954723
 30
0.0
 40
2.1166666667
 41
0.0
 71
     1
 72
     1
  1
PROJECTION
  7
SLDTEXTSTYLE0
 73
     1
 44
1.0
  0
ENDBLK
  5
83
330
81
100
AcDbEntity
  8
0
100
AcDbBlockEnd
  0
BLOCK
  5
89
330
88
100
AcDbEntity
  8
0
100
AcDbBlockBegin
  2
SW_NOTE_2
 70
     0
 10
0.0
 20
0.0
 30
0.0
  3
SW_NOTE_2
  1

  0
MTEXT
  5
8B
330
88
100
AcDbEntity
  8
0
  6
Continuous
 62
     0
370
     0
100
AcDbMText
 10
25.052734375
 20
4.0927900738
 30
0.0
 40
3.175
 41
0.0
 71
     2
 72
     1
  1
FOR INFORMATION ONLY
  7
SLDTEXTSTYLE0
 73
     1
 44
1.0
  0
MTEXT
  5
8C
330
88
100
AcDbEntity
  8
0
  6
Continuous
 62
     0
370
     0
100
AcDbMText
 10
25.3768468589
 20
-0.1405432084
 30
0.0
 40
3.175
 41
0.0
 71
     2
 72
     1
  1
NOT FOR MANUFACTURING PURPOSES
  7
SLDTEXTSTYLE0
 73
     1
 44
1.0
  0
ENDBLK
  5
8A
330
88
100
AcDbEntity
  8
0
100
AcDbBlockEnd
  0
BLOCK
  5
90
330
8F
100
AcDbEntity
  8
0
100
AcDbBlockBegin
  2
SW_NOTE_3
 70
     0
 10
0.0
 20
0.0
 30
0.0
  3
SW_NOTE_3
  1

  0
MTEXT
  5
92
330
8F
100
AcDbEntity
  8
0
  6
Continuous
 62
     0
370
     0
100
AcDbMText
 10
1.9016927083
 20
3.4106583948
 30
0.0
 40
2.6458333333
 41
0.0
 71
     2
 72
     1
  1
%%c
  7
SLDTEXTSTYLE0
 73
     1
 44
1.0
  0
MTEXT
  5
93
330
8F
100
AcDbEntity
  8
0
  6
Continuous
 62
     0
370
     0
100
AcDbMText
 10
31.3615769843
 20
3.4106583948
 30
0.0
 40
2.6458333333
 41
0.0
 71
     2
 72
     1
  1
50.8mm, f= 50.0mm BROADBAND
  7
SLDTEXTSTYLE0
 73
     1
 44
1.0
  0
MTEXT
  5
94
330
8F
100
AcDbEntity
  8
0
  6
Continuous
 62
     0
370
     0
100
AcDbMText
 10
29.8427418272
 20
-0.1171193403
 30
0.0
 40
2.6458333333
 41
0.0
 71
     2
 72
     1
  1
MIRROR 350-400nm
  7
SLDTEXTSTYLE0
 73
     1
 44
1.0
  0
ENDBLK
  5
91
330
8F
100
AcDbEntity
  8
0
100
AcDbBlockEnd
  0
BLOCK
  5
97
330
96
100
AcDbEntity
  8
0
100
AcDbBlockBegin
  2
SW_NOTE_4
 70
     0
 10
0.0
 20
0.0
 30
0.0
  3
SW_NOTE_4
  1

  0
MTEXT
  5
99
330
96
100
AcDbEntity
  8
0
  6
Continuous
 62
     0
370
     0
100
AcDbMText
 10
0.0
 20
3.0695925553
 30
0.0
 40
2.38125
 41
0.0
 71
     1
 72
     1
  1
NOTES/SPECIFICATIONS:
  7
SLDTEXTSTYLE0
 73
     1
 44
1.0
  0
MTEXT
  5
9A
330
96
100
AcDbEntity
  8
0
  6
Continuous
 62
     0
370
     0
100
AcDbMText
 10
9.9999997765
 20
-3.2804073679
 30
0.0
 40
2.38125
 41
0.0
 71
     1
 72
     1
  1
CLEAR APERTURE: >90% DIAMETER
  7
SLDTEXTSTYLE0
 73
     1
 44
1.0
  0
MTEXT
  5
9B
330
96
100
AcDbEntity
  8
0
  6
Continuous
 62
     0
370
     0
100
AcDbMText
 10
0.0
 20
-3.2804073679
 30
0.0
 40
2.38125
 41
0.0
 71
     1
 72
     1
  1
1.
  7
SLDTEXTSTYLE0
 73
     1
 44
1.0
  0
MTEXT
  5
9C
330
96
100
AcDbEntity
  8
0
  6
Continuous
 62
     0
370
     0
100
AcDbMText
 10
9.9999997765
 20
-6.5976282029
 30
0.0
 40
2.38125
 41
0.0
 71
     1
 72
     1
  1
SURFACE ACCURACY
  7
SLDTEXTSTYLE0
 73
     1
 44
1.0
  0
MTEXT
  5
9D
330
96
100
AcDbEntity
  8
0
  6
Continuous
 62
     0
370
     0
100
AcDbMText
 10
42.9582651705
 20
-6.6891910621
 30
0.0
 40
2.286
 41
0.0
 71
     1
 72
     1
  1
:
  7
SLDTEXTSTYLE0
 73
     1
 44
1.0
  0
MTEXT
  5
9F
330
96
100
AcDbEntity
  8
0
  6
Continuous
 62
     0
370
     0
100
AcDbMText
 10
44.6957833081
 20
-6.5976282029
 30
0.0
 40
2.38125
 41
0.0
 71
     1
 72
     1
  1
\M+183C9/
  7
SLDTEXTSTYLE2
 73
     1
 44
1.0
  0
MTEXT
  5
A0
330
96
100
AcDbEntity
  8
0
  6
Continuous
 62
     0
370
     0
100
AcDbMText
 10
47.7715637535
 20
-6.6891910621
 30
0.0
 40
2.286
 41
0.0
 71
     1
 72
     1
  1
4
  7
SLDTEXTSTYLE0
 73
     1
 44
1.0
  0
MTEXT
  5
A1
330
96
100
AcDbEntity
  8
0
  6
Continuous
 62
     0
370
     0
100
AcDbMText
 10
50.3052156419
 20
-6.5976282029
 30
0.0
 40
2.38125
 41
0.0
 71
     1
 72
     1
  1
AT 632.8nm OVER CLEAR APERTURE
  7
SLDTEXTSTYLE0
 73
     1
 44
1.0
  0
MTEXT
  5
A2
330
96
100
AcDbEntity
  8
0
  6
Continuous
 62
     0
370
     0
100
AcDbMText
 10
0.0
 20
-6.5976282029
 30
0.0
 40
2.38125
 41
0.0
 71
     1
 72
     1
  1
2.
  7
SLDTEXTSTYLE0
 73
     1
 44
1.0
  0
MTEXT
  5
A3
330
96
100
AcDbEntity
  8
0
  6
Continuous
 62
     0
370
     0
100
AcDbMText
 10
9.9999997765
 20
-9.7726281646
 30
0.0
 40
2.38125
 41
0.0
 71
     1
 72
     1
  1
SURFACE QUALITY: 20-10 SCRATCH-DIG
  7
SLDTEXTSTYLE0
 73
     1
 44
1.0
  0
MTEXT
  5
A4
330
96
100
AcDbEntity
  8
0
  6
Continuous
 62
     0
370
     0
100
AcDbMText
 10
0.0
 20
-9.7726281646
 30
0.0
 40
2.38125
 41
0.0
 71
     1
 72
     1
  1
3.
  7
SLDTEXTSTYLE0
 73
     1
 44
1.0
  0
MTEXT
  5
A5
330
96
100
AcDbEntity
  8
0
  6
Continuous
 62
     0
370
     0
100
AcDbMText
 10
9.9999997765
 20
-12.9476281262
 30
0.0
 40
2.38125
 41
0.0
 71
     1
 72
     1
  1
BACK SURFACE: FINE GROUND
  7
SLDTEXTSTYLE0
 73
     1
 44
1.0
  0
MTEXT
  5
A6
330
96
100
AcDbEntity
  8
0
  6
Continuous
 62
     0
370
     0
100
AcDbMText
 10
0.0
 20
-12.9476281262
 30
0.0
 40
2.38125
 41
0.0
 71
     1
 72
     1
  1
4.
  7
SLDTEXTSTYLE0
 73
     1
 44
1.0
  0
MTEXT
  5
A7
330
96
100
AcDbEntity
  8
0
  6
Continuous
 62
     0
370
     0
100
AcDbMText
 10
9.9999997765
 20
-16.1226280878
 30
0.0
 40
2.38125
 41
0.0
 71
     1
 72
     1
  1
THICKNESS TOLERANCE:
  7
SLDTEXTSTYLE0
 73
     1
 44
1.0
  0
MTEXT
  5
A8
330
96
100
AcDbEntity
  8
0
  6
Continuous
 62
     0
370
     0
100
AcDbMText
 10
46.741804108
 20
-16.1226280878
 30
0.0
 40
2.38125
 41
0.0
 71
     1
 72
     1
  1
%%p
  7
SLDTEXTSTYLE0
 73
     1
 44
1.0
  0
MTEXT
  5
A9
330
96
100
AcDbEntity
  8
0
  6
Continuous
 62
     0
370
     0
100
AcDbMText
 10
49.0119289607
 20
-16.1226280878
 30
0.0
 40
2.38125
 41
0.0
 71
     1
 72
     1
  1
0.2 mm
  7
SLDTEXTSTYLE0
 73
     1
 44
1.0
  0
MTEXT
  5
AA
330
96
100
AcDbEntity
  8
0
  6
Continuous
 62
     0
370
     0
100
AcDbMText
 10
0.0
 20
-16.1226280878
 30
0.0
 40
2.38125
 41
0.0
 71
     1
 72
     1
  1
5.
  7
SLDTEXTSTYLE0
 73
     1
 44
1.0
  0
MTEXT
  5
AB
330
96
100
AcDbEntity
  8
0
  6
Continuous
 62
     0
370
     0
100
AcDbMText
 10
9.9999997765
 20
-19.2976280495
 30
0.0
 40
2.38125
 41
0.0
 71
     1
 72
     1
  1
DIAMETER TOLERANCE: + 0.0/-0.2 mm
  7
SLDTEXTSTYLE0
 73
     1
 44
1.0
  0
MTEXT
  5
AC
330
96
100
AcDbEntity
  8
0
  6
Continuous
 62
     0
370
     0
100
AcDbMText
 10
0.0
 20
-19.2976280495
 30
0.0
 40
2.38125
 41
0.0
 71
     1
 72
     1
  1
6.
  7
SLDTEXTSTYLE0
 73
     1
 44
1.0
  0
MTEXT
  5
AD
330
96
100
AcDbEntity
  8
0
  6
Continuous
 62
     0
370
     0
100
AcDbMText
 10
9.9999997765
 20
-22.4726280111
 30
0.0
 40
2.38125
 41
0.0
 71
     1
 72
     1
  1
COATING: BROADBAND HR, DIELECTRIC
  7
SLDTEXTSTYLE0
 73
     1
 44
1.0
  0
MTEXT
  5
AE
330
96
100
AcDbEntity
  8
0
  6
Continuous
 62
     0
370
     0
100
AcDbMText
 10
0.0
 20
-22.4726280111
 30
0.0
 40
2.38125
 41
0.0
 71
     1
 72
     1
  1
7.
  7
SLDTEXTSTYLE0
 73
     1
 44
1.0
  0
MTEXT
  5
AF
330
96
100
AcDbEntity
  8
0
  6
Continuous
 62
     0
370
     0
100
AcDbMText
 10
10.0
 20
-25.6476279727
 30
0.0
 40
2.38125
 41
0.0
 71
     1
 72
     1
  1
Rs and Rp >99% OVER WAVELENGTH RANGE
  7
SLDTEXTSTYLE0
 73
     1
 44
1.0
  0
MTEXT
  5
B0
330
96
100
AcDbEntity
  8
0
  6
Continuous
 62
     0
370
     0
100
AcDbMText
 10
10.0
 20
-28.8226279343
 30
0.0
 40
2.38125
 41
0.0
 71
     1
 72
     1
  1
AOI: 0
  7
SLDTEXTSTYLE0
 73
     1
 44
1.0
  0
MTEXT
  5
B1
330
96
100
AcDbEntity
  8
0
  6
Continuous
 62
     0
370
     0
100
AcDbMText
 10
19.344201535
 20
-28.8226279343
 30
0.0
 40
2.38125
 41
0.0
 71
     1
 72
     1
  1
%%d
  7
SLDTEXTSTYLE0
 73
     1
 44
1.0
  0
MTEXT
  5
B3
330
96
100
AcDbEntity
  8
0
  6
Continuous
 62
     0
370
     0
100
AcDbMText
 10
21.7505871639
 20
-28.8226279343
 30
0.0
 40
2.38125
 41
0.0
 71
     1
 72
     1
  1
TO 45
  7
SLDTEXTSTYLE3
 73
     1
 44
1.0
  0
MTEXT
  5
B4
330
96
100
AcDbEntity
  8
0
  6
Continuous
 62
     0
370
     0
100
AcDbMText
 10
30.2459171414
 20
-28.8226279343
 30
0.0
 40
2.38125
 41
0.0
 71
     1
 72
     1
  1
%%d
  7
SLDTEXTSTYLE0
 73
     1
 44
1.0
  0
ENDBLK
  5
98
330
96
100
AcDbEntity
  8
0
100
AcDbBlockEnd
  0
BLOCK
  5
BD
330
BC
100
AcDbEntity
  8
0
100
AcDbBlockBegin
  2
*D7
 70
     1
 10
0.0
 20
0.0
 30
0.0
  3
*D7
  1

  0
SOLID
  5
BF
330
BC
100
AcDbEntity
  8
0
  6
Continuous
 62
     7
370
     0
100
AcDbTrace
 10
82.8816537993
 20
88.560611236
 30
0.0
 11
84.7665967649
 21
85.9556776444
 31
0.0
 12
85.4852684395
 22
86.6738468613
 32
0.0
 13
85.4852684395
 23
86.6738468613
 33
0.0
  0
LINE
  5
C0
330
BC
100
AcDbEntity
  8
0
  6
Continuous
 62
     7
370
     0
100
AcDbLine
 10
98.0549839088
 20
77.8718066728
 30
0.0
 11
98.0549839088
 21
75.0132138115
 31
0.0
  0
LINE
  5
C1
330
BC
100
AcDbEntity
  8
0
  6
Continuous
 62
     7
370
     0
100
AcDbLine
 10
98.0549839088
 20
75.0132138115
 30
0.0
 11
98.4840045287
 21
75.0132138115
 31
0.0
  0
LINE
  5
C2
330
BC
100
AcDbEntity
  8
0
  6
Continuous
 62
     7
370
     0
100
AcDbLine
 10
98.0549839088
 20
77.8718066728
 30
0.0
 11
98.4840045287
 21
77.8718066728
 31
0.0
  0
LINE
  5
C3
330
BC
100
AcDbEntity
  8
0
  6
Continuous
 62
     7
370
     0
100
AcDbLine
 10
107.5276021191
 20
77.8718066728
 30
0.0
 11
107.5276021191
 21
75.0132138115
 31
0.0
  0
LINE
  5
C4
330
BC
100
AcDbEntity
  8
0
  6
Continuous
 62
     7
370
     0
100
AcDbLine
 10
107.5276021191
 20
75.0132138115
 30
0.0
 11
107.0985814991
 21
75.0132138115
 31
0.0
  0
LINE
  5
C5
330
BC
100
AcDbEntity
  8
0
  6
Continuous
 62
     7
370
     0
100
AcDbLine
 10
107.5276021191
 20
77.8718066728
 30
0.0
 11
107.0985814991
 21
77.8718066728
 31
0.0
  0
LINE
  5
C6
330
BC
100
AcDbEntity
  8
0
  6
Continuous
 62
     7
370
     0
100
AcDbLine
 10
82.8816537993
 20
88.560611236
 30
0.0
 11
91.6305832944
 21
79.8055606672
 31
0.0
  0
LINE
  5
C7
330
BC
100
AcDbEntity
  8
0
  6
Continuous
 62
     7
370
     0
100
AcDbLine
 10
91.6305832944
 20
79.8055606672
 30
0.0
 11
95.4405832944
 21
79.8055606672
 31
0.0
  0
MTEXT
  5
C8
330
BC
100
AcDbEntity
  8
0
  6
Continuous
 62
     7
370
     0
100
AcDbMText
 10
97.1969426689
 20
80.8525620541
 30
0.0
 40
2.1166666667
 41
0.0
 71
     1
 72
     1
  1
%%c
  7
SLDTEXTSTYLE0
 73
     1
 44
1.0
  0
MTEXT
  5
C9
330
BC
100
AcDbEntity
  8
0
  6
Continuous
 62
     7
370
     0
100
AcDbMText
 10
100.2236880514
 20
80.8525620541
 30
0.0
 40
2.1166666667
 41
0.0
 71
     1
 72
     1
  1
50.8mm
  7
SLDTEXTSTYLE0
 73
     1
 44
1.0
  0
MTEXT
  5
CA
330
BC
100
AcDbEntity
  8
0
  6
Continuous
 62
     7
370
     0
100
AcDbMText
 10
98.9130251487
 20
77.489511629
 30
0.0
 40
2.1166666667
 41
0.0
 71
     1
 72
     1
  1
2.00in
  7
SLDTEXTSTYLE0
 73
     1
 44
1.0
  0
ENDBLK
  5
BE
330
BC
100
AcDbEntity
  8
0
100
AcDbBlockEnd
  0
BLOCK
  5
CC
330
CB
100
AcDbEntity
  8
0
100
AcDbBlockBegin
  2
SW_CENTERMARKSYMBOL_0
 70
     0
 10
0.0
 20
0.0
 30
0.0
  3
SW_CENTERMARKSYMBOL_0
  1

  0
LINE
  5
CE
330
CB
100
AcDbEntity
  8
0
  6
Continuous
 62
     0
370
     0
100
AcDbLine
 10
0.0
 20
0.0
 30
0.0
 11
0.0
 21
2.0
 31
0.0
  0
LINE
  5
CF
330
CB
100
AcDbEntity
  8
0
  6
Continuous
 62
     0
370
     0
100
AcDbLine
 10
0.0
 20
0.0
 30
0.0
 11
-2.0
 21
0.0
 31
0.0
  0
LINE
  5
D0
330
CB
100
AcDbEntity
  8
0
  6
Continuous
 62
     0
370
     0
100
AcDbLine
 10
0.0
 20
0.0
 30
0.0
 11
0.0
 21
-2.0
 31
0.0
  0
LINE
  5
D1
330
CB
100
AcDbEntity
  8
0
  6
Continuous
 62
     0
370
     0
100
AcDbLine
 10
0.0
 20
0.0
 30
0.0
 11
2.0
 21
0.0
 31
0.0
  0
ENDBLK
  5
CD
330
CB
100
AcDbEntity
  8
0
100
AcDbBlockEnd
  0
BLOCK
  5
1F9
330
1F8
100
AcDbEntity
  8
0
100
AcDbBlockBegin
  2
*D9
 70
     1
 10
0.0
 20
0.0
 30
0.0
  3
*D9
  1

  0
SOLID
  5
1FB
330
1F8
100
AcDbEntity
  8
0
  6
Continuous
 62
     7
370
     0
100
AcDbTrace
 10
135.6477096731
 20
90.9256183686
 30
0.0
 11
138.7045723069
 21
89.9284825514
 31
0.0
 12
138.8630864398
 22
90.9320408554
 32
0.0
 13
138.8630864398
 23
90.9320408554
 33
0.0
  0
LINE
  5
1FC
330
1F8
100
AcDbEntity
  8
0
  6
Continuous
 62
     7
370
     0
100
AcDbLine
 10
157.9604882987
 20
86.4555901485
 30
0.0
 11
157.9604882987
 21
83.5969972872
 31
0.0
  0
LINE
  5
1FD
330
1F8
100
AcDbEntity
  8
0
  6
Continuous
 62
     7
370
     0
100
AcDbLine
 10
157.9604882987
 20
83.5969972872
 30
0.0
 11
158.3895089187
 21
83.5969972872
 31
0.0
  0
LINE
  5
1FE
330
1F8
100
AcDbEntity
  8
0
  6
Continuous
 62
     7
370
     0
100
AcDbLine
 10
157.9604882987
 20
86.4555901485
 30
0.0
 11
158.3895089187
 21
86.4555901485
 31
0.0
  0
LINE
  5
1FF
330
1F8
100
AcDbEntity
  8
0
  6
Continuous
 62
     7
370
     0
100
AcDbLine
 10
167.433106509
 20
86.4555901485
 30
0.0
 11
167.433106509
 21
83.5969972872
 31
0.0
  0
LINE
  5
200
330
1F8
100
AcDbEntity
  8
0
  6
Continuous
 62
     7
370
     0
100
AcDbLine
 10
167.433106509
 20
83.5969972872
 30
0.0
 11
167.004085889
 21
83.5969972872
 31
0.0
  0
LINE
  5
201
330
1F8
100
AcDbEntity
  8
0
  6
Continuous
 62
     7
370
     0
100
AcDbLine
 10
167.433106509
 20
86.4555901485
 30
0.0
 11
167.004085889
 21
86.4555901485
 31
0.0
  0
LINE
  5
202
330
1F8
100
AcDbEntity
  8
0
  6
Continuous
 62
     7
370
     0
100
AcDbLine
 10
135.6477096731
 20
90.9256183686
 30
0.0
 11
151.7049470588
 21
88.3893441429
 31
0.0
  0
LINE
  5
203
330
1F8
100
AcDbEntity
  8
0
  6
Continuous
 62
     7
370
     0
100
AcDbLine
 10
151.7049470588
 20
88.3893441429
 30
0.0
 11
155.5149470588
 21
88.3893441429
 31
0.0
  0
MTEXT
  5
204
330
1F8
100
AcDbEntity
  8
0
  6
Continuous
 62
     7
370
     0
100
AcDbMText
 10
157.1024470588
 20
89.4363455298
 30
0.0
 40
2.1166666667
 41
0.0
 71
     1
 72
     1
  1
R
  7
SLDTEXTSTYLE0
 73
     1
 44
1.0
  0
MTEXT
  5
205
330
1F8
100
AcDbEntity
  8
0
  6
Continuous
 62
     7
370
     0
100
AcDbMText
 10
158.8146025764
 20
89.4363455298
 30
0.0
 40
2.1166666667
 41
0.0
 71
     1
 72
     1
  1
100.0mm
  7
SLDTEXTSTYLE0
 73
     1
 44
1.0
  0
MTEXT
  5
206
330
1F8
100
AcDbEntity
  8
0
  6
Continuous
 62
     7
370
     0
100
AcDbMText
 10
158.8185295386
 20
86.0732951048
 30
0.0
 40
2.1166666667
 41
0.0
 71
     1
 72
     1
  1
3.94in
  7
SLDTEXTSTYLE0
 73
     1
 44
1.0
  0
ENDBLK
  5
1FA
330
1F8
100
AcDbEntity
  8
0
100
AcDbBlockEnd
  0
BLOCK
  5
20A
330
209
100
AcDbEntity
  8
0
100
AcDbBlockBegin
  2
*D10
 70
     1
 10
0.0
 20
0.0
 30
0.0
  3
*D10
  1

  0
SOLID
  5
20C
330
209
100
AcDbEntity
  8
0
  6
Continuous
 62
     7
370
     0
100
AcDbTrace
 10
145.8722860437
 20
141.9274031008
 30
0.0
 11
149.0472860437
 21
141.4194031008
 31
0.0
 12
149.0472860437
 22
142.4354031008
 32
0.0
 13
149.0472860437
 23
142.4354031008
 33
0.0
  0
SOLID
  5
20D
330
209
100
AcDbEntity
  8
0
  6
Continuous
 62
     7
370
     0
100
AcDbTrace
 10
136.8722860437
 20
141.9274031008
 30
0.0
 11
133.6972860437
 21
142.4354031008
 31
0.0
 12
133.6972860437
 22
141.4194031008
 32
0.0
 13
133.6972860437
 23
141.4194031008
 33
0.0
  0
LINE
  5
20E
330
209
100
AcDbEntity
  8
0
  6
Continuous
 62
     7
370
     0
100
AcDbLine
 10
155.001100067
 20
141.6751743189
 30
0.0
 11
155.001100067
 21
138.8165814576
 31
0.0
  0
LINE
  5
20F
330
209
100
AcDbEntity
  8
0
  6
Continuous
 62
     7
370
     0
100
AcDbLine
 10
155.001100067
 20
138.8165814576
 30
0.0
 11
155.430120687
 21
138.8165814576
 31
0.0
  0
LINE
  5
210
330
209
100
AcDbEntity
  8
0
  6
Continuous
 62
     7
370
     0
100
AcDbLine
 10
155.001100067
 20
141.6751743189
 30
0.0
 11
155.430120687
 21
141.6751743189
 31
0.0
  0
LINE
  5
211
330
209
100
AcDbEntity
  8
0
  6
Continuous
 62
     7
370
     0
100
AcDbLine
 10
164.4737182773
 20
141.6751743189
 30
0.0
 11
164.4737182773
 21
138.8165814576
 31
0.0
  0
LINE
  5
212
330
209
100
AcDbEntity
  8
0
  6
Continuous
 62
     7
370
     0
100
AcDbLine
 10
164.4737182773
 20
138.8165814576
 30
0.0
 11
164.0446976573
 21
138.8165814576
 31
0.0
  0
LINE
  5
213
330
209
100
AcDbEntity
  8
0
  6
Continuous
 62
     7
370
     0
100
AcDbLine
 10
164.4737182773
 20
141.6751743189
 30
0.0
 11
164.0446976573
 21
141.6751743189
 31
0.0
  0
LINE
  5
214
330
209
100
AcDbEntity
  8
0
  6
Continuous
 62
     7
370
     0
100
AcDbLine
 10
145.8722860437
 20
132.9974031008
 30
0.0
 11
145.8722860437
 21
143.7054031008
 31
0.0
  0
LINE
  5
215
330
209
100
AcDbEntity
  8
0
  6
Continuous
 62
     7
370
     0
100
AcDbLine
 10
136.8722860437
 20
107.7974031008
 30
0.0
 11
136.8722860437
 21
143.7054031008
 31
0.0
  0
LINE
  5
216
330
209
100
AcDbEntity
  8
0
  6
Continuous
 62
     7
370
     0
100
AcDbLine
 10
145.8722860437
 20
141.9274031008
 30
0.0
 11
152.1968308304
 21
141.9274031008
 31
0.0
  0
LINE
  5
217
330
209
100
AcDbEntity
  8
0
  6
Continuous
 62
     7
370
     0
100
AcDbLine
 10
136.8722860437
 20
141.9274031008
 30
0.0
 11
130.5222860437
 21
141.9274031008
 31
0.0
  0
MTEXT
  5
218
330
209
100
AcDbEntity
  8
0
  6
Continuous
 62
     7
370
     0
100
AcDbMText
 10
155.1377583515
 20
144.6559297002
 30
0.0
 40
2.1166666667
 41
0.0
 71
     1
 72
     1
  1
9.0mm
  7
SLDTEXTSTYLE0
 73
     1
 44
1.0
  0
MTEXT
  5
219
330
209
100
AcDbEntity
  8
0
  6
Continuous
 62
     7
370
     0
100
AcDbMText
 10
155.8591413069
 20
141.2928792752
 30
0.0
 40
2.1166666667
 41
0.0
 71
     1
 72
     1
  1
0.35in
  7
SLDTEXTSTYLE0
 73
     1
 44
1.0
  0
ENDBLK
  5
20B
330
209
100
AcDbEntity
  8
0
100
AcDbBlockEnd
  0
BLOCK
  5
21D
330
21C
100
AcDbEntity
  8
0
100
AcDbBlockBegin
  2
*D11
 70
     1
 10
0.0
 20
0.0
 30
0.0
  3
*D11
  1

  0
SOLID
  5
21F
330
21C
100
AcDbEntity
  8
0
  6
Continuous
 62
     7
370
     0
100
AcDbTrace
 10
145.8722860437
 20
153.9274031008
 30
0.0
 11
149.0472860437
 21
153.4194031008
 31
0.0
 12
149.0472860437
 22
154.4354031008
 32
0.0
 13
149.0472860437
 23
154.4354031008
 33
0.0
  0
SOLID
  5
220
330
21C
100
AcDbEntity
  8
0
  6
Continuous
 62
     7
370
     0
100
AcDbTrace
 10
133.6433533814
 20
153.9274031008
 30
0.0
 11
130.4683533814
 21
154.4354031008
 31
0.0
 12
130.4683533814
 22
153.4194031008
 32
0.0
 13
130.4683533814
 23
153.4194031008
 33
0.0
  0
LINE
  5
221
330
21C
100
AcDbEntity
  8
0
  6
Continuous
 62
     7
370
     0
100
AcDbLine
 10
160.4491494037
 20
153.6751743189
 30
0.0
 11
160.4491494037
 21
150.8165814576
 31
0.0
  0
LINE
  5
222
330
21C
100
AcDbEntity
  8
0
  6
Continuous
 62
     7
370
     0
100
AcDbLine
 10
160.4491494037
 20
150.8165814576
 30
0.0
 11
160.8781700237
 21
150.8165814576
 31
0.0
  0
LINE
  5
223
330
21C
100
AcDbEntity
  8
0
  6
Continuous
 62
     7
370
     0
100
AcDbLine
 10
160.4491494037
 20
153.6751743189
 30
0.0
 11
160.8781700237
 21
153.6751743189
 31
0.0
  0
LINE
  5
224
330
21C
100
AcDbEntity
  8
0
  6
Continuous
 62
     7
370
     0
100
AcDbLine
 10
169.921767614
 20
153.6751743189
 30
0.0
 11
169.921767614
 21
150.8165814576
 31
0.0
  0
LINE
  5
225
330
21C
100
AcDbEntity
  8
0
  6
Continuous
 62
     7
370
     0
100
AcDbLine
 10
169.921767614
 20
150.8165814576
 30
0.0
 11
169.492746994
 21
150.8165814576
 31
0.0
  0
LINE
  5
226
330
21C
100
AcDbEntity
  8
0
  6
Continuous
 62
     7
370
     0
100
AcDbLine
 10
169.921767614
 20
153.6751743189
 30
0.0
 11
169.492746994
 21
153.6751743189
 31
0.0
  0
LINE
  5
227
330
21C
100
AcDbEntity
  8
0
  6
Continuous
 62
     7
370
     0
100
AcDbLine
 10
145.8722860437
 20
132.9974031008
 30
0.0
 11
145.8722860437
 21
155.7054031008
 31
0.0
  0
LINE
  5
228
330
21C
100
AcDbEntity
  8
0
  6
Continuous
 62
     7
370
     0
100
AcDbLine
 10
133.6433533814
 20
133.0037619478
 30
0.0
 11
133.6433533814
 21
155.7054031008
 31
0.0
  0
LINE
  5
229
330
21C
100
AcDbEntity
  8
0
  6
Continuous
 62
     7
370
     0
100
AcDbLine
 10
145.8722860437
 20
153.9274031008
 30
0.0
 11
157.6448801672
 21
153.9274031008
 31
0.0
  0
LINE
  5
22A
330
21C
100
AcDbEntity
  8
0
  6
Continuous
 62
     7
370
     0
100
AcDbLine
 10
133.6433533814
 20
153.9274031008
 30
0.0
 11
127.2933533814
 21
153.9274031008
 31
0.0
  0
MTEXT
  5
22B
330
21C
100
AcDbEntity
  8
0
  6
Continuous
 62
     7
370
     0
100
AcDbMText
 10
159.8039495149
 20
156.6559297002
 30
0.0
 40
2.1166666667
 41
0.0
 71
     1
 72
     1
  1
12.2mm
  7
SLDTEXTSTYLE0
 73
     1
 44
1.0
  0
MTEXT
  5
22C
330
21C
100
AcDbEntity
  8
0
  6
Continuous
 62
     7
370
     0
100
AcDbMText
 10
171.5735588539
 20
156.6559297002
 30
0.0
 40
2.1166666667
 41
0.0
 71
     1
 72
     1
  1
REF
  7
SLDTEXTSTYLE0
 73
     1
 44
1.0
  0
MTEXT
  5
22D
330
21C
100
AcDbEntity
  8
0
  6
Continuous
 62
     7
370
     0
100
AcDbMText
 10
161.3071906437
 20
153.2928792752
 30
0.0
 40
2.1166666667
 41
0.0
 71
     1
 72
     1
  1
0.48in
  7
SLDTEXTSTYLE0
 73
     1
 44
1.0
  0
ENDBLK
  5
21E
330
21C
100
AcDbEntity
  8
0
100
AcDbBlockEnd
  0
ENDSEC
  0
SECTION
  2
ENTITIES
  0
LINE
  5
52
330
1F
100
AcDbEntity
  8
0
  6
Continuous
 62
     7
370
     0
100
AcDbLine
 10
1.5793501011
 20
214.6453799966
 30
0.0
 11
277.9892068491
 21
214.6453799966
 31
0.0
  0
LINE
  5
53
330
1F
100
AcDbEntity
  8
0
  6
Continuous
 62
     7
370
     0
100
AcDbLine
 10
1.5793501011
 20
214.6453799966
 30
0.0
 11
1.5793501011
 21
0.9031642596
 31
0.0
  0
LINE
  5
54
330
1F
100
AcDbEntity
  8
0
  6
Continuous
 62
     7
370
     0
100
AcDbLine
 10
277.9892068491
 20
0.9031642596
 30
0.0
 11
1.5793501011
 21
0.9031642596
 31
0.0
  0
LINE
  5
55
330
1F
100
AcDbEntity
  8
0
  6
Continuous
 62
     7
370
     0
100
AcDbLine
 10
277.9892068491
 20
0.9031642596
 30
0.0
 11
277.9892068491
 21
214.6453799966
 31
0.0
  0
LINE
  5
56
330
1F
100
AcDbEntity
  8
0
  6
Continuous
 62
     7
370
     0
100
AcDbLine
 10
215.7427640041
 20
12.2958890132
 30
0.0
 11
171.6327596684
 21
12.2958890132
 31
0.0
  0
LINE
  5
57
330
1F
100
AcDbEntity
  8
0
  6
Continuous
 62
     7
370
     0
100
AcDbLine
 10
171.6327596684
 20
12.2958890132
 30
0.0
 11
171.6327596684
 21
26.1661402506
 31
0.0
  0
LINE
  5
58
330
1F
100
AcDbEntity
  8
0
  6
Continuous
 62
     7
370
     0
100
AcDbLine
 10
171.6327596684
 20
0.9031642596
 30
0.0
 11
171.6327596684
 21
26.1661402506
 31
0.0
  0
LINE
  5
59
330
1F
100
AcDbEntity
  8
0
  6
Continuous
 62
     7
370
     0
100
AcDbLine
 10
215.7427640041
 20
17.1604579552
 30
0.0
 11
277.9892068491
 21
17.1604579552
 31
0.0
  0
LINE
  5
5A
330
1F
100
AcDbEntity
  8
0
  6
Continuous
 62
     7
370
     0
100
AcDbLine
 10
215.7427640041
 20
35.2394508358
 30
0.0
 11
215.7427640041
 21
0.9031642596
 31
0.0
  0
LINE
  5
5B
330
1F
100
AcDbEntity
  8
0
  6
Continuous
 62
     7
370
     0
100
AcDbLine
 10
215.7427640041
 20
26.1661402506
 30
0.0
 11
171.6327596684
 21
26.1661402506
 31
0.0
  0
LINE
  5
5C
330
1F
100
AcDbEntity
  8
0
  6
Continuous
 62
     7
370
     0
100
AcDbLine
 10
215.7427640041
 20
9.1409200612
 30
0.0
 11
277.9892068491
 21
9.1409200612
 31
0.0
  0
LINE
  5
5D
330
1F
100
AcDbEntity
  8
0
  6
Continuous
 62
     7
370
     0
100
AcDbLine
 10
215.7427640041
 20
16.9216824031
 30
0.0
 11
171.6327596684
 21
16.9216824031
 31
0.0
  0
LINE
  5
5E
330
1F
100
AcDbEntity
  8
0
  6
Continuous
 62
     7
370
     0
100
AcDbLine
 10
215.7427640041
 20
21.4874005542
 30
0.0
 11
171.6327596684
 21
21.4874005542
 31
0.0
  0
LINE
  5
5F
330
1F
100
AcDbEntity
  8
0
  6
Continuous
 62
     7
370
     0
100
AcDbLine
 10
186.1338100705
 20
26.1661402506
 30
0.0
 11
186.1338100705
 21
12.2958890132
 31
0.0
  0
LINE
  5
60
330
1F
100
AcDbEntity
  8
0
  6
Continuous
 62
     7
370
     0
100
AcDbLine
 10
198.2145906188
 20
26.1661402506
 30
0.0
 11
198.2145906188
 21
12.2958890132
 31
0.0
  0
LINE
  5
61
330
1F
100
AcDbEntity
  8
0
  6
Continuous
 62
     7
370
     0
100
AcDbLine
 10
253.7490408369
 20
9.1409200612
 30
0.0
 11
253.7490408369
 21
0.9031642596
 31
0.0
  0
LINE
  5
62
330
1F
100
AcDbEntity
  8
0
  6
Continuous
 62
     7
370
     0
100
AcDbLine
 10
171.6327596684
 20
12.2958890132
 30
0.0
 11
171.6327596684
 21
7.5627342528
 31
0.0
  0
LINE
  5
63
330
1F
100
AcDbEntity
  8
0
  6
Continuous
 62
     7
370
     0
100
AcDbLine
 10
171.6327596684
 20
7.5627342528
 30
0.0
 11
215.7427640041
 21
7.5627342528
 31
0.0
  0
LINE
  5
64
330
1F
100
AcDbEntity
  8
0
  6
Continuous
 62
     7
370
     0
100
AcDbLine
 10
171.6327596684
 20
7.5627342528
 30
0.0
 11
171.6327596684
 21
35.2394508358
 31
0.0
  0
LINE
  5
65
330
1F
100
AcDbEntity
  8
0
  6
Continuous
 62
     7
370
     0
100
AcDbLine
 10
171.6327596684
 20
35.2394508358
 30
0.0
 11
215.7427640041
 21
35.2394508358
 31
0.0
  0
LINE
  5
66
330
1F
100
AcDbEntity
  8
0
  6
Continuous
 62
     7
370
     0
100
AcDbLine
 10
270.1683598194
 20
17.1604579552
 30
0.0
 11
270.1683598194
 21
9.1409200612
 31
0.0
  0
LINE
  5
67
330
1F
100
AcDbEntity
  8
0
  6
Continuous
 62
     7
370
     0
100
AcDbLine
 10
215.7427640041
 20
35.2394508358
 30
0.0
 11
277.9892068491
 21
35.2394508358
 31
0.0
  0
LINE
  5
68
330
1F
100
AcDbEntity
  8
0
  6
Continuous
 62
     7
370
     0
100
AcDbLine
 10
277.9892068491
 20
35.2394508358
 30
0.0
 11
277.9892068491
 21
50.0331356147
 31
0.0
  0
LINE
  5
69
330
1F
100
AcDbEntity
  8
0
  6
Continuous
 62
     7
370
     0
100
AcDbLine
 10
215.7427640041
 20
24.8927335446
 30
0.0
 11
277.9892068491
 21
24.8927335446
 31
0.0
  0
INSERT
  5
6A
330
1F
100
AcDbEntity
  8
0
  6
Continuous
 62
     7
100
AcDbBlockReference
  2
Third Angle Projection Block
 10
117.7262204235
 20
15.5162339489
 30
0.0
 41
0.8
 42
0.8
 43
0.8
  0
MTEXT
  5
6C
330
1F
100
AcDbEntity
  8
0
  6
Continuous
 62
     7
370
     0
100
AcDbMText
 10
273.7514466724
 20
13.1125292762
 30
0.0
 40
3.175
 41
0.0
 71
     2
 72
     1
  1
A
  7
SLDTEXTSTYLE0
 73
     1
 44
1.0
  0
MTEXT
  5
6D
330
1F
100
AcDbEntity
  8
0
  6
Continuous
 62
     7
370
     0
100
AcDbMText
 10
234.5976707838
 20
5.1306563898
 30
0.0
 40
3.175
 41
0.0
 71
     2
 72
     1
  1
CM508-050-E01
  7
SLDTEXTSTYLE0
 73
     1
 44
1.0
  0
MTEXT
  5
6E
330
1F
100
AcDbEntity
  8
0
  6
Continuous
 62
     7
370
     0
100
AcDbMText
 10
216.4199766059
 20
16.8243178599
 30
0.0
 40
2.1166666667
 41
0.0
 71
     1
 72
     1
  1
MATERIAL
  7
SLDTEXTSTYLE0
 73
     1
 44
1.0
  0
MTEXT
  5
6F
330
1F
100
AcDbEntity
  8
0
  6
Continuous
 62
     7
370
     0
100
AcDbMText
 10
174.230946566
 20
20.054553926
 30
0.0
 40
1.8520833333
 41
0.0
 71
     1
 72
     1
  1
DRAWN
  7
SLDTEXTSTYLE0
 73
     1
 44
1.0
  0
MTEXT
  5
70
330
1F
100
AcDbEntity
  8
0
  6
Continuous
 62
     7
370
     0
100
AcDbMText
 10
172.3960124543
 20
15.5787169747
 30
0.0
 40
1.8520833333
 41
0.0
 71
     1
 72
     1
  1
APPROVAL
  7
SLDTEXTSTYLE0
 73
     1
 44
1.0
  0
MTEXT
  5
71
330
1F
100
AcDbEntity
  8
0
  6
Continuous
 62
     7
370
     0
100
AcDbMText
 10
271.321689486
 20
16.0237652193
 30
0.0
 40
2.1166666667
 41
0.0
 71
     1
 72
     1
  1
REV
  7
SLDTEXTSTYLE0
 73
     1
 44
1.0
  0
MTEXT
  5
72
330
1F
100
AcDbEntity
  8
0
  6
Continuous
 62
     7
370
     0
100
AcDbMText
 10
190.2958696448
 20
20.3177146903
 30
0.0
 40
2.1166666667
 41
0.0
 71
     1
 72
     1
  1
MG
  7
SLDTEXTSTYLE0
 73
     1
 44
1.0
  0
MTEXT
  5
73
330
1F
100
AcDbEntity
  8
0
  6
Continuous
 62
     7
370
     0
100
AcDbMText
 10
199.8662436873
 20
20.3177146903
 30
0.0
 40
2.1166666667
 41
0.0
 71
     1
 72
     1
  1
15/JUN/11
  7
SLDTEXTSTYLE0
 73
     1
 44
1.0
  0
MTEXT
  5
74
330
1F
100
AcDbEntity
  8
0
  6
Continuous
 62
     7
370
     0
100
AcDbMText
 10
203.6145073853
 20
24.8221395769
 30
0.0
 40
2.1166666667
 41
0.0
 71
     1
 72
     1
  1
DATE
  7
SLDTEXTSTYLE0
 73
     1
 44
1.0
  0
MTEXT
  5
76
330
1F
100
AcDbEntity
  8
0
  6
Continuous
 62
     7
370
     0
100
AcDbMText
 10
229.402906477
 20
27.7957480569
 30
0.0
 40
2.1166666667
 41
0.0
 71
     1
 72
     1
  1
w w w . t h o r  l a b s . c o m
  7
SLDTEXTSTYLE1
 73
     1
 44
1.0
  0
MTEXT
  5
77
330
1F
100
AcDbEntity
  8
0
  6
Continuous
 62
     7
370
     0
100
AcDbMText
 10
216.7004035316
 20
8.3494791871
 30
0.0
 40
2.1166666667
 41
0.0
 71
     1
 72
     1
  1
ITEM #
  7
SLDTEXTSTYLE0
 73
     1
 44
1.0
  0
MTEXT
  5
78
330
1F
100
AcDbEntity
  8
0
  6
Continuous
 62
     7
370
     0
100
AcDbMText
 10
254.5318000914
 20
8.3494791871
 30
0.0
 40
2.1166666667
 41
0.0
 71
     1
 72
     1
  1
APPROX WEIGHT
  7
SLDTEXTSTYLE0
 73
     1
 44
1.0
  0
MTEXT
  5
79
330
1F
100
AcDbEntity
  8
0
  6
Continuous
 62
     7
370
     0
100
AcDbMText
 10
243.7058359879
 20
13.1125292762
 30
0.0
 40
3.175
 41
0.0
 71
     2
 72
     1
  1
N-BK7
  7
SLDTEXTSTYLE0
 73
     1
 44
1.0
  0
MTEXT
  5
7A
330
1F
100
AcDbEntity
  8
0
  6
Continuous
 62
     7
370
     0
100
AcDbMText
 10
266.1678480997
 20
5.1306563898
 30
0.0
 40
3.175
 41
0.0
 71
     2
 72
     1
  1
0.05 kg
  7
SLDTEXTSTYLE0
 73
     1
 44
1.0
  0
INSERT
  5
80
330
1F
100
AcDbEntity
  8
0
  6
Continuous
 62
     7
370
     0
100
AcDbBlockReference
  2
SW_NOTE_0
 10
174.8430140051
 20
4.4558554801
 30
0.0
  0
INSERT
  5
86
330
1F
100
AcDbEntity
  8
0
  6
Continuous
 62
     7
370
     0
100
AcDbBlockReference
  2
SW_NOTE_1
 10
174.5483650337
 20
30.4835322715
 30
0.0
  0
MTEXT
  5
87
330
1F
100
AcDbEntity
  8
0
  6
Continuous
 62
     7
370
     0
100
AcDbMText
 10
187.9273588276
 20
24.8221395769
 30
0.0
 40
2.1166666667
 41
0.0
 71
     1
 72
     1
  1
NAME
  7
SLDTEXTSTYLE0
 73
     1
 44
1.0
  0
INSERT
  5
8D
330
1F
100
AcDbEntity
  8
0
  6
Continuous
 62
     7
370
     0
100
AcDbBlockReference
  2
SW_NOTE_2
 10
58.6204667508
 20
8.1776609732
 30
0.0
  0
MTEXT
  5
8E
330
1F
100
AcDbEntity
  8
0
  6
Continuous
 62
     7
370
     0
100
AcDbMText
 10
179.1174811218
 20
10.6680638482
 30
0.0
 40
1.5875
 41
0.0
 71
     1
 72
     1
  1
COPYRIGHT © 2010 BY THORLABS
  7
SLDTEXTSTYLE0
 73
     1
 44
1.0
  0
INSERT
  5
95
330
1F
100
AcDbEntity
  8
0
  6
Continuous
 62
     7
370
     0
100
AcDbBlockReference
  2
SW_NOTE_3
 10
217.0039836611
 20
20.5867261075
 30
0.0
  0
INSERT
  5
B5
330
1F
100
AcDbEntity
  8
0
  6
Continuous
 62
     7
370
     0
100
AcDbBlockReference
  2
SW_NOTE_4
 10
7.6260365631
 20
52.5785051551
 30
0.0
  0
MTEXT
  5
B6
330
1F
100
AcDbEntity
  8
0
  6
Continuous
 62
     7
370
     0
100
AcDbMText
 10
200.0390644263
 20
15.8608595443
 30
0.0
 40
2.1166666667
 41
0.0
 71
     1
 72
     1
  1
13/JUL/11
  7
SLDTEXTSTYLE0
 73
     1
 44
1.0
  0
MTEXT
  5
B7
330
1F
100
AcDbEntity
  8
0
  6
Continuous
 62
     7
370
     0
100
AcDbMText
 10
190.4686903838
 20
15.8608595443
 30
0.0
 40
2.1166666667
 41
0.0
 71
     1
 72
     1
  1
PM
  7
SLDTEXTSTYLE0
 73
     1
 44
1.0
  0
CIRCLE
  5
B8
330
1F
100
AcDbEntity
  8
0
  6
Continuous
 62
     7
370
     0
100
AcDbCircle
 10
64.9274233762
 20
106.5274031008
 30
0.0
 40
25.39999999999999
  0
CIRCLE
  5
B9
330
1F
100
AcDbEntity
  8
0
  6
Continuous
 62
     7
370
     0
100
AcDbCircle
 10
64.9274233762
 20
106.5274031008
 30
0.0
 40
25.20635884701419
  0
DIMENSION
  5
BA
330
1F
100
AcDbEntity
  8
0
  6
Continuous
 62
     7
370
     0
100
AcDbDimension
  2
*D7
 10
46.9731929531
 20
124.4941949656
 30
0.0
 11
103.9226508227
 21
79.8055606672
 31
0.0
 70
   163
  1
<>
 71
     1
 42
-1.0
  3
SLDDIMSTYLE0
100
AcDbDiametricDimension
 15
82.8816537993
 25
88.560611236
 35
0.0
 40
0.0
  0
INSERT
  5
D2
330
1F
100
AcDbEntity
  8
0
  6
Continuous
 62
     7
370
     0
100
AcDbBlockReference
  2
SW_CENTERMARKSYMBOL_0
 10
64.9274233762
 20
106.5274031008
 30
0.0
  0
LINE
  5
D3
330
1F
100
AcDbEntity
  8
0
  6
PHANTOM
 62
     7
370
    30
100
AcDbLine
 10
64.9274233762
 20
139.0213777472
 30
0.0
 11
64.9274233762
 21
74.122854363
 31
0.0
  0
LINE
  5
D4
330
1F
100
AcDbEntity
  8
0
  6
Continuous
 62
     7
370
    30
100
AcDbLine
 10
64.9274233762
 20
139.0213777472
 30
0.0
 11
56.0374233762
 21
139.0213777472
 31
0.0
  0
SOLID
  5
D5
330
1F
100
AcDbEntity
  8
0
  6
Continuous
 62
     7
370
    30
100
AcDbTrace
 10
56.0374233762
 20
139.0213777472
 30
0.0
 11
59.8474233762
 21
138.3863777472
 31
0.0
 12
59.8474233762
 22
139.6563777472
 32
0.0
 13
59.8474233762
 23
139.6563777472
 33
0.0
  0
LINE
  5
D6
330
1F
100
AcDbEntity
  8
0
  6
Continuous
 62
     7
370
    30
100
AcDbLine
 10
64.9274233762
 20
74.122854363
 30
0.0
 11
56.0374233762
 21
74.122854363
 31
0.0
  0
SOLID
  5
D7
330
1F
100
AcDbEntity
  8
0
  6
Continuous
 62
     7
370
    30
100
AcDbTrace
 10
56.0374233762
 20
74.122854363
 30
0.0
 11
59.8474233762
 21
73.487854363
 31
0.0
 12
59.8474233762
 22
74.757854363
 32
0.0
 13
59.8474233762
 23
74.757854363
 33
0.0
  0
MTEXT
  5
D8
330
1F
100
AcDbEntity
  8
0
  6
Continuous
 62
     7
100
AcDbMText
 10
53.7621414796
 20
140.4252667324
 30
0.0
 40
2.6458333333
 41
0.0
 71
     1
 72
     1
  1
A
  7
SLDTEXTSTYLE0
 73
     1
 44
1.0
  0
MTEXT
  5
D9
330
1F
100
AcDbEntity
  8
0
  6
Continuous
 62
     7
100
AcDbMText
 10
53.7621414796
 20
75.5267433482
 30
0.0
 40
2.6458333333
 41
0.0
 71
     1
 72
     1
  1
A
  7
SLDTEXTSTYLE0
 73
     1
 44
1.0
  0
LINE
  5
DA
330
1F
100
AcDbEntity
  8
0
  6
Continuous
 62
     7
370
     0
100
AcDbLine
 10
216.1116269956
 20
176.3145840137
 30
0.0
 11
216.1334449345
 21
176.2379158677
 31
0.0
  0
LINE
  5
DB
330
1F
100
AcDbEntity
  8
0
  6
Continuous
 62
     7
370
     0
100
AcDbLine
 10
226.1956428091
 20
158.8077893226
 30
0.0
 11
226.2511250312
 21
158.7505551536
 31
0.0
  0
LINE
  5
DC
330
1F
100
AcDbEntity
  8
0
  6
Continuous
 62
     7
370
     0
100
AcDbLine
 10
228.5275159733
 20
201.1020051456
 30
0.0
 11
220.1273856954
 21
196.2527131563
 31
0.0
  0
LINE
  5
DD
330
1F
100
AcDbEntity
  8
0
  6
Continuous
 62
     7
370
     0
100
AcDbLine
 10
245.5253215043
 20
152.2574309473
 30
0.0
 11
253.9254517822
 21
157.1067229367
 31
0.0
  0
LINE
  5
DE
330
1F
100
AcDbEntity
  8
0
  6
Continuous
 62
     7
370
     0
100
AcDbLine
 10
259.1869961199
 20
168.735981021
 30
0.0
 11
259.1869961199
 21
168.8992626434
 31
0.0
  0
LINE
  5
DF
330
1F
100
AcDbEntity
  8
0
  6
Continuous
 62
     7
370
     0
100
AcDbLine
 10
241.3708013374
 20
199.7611611552
 30
0.0
 11
241.2294029661
 21
199.8428152353
 31
0.0
  0
LWPOLYLINE
  5
E0
330
1F
100
AcDbEntity
  8
0
  6
Continuous
 62
     7
370
     0
100
AcDbPolyline
 90
       53
 70
   128
 43
0.0
 10
250.786865842
 20
163.8866890317
 10
250.7738453291
 20
163.1046139188
 10
250.7348026691
 20
162.3387059042
 10
250.6697944699
 20
161.5900754813
 10
250.5789149874
 20
160.8598080927
 10
250.4622959879
 20
160.1489625562
 10
250.3201065581
 20
159.4585695299
 10
250.1525528588
 20
158.7896300177
 10
249.9598778271
 20
158.143113918
 10
249.7423608232
 20
157.5199586172
 10
249.500317226
 20
156.921067631
 10
249.2340979756
 20
156.3473092941
 10
248.9440890644
 20
155.7995155012
 10
248.6307109777
 20
155.2784805009
 10
248.2944180837
 20
154.7849597442
 10
247.935697975
 20
154.319668789
 10
247.5550707614
 20
153.8832822626
 10
247.153088316
 20
153.4764328839
 10
246.7303334749
 20
153.0997105455
 10
246.2874191922
 20
152.7536614588
 10
245.8249876513
 20
152.438787362
 10
245.3437093337
 20
152.1555447922
 10
244.8442820469
 20
151.9043444243
 10
244.3274299129
 20
151.6855504747
 10
243.7939023177
 20
151.4994801737
 10
243.2444728253
 20
151.3464033054
 10
242.6799380561
 20
151.2265418168
 10
242.1011165314
 20
151.1400694954
 10
241.5088474872
 20
151.087111718
 10
240.9039896568
 20
151.0677452681
 10
240.2874200264
 20
151.0819982254
 10
239.660032563
 20
151.1298499243
 10
239.0227369184
 20
151.2112309845
 10
238.3764571103
 20
151.3260234113
 10
237.7221301828
 20
151.4740607665
 10
237.0607048473
 20
151.6551284102
 10
236.3931401072
 20
151.8689638117
 10
235.7204038677
 20
152.1152569299
 10
235.043471532
 20
152.3936506635
 10
234.3633245873
 20
152.7037413681
 10
233.6809491815
 20
153.0450794419
 10
232.9973346939
 20
153.4171699773
 10
232.3134723
 20
153.8194734785
 10
231.630353535
 20
154.2514066441
 10
230.9489688557
 20
154.7123432121
 10
230.2703062048
 20
155.2016148686
 10
229.5953495783
 20
155.7185122165
 10
228.9250775987
 20
156.262285804
 10
228.2604620964
 20
156.8321472115
 10
227.6024667002
 20
157.4272701944
 10
226.9520454407
 20
158.0467918811
 10
226.3101413664
 20
158.6898140247
 10
226.2511250312
 20
158.7505551536
  0
LWPOLYLINE
  5
E1
330
1F
100
AcDbEntity
  8
0
  6
Continuous
 62
     7
370
     0
100
AcDbPolyline
 90
       95
 70
   128
 43
0.0
 10
216.1116269956
 20
176.3145840137
 10
216.0283234569
 20
176.6120177518
 10
215.7985015001
 20
177.4884984493
 10
215.593368301
 20
178.3602909877
 10
215.4132212831
 20
179.226131351
 10
215.2583216422
 20
180.0847641536
 10
215.1288939683
 20
180.93494446
 10
215.0251259189
 20
181.77543959
 10
214.9471679478
 20
182.605030906
 10
214.8951330866
 20
183.4225155799
 10
214.869096781
 20
184.2267083372
 10
214.869096781
 20
185.0164431751
 10
214.8951330866
 20
185.7905750537
 10
214.9471679478
 20
186.5479815557
 10
215.0251259189
 20
187.2875645142
 10
215.1288939683
 20
188.0082516045
 10
215.2583216422
 20
188.7089978993
 10
215.4132212831
 20
189.3887873834
 10
215.593368301
 20
190.0466344271
 10
215.7985015001
 20
190.681585215
 10
216.0283234569
 20
191.2927191293
 10
216.2825009516
 20
191.8791500841
 10
216.5606654509
 20
192.4400278106
 10
216.862413643
 20
192.9745390897
 10
217.1873080219
 20
193.4819089313
 10
217.5348775218
 20
193.9614016975
 10
217.9046182002
 20
194.4123221696
 10
218.2959939683
 20
194.8340165562
 10
218.7084373687
 20
195.2258734405
 10
219.1413503981
 20
195.5873246677
 10
219.5941053737
 20
195.917846168
 10
220.0660458443
 20
196.2169587168
 10
220.5564875412
 20
196.4842286295
 10
221.0647193709
 20
196.7192683903
 10
221.5900044458
 20
196.9217372139
 10
222.1315811528
 20
197.0913415401
 10
222.6886642574
 20
197.2278354587
 10
223.2604460424
 20
197.3310210665
 10
223.8460974788
 20
197.4007487544
 10
224.444769428
 20
197.4369174238
 10
225.0555938731
 20
197.4394746336
 10
225.6776851768
 20
197.4084166761
 10
226.3101413664
 20
197.3437885824
 10
226.9520454407
 20
197.245684057
 10
227.6024667002
 20
197.1142453422
 10
228.2604620964
 20
196.9496630114
 10
228.9250775987
 20
196.7521756934
 10
229.5953495783
 20
196.5220697258
 10
230.2703062048
 20
196.2596787404
 10
230.9489688557
 20
195.9653831789
 10
231.630353535
 20
195.6396097418
 10
232.3134723
 20
195.2828307694
 10
232.9973346939
 20
194.8955635572
 10
233.6809491815
 20
194.4783696055
 10
234.3633245873
 20
194.0318538058
 10
235.043471532
 20
193.5566635632
 10
235.7204038677
 20
193.0534878581
 10
236.3931401072
 20
192.5230562473
 10
237.0607048473
 20
191.9661378058
 10
237.7221301828
 20
191.3835400122
 10
238.3764571103
 20
190.7761075775
 10
239.0227369184
 20
190.1447212207
 10
239.660032563
 20
189.4902963918
 10
240.2874200264
 20
188.813781944
 10
240.9039896568
 20
188.1161587587
 10
241.5088474872
 20
187.3984383228
 10
242.1011165314
 20
186.6616612623
 10
242.6799380561
 20
185.9068958336
 10
243.2444728253
 20
185.1352363743
 10
243.7939023177
 20
184.3478017169
 10
244.3274299129
 20
183.5457335664
 10
244.8442820469
 20
182.7301948448
 10
245.3437093337
 20
181.9023680055
 10
245.8249876513
 20
181.0634533181
 10
246.2874191922
 20
180.2146671287
 10
246.7303334749
 20
179.3572400962
 10
247.153088316
 20
178.4924154079
 10
247.5550707614
 20
177.6214469767
 10
247.935697975
 20
176.7455976238
 10
248.2944180837
 20
175.8661372468
 10
248.6307109777
 20
174.9843409794
 10
248.9440890644
 20
174.1014873417
 10
249.2340979756
 20
173.2188563872
 10
249.500317226
 20
172.3377278463
 10
249.7423608232
 20
171.4593792712
 10
249.9598778271
 20
170.5850841834
 10
250.1525528588
 20
169.7161102271
 10
250.3201065581
 20
168.8537173316
 10
250.4622959879
 20
167.999155884
 10
250.5789149874
 20
167.1536649168
 10
250.6697944699
 20
166.318470311
 10
250.7348026691
 20
165.4947830191
 10
250.7738453291
 20
164.6837973087
 10
250.786865842
 20
163.8866890317
 10
250.786865842
 20
163.8866890317
  0
LWPOLYLINE
  5
E2
330
1F
100
AcDbEntity
  8
0
  6
Continuous
 62
     7
370
     0
100
AcDbPolyline
 90
      165
 70
   128
 43
0.0
 10
250.5443312915
 20
163.904767024
 10
250.5312520054
 20
164.7006651935
 10
250.4920333429
 20
165.5104962949
 10
250.4267328626
 20
166.3330717895
 10
250.335446402
 20
167.1671844343
 10
250.2183079367
 20
168.0116100539
 10
250.0754893834
 20
168.8651093373
 10
249.9072003481
 20
169.7264296566
 10
249.7136878182
 20
170.5943069055
 10
249.4952358
 20
171.4674673544
 10
249.2521649019
 20
172.3446295199
 10
248.984831864
 20
173.2245060457
 10
248.6936290344
 20
174.1058055916
 10
248.3789837934
 20
174.9872347289
 10
248.0413579263
 20
175.8674998389
 10
247.6812469456
 20
176.7453090111
 10
247.2991793639
 20
177.6193739395
 10
246.8957159179
 20
178.4884118134
 10
246.471448746
 20
179.3511471997
 10
246.0270005187
 20
180.2063139154
 10
245.5630235251
 20
181.0526568853
 10
245.0801987153
 20
181.8889339844
 10
244.5792347015
 20
182.7139178609
 10
244.0608667173
 20
183.526397737
 10
243.5258555393
 20
184.3251811865
 10
242.9749863701
 20
185.1090958845
 10
242.4090676862
 20
185.8769913282
 10
241.8289300514
 20
186.6277405251
 10
241.2354248975
 20
187.3602416471
 10
240.6294232753
 20
188.073419648
 10
240.0118145757
 20
188.7662278406
 10
239.3835052247
 20
189.4376494334
 10
238.7454173527
 20
190.0866990225
 10
238.0984874419
 20
190.7124240383
 10
237.4436649511
 20
191.3139061429
 10
236.7819109224
 20
191.8902625785
 10
236.1141965714
 20
192.4406474625
 10
235.4415018607
 20
192.9642530292
 10
234.7648140628
 20
193.4603108152
 10
234.0851263101
 20
193.9280927872
 10
233.4034361384
 20
194.3669124109
 10
232.7207440218
 20
194.7761256577
 10
232.0380519052
 20
195.155131951
 10
231.3563617334
 20
195.5033750466
 10
230.6766739808
 20
195.8203438498
 10
229.9999861828
 20
196.1055731652
 10
229.3272914722
 20
196.3586443794
 10
228.6595771211
 20
196.5791860755
 10
227.9978230925
 20
196.7668745782
 10
227.3430006016
 20
196.9214344287
 10
226.6960706908
 20
197.0426387891
 10
226.0579828189
 20
197.1303097753
 10
225.4296734678
 20
197.1843187181
 10
224.8120647682
 20
197.2045863518
 10
224.206063146
 20
197.1910829309
 10
223.6125579922
 20
197.1438282736
 10
223.0324203573
 20
197.0628917326
 10
222.4665016735
 20
196.9483920934
 10
221.9156325043
 20
196.8004974
 10
221.3806213263
 20
196.6194247083
 10
220.8622533421
 20
196.4054397674
 10
220.3612893282
 20
196.1588566298
 10
219.8784645185
 20
195.8800371901
 10
219.4144875249
 20
195.5693906544
 10
218.9700392976
 20
195.2273729393
 10
218.5457721256
 20
194.854486003
 10
218.1423086797
 20
194.4512771084
 10
217.7602410979
 20
194.0183380202
 10
217.4001301172
 20
193.5563041363
 10
217.0625042501
 20
193.065853555
 10
216.7478590091
 20
192.5477060803
 10
216.4566561796
 20
192.0026221649
 10
216.1893231417
 20
191.4314017947
 10
215.9462522436
 20
190.8348833145
 10
215.7278002253
 20
190.2139421972
 10
215.5342876954
 20
189.5694897596
 10
215.3659986601
 20
188.9024718246
 10
215.2231801069
 20
188.2138673329
 10
215.1060416416
 20
187.5046869066
 10
215.014755181
 20
186.7759713657
 10
214.9494547007
 20
186.0287902009
 10
214.9102360381
 20
185.2642400034
 10
214.897156752
 20
184.4834428562
 10
214.9102360381
 20
183.6875446867
 10
214.9494547007
 20
182.8777135853
 10
215.014755181
 20
182.0551380907
 10
215.1060416416
 20
181.2210254459
 10
215.2231801069
 20
180.3765998263
 10
215.3659986601
 20
179.5231005429
 10
215.5342876954
 20
178.6617802236
 10
215.7278002253
 20
177.7939029747
 10
215.9462522436
 20
176.9207425258
 10
216.1893231417
 20
176.0435803603
 10
216.4566561796
 20
175.1637038345
 10
216.7478590091
 20
174.2824042887
 10
217.0625042501
 20
173.4009751513
 10
217.4001301172
 20
172.5207100413
 10
217.7602410979
 20
171.6429008691
 10
218.1423086797
 20
170.7688359407
 10
218.5457721256
 20
169.8997980668
 10
218.9700392976
 20
169.0370626805
 10
219.4144875249
 20
168.1818959649
 10
219.8784645185
 20
167.3355529949
 10
220.3612893282
 20
166.4992758958
 10
220.8622533421
 20
165.6742920194
 10
221.3806213263
 20
164.8618121433
 10
221.9156325043
 20
164.0630286937
 10
222.4665016735
 20
163.2791139957
 10
223.0324203573
 20
162.511218552
 10
223.6125579922
 20
161.7604693551
 10
224.206063146
 20
161.0279682331
 10
224.8120647682
 20
160.3147902322
 10
225.4296734678
 20
159.6219820396
 10
226.0579828189
 20
158.9505604469
 10
226.6960706908
 20
158.3015108577
 10
227.3430006016
 20
157.6757858419
 10
227.9978230925
 20
157.0743037373
 10
228.6595771211
 20
156.4979473017
 10
229.3272914722
 20
155.9475624177
 10
229.9999861828
 20
155.423956851
 10
230.6766739808
 20
154.927899065
 10
231.3563617334
 20
154.460117093
 10
232.0380519052
 20
154.0212974693
 10
232.7207440218
 20
153.6120842225
 10
233.4034361384
 20
153.2330779292
 10
234.0851263101
 20
152.8848348336
 10
234.7648140628
 20
152.5678660304
 10
235.4415018607
 20
152.2826367151
 10
236.1141965714
 20
152.0295655008
 10
236.7819109224
 20
151.8090238047
 10
237.4436649511
 20
151.621335302
 10
238.0984874419
 20
151.4667754515
 10
238.7454173527
 20
151.3455710911
 10
239.3835052247
 20
151.2579001049
 10
240.0118145757
 20
151.2038911621
 10
240.6294232753
 20
151.1836235284
 10
241.2354248975
 20
151.1971269493
 10
241.8289300514
 20
151.2443816066
 10
242.4090676862
 20
151.3253181476
 10
242.9749863701
 20
151.4398177868
 10
243.5258555393
 20
151.5877124802
 10
244.0608667173
 20
151.7687851719
 10
244.5792347015
 20
151.9827701128
 10
245.0801987153
 20
152.2293532505
 10
245.5630235251
 20
152.5081726901
 10
246.0270005187
 20
152.8188192258
 10
246.471448746
 20
153.1608369409
 10
246.8957159179
 20
153.5337238772
 10
247.2991793639
 20
153.9369327718
 10
247.6812469456
 20
154.36987186
 10
248.0413579263
 20
154.8319057439
 10
248.3789837934
 20
155.3223563252
 10
248.6936290344
 20
155.8405038
 10
248.984831864
 20
156.3855877153
 10
249.2521649019
 20
156.9568080855
 10
249.4952358
 20
157.5533265658
 10
249.7136878182
 20
158.174267683
 10
249.9072003481
 20
158.8187201206
 10
250.0754893834
 20
159.4857380556
 10
250.2183079367
 20
160.1743425473
 10
250.335446402
 20
160.8835229736
 10
250.4267328626
 20
161.6122385145
 10
250.4920333429
 20
162.3594196793
 10
250.5312520054
 20
163.1239698768
 10
250.5443312915
 20
163.904767024
  0
LWPOLYLINE
  5
E3
330
1F
100
AcDbEntity
  8
0
  6
Continuous
 62
     7
370
     0
100
AcDbPolyline
 90
       85
 70
   128
 43
0.0
 10
253.9254517822
 20
157.1067229367
 10
253.9867916333
 20
157.1424773762
 10
254.4587321039
 20
157.441589925
 10
254.9114870795
 20
157.7721114252
 10
255.3444001088
 20
158.1335626524
 10
255.7568435093
 20
158.5254195368
 10
256.1482192774
 20
158.9471139233
 10
256.5179599558
 20
159.3980343955
 10
256.8655294556
 20
159.8775271616
 10
257.1904238345
 20
160.3848970032
 10
257.4921720267
 20
160.9194082824
 10
257.770336526
 20
161.4802860089
 10
258.0245140206
 20
162.0667169637
 10
258.2543359774
 20
162.6778508779
 10
258.4594691766
 20
163.3128016658
 10
258.6396161945
 20
163.9706487095
 10
258.7945158353
 20
164.6504381936
 10
258.9239435093
 20
165.3511844884
 10
259.0277115587
 20
166.0718715788
 10
259.1056695298
 20
166.8114545372
 10
259.157704391
 20
167.5688610393
 10
259.1837406966
 20
168.3429929179
 10
259.1837406966
 20
169.1327277558
 10
259.157704391
 20
169.936920513
 10
259.1056695298
 20
170.754405187
 10
259.0277115587
 20
171.583996503
 10
258.9239435093
 20
172.424491633
 10
258.7945158353
 20
173.2746719393
 10
258.6396161945
 20
174.1333047419
 10
258.4594691766
 20
174.9991451053
 10
258.2543359774
 20
175.8709376436
 10
258.0245140206
 20
176.7474183411
 10
257.770336526
 20
177.6273163846
 10
257.4921720267
 20
178.5093560059
 10
257.1904238345
 20
179.392258332
 10
256.8655294556
 20
180.2747432389
 10
256.5179599558
 20
181.1555312079
 10
256.1482192774
 20
182.0333451805
 10
255.7568435093
 20
182.9069124105
 10
255.3444001088
 20
183.7749663089
 10
254.9114870795
 20
184.6362482806
 10
254.4587321039
 20
185.4895095489
 10
253.9867916333
 20
186.3335129667
 10
253.4963499364
 20
187.1670348097
 10
252.9881181067
 20
187.9888665508
 10
252.4628330318
 20
188.7978166127
 10
251.9212563248
 20
189.592712095
 10
251.3641732202
 20
190.3724004754
 10
250.7923914352
 20
191.1357512801
 10
250.2067399988
 20
191.8816577236
 10
249.6080680495
 20
192.6090383128
 10
248.9972436045
 20
193.3168384153
 10
248.3751523008
 20
194.0040317887
 10
247.7426961112
 20
194.6696220683
 10
247.1007920369
 20
195.3126442118
 10
246.4503707774
 20
195.9321658986
 10
245.7923753812
 20
196.5272888814
 10
245.1277598789
 20
197.0971502889
 10
244.4574878993
 20
197.6409238765
 10
243.7825312728
 20
198.1578212244
 10
243.1038686219
 20
198.6470928809
 10
242.4224839426
 20
199.1080294489
 10
241.7393651776
 20
199.5399626144
 10
241.0555027837
 20
199.9422661157
 10
240.3718882961
 20
200.314356651
 10
239.6895128903
 20
200.6556947248
 10
239.0093659456
 20
200.9657854295
 10
238.3324336099
 20
201.244179163
 10
237.6596973704
 20
201.4904722813
 10
236.9921326303
 20
201.7043076827
 10
236.3307072948
 20
201.8853753264
 10
235.6763803672
 20
202.0334126817
 10
235.0301005592
 20
202.1482051084
 10
234.3928049146
 20
202.2295861686
 10
233.7654174511
 20
202.2774378676
 10
233.1488478208
 20
202.2916908248
 10
232.5439899904
 20
202.272324375
 10
231.9517209462
 20
202.2193665975
 10
231.3728994215
 20
202.1328942761
 10
230.8083646522
 20
202.0130327875
 10
230.2589351599
 20
201.8599559193
 10
229.7254075647
 20
201.6738856183
 10
229.2085554306
 20
201.4550916686
 10
228.7091281439
 20
201.2038913007
 10
228.5275159733
 20
201.1020051456
  0
ARC
  5
E4
330
1F
100
AcDbEntity
  8
0
  6
Continuous
 62
     7
370
     0
100
AcDbCircle
 10
220.5306495111
 20
167.1569131699
 30
0.0
 40
38.69559296387371
100
AcDbArc
 50
2.5807340673
 51
57.4138894
  0
SPLINE
  5
E5
330
1F
100
AcDbEntity
  8
0
  6
Continuous
 62
     7
370
     0
100
AcDbSpline
210
0.0
220
0.0
230
1.0
 70
     8
 71
     3
 72
    19
 73
    15
 74
     0
 42
0.00000001
 43
0.00000001
 40
0.0
 40
0.0
 40
0.0
 40
0.0
 40
0.0801399024652517
 40
0.1562809906190943
 40
0.2294060490129018
 40
0.3017986969723053
 40
0.3727428627695777
 40
0.442667609902629
 40
0.5133209646126977
 40
0.5865476923632091
 40
0.668322508229505
 40
0.7636766255259052
 40
0.8740807567185483
 40
1.0
 40
1.0
 40
1.0
 40
1.0
 10
219.3761204905997
 20
107.6700920280589
 30
0.0
 10
219.375553540359
 20
107.6888005478315
 30
0.0
 10
219.3744479295146
 20
107.7252840711842
 30
0.0
 10
219.3639387192881
 20
107.77800461092
 30
0.0
 10
219.3465792238409
 20
107.8269035670164
 30
0.0
 10
219.3221421125288
 20
107.8713037380675
 30
0.0
 10
219.2921687198933
 20
107.9112378692207
 30
0.0
 10
219.2559039414018
 20
107.9451129056254
 30
0.0
 10
219.2136189425086
 20
107.9719944222913
 30
0.0
 10
219.1651837641183
 20
107.9930912103295
 30
0.0
 10
219.1085727426949
 20
108.0081012116694
 30
0.0
 10
219.0422229603833
 20
108.0182845883967
 30
0.0
 10
218.9650731316495
 20
108.0248556773053
 30
0.0
 10
218.9099419964597
 20
108.0254100175319
 30
0.0
 10
218.8805666930653
 20
108.0257053844291
 30
0.0
  0
SPLINE
  5
E6
330
1F
100
AcDbEntity
  8
0
  6
Continuous
 62
     7
370
     0
100
AcDbSpline
210
0.0
220
0.0
230
1.0
 70
     8
 71
     3
 72
    19
 73
    15
 74
     0
 42
0.00000001
 43
0.00000001
 40
0.0
 40
0.0
 40
0.0
 40
0.0
 40
0.0889709576989538
 40
0.1722707767733144
 40
0.2503120304637098
 40
0.3246551996215511
 40
0.3978444501802941
 40
0.4733008807185328
 40
0.551825888744448
 40
0.6347494834982532
 40
0.7217660118923859
 40
0.8103926655611189
 40
0.9031752367994196
 40
1.0
 40
1.0
 40
1.0
 40
1.0
 10
219.0896541757459
 20
107.3243568204767
 30
0.0
 10
219.1039961132052
 20
107.3273713504059
 30
0.0
 10
219.1317658121097
 20
107.3332082597294
 30
0.0
 10
219.1709144246195
 20
107.3462356323975
 30
0.0
 10
219.2068087530254
 20
107.3611591821079
 30
0.0
 10
219.2388223160601
 20
107.3801253558606
 30
0.0
 10
219.2684661073486
 20
107.4019825718846
 30
0.0
 10
219.2942287682406
 20
107.4292832806905
 30
0.0
 10
219.3179574018218
 20
107.460301508429
 30
0.0
 10
219.3385161737355
 20
107.4957983416915
 30
0.0
 10
219.3551409260434
 20
107.5350672968152
 30
0.0
 10
219.3678469397975
 20
107.5775016407759
 30
0.0
 10
219.3746150882017
 20
107.6229525898037
 30
0.0
 10
219.3756116082785
 20
107.6541571346441
 30
0.0
 10
219.3761204905997
 20
107.6700920280589
 30
0.0
  0
SPLINE
  5
E7
330
1F
100
AcDbEntity
  8
0
  6
Continuous
 62
     7
370
     0
100
AcDbSpline
210
0.0
220
0.0
230
1.0
 70
     8
 71
     3
 72
    11
 73
     7
 74
     0
 42
0.00000001
 43
0.00000001
 40
0.0
 40
0.0
 40
0.0
 40
0.0
 40
0.3293954641291864
 40
0.6051903468528028
 40
0.8278865786947356
 40
1.0
 40
1.0
 40
1.0
 40
1.0
 10
218.913905445225
 20
107.3144786716887
 30
0.0
 10
218.9332505959513
 20
107.3147009200864
 30
0.0
 10
218.9687929751061
 20
107.3151092517107
 30
0.0
 10
219.01740800584
 20
107.3163902078889
 30
0.0
 10
219.0567039808907
 20
107.3195191046639
 30
0.0
 10
219.0796507537214
 20
107.322888127708
 30
0.0
 10
219.0896541757459
 20
107.3243568204767
 30
0.0
  0
LINE
  5
E8
330
1F
100
AcDbEntity
  8
0
  6
Continuous
 62
     7
370
     0
100
AcDbLine
 10
218.4278182069
 20
107.3144786717
 30
0.0
 11
218.9139054452
 21
107.3144786717
 31
0.0
  0
LINE
  5
E9
330
1F
100
AcDbEntity
  8
0
  6
Continuous
 62
     7
370
     0
100
AcDbLine
 10
218.4278182069
 20
108.0257053844
 30
0.0
 11
218.4278182069
 21
107.3144786717
 31
0.0
  0
LINE
  5
EA
330
1F
100
AcDbEntity
  8
0
  6
Continuous
 62
     7
370
     0
100
AcDbLine
 10
218.8805666931
 20
108.0257053844
 30
0.0
 11
218.4278182069
 21
108.0257053844
 31
0.0
  0
SPLINE
  5
EB
330
1F
100
AcDbEntity
  8
0
  6
Continuous
 62
     7
370
     0
100
AcDbSpline
210
0.0
220
0.0
230
1.0
 70
     8
 71
     3
 72
    23
 73
    19
 74
     0
 42
0.00000001
 43
0.00000001
 40
0.0
 40
0.0
 40
0.0
 40
0.0
 40
0.076010519206233
 40
0.1481357362434482
 40
0.2177881778331534
 40
0.2867678984972338
 40
0.3540434632439189
 40
0.4186108400234793
 40
0.4836364388553435
 40
0.5502295626461513
 40
0.586927811313815
 40
0.6291578250269649
 40
0.67723822428767
 40
0.7300426397437307
 40
0.7888625661169238
 40
0.853750451461094
 40
0.9241097665384562
 40
1.0
 40
1.0
 40
1.0
 40
1.0
 10
219.2970953002952
 20
108.5739426421664
 30
0.0
 10
219.2965633858882
 20
108.5908532643291
 30
0.0
 10
219.2955267460505
 20
108.6238101167565
 30
0.0
 10
219.2868250814721
 20
108.6716691805364
 30
0.0
 10
219.2717671723778
 20
108.7161932511106
 30
0.0
 10
219.2513746399788
 20
108.7573725614865
 30
0.0
 10
219.2255522755986
 20
108.7940074725041
 30
0.0
 10
219.1947323829529
 20
108.8255049206089
 30
0.0
 10
219.1578123269788
 20
108.8493156046111
 30
0.0
 10
219.1233031335632
 20
108.8641687583557
 30
0.0
 10
219.0922648490589
 20
108.8734608074217
 30
0.0
 10
219.0645332319416
 20
108.8789585303658
 30
0.0
 10
219.0330773068265
 20
108.8838025710295
 30
0.0
 10
218.9977935608669
 20
108.8879208133321
 30
0.0
 10
218.9586686472239
 20
108.8911169487933
 30
0.0
 10
218.9155820152168
 20
108.8936560666096
 30
0.0
 10
218.8686362297263
 20
108.8947341143911
 30
0.0
 10
218.8361152747741
 20
108.8948976287015
 30
0.0
 10
218.8192398526728
 20
108.8949824777784
 30
0.0
  0
SPLINE
  5
EC
330
1F
100
AcDbEntity
  8
0
  6
Continuous
 62
     7
370
     0
100
AcDbSpline
210
0.0
220
0.0
230
1.0
 70
     8
 71
     3
 72
    15
 73
    11
 74
     0
 42
0.00000001
 43
0.00000001
 40
0.0
 40
0.0
 40
0.0
 40
0.0
 40
0.1323768784386554
 40
0.2551949197670693
 40
0.3737221416536682
 40
0.4900113154474162
 40
0.6078124214239341
 40
0.7311098159015431
 40
0.8599973777575848
 40
1.0
 40
1.0
 40
1.0
 40
1.0
 10
219.0982975559355
 20
108.2870647377798
 30
0.0
 10
219.1140317993645
 20
108.2925764444856
 30
0.0
 10
219.1443641280674
 20
108.3032018616064
 30
0.0
 10
219.1850122857911
 20
108.327333252105
 30
0.0
 10
219.2196327011726
 20
108.3562908029308
 30
0.0
 10
219.2481325990908
 20
108.3905858331783
 30
0.0
 10
219.2700333584473
 20
108.4300348101346
 30
0.0
 10
219.2862721393322
 20
108.4738196578257
 30
0.0
 10
219.2951632321776
 20
108.5225524478902
 30
0.0
 10
219.2964337709197
 20
108.5563469255271
 30
0.0
 10
219.2970953002952
 20
108.5739426421664
 30
0.0
  0
SPLINE
  5
ED
330
1F
100
AcDbEntity
  8
0
  6
Continuous
 62
     7
370
     0
100
AcDbSpline
210
0.0
220
0.0
230
1.0
 70
     8
 71
     3
 72
    15
 73
    11
 74
     0
 42
0.00000001
 43
0.00000001
 40
0.0
 40
0.0
 40
0.0
 40
0.0
 40
0.1669801744060311
 40
0.3208066328848162
 40
0.4631345048703153
 40
0.5942480539785179
 40
0.7123671525397409
 40
0.8194549510427486
 40
0.9157522665813508
 40
1.0
 40
1.0
 40
1.0
 40
1.0
 10
218.851343836234
 20
108.2627809553425
 30
0.0
 10
218.8652026493572
 20
108.2628357860435
 30
0.0
 10
218.8918285598263
 20
108.2629411282053
 30
0.0
 10
218.9302358013219
 20
108.2644099122908
 30
0.0
 10
218.9656838442383
 20
108.2656629954143
 30
0.0
 10
218.9980355708077
 20
108.2688081372279
 30
0.0
 10
219.0274512540978
 20
108.2718886639203
 30
0.0
 10
219.0538131761135
 20
108.2760355330447
 30
0.0
 10
219.0772504589973
 20
108.2807081139899
 30
0.0
 10
219.091601111281
 20
108.2850422840646
 30
0.0
 10
219.0982975559355
 20
108.2870647377798
 30
0.0
  0
LINE
  5
EE
330
1F
100
AcDbEntity
  8
0
  6
Continuous
 62
     7
370
     0
100
AcDbLine
 10
218.4278182069
 20
108.2627809553
 30
0.0
 11
218.8513438362
 21
108.2627809553
 31
0.0
  0
LINE
  5
EF
330
1F
100
AcDbEntity
  8
0
  6
Continuous
 62
     7
370
     0
100
AcDbLine
 10
218.4278182069
 20
108.8949824778
 30
0.0
 11
218.4278182069
 21
108.2627809553
 31
0.0
  0
LINE
  5
F0
330
1F
100
AcDbEntity
  8
0
  6
Continuous
 62
     7
370
     0
100
AcDbLine
 10
218.8192398527
 20
108.8949824778
 30
0.0
 11
218.4278182069
 21
108.8949824778
 31
0.0
  0
SPLINE
  5
F1
330
1F
100
AcDbEntity
  8
0
  6
Continuous
 62
     7
370
     0
100
AcDbSpline
210
0.0
220
0.0
230
1.0
 70
     8
 71
     3
 72
    15
 73
    11
 74
     0
 42
0.00000001
 43
0.00000001
 40
0.0
 40
0.0
 40
0.0
 40
0.0
 40
0.1426572507006123
 40
0.2811689939054435
 40
0.416977192367973
 40
0.5508524927475571
 40
0.6783641702618121
 40
0.795032443007094
 40
0.9019981783473521
 40
1.0
 40
1.0
 40
1.0
 40
1.0
 10
223.1693296252151
 20
105.4573866995332
 30
0.0
 10
223.2022460211343
 20
105.4743387093317
 30
0.0
 10
223.2671222883982
 20
105.5077501168578
 30
0.0
 10
223.3587784252598
 20
105.5654562107254
 30
0.0
 10
223.4443492885894
 20
105.6280119919925
 30
0.0
 10
223.5224183418213
 20
105.6954036107926
 30
0.0
 10
223.5924022733809
 20
105.7642899428158
 30
0.0
 10
223.6513787487964
 20
105.8337989576463
 30
0.0
 10
223.7007265105161
 20
105.9013827550604
 30
0.0
 10
223.7254852174193
 20
105.9485149587584
 30
0.0
 10
223.7373231805286
 20
105.9710504365124
 30
0.0
  0
LINE
  5
F2
330
1F
100
AcDbEntity
  8
0
  6
Continuous
 62
     7
370
     0
100
AcDbLine
 10
223.1693296252
 20
105.2145488752
 30
0.0
 11
223.1693296252
 21
105.4573866995
 31
0.0
  0
SPLINE
  5
F3
330
1F
100
AcDbEntity
  8
0
  6
Continuous
 62
     7
370
     0
100
AcDbSpline
210
0.0
220
0.0
230
1.0
 70
     8
 71
     3
 72
    15
 73
    11
 74
     0
 42
0.00000001
 43
0.00000001
 40
0.0
 40
0.0
 40
0.0
 40
0.0
 40
0.111670300101588
 40
0.2320944808560198
 40
0.3627434591045547
 40
0.5025575097108851
 40
0.6415251033312812
 40
0.7710984952996689
 40
0.8901617573732539
 40
1.0
 40
1.0
 40
1.0
 40
1.0
 10
223.643480767042
 20
105.5174787713273
 30
0.0
 10
223.6283131755438
 20
105.5028514954273
 30
0.0
 10
223.5967889988252
 20
105.4724503054667
 30
0.0
 10
223.5435007083422
 20
105.4294250302082
 30
0.0
 10
223.484024165989
 20
105.3858170899589
 30
0.0
 10
223.4191317125135
 20
105.3438831802602
 30
0.0
 10
223.3529848339156
 20
105.3044069264839
 30
0.0
 10
223.2890623919278
 20
105.2689041053341
 30
0.0
 10
223.2284315989438
 20
105.2388601046499
 30
0.0
 10
223.1884937681342
 20
105.2224319262172
 30
0.0
 10
223.1693296252151
 20
105.2145488751601
 30
0.0
  0
LINE
  5
F4
330
1F
100
AcDbEntity
  8
0
  6
Continuous
 62
     7
370
     0
100
AcDbLine
 10
223.643480767
 20
103.9163954886
 30
0.0
 11
223.643480767
 21
105.5174787713
 31
0.0
  0
LINE
  5
F5
330
1F
100
AcDbEntity
  8
0
  6
Continuous
 62
     7
370
     0
100
AcDbLine
 10
223.9068980681
 20
103.9163954886
 30
0.0
 11
223.643480767
 21
103.9163954886
 31
0.0
  0
LINE
  5
F6
330
1F
100
AcDbEntity
  8
0
  6
Continuous
 62
     7
370
     0
100
AcDbLine
 10
223.9068980681
 20
105.9710504365
 30
0.0
 11
223.9068980681
 21
103.9163954886
 31
0.0
  0
LINE
  5
F7
330
1F
100
AcDbEntity
  8
0
  6
Continuous
 62
     7
370
     0
100
AcDbLine
 10
223.7373231805
 20
105.9710504365
 30
0.0
 11
223.9068980681
 21
105.9710504365
 31
0.0
  0
LINE
  5
F8
330
1F
100
AcDbEntity
  8
0
  6
Continuous
 62
     7
370
     0
100
AcDbLine
 10
219.9029550926
 20
104.1534710595
 30
0.0
 11
221.1146746773
 21
104.1534710595
 31
0.0
  0
LINE
  5
F9
330
1F
100
AcDbEntity
  8
0
  6
Continuous
 62
     7
370
     0
100
AcDbLine
 10
219.9029550926
 20
104.8646977722
 30
0.0
 11
219.9029550926
 21
104.1534710595
 31
0.0
  0
LINE
  5
FA
330
1F
100
AcDbEntity
  8
0
  6
Continuous
 62
     7
370
     0
100
AcDbLine
 10
220.9829660268
 20
104.8646977722
 30
0.0
 11
219.9029550926
 21
104.8646977722
 31
0.0
  0
LINE
  5
FB
330
1F
100
AcDbEntity
  8
0
  6
Continuous
 62
     7
370
     0
100
AcDbLine
 10
220.9829660268
 20
105.1017733432
 30
0.0
 11
220.9829660268
 21
104.8646977722
 31
0.0
  0
LINE
  5
FC
330
1F
100
AcDbEntity
  8
0
  6
Continuous
 62
     7
370
     0
100
AcDbLine
 10
219.9029550926
 20
105.1017733432
 30
0.0
 11
220.9829660268
 21
105.1017733432
 31
0.0
  0
LINE
  5
FD
330
1F
100
AcDbEntity
  8
0
  6
Continuous
 62
     7
370
     0
100
AcDbLine
 10
219.9029550926
 20
105.7339748656
 30
0.0
 11
219.9029550926
 21
105.1017733432
 31
0.0
  0
LINE
  5
FE
330
1F
100
AcDbEntity
  8
0
  6
Continuous
 62
     7
370
     0
100
AcDbLine
 10
221.0619912171
 20
105.7339748656
 30
0.0
 11
219.9029550926
 21
105.7339748656
 31
0.0
  0
LINE
  5
FF
330
1F
100
AcDbEntity
  8
0
  6
Continuous
 62
     7
370
     0
100
AcDbLine
 10
221.0619912171
 20
105.9710504365
 30
0.0
 11
221.0619912171
 21
105.7339748656
 31
0.0
  0
LINE
  5
100
330
1F
100
AcDbEntity
  8
0
  6
Continuous
 62
     7
370
     0
100
AcDbLine
 10
219.6131960615
 20
105.9710504365
 30
0.0
 11
221.0619912171
 21
105.9710504365
 31
0.0
  0
LINE
  5
101
330
1F
100
AcDbEntity
  8
0
  6
Continuous
 62
     7
370
     0
100
AcDbLine
 10
219.6131960615
 20
103.9163954886
 30
0.0
 11
219.6131960615
 21
105.9710504365
 31
0.0
  0
LINE
  5
102
330
1F
100
AcDbEntity
  8
0
  6
Continuous
 62
     7
370
     0
100
AcDbLine
 10
221.1146746773
 20
103.9163954886
 30
0.0
 11
219.6131960615
 21
103.9163954886
 31
0.0
  0
LINE
  5
103
330
1F
100
AcDbEntity
  8
0
  6
Continuous
 62
     7
370
     0
100
AcDbLine
 10
221.1146746773
 20
104.1534710595
 30
0.0
 11
221.1146746773
 21
103.9163954886
 31
0.0
  0
SPLINE
  5
104
330
1F
100
AcDbEntity
  8
0
  6
Continuous
 62
     7
370
     0
100
AcDbSpline
210
0.0
220
0.0
230
1.0
 70
     8
 71
     3
 72
    31
 73
    27
 74
     0
 42
0.00000001
 43
0.00000001
 40
0.0
 40
0.0
 40
0.0
 40
0.0
 40
0.0628739462114324
 40
0.1228366299919129
 40
0.1796565674430314
 40
0.233960012230862
 40
0.285595018695559
 40
0.3345131060783806
 40
0.3809048259061763
 40
0.4248945919393348
 40
0.4665290347654873
 40
0.5064882940692462
 40
0.5450315536447544
 40
0.5818311798231345
 40
0.6174482799494427
 40
0.652066912769046
 40
0.6858797142465105
 40
0.719174554791392
 40
0.7521816462063926
 40
0.7852401639180911
 40
0.8186564497770833
 40
0.852547740653311
 40
0.8876263422585189
 40
0.923635078068751
 40
0.9610218444769894
 40
1.0
 40
1.0
 40
1.0
 40
1.0
 10
218.2961095564384
 20
104.9297289184376
 30
0.0
 10
218.2958391922024
 20
104.9005039350947
 30
0.0
 10
218.295310982449
 20
104.8434071775069
 30
0.0
 10
218.2921732661727
 20
104.7599350666282
 30
0.0
 10
218.2862050466958
 20
104.6806271973456
 30
0.0
 10
218.27886104359
 20
104.6053018984051
 30
0.0
 10
218.2677511051735
 20
104.5341602529032
 30
0.0
 10
218.2557795445833
 20
104.4668999988095
 30
0.0
 10
218.240973681258
 20
104.4038265569132
 30
0.0
 10
218.2236987148089
 20
104.3449122837503
 30
0.0
 10
218.204243179869
 20
104.2898456618606
 30
0.0
 10
218.182907175228
 20
104.2382105283273
 30
0.0
 10
218.1592755014245
 20
104.1900421660879
 30
0.0
 10
218.1326447905931
 20
104.1458103851879
 30
0.0
 10
218.1042335183941
 20
104.1049280827898
 30
0.0
 10
218.0738336024655
 20
104.067241900187
 30
0.0
 10
218.0408005290001
 20
104.0332942504783
 30
0.0
 10
218.0051676768275
 20
104.0032756780608
 30
0.0
 10
217.9676574065062
 20
103.9762351745065
 30
0.0
 10
217.9275235491409
 20
103.9530826934439
 30
0.0
 10
217.8849417643698
 20
103.933901265023
 30
0.0
 10
217.8401965574937
 20
103.9175020966847
 30
0.0
 10
217.7928339238366
 20
103.9054857479881
 30
0.0
 10
217.7432273607198
 20
103.8962874208295
 30
0.0
 10
217.6911940913416
 20
103.8908707796816
 30
0.0
 10
217.6556888673469
 20
103.8903298563721
 30
0.0
 10
217.637566303901
 20
103.8900537584942
 30
0.0
  0
SPLINE
  5
105
330
1F
100
AcDbEntity
  8
0
  6
Continuous
 62
     7
370
     0
100
AcDbSpline
210
0.0
220
0.0
230
1.0
 70
     8
 71
     3
 72
    27
 73
    23
 74
     0
 42
0.00000001
 43
0.00000001
 40
0.0
 40
0.0
 40
0.0
 40
0.0
 40
0.0567243372181507
 40
0.1114372357370107
 40
0.1643678222229013
 40
0.21643537246209
 40
0.2676414903219251
 40
0.3173597799690279
 40
0.3674730633322808
 40
0.4182103970528082
 40
0.4714042826470199
 40
0.5279657201290493
 40
0.5880611158232139
 40
0.6521342629937145
 40
0.6863448363353056
 40
0.7232636803169653
 40
0.762610250771542
 40
0.8047389366452182
 40
0.84943033879095
 40
0.8967112583864923
 40
0.9468896380534765
 40
1.0
 40
1.0
 40
1.0
 40
1.0
 10
217.637566303901
 20
105.9710504365124
 30
0.0
 10
217.6639534930103
 20
105.9702746718276
 30
0.0
 10
217.7157921844331
 20
105.9687506509876
 30
0.0
 10
217.7914769416111
 20
105.9563210135622
 30
0.0
 10
217.8628049472563
 20
105.9350582030546
 30
0.0
 10
217.929729860083
 20
105.906373754408
 30
0.0
 10
217.9911076090746
 20
105.8699389838301
 30
0.0
 10
218.0459205259078
 20
105.8256469691815
 30
0.0
 10
218.0935773647365
 20
105.7739627678692
 30
0.0
 10
218.1335580249089
 20
105.7142739390547
 30
0.0
 10
218.1685051126271
 20
105.6482270992422
 30
0.0
 10
218.1995513382023
 20
105.5755258058496
 30
0.0
 10
218.2276162243769
 20
105.496251528886
 30
0.0
 10
218.2475316785606
 20
105.4252899842107
 30
0.0
 10
218.2617373556774
 20
105.3640334609155
 30
0.0
 10
218.2711403852437
 20
105.313510813335
 30
0.0
 10
218.278946784898
 20
105.2589965921661
 30
0.0
 10
218.284927542028
 20
105.2006226819846
 30
0.0
 10
218.2898346121397
 20
105.1384545543251
 30
0.0
 10
218.2936241174978
 20
105.0724535021219
 30
0.0
 10
218.295547679472
 20
105.0024545669742
 30
0.0
 10
218.295918752985
 20
104.9544252589451
 30
0.0
 10
218.2961095564384
 20
104.9297289184376
 30
0.0
  0
SPLINE
  5
106
330
1F
100
AcDbEntity
  8
0
  6
Continuous
 62
     7
370
     0
100
AcDbSpline
210
0.0
220
0.0
230
1.0
 70
     8
 71
     3
 72
    31
 73
    27
 74
     0
 42
0.00000001
 43
0.00000001
 40
0.0
 40
0.0
 40
0.0
 40
0.0
 40
0.0631144583947934
 40
0.12361464576949
 40
0.1809737111859576
 40
0.2352614550083221
 40
0.287100701833872
 40
0.3360307363034436
 40
0.3823823485850663
 40
0.4263340836597073
 40
0.4682106947981602
 40
0.5082496012618052
 40
0.546628336606585
 40
0.5836495392304464
 40
0.6189943150301618
 40
0.6535830186205961
 40
0.6871561361903314
 40
0.7204221919788074
 40
0.7532302188118167
 40
0.7862601560779002
 40
0.8195039834988841
 40
0.8535452747120184
 40
0.8883082803397299
 40
0.9239958607406952
 40
0.961350304754645
 40
1.0
 40
1.0
 40
1.0
 40
1.0
 10
216.9790230513636
 20
104.9297289184376
 30
0.0
 10
216.979288444352
 20
104.9590918236398
 30
0.0
 10
216.9798082374561
 20
105.016601389873
 30
0.0
 10
216.9830323452215
 20
105.1007482165192
 30
0.0
 10
216.9886613761263
 20
105.1806589735586
 30
0.0
 10
216.997063969629
 20
105.2562642622325
 30
0.0
 10
217.0070142145715
 20
105.3277347385349
 30
0.0
 10
217.0199495957701
 20
105.3949684067253
 30
0.0
 10
217.0345037801139
 20
105.4581161163698
 30
0.0
 10
217.0519661895372
 20
105.5171120462108
 30
0.0
 10
217.0711516608827
 20
105.572463453851
 30
0.0
 10
217.0929181902009
 20
105.6240815431363
 30
0.0
 10
217.1174084883949
 20
105.6719115867425
 30
0.0
 10
217.1434190095308
 20
105.7164496090481
 30
0.0
 10
217.1723190007641
 20
105.7570028605073
 30
0.0
 10
217.2023641165732
 20
105.7947094313704
 30
0.0
 10
217.2357378565836
 20
105.8281864745562
 30
0.0
 10
217.2710524690941
 20
105.8582953574194
 30
0.0
 10
217.3088279709299
 20
105.8848646918921
 30
0.0
 10
217.3488644921824
 20
105.9077908228255
 30
0.0
 10
217.3910079832092
 20
105.9280329433758
 30
0.0
 10
217.4360616523442
 20
105.9432712064379
 30
0.0
 10
217.4830901940749
 20
105.9556936212003
 30
0.0
 10
217.5324556097276
 20
105.9648317001214
 30
0.0
 10
217.5842122992288
 20
105.9702189060386
 30
0.0
 10
217.6195807212154
 20
105.9707701284046
 30
0.0
 10
217.637566303901
 20
105.9710504365124
 30
0.0
  0
SPLINE
  5
107
330
1F
100
AcDbEntity
  8
0
  6
Continuous
 62
     7
370
     0
100
AcDbSpline
210
0.0
220
0.0
230
1.0
 70
     8
 71
     3
 72
    15
 73
    11
 74
     0
 42
0.00000001
 43
0.00000001
 40
0.0
 40
0.0
 40
0.0
 40
0.0
 40
0.0974206681772145
 40
0.2008855880393207
 40
0.3111719701726506
 40
0.429797945825373
 40
0.5577399263645872
 40
0.6947152693641585
 40
0.8421299102060552
 40
1.0
 40
1.0
 40
1.0
 40
1.0
 10
217.178643974789
 20
104.0880283237883
 30
0.0
 10
217.1623602178704
 20
104.1115178820363
 30
0.0
 10
217.1287824140501
 20
104.1599543566542
 30
0.0
 10
217.0894825060406
 20
104.242543038937
 30
0.0
 10
217.0544262923005
 20
104.3334615824366
 30
0.0
 10
217.0269135918886
 20
104.4344937981985
 30
0.0
 10
217.0053642891196
 20
104.544835583997
 30
0.0
 10
216.9898003123233
 20
104.6647034539199
 30
0.0
 10
216.9809926337146
 20
104.7940456210931
 30
0.0
 10
216.9796943995368
 20
104.8834801623188
 30
0.0
 10
216.9790230513636
 20
104.9297289184376
 30
0.0
  0
SPLINE
  5
108
330
1F
100
AcDbEntity
  8
0
  6
Continuous
 62
     7
370
     0
100
AcDbSpline
210
0.0
220
0.0
230
1.0
 70
     8
 71
     3
 72
    15
 73
    11
 74
     0
 42
0.00000001
 43
0.00000001
 40
0.0
 40
0.0
 40
0.0
 40
0.0
 40
0.1379032299933934
 40
0.2688733426002937
 40
0.3951781273461133
 40
0.5170892381308883
 40
0.6367430265135479
 40
0.756221816463797
 40
0.8766283594636795
 40
1.0
 40
1.0
 40
1.0
 40
1.0
 10
217.637566303901
 20
103.8900537584942
 30
0.0
 10
217.6138055219633
 20
103.8907315360554
 30
0.0
 10
217.5674785369993
 20
103.8920530157511
 30
0.0
 10
217.4998213914137
 20
103.9010316563135
 30
0.0
 10
217.4363215514905
 20
103.9168344852663
 30
0.0
 10
217.3764434324441
 20
103.9380283071909
 30
0.0
 10
217.3208600807048
 20
103.9663762644716
 30
0.0
 10
217.2693061078698
 20
104.0008670900015
 30
0.0
 10
217.2207455740207
 20
104.0406983182956
 30
0.0
 10
217.1927911785349
 20
104.0721242431069
 30
0.0
 10
217.178643974789
 20
104.0880283237883
 30
0.0
  0
SPLINE
  5
109
330
1F
100
AcDbEntity
  8
0
  6
Continuous
 62
     7
370
     0
100
AcDbSpline
210
0.0
220
0.0
230
1.0
 70
     8
 71
     3
 72
    31
 73
    27
 74
     0
 42
0.00000001
 43
0.00000001
 40
0.0
 40
0.0
 40
0.0
 40
0.0
 40
0.0628739462114324
 40
0.1228366299919129
 40
0.1796565674430314
 40
0.2339600122308621
 40
0.285595018695559
 40
0.3345131060783806
 40
0.3809048259061763
 40
0.4248945919393347
 40
0.4665290347654873
 40
0.5064882940692463
 40
0.5450315536447544
 40
0.5818311798231345
 40
0.617448279949443
 40
0.652066912769046
 40
0.6858797142465105
 40
0.7191745547913923
 40
0.7521816462063928
 40
0.7852401639180911
 40
0.8186564497770834
 40
0.8525477406533113
 40
0.8876263422585191
 40
0.923635078068751
 40
0.9610218444769892
 40
1.0
 40
1.0
 40
1.0
 40
1.0
 10
215.1351019442589
 20
104.9297289184376
 30
0.0
 10
215.1348315800229
 20
104.9005039350947
 30
0.0
 10
215.1343033702695
 20
104.8434071775069
 30
0.0
 10
215.1311656539932
 20
104.7599350666282
 30
0.0
 10
215.1251974345163
 20
104.6806271973456
 30
0.0
 10
215.1178534314105
 20
104.6053018984051
 30
0.0
 10
215.106743492994
 20
104.5341602529032
 30
0.0
 10
215.0947719324038
 20
104.4668999988095
 30
0.0
 10
215.0799660690785
 20
104.4038265569132
 30
0.0
 10
215.0626911026295
 20
104.3449122837503
 30
0.0
 10
215.0432355676895
 20
104.2898456618606
 30
0.0
 10
215.0218995630485
 20
104.2382105283273
 30
0.0
 10
214.998267889245
 20
104.1900421660879
 30
0.0
 10
214.9716371784136
 20
104.1458103851879
 30
0.0
 10
214.9432259062146
 20
104.1049280827898
 30
0.0
 10
214.912825990286
 20
104.067241900187
 30
0.0
 10
214.8797929168205
 20
104.0332942504783
 30
0.0
 10
214.844160064648
 20
104.0032756780608
 30
0.0
 10
214.8066497943268
 20
103.9762351745065
 30
0.0
 10
214.7665159369614
 20
103.9530826934439
 30
0.0
 10
214.7239341521903
 20
103.933901265023
 30
0.0
 10
214.6791889453142
 20
103.9175020966847
 30
0.0
 10
214.6318263116571
 20
103.9054857479881
 30
0.0
 10
214.5822197485403
 20
103.8962874208295
 30
0.0
 10
214.5301864791621
 20
103.8908707796816
 30
0.0
 10
214.4946812551674
 20
103.8903298563721
 30
0.0
 10
214.4765586917215
 20
103.8900537584942
 30
0.0
  0
SPLINE
  5
10A
330
1F
100
AcDbEntity
  8
0
  6
Continuous
 62
     7
370
     0
100
AcDbSpline
210
0.0
220
0.0
230
1.0
 70
     8
 71
     3
 72
    27
 73
    23
 74
     0
 42
0.00000001
 43
0.00000001
 40
0.0
 40
0.0
 40
0.0
 40
0.0
 40
0.0567243372181506
 40
0.1114372357370108
 40
0.1643678222229014
 40
0.21643537246209
 40
0.267641490321925
 40
0.3173597799690279
 40
0.3674730633322807
 40
0.4182103970528082
 40
0.4714042826470199
 40
0.5279657201290493
 40
0.5880611158232139
 40
0.6521342629937146
 40
0.6863448363353056
 40
0.7232636803169653
 40
0.762610250771542
 40
0.8047389366452182
 40
0.84943033879095
 40
0.8967112583864923
 40
0.9468896380534765
 40
1.0
 40
1.0
 40
1.0
 40
1.0
 10
214.4765586917215
 20
105.9710504365124
 30
0.0
 10
214.5029458808309
 20
105.9702746718276
 30
0.0
 10
214.5547845722537
 20
105.9687506509876
 30
0.0
 10
214.6304693294316
 20
105.9563210135622
 30
0.0
 10
214.7017973350768
 20
105.9350582030546
 30
0.0
 10
214.7687222479036
 20
105.906373754408
 30
0.0
 10
214.8300999968951
 20
105.8699389838301
 30
0.0
 10
214.8849129137284
 20
105.8256469691815
 30
0.0
 10
214.9325697525571
 20
105.7739627678692
 30
0.0
 10
214.9725504127294
 20
105.7142739390547
 30
0.0
 10
215.0074975004476
 20
105.6482270992422
 30
0.0
 10
215.0385437260228
 20
105.5755258058496
 30
0.0
 10
215.0666086121974
 20
105.496251528886
 30
0.0
 10
215.0865240663811
 20
105.4252899842107
 30
0.0
 10
215.1007297434979
 20
105.3640334609155
 30
0.0
 10
215.1101327730642
 20
105.313510813335
 30
0.0
 10
215.1179391727185
 20
105.2589965921661
 30
0.0
 10
215.1239199298485
 20
105.2006226819846
 30
0.0
 10
215.1288269999602
 20
105.1384545543251
 30
0.0
 10
215.1326165053183
 20
105.0724535021219
 30
0.0
 10
215.1345400672924
 20
105.0024545669742
 30
0.0
 10
215.1349111408056
 20
104.9544252589451
 30
0.0
 10
215.1351019442589
 20
104.9297289184376
 30
0.0
  0
SPLINE
  5
10B
330
1F
100
AcDbEntity
  8
0
  6
Continuous
 62
     7
370
     0
100
AcDbSpline
210
0.0
220
0.0
230
1.0
 70
     8
 71
     3
 72
    31
 73
    27
 74
     0
 42
0.00000001
 43
0.00000001
 40
0.0
 40
0.0
 40
0.0
 40
0.0
 40
0.0631144583947934
 40
0.12361464576949
 40
0.1809737111859576
 40
0.2352614550083222
 40
0.287100701833872
 40
0.3360307363034437
 40
0.3823823485850664
 40
0.4263340836597074
 40
0.4682106947981604
 40
0.5082496012618052
 40
0.546628336606585
 40
0.5836495392304464
 40
0.6189943150301618
 40
0.6535830186205961
 40
0.6871561361903314
 40
0.7204221919788075
 40
0.753230218811817
 40
0.7862601560779
 40
0.8195039834988841
 40
0.8535452747120184
 40
0.8883082803397299
 40
0.923995860740695
 40
0.961350304754645
 40
1.0
 40
1.0
 40
1.0
 40
1.0
 10
213.8180154391841
 20
104.9297289184376
 30
0.0
 10
213.8182808321725
 20
104.9590918236398
 30
0.0
 10
213.8188006252766
 20
105.016601389873
 30
0.0
 10
213.822024733042
 20
105.1007482165192
 30
0.0
 10
213.8276537639468
 20
105.1806589735586
 30
0.0
 10
213.8360563574495
 20
105.2562642622325
 30
0.0
 10
213.846006602392
 20
105.3277347385349
 30
0.0
 10
213.8589419835906
 20
105.3949684067253
 30
0.0
 10
213.8734961679344
 20
105.4581161163698
 30
0.0
 10
213.8909585773577
 20
105.5171120462108
 30
0.0
 10
213.9101440487033
 20
105.572463453851
 30
0.0
 10
213.9319105780214
 20
105.6240815431363
 30
0.0
 10
213.9564008762154
 20
105.6719115867425
 30
0.0
 10
213.9824113973514
 20
105.7164496090481
 30
0.0
 10
214.0113113885847
 20
105.7570028605073
 30
0.0
 10
214.0413565043938
 20
105.7947094313704
 30
0.0
 10
214.0747302444041
 20
105.8281864745562
 30
0.0
 10
214.1100448569146
 20
105.8582953574194
 30
0.0
 10
214.1478203587504
 20
105.8848646918921
 30
0.0
 10
214.1878568800029
 20
105.9077908228255
 30
0.0
 10
214.2300003710297
 20
105.9280329433758
 30
0.0
 10
214.2750540401647
 20
105.9432712064379
 30
0.0
 10
214.3220825818954
 20
105.9556936212003
 30
0.0
 10
214.3714479975481
 20
105.9648317001214
 30
0.0
 10
214.4232046870493
 20
105.9702189060386
 30
0.0
 10
214.4585731090359
 20
105.9707701284046
 30
0.0
 10
214.4765586917215
 20
105.9710504365124
 30
0.0
  0
SPLINE
  5
10C
330
1F
100
AcDbEntity
  8
0
  6
Continuous
 62
     7
370
     0
100
AcDbSpline
210
0.0
220
0.0
230
1.0
 70
     8
 71
     3
 72
    15
 73
    11
 74
     0
 42
0.00000001
 43
0.00000001
 40
0.0
 40
0.0
 40
0.0
 40
0.0
 40
0.0974206681772145
 40
0.2008855880393206
 40
0.3111719701726505
 40
0.4297979458253729
 40
0.5577399263645872
 40
0.6947152693641585
 40
0.8421299102060552
 40
1.0
 40
1.0
 40
1.0
 40
1.0
 10
214.0176363626095
 20
104.0880283237883
 30
0.0
 10
214.0013526056909
 20
104.1115178820363
 30
0.0
 10
213.9677748018706
 20
104.1599543566542
 30
0.0
 10
213.9284748938611
 20
104.242543038937
 30
0.0
 10
213.893418680121
 20
104.3334615824366
 30
0.0
 10
213.8659059797091
 20
104.4344937981985
 30
0.0
 10
213.8443566769401
 20
104.544835583997
 30
0.0
 10
213.8287927001438
 20
104.6647034539199
 30
0.0
 10
213.8199850215351
 20
104.7940456210931
 30
0.0
 10
213.8186867873573
 20
104.8834801623188
 30
0.0
 10
213.8180154391841
 20
104.9297289184376
 30
0.0
  0
SPLINE
  5
10D
330
1F
100
AcDbEntity
  8
0
  6
Continuous
 62
     7
370
     0
100
AcDbSpline
210
0.0
220
0.0
230
1.0
 70
     8
 71
     3
 72
    15
 73
    11
 74
     0
 42
0.00000001
 43
0.00000001
 40
0.0
 40
0.0
 40
0.0
 40
0.0
 40
0.1379032299933935
 40
0.2688733426002935
 40
0.3951781273461131
 40
0.5170892381308877
 40
0.6367430265135475
 40
0.7562218164637969
 40
0.8766283594636793
 40
1.0
 40
1.0
 40
1.0
 40
1.0
 10
214.4765586917215
 20
103.8900537584942
 30
0.0
 10
214.4527979097838
 20
103.8907315360554
 30
0.0
 10
214.4064709248198
 20
103.8920530157511
 30
0.0
 10
214.3388137792342
 20
103.9010316563135
 30
0.0
 10
214.275313939311
 20
103.9168344852663
 30
0.0
 10
214.2154358202646
 20
103.9380283071909
 30
0.0
 10
214.1598524685253
 20
103.9663762644716
 30
0.0
 10
214.1082984956903
 20
104.0008670900015
 30
0.0
 10
214.0597379618412
 20
104.0406983182956
 30
0.0
 10
214.0317835663554
 20
104.0721242431069
 30
0.0
 10
214.0176363626095
 20
104.0880283237883
 30
0.0
  0
SPLINE
  5
10E
330
1F
100
AcDbEntity
  8
0
  6
Continuous
 62
     7
370
     0
100
AcDbSpline
210
0.0
220
0.0
230
1.0
 70
     8
 71
     3
 72
    23
 73
    19
 74
     0
 42
0.00000001
 43
0.00000001
 40
0.0
 40
0.0
 40
0.0
 40
0.0
 40
0.0635999003471699
 40
0.1252966507935535
 40
0.1855687201945882
 40
0.2446982110006627
 40
0.303716806189989
 40
0.3629196509481438
 40
0.4233003138688771
 40
0.4851773095450755
 40
0.5470834132243567
 40
0.608524799634247
 40
0.6699648532447271
 40
0.7322993779782991
 40
0.7956502934901157
 40
0.8610554709467161
 40
0.929122115173219
 40
1.0
 40
1.0
 40
1.0
 40
1.0
 10
212.6062958545153
 20
104.5144350798062
 30
0.0
 10
212.6057723688653
 20
104.492862813906
 30
0.0
 10
212.6047410622387
 20
104.4503638060055
 30
0.0
 10
212.5956796778148
 20
104.3879802498666
 30
0.0
 10
212.5819694020535
 20
104.3280523317698
 30
0.0
 10
212.5619782372032
 20
104.2708332094245
 30
0.0
 10
212.5364445528566
 20
104.2162824340547
 30
0.0
 10
212.5048590766243
 20
104.1644792193472
 30
0.0
 10
212.4675321463524
 20
104.1154768543172
 30
0.0
 10
212.4255648417862
 20
104.0691230241178
 30
0.0
 10
212.3786454203444
 20
104.0272211692247
 30
0.0
 10
212.3278872974866
 20
103.990296389533
 30
0.0
 10
212.273100022221
 20
103.9593671786077
 30
0.0
 10
212.2149483515515
 20
103.9337579031578
 30
0.0
 10
212.1531538352523
 20
103.9139108096257
 30
0.0
 10
212.087795905881
 20
103.900013636034
 30
0.0
 10
212.0188963123995
 20
103.8917384807395
 30
0.0
 10
211.9717849044387
 20
103.8906228566523
 30
0.0
 10
211.9477526019779
 20
103.8900537584942
 30
0.0
  0
SPLINE
  5
10F
330
1F
100
AcDbEntity
  8
0
  6
Continuous
 62
     7
370
     0
100
AcDbSpline
210
0.0
220
0.0
230
1.0
 70
     8
 71
     3
 72
    23
 73
    19
 74
     0
 42
0.00000001
 43
0.00000001
 40
0.0
 40
0.0
 40
0.0
 40
0.0
 40
0.0690130029109932
 40
0.1352355440560497
 40
0.1996111851157138
 40
0.2624185195032886
 40
0.3237234972102992
 40
0.3837653656042444
 40
0.4437730350956272
 40
0.5037949564977896
 40
0.5638225777168209
 40
0.6234843128834681
 40
0.6834691722744386
 40
0.7435907624559172
 40
0.8057272199738402
 40
0.8686162107352969
 40
0.933278202847215
 40
1.0
 40
1.0
 40
1.0
 40
1.0
 10
212.2226944099123
 20
105.0433276295003
 30
0.0
 10
212.2380333967431
 20
105.0381207702948
 30
0.0
 10
212.2680911560325
 20
105.0279175852748
 30
0.0
 10
212.3105838597743
 20
105.0080794491533
 30
0.0
 10
212.350589463139
 20
104.9866892295216
 30
0.0
 10
212.3883335621385
 20
104.9635343037912
 30
0.0
 10
212.422422929082
 20
104.9368926952964
 30
0.0
 10
212.4539948853937
 20
104.908339611954
 30
0.0
 10
212.4829166886173
 20
104.8774726846737
 30
0.0
 10
212.5087932976274
 20
104.8440293869874
 30
0.0
 10
212.5318958388316
 20
104.8087116365798
 30
0.0
 10
212.5516734479409
 20
104.7714333271775
 30
0.0
 10
212.5684701915488
 20
104.7327250667544
 30
0.0
 10
212.5828252670577
 20
104.6924073577601
 30
0.0
 10
212.5933105149994
 20
104.6501962070784
 30
0.0
 10
212.6006469024925
 20
104.6062855972506
 30
0.0
 10
212.6053016335188
 20
104.560906952581
 30
0.0
 10
212.6059610017085
 20
104.5300867680027
 30
0.0
 10
212.6062958545153
 20
104.5144350798062
 30
0.0
  0
SPLINE
  5
110
330
1F
100
AcDbEntity
  8
0
  6
Continuous
 62
     7
370
     0
100
AcDbSpline
210
0.0
220
0.0
230
1.0
 70
     8
 71
     3
 72
    15
 73
    11
 74
     0
 42
0.00000001
 43
0.00000001
 40
0.0
 40
0.0
 40
0.0
 40
0.0
 40
0.1248350921668871
 40
0.2447781332833286
 40
0.3609889778410595
 40
0.4779641722472781
 40
0.5969221175582977
 40
0.7215907566966706
 40
0.8550978657574203
 40
1.0
 40
1.0
 40
1.0
 40
1.0
 10
212.5272706642108
 20
105.4462737821467
 30
0.0
 10
212.5265178409783
 20
105.4236869800977
 30
0.0
 10
212.5250416962313
 20
105.3793985100337
 30
0.0
 10
212.5099991211056
 20
105.315556312307
 30
0.0
 10
212.4865539810376
 20
105.2559564209448
 30
0.0
 10
212.4526686789554
 20
105.2017347062801
 30
0.0
 10
212.4097542041258
 20
105.1523311794883
 30
0.0
 10
212.3565007634202
 20
105.1093841518868
 30
0.0
 10
212.2937171067031
 20
105.0719247390157
 30
0.0
 10
212.2470059235889
 20
105.0531165990904
 30
0.0
 10
212.2226944099123
 20
105.0433276295003
 30
0.0
  0
SPLINE
  5
111
330
1F
100
AcDbEntity
  8
0
  6
Continuous
 62
     7
370
     0
100
AcDbSpline
210
0.0
220
0.0
230
1.0
 70
     8
 71
     3
 72
    23
 73
    19
 74
     0
 42
0.00000001
 43
0.00000001
 40
0.0
 40
0.0
 40
0.0
 40
0.0
 40
0.0732007449685411
 40
0.1425867913224124
 40
0.2096247814680876
 40
0.2748829267682081
 40
0.3379306095315751
 40
0.4004618221882003
 40
0.4625006206857346
 40
0.5250054581372536
 40
0.5866888527108448
 40
0.6468127657705338
 40
0.7052153157505646
 40
0.7628810210075594
 40
0.8207275416930107
 40
0.8792954957245834
 40
0.9385111654136072
 40
1.0
 40
1.0
 40
1.0
 40
1.0
 10
211.9444598857152
 20
105.9710504365124
 30
0.0
 10
211.9658818521899
 20
105.9705677190908
 30
0.0
 10
212.0076094256558
 20
105.9696274400227
 30
0.0
 10
212.0686322992808
 20
105.9625476354909
 30
0.0
 10
212.1265182750958
 20
105.9506814420402
 30
0.0
 10
212.1812332728789
 20
105.9338463008414
 30
0.0
 10
212.2328635526665
 20
105.9123215591374
 30
0.0
 10
212.2810698523086
 20
105.8858648260487
 30
0.0
 10
212.326348426395
 20
105.8549124572918
 30
0.0
 10
212.3675419701667
 20
105.8190953348614
 30
0.0
 10
212.4050231848802
 20
105.7802095874877
 30
0.0
 10
212.4374971170992
 20
105.7385497901108
 30
0.0
 10
212.4653489751764
 20
105.6950880459254
 30
0.0
 10
212.4883643512119
 20
105.649560314829
 30
0.0
 10
212.5053912134248
 20
105.6014481578697
 30
0.0
 10
212.5183695044704
 20
105.5516580303599
 30
0.0
 10
212.5258975148917
 20
105.4995983285409
 30
0.0
 10
212.5268072369973
 20
105.4642704017438
 30
0.0
 10
212.5272706642108
 20
105.4462737821467
 30
0.0
  0
SPLINE
  5
112
330
1F
100
AcDbEntity
  8
0
  6
Continuous
 62
     7
370
     0
100
AcDbSpline
210
0.0
220
0.0
230
1.0
 70
     8
 71
     3
 72
    23
 73
    19
 74
     0
 42
0.00000001
 43
0.00000001
 40
0.0
 40
0.0
 40
0.0
 40
0.0
 40
0.0621313717366117
 40
0.1219658247853498
 40
0.1805702366487599
 40
0.2385759705888211
 40
0.2960002420906481
 40
0.3543589964435931
 40
0.4137812280524368
 40
0.4750979653520683
 40
0.5372798973856026
 40
0.5989179536770425
 40
0.6612351129787322
 40
0.7243219805737479
 40
0.7892171825086325
 40
0.8563966620881328
 40
0.9265077687361053
 40
1.0
 40
1.0
 40
1.0
 40
1.0
 10
211.368234539745
 20
105.452859214672
 30
0.0
 10
211.3686865420625
 20
105.4708591427554
 30
0.0
 10
211.3695738367403
 20
105.5061935642143
 30
0.0
 10
211.3772402646823
 20
105.558040845709
 30
0.0
 10
211.389519153557
 20
105.6077235126269
 30
0.0
 10
211.4069457698051
 20
105.6551013407061
 30
0.0
 10
211.4287784638264
 20
105.7005642928786
 30
0.0
 10
211.4563276417999
 20
105.743279467664
 30
0.0
 10
211.4879937107598
 20
105.7844540823522
 30
0.0
 10
211.5250890057949
 20
105.8224237336962
 30
0.0
 10
211.5659673796312
 20
105.8572002594197
 30
0.0
 10
211.6102450379205
 20
105.8881479517292
 30
0.0
 10
211.6582607939039
 20
105.9134556404063
 30
0.0
 10
211.7092140881539
 20
105.9346150007351
 30
0.0
 10
211.7633568595476
 20
105.9511805425987
 30
0.0
 10
211.8208798280832
 20
105.962462599478
 30
0.0
 10
211.8815802127131
 20
105.9696388246355
 30
0.0
 10
211.92317355782
 20
105.9705725709028
 30
0.0
 10
211.9444598857152
 20
105.9710504365124
 30
0.0
  0
SPLINE
  5
113
330
1F
100
AcDbEntity
  8
0
  6
Continuous
 62
     7
370
     0
100
AcDbSpline
210
0.0
220
0.0
230
1.0
 70
     8
 71
     3
 72
    15
 73
    11
 74
     0
 42
0.00000001
 43
0.00000001
 40
0.0
 40
0.0
 40
0.0
 40
0.0
 40
0.1453591950554982
 40
0.2787017789350159
 40
0.403602234418053
 40
0.5216687911804246
 40
0.6375206936077399
 40
0.7537041507630957
 40
0.8732127703640605
 40
1.0
 40
1.0
 40
1.0
 40
1.0
 10
211.6793962265689
 20
105.0433276295003
 30
0.0
 10
211.6544025761541
 20
105.0531052870906
 30
0.0
 10
211.6064814602588
 20
105.0718522990232
 30
0.0
 10
211.5418482295691
 20
105.109370346828
 30
0.0
 10
211.487146531059
 20
105.1525299199858
 30
0.0
 10
211.4430480292769
 20
105.2023717833712
 30
0.0
 10
211.4094369536143
 20
105.2578655693755
 30
0.0
 10
211.3852356503008
 20
105.3183037342586
 30
0.0
 10
211.371060522492
 20
105.3840229855577
 30
0.0
 10
211.3691949116937
 20
105.4294661548357
 30
0.0
 10
211.368234539745
 20
105.452859214672
 30
0.0
  0
SPLINE
  5
114
330
1F
100
AcDbEntity
  8
0
  6
Continuous
 62
     7
370
     0
100
AcDbSpline
210
0.0
220
0.0
230
1.0
 70
     8
 71
     3
 72
    23
 73
    19
 74
     0
 42
0.00000001
 43
0.00000001
 40
0.0
 40
0.0
 40
0.0
 40
0.0
 40
0.0698340680322546
 40
0.1370265239564768
 40
0.2014822968650625
 40
0.2645399492437558
 40
0.3259725932884497
 40
0.3863863095292154
 40
0.4457607667910175
 40
0.5056119070745058
 40
0.5651144217391012
 40
0.6247503916637627
 40
0.684178951264583
 40
0.7442191416569949
 40
0.8051791454666242
 40
0.8683948608225701
 40
0.9332039334133251
 40
1.0
 40
1.0
 40
1.0
 40
1.0
 10
211.2892093494405
 20
104.5214321018645
 30
0.0
 10
211.2895666605467
 20
104.5379026499796
 30
0.0
 10
211.2902677667578
 20
104.5702207150654
 30
0.0
 10
211.2945505870512
 20
104.61762252233
 30
0.0
 10
211.3030861656278
 20
104.6628014270589
 30
0.0
 10
211.3140805344894
 20
104.7060236682613
 30
0.0
 10
211.3280399428729
 20
104.7473973763066
 30
0.0
 10
211.3452615301429
 20
104.7865976432517
 30
0.0
 10
211.3661557523681
 20
104.8235297262677
 30
0.0
 10
211.3898929588931
 20
104.8584339408727
 30
0.0
 10
211.4167726860753
 20
104.8910652465645
 30
0.0
 10
211.446359275739
 20
104.921137884028
 30
0.0
 10
211.4787601998781
 20
104.948309797204
 30
0.0
 10
211.5132473521773
 20
104.9733745958298
 30
0.0
 10
211.5512663104611
 20
104.9945592682193
 30
0.0
 10
211.5914031617286
 20
105.0140001523275
 30
0.0
 10
211.6343479647989
 20
105.03057962174
 30
0.0
 10
211.6642297527503
 20
105.0390357363542
 30
0.0
 10
211.6793962265689
 20
105.0433276295003
 30
0.0
  0
SPLINE
  5
115
330
1F
100
AcDbEntity
  8
0
  6
Continuous
 62
     7
370
     0
100
AcDbSpline
210
0.0
220
0.0
230
1.0
 70
     8
 71
     3
 72
    23
 73
    19
 74
     0
 42
0.00000001
 43
0.00000001
 40
0.0
 40
0.0
 40
0.0
 40
0.0
 40
0.0704416310595481
 40
0.1380893247200285
 40
0.2031777335235316
 40
0.266138723805254
 40
0.3279287813674601
 40
0.3891903607612971
 40
0.4502535751031185
 40
0.5123465781279283
 40
0.5738427205586506
 40
0.6339325568070916
 40
0.6934598075975581
 40
0.7524794354833053
 40
0.8123859308429278
 40
0.8730704652319968
 40
0.9351843065837714
 40
1.0
 40
1.0
 40
1.0
 40
1.0
 10
211.9477526019779
 20
103.8900537584942
 30
0.0
 10
211.9237227033315
 20
103.8906351213709
 30
0.0
 10
211.8766160076564
 20
103.8917747884378
 30
0.0
 10
211.8076534639497
 20
103.899880770883
 30
0.0
 10
211.7423890455384
 20
103.9144079405019
 30
0.0
 10
211.680674876976
 20
103.9342752083009
 30
0.0
 10
211.6221761798678
 20
103.959191109618
 30
0.0
 10
211.5677568534769
 20
103.9908172342746
 30
0.0
 10
211.5166671794022
 20
104.0276952328584
 30
0.0
 10
211.4697151336136
 20
104.0698562626816
 30
0.0
 10
211.4273992280256
 20
104.1162051483838
 30
0.0
 10
211.3905643491196
 20
104.1659312025364
 30
0.0
 10
211.3591663791597
 20
104.2182691566855
 30
0.0
 10
211.3333265312387
 20
104.2735140525467
 30
0.0
 10
211.3136306748759
 20
104.3316663934718
 30
0.0
 10
211.2998078892649
 20
104.3925078548669
 30
0.0
 10
211.2907301036042
 20
104.4559919446341
 30
0.0
 10
211.2897234103982
 20
104.4993113471092
 30
0.0
 10
211.2892093494405
 20
104.5214321018645
 30
0.0
  0
SPLINE
  5
116
330
1F
100
AcDbEntity
  8
0
  6
Continuous
 62
     7
370
     0
100
AcDbSpline
210
0.0
220
0.0
230
1.0
 70
     8
 71
     3
 72
    15
 73
    11
 74
     0
 42
0.00000001
 43
0.00000001
 40
0.0
 40
0.0
 40
0.0
 40
0.0
 40
0.132461622242638
 40
0.26164950103549
 40
0.3875466984163659
 40
0.5107816292933464
 40
0.6326753605997106
 40
0.7546603541381373
 40
0.8765227798028644
 40
1.0
 40
1.0
 40
1.0
 40
1.0
 10
209.4452882423358
 20
104.6210367688107
 30
0.0
 10
209.4448218366766
 20
104.5982427162238
 30
0.0
 10
209.4439005524136
 20
104.5532179582223
 30
0.0
 10
209.4363504373345
 20
104.4868656538929
 30
0.0
 10
209.4239134170957
 20
104.4229299860427
 30
0.0
 10
209.4072636788381
 20
104.3612216214957
 30
0.0
 10
209.3847676480703
 20
104.3020910160264
 30
0.0
 10
209.3574820683777
 20
104.245347172984
 30
0.0
 10
209.3260066217429
 20
104.1903979895814
 30
0.0
 10
209.3007649469467
 20
104.1565249893906
 30
0.0
 10
209.2880610407925
 20
104.1394770153928
 30
0.0
  0
SPLINE
  5
117
330
1F
100
AcDbEntity
  8
0
  6
Continuous
 62
     7
370
     0
100
AcDbSpline
210
0.0
220
0.0
230
1.0
 70
     8
 71
     3
 72
    23
 73
    19
 74
     0
 42
0.00000001
 43
0.00000001
 40
0.0
 40
0.0
 40
0.0
 40
0.0
 40
0.0619974190757221
 40
0.1220879540822937
 40
0.1813753107870036
 40
0.2395080083953663
 40
0.2978356978967516
 40
0.3568799706531185
 40
0.4172818251154289
 40
0.4796404090798165
 40
0.5425000674783568
 40
0.6049624196481908
 40
0.6669910330782646
 40
0.7302162430101637
 40
0.794172863251256
 40
0.8604581431502615
 40
0.9285781799847829
 40
1.0
 40
1.0
 40
1.0
 40
1.0
 10
208.8423095767313
 20
105.2861654538735
 30
0.0
 10
208.8630547968003
 20
105.285621912651
 30
0.0
 10
208.9039071663501
 20
105.2845515481615
 30
0.0
 10
208.9641045474283
 20
105.2757571561569
 30
0.0
 10
209.0216633700289
 20
105.2608280927226
 30
0.0
 10
209.077035120742
 20
105.2407208208035
 30
0.0
 10
209.1294896584141
 20
105.214065197022
 30
0.0
 10
209.1795583097825
 20
105.1817908966198
 30
0.0
 10
209.2270389303791
 20
105.1436318915698
 30
0.0
 10
209.2716630985951
 20
105.1003081635476
 30
0.0
 10
209.3121389938445
 20
105.0522142708878
 30
0.0
 10
209.3483662411336
 20
105.000918730096
 30
0.0
 10
209.3779546778865
 20
104.9453947455965
 30
0.0
 10
209.4028405839479
 20
104.8870920581124
 30
0.0
 10
209.4216100671555
 20
104.8250536078538
 30
0.0
 10
209.4358567600134
 20
104.7601598471347
 30
0.0
 10
209.4434739937176
 20
104.6915994557986
 30
0.0
 10
209.4446740278881
 20
104.6449257889716
 30
0.0
 10
209.4452882423358
 20
104.6210367688107
 30
0.0
  0
SPLINE
  5
118
330
1F
100
AcDbEntity
  8
0
  6
Continuous
 62
     7
370
     0
100
AcDbSpline
210
0.0
220
0.0
230
1.0
 70
     8
 71
     3
 72
    15
 73
    11
 74
     0
 42
0.00000001
 43
0.00000001
 40
0.0
 40
0.0
 40
0.0
 40
0.0
 40
0.1367294018595733
 40
0.2685149167908308
 40
0.3955294046848096
 40
0.5199999535658124
 40
0.640496476841269
 40
0.7612361017625323
 40
0.8801067171759528
 40
1.0
 40
1.0
 40
1.0
 40
1.0
 10
208.4759948925073
 20
105.1491061394392
 30
0.0
 10
208.4905295537277
 20
105.1600131529425
 30
0.0
 10
208.5190733292075
 20
105.1814328021435
 30
0.0
 10
208.5635965026558
 20
105.2094790093792
 30
0.0
 10
208.6087563107708
 20
105.2331200919334
 30
0.0
 10
208.6542898668087
 20
105.2524801505569
 30
0.0
 10
208.7005588634088
 20
105.2675616021682
 30
0.0
 10
208.7472840920275
 20
105.2780394983367
 30
0.0
 10
208.7946246442157
 20
105.2851210771047
 30
0.0
 10
208.8263692766274
 20
105.285816335646
 30
0.0
 10
208.8423095767313
 20
105.2861654538735
 30
0.0
  0
LINE
  5
119
330
1F
100
AcDbEntity
  8
0
  6
Continuous
 62
     7
370
     0
100
AcDbLine
 10
208.5805386338
 20
105.6812914054
 30
0.0
 11
208.4759948925
 21
105.1491061394
 31
0.0
  0
LINE
  5
11A
330
1F
100
AcDbEntity
  8
0
  6
Continuous
 62
     7
370
     0
100
AcDbLine
 10
209.3399213219
 20
105.6812914054
 30
0.0
 11
208.5805386338
 21
105.6812914054
 31
0.0
  0
LINE
  5
11B
330
1F
100
AcDbEntity
  8
0
  6
Continuous
 62
     7
370
     0
100
AcDbLine
 10
209.3399213219
 20
105.9447087064
 30
0.0
 11
209.3399213219
 21
105.6812914054
 31
0.0
  0
LINE
  5
11C
330
1F
100
AcDbEntity
  8
0
  6
Continuous
 62
     7
370
     0
100
AcDbLine
 10
208.3652773082
 20
105.9447087064
 30
0.0
 11
209.3399213219
 21
105.9447087064
 31
0.0
  0
LINE
  5
11D
330
1F
100
AcDbEntity
  8
0
  6
Continuous
 62
     7
370
     0
100
AcDbLine
 10
208.1545434674
 20
104.8910395024
 30
0.0
 11
208.3652773082
 21
105.9447087064
 31
0.0
  0
LINE
  5
11E
330
1F
100
AcDbEntity
  8
0
  6
Continuous
 62
     7
370
     0
100
AcDbLine
 10
208.4179607684
 20
104.8646977722
 30
0.0
 11
208.1545434674
 21
104.8910395024
 31
0.0
  0
SPLINE
  5
11F
330
1F
100
AcDbEntity
  8
0
  6
Continuous
 62
     7
370
     0
100
AcDbSpline
210
0.0
220
0.0
230
1.0
 70
     8
 71
     3
 72
    15
 73
    11
 74
     0
 42
0.00000001
 43
0.00000001
 40
0.0
 40
0.0
 40
0.0
 40
0.0
 40
0.1478596367312514
 40
0.283561321939547
 40
0.4123693961385312
 40
0.5342363558879457
 40
0.6526916293119823
 40
0.7686630594981229
 40
0.8836524018604046
 40
1.0
 40
1.0
 40
1.0
 40
1.0
 10
208.7694582294193
 20
105.04908988296
 30
0.0
 10
208.7489734605539
 20
105.0484906634311
 30
0.0
 10
208.7096883096666
 20
105.0473414959805
 30
0.0
 10
208.653239587736
 20
105.037673962272
 30
0.0
 10
208.6018522724361
 20
105.022057293092
 30
0.0
 10
208.5561081691544
 20
104.9987825476084
 30
0.0
 10
208.5152380732786
 20
104.970977041119
 30
0.0
 10
208.4783929305572
 20
104.939513849114
 30
0.0
 10
208.4452689153672
 20
104.9044142434878
 30
0.0
 10
208.4270990444835
 20
104.8779883144555
 30
0.0
 10
208.4179607683775
 20
104.8646977722496
 30
0.0
  0
SPLINE
  5
120
330
1F
100
AcDbEntity
  8
0
  6
Continuous
 62
     7
370
     0
100
AcDbSpline
210
0.0
220
0.0
230
1.0
 70
     8
 71
     3
 72
    23
 73
    19
 74
     0
 42
0.00000001
 43
0.00000001
 40
0.0
 40
0.0
 40
0.0
 40
0.0
 40
0.0728659334565351
 40
0.1418868719641256
 40
0.2074526264147115
 40
0.2704376800000974
 40
0.3316408722476697
 40
0.3901075774931577
 40
0.4480692869488358
 40
0.505502951924537
 40
0.5624881528337238
 40
0.6190843288847293
 40
0.6764155306922391
 40
0.7354523604507931
 40
0.7962407694486783
 40
0.8604056780892032
 40
0.9283049272851064
 40
1.0
 40
1.0
 40
1.0
 40
1.0
 10
209.1818709413209
 20
104.605396366563
 30
0.0
 10
209.1815685507309
 20
104.622145974917
 30
0.0
 10
209.1809797261199
 20
104.6547613470564
 30
0.0
 10
209.1760208622437
 20
104.7022547517571
 30
0.0
 10
209.1676546750833
 20
104.7469129250202
 30
0.0
 10
209.1568296122473
 20
104.7892280778628
 30
0.0
 10
209.1419086284913
 20
104.8285389839071
 30
0.0
 10
209.1242115015861
 20
104.8654156128557
 30
0.0
 10
209.102531777344
 20
104.8990753340751
 30
0.0
 10
209.0784116535332
 20
104.9305661893862
 30
0.0
 10
209.0508634269842
 20
104.9587964722713
 30
0.0
 10
209.0195149257854
 20
104.9826333705391
 30
0.0
 10
208.9855959331295
 20
105.003495470432
 30
0.0
 10
208.9484232857566
 20
105.0204133319926
 30
0.0
 10
208.9079750946086
 20
105.0329826674076
 30
0.0
 10
208.8646533032491
 20
105.0426536400055
 30
0.0
 10
208.8180083839222
 20
105.0477401755876
 30
0.0
 10
208.7859323494932
 20
105.0486318979846
 30
0.0
 10
208.7694582294193
 20
105.04908988296
 30
0.0
  0
SPLINE
  5
121
330
1F
100
AcDbEntity
  8
0
  6
Continuous
 62
     7
370
     0
100
AcDbSpline
210
0.0
220
0.0
230
1.0
 70
     8
 71
     3
 72
    23
 73
    19
 74
     0
 42
0.00000001
 43
0.00000001
 40
0.0
 40
0.0
 40
0.0
 40
0.0
 40
0.0658010376094729
 40
0.1286767959489733
 40
0.1886758749524341
 40
0.2475984367338953
 40
0.304849420118827
 40
0.3617858992828986
 40
0.4195227063685901
 40
0.4786818154207406
 40
0.5387695030440189
 40
0.5987990560131542
 40
0.6601842815006784
 40
0.722951530610966
 40
0.7879926891048742
 40
0.8554037684344732
 40
0.9261530612840041
 40
1.0
 40
1.0
 40
1.0
 40
1.0
 10
208.7682234608208
 20
104.1271293294077
 30
0.0
 10
208.7838847399132
 20
104.1275077513727
 30
0.0
 10
208.814511053529
 20
104.1282477720129
 30
0.0
 10
208.8590665383128
 20
104.1345065692705
 30
0.0
 10
208.9011528021825
 20
104.1448266008523
 30
0.0
 10
208.9405684687666
 20
104.1592687184124
 30
0.0
 10
208.9777756103375
 20
104.1772292004623
 30
0.0
 10
209.0115399026529
 20
104.2004847530166
 30
0.0
 10
209.0437023610147
 20
104.2266262919942
 30
0.0
 10
209.0721933239409
 20
104.2577920235864
 30
0.0
 10
209.0981281049655
 20
104.2917211282783
 30
0.0
 10
209.1205117707588
 20
104.3287561893253
 30
0.0
 10
209.1393556548551
 20
104.3683773903372
 30
0.0
 10
209.1552201456227
 20
104.4105771351988
 30
0.0
 10
209.1669349143375
 20
104.4555964964088
 30
0.0
 10
209.1755520729849
 20
104.5031959795502
 30
0.0
 10
209.1810839448484
 20
104.5534059055391
 30
0.0
 10
209.1816048891472
 20
104.5878204616533
 30
0.0
 10
209.1818709413209
 20
104.605396366563
 30
0.0
  0
SPLINE
  5
122
330
1F
100
AcDbEntity
  8
0
  6
Continuous
 62
     7
370
     0
100
AcDbSpline
210
0.0
220
0.0
230
1.0
 70
     8
 71
     3
 72
    23
 73
    19
 74
     0
 42
0.00000001
 43
0.00000001
 40
0.0
 40
0.0
 40
0.0
 40
0.0
 40
0.0773613371189759
 40
0.1504798322806804
 40
0.2199772368520742
 40
0.2866809968624409
 40
0.3496784941856623
 40
0.4106796250174851
 40
0.4694271135192905
 40
0.5267557014271295
 40
0.583141980834837
 40
0.6388244277786258
 40
0.6952634704038123
 40
0.7526958048985352
 40
0.8108491833348948
 40
0.8713563036360843
 40
0.934436430984128
 40
1.0
 40
1.0
 40
1.0
 40
1.0
 10
208.391619038276
 20
104.4959135508286
 30
0.0
 10
208.3942272831061
 20
104.4810714316084
 30
0.0
 10
208.3993007249466
 20
104.4522012014117
 30
0.0
 10
208.4089687290978
 20
104.4104106868876
 30
0.0
 10
208.4215247144281
 20
104.3715861307975
 30
0.0
 10
208.4356327462803
 20
104.3353912903106
 30
0.0
 10
208.4524025222153
 20
104.3022088805445
 30
0.0
 10
208.4705727133773
 20
104.2715149686073
 30
0.0
 10
208.4920007404135
 20
104.2443990926889
 30
0.0
 10
208.5145294337798
 20
104.2194430669044
 30
0.0
 10
208.5392563961728
 20
104.197452394663
 30
0.0
 10
208.5664202242659
 20
104.1789134993255
 30
0.0
 10
208.5952630294477
 20
104.1627394357472
 30
0.0
 10
208.6261361062126
 20
104.1494968310552
 30
0.0
 10
208.6590867711466
 20
104.1398039418407
 30
0.0
 10
208.6936956503449
 20
104.1321385304683
 30
0.0
 10
208.7304083957422
 20
104.1282759658304
 30
0.0
 10
208.7554572513575
 20
104.1275164291184
 30
0.0
 10
208.7682234608208
 20
104.1271293294077
 30
0.0
  0
LINE
  5
123
330
1F
100
AcDbEntity
  8
0
  6
Continuous
 62
     7
370
     0
100
AcDbLine
 10
208.1282017373
 20
104.4695718207
 30
0.0
 11
208.3916190383
 21
104.4959135508
 31
0.0
  0
SPLINE
  5
124
330
1F
100
AcDbEntity
  8
0
  6
Continuous
 62
     7
370
     0
100
AcDbSpline
210
0.0
220
0.0
230
1.0
 70
     8
 71
     3
 72
    23
 73
    19
 74
     0
 42
0.00000001
 43
0.00000001
 40
0.0
 40
0.0
 40
0.0
 40
0.0
 40
0.0692980234597528
 40
0.135560844101282
 40
0.1996709556470567
 40
0.2617162384956084
 40
0.3226619299471026
 40
0.3829069237782244
 40
0.4430320330728902
 40
0.503500787350163
 40
0.5637242810171083
 40
0.6239800220534739
 40
0.6836293869955233
 40
0.7438482724857305
 40
0.80519184622951
 40
0.8676487429597676
 40
0.9327780842312613
 40
1.0
 40
1.0
 40
1.0
 40
1.0
 10
208.7665771026895
 20
103.8900537584942
 30
0.0
 10
208.7444660897874
 20
103.8905022767866
 30
0.0
 10
208.7012125102005
 20
103.8913796685977
 30
0.0
 10
208.6378815738852
 20
103.8990072974294
 30
0.0
 10
208.5776463644815
 20
103.9111706758216
 30
0.0
 10
208.5204880112836
 20
103.9286167257912
 30
0.0
 10
208.4662343115112
 20
103.950661442601
 30
0.0
 10
208.415515893776
 20
103.9786657919884
 30
0.0
 10
208.36745259459
 20
104.0107010234506
 30
0.0
 10
208.3231016463563
 20
104.0477541365638
 30
0.0
 10
208.2826921579477
 20
104.089082602631
 30
0.0
 10
208.246484435654
 20
104.1338107605278
 30
0.0
 10
208.2149684686064
 20
104.1819677762771
 30
0.0
 10
208.1881594679403
 20
104.2332654889734
 30
0.0
 10
208.16581540385
 20
104.2876547026845
 30
0.0
 10
208.1487213113977
 20
104.345506644561
 30
0.0
 10
208.135181367636
 20
104.4062536979492
 30
0.0
 10
208.1305526751078
 20
104.4482444776975
 30
0.0
 10
208.128201737261
 20
104.4695718207271
 30
0.0
  0
SPLINE
  5
125
330
1F
100
AcDbEntity
  8
0
  6
Continuous
 62
     7
370
     0
100
AcDbSpline
210
0.0
220
0.0
230
1.0
 70
     8
 71
     3
 72
    15
 73
    11
 74
     0
 42
0.00000001
 43
0.00000001
 40
0.0
 40
0.0
 40
0.0
 40
0.0
 40
0.1278926194654212
 40
0.2515785135038573
 40
0.3727928197023035
 40
0.4927776986078535
 40
0.6135900692425712
 40
0.7378086492801463
 40
0.8661799015391671
 40
0.9999999999999999
 40
0.9999999999999999
 40
0.9999999999999999
 40
0.9999999999999999
 10
209.2880610407925
 20
104.1394770153928
 30
0.0
 10
209.2719210842037
 20
104.1195766644677
 30
0.0
 10
209.2401720567493
 20
104.0804305376243
 30
0.0
 10
209.1851989622808
 20
104.0296212079771
 30
0.0
 10
209.1261021063211
 20
103.9864402703793
 30
0.0
 10
209.0625297963026
 20
103.9513588879594
 30
0.0
 10
208.9949088137163
 20
103.923168026519
 30
0.0
 10
208.922408453328
 20
103.904408066786
 30
0.0
 10
208.845904757267
 20
103.8918100107339
 30
0.0
 10
208.7933834856064
 20
103.8906472308499
 30
0.0
 10
208.7665771026895
 20
103.8900537584942
 30
0.0
  0
SPLINE
  5
126
330
1F
100
AcDbEntity
  8
0
  6
Continuous
 62
     7
370
     0
100
AcDbSpline
210
0.0
220
0.0
230
1.0
 70
     8
 71
     3
 72
    27
 73
    23
 74
     0
 42
0.00000001
 43
0.00000001
 40
0.0
 40
0.0
 40
0.0
 40
0.0
 40
0.0467628351215619
 40
0.091968696607212
 40
0.1358043853805056
 40
0.1782315801839235
 40
0.2194414332265379
 40
0.2601769432685921
 40
0.3002796061140319
 40
0.3405476414666171
 40
0.3803111902076692
 40
0.4196419535698123
 40
0.4590173240985177
 40
0.4981819588897615
 40
0.5376702145628715
 40
0.5779133315743612
 40
0.6186488416164155
 40
0.6607616027603175
 40
0.7452991770631804
 40
0.8297447416906314
 40
0.9146020866092538
 40
1.0
 40
1.0
 40
1.0
 40
1.0
 10
204.6617946917173
 20
105.7603165957004
 30
0.0
 10
204.6436691140217
 20
105.760053611571
 30
0.0
 10
204.6080214516937
 20
105.7595363993972
 30
0.0
 10
204.5556507473775
 20
105.7538755695321
 30
0.0
 10
204.5053566559028
 20
105.7455377195285
 30
0.0
 10
204.4575140174134
 20
105.7330343966856
 30
0.0
 10
204.4118610335747
 20
105.7174460045185
 30
0.0
 10
204.3686686172086
 20
105.6980356981012
 30
0.0
 10
204.3275693543673
 20
105.6752845421551
 30
0.0
 10
204.2890219337624
 20
105.6490559132211
 30
0.0
 10
204.2533503116091
 20
105.6195698865516
 30
0.0
 10
204.2195864633297
 20
105.5883985428784
 30
0.0
 10
204.1893514282373
 20
105.5540881219198
 30
0.0
 10
204.1614922539002
 20
105.5177699741504
 30
0.0
 10
204.1368201985133
 20
105.4788023315984
 30
0.0
 10
204.1146112156844
 20
105.4377159807288
 30
0.0
 10
204.0950068707451
 20
105.3941741866494
 30
0.0
 10
204.0736368035412
 20
105.3328924094312
 30
0.0
 10
204.0518471557893
 20
105.2539628976444
 30
0.0
 10
204.0329446094936
 20
105.1573787577006
 30
0.0
 10
204.0209041331586
 20
105.0592729412323
 30
0.0
 10
204.0195640236416
 20
104.9932851810723
 30
0.0
 10
204.0188918414277
 20
104.9601865438675
 30
0.0
  0
SPLINE
  5
127
330
1F
100
AcDbEntity
  8
0
  6
Continuous
 62
     7
370
     0
100
AcDbSpline
210
0.0
220
0.0
230
1.0
 70
     8
 71
     3
 72
    23
 73
    19
 74
     0
 42
0.00000001
 43
0.00000001
 40
0.0
 40
0.0
 40
0.0
 40
0.0
 40
0.0772311103286299
 40
0.1511651795217243
 40
0.2207847057253997
 40
0.2871495176777684
 40
0.3506324812950841
 40
0.4113067715078916
 40
0.4699644151376497
 40
0.5267072266832779
 40
0.5824983333641278
 40
0.6385087274080254
 40
0.6949179812139084
 40
0.7524203526591543
 40
0.8112509754155086
 40
0.8718561089908092
 40
0.9346441878526878
 40
1.0
 40
1.0
 40
1.0
 40
1.0
 10
205.1779279658935
 20
105.3380257350108
 30
0.0
 10
205.1722375508176
 20
105.3557973885829
 30
0.0
 10
205.1610996478036
 20
105.3905820134729
 30
0.0
 10
205.1413232114961
 20
105.4401562858195
 30
0.0
 10
205.1199653196643
 20
105.48617740736
 30
0.0
 10
205.0965172097717
 20
105.5283325472028
 30
0.0
 10
205.0709280648579
 20
105.5666318027517
 30
0.0
 10
205.0437871349514
 20
105.6015406445254
 30
0.0
 10
205.014444150569
 20
105.6324074936482
 30
0.0
 10
204.9834959725345
 20
105.6599440629068
 30
0.0
 10
204.9501434280309
 20
105.6834025847668
 30
0.0
 10
204.9151684455393
 20
105.7041906956428
 30
0.0
 10
204.8778335779721
 20
105.7213896873797
 30
0.0
 10
204.838675914899
 20
105.7359364813982
 30
0.0
 10
204.7973294537995
 20
105.7470081591008
 30
0.0
 10
204.753962562974
 20
105.7547975211171
 30
0.0
 10
204.7085371392482
 20
105.7593056222309
 30
0.0
 10
204.6775822643611
 20
105.7599751326848
 30
0.0
 10
204.6617946917173
 20
105.7603165957004
 30
0.0
  0
LINE
  5
128
330
1F
100
AcDbEntity
  8
0
  6
Continuous
 62
     7
370
     0
100
AcDbLine
 10
205.467686997
 20
105.4001757545
 30
0.0
 11
205.1779279659
 21
105.338025735
 31
0.0
  0
SPLINE
  5
129
330
1F
100
AcDbEntity
  8
0
  6
Continuous
 62
     7
370
     0
100
AcDbSpline
210
0.0
220
0.0
230
1.0
 70
     8
 71
     3
 72
    23
 73
    19
 74
     0
 42
0.00000001
 43
0.00000001
 40
0.0
 40
0.0
 40
0.0
 40
0.0
 40
0.0686494919759957
 40
0.134937373785155
 40
0.1988418982006104
 40
0.2614093284183097
 40
0.3225167637069052
 40
0.3823768656987784
 40
0.4424709047536874
 40
0.5022278334792912
 40
0.5621014330908561
 40
0.62173160809488
 40
0.6818513124344153
 40
0.7420491672939588
 40
0.8039081304743815
 40
0.8671621602461707
 40
0.9323605979385298
 40
1.0
 40
1.0
 40
1.0
 40
1.0
 10
204.6757887358337
 20
105.9973921666139
 30
0.0
 10
204.7003646294432
 20
105.9969289231786
 30
0.0
 10
204.7486709817063
 20
105.9960183723385
 30
0.0
 10
204.819551947128
 20
105.9885289120651
 30
0.0
 10
204.8874374053858
 20
105.9759848865193
 30
0.0
 10
204.952621516386
 20
105.9595283112728
 30
0.0
 10
205.0144265731112
 20
105.9369958340995
 30
0.0
 10
205.073523576147
 20
105.9102073084412
 30
0.0
 10
205.1293246273416
 20
105.8780241398426
 30
0.0
 10
205.1822639064843
 20
105.8413307799807
 30
0.0
 10
205.2314796433931
 20
105.8000595577224
 30
0.0
 10
205.2776605600088
 20
105.7551964312762
 30
0.0
 10
205.3189236411507
 20
105.7056201497478
 30
0.0
 10
205.3569031556778
 20
105.6525305474889
 30
0.0
 10
205.3904041414139
 20
105.5951914528892
 30
0.0
 10
205.4206590657391
 20
105.5341028012853
 30
0.0
 10
205.446677420099
 20
105.4688104683986
 30
0.0
 10
205.4605985354621
 20
105.4233325525615
 30
0.0
 10
205.46768699701
 20
105.400175754469
 30
0.0
  0
SPLINE
  5
12A
330
1F
100
AcDbEntity
  8
0
  6
Continuous
 62
     7
370
     0
100
AcDbSpline
210
0.0
220
0.0
230
1.0
 70
     8
 71
     3
 72
    31
 73
    27
 74
     0
 42
0.00000001
 43
0.00000001
 40
0.0
 40
0.0
 40
0.0
 40
0.0
 40
0.0494014326173349
 40
0.0976047534771127
 40
0.1442547055445423
 40
0.1894721438466749
 40
0.2339150059350921
 40
0.2772371111508619
 40
0.3198588355644323
 40
0.3619566544332702
 40
0.4034857542265475
 40
0.4439336363338552
 40
0.4836491750513743
 40
0.5228932833172718
 40
0.5618583840947368
 40
0.6007948668981946
 40
0.6401043361891355
 40
0.6796434268265384
 40
0.7193997691904886
 40
0.7588541926680972
 40
0.7983154646830742
 40
0.8378024081343659
 40
0.8774685864444087
 40
0.9176827969423332
 40
0.9583928898538524
 40
0.9999999999999999
 40
0.9999999999999999
 40
0.9999999999999999
 40
0.9999999999999999
 10
203.7291328103112
 20
104.958951775269
 30
0.0
 10
203.7295976686854
 20
104.9850263110429
 30
0.0
 10
203.7305161114231
 20
105.0365430080577
 30
0.0
 10
203.7357007057812
 20
105.1125573898898
 30
0.0
 10
203.7452229263529
 20
105.1859205675447
 30
0.0
 10
203.7584465210318
 20
105.2566807977483
 30
0.0
 10
203.7751796584823
 20
105.3248953861207
 30
0.0
 10
203.7958348409589
 20
105.3905975665158
 30
0.0
 10
203.8201507812742
 20
105.4537032736969
 30
0.0
 10
203.8480533483672
 20
105.5142820943517
 30
0.0
 10
203.8797279219374
 20
105.5716578090935
 30
0.0
 10
203.9142291455605
 20
105.6259119821484
 30
0.0
 10
203.9523800059087
 20
105.6761537841289
 30
0.0
 10
203.9930493867211
 20
105.7233430984982
 30
0.0
 10
204.0372530330385
 20
105.7666941702079
 30
0.0
 10
204.0848559663545
 20
105.806305199587
 30
0.0
 10
204.1354474888248
 20
105.8425374894241
 30
0.0
 10
204.1890202159957
 20
105.8750546737448
 30
0.0
 10
204.2448738899389
 20
105.9035868016519
 30
0.0
 10
204.3021789038394
 20
105.9290006165984
 30
0.0
 10
204.3611631841002
 20
105.9498306925173
 30
0.0
 10
204.4213590866866
 20
105.9671500632898
 30
0.0
 10
204.4828962079145
 20
105.9809378913178
 30
0.0
 10
204.5459183359452
 20
105.9901578549215
 30
0.0
 10
204.6103672373108
 20
105.9961662975549
 30
0.0
 10
204.6538237200544
 20
105.9969805858059
 30
0.0
 10
204.6757887358337
 20
105.9973921666139
 30
0.0
  0
SPLINE
  5
12B
330
1F
100
AcDbEntity
  8
0
  6
Continuous
 62
     7
370
     0
100
AcDbSpline
210
0.0
220
0.0
230
1.0
 70
     8
 71
     3
 72
    31
 73
    27
 74
     0
 42
0.00000001
 43
0.00000001
 40
0.0
 40
0.0
 40
0.0
 40
0.0
 40
0.0491959188678573
 40
0.0962478839423339
 40
0.1413486305545651
 40
0.18465611934875
 40
0.226058682310063
 40
0.2661730836384071
 40
0.3052898413966903
 40
0.3432450951047079
 40
0.3808772760868657
 40
0.4184957931350257
 40
0.4563187508918002
 40
0.494236737091876
 40
0.533023528957667
 40
0.572473194333944
 40
0.613078809089891
 40
0.6549344546107934
 40
0.6973967795046183
 40
0.7398840686663996
 40
0.7821947798191174
 40
0.8250615348667028
 40
0.8679874655774052
 40
0.9114105439600777
 40
0.9553719455228146
 40
1.0
 40
1.0
 40
1.0
 40
1.0
 10
204.6815509892934
 20
103.8900537584942
 30
0.0
 10
204.654923599456
 20
103.8904406066576
 30
0.0
 10
204.6028292390754
 20
103.8911974441757
 30
0.0
 10
204.5265140044967
 20
103.8973533594649
 30
0.0
 10
204.4539307226235
 20
103.9080298365343
 30
0.0
 10
204.3852149410821
 20
103.9228632734367
 30
0.0
 10
204.320135370729
 20
103.9412038960259
 30
0.0
 10
204.2589618788038
 20
103.9642780244307
 30
0.0
 10
204.2018016127839
 20
103.9919191702871
 30
0.0
 10
204.1481777800972
 20
104.0233542967409
 30
0.0
 10
204.0983181394475
 20
104.0590660159478
 30
0.0
 10
204.0510888651926
 20
104.0980905656666
 30
0.0
 10
204.0076365270767
 20
104.1415022486378
 30
0.0
 10
203.9668746522983
 20
104.1882760747676
 30
0.0
 10
203.9296910493165
 20
104.2390290558052
 30
0.0
 10
203.8947177252487
 20
104.293071691186
 30
0.0
 10
203.8636617078931
 20
104.3513562098707
 30
0.0
 10
203.8353720852412
 20
104.4128020153963
 30
0.0
 10
203.8105416787755
 20
104.4768142019729
 30
0.0
 10
203.7885754542565
 20
104.5421283520985
 30
0.0
 10
203.7706168648476
 20
104.6088746112642
 30
0.0
 10
203.7551556782443
 20
104.6764913213046
 30
0.0
 10
203.743923875341
 20
104.7455474303514
 30
0.0
 10
203.7350061715817
 20
104.8155248062562
 30
0.0
 10
203.7301030387646
 20
104.8868524708715
 30
0.0
 10
203.7294578382156
 20
104.9347984063017
 30
0.0
 10
203.7291328103112
 20
104.958951775269
 30
0.0
  0
SPLINE
  5
12C
330
1F
100
AcDbEntity
  8
0
  6
Continuous
 62
     7
370
     0
100
AcDbSpline
210
0.0
220
0.0
230
1.0
 70
     8
 71
     3
 72
    23
 73
    19
 74
     0
 42
0.00000001
 43
0.00000001
 40
0.0
 40
0.0
 40
0.0
 40
0.0
 40
0.0715783870982365
 40
0.140016209075356
 40
0.206197439946981
 40
0.2701561038056544
 40
0.332001040268831
 40
0.3927550109285566
 40
0.4525790344906382
 40
0.512252798847904
 40
0.5715322524285594
 40
0.6301517528722204
 40
0.6887691695485557
 40
0.7481639008503609
 40
0.8087033721996509
 40
0.8702562984804197
 40
0.9339000275070017
 40
1.0
 40
1.0
 40
1.0
 40
1.0
 10
205.5203704572129
 20
104.5741155620674
 30
0.0
 10
205.5131111846365
 20
104.5469572530171
 30
0.0
 10
205.4989111464965
 20
104.4938322297764
 30
0.0
 10
205.4708359461856
 20
104.4178044409236
 30
0.0
 10
205.4393249769291
 20
104.3464556040685
 30
0.0
 10
205.4036136399249
 20
104.2799736647122
 30
0.0
 10
205.3633110778763
 20
104.2187408527196
 30
0.0
 10
205.3194851458571
 20
104.161970208334
 30
0.0
 10
205.2703999603999
 20
104.1108522656828
 30
0.0
 10
205.2178565155981
 20
104.0642072493341
 30
0.0
 10
205.1614457033804
 20
104.0230664693794
 30
0.0
 10
205.1018476448687
 20
103.9875406511526
 30
0.0
 10
205.039350424263
 20
103.9573153912634
 30
0.0
 10
204.9737014472807
 20
103.9324599934393
 30
0.0
 10
204.9048581531171
 20
103.9137541755348
 30
0.0
 10
204.8331750170142
 20
103.9001202795558
 30
0.0
 10
204.7584430156842
 20
103.891722593702
 30
0.0
 10
204.7075031210383
 20
103.8906170136613
 30
0.0
 10
204.6815509892934
 20
103.8900537584942
 30
0.0
  0
LINE
  5
12D
330
1F
100
AcDbEntity
  8
0
  6
Continuous
 62
     7
370
     0
100
AcDbLine
 10
205.2306114261
 20
104.6416162455
 30
0.0
 11
205.5203704572
 21
104.5741155621
 31
0.0
  0
SPLINE
  5
12E
330
1F
100
AcDbEntity
  8
0
  6
Continuous
 62
     7
370
     0
100
AcDbSpline
210
0.0
220
0.0
230
1.0
 70
     8
 71
     3
 72
    23
 73
    19
 74
     0
 42
0.00000001
 43
0.00000001
 40
0.0
 40
0.0
 40
0.0
 40
0.0
 40
0.0633358805656859
 40
0.1251107589802108
 40
0.1846884118917139
 40
0.2432104439678636
 40
0.3008880404131166
 40
0.358370115531299
 40
0.4157614077031932
 40
0.4743866229897766
 40
0.533966264972407
 40
0.594007564198807
 40
0.6550724073076796
 40
0.7186100426051376
 40
0.7843747830517752
 40
0.8529914722129186
 40
0.9249004292977558
 40
1.0
 40
1.0
 40
1.0
 40
1.0
 10
204.6543860801263
 20
104.1271293294077
 30
0.0
 10
204.6722421856602
 20
104.1275038094995
 30
0.0
 10
204.7075143078101
 20
104.1282435400928
 30
0.0
 10
204.7592277175932
 20
104.1347184435843
 30
0.0
 10
204.8090787317138
 20
104.1442600608024
 30
0.0
 10
204.8564634121037
 20
104.1589837396663
 30
0.0
 10
204.9020191362815
 20
104.1770111593695
 30
0.0
 10
204.9453726531239
 20
104.1992421206784
 30
0.0
 10
204.9863876225357
 20
104.2259794786335
 30
0.0
 10
205.0255464707082
 20
104.2563372371381
 30
0.0
 10
205.0621270738813
 20
104.2908791785986
 30
0.0
 10
205.0956512301255
 20
104.3293270163659
 30
0.0
 10
205.1257261859728
 20
104.3718560285024
 30
0.0
 10
205.1536132382434
 20
104.4177836864473
 30
0.0
 10
205.1770434875225
 20
104.4684820189815
 30
0.0
 10
205.1987454306829
 20
104.5224399319828
 30
0.0
 10
205.2168290574346
 20
104.5805442716956
 30
0.0
 10
205.2259513079972
 20
104.6209664850778
 30
0.0
 10
205.2306114260965
 20
104.6416162454525
 30
0.0
  0
SPLINE
  5
12F
330
1F
100
AcDbEntity
  8
0
  6
Continuous
 62
     7
370
     0
100
AcDbSpline
210
0.0
220
0.0
230
1.0
 70
     8
 71
     3
 72
    27
 73
    23
 74
     0
 42
0.00000001
 43
0.00000001
 40
0.0
 40
0.0
 40
0.0
 40
0.0
 40
0.1053432609984026
 40
0.2043754661654294
 40
0.2980686612490644
 40
0.3870699389029767
 40
0.429725727732517
 40
0.4709012389537418
 40
0.5111216710274202
 40
0.5501787824700682
 40
0.5883543698960263
 40
0.6266830105708967
 40
0.6644516852874769
 40
0.7025148539501567
 40
0.7404811716294023
 40
0.7776181215946409
 40
0.8147160450669567
 40
0.8515265100150812
 40
0.8880984508373161
 40
0.9251116757437154
 40
0.9621036957071506
 40
1.0
 40
1.0
 40
1.0
 40
1.0
 10
204.0188918414277
 20
104.9601865438675
 30
0.0
 10
204.0196499675642
 20
104.918570546639
 30
0.0
 10
204.0211208009245
 20
104.8378317432936
 30
0.0
 10
204.0356343110253
 20
104.720827880828
 30
0.0
 10
204.0577621474056
 20
104.611694771135
 30
0.0
 10
204.0844672579308
 20
104.526549200893
 30
0.0
 10
204.1112551669601
 20
104.4637442251431
 30
0.0
 10
204.132919881818
 20
104.4197609948682
 30
0.0
 10
204.157649289535
 20
104.379061047322
 30
0.0
 10
204.1848282796088
 20
104.3414132425485
 30
0.0
 10
204.2148069459582
 20
104.3069273980842
 30
0.0
 10
204.2471676250686
 20
104.2754203226998
 30
0.0
 10
204.2819175454333
 20
104.2465888441529
 30
0.0
 10
204.3194684613435
 20
104.2217826163491
 30
0.0
 10
204.3583749908385
 20
104.1997568491225
 30
0.0
 10
204.3981461648644
 20
104.1801711162857
 30
0.0
 10
204.4388070237887
 20
104.1636063702996
 30
0.0
 10
204.4805216170042
 20
104.1507385392005
 30
0.0
 10
204.5227041600335
 20
104.1396189441638
 30
0.0
 10
204.565819250116
 20
104.1323551028001
 30
0.0
 10
204.6098545925039
 20
104.1282556195891
 30
0.0
 10
204.6394232360999
 20
104.1275077695904
 30
0.0
 10
204.6543860801263
 20
104.1271293294077
 30
0.0
  0
SPLINE
  5
130
330
1F
100
AcDbEntity
  8
0
  6
Continuous
 62
     7
370
     0
100
AcDbSpline
210
0.0
220
0.0
230
1.0
 70
     8
 71
     3
 72
    23
 73
    19
 74
     0
 42
0.00000001
 43
0.00000001
 40
0.0
 40
0.0
 40
0.0
 40
0.0
 40
0.0704642259291749
 40
0.1379569656042689
 40
0.2035785636142837
 40
0.2676916802449441
 40
0.3301858648593755
 40
0.3915337640898203
 40
0.4526637734870356
 40
0.5131537880892143
 40
0.5734535531000293
 40
0.6329675593891935
 40
0.6923319074206222
 40
0.7514741915716302
 40
0.8121874455294302
 40
0.8729617178483164
 40
0.9354203067594908
 40
0.9999999999999999
 40
0.9999999999999999
 40
0.9999999999999999
 40
0.9999999999999999
 10
219.2785737713176
 20
108.1574140349365
 30
0.0
 10
219.293731956016
 20
108.1526688730739
 30
0.0
 10
219.323409102646
 20
108.1433786534875
 30
0.0
 10
219.3660730839251
 20
108.1263788546864
 30
0.0
 10
219.4061215325193
 20
108.1070221508261
 30
0.0
 10
219.4436416228452
 20
108.0852767333681
 30
0.0
 10
219.4783798363981
 20
108.0609412290354
 30
0.0
 10
219.5102381548677
 20
108.0339777001091
 30
0.0
 10
219.5394374700694
 20
108.0048034001732
 30
0.0
 10
219.5659256145636
 20
107.9734360756022
 30
0.0
 10
219.5891926705295
 20
107.9400775818237
 30
0.0
 10
219.6100603130955
 20
107.9054570037675
 30
0.0
 10
219.6272919045823
 20
107.8691574333814
 30
0.0
 10
219.6414160126232
 20
107.8312731134333
 30
0.0
 10
219.6524349166779
 20
107.7920381359648
 30
0.0
 10
219.6603476892203
 20
107.7513015962371
 30
0.0
 10
219.6648577675491
 20
107.7091583165255
 30
0.0
 10
219.6655351669105
 20
107.6805295282417
 30
0.0
 10
219.6658795217162
 20
107.6659761327305
 30
0.0
  0
SPLINE
  5
131
330
1F
100
AcDbEntity
  8
0
  6
Continuous
 62
     7
370
     0
100
AcDbSpline
210
0.0
220
0.0
230
1.0
 70
     8
 71
     3
 72
    15
 73
    11
 74
     0
 42
0.00000001
 43
0.00000001
 40
0.0
 40
0.0
 40
0.0
 40
0.0
 40
0.1158426906010177
 40
0.2305685484828841
 40
0.3473546045205438
 40
0.468252746734462
 40
0.5923025714800837
 40
0.7199701656206967
 40
0.8556003811349091
 40
1.0
 40
1.0
 40
1.0
 40
1.0
 10
219.5868543314117
 20
108.5994611932023
 30
0.0
 10
219.5858956347132
 20
108.5774278135498
 30
0.0
 10
219.5839874840561
 20
108.5335734767911
 30
0.0
 10
219.5688007396974
 20
108.4689733714223
 30
0.0
 10
219.5448314108645
 20
108.4062470713413
 30
0.0
 10
219.5109381013098
 20
108.3461571394862
 30
0.0
 10
219.4676182032944
 20
108.2898029074935
 30
0.0
 10
219.4139139003237
 20
108.2390910820691
 30
0.0
 10
219.3505969183464
 20
108.1939129819766
 30
0.0
 10
219.3030775254772
 20
108.1698317265017
 30
0.0
 10
219.2785737713176
 20
108.1574140349365
 30
0.0
  0
SPLINE
  5
132
330
1F
100
AcDbEntity
  8
0
  6
Continuous
 62
     7
370
     0
100
AcDbSpline
210
0.0
220
0.0
230
1.0
 70
     8
 71
     3
 72
    23
 73
    19
 74
     0
 42
0.00000001
 43
0.00000001
 40
0.0
 40
0.0
 40
0.0
 40
0.0
 40
0.0587320371008649
 40
0.1146029008469823
 40
0.1676568100446118
 40
0.2179667070908438
 40
0.2657752056293752
 40
0.3111706510536955
 40
0.3537918046646691
 40
0.3947449080003071
 40
0.4728059510824635
 40
0.5491923665616072
 40
0.6247801075795549
 40
0.7026247640242251
 40
0.7797414321940387
 40
0.854063463988625
 40
0.9271552664103494
 40
0.9999999999999999
 40
0.9999999999999999
 40
0.9999999999999999
 40
0.9999999999999999
 10
218.9073200126996
 20
109.1320580486919
 30
0.0
 10
218.926396409169
 20
109.131984867034
 30
0.0
 10
218.9636198817575
 20
109.1318420688153
 30
0.0
 10
219.0179738488747
 20
109.1282708332231
 30
0.0
 10
219.0694511145017
 20
109.1233861235543
 30
0.0
 10
219.1181624972438
 20
109.1170895829932
 30
0.0
 10
219.1638972234695
 20
109.1079534304999
 30
0.0
 10
219.206612673615
 20
109.0968855924796
 30
0.0
 10
219.2465311379366
 20
109.0841191988978
 30
0.0
 10
219.2953253775575
 20
109.064671846365
 30
0.0
 10
219.3515553891758
 20
109.0347382370484
 30
0.0
 10
219.4117830734428
 20
108.9900725685315
 30
0.0
 10
219.4641834987525
 20
108.9364451226901
 30
0.0
 10
219.5073013427461
 20
108.874958219354
 30
0.0
 10
219.5428257958756
 20
108.8092786103744
 30
0.0
 10
219.5680122172637
 20
108.7406575546649
 30
0.0
 10
219.584115260617
 20
108.6705890998226
 30
0.0
 10
219.5859423388874
 20
108.6231437205868
 30
0.0
 10
219.5868543314117
 20
108.5994611932023
 30
0.0
  0
LINE
  5
133
330
1F
100
AcDbEntity
  8
0
  6
Continuous
 62
     7
370
     0
100
AcDbLine
 10
218.1380591758
 20
109.1320580487
 30
0.0
 11
218.9073200127
 21
109.1320580487
 31
0.0
  0
LINE
  5
134
330
1F
100
AcDbEntity
  8
0
  6
Continuous
 62
     7
370
     0
100
AcDbLine
 10
218.1380591758
 20
107.0774031008
 30
0.0
 11
218.1380591758
 21
109.1320580487
 31
0.0
  0
LINE
  5
135
330
1F
100
AcDbEntity
  8
0
  6
Continuous
 62
     7
370
     0
100
AcDbLine
 10
218.9093779604
 20
107.0774031008
 30
0.0
 11
218.1380591758
 21
107.0774031008
 31
0.0
  0
SPLINE
  5
136
330
1F
100
AcDbEntity
  8
0
  6
Continuous
 62
     7
370
     0
100
AcDbSpline
210
0.0
220
0.0
230
1.0
 70
     8
 71
     3
 72
    23
 73
    19
 74
     0
 42
0.00000001
 43
0.00000001
 40
0.0
 40
0.0
 40
0.0
 40
0.0
 40
0.064254575424703
 40
0.1273603868320973
 40
0.189471842092642
 40
0.2517207629332009
 40
0.3120272840890018
 40
0.3686746571150512
 40
0.4226814918055486
 40
0.4740604252251507
 40
0.5257737722739172
 40
0.5796221048577139
 40
0.6373752855308659
 40
0.6984003818208012
 40
0.7643573310122578
 40
0.8363147679791494
 40
0.9146777942540468
 40
1.0
 40
1.0
 40
1.0
 40
1.0
 10
219.6658795217162
 20
107.6659761327305
 30
0.0
 10
219.665169753956
 20
107.6426108598566
 30
0.0
 10
219.6637629078926
 20
107.5962980459909
 30
0.0
 10
219.6524643656271
 20
107.5281333723433
 30
0.0
 10
219.6333704282611
 20
107.4625647012774
 30
0.0
 10
219.6070892473361
 20
107.4006521989655
 30
0.0
 10
219.5757741623612
 20
107.3434049754502
 30
0.0
 10
219.5401834711276
 20
107.2923219496829
 30
0.0
 10
219.5012248099061
 20
107.2479287624772
 30
0.0
 10
219.4578011428419
 20
107.210586157125
 30
0.0
 10
219.4101925712176
 20
107.1788932130809
 30
0.0
 10
219.3570544275294
 20
107.1522056815507
 30
0.0
 10
219.2987975662938
 20
107.1286698362814
 30
0.0
 10
219.2342379492984
 20
107.1098685342617
 30
0.0
 10
219.1634049639315
 20
107.094932804444
 30
0.0
 10
219.0853373416564
 20
107.0852290364614
 30
0.0
 10
218.9999151433283
 20
107.078282439442
 30
0.0
 10
218.9404004560043
 20
107.0777044054885
 30
0.0
 10
218.9093779603638
 20
107.0774031007752
 30
0.0
  0
LINE
  5
137
330
1F
100
AcDbEntity
  8
0
  6
Continuous
 62
     7
370
     0
100
AcDbLine
 10
214.9507098335
 20
107.3144786717
 30
0.0
 11
215.9253538473
 21
107.3144786717
 31
0.0
  0
LINE
  5
138
330
1F
100
AcDbEntity
  8
0
  6
Continuous
 62
     7
370
     0
100
AcDbLine
 10
214.9507098335
 20
109.1320580487
 30
0.0
 11
214.9507098335
 21
107.3144786717
 31
0.0
  0
LINE
  5
139
330
1F
100
AcDbEntity
  8
0
  6
Continuous
 62
     7
370
     0
100
AcDbLine
 10
214.6609508024
 20
109.1320580487
 30
0.0
 11
214.9507098335
 21
109.1320580487
 31
0.0
  0
LINE
  5
13A
330
1F
100
AcDbEntity
  8
0
  6
Continuous
 62
     7
370
     0
100
AcDbLine
 10
214.6609508024
 20
107.0774031008
 30
0.0
 11
214.6609508024
 21
109.1320580487
 31
0.0
  0
LINE
  5
13B
330
1F
100
AcDbEntity
  8
0
  6
Continuous
 62
     7
370
     0
100
AcDbLine
 10
215.9253538473
 20
107.0774031008
 30
0.0
 11
214.6609508024
 21
107.0774031008
 31
0.0
  0
LINE
  5
13C
330
1F
100
AcDbEntity
  8
0
  6
Continuous
 62
     7
370
     0
100
AcDbLine
 10
215.9253538473
 20
107.3144786717
 30
0.0
 11
215.9253538473
 21
107.0774031008
 31
0.0
  0
SPLINE
  5
13D
330
1F
100
AcDbEntity
  8
0
  6
Continuous
 62
     7
370
     0
100
AcDbSpline
210
0.0
220
0.0
230
1.0
 70
     8
 71
     3
 72
    31
 73
    27
 74
     0
 42
0.00000001
 43
0.00000001
 40
0.0
 40
0.0
 40
0.0
 40
0.0
 40
0.0430989705688971
 40
0.0855867603450731
 40
0.1269076657436393
 40
0.167967485621521
 40
0.2084495586010657
 40
0.2490254246415444
 40
0.289280534171679
 40
0.3300098489827311
 40
0.3705977240995773
 40
0.4104659863326997
 40
0.4500332158929486
 40
0.4896882096042476
 40
0.5291164230741916
 40
0.5690368070925098
 40
0.6097030542359447
 40
0.6507589174942195
 40
0.6925092624061778
 40
0.7342191213706865
 40
0.7767069111468624
 40
0.8195518402403215
 40
0.8633507288313336
 40
0.9078385251300617
 40
0.9533337036124182
 40
1.0
 40
1.0
 40
1.0
 40
1.0
 10
211.2641023879375
 20
109.1583997787934
 30
0.0
 10
211.2873001129477
 20
109.1579947028432
 30
0.0
 10
211.3333665991024
 20
109.1571902952711
 30
0.0
 10
211.4014717874228
 20
109.1510698279184
 30
0.0
 10
211.4678269119276
 20
109.1401458540039
 30
0.0
 10
211.5323666294524
 20
109.1255065039528
 30
0.0
 10
211.5952666175013
 20
109.1063003133173
 30
0.0
 10
211.6565644387667
 20
109.0836279896956
 30
0.0
 10
211.7157234993162
 20
109.0555337882821
 30
0.0
 10
211.7731373686092
 20
109.0240795341322
 30
0.0
 10
211.8281283184426
 20
108.988896590804
 30
0.0
 10
211.8798086754022
 20
108.9500300647042
 30
0.0
 10
211.9280546487015
 20
108.9077739016495
 30
0.0
 10
211.9735143126254
 20
108.8628226777869
 30
0.0
 10
212.01467074218
 20
108.8136593520486
 30
0.0
 10
212.0532242141159
 20
108.7617815235657
 30
0.0
 10
212.0880668717775
 20
108.7062693143733
 30
0.0
 10
212.1193223445794
 20
108.6475775530411
 30
0.0
 10
212.1472679134295
 20
108.5866127230865
 30
0.0
 10
212.1711527984558
 20
108.5231221501244
 30
0.0
 10
212.1916623134025
 20
108.4578674480032
 30
0.0
 10
212.2088305077246
 20
108.3904623785965
 30
0.0
 10
212.2211491503604
 20
108.320929985584
 30
0.0
 10
212.2309586186781
 20
108.2495698771771
 30
0.0
 10
212.2361216128703
 20
108.176148824539
 30
0.0
 10
212.2370443843935
 20
108.1265515951127
 30
0.0
 10
212.2375116330944
 20
108.1014378584709
 30
0.0
  0
SPLINE
  5
13E
330
1F
100
AcDbEntity
  8
0
  6
Continuous
 62
     7
370
     0
100
AcDbSpline
210
0.0
220
0.0
230
1.0
 70
     8
 71
     3
 72
    23
 73
    19
 74
     0
 42
0.00000001
 43
0.00000001
 40
0.0
 40
0.0
 40
0.0
 40
0.0
 40
0.0752263466908988
 40
0.1465747215268523
 40
0.2145002518264754
 40
0.2795299716530229
 40
0.3424029515883816
 40
0.4034960527288085
 40
0.4637616065030394
 40
0.5238643590795866
 40
0.5832517242549666
 40
0.6413020392831351
 40
0.6988977748564889
 40
0.7562952438113089
 40
0.8146278048129693
 40
0.8743247683399981
 40
0.9357832838625451
 40
1.0
 40
1.0
 40
1.0
 40
1.0
 10
210.2882236055837
 20
108.0775656655664
 30
0.0
 10
210.2889377245777
 20
108.118759726332
 30
0.0
 10
210.2903291492219
 20
108.1990242646339
 30
0.0
 10
210.3033299795561
 20
108.3158997747459
 30
0.0
 10
210.3244399910035
 20
108.4258643415835
 30
0.0
 10
210.3546186203006
 20
108.5289093981276
 30
0.0
 10
210.3928701196616
 20
108.6251964166789
 30
0.0
 10
210.4393721243015
 20
108.7149434244636
 30
0.0
 10
210.4955233837757
 20
108.7971345499653
 30
0.0
 10
210.5590447670542
 20
108.8725521993003
 30
0.0
 10
210.6299952345691
 20
108.9392269291338
 30
0.0
 10
210.7055373164736
 20
108.9984436418033
 30
0.0
 10
210.7866142963999
 20
109.0478373810676
 30
0.0
 10
210.8724770852728
 20
109.0886203258999
 30
0.0
 10
210.9634904770379
 20
109.1199322899873
 30
0.0
 10
211.0593989337484
 20
109.1418535140121
 30
0.0
 10
211.1600998819447
 20
109.1559948337684
 30
0.0
 10
211.2289313368088
 20
109.1575864864248
 30
0.0
 10
211.2641023879375
 20
109.1583997787934
 30
0.0
  0
SPLINE
  5
13F
330
1F
100
AcDbEntity
  8
0
  6
Continuous
 62
     7
370
     0
100
AcDbSpline
210
0.0
220
0.0
230
1.0
 70
     8
 71
     3
 72
    31
 73
    27
 74
     0
 42
0.00000001
 43
0.00000001
 40
0.0
 40
0.0
 40
0.0
 40
0.0
 40
0.0446969998899166
 40
0.0885335629185872
 40
0.1314091332352273
 40
0.1738139421467782
 40
0.2157145332694449
 40
0.2572471603264206
 40
0.2988479641797117
 40
0.3406041827148141
 40
0.3820294481091343
 40
0.4229697500404856
 40
0.4636322295306196
 40
0.5040475437003945
 40
0.5445912057564575
 40
0.5849639251690936
 40
0.6262652162680831
 40
0.6679794005009904
 40
0.7099427472053506
 40
0.7513818550852255
 40
0.7926185649779643
 40
0.8339484357458206
 40
0.8750080506311037
 40
0.9164455302232758
 40
0.9579066137283071
 40
1.0
 40
1.0
 40
1.0
 40
1.0
 10
211.262867619339
 20
107.0510613706737
 30
0.0
 10
211.2392530613415
 20
107.0514107509853
 30
0.0
 10
211.19247853595
 20
107.052102785884
 30
0.0
 10
211.1233445276765
 20
107.0590104738139
 30
0.0
 10
211.0559304648714
 20
107.0695483923768
 30
0.0
 10
210.9904323322141
 20
107.0847619631384
 30
0.0
 10
210.9269396303044
 20
107.1046091410945
 30
0.0
 10
210.8653772327446
 20
107.1286315373034
 30
0.0
 10
210.8055286180848
 20
107.1565080998894
 30
0.0
 10
210.7481364085886
 20
107.1890370261217
 30
0.0
 10
210.6933959439003
 20
107.2252056954992
 30
0.0
 10
210.6418377883702
 20
107.2648343151581
 30
0.0
 10
210.5934904517678
 20
107.3075576721969
 30
0.0
 10
210.5491297109279
 20
107.3540819327311
 30
0.0
 10
210.5073188611171
 20
107.4027205742668
 30
0.0
 10
210.4697296879494
 20
107.4552814649583
 30
0.0
 10
210.4351345876877
 20
107.5105725788261
 30
0.0
 10
210.4045572860497
 20
107.5691268982611
 30
0.0
 10
210.3769352699716
 20
107.6292044108982
 30
0.0
 10
210.3536631247857
 20
107.6908243339141
 30
0.0
 10
210.3332114194612
 20
107.7530785534359
 30
0.0
 10
210.3169237064012
 20
107.8163507784414
 30
0.0
 10
210.3039443811478
 20
107.88049505432
 30
0.0
 10
210.2952167254617
 20
107.9454046472369
 30
0.0
 10
210.2889135461633
 20
108.0111762289867
 30
0.0
 10
210.2884547431155
 20
108.0553244886279
 30
0.0
 10
210.2882236055837
 20
108.0775656655664
 30
0.0
  0
SPLINE
  5
140
330
1F
100
AcDbEntity
  8
0
  6
Continuous
 62
     7
370
     0
100
AcDbSpline
210
0.0
220
0.0
230
1.0
 70
     8
 71
     3
 72
    31
 73
    27
 74
     0
 42
0.00000001
 43
0.00000001
 40
0.0
 40
0.0
 40
0.0
 40
0.0
 40
0.0475595569054263
 40
0.0939621052432108
 40
0.1391115332408221
 40
0.1836263101269046
 40
0.2274570284004934
 40
0.2707025105518544
 40
0.3136105321155536
 40
0.3562604510849768
 40
0.3983661529550376
 40
0.4395565149792804
 40
0.4800453830214202
 40
0.5198884957050124
 40
0.5596577503171972
 40
0.5994212546627412
 40
0.6392077550883982
 40
0.6796683749857804
 40
0.7200198525128481
 40
0.7598588655624576
 40
0.7995598848323805
 40
0.8391991446364381
 40
0.8789560762302788
 40
0.918794269302466
 40
0.9590833628432749
 40
1.0
 40
1.0
 40
1.0
 40
1.0
 10
212.2375116330944
 20
108.1014378584709
 30
0.0
 10
212.2370835315428
 20
108.0759099957508
 30
0.0
 10
212.2362377431111
 20
108.0254753012412
 30
0.0
 10
212.2305147924955
 20
107.9509678264671
 30
0.0
 10
212.2204518561111
 20
107.8785993067678
 30
0.0
 10
212.2071050842996
 20
107.8081539523063
 30
0.0
 10
212.1892208175429
 20
107.739778415657
 30
0.0
 10
212.1679681148081
 20
107.6732766599668
 30
0.0
 10
212.1422617701469
 20
107.6090447829708
 30
0.0
 10
212.1132293078956
 20
107.546927972548
 30
0.0
 10
212.080379089169
 20
107.4877805504077
 30
0.0
 10
212.044143068882
 20
107.4320161032317
 30
0.0
 10
212.0044955761427
 20
107.3801562633584
 30
0.0
 10
211.9620388517661
 20
107.331564842925
 30
0.0
 10
211.9157814187828
 20
107.287110747414
 30
0.0
 10
211.8662928742454
 20
107.246378298412
 30
0.0
 10
211.8137635013312
 20
107.2089833426371
 30
0.0
 10
211.7580168280579
 20
107.1759386524339
 30
0.0
 10
211.7000533045135
 20
107.1469738011307
 30
0.0
 10
211.6410199374503
 20
107.121276759664
 30
0.0
 10
211.5808728755649
 20
107.0993613000992
 30
0.0
 10
211.5194065546176
 20
107.0816009983829
 30
0.0
 10
211.4567886486975
 20
107.0681800360632
 30
0.0
 10
211.393195372036
 20
107.0581302779196
 30
0.0
 10
211.3284182570611
 20
107.0523435926702
 30
0.0
 10
211.2848301124203
 20
107.0514909743008
 30
0.0
 10
211.262867619339
 20
107.0510613706737
 30
0.0
  0
LINE
  5
141
330
1F
100
AcDbEntity
  8
0
  6
Continuous
 62
     7
370
     0
100
AcDbLine
 10
208.0228348169
 20
108.8949824778
 30
0.0
 11
207.3642915643
 21
108.8949824778
 31
0.0
  0
LINE
  5
142
330
1F
100
AcDbEntity
  8
0
  6
Continuous
 62
     7
370
     0
100
AcDbLine
 10
208.0228348169
 20
109.1320580487
 30
0.0
 11
208.0228348169
 21
108.8949824778
 31
0.0
  0
LINE
  5
143
330
1F
100
AcDbEntity
  8
0
  6
Continuous
 62
     7
370
     0
100
AcDbLine
 10
206.4159892807
 20
109.1320580487
 30
0.0
 11
208.0228348169
 21
109.1320580487
 31
0.0
  0
LINE
  5
144
330
1F
100
AcDbEntity
  8
0
  6
Continuous
 62
     7
370
     0
100
AcDbLine
 10
206.4159892807
 20
108.8949824778
 30
0.0
 11
206.4159892807
 21
109.1320580487
 31
0.0
  0
LINE
  5
145
330
1F
100
AcDbEntity
  8
0
  6
Continuous
 62
     7
370
     0
100
AcDbLine
 10
207.0745325332
 20
108.8949824778
 30
0.0
 11
206.4159892807
 21
108.8949824778
 31
0.0
  0
LINE
  5
146
330
1F
100
AcDbEntity
  8
0
  6
Continuous
 62
     7
370
     0
100
AcDbLine
 10
207.0745325332
 20
107.0774031008
 30
0.0
 11
207.0745325332
 21
108.8949824778
 31
0.0
  0
LINE
  5
147
330
1F
100
AcDbEntity
  8
0
  6
Continuous
 62
     7
370
     0
100
AcDbLine
 10
207.3642915643
 20
107.0774031008
 30
0.0
 11
207.0745325332
 21
107.0774031008
 31
0.0
  0
LINE
  5
148
330
1F
100
AcDbEntity
  8
0
  6
Continuous
 62
     7
370
     0
100
AcDbLine
 10
207.3642915643
 20
108.8949824778
 30
0.0
 11
207.3642915643
 21
107.0774031008
 31
0.0
  0
CIRCLE
  5
149
330
1F
100
AcDbEntity
  8
0
  6
Continuous
 62
     7
370
     0
100
AcDbCircle
 10
214.0155784149
 20
106.5274031008
 30
0.0
 40
25.19999999999996
  0
LINE
  5
14A
330
1F
100
AcDbEntity
  8
0
  6
Continuous
 62
     7
370
     0
100
AcDbLine
 10
209.629680353
 20
108.0520471145
 30
0.0
 11
208.6286946092
 21
108.0520471145
 31
0.0
  0
LINE
  5
14B
330
1F
100
AcDbEntity
  8
0
  6
Continuous
 62
     7
370
     0
100
AcDbLine
 10
209.629680353
 20
107.0774031008
 30
0.0
 11
209.629680353
 21
108.0520471145
 31
0.0
  0
LINE
  5
14C
330
1F
100
AcDbEntity
  8
0
  6
Continuous
 62
     7
370
     0
100
AcDbLine
 10
209.9194393842
 20
107.0774031008
 30
0.0
 11
209.629680353
 21
107.0774031008
 31
0.0
  0
LINE
  5
14D
330
1F
100
AcDbEntity
  8
0
  6
Continuous
 62
     7
370
     0
100
AcDbLine
 10
209.9194393842
 20
109.1320580487
 30
0.0
 11
209.9194393842
 21
107.0774031008
 31
0.0
  0
LINE
  5
14E
330
1F
100
AcDbEntity
  8
0
  6
Continuous
 62
     7
370
     0
100
AcDbLine
 10
209.629680353
 20
109.1320580487
 30
0.0
 11
209.9194393842
 21
109.1320580487
 31
0.0
  0
LINE
  5
14F
330
1F
100
AcDbEntity
  8
0
  6
Continuous
 62
     7
370
     0
100
AcDbLine
 10
209.629680353
 20
108.2891226854
 30
0.0
 11
209.629680353
 21
109.1320580487
 31
0.0
  0
LINE
  5
150
330
1F
100
AcDbEntity
  8
0
  6
Continuous
 62
     7
370
     0
100
AcDbLine
 10
208.6286946092
 20
108.2891226854
 30
0.0
 11
209.629680353
 21
108.2891226854
 31
0.0
  0
LINE
  5
151
330
1F
100
AcDbEntity
  8
0
  6
Continuous
 62
     7
370
     0
100
AcDbLine
 10
208.6286946092
 20
109.1320580487
 30
0.0
 11
208.6286946092
 21
108.2891226854
 31
0.0
  0
LINE
  5
152
330
1F
100
AcDbEntity
  8
0
  6
Continuous
 62
     7
370
     0
100
AcDbLine
 10
208.3389355781
 20
109.1320580487
 30
0.0
 11
208.6286946092
 21
109.1320580487
 31
0.0
  0
LINE
  5
153
330
1F
100
AcDbEntity
  8
0
  6
Continuous
 62
     7
370
     0
100
AcDbLine
 10
208.3389355781
 20
107.0774031008
 30
0.0
 11
208.3389355781
 21
109.1320580487
 31
0.0
  0
LINE
  5
154
330
1F
100
AcDbEntity
  8
0
  6
Continuous
 62
     7
370
     0
100
AcDbLine
 10
208.6286946092
 20
107.0774031008
 30
0.0
 11
208.3389355781
 21
107.0774031008
 31
0.0
  0
LINE
  5
155
330
1F
100
AcDbEntity
  8
0
  6
Continuous
 62
     7
370
     0
100
AcDbLine
 10
208.6286946092
 20
108.0520471145
 30
0.0
 11
208.6286946092
 21
107.0774031008
 31
0.0
  0
LINE
  5
156
330
1F
100
AcDbEntity
  8
0
  6
Continuous
 62
     7
370
     0
100
AcDbLine
 10
213.1928109388
 20
107.9993636543
 30
0.0
 11
212.8960548856
 21
107.9993636543
 31
0.0
  0
SPLINE
  5
157
330
1F
100
AcDbEntity
  8
0
  6
Continuous
 62
     7
370
     0
100
AcDbSpline
210
0.0
220
0.0
230
1.0
 70
     8
 71
     3
 72
    11
 73
     7
 74
     0
 42
0.00000001
 43
0.00000001
 40
0.0
 40
0.0
 40
0.0
 40
0.0
 40
0.1774946570818498
 40
0.4052256231013752
 40
0.678388108334857
 40
0.9999999999999999
 40
0.9999999999999999
 40
0.9999999999999999
 40
0.9999999999999999
 10
213.3356325067004
 20
107.9898970950723
 30
0.0
 10
213.3272809260486
 20
107.9914031689015
 30
0.0
 10
213.3082140170545
 20
107.9948415806031
 30
0.0
 10
213.2758384531614
 20
107.9970872127673
 30
0.0
 10
213.2366114856162
 20
107.9994706508735
 30
0.0
 10
213.2081830337392
 20
107.9994012054812
 30
0.0
 10
213.1928109388064
 20
107.9993636543276
 30
0.0
  0
SPLINE
  5
158
330
1F
100
AcDbEntity
  8
0
  6
Continuous
 62
     7
370
     0
100
AcDbSpline
210
0.0
220
0.0
230
1.0
 70
     8
 71
     3
 72
    21
 73
    17
 74
     0
 42
0.00000001
 43
0.00000001
 40
0.0
 40
0.0
 40
0.0
 40
0.0
 40
0.0807814705861225
 40
0.1565412257955896
 40
0.2279349868434861
 40
0.2943103173046014
 40
0.3568678635548111
 40
0.4147585592592755
 40
0.467641396834016
 40
0.5167484215300131
 40
0.6047297418940536
 40
0.6815706529393895
 40
0.7481095416219826
 40
0.8049410995352804
 40
0.9054060495000024
 40
0.9999999999999999
 40
0.9999999999999999
 40
0.9999999999999999
 40
0.9999999999999999
 10
213.7669783371125
 20
107.5112184683842
 30
0.0
 10
213.7577735505617
 20
107.5264394019981
 30
0.0
 10
213.7399361856389
 20
107.5559350720867
 30
0.0
 10
213.7141707510443
 20
107.5990120783381
 30
0.0
 10
213.6889085895426
 20
107.638671326198
 30
0.0
 10
213.6654783668521
 20
107.676046298553
 30
0.0
 10
213.6429292452751
 20
107.7104584712125
 30
0.0
 10
213.6214791021008
 20
107.7420273853598
 30
0.0
 10
213.6017182547944
 20
107.7711671839077
 30
0.0
 10
213.5772418906383
 20
107.8050934927567
 30
0.0
 10
213.5487554680185
 20
107.8426332683183
 30
0.0
 10
213.5155137673461
 20
107.8812921483326
 30
0.0
 10
213.4838578125063
 20
107.9121143584045
 30
0.0
 10
213.4448729199092
 20
107.9423388140676
 30
0.0
 10
213.3965842324802
 20
107.9706087119095
 30
0.0
 10
213.3555379366387
 20
107.9835979533375
 30
0.0
 10
213.3356325067004
 20
107.9898970950723
 30
0.0
  0
LINE
  5
159
330
1F
100
AcDbEntity
  8
0
  6
Continuous
 62
     7
370
     0
100
AcDbLine
 10
214.0229870265
 20
107.0774031008
 30
0.0
 11
213.7669783371
 21
107.5112184684
 31
0.0
  0
LINE
  5
15A
330
1F
100
AcDbEntity
  8
0
  6
Continuous
 62
     7
370
     0
100
AcDbLine
 10
214.3551397795
 20
107.0774031008
 30
0.0
 11
214.0229870265
 21
107.0774031008
 31
0.0
  0
LINE
  5
15B
330
1F
100
AcDbEntity
  8
0
  6
Continuous
 62
     7
370
     0
100
AcDbLine
 10
214.0180479521
 20
107.644573477
 30
0.0
 11
214.3551397795
 21
107.0774031008
 31
0.0
  0
SPLINE
  5
15C
330
1F
100
AcDbEntity
  8
0
  6
Continuous
 62
     7
370
     0
100
AcDbSpline
210
0.0
220
0.0
230
1.0
 70
     8
 71
     3
 72
    11
 73
     7
 74
     0
 42
0.00000001
 43
0.00000001
 40
0.0
 40
0.0
 40
0.0
 40
0.0
 40
0.2295275697008574
 40
0.4714659343032294
 40
0.7281863484998697
 40
1.0
 40
1.0
 40
1.0
 40
1.0
 10
213.8015518578707
 20
107.9244543593514
 30
0.0
 10
213.8209616677426
 20
107.9054270734727
 30
0.0
 10
213.8608307961347
 20
107.8663436765381
 30
0.0
 10
213.9157721868228
 20
107.7997732026163
 30
0.0
 10
213.9690397519915
 20
107.7256700500449
 30
0.0
 10
214.001403814163
 20
107.6721154505473
 30
0.0
 10
214.0180479521424
 20
107.644573477023
 30
0.0
  0
SPLINE
  5
15D
330
1F
100
AcDbEntity
  8
0
  6
Continuous
 62
     7
370
     0
100
AcDbSpline
210
0.0
220
0.0
230
1.0
 70
     8
 71
     3
 72
    11
 73
     7
 74
     0
 42
0.00000001
 43
0.00000001
 40
0.0
 40
0.0
 40
0.0
 40
0.0
 40
0.2930762433192221
 40
0.5565623371181895
 40
0.791913609209812
 40
1.0
 40
1.0
 40
1.0
 40
1.0
 10
213.6418551191304
 20
108.0257053844291
 30
0.0
 10
213.6583969661372
 20
108.0173488081939
 30
0.0
 10
213.6898105291274
 20
108.0014793690779
 30
0.0
 10
213.733302996345
 20
107.9765962263715
 30
0.0
 10
213.7701700552696
 20
107.9511717862523
 30
0.0
 10
213.7915290106666
 20
107.9329874793547
 30
0.0
 10
213.8015518578707
 20
107.9244543593514
 30
0.0
  0
SPLINE
  5
15E
330
1F
100
AcDbEntity
  8
0
  6
Continuous
 62
     7
370
     0
100
AcDbSpline
210
0.0
220
0.0
230
1.0
 70
     8
 71
     3
 72
    23
 73
    19
 74
     0
 42
0.00000001
 43
0.00000001
 40
0.0
 40
0.0
 40
0.0
 40
0.0
 40
0.0614130692946597
 40
0.1212950233845469
 40
0.1792240423087199
 40
0.2359380947348317
 40
0.292216833267361
 40
0.3481966394342067
 40
0.4044447389633586
 40
0.4620255339229972
 40
0.5203342118681487
 40
0.580382901650838
 40
0.6418259048139878
 40
0.7063632097966276
 40
0.7738513938275594
 40
0.8452662573568827
 40
0.9201546757684061
 40
1.0
 40
1.0
 40
1.0
 40
1.0
 10
214.1867996606051
 20
108.5780585374948
 30
0.0
 10
214.1863976003293
 20
108.5604826888695
 30
0.0
 10
214.1856035037125
 20
108.5257691825346
 30
0.0
 10
214.1795206437487
 20
108.4747310364673
 30
0.0
 10
214.1685141997698
 20
108.4259661402481
 30
0.0
 10
214.1544006047726
 20
108.3790474196583
 30
0.0
 10
214.1350833988445
 20
108.3346396379737
 30
0.0
 10
214.1127052542354
 20
108.2918357527205
 30
0.0
 10
214.0849819146686
 20
108.2518117008258
 30
0.0
 10
214.0539425703205
 20
108.2135017059597
 30
0.0
 10
214.0183487659983
 20
108.1777262659319
 30
0.0
 10
213.9778873837652
 20
108.1457760706604
 30
0.0
 10
213.9329595080187
 20
108.1170368060577
 30
0.0
 10
213.8833535464998
 20
108.0923013996007
 30
0.0
 10
213.8296405136971
 20
108.0696920637706
 30
0.0
 10
213.7711464585969
 20
108.0514859371822
 30
0.0
 10
213.7081074583278
 20
108.0366192387621
 30
0.0
 10
213.664405893054
 20
108.0294202096667
 30
0.0
 10
213.6418551191304
 20
108.0257053844291
 30
0.0
  0
SPLINE
  5
15F
330
1F
100
AcDbEntity
  8
0
  6
Continuous
 62
     7
370
     0
100
AcDbSpline
210
0.0
220
0.0
230
1.0
 70
     8
 71
     3
 72
    27
 73
    23
 74
     0
 42
0.00000001
 43
0.00000001
 40
0.0
 40
0.0
 40
0.0
 40
0.0
 40
0.0621127506505294
 40
0.1202119588785538
 40
0.1743851213884738
 40
0.2254437557784867
 40
0.2723582126361769
 40
0.3163881629634407
 40
0.3568694790582283
 40
0.3939783235063667
 40
0.429589371877092
 40
0.4646830409549868
 40
0.5000363461428401
 40
0.5354827477530637
 40
0.5713634671484433
 40
0.6079085322052599
 40
0.6456622985331156
 40
0.6845173397035776
 40
0.7625786223763458
 40
0.8404972886541805
 40
0.9190729926935228
 40
1.0
 40
1.0
 40
1.0
 40
1.0
 10
213.4977987826378
 20
109.1320580486919
 30
0.0
 10
213.5187909468244
 20
109.1318935663986
 30
0.0
 10
213.5594188235733
 20
109.1315752301719
 30
0.0
 10
213.6183376336068
 20
109.1293217712184
 30
0.0
 10
213.6733324362028
 20
109.1244639048622
 30
0.0
 10
213.7245043484027
 20
109.1192107994412
 30
0.0
 10
213.7718442784249
 20
109.1111479842304
 30
0.0
 10
213.8153033869528
 20
109.1019001173272
 30
0.0
 10
213.8549487726523
 20
109.090895015896
 30
0.0
 10
213.8909576743777
 20
109.0778971427218
 30
0.0
 10
213.9243660834005
 20
109.063191996434
 30
0.0
 10
213.9553331550537
 20
109.0450482200738
 30
0.0
 10
213.9851461505939
 20
109.0251665098608
 30
0.0
 10
214.0126986057492
 20
109.0018084674283
 30
0.0
 10
214.0387172192198
 20
108.9762335729687
 30
0.0
 10
214.063177876137
 20
108.9480943179253
 30
0.0
 10
214.0857184559397
 20
108.9171465108329
 30
0.0
 10
214.113519561724
 20
108.8728537808607
 30
0.0
 10
214.143344480055
 20
108.8138651919045
 30
0.0
 10
214.1681933217014
 20
108.7383725795365
 30
0.0
 10
214.1842154102737
 20
108.6594045514834
 30
0.0
 10
214.1859298195279
 20
108.6054390522885
 30
0.0
 10
214.1867996606051
 20
108.5780585374948
 30
0.0
  0
LINE
  5
160
330
1F
100
AcDbEntity
  8
0
  6
Continuous
 62
     7
370
     0
100
AcDbLine
 10
212.6062958545
 20
109.1320580487
 30
0.0
 11
213.4977987826
 21
109.1320580487
 31
0.0
  0
LINE
  5
161
330
1F
100
AcDbEntity
  8
0
  6
Continuous
 62
     7
370
     0
100
AcDbLine
 10
212.6062958545
 20
107.0774031008
 30
0.0
 11
212.6062958545
 21
109.1320580487
 31
0.0
  0
LINE
  5
162
330
1F
100
AcDbEntity
  8
0
  6
Continuous
 62
     7
370
     0
100
AcDbLine
 10
212.8960548856
 20
107.0774031008
 30
0.0
 11
212.6062958545
 21
107.0774031008
 31
0.0
  0
LINE
  5
163
330
1F
100
AcDbEntity
  8
0
  6
Continuous
 62
     7
370
     0
100
AcDbLine
 10
212.8960548856
 20
107.9993636543
 30
0.0
 11
212.8960548856
 21
107.0774031008
 31
0.0
  0
LINE
  5
164
330
1F
100
AcDbEntity
  8
0
  6
Continuous
 62
     7
370
     0
100
AcDbLine
 10
217.3774417191
 20
107.7096046232
 30
0.0
 11
216.5015791933
 21
107.7096046232
 31
0.0
  0
LINE
  5
165
330
1F
100
AcDbEntity
  8
0
  6
Continuous
 62
     7
370
     0
100
AcDbLine
 10
217.6112245738
 20
107.0774031008
 30
0.0
 11
217.3774417191
 21
107.7096046232
 31
0.0
  0
LINE
  5
166
330
1F
100
AcDbEntity
  8
0
  6
Continuous
 62
     7
370
     0
100
AcDbLine
 10
217.9186819548
 20
107.0774031008
 30
0.0
 11
217.6112245738
 21
107.0774031008
 31
0.0
  0
LINE
  5
167
330
1F
100
AcDbEntity
  8
0
  6
Continuous
 62
     7
370
     0
100
AcDbLine
 10
217.1029115007
 20
109.1320580487
 30
0.0
 11
217.9186819548
 21
107.0774031008
 31
0.0
  0
LINE
  5
168
330
1F
100
AcDbEntity
  8
0
  6
Continuous
 62
     7
370
     0
100
AcDbLine
 10
216.7761094117
 20
109.1320580487
 30
0.0
 11
217.1029115007
 21
109.1320580487
 31
0.0
  0
LINE
  5
169
330
1F
100
AcDbEntity
  8
0
  6
Continuous
 62
     7
370
     0
100
AcDbLine
 10
215.9603389576
 20
107.0774031008
 30
0.0
 11
216.7761094117
 21
109.1320580487
 31
0.0
  0
LINE
  5
16A
330
1F
100
AcDbEntity
  8
0
  6
Continuous
 62
     7
370
     0
100
AcDbLine
 10
216.2677963386
 20
107.0774031008
 30
0.0
 11
215.9603389576
 21
107.0774031008
 31
0.0
  0
LINE
  5
16B
330
1F
100
AcDbEntity
  8
0
  6
Continuous
 62
     7
370
     0
100
AcDbLine
 10
216.5015791933
 20
107.7096046232
 30
0.0
 11
216.2677963386
 21
107.0774031008
 31
0.0
  0
SPLINE
  5
16C
330
1F
100
AcDbEntity
  8
0
  6
Continuous
 62
     7
370
     0
100
AcDbSpline
210
0.0
220
0.0
230
1.0
 70
     8
 71
     3
 72
    23
 73
    19
 74
     0
 42
0.00000001
 43
0.00000001
 40
0.0
 40
0.0
 40
0.0
 40
0.0
 40
0.0749313059818448
 40
0.1470775964339468
 40
0.2163644561730687
 40
0.2825027309006236
 40
0.3466877108244161
 40
0.4088355551310376
 40
0.4692619872876908
 40
0.528432043253463
 40
0.5870013379727412
 40
0.6444163938320668
 40
0.7021887902662969
 40
0.7597671795443349
 40
0.8184897928274489
 40
0.8776328274167838
 40
0.9380195662701677
 40
1.0
 40
1.0
 40
1.0
 40
1.0
 10
221.1797058234865
 20
108.1574140349365
 30
0.0
 10
221.194478719487
 20
108.1506027811995
 30
0.0
 10
221.2234754386506
 20
108.1372334315635
 30
0.0
 10
221.2645531742026
 20
108.1144072782601
 30
0.0
 10
221.3028831580131
 20
108.0907035468844
 30
0.0
 10
221.3381557094294
 20
108.0654840529439
 30
0.0
 10
221.3702567752477
 20
108.0386957478631
 30
0.0
 10
221.3995452828837
 20
108.0106455666832
 30
0.0
 10
221.4261981246448
 20
107.9814911559961
 30
0.0
 10
221.4491398609043
 20
107.9502994049122
 30
0.0
 10
221.4697391863046
 20
107.91833122452
 30
0.0
 10
221.4877649677177
 20
107.8851398184148
 30
0.0
 10
221.5022789807344
 20
107.8505299942969
 30
0.0
 10
221.5150086754412
 20
107.8149189414649
 30
0.0
 10
221.5241649772464
 20
107.7779105614212
 30
0.0
 10
221.5313453646752
 20
107.7398786635219
 30
0.0
 10
221.5355335645804
 20
107.7006444867914
 30
0.0
 10
221.5359376731219
 20
107.674080463647
 30
0.0
 10
221.5361423589223
 20
107.6606254688036
 30
0.0
  0
SPLINE
  5
16D
330
1F
100
AcDbEntity
  8
0
  6
Continuous
 62
     7
370
     0
100
AcDbSpline
210
0.0
220
0.0
230
1.0
 70
     8
 71
     3
 72
    23
 73
    19
 74
     0
 42
0.00000001
 43
0.00000001
 40
0.0
 40
0.0
 40
0.0
 40
0.0
 40
0.0327432182311376
 40
0.0724096054938575
 40
0.1196114857927603
 40
0.1746729151985131
 40
0.2373450901947013
 40
0.3083524168429163
 40
0.3876300477623597
 40
0.4747836155862522
 40
0.5633323159904144
 40
0.6451362168299873
 40
0.7202025267224655
 40
0.7891341563324459
 40
0.8514970735699655
 40
0.9073306044315619
 40
0.9569686823424193
 40
1.0
 40
1.0
 40
1.0
 40
1.0
 10
220.3717555705297
 20
108.4331790219366
 30
0.0
 10
220.3788910475289
 20
108.4270972755886
 30
0.0
 10
220.3946707143556
 20
108.4136478690377
 30
0.0
 10
220.4240312169573
 20
108.3958491541895
 30
0.0
 10
220.4604338857959
 20
108.3778658211862
 30
0.0
 10
220.5041219575461
 20
108.3599889965706
 30
0.0
 10
220.555020265314
 20
108.3420016575547
 30
0.0
 10
220.613046709123
 20
108.32348148008
 30
0.0
 10
220.6784223048528
 20
108.3050874812896
 30
0.0
 10
220.7491547332
 20
108.2873618200406
 30
0.0
 10
220.8206109789282
 20
108.2695649002712
 30
0.0
 10
220.8885184354853
 20
108.2518358097671
 30
0.0
 10
220.9508689752542
 20
108.2350335107449
 30
0.0
 10
221.0075636745779
 20
108.2186456203407
 30
0.0
 10
221.0586612142366
 20
108.202718477584
 30
0.0
 10
221.1039840115575
 20
108.186918388304
 30
0.0
 10
221.1438987451121
 20
108.172386313961
 30
0.0
 10
221.1683512349417
 20
108.1621618131865
 30
0.0
 10
221.1797058234865
 20
108.1574140349365
 30
0.0
  0
SPLINE
  5
16E
330
1F
100
AcDbEntity
  8
0
  6
Continuous
 62
     7
370
     0
100
AcDbSpline
210
0.0
220
0.0
230
1.0
 70
     8
 71
     3
 72
    11
 73
     7
 74
     0
 42
0.00000001
 43
0.00000001
 40
0.0
 40
0.0
 40
0.0
 40
0.0
 40
0.2627412305282694
 40
0.5099565029432335
 40
0.7533267184204502
 40
1.0
 40
1.0
 40
1.0
 40
1.0
 10
220.298081044152
 20
108.6146900059172
 30
0.0
 10
220.2988298496928
 20
108.5970126578708
 30
0.0
 10
220.3002832122053
 20
108.562702555216
 30
0.0
 10
220.3151241683996
 20
108.5139582418355
 30
0.0
 10
220.3379496628615
 20
108.4695246418766
 30
0.0
 10
220.360436411766
 20
108.4453485470535
 30
0.0
 10
220.3717555705297
 20
108.4331790219366
 30
0.0
  0
SPLINE
  5
16F
330
1F
100
AcDbEntity
  8
0
  6
Continuous
 62
     7
370
     0
100
AcDbSpline
210
0.0
220
0.0
230
1.0
 70
     8
 71
     3
 72
    23
 73
    19
 74
     0
 42
0.00000001
 43
0.00000001
 40
0.0
 40
0.0
 40
0.0
 40
0.0
 40
0.0915110363280374
 40
0.1771428603141479
 40
0.2571084852282349
 40
0.3311983993883849
 40
0.4005922945239577
 40
0.4656249598049641
 40
0.5269734913138597
 40
0.5854431157040231
 40
0.6413985080863303
 40
0.6950441672657237
 40
0.7467815514927477
 40
0.7969589345766986
 40
0.8475448623598797
 40
0.8974385414187385
 40
0.9476489188871279
 40
1.0
 40
1.0
 40
1.0
 40
1.0
 10
220.7331311803595
 20
108.9213242078799
 30
0.0
 10
220.7148714677592
 20
108.9211865747984
 30
0.0
 10
220.6795251549173
 20
108.9209201510018
 30
0.0
 10
220.6284280513066
 20
108.9160635780917
 30
0.0
 10
220.5810676410715
 20
108.9094001877902
 30
0.0
 10
220.5375252707443
 20
108.8995711204801
 30
0.0
 10
220.4979435794447
 20
108.8867048383693
 30
0.0
 10
220.4617351181368
 20
108.8718472349096
 30
0.0
 10
220.4299132190214
 20
108.8530187708434
 30
0.0
 10
220.4017360587264
 20
108.83204631073
 30
0.0
 10
220.3774296891908
 20
108.808841442147
 30
0.0
 10
220.3564811992327
 20
108.784389121056
 30
0.0
 10
220.3379538778688
 20
108.7594077742289
 30
0.0
 10
220.3235577404921
 20
108.7325319048754
 30
0.0
 10
220.3118371208818
 20
108.7047793429835
 30
0.0
 10
220.3042760333676
 20
108.6756284312853
 30
0.0
 10
220.2989226067786
 20
108.6456183859141
 30
0.0
 10
220.2983654414863
 20
108.625141930165
 30
0.0
 10
220.298081044152
 20
108.6146900059172
 30
0.0
  0
SPLINE
  5
170
330
1F
100
AcDbEntity
  8
0
  6
Continuous
 62
     7
370
     0
100
AcDbSpline
210
0.0
220
0.0
230
1.0
 70
     8
 71
     3
 72
    23
 73
    19
 74
     0
 42
0.00000001
 43
0.00000001
 40
0.0
 40
0.0
 40
0.0
 40
0.0
 40
0.0671554674490462
 40
0.1314033464826147
 40
0.1927317719102097
 40
0.2512526591565263
 40
0.3077037298841914
 40
0.3626989162982004
 40
0.417778332785431
 40
0.4723043857981148
 40
0.5278725997916965
 40
0.5852299868117377
 40
0.6450565760102913
 40
0.707952356429442
 40
0.7744342720454287
 40
0.84494043137526
 40
0.9204035944750272
 40
1.0
 40
1.0
 40
1.0
 40
1.0
 10
221.1936998676029
 20
108.552539986459
 30
0.0
 10
221.1918587814185
 20
108.5672525977106
 30
0.0
 10
221.1882563214108
 20
108.596040817455
 30
0.0
 10
221.1793190963384
 20
108.6377160965246
 30
0.0
 10
221.1667909052023
 20
108.6764222203896
 30
0.0
 10
221.1521165539076
 20
108.7125201498584
 30
0.0
 10
221.1343281679511
 20
108.7456344267373
 30
0.0
 10
221.1135920572128
 20
108.7760830205271
 30
0.0
 10
221.0896556998528
 20
108.8035071948391
 30
0.0
 10
221.0631350035281
 20
108.8286316014935
 30
0.0
 10
221.0332229483231
 20
108.8505079463215
 30
0.0
 10
221.0000732316775
 20
108.8694972852371
 30
0.0
 10
220.9636298958124
 20
108.8855389283679
 30
0.0
 10
220.9239250472397
 20
108.8986775572896
 30
0.0
 10
220.8809508251748
 20
108.9088647362339
 30
0.0
 10
220.8346094842498
 20
108.9163586195411
 30
0.0
 10
220.7849189361139
 20
108.9201965727068
 30
0.0
 10
220.7506978296775
 20
108.9209417087475
 30
0.0
 10
220.7331311803595
 20
108.9213242078799
 30
0.0
  0
LINE
  5
171
330
1F
100
AcDbEntity
  8
0
  6
Continuous
 62
     7
370
     0
100
AcDbLine
 10
221.4834588987
 20
108.5525399865
 30
0.0
 11
221.1936998676
 21
108.5525399865
 31
0.0
  0
SPLINE
  5
172
330
1F
100
AcDbEntity
  8
0
  6
Continuous
 62
     7
370
     0
100
AcDbSpline
210
0.0
220
0.0
230
1.0
 70
     8
 71
     3
 72
    23
 73
    19
 74
     0
 42
0.00000001
 43
0.00000001
 40
0.0
 40
0.0
 40
0.0
 40
0.0
 40
0.1004750608070148
 40
0.1956443031597845
 40
0.286083379069932
 40
0.3729828804699541
 40
0.4150256681909615
 40
0.4560516735090278
 40
0.4959387495188997
 40
0.5355660888033513
 40
0.5740871099085041
 40
0.6125192874870976
 40
0.651080960134445
 40
0.6895131377130382
 40
0.7662374603277347
 40
0.8423504388672223
 40
0.9199744947371032
 40
1.0
 40
1.0
 40
1.0
 40
1.0
 10
220.7216066734402
 20
109.1583997787934
 30
0.0
 10
220.7581404412581
 20
109.1575626632982
 30
0.0
 10
220.8292787266111
 20
109.1559326381316
 30
0.0
 10
220.9326446659675
 20
109.1423711256734
 30
0.0
 10
221.029056789998
 20
109.1190824401823
 30
0.0
 10
221.1046664856129
 20
109.0930130933261
 30
0.0
 10
221.1605638493754
 20
109.0666214167588
 30
0.0
 10
221.2002748930294
 20
109.0460282595151
 30
0.0
 10
221.2371345942148
 20
109.022218818362
 30
0.0
 10
221.2714747645866
 20
108.9964532782332
 30
0.0
 10
221.3036143778548
 20
108.9687434061357
 30
0.0
 10
221.3327273737893
 20
108.9384300757914
 30
0.0
 10
221.360077919873
 20
108.9065475231766
 30
0.0
 10
221.3922186228179
 20
108.8607741669475
 30
0.0
 10
221.4268731144843
 20
108.8001933889408
 30
0.0
 10
221.4568366396449
 20
108.7217085847807
 30
0.0
 10
221.4774219309356
 20
108.638874318006
 30
0.0
 10
221.4814262437822
 20
108.5816088686449
 30
0.0
 10
221.4834588987194
 20
108.552539986459
 30
0.0
  0
SPLINE
  5
173
330
1F
100
AcDbEntity
  8
0
  6
Continuous
 62
     7
370
     0
100
AcDbSpline
210
0.0
220
0.0
230
1.0
 70
     8
 71
     3
 72
    23
 73
    19
 74
     0
 42
0.00000001
 43
0.00000001
 40
0.0
 40
0.0
 40
0.0
 40
0.0
 40
0.0749954673898321
 40
0.149165440426656
 40
0.2236642943382247
 40
0.3004120221906724
 40
0.3395704846106351
 40
0.3789205746932797
 40
0.4180957375990934
 40
0.4582296767501552
 40
0.4984267212184585
 40
0.5397075464534807
 40
0.5822159516458436
 40
0.6258238199943751
 40
0.715481264873698
 40
0.8073840844133602
 40
0.9016341255073719
 40
1.0
 40
1.0
 40
1.0
 40
1.0
 10
220.0083220130356
 20
108.5957568874068
 30
0.0
 10
220.0092999175687
 20
108.6212293463326
 30
0.0
 10
220.0112449625887
 20
108.6718938822928
 30
0.0
 10
220.0284985778819
 20
108.7462409303675
 30
0.0
 10
220.0560184243603
 20
108.8177825661982
 30
0.0
 10
220.0873443673219
 20
108.8745805202905
 30
0.0
 10
220.117894084273
 20
108.9175308789928
 30
0.0
 10
220.1432200316702
 20
108.9484629421839
 30
0.0
 10
220.1716280350321
 20
108.977055476135
 30
0.0
 10
220.2022432266075
 20
109.0037076133336
 30
0.0
 10
220.2356128839686
 20
109.0280211400012
 30
0.0
 10
220.2709091025874
 20
109.0509953115268
 30
0.0
 10
220.3094094084307
 20
109.0707421632727
 30
0.0
 10
220.3635080637364
 20
109.0958754484258
 30
0.0
 10
220.4358790292924
 20
109.1209733839627
 30
0.0
 10
220.5269850230588
 20
109.1428430512598
 30
0.0
 10
220.6228710899869
 20
109.1557216436477
 30
0.0
 10
220.6882292857786
 20
109.1574944399901
 30
0.0
 10
220.7216066734402
 20
109.1583997787934
 30
0.0
  0
SPLINE
  5
174
330
1F
100
AcDbEntity
  8
0
  6
Continuous
 62
     7
370
     0
100
AcDbSpline
210
0.0
220
0.0
230
1.0
 70
     8
 71
     3
 72
    15
 73
    11
 74
     0
 42
0.00000001
 43
0.00000001
 40
0.0
 40
0.0
 40
0.0
 40
0.0
 40
0.1448052410584837
 40
0.2795118010254856
 40
0.406393921131161
 40
0.527501540482917
 40
0.6453932904726505
 40
0.7618854106740868
 40
0.878942072918487
 40
1.0
 40
1.0
 40
1.0
 40
1.0
 10
220.3116634987356
 20
108.1516517814768
 30
0.0
 10
220.2874809547377
 20
108.1647158883526
 30
0.0
 10
220.2408023512781
 20
108.1899330145764
 30
0.0
 10
220.1779781208842
 20
108.2350213068235
 30
0.0
 10
220.1250423290347
 20
108.2850551123213
 30
0.0
 10
220.082218301432
 20
108.3399618799497
 30
0.0
 10
220.0486587867383
 20
108.3988130044449
 30
0.0
 10
220.0260163289137
 20
108.4617085332717
 30
0.0
 10
220.0105081144368
 20
108.5275067950803
 30
0.0
 10
220.0090588313943
 20
108.5727534160309
 30
0.0
 10
220.0083220130356
 20
108.5957568874068
 30
0.0
  0
SPLINE
  5
175
330
1F
100
AcDbEntity
  8
0
  6
Continuous
 62
     7
370
     0
100
AcDbSpline
210
0.0
220
0.0
230
1.0
 70
     8
 71
     3
 72
    23
 73
    19
 74
     0
 42
0.00000001
 43
0.00000001
 40
0.0
 40
0.0
 40
0.0
 40
0.0
 40
0.0312001111539368
 40
0.0704867190162007
 40
0.1172148300204116
 40
0.1715755269954915
 40
0.2341219784876086
 40
0.3039626396728061
 40
0.3821556401561972
 40
0.4676462220680264
 40
0.5543353814021599
 40
0.6350744656665042
 40
0.7100366878785244
 40
0.7790924037748317
 40
0.8429656453505103
 40
0.9010012068505269
 40
0.953246256459026
 40
1.0
 40
1.0
 40
1.0
 40
1.0
 10
221.0274176963372
 20
107.9240427698186
 30
0.0
 10
221.0201790480632
 20
107.92701327219
 30
0.0
 10
221.0038256266146
 20
107.9337241766787
 30
0.0
 10
220.9757966296458
 20
107.9426082587553
 30
0.0
 10
220.9425366751014
 20
107.9540962833922
 30
0.0
 10
220.9032467193032
 20
107.9659270790688
 30
0.0
 10
220.8581370986549
 20
107.9784424062694
 30
0.0
 10
220.8072829161393
 20
107.9926078591846
 30
0.0
 10
220.7507125882437
 20
108.0076720429996
 30
0.0
 10
220.6900305471542
 20
108.0237062258045
 30
0.0
 10
220.6287601773718
 20
108.0400105308535
 30
0.0
 10
220.5702234969979
 20
108.056330104572
 30
0.0
 10
220.5163669682189
 20
108.0728965623562
 30
0.0
 10
220.4667494333572
 20
108.0888477740028
 30
0.0
 10
220.4216266933799
 20
108.1048647952053
 30
0.0
 10
220.380870679599
 20
108.1205091143417
 30
0.0
 10
220.3444305791503
 20
108.1354633289367
 30
0.0
 10
220.322174353017
 20
108.1464589335472
 30
0.0
 10
220.3116634987356
 20
108.1516517814768
 30
0.0
  0
SPLINE
  5
176
330
1F
100
AcDbEntity
  8
0
  6
Continuous
 62
     7
370
     0
100
AcDbSpline
210
0.0
220
0.0
230
1.0
 70
     8
 71
     3
 72
    15
 73
    11
 74
     0
 42
0.00000001
 43
0.00000001
 40
0.0
 40
0.0
 40
0.0
 40
0.0
 40
0.1177675192120362
 40
0.230176448544057
 40
0.3398429589695383
 40
0.4506252599208618
 40
0.5669428888721625
 40
0.696021306454794
 40
0.8394383602270619
 40
1.0
 40
1.0
 40
1.0
 40
1.0
 10
221.2463833278059
 20
107.6466314246872
 30
0.0
 10
221.2456896326908
 20
107.6614839391157
 30
0.0
 10
221.2443338065763
 20
107.6905131574093
 30
0.0
 10
221.2354982632923
 20
107.7327760729968
 30
0.0
 10
221.2187050647515
 20
107.7714589166463
 30
0.0
 10
221.1969139597704
 20
107.808140541722
 30
0.0
 10
221.166598812101
 20
107.841677940693
 30
0.0
 10
221.1282990441495
 20
107.8725796623142
 30
0.0
 10
221.0811708159172
 20
107.9005954623878
 30
0.0
 10
221.0459966837871
 20
107.9159385475168
 30
0.0
 10
221.0274176963372
 20
107.9240427698186
 30
0.0
  0
SPLINE
  5
177
330
1F
100
AcDbEntity
  8
0
  6
Continuous
 62
     7
370
     0
100
AcDbSpline
210
0.0
220
0.0
230
1.0
 70
     8
 71
     3
 72
    19
 73
    15
 74
     0
 42
0.00000001
 43
0.00000001
 40
0.0
 40
0.0
 40
0.0
 40
0.0
 40
0.1055838864195047
 40
0.2058681332620123
 40
0.300946717742213
 40
0.3930019285950097
 40
0.4809485116065868
 40
0.5628738662802266
 40
0.6414613436333616
 40
0.7177416181792268
 40
0.7917717603087844
 40
0.8627163930302565
 40
0.9317768462002767
 40
1.0
 40
1.0
 40
1.0
 40
1.0
 10
220.777171260373
 20
107.2881369415872
 30
0.0
 10
220.8003988422747
 20
107.2885668593889
 30
0.0
 10
220.8456881291958
 20
107.289405115853
 30
0.0
 10
220.911204144945
 20
107.2994746527703
 30
0.0
 10
220.9728549061361
 20
107.3137580203767
 30
0.0
 10
221.029493027812
 20
107.3353638500911
 30
0.0
 10
221.0809095777042
 20
107.3616001018847
 30
0.0
 10
221.1255590910195
 20
107.3933334636742
 30
0.0
 10
221.1636784704185
 20
107.4291199786681
 30
0.0
 10
221.1935287075379
 20
107.4699022438397
 30
0.0
 10
221.2169784577878
 20
107.5126352378279
 30
0.0
 10
221.2341812737369
 20
107.556560348395
 30
0.0
 10
221.2444286386359
 20
107.6014337710381
 30
0.0
 10
221.2457344194227
 20
107.6316269233037
 30
0.0
 10
221.2463833278059
 20
107.6466314246872
 30
0.0
  0
SPLINE
  5
178
330
1F
100
AcDbEntity
  8
0
  6
Continuous
 62
     7
370
     0
100
AcDbSpline
210
0.0
220
0.0
230
1.0
 70
     8
 71
     3
 72
    19
 73
    15
 74
     0
 42
0.00000001
 43
0.00000001
 40
0.0
 40
0.0
 40
0.0
 40
0.0
 40
0.0937964706969319
 40
0.1801880710186106
 40
0.2603631916661886
 40
0.3348466760639742
 40
0.4070930058327152
 40
0.4814483792884672
 40
0.5592709137563651
 40
0.6422698113109346
 40
0.7285859445716476
 40
0.8159775452756135
 40
0.9060351298875358
 40
1.0
 40
1.0
 40
1.0
 40
1.0
 10
220.2190558538476
 20
107.7886298135156
 30
0.0
 10
220.2222430350865
 20
107.7626134370112
 30
0.0
 10
220.2283657818717
 20
107.7126345768003
 30
0.0
 10
220.2454855934308
 20
107.6417970661119
 30
0.0
 10
220.2675198955309
 20
107.5781068741112
 30
0.0
 10
220.2949740285026
 20
107.5207187195109
 30
0.0
 10
220.3310888943736
 20
107.470320682826
 30
0.0
 10
220.3746010954788
 20
107.424862423377
 30
0.0
 10
220.4274442955782
 20
107.3854983233136
 30
0.0
 10
220.4870922225248
 20
107.3504668533225
 30
0.0
 10
220.5535233666508
 20
107.3229616087333
 30
0.0
 10
220.6244445377611
 20
107.3025715181692
 30
0.0
 10
220.6995175036953
 20
107.29049022704
 30
0.0
 10
220.7509228507944
 20
107.2889323957038
 30
0.0
 10
220.777171260373
 20
107.2881369415872
 30
0.0
  0
LINE
  5
179
330
1F
100
AcDbEntity
  8
0
  6
Continuous
 62
     7
370
     0
100
AcDbLine
 10
219.9292968227
 20
107.7886298135
 30
0.0
 11
220.2190558538
 21
107.7886298135
 31
0.0
  0
SPLINE
  5
17A
330
1F
100
AcDbEntity
  8
0
  6
Continuous
 62
     7
370
     0
100
AcDbSpline
210
0.0
220
0.0
230
1.0
 70
     8
 71
     3
 72
    31
 73
    27
 74
     0
 42
0.00000001
 43
0.00000001
 40
0.0
 40
0.0
 40
0.0
 40
0.0
 40
0.0524925849212958
 40
0.1028254751380329
 40
0.1513973394924577
 40
0.1980330772483325
 40
0.2428758954632244
 40
0.2859991683849086
 40
0.3278486614843784
 40
0.3683945968796913
 40
0.4078519911389194
 40
0.4468375528599375
 40
0.4851660451611075
 40
0.5233414044713738
 40
0.5616022144094733
 40
0.5999198855663567
 40
0.6384964264110083
 40
0.6777905770472509
 40
0.7172899891758323
 40
0.7566052415928195
 40
0.7960678905323557
 40
0.8358862309537685
 40
0.8757136832726161
 40
0.9162634539474126
 40
0.9577596754778293
 40
0.9999999999999999
 40
0.9999999999999999
 40
0.9999999999999999
 40
0.9999999999999999
 10
220.7899305358909
 20
107.0510613706737
 30
0.0
 10
220.7675597906613
 20
107.0512459842674
 30
0.0
 10
220.7237386964844
 20
107.0516076159248
 30
0.0
 10
220.6593484928217
 20
107.0559870893932
 30
0.0
 10
220.597642183799
 20
107.0623222129964
 30
0.0
 10
220.5386803255585
 20
107.0717584501275
 30
0.0
 10
220.482647816668
 20
107.084138280856
 30
0.0
 10
220.4293435258417
 20
107.0990040649636
 30
0.0
 10
220.3786411068402
 20
107.1161250801857
 30
0.0
 10
220.3307177155592
 20
107.1362590973384
 30
0.0
 10
220.2856984520822
 20
107.1596526258936
 30
0.0
 10
220.2427738245448
 20
107.1848883242435
 30
0.0
 10
220.202645464517
 20
107.2134941709838
 30
0.0
 10
220.165228896801
 20
107.2450206688604
 30
0.0
 10
220.1295760651762
 20
107.2785570454471
 30
0.0
 10
220.0971646734139
 20
107.3154728988134
 30
0.0
 10
220.0668928169922
 20
107.3546886763923
 30
0.0
 10
220.0394521990756
 20
107.3965632959115
 30
0.0
 10
220.0149381845327
 20
107.4405488988189
 30
0.0
 10
219.9928931013432
 20
107.4859067942073
 30
0.0
 10
219.9743198103001
 20
107.5329660181848
 30
0.0
 10
219.9593515050526
 20
107.5814887344576
 30
0.0
 10
219.9466725926591
 20
107.6311502284053
 30
0.0
 10
219.937880059942
 20
107.6823648386425
 30
0.0
 10
219.9314154937296
 20
107.7349717697854
 30
0.0
 10
219.9300072178229
 20
107.7706381522682
 30
0.0
 10
219.9292968227311
 20
107.7886298135156
 30
0.0
  0
SPLINE
  5
17B
330
1F
100
AcDbEntity
  8
0
  6
Continuous
 62
     7
370
     0
100
AcDbSpline
210
0.0
220
0.0
230
1.0
 70
     8
 71
     3
 72
    23
 73
    19
 74
     0
 42
0.00000001
 43
0.00000001
 40
0.0
 40
0.0
 40
0.0
 40
0.0
 40
0.0748159666505558
 40
0.1485345605139195
 40
0.2238723272963845
 40
0.3012971209351246
 40
0.3408936290197578
 40
0.3803400620654399
 40
0.4201265887284642
 40
0.4599499070829663
 40
0.5008311555562169
 40
0.5419071755971083
 40
0.5844387941530511
 40
0.6280801713306066
 40
0.7172666799070601
 40
0.8078600064218678
 40
0.9019246558363443
 40
1.0
 40
1.0
 40
1.0
 40
1.0
 10
221.5361423589223
 20
107.6606254688036
 30
0.0
 10
221.5350700734222
 20
107.6337729560064
 30
0.0
 10
221.5329412303072
 20
107.5804617930875
 30
0.0
 10
221.5146111233111
 20
107.5018786733861
 30
0.0
 10
221.485815494692
 20
107.4257320690249
 30
0.0
 10
221.4520454873167
 20
107.3653055438895
 30
0.0
 10
221.4201226233291
 20
107.3191484602706
 30
0.0
 10
221.3933059117591
 20
107.2859728580514
 30
0.0
 10
221.3635677204023
 20
107.2552969583446
 30
0.0
 10
221.3316401733454
 20
107.2261597434199
 30
0.0
 10
221.2972753832952
 20
107.1991557076901
 30
0.0
 10
221.2601836337543
 20
107.1742756557862
 30
0.0
 10
221.2207564105857
 20
107.1512605885964
 30
0.0
 10
221.1644553273777
 20
107.1232153814821
 30
0.0
 10
221.0896781355551
 20
107.0938774317329
 30
0.0
 10
220.9944270048125
 20
107.0694457807192
 30
0.0
 10
220.8940438501284
 20
107.0535963645905
 30
0.0
 10
220.8251145795921
 20
107.0519180462815
 30
0.0
 10
220.7899305358909
 20
107.0510613706737
 30
0.0
  0
LINE
  5
17C
330
1F
100
AcDbEntity
  8
0
  6
Continuous
 62
     7
370
     0
100
AcDbLine
 10
206.671174791
 20
103.9163954886
 30
0.0
 11
206.1262302495
 21
105.6549496753
 31
0.0
  0
LINE
  5
17D
330
1F
100
AcDbEntity
  8
0
  6
Continuous
 62
     7
370
     0
100
AcDbLine
 10
206.9741046872
 20
103.9163954886
 30
0.0
 11
206.671174791
 21
103.9163954886
 31
0.0
  0
LINE
  5
17E
330
1F
100
AcDbEntity
  8
0
  6
Continuous
 62
     7
370
     0
100
AcDbLine
 10
207.5223419449
 20
105.6549496753
 30
0.0
 11
206.9741046872
 21
103.9163954886
 31
0.0
  0
LINE
  5
17F
330
1F
100
AcDbEntity
  8
0
  6
Continuous
 62
     7
370
     0
100
AcDbLine
 10
207.5223419449
 20
103.9163954886
 30
0.0
 11
207.5223419449
 21
105.6549496753
 31
0.0
  0
LINE
  5
180
330
1F
100
AcDbEntity
  8
0
  6
Continuous
 62
     7
370
     0
100
AcDbLine
 10
207.812100976
 20
103.9163954886
 30
0.0
 11
207.5223419449
 21
103.9163954886
 31
0.0
  0
LINE
  5
181
330
1F
100
AcDbEntity
  8
0
  6
Continuous
 62
     7
370
     0
100
AcDbLine
 10
207.812100976
 20
105.9710504365
 30
0.0
 11
207.812100976
 21
103.9163954886
 31
0.0
  0
LINE
  5
182
330
1F
100
AcDbEntity
  8
0
  6
Continuous
 62
     7
370
     0
100
AcDbLine
 10
207.3799319666
 20
105.9710504365
 30
0.0
 11
207.812100976
 21
105.9710504365
 31
0.0
  0
LINE
  5
183
330
1F
100
AcDbEntity
  8
0
  6
Continuous
 62
     7
370
     0
100
AcDbLine
 10
206.9251255328
 20
104.553947675
 30
0.0
 11
207.3799319666
 21
105.9710504365
 31
0.0
  0
SPLINE
  5
184
330
1F
100
AcDbEntity
  8
0
  6
Continuous
 62
     7
370
     0
100
AcDbSpline
210
0.0
220
0.0
230
1.0
 70
     8
 71
     3
 72
    15
 73
    11
 74
     0
 42
0.00000001
 43
0.00000001
 40
0.0
 40
0.0
 40
0.0
 40
0.0
 40
0.0892047702332451
 40
0.1898334556643485
 40
0.2992325919749813
 40
0.4192609378429071
 40
0.5492073901909386
 40
0.6890743636843492
 40
0.8395791979483176
 40
1.0
 40
1.0
 40
1.0
 40
1.0
 10
206.824286097237
 20
104.2275571754196
 30
0.0
 10
206.8271544348036
 20
104.2373019637915
 30
0.0
 10
206.8332584405742
 20
104.258039496622
 30
0.0
 10
206.8431540096821
 20
104.2906457121845
 30
0.0
 10
206.8536831769538
 20
104.3267281587363
 30
0.0
 10
206.8662833627578
 20
104.3656666378643
 30
0.0
 10
206.8794175652297
 20
104.4080719720831
 30
0.0
 10
206.8932036200818
 20
104.4539089451324
 30
0.0
 10
206.9091055658924
 20
104.5027199298079
 30
0.0
 10
206.9196732036072
 20
104.5365125247263
 30
0.0
 10
206.9251255327818
 20
104.5539476749585
 30
0.0
  0
SPLINE
  5
185
330
1F
100
AcDbEntity
  8
0
  6
Continuous
 62
     7
370
     0
100
AcDbSpline
210
0.0
220
0.0
230
1.0
 70
     8
 71
     3
 72
    15
 73
    11
 74
     0
 42
0.00000001
 43
0.00000001
 40
0.0
 40
0.0
 40
0.0
 40
0.0
 40
0.1625255217041868
 40
0.3143148980392372
 40
0.4549784905465745
 40
0.5845192373661998
 40
0.7045671033090736
 40
0.8134949897289286
 40
0.9116812596826069
 40
0.9999999999999999
 40
0.9999999999999999
 40
0.9999999999999999
 40
0.9999999999999999
 10
206.7316784523489
 20
104.5292523029883
 30
0.0
 10
206.7367334416508
 20
104.5129192428146
 30
0.0
 10
206.7465094966997
 20
104.4813320552187
 30
0.0
 10
206.7610062264901
 20
104.435717249801
 30
0.0
 10
206.7741958202859
 20
104.3933285127556
 30
0.0
 10
206.7860751264153
 20
104.3540309184966
 30
0.0
 10
206.7972857810875
 20
104.318019577783
 30
0.0
 10
206.806992441607
 20
104.2849989910035
 30
0.0
 10
206.8162723248568
 20
104.2553360902828
 30
0.0
 10
206.8217107511095
 20
104.2364843469718
 30
0.0
 10
206.824286097237
 20
104.2275571754196
 30
0.0
  0
LINE
  5
186
330
1F
100
AcDbEntity
  8
0
  6
Continuous
 62
     7
370
     0
100
AcDbLine
 10
206.2723445337
 20
105.9710504365
 30
0.0
 11
206.7316784523
 21
104.529252303
 31
0.0
  0
LINE
  5
187
330
1F
100
AcDbEntity
  8
0
  6
Continuous
 62
     7
370
     0
100
AcDbLine
 10
205.8364712184
 20
105.9710504365
 30
0.0
 11
206.2723445337
 21
105.9710504365
 31
0.0
  0
LINE
  5
188
330
1F
100
AcDbEntity
  8
0
  6
Continuous
 62
     7
370
     0
100
AcDbLine
 10
205.8364712184
 20
103.9163954886
 30
0.0
 11
205.8364712184
 21
105.9710504365
 31
0.0
  0
LINE
  5
189
330
1F
100
AcDbEntity
  8
0
  6
Continuous
 62
     7
370
     0
100
AcDbLine
 10
206.1262302495
 20
103.9163954886
 30
0.0
 11
205.8364712184
 21
103.9163954886
 31
0.0
  0
LINE
  5
18A
330
1F
100
AcDbEntity
  8
0
  6
Continuous
 62
     7
370
     0
100
AcDbLine
 10
206.1262302495
 20
105.6549496753
 30
0.0
 11
206.1262302495
 21
103.9163954886
 31
0.0
  0
SPLINE
  5
18B
330
1F
100
AcDbEntity
  8
0
  6
Continuous
 62
     7
370
     0
100
AcDbSpline
210
0.0
220
0.0
230
1.0
 70
     8
 71
     3
 72
    31
 73
    27
 74
     0
 42
0.00000001
 43
0.00000001
 40
0.0
 40
0.0
 40
0.0
 40
0.0
 40
0.0628739462114324
 40
0.1228366299919128
 40
0.1796565674430314
 40
0.233960012230862
 40
0.2855950186955586
 40
0.3345131060783809
 40
0.3809048259061764
 40
0.4248945919393347
 40
0.4665290347654873
 40
0.5064882940692464
 40
0.5450315536447543
 40
0.5818311798231344
 40
0.617448279949443
 40
0.652066912769046
 40
0.6858797142465105
 40
0.7191745547913924
 40
0.7521816462063929
 40
0.7852401639180909
 40
0.8186564497770833
 40
0.8525477406533113
 40
0.887626342258519
 40
0.923635078068751
 40
0.9610218444769891
 40
1.0
 40
1.0
 40
1.0
 40
1.0
 10
211.0257920484256
 20
104.9297289184376
 30
0.0
 10
211.0255216841896
 20
104.9005039350947
 30
0.0
 10
211.0249934744362
 20
104.8434071775069
 30
0.0
 10
211.0218557581599
 20
104.7599350666282
 30
0.0
 10
211.0158875386829
 20
104.6806271973456
 30
0.0
 10
211.0085435355772
 20
104.6053018984051
 30
0.0
 10
210.9974335971607
 20
104.5341602529032
 30
0.0
 10
210.9854620365705
 20
104.4668999988095
 30
0.0
 10
210.9706561732452
 20
104.4038265569132
 30
0.0
 10
210.9533812067961
 20
104.3449122837503
 30
0.0
 10
210.9339256718562
 20
104.2898456618606
 30
0.0
 10
210.9125896672152
 20
104.2382105283273
 30
0.0
 10
210.8889579934117
 20
104.1900421660879
 30
0.0
 10
210.8623272825803
 20
104.1458103851879
 30
0.0
 10
210.8339160103812
 20
104.1049280827898
 30
0.0
 10
210.8035160944527
 20
104.067241900187
 30
0.0
 10
210.7704830209872
 20
104.0332942504783
 30
0.0
 10
210.7348501688147
 20
104.0032756780608
 30
0.0
 10
210.6973398984934
 20
103.9762351745065
 30
0.0
 10
210.6572060411281
 20
103.9530826934439
 30
0.0
 10
210.614624256357
 20
103.933901265023
 30
0.0
 10
210.5698790494808
 20
103.9175020966847
 30
0.0
 10
210.5225164158237
 20
103.9054857479881
 30
0.0
 10
210.472909852707
 20
103.8962874208295
 30
0.0
 10
210.4208765833287
 20
103.8908707796816
 30
0.0
 10
210.3853713593341
 20
103.8903298563721
 30
0.0
 10
210.3672487958882
 20
103.8900537584942
 30
0.0
  0
SPLINE
  5
18C
330
1F
100
AcDbEntity
  8
0
  6
Continuous
 62
     7
370
     0
100
AcDbSpline
210
0.0
220
0.0
230
1.0
 70
     8
 71
     3
 72
    27
 73
    23
 74
     0
 42
0.00000001
 43
0.00000001
 40
0.0
 40
0.0
 40
0.0
 40
0.0
 40
0.0567243372181508
 40
0.1114372357370108
 40
0.1643678222229016
 40
0.21643537246209
 40
0.2676414903219249
 40
0.3173597799690281
 40
0.3674730633322806
 40
0.4182103970528083
 40
0.4714042826470201
 40
0.5279657201290494
 40
0.5880611158232139
 40
0.6521342629937146
 40
0.6863448363353056
 40
0.7232636803169652
 40
0.762610250771542
 40
0.8047389366452182
 40
0.8494303387909499
 40
0.8967112583864923
 40
0.9468896380534765
 40
1.0
 40
1.0
 40
1.0
 40
1.0
 10
210.3672487958882
 20
105.9710504365124
 30
0.0
 10
210.3936359849975
 20
105.9702746718276
 30
0.0
 10
210.4454746764203
 20
105.9687506509876
 30
0.0
 10
210.5211594335983
 20
105.9563210135622
 30
0.0
 10
210.5924874392435
 20
105.9350582030547
 30
0.0
 10
210.6594123520702
 20
105.906373754408
 30
0.0
 10
210.7207901010618
 20
105.8699389838301
 30
0.0
 10
210.775603017895
 20
105.8256469691815
 30
0.0
 10
210.8232598567238
 20
105.7739627678692
 30
0.0
 10
210.8632405168961
 20
105.7142739390547
 30
0.0
 10
210.8981876046143
 20
105.6482270992422
 30
0.0
 10
210.9292338301895
 20
105.5755258058496
 30
0.0
 10
210.9572987163641
 20
105.496251528886
 30
0.0
 10
210.9772141705478
 20
105.4252899842107
 30
0.0
 10
210.9914198476646
 20
105.3640334609155
 30
0.0
 10
211.0008228772309
 20
105.313510813335
 30
0.0
 10
211.0086292768852
 20
105.2589965921661
 30
0.0
 10
211.0146100340152
 20
105.2006226819846
 30
0.0
 10
211.0195171041269
 20
105.1384545543251
 30
0.0
 10
211.023306609485
 20
105.0724535021219
 30
0.0
 10
211.0252301714591
 20
105.0024545669742
 30
0.0
 10
211.0256012449723
 20
104.9544252589451
 30
0.0
 10
211.0257920484256
 20
104.9297289184376
 30
0.0
  0
SPLINE
  5
18D
330
1F
100
AcDbEntity
  8
0
  6
Continuous
 62
     7
370
     0
100
AcDbSpline
210
0.0
220
0.0
230
1.0
 70
     8
 71
     3
 72
    31
 73
    27
 74
     0
 42
0.00000001
 43
0.00000001
 40
0.0
 40
0.0
 40
0.0
 40
0.0
 40
0.0631144583947934
 40
0.12361464576949
 40
0.1809737111859576
 40
0.2352614550083221
 40
0.287100701833872
 40
0.3360307363034435
 40
0.3823823485850663
 40
0.4263340836597072
 40
0.46821069479816
 40
0.508249601261805
 40
0.5466283366065848
 40
0.583649539230446
 40
0.6189943150301617
 40
0.6535830186205958
 40
0.6871561361903312
 40
0.7204221919788077
 40
0.7532302188118171
 40
0.7862601560778999
 40
0.8195039834988841
 40
0.8535452747120184
 40
0.8883082803397299
 40
0.9239958607406952
 40
0.961350304754645
 40
1.0
 40
1.0
 40
1.0
 40
1.0
 10
209.7087055433508
 20
104.9297289184376
 30
0.0
 10
209.7089709363391
 20
104.9590918236398
 30
0.0
 10
209.7094907294433
 20
105.016601389873
 30
0.0
 10
209.7127148372086
 20
105.1007482165192
 30
0.0
 10
209.7183438681135
 20
105.1806589735586
 30
0.0
 10
209.7267464616162
 20
105.2562642622325
 30
0.0
 10
209.7366967065586
 20
105.3277347385349
 30
0.0
 10
209.7496320877573
 20
105.3949684067253
 30
0.0
 10
209.7641862721011
 20
105.4581161163698
 30
0.0
 10
209.7816486815244
 20
105.5171120462108
 30
0.0
 10
209.8008341528699
 20
105.572463453851
 30
0.0
 10
209.822600682188
 20
105.6240815431363
 30
0.0
 10
209.8470909803821
 20
105.6719115867425
 30
0.0
 10
209.873101501518
 20
105.7164496090481
 30
0.0
 10
209.9020014927513
 20
105.7570028605073
 30
0.0
 10
209.9320466085604
 20
105.7947094313704
 30
0.0
 10
209.9654203485708
 20
105.8281864745562
 30
0.0
 10
210.0007349610813
 20
105.8582953574194
 30
0.0
 10
210.038510462917
 20
105.8848646918921
 30
0.0
 10
210.0785469841695
 20
105.9077908228255
 30
0.0
 10
210.1206904751964
 20
105.9280329433758
 30
0.0
 10
210.1657441443314
 20
105.9432712064379
 30
0.0
 10
210.2127726860621
 20
105.9556936212003
 30
0.0
 10
210.2621381017148
 20
105.9648317001214
 30
0.0
 10
210.3138947912159
 20
105.9702189060386
 30
0.0
 10
210.3492632132026
 20
105.9707701284046
 30
0.0
 10
210.3672487958882
 20
105.9710504365124
 30
0.0
  0
SPLINE
  5
18E
330
1F
100
AcDbEntity
  8
0
  6
Continuous
 62
     7
370
     0
100
AcDbSpline
210
0.0
220
0.0
230
1.0
 70
     8
 71
     3
 72
    15
 73
    11
 74
     0
 42
0.00000001
 43
0.00000001
 40
0.0
 40
0.0
 40
0.0
 40
0.0
 40
0.0974206681772145
 40
0.2008855880393207
 40
0.3111719701726504
 40
0.4297979458253723
 40
0.5577399263645877
 40
0.6947152693641585
 40
0.8421299102060552
 40
1.0
 40
1.0
 40
1.0
 40
1.0
 10
209.9083264667762
 20
104.0880283237883
 30
0.0
 10
209.8920427098575
 20
104.1115178820363
 30
0.0
 10
209.8584649060373
 20
104.1599543566542
 30
0.0
 10
209.8191649980278
 20
104.242543038937
 30
0.0
 10
209.7841087842877
 20
104.3334615824366
 30
0.0
 10
209.7565960838758
 20
104.4344937981985
 30
0.0
 10
209.7350467811068
 20
104.544835583997
 30
0.0
 10
209.7194828043105
 20
104.6647034539199
 30
0.0
 10
209.7106751257018
 20
104.7940456210931
 30
0.0
 10
209.709376891524
 20
104.8834801623188
 30
0.0
 10
209.7087055433508
 20
104.9297289184376
 30
0.0
  0
SPLINE
  5
18F
330
1F
100
AcDbEntity
  8
0
  6
Continuous
 62
     7
370
     0
100
AcDbSpline
210
0.0
220
0.0
230
1.0
 70
     8
 71
     3
 72
    15
 73
    11
 74
     0
 42
0.00000001
 43
0.00000001
 40
0.0
 40
0.0
 40
0.0
 40
0.0
 40
0.1379032299933934
 40
0.2688733426002937
 40
0.3951781273461133
 40
0.5170892381308875
 40
0.6367430265135471
 40
0.7562218164637977
 40
0.87662835946368
 40
1.0
 40
1.0
 40
1.0
 40
1.0
 10
210.3672487958882
 20
103.8900537584942
 30
0.0
 10
210.3434880139504
 20
103.8907315360554
 30
0.0
 10
210.2971610289865
 20
103.8920530157511
 30
0.0
 10
210.2295038834009
 20
103.9010316563135
 30
0.0
 10
210.1660040434776
 20
103.9168344852663
 30
0.0
 10
210.1061259244313
 20
103.9380283071909
 30
0.0
 10
210.050542572692
 20
103.9663762644716
 30
0.0
 10
209.998988599857
 20
104.0008670900015
 30
0.0
 10
209.9504280660078
 20
104.0406983182956
 30
0.0
 10
209.922473670522
 20
104.0721242431069
 30
0.0
 10
209.9083264667762
 20
104.0880283237883
 30
0.0
  0
LINE
  5
190
330
1F
100
AcDbEntity
  8
0
  6
Continuous
 62
     7
370
     0
100
AcDbLine
 10
212.8170296953
 20
104.7593308518
 30
0.0
 11
213.5809398683
 21
104.7593308518
 31
0.0
  0
LINE
  5
191
330
1F
100
AcDbEntity
  8
0
  6
Continuous
 62
     7
370
     0
100
AcDbLine
 10
212.8170296953
 20
104.5222552809
 30
0.0
 11
212.8170296953
 21
104.7593308518
 31
0.0
  0
LINE
  5
192
330
1F
100
AcDbEntity
  8
0
  6
Continuous
 62
     7
370
     0
100
AcDbLine
 10
213.5809398683
 20
104.5222552809
 30
0.0
 11
212.8170296953
 21
104.5222552809
 31
0.0
  0
LINE
  5
193
330
1F
100
AcDbEntity
  8
0
  6
Continuous
 62
     7
370
     0
100
AcDbLine
 10
213.5809398683
 20
104.7593308518
 30
0.0
 11
213.5809398683
 21
104.5222552809
 31
0.0
  0
SPLINE
  5
194
330
1F
100
AcDbEntity
  8
0
  6
Continuous
 62
     7
370
     0
100
AcDbSpline
210
0.0
220
0.0
230
1.0
 70
     8
 71
     3
 72
    15
 73
    11
 74
     0
 42
0.00000001
 43
0.00000001
 40
0.0
 40
0.0
 40
0.0
 40
0.0
 40
0.1324616222426389
 40
0.2616495010354901
 40
0.3875466984163662
 40
0.5107816292933476
 40
0.6326753605997109
 40
0.7546603541381376
 40
0.8765227798028652
 40
1.0
 40
1.0
 40
1.0
 40
1.0
 10
216.7156057503487
 20
104.6210367688107
 30
0.0
 10
216.7151393446894
 20
104.5982427162238
 30
0.0
 10
216.7142180604264
 20
104.5532179582223
 30
0.0
 10
216.7066679453473
 20
104.4868656538929
 30
0.0
 10
216.6942309251085
 20
104.4229299860427
 30
0.0
 10
216.677581186851
 20
104.3612216214957
 30
0.0
 10
216.6550851560831
 20
104.3020910160264
 30
0.0
 10
216.6277995763906
 20
104.245347172984
 30
0.0
 10
216.5963241297557
 20
104.1903979895814
 30
0.0
 10
216.5710824549596
 20
104.1565249893906
 30
0.0
 10
216.5583785488053
 20
104.1394770153928
 30
0.0
  0
SPLINE
  5
195
330
1F
100
AcDbEntity
  8
0
  6
Continuous
 62
     7
370
     0
100
AcDbSpline
210
0.0
220
0.0
230
1.0
 70
     8
 71
     3
 72
    23
 73
    19
 74
     0
 42
0.00000001
 43
0.00000001
 40
0.0
 40
0.0
 40
0.0
 40
0.0
 40
0.0619974190757218
 40
0.1220879540822929
 40
0.1813753107870036
 40
0.2395080083953656
 40
0.2978356978967513
 40
0.3568799706531183
 40
0.4172818251154284
 40
0.4796404090798159
 40
0.5425000674783568
 40
0.6049624196481905
 40
0.6669910330782646
 40
0.7302162430101639
 40
0.794172863251256
 40
0.8604581431502616
 40
0.9285781799847829
 40
1.0
 40
1.0
 40
1.0
 40
1.0
 10
216.1126270847441
 20
105.2861654538735
 30
0.0
 10
216.1333723048131
 20
105.285621912651
 30
0.0
 10
216.1742246743629
 20
105.2845515481615
 30
0.0
 10
216.2344220554411
 20
105.2757571561569
 30
0.0
 10
216.2919808780417
 20
105.2608280927226
 30
0.0
 10
216.3473526287548
 20
105.2407208208035
 30
0.0
 10
216.3998071664269
 20
105.214065197022
 30
0.0
 10
216.4498758177953
 20
105.1817908966198
 30
0.0
 10
216.4973564383919
 20
105.1436318915698
 30
0.0
 10
216.5419806066079
 20
105.1003081635476
 30
0.0
 10
216.5824565018573
 20
105.0522142708878
 30
0.0
 10
216.6186837491464
 20
105.000918730096
 30
0.0
 10
216.6482721858993
 20
104.9453947455965
 30
0.0
 10
216.6731580919608
 20
104.8870920581124
 30
0.0
 10
216.6919275751683
 20
104.8250536078538
 30
0.0
 10
216.7061742680262
 20
104.7601598471347
 30
0.0
 10
216.7137915017304
 20
104.6915994557986
 30
0.0
 10
216.7149915359009
 20
104.6449257889716
 30
0.0
 10
216.7156057503487
 20
104.6210367688107
 30
0.0
  0
SPLINE
  5
196
330
1F
100
AcDbEntity
  8
0
  6
Continuous
 62
     7
370
     0
100
AcDbSpline
210
0.0
220
0.0
230
1.0
 70
     8
 71
     3
 72
    15
 73
    11
 74
     0
 42
0.00000001
 43
0.00000001
 40
0.0
 40
0.0
 40
0.0
 40
0.0
 40
0.1367294018595732
 40
0.2685149167908296
 40
0.3955294046848086
 40
0.519999953565812
 40
0.6404964768412694
 40
0.7612361017625326
 40
0.880106717175953
 40
1.0
 40
1.0
 40
1.0
 40
1.0
 10
215.7463124005202
 20
105.1491061394392
 30
0.0
 10
215.7608470617405
 20
105.1600131529425
 30
0.0
 10
215.7893908372203
 20
105.1814328021435
 30
0.0
 10
215.8339140106686
 20
105.2094790093792
 30
0.0
 10
215.8790738187836
 20
105.2331200919334
 30
0.0
 10
215.9246073748215
 20
105.2524801505569
 30
0.0
 10
215.9708763714216
 20
105.2675616021682
 30
0.0
 10
216.0176016000403
 20
105.2780394983367
 30
0.0
 10
216.0649421522285
 20
105.2851210771047
 30
0.0
 10
216.0966867846402
 20
105.285816335646
 30
0.0
 10
216.1126270847441
 20
105.2861654538735
 30
0.0
  0
LINE
  5
197
330
1F
100
AcDbEntity
  8
0
  6
Continuous
 62
     7
370
     0
100
AcDbLine
 10
215.8508561419
 20
105.6812914054
 30
0.0
 11
215.7463124005
 21
105.1491061394
 31
0.0
  0
LINE
  5
198
330
1F
100
AcDbEntity
  8
0
  6
Continuous
 62
     7
370
     0
100
AcDbLine
 10
216.6102388299
 20
105.6812914054
 30
0.0
 11
215.8508561419
 21
105.6812914054
 31
0.0
  0
LINE
  5
199
330
1F
100
AcDbEntity
  8
0
  6
Continuous
 62
     7
370
     0
100
AcDbLine
 10
216.6102388299
 20
105.9447087064
 30
0.0
 11
216.6102388299
 21
105.6812914054
 31
0.0
  0
LINE
  5
19A
330
1F
100
AcDbEntity
  8
0
  6
Continuous
 62
     7
370
     0
100
AcDbLine
 10
215.6355948162
 20
105.9447087064
 30
0.0
 11
216.6102388299
 21
105.9447087064
 31
0.0
  0
LINE
  5
19B
330
1F
100
AcDbEntity
  8
0
  6
Continuous
 62
     7
370
     0
100
AcDbLine
 10
215.4248609754
 20
104.8910395024
 30
0.0
 11
215.6355948162
 21
105.9447087064
 31
0.0
  0
LINE
  5
19C
330
1F
100
AcDbEntity
  8
0
  6
Continuous
 62
     7
370
     0
100
AcDbLine
 10
215.6882782764
 20
104.8646977722
 30
0.0
 11
215.4248609754
 21
104.8910395024
 31
0.0
  0
SPLINE
  5
19D
330
1F
100
AcDbEntity
  8
0
  6
Continuous
 62
     7
370
     0
100
AcDbSpline
210
0.0
220
0.0
230
1.0
 70
     8
 71
     3
 72
    15
 73
    11
 74
     0
 42
0.00000001
 43
0.00000001
 40
0.0
 40
0.0
 40
0.0
 40
0.0
 40
0.1478596367312524
 40
0.2835613219395479
 40
0.4123693961385312
 40
0.5342363558879448
 40
0.6526916293119828
 40
0.7686630594981232
 40
0.8836524018604038
 40
1.0
 40
1.0
 40
1.0
 40
1.0
 10
216.0397757374321
 20
105.04908988296
 30
0.0
 10
216.0192909685667
 20
105.0484906634311
 30
0.0
 10
215.9800058176795
 20
105.0473414959805
 30
0.0
 10
215.9235570957488
 20
105.037673962272
 30
0.0
 10
215.8721697804489
 20
105.022057293092
 30
0.0
 10
215.8264256771672
 20
104.9987825476084
 30
0.0
 10
215.7855555812914
 20
104.970977041119
 30
0.0
 10
215.74871043857
 20
104.939513849114
 30
0.0
 10
215.71558642338
 20
104.9044142434878
 30
0.0
 10
215.6974165524963
 20
104.8779883144555
 30
0.0
 10
215.6882782763903
 20
104.8646977722496
 30
0.0
  0
SPLINE
  5
19E
330
1F
100
AcDbEntity
  8
0
  6
Continuous
 62
     7
370
     0
100
AcDbSpline
210
0.0
220
0.0
230
1.0
 70
     8
 71
     3
 72
    23
 73
    19
 74
     0
 42
0.00000001
 43
0.00000001
 40
0.0
 40
0.0
 40
0.0
 40
0.0
 40
0.0728659334565351
 40
0.1418868719641257
 40
0.2074526264147114
 40
0.2704376800000974
 40
0.3316408722476697
 40
0.3901075774931579
 40
0.448069286948836
 40
0.5055029519245373
 40
0.5624881528337237
 40
0.6190843288847296
 40
0.6764155306922395
 40
0.7354523604507923
 40
0.7962407694486788
 40
0.8604056780892032
 40
0.9283049272851057
 40
1.0
 40
1.0
 40
1.0
 40
1.0
 10
216.4521884493337
 20
104.605396366563
 30
0.0
 10
216.4518860587437
 20
104.622145974917
 30
0.0
 10
216.4512972341328
 20
104.6547613470564
 30
0.0
 10
216.4463383702565
 20
104.7022547517571
 30
0.0
 10
216.4379721830961
 20
104.7469129250202
 30
0.0
 10
216.4271471202602
 20
104.7892280778628
 30
0.0
 10
216.4122261365041
 20
104.8285389839071
 30
0.0
 10
216.394529009599
 20
104.8654156128557
 30
0.0
 10
216.3728492853568
 20
104.8990753340751
 30
0.0
 10
216.348729161546
 20
104.9305661893862
 30
0.0
 10
216.321180934997
 20
104.9587964722713
 30
0.0
 10
216.2898324337982
 20
104.9826333705391
 30
0.0
 10
216.2559134411423
 20
105.003495470432
 30
0.0
 10
216.2187407937695
 20
105.0204133319926
 30
0.0
 10
216.1782926026214
 20
105.0329826674076
 30
0.0
 10
216.1349708112619
 20
105.0426536400055
 30
0.0
 10
216.0883258919351
 20
105.0477401755876
 30
0.0
 10
216.056249857506
 20
105.0486318979846
 30
0.0
 10
216.0397757374321
 20
105.04908988296
 30
0.0
  0
SPLINE
  5
19F
330
1F
100
AcDbEntity
  8
0
  6
Continuous
 62
     7
370
     0
100
AcDbSpline
210
0.0
220
0.0
230
1.0
 70
     8
 71
     3
 72
    23
 73
    19
 74
     0
 42
0.00000001
 43
0.00000001
 40
0.0
 40
0.0
 40
0.0
 40
0.0
 40
0.065801037609473
 40
0.1286767959489727
 40
0.188675874952433
 40
0.2475984367338943
 40
0.3048494201188272
 40
0.3617858992828988
 40
0.4195227063685889
 40
0.4786818154207403
 40
0.538769503044019
 40
0.5987990560131536
 40
0.6601842815006785
 40
0.7229515306109658
 40
0.7879926891048736
 40
0.8554037684344737
 40
0.9261530612840035
 40
1.0
 40
1.0
 40
1.0
 40
1.0
 10
216.0385409688336
 20
104.1271293294077
 30
0.0
 10
216.054202247926
 20
104.1275077513727
 30
0.0
 10
216.0848285615418
 20
104.1282477720129
 30
0.0
 10
216.1293840463257
 20
104.1345065692705
 30
0.0
 10
216.1714703101953
 20
104.1448266008523
 30
0.0
 10
216.2108859767794
 20
104.1592687184124
 30
0.0
 10
216.2480931183503
 20
104.1772292004623
 30
0.0
 10
216.2818574106657
 20
104.2004847530166
 30
0.0
 10
216.3140198690275
 20
104.2266262919942
 30
0.0
 10
216.3425108319537
 20
104.2577920235864
 30
0.0
 10
216.3684456129783
 20
104.2917211282783
 30
0.0
 10
216.3908292787716
 20
104.3287561893253
 30
0.0
 10
216.4096731628679
 20
104.3683773903372
 30
0.0
 10
216.4255376536355
 20
104.4105771351988
 30
0.0
 10
216.4372524223503
 20
104.4555964964088
 30
0.0
 10
216.4458695809978
 20
104.5031959795502
 30
0.0
 10
216.4514014528612
 20
104.5534059055391
 30
0.0
 10
216.45192239716
 20
104.5878204616533
 30
0.0
 10
216.4521884493337
 20
104.605396366563
 30
0.0
  0
SPLINE
  5
1A0
330
1F
100
AcDbEntity
  8
0
  6
Continuous
 62
     7
370
     0
100
AcDbSpline
210
0.0
220
0.0
230
1.0
 70
     8
 71
     3
 72
    23
 73
    19
 74
     0
 42
0.00000001
 43
0.00000001
 40
0.0
 40
0.0
 40
0.0
 40
0.0
 40
0.0773613371189766
 40
0.1504798322806808
 40
0.2199772368520749
 40
0.2866809968624412
 40
0.3496784941856629
 40
0.410679625017485
 40
0.469427113519291
 40
0.5267557014271297
 40
0.5831419808348368
 40
0.6388244277786262
 40
0.6952634704038116
 40
0.7526958048985345
 40
0.8108491833348943
 40
0.8713563036360842
 40
0.9344364309841282
 40
1.0
 40
1.0
 40
1.0
 40
1.0
 10
215.6619365462888
 20
104.4959135508286
 30
0.0
 10
215.6645447911189
 20
104.4810714316084
 30
0.0
 10
215.6696182329594
 20
104.4522012014117
 30
0.0
 10
215.6792862371105
 20
104.4104106868876
 30
0.0
 10
215.6918422224409
 20
104.3715861307975
 30
0.0
 10
215.7059502542932
 20
104.3353912903106
 30
0.0
 10
215.7227200302281
 20
104.3022088805446
 30
0.0
 10
215.7408902213901
 20
104.2715149686073
 30
0.0
 10
215.7623182484264
 20
104.2443990926889
 30
0.0
 10
215.7848469417927
 20
104.2194430669044
 30
0.0
 10
215.8095739041856
 20
104.197452394663
 30
0.0
 10
215.8367377322787
 20
104.1789134993255
 30
0.0
 10
215.8655805374605
 20
104.1627394357472
 30
0.0
 10
215.8964536142254
 20
104.1494968310552
 30
0.0
 10
215.9294042791595
 20
104.1398039418407
 30
0.0
 10
215.9640131583578
 20
104.1321385304683
 30
0.0
 10
216.000725903755
 20
104.1282759658304
 30
0.0
 10
216.0257747593704
 20
104.1275164291184
 30
0.0
 10
216.0385409688336
 20
104.1271293294077
 30
0.0
  0
LINE
  5
1A1
330
1F
100
AcDbEntity
  8
0
  6
Continuous
 62
     7
370
     0
100
AcDbLine
 10
215.3985192453
 20
104.4695718207
 30
0.0
 11
215.6619365463
 21
104.4959135508
 31
0.0
  0
SPLINE
  5
1A2
330
1F
100
AcDbEntity
  8
0
  6
Continuous
 62
     7
370
     0
100
AcDbSpline
210
0.0
220
0.0
230
1.0
 70
     8
 71
     3
 72
    23
 73
    19
 74
     0
 42
0.00000001
 43
0.00000001
 40
0.0
 40
0.0
 40
0.0
 40
0.0
 40
0.0692980234597533
 40
0.135560844101282
 40
0.1996709556470566
 40
0.2617162384956088
 40
0.3226619299471025
 40
0.3829069237782243
 40
0.4430320330728903
 40
0.5035007873501627
 40
0.5637242810171079
 40
0.6239800220534739
 40
0.6836293869955231
 40
0.7438482724857304
 40
0.8051918462295101
 40
0.8676487429597673
 40
0.9327780842312611
 40
1.0
 40
1.0
 40
1.0
 40
1.0
 10
216.0368946107023
 20
103.8900537584942
 30
0.0
 10
216.0147835978002
 20
103.8905022767866
 30
0.0
 10
215.9715300182133
 20
103.8913796685977
 30
0.0
 10
215.908199081898
 20
103.8990072974294
 30
0.0
 10
215.8479638724943
 20
103.9111706758216
 30
0.0
 10
215.7908055192964
 20
103.9286167257912
 30
0.0
 10
215.736551819524
 20
103.950661442601
 30
0.0
 10
215.6858334017888
 20
103.9786657919884
 30
0.0
 10
215.6377701026028
 20
104.0107010234506
 30
0.0
 10
215.5934191543691
 20
104.0477541365638
 30
0.0
 10
215.5530096659605
 20
104.089082602631
 30
0.0
 10
215.5168019436668
 20
104.1338107605278
 30
0.0
 10
215.4852859766193
 20
104.1819677762771
 30
0.0
 10
215.4584769759531
 20
104.2332654889734
 30
0.0
 10
215.4361329118628
 20
104.2876547026845
 30
0.0
 10
215.4190388194106
 20
104.345506644561
 30
0.0
 10
215.4054988756488
 20
104.4062536979492
 30
0.0
 10
215.4008701831206
 20
104.4482444776975
 30
0.0
 10
215.3985192452738
 20
104.4695718207271
 30
0.0
  0
SPLINE
  5
1A3
330
1F
100
AcDbEntity
  8
0
  6
Continuous
 62
     7
370
     0
100
AcDbSpline
210
0.0
220
0.0
230
1.0
 70
     8
 71
     3
 72
    15
 73
    11
 74
     0
 42
0.00000001
 43
0.00000001
 40
0.0
 40
0.0
 40
0.0
 40
0.0
 40
0.1278926194654212
 40
0.2515785135038572
 40
0.3727928197023039
 40
0.4927776986078531
 40
0.6135900692425721
 40
0.7378086492801459
 40
0.866179901539168
 40
1.0
 40
1.0
 40
1.0
 40
1.0
 10
216.5583785488053
 20
104.1394770153928
 30
0.0
 10
216.5422385922166
 20
104.1195766644677
 30
0.0
 10
216.5104895647621
 20
104.0804305376243
 30
0.0
 10
216.4555164702936
 20
104.0296212079771
 30
0.0
 10
216.396419614334
 20
103.9864402703793
 30
0.0
 10
216.3328473043154
 20
103.9513588879594
 30
0.0
 10
216.2652263217291
 20
103.923168026519
 30
0.0
 10
216.1927259613408
 20
103.904408066786
 30
0.0
 10
216.1162222652798
 20
103.8918100107339
 30
0.0
 10
216.0637009936192
 20
103.8906472308499
 30
0.0
 10
216.0368946107023
 20
103.8900537584942
 30
0.0
  0
LINE
  5
1A4
330
1F
100
AcDbEntity
  8
0
  6
Continuous
 62
     7
370
     0
100
AcDbLine
 10
218.5068433973
 20
104.7593308518
 30
0.0
 11
219.2707535702
 21
104.7593308518
 31
0.0
  0
LINE
  5
1A5
330
1F
100
AcDbEntity
  8
0
  6
Continuous
 62
     7
370
     0
100
AcDbLine
 10
218.5068433973
 20
104.5222552809
 30
0.0
 11
218.5068433973
 21
104.7593308518
 31
0.0
  0
LINE
  5
1A6
330
1F
100
AcDbEntity
  8
0
  6
Continuous
 62
     7
370
     0
100
AcDbLine
 10
219.2707535702
 20
104.5222552809
 30
0.0
 11
218.5068433973
 21
104.5222552809
 31
0.0
  0
LINE
  5
1A7
330
1F
100
AcDbEntity
  8
0
  6
Continuous
 62
     7
370
     0
100
AcDbLine
 10
219.2707535702
 20
104.7593308518
 30
0.0
 11
219.2707535702
 21
104.5222552809
 31
0.0
  0
SPLINE
  5
1A8
330
1F
100
AcDbEntity
  8
0
  6
Continuous
 62
     7
370
     0
100
AcDbSpline
210
0.0
220
0.0
230
1.0
 70
     8
 71
     3
 72
    31
 73
    27
 74
     0
 42
0.00000001
 43
0.00000001
 40
0.0
 40
0.0
 40
0.0
 40
0.0
 40
0.0628739462114324
 40
0.1228366299919129
 40
0.1796565674430315
 40
0.2339600122308622
 40
0.285595018695559
 40
0.3345131060783805
 40
0.3809048259061763
 40
0.4248945919393348
 40
0.4665290347654876
 40
0.5064882940692462
 40
0.5450315536447548
 40
0.5818311798231348
 40
0.6174482799494427
 40
0.652066912769046
 40
0.685879714246511
 40
0.7191745547913925
 40
0.7521816462063932
 40
0.7852401639180917
 40
0.8186564497770835
 40
0.852547740653311
 40
0.8876263422585192
 40
0.9236350780687517
 40
0.9610218444769894
 40
1.0
 40
1.0
 40
1.0
 40
1.0
 10
222.7215202134897
 20
104.9297289184376
 30
0.0
 10
222.7212498492537
 20
104.9005039350947
 30
0.0
 10
222.7207216395003
 20
104.8434071775069
 30
0.0
 10
222.717583923224
 20
104.7599350666282
 30
0.0
 10
222.7116157037471
 20
104.6806271973456
 30
0.0
 10
222.7042717006412
 20
104.6053018984051
 30
0.0
 10
222.6931617622248
 20
104.5341602529032
 30
0.0
 10
222.6811902016346
 20
104.4668999988095
 30
0.0
 10
222.6663843383093
 20
104.4038265569132
 30
0.0
 10
222.6491093718602
 20
104.3449122837503
 30
0.0
 10
222.6296538369203
 20
104.2898456618606
 30
0.0
 10
222.6083178322793
 20
104.2382105283273
 30
0.0
 10
222.5846861584757
 20
104.1900421660879
 30
0.0
 10
222.5580554476444
 20
104.1458103851879
 30
0.0
 10
222.5296441754454
 20
104.1049280827898
 30
0.0
 10
222.4992442595168
 20
104.067241900187
 30
0.0
 10
222.4662111860513
 20
104.0332942504783
 30
0.0
 10
222.4305783338788
 20
104.0032756780608
 30
0.0
 10
222.3930680635575
 20
103.9762351745065
 30
0.0
 10
222.3529342061922
 20
103.9530826934439
 30
0.0
 10
222.3103524214211
 20
103.933901265023
 30
0.0
 10
222.2656072145449
 20
103.9175020966847
 30
0.0
 10
222.2182445808878
 20
103.9054857479881
 30
0.0
 10
222.1686380177711
 20
103.8962874208295
 30
0.0
 10
222.1166047483928
 20
103.8908707796816
 30
0.0
 10
222.0810995243982
 20
103.8903298563721
 30
0.0
 10
222.0629769609523
 20
103.8900537584942
 30
0.0
  0
SPLINE
  5
1A9
330
1F
100
AcDbEntity
  8
0
  6
Continuous
 62
     7
370
     0
100
AcDbSpline
210
0.0
220
0.0
230
1.0
 70
     8
 71
     3
 72
    27
 73
    23
 74
     0
 42
0.00000001
 43
0.00000001
 40
0.0
 40
0.0
 40
0.0
 40
0.0
 40
0.0567243372181508
 40
0.1114372357370111
 40
0.1643678222229013
 40
0.2164353724620895
 40
0.2676414903219251
 40
0.3173597799690279
 40
0.3674730633322809
 40
0.4182103970528079
 40
0.4714042826470199
 40
0.5279657201290493
 40
0.5880611158232137
 40
0.6521342629937144
 40
0.6863448363353054
 40
0.7232636803169651
 40
0.7626102507715418
 40
0.8047389366452181
 40
0.8494303387909499
 40
0.8967112583864923
 40
0.9468896380534765
 40
1.0
 40
1.0
 40
1.0
 40
1.0
 10
222.0629769609523
 20
105.9710504365124
 30
0.0
 10
222.0893641500616
 20
105.9702746718276
 30
0.0
 10
222.1412028414844
 20
105.9687506509876
 30
0.0
 10
222.2168875986624
 20
105.9563210135622
 30
0.0
 10
222.2882156043076
 20
105.9350582030546
 30
0.0
 10
222.3551405171343
 20
105.906373754408
 30
0.0
 10
222.4165182661259
 20
105.8699389838301
 30
0.0
 10
222.4713311829591
 20
105.8256469691815
 30
0.0
 10
222.5189880217879
 20
105.7739627678692
 30
0.0
 10
222.5589686819602
 20
105.7142739390547
 30
0.0
 10
222.5939157696784
 20
105.6482270992422
 30
0.0
 10
222.6249619952536
 20
105.5755258058496
 30
0.0
 10
222.6530268814282
 20
105.496251528886
 30
0.0
 10
222.6729423356119
 20
105.4252899842107
 30
0.0
 10
222.6871480127287
 20
105.3640334609155
 30
0.0
 10
222.6965510422949
 20
105.313510813335
 30
0.0
 10
222.7043574419493
 20
105.2589965921661
 30
0.0
 10
222.7103381990793
 20
105.2006226819846
 30
0.0
 10
222.715245269191
 20
105.1384545543251
 30
0.0
 10
222.7190347745491
 20
105.0724535021219
 30
0.0
 10
222.7209583365232
 20
105.0024545669742
 30
0.0
 10
222.7213294100363
 20
104.9544252589451
 30
0.0
 10
222.7215202134897
 20
104.9297289184376
 30
0.0
  0
SPLINE
  5
1AA
330
1F
100
AcDbEntity
  8
0
  6
Continuous
 62
     7
370
     0
100
AcDbSpline
210
0.0
220
0.0
230
1.0
 70
     8
 71
     3
 72
    31
 73
    27
 74
     0
 42
0.00000001
 43
0.00000001
 40
0.0
 40
0.0
 40
0.0
 40
0.0
 40
0.0631144583947934
 40
0.1236146457694899
 40
0.1809737111859575
 40
0.235261455008322
 40
0.2871007018338719
 40
0.3360307363034434
 40
0.3823823485850662
 40
0.426334083659707
 40
0.4682106947981599
 40
0.5082496012618049
 40
0.5466283366065846
 40
0.5836495392304459
 40
0.6189943150301614
 40
0.6535830186205956
 40
0.687156136190331
 40
0.7204221919788075
 40
0.7532302188118168
 40
0.7862601560778997
 40
0.8195039834988835
 40
0.8535452747120178
 40
0.8883082803397293
 40
0.9239958607406945
 40
0.9613503047546453
 40
1.0
 40
1.0
 40
1.0
 40
1.0
 10
221.4044337084149
 20
104.9297289184376
 30
0.0
 10
221.4046991014032
 20
104.9590918236398
 30
0.0
 10
221.4052188945074
 20
105.016601389873
 30
0.0
 10
221.4084430022727
 20
105.1007482165192
 30
0.0
 10
221.4140720331776
 20
105.1806589735586
 30
0.0
 10
221.4224746266803
 20
105.2562642622325
 30
0.0
 10
221.4324248716227
 20
105.3277347385349
 30
0.0
 10
221.4453602528214
 20
105.3949684067253
 30
0.0
 10
221.4599144371652
 20
105.4581161163698
 30
0.0
 10
221.4773768465885
 20
105.5171120462108
 30
0.0
 10
221.496562317934
 20
105.572463453851
 30
0.0
 10
221.5183288472521
 20
105.6240815431363
 30
0.0
 10
221.5428191454462
 20
105.6719115867425
 30
0.0
 10
221.5688296665821
 20
105.7164496090481
 30
0.0
 10
221.5977296578154
 20
105.7570028605073
 30
0.0
 10
221.6277747736245
 20
105.7947094313704
 30
0.0
 10
221.6611485136349
 20
105.8281864745562
 30
0.0
 10
221.6964631261454
 20
105.8582953574194
 30
0.0
 10
221.7342386279811
 20
105.8848646918921
 30
0.0
 10
221.7742751492337
 20
105.9077908228255
 30
0.0
 10
221.8164186402605
 20
105.9280329433758
 30
0.0
 10
221.8614723093955
 20
105.9432712064379
 30
0.0
 10
221.9085008511262
 20
105.9556936212003
 30
0.0
 10
221.9578662667789
 20
105.9648317001214
 30
0.0
 10
222.0096229562801
 20
105.9702189060386
 30
0.0
 10
222.0449913782667
 20
105.9707701284046
 30
0.0
 10
222.0629769609523
 20
105.9710504365124
 30
0.0
  0
SPLINE
  5
1AB
330
1F
100
AcDbEntity
  8
0
  6
Continuous
 62
     7
370
     0
100
AcDbSpline
210
0.0
220
0.0
230
1.0
 70
     8
 71
     3
 72
    15
 73
    11
 74
     0
 42
0.00000001
 43
0.00000001
 40
0.0
 40
0.0
 40
0.0
 40
0.0
 40
0.0974206681772145
 40
0.2008855880393207
 40
0.3111719701726504
 40
0.4297979458253728
 40
0.5577399263645871
 40
0.6947152693641585
 40
0.8421299102060552
 40
1.0
 40
1.0
 40
1.0
 40
1.0
 10
221.6040546318403
 20
104.0880283237883
 30
0.0
 10
221.5877708749216
 20
104.1115178820363
 30
0.0
 10
221.5541930711014
 20
104.1599543566542
 30
0.0
 10
221.5148931630919
 20
104.242543038937
 30
0.0
 10
221.4798369493518
 20
104.3334615824366
 30
0.0
 10
221.4523242489399
 20
104.4344937981985
 30
0.0
 10
221.4307749461709
 20
104.544835583997
 30
0.0
 10
221.4152109693746
 20
104.6647034539199
 30
0.0
 10
221.4064032907659
 20
104.7940456210931
 30
0.0
 10
221.4051050565881
 20
104.8834801623188
 30
0.0
 10
221.4044337084149
 20
104.9297289184376
 30
0.0
  0
SPLINE
  5
1AC
330
1F
100
AcDbEntity
  8
0
  6
Continuous
 62
     7
370
     0
100
AcDbSpline
210
0.0
220
0.0
230
1.0
 70
     8
 71
     3
 72
    15
 73
    11
 74
     0
 42
0.00000001
 43
0.00000001
 40
0.0
 40
0.0
 40
0.0
 40
0.0
 40
0.1379032299933933
 40
0.2688733426002926
 40
0.3951781273461146
 40
0.5170892381308878
 40
0.6367430265135473
 40
0.7562218164637978
 40
0.87662835946368
 40
1.0
 40
1.0
 40
1.0
 40
1.0
 10
222.0629769609523
 20
103.8900537584942
 30
0.0
 10
222.0392161790146
 20
103.8907315360554
 30
0.0
 10
221.9928891940506
 20
103.8920530157511
 30
0.0
 10
221.925232048465
 20
103.9010316563135
 30
0.0
 10
221.8617322085418
 20
103.9168344852663
 30
0.0
 10
221.8018540894954
 20
103.9380283071909
 30
0.0
 10
221.7462707377561
 20
103.9663762644716
 30
0.0
 10
221.6947167649211
 20
104.0008670900015
 30
0.0
 10
221.646156231072
 20
104.0406983182956
 30
0.0
 10
221.6182018355861
 20
104.0721242431069
 30
0.0
 10
221.6040546318403
 20
104.0880283237883
 30
0.0
  0
CIRCLE
  5
1AD
330
1F
100
AcDbEntity
  8
0
  6
Continuous
 62
     7
370
     0
100
AcDbCircle
 10
214.0155784149
 20
106.5274031008
 30
0.0
 40
25.39999999999998
  0
SPLINE
  5
1AE
330
1F
100
AcDbEntity
  8
0
  6
Continuous
 62
     7
370
     0
100
AcDbSpline
210
0.0
220
0.0
230
1.0
 70
     8
 71
     3
 72
    23
 73
    19
 74
     0
 42
0.00000001
 43
0.00000001
 40
0.0
 40
0.0
 40
0.0
 40
0.0
 40
0.1156291309254413
 40
0.2215410391198766
 40
0.3170478562190415
 40
0.4031508756396164
 40
0.4801812167162793
 40
0.5476493661481896
 40
0.6070358428421807
 40
0.6586524080635068
 40
0.7057228903536447
 40
0.7498040879796465
 40
0.7925868153452744
 40
0.8338739610102599
 40
0.8747683933034318
 40
0.9152226988916382
 40
0.9568807037304797
 40
1.0
 40
1.0
 40
1.0
 40
1.0
 10
222.4581029124747
 20
104.9305520975033
 30
0.0
 10
222.4578534608975
 20
104.9692485081197
 30
0.0
 10
222.4573755211154
 20
105.043389366479
 30
0.0
 10
222.451973925777
 20
105.1493822716775
 30
0.0
 10
222.4435091404345
 20
105.2452441784376
 30
0.0
 10
222.4319306588153
 20
105.3310634625482
 30
0.0
 10
222.4165428588904
 20
105.4067469554113
 30
0.0
 10
222.3978795566535
 20
105.4724557768962
 30
0.0
 10
222.3756394414379
 20
105.5280497922663
 30
0.0
 10
222.3491960238101
 20
105.5740874445006
 30
0.0
 10
222.3197592090303
 20
105.6118508088337
 30
0.0
 10
222.289009665414
 20
105.6445382865187
 30
0.0
 10
222.2561786512704
 20
105.6723379213597
 30
0.0
 10
222.2206844998209
 20
105.6946391985217
 30
0.0
 10
222.1836712543226
 20
105.7126310394392
 30
0.0
 10
222.1442884444716
 20
105.7250134825261
 30
0.0
 10
222.1029231721657
 20
105.7326208682499
 30
0.0
 10
222.0745347224421
 20
105.7335183764191
 30
0.0
 10
222.0600958342224
 20
105.7339748655989
 30
0.0
  0
SPLINE
  5
1AF
330
1F
100
AcDbEntity
  8
0
  6
Continuous
 62
     7
370
     0
100
AcDbSpline
210
0.0
220
0.0
230
1.0
 70
     8
 71
     3
 72
    23
 73
    19
 74
     0
 42
0.00000001
 43
0.00000001
 40
0.0
 40
0.0
 40
0.0
 40
0.0
 40
0.0407818458722593
 40
0.0808695887215865
 40
0.1202681657882668
 40
0.1601868504553522
 40
0.2004597376386395
 40
0.2422651778979076
 40
0.2864592615494687
 40
0.3329520837492632
 40
0.3844305340495304
 40
0.443389125360106
 40
0.5116814722136833
 40
0.5890200255490081
 40
0.6762451906507723
 40
0.7737051914728238
 40
0.881567767781983
 40
1.0
 40
1.0
 40
1.0
 40
1.0
 10
222.0629769609523
 20
104.1271293294077
 30
0.0
 10
222.0765826285292
 20
104.1276487574249
 30
0.0
 10
222.1035623965533
 20
104.1286787728452
 30
0.0
 10
222.1432791011812
 20
104.1355395425296
 30
0.0
 10
222.1811175185567
 20
104.1483576412462
 30
0.0
 10
222.2174188567967
 20
104.1651173597966
 30
0.0
 10
222.251995691957
 20
104.1868252194545
 30
0.0
 10
222.2846661821177
 20
104.2135680847662
 30
0.0
 10
222.3159520423931
 20
104.2448941195846
 30
0.0
 10
222.3459609220751
 20
104.2817636292348
 30
0.0
 10
222.3732829744241
 20
104.3266812261806
 30
0.0
 10
222.3959485895673
 20
104.3820369861456
 30
0.0
 10
222.4153779746488
 20
104.4475557725847
 30
0.0
 10
222.4311831567305
 20
104.5237095506341
 30
0.0
 10
222.4431368933444
 20
104.6103591236346
 30
0.0
 10
222.4520870196181
 20
104.7075870845181
 30
0.0
 10
222.4573528031904
 20
104.8155229995292
 30
0.0
 10
222.4578452096941
 20
104.891033431333
 30
0.0
 10
222.4581029124747
 20
104.9305520975033
 30
0.0
  0
SPLINE
  5
1B0
330
1F
100
AcDbEntity
  8
0
  6
Continuous
 62
     7
370
     0
100
AcDbSpline
210
0.0
220
0.0
230
1.0
 70
     8
 71
     3
 72
    23
 73
    19
 74
     0
 42
0.00000001
 43
0.00000001
 40
0.0
 40
0.0
 40
0.0
 40
0.0
 40
0.1184055081537694
 40
0.2266543328167019
 40
0.324092341928602
 40
0.4117048030053217
 40
0.4890259050064155
 40
0.5569093973430755
 40
0.6162333444927066
 40
0.6673492812770748
 40
0.7135123932013473
 40
0.7576965045209773
 40
0.7994925114422908
 40
0.8399760647439393
 40
0.8798857418167766
 40
0.919148659385742
 40
0.9592273564930833
 40
1.0
 40
1.0
 40
1.0
 40
1.0
 10
221.6678510094299
 20
104.9305520975033
 30
0.0
 10
221.6681125618628
 20
104.8910336096131
 30
0.0
 10
221.6686132310724
 20
104.815386482665
 30
0.0
 10
221.6738440090058
 20
104.7073115104717
 30
0.0
 10
221.6828485779168
 20
104.6098131332419
 30
0.0
 10
221.6947532061662
 20
104.5230263438492
 30
0.0
 10
221.7104721354385
 20
104.446833745999
 30
0.0
 10
221.7302091102711
 20
104.3814295018867
 30
0.0
 10
221.7524573752813
 20
104.326028612309
 30
0.0
 10
221.7799891816401
 20
104.2813177286551
 30
0.0
 10
221.8101334686938
 20
104.2448718361228
 30
0.0
 10
221.8412553849633
 20
104.2135271898912
 30
0.0
 10
221.8740871215579
 20
104.1868849583066
 30
0.0
 10
221.9084144553644
 20
104.1646707704888
 30
0.0
 10
221.9447699996691
 20
104.1478516469575
 30
0.0
 10
221.9827562126383
 20
104.1356611087696
 30
0.0
 10
222.0223813597474
 20
104.1286456412157
 30
0.0
 10
222.0493678855069
 20
104.1276376505356
 30
0.0
 10
222.0629769609523
 20
104.1271293294077
 30
0.0
  0
SPLINE
  5
1B1
330
1F
100
AcDbEntity
  8
0
  6
Continuous
 62
     7
370
     0
100
AcDbSpline
210
0.0
220
0.0
230
1.0
 70
     8
 71
     3
 72
    15
 73
    11
 74
     0
 42
0.00000001
 43
0.00000001
 40
0.0
 40
0.0
 40
0.0
 40
0.0
 40
0.0838881132795455
 40
0.1771540327539698
 40
0.2825136355617228
 40
0.3993998606601629
 40
0.5294908061912204
 40
0.6728021776758327
 40
0.82953576161967
 40
1.0
 40
1.0
 40
1.0
 40
1.0
 10
221.7868003844194
 20
105.5932112453691
 30
0.0
 10
221.7770099600947
 20
105.576842643928
 30
0.0
 10
221.7563346452773
 20
105.5422756040643
 30
0.0
 10
221.7332001701766
 20
105.4821966645749
 30
0.0
 10
221.7127640894189
 20
105.4135378724687
 30
0.0
 10
221.6959384194689
 20
105.3352428623617
 30
0.0
 10
221.6837662276372
 20
105.2474459416885
 30
0.0
 10
221.6741567528503
 20
105.150249069975
 30
0.0
 10
221.6691649883811
 20
105.0435165487598
 30
0.0
 10
221.6683010867792
 20
104.9692458229608
 30
0.0
 10
221.6678510094299
 20
104.9305520975033
 30
0.0
  0
SPLINE
  5
1B2
330
1F
100
AcDbEntity
  8
0
  6
Continuous
 62
     7
370
     0
100
AcDbSpline
210
0.0
220
0.0
230
1.0
 70
     8
 71
     3
 72
    15
 73
    11
 74
     0
 42
0.00000001
 43
0.00000001
 40
0.0
 40
0.0
 40
0.0
 40
0.0
 40
0.1276647678962228
 40
0.2517385630080477
 40
0.3727533493873867
 40
0.4921467589723859
 40
0.6140696213092441
 40
0.737197324412108
 40
0.8656069906011162
 40
1.0
 40
1.0
 40
1.0
 40
1.0
 10
222.0600958342224
 20
105.7339748655989
 30
0.0
 10
222.0464876135021
 20
105.7336177035205
 30
0.0
 10
222.019653946033
 20
105.7329134256696
 30
0.0
 10
221.9803659426501
 20
105.7261911007148
 30
0.0
 10
221.9431331633872
 20
105.7149498750714
 30
0.0
 10
221.9075290409495
 20
105.6997225434408
 30
0.0
 10
221.8744424132628
 20
105.679229562742
 30
0.0
 10
221.8425611469553
 20
105.6553025490793
 30
0.0
 10
221.8133784371901
 20
105.6261501535359
 30
0.0
 10
221.7957931923245
 20
105.6043562783142
 30
0.0
 10
221.7868003844194
 20
105.5932112453691
 30
0.0
  0
SPLINE
  5
1B3
330
1F
100
AcDbEntity
  8
0
  6
Continuous
 62
     7
370
     0
100
AcDbSpline
210
0.0
220
0.0
230
1.0
 70
     8
 71
     3
 72
    23
 73
    19
 74
     0
 42
0.00000001
 43
0.00000001
 40
0.0
 40
0.0
 40
0.0
 40
0.0
 40
0.0407818458722601
 40
0.0808695887215869
 40
0.1202681657882672
 40
0.1601868504553522
 40
0.2004597376386394
 40
0.2422651778979082
 40
0.2864592615494687
 40
0.3329520837492634
 40
0.3844305340495304
 40
0.4433891253601059
 40
0.5116814722136832
 40
0.5890200255490082
 40
0.6762451906507722
 40
0.7737051914728236
 40
0.8815677677819829
 40
1.0
 40
1.0
 40
1.0
 40
1.0
 10
217.637566303901
 20
104.1271293294077
 30
0.0
 10
217.6511719714779
 20
104.1276487574249
 30
0.0
 10
217.678151739502
 20
104.1286787728452
 30
0.0
 10
217.7178684441299
 20
104.1355395425296
 30
0.0
 10
217.7557068615054
 20
104.1483576412462
 30
0.0
 10
217.7920081997454
 20
104.1651173597966
 30
0.0
 10
217.8265850349057
 20
104.1868252194545
 30
0.0
 10
217.8592555250665
 20
104.2135680847662
 30
0.0
 10
217.8905413853418
 20
104.2448941195846
 30
0.0
 10
217.9205502650238
 20
104.2817636292348
 30
0.0
 10
217.9478723173728
 20
104.3266812261806
 30
0.0
 10
217.970537932516
 20
104.3820369861456
 30
0.0
 10
217.9899673175975
 20
104.4475557725847
 30
0.0
 10
218.0057724996792
 20
104.5237095506341
 30
0.0
 10
218.0177262362931
 20
104.6103591236346
 30
0.0
 10
218.0266763625669
 20
104.7075870845181
 30
0.0
 10
218.0319421461392
 20
104.8155229995292
 30
0.0
 10
218.0324345526429
 20
104.891033431333
 30
0.0
 10
218.0326922554234
 20
104.9305520975033
 30
0.0
  0
SPLINE
  5
1B4
330
1F
100
AcDbEntity
  8
0
  6
Continuous
 62
     7
370
     0
100
AcDbSpline
210
0.0
220
0.0
230
1.0
 70
     8
 71
     3
 72
    23
 73
    19
 74
     0
 42
0.00000001
 43
0.00000001
 40
0.0
 40
0.0
 40
0.0
 40
0.0
 40
0.1184055081537695
 40
0.226654332816702
 40
0.324092341928602
 40
0.4117048030053218
 40
0.4890259050064158
 40
0.5569093973430759
 40
0.616233344492707
 40
0.6673492812770753
 40
0.7135123932013475
 40
0.7576965045209778
 40
0.7994925114422909
 40
0.8399760647439392
 40
0.8798857418167761
 40
0.919148659385742
 40
0.959227356493083
 40
1.0
 40
1.0
 40
1.0
 40
1.0
 10
217.2424403523786
 20
104.9305520975033
 30
0.0
 10
217.2427019048115
 20
104.8910336096131
 30
0.0
 10
217.2432025740211
 20
104.815386482665
 30
0.0
 10
217.2484333519545
 20
104.7073115104717
 30
0.0
 10
217.2574379208655
 20
104.6098131332419
 30
0.0
 10
217.2693425491149
 20
104.5230263438492
 30
0.0
 10
217.2850614783872
 20
104.446833745999
 30
0.0
 10
217.3047984532198
 20
104.3814295018867
 30
0.0
 10
217.32704671823
 20
104.326028612309
 30
0.0
 10
217.3545785245888
 20
104.2813177286551
 30
0.0
 10
217.3847228116425
 20
104.2448718361228
 30
0.0
 10
217.415844727912
 20
104.2135271898912
 30
0.0
 10
217.4486764645067
 20
104.1868849583066
 30
0.0
 10
217.4830037983131
 20
104.1646707704888
 30
0.0
 10
217.5193593426178
 20
104.1478516469575
 30
0.0
 10
217.557345555587
 20
104.1356611087696
 30
0.0
 10
217.5969707026962
 20
104.1286456412157
 30
0.0
 10
217.6239572284556
 20
104.1276376505356
 30
0.0
 10
217.637566303901
 20
104.1271293294077
 30
0.0
  0
SPLINE
  5
1B5
330
1F
100
AcDbEntity
  8
0
  6
Continuous
 62
     7
370
     0
100
AcDbSpline
210
0.0
220
0.0
230
1.0
 70
     8
 71
     3
 72
    15
 73
    11
 74
     0
 42
0.00000001
 43
0.00000001
 40
0.0
 40
0.0
 40
0.0
 40
0.0
 40
0.0838881132795455
 40
0.1771540327539697
 40
0.2825136355617227
 40
0.3993998606601628
 40
0.5294908061912204
 40
0.6728021776758328
 40
0.8295357616196701
 40
1.0
 40
1.0
 40
1.0
 40
1.0
 10
217.3613897273681
 20
105.5932112453691
 30
0.0
 10
217.3515993030434
 20
105.576842643928
 30
0.0
 10
217.3309239882261
 20
105.5422756040643
 30
0.0
 10
217.3077895131253
 20
105.4821966645749
 30
0.0
 10
217.2873534323676
 20
105.4135378724687
 30
0.0
 10
217.2705277624176
 20
105.3352428623617
 30
0.0
 10
217.258355570586
 20
105.2474459416885
 30
0.0
 10
217.248746095799
 20
105.150249069975
 30
0.0
 10
217.2437543313298
 20
105.0435165487598
 30
0.0
 10
217.2428904297279
 20
104.9692458229608
 30
0.0
 10
217.2424403523786
 20
104.9305520975033
 30
0.0
  0
SPLINE
  5
1B6
330
1F
100
AcDbEntity
  8
0
  6
Continuous
 62
     7
370
     0
100
AcDbSpline
210
0.0
220
0.0
230
1.0
 70
     8
 71
     3
 72
    15
 73
    11
 74
     0
 42
0.00000001
 43
0.00000001
 40
0.0
 40
0.0
 40
0.0
 40
0.0
 40
0.1276647678962239
 40
0.2517385630080486
 40
0.3727533493873887
 40
0.4921467589723853
 40
0.6140696213092445
 40
0.7371973244121091
 40
0.8656069906011172
 40
1.0
 40
1.0
 40
1.0
 40
1.0
 10
217.6346851771711
 20
105.7339748655989
 30
0.0
 10
217.6210769564508
 20
105.7336177035205
 30
0.0
 10
217.5942432889817
 20
105.7329134256696
 30
0.0
 10
217.5549552855988
 20
105.7261911007148
 30
0.0
 10
217.5177225063359
 20
105.7149498750714
 30
0.0
 10
217.4821183838982
 20
105.6997225434408
 30
0.0
 10
217.4490317562115
 20
105.679229562742
 30
0.0
 10
217.4171504899041
 20
105.6553025490793
 30
0.0
 10
217.3879677801388
 20
105.6261501535359
 30
0.0
 10
217.3703825352732
 20
105.6043562783142
 30
0.0
 10
217.3613897273681
 20
105.5932112453691
 30
0.0
  0
SPLINE
  5
1B7
330
1F
100
AcDbEntity
  8
0
  6
Continuous
 62
     7
370
     0
100
AcDbSpline
210
0.0
220
0.0
230
1.0
 70
     8
 71
     3
 72
    23
 73
    19
 74
     0
 42
0.00000001
 43
0.00000001
 40
0.0
 40
0.0
 40
0.0
 40
0.0
 40
0.1156291309254414
 40
0.2215410391198767
 40
0.3170478562190416
 40
0.4031508756396167
 40
0.4801812167162793
 40
0.5476493661481897
 40
0.6070358428421808
 40
0.6586524080635068
 40
0.7057228903536453
 40
0.7498040879796471
 40
0.7925868153452743
 40
0.8338739610102602
 40
0.8747683933034326
 40
0.9152226988916381
 40
0.9568807037304797
 40
1.0
 40
1.0
 40
1.0
 40
1.0
 10
218.0326922554234
 20
104.9305520975033
 30
0.0
 10
218.0324428038462
 20
104.9692485081197
 30
0.0
 10
218.0319648640642
 20
105.043389366479
 30
0.0
 10
218.0265632687257
 20
105.1493822716775
 30
0.0
 10
218.0180984833832
 20
105.2452441784376
 30
0.0
 10
218.006520001764
 20
105.3310634625482
 30
0.0
 10
217.9911322018391
 20
105.4067469554113
 30
0.0
 10
217.9724688996023
 20
105.4724557768962
 30
0.0
 10
217.9502287843866
 20
105.5280497922663
 30
0.0
 10
217.9237853667588
 20
105.5740874445006
 30
0.0
 10
217.894348551979
 20
105.6118508088337
 30
0.0
 10
217.8635990083627
 20
105.6445382865187
 30
0.0
 10
217.8307679942191
 20
105.6723379213597
 30
0.0
 10
217.7952738427696
 20
105.6946391985217
 30
0.0
 10
217.7582605972713
 20
105.7126310394392
 30
0.0
 10
217.7188777874203
 20
105.7250134825261
 30
0.0
 10
217.6775125151144
 20
105.7326208682499
 30
0.0
 10
217.6491240653908
 20
105.7335183764191
 30
0.0
 10
217.6346851771711
 20
105.7339748655989
 30
0.0
  0
SPLINE
  5
1B8
330
1F
100
AcDbEntity
  8
0
  6
Continuous
 62
     7
370
     0
100
AcDbSpline
210
0.0
220
0.0
230
1.0
 70
     8
 71
     3
 72
    15
 73
    11
 74
     0
 42
0.00000001
 43
0.00000001
 40
0.0
 40
0.0
 40
0.0
 40
0.0
 40
0.1531481085926329
 40
0.2994334688329067
 40
0.4364263514567513
 40
0.5656705729563587
 40
0.6865083102878737
 40
0.7992685160630052
 40
0.9033947408013442
 40
1.0
 40
1.0
 40
1.0
 40
1.0
 10
217.0905638147621
 20
108.4866856612052
 30
0.0
 10
217.0829110612619
 20
108.5075507365463
 30
0.0
 10
217.0679484832207
 20
108.5483458984603
 30
0.0
 10
217.0456347715242
 20
108.607617824904
 30
0.0
 10
217.0252493240898
 20
108.6639048790305
 30
0.0
 10
217.0052597188709
 20
108.7163999851072
 30
0.0
 10
216.9872147451927
 20
108.7658656873138
 30
0.0
 10
216.9705822304232
 20
108.811967867237
 30
0.0
 10
216.9541328136565
 20
108.8543860926584
 30
0.0
 10
216.9442612872596
 20
108.8817926369747
 30
0.0
 10
216.9395104562113
 20
108.8949824777784
 30
0.0
  0
LINE
  5
1B9
330
1F
100
AcDbEntity
  8
0
  6
Continuous
 62
     7
370
     0
100
AcDbLine
 10
217.2901847382
 20
107.9466801941
 30
0.0
 11
217.0905638148
 21
108.4866856612
 31
0.0
  0
LINE
  5
1BA
330
1F
100
AcDbEntity
  8
0
  6
Continuous
 62
     7
370
     0
100
AcDbLine
 10
216.5888361742
 20
107.9466801941
 30
0.0
 11
217.2901847382
 21
107.9466801941
 31
0.0
  0
LINE
  5
1BB
330
1F
100
AcDbEntity
  8
0
  6
Continuous
 62
     7
370
     0
100
AcDbLine
 10
216.7991584255
 20
108.5154969285
 30
0.0
 11
216.5888361742
 21
107.9466801941
 31
0.0
  0
SPLINE
  5
1BC
330
1F
100
AcDbEntity
  8
0
  6
Continuous
 62
     7
370
     0
100
AcDbSpline
210
0.0
220
0.0
230
1.0
 70
     8
 71
     3
 72
    11
 73
     7
 74
     0
 42
0.00000001
 43
0.00000001
 40
0.0
 40
0.0
 40
0.0
 40
0.0
 40
0.2472940500353362
 40
0.4956077709090485
 40
0.7463591727731967
 40
1.0
 40
1.0
 40
1.0
 40
1.0
 10
216.9395104562113
 20
108.8949824777784
 30
0.0
 10
216.9316516646632
 20
108.8624574919026
 30
0.0
 10
216.9159016773075
 20
108.7972734094451
 30
0.0
 10
216.882925038443
 20
108.7017699840756
 30
0.0
 10
216.8452009089065
 20
108.6071399806381
 30
0.0
 10
216.8145644206458
 20
108.5461610523954
 30
0.0
 10
216.7991584255143
 20
108.5154969285038
 30
0.0
  0
SPLINE
  5
1BD
330
1F
100
AcDbEntity
  8
0
  6
Continuous
 62
     7
370
     0
100
AcDbSpline
210
0.0
220
0.0
230
1.0
 70
     8
 71
     3
 72
    23
 73
    19
 74
     0
 42
0.00000001
 43
0.00000001
 40
0.0
 40
0.0
 40
0.0
 40
0.0
 40
0.1156291309254414
 40
0.2215410391198768
 40
0.3170478562190417
 40
0.4031508756396167
 40
0.4801812167162795
 40
0.5476493661481898
 40
0.6070358428421809
 40
0.6586524080635071
 40
0.7057228903536458
 40
0.7498040879796471
 40
0.7925868153452744
 40
0.8338739610102605
 40
0.8747683933034328
 40
0.9152226988916382
 40
0.95688070373048
 40
1.0
 40
1.0
 40
1.0
 40
1.0
 10
214.8716846432439
 20
104.9305520975033
 30
0.0
 10
214.8714351916667
 20
104.9692485081197
 30
0.0
 10
214.8709572518846
 20
105.043389366479
 30
0.0
 10
214.8655556565462
 20
105.1493822716775
 30
0.0
 10
214.8570908712037
 20
105.2452441784376
 30
0.0
 10
214.8455123895845
 20
105.3310634625482
 30
0.0
 10
214.8301245896596
 20
105.4067469554113
 30
0.0
 10
214.8114612874228
 20
105.4724557768962
 30
0.0
 10
214.7892211722071
 20
105.5280497922663
 30
0.0
 10
214.7627777545793
 20
105.5740874445006
 30
0.0
 10
214.7333409397995
 20
105.6118508088337
 30
0.0
 10
214.7025913961832
 20
105.6445382865187
 30
0.0
 10
214.6697603820396
 20
105.6723379213597
 30
0.0
 10
214.6342662305901
 20
105.6946391985217
 30
0.0
 10
214.5972529850919
 20
105.7126310394392
 30
0.0
 10
214.5578701752408
 20
105.7250134825261
 30
0.0
 10
214.5165049029349
 20
105.7326208682499
 30
0.0
 10
214.4881164532113
 20
105.7335183764191
 30
0.0
 10
214.4736775649916
 20
105.7339748655989
 30
0.0
  0
SPLINE
  5
1BE
330
1F
100
AcDbEntity
  8
0
  6
Continuous
 62
     7
370
     0
100
AcDbSpline
210
0.0
220
0.0
230
1.0
 70
     8
 71
     3
 72
    23
 73
    19
 74
     0
 42
0.00000001
 43
0.00000001
 40
0.0
 40
0.0
 40
0.0
 40
0.0
 40
0.1184055081537694
 40
0.2266543328167019
 40
0.324092341928602
 40
0.4117048030053217
 40
0.4890259050064157
 40
0.5569093973430758
 40
0.6162333444927067
 40
0.667349281277075
 40
0.7135123932013475
 40
0.7576965045209779
 40
0.799492511442291
 40
0.8399760647439393
 40
0.8798857418167761
 40
0.9191486593857416
 40
0.959227356493083
 40
1.0
 40
1.0
 40
1.0
 40
1.0
 10
214.0814327401991
 20
104.9305520975033
 30
0.0
 10
214.081694292632
 20
104.8910336096131
 30
0.0
 10
214.0821949618416
 20
104.815386482665
 30
0.0
 10
214.0874257397751
 20
104.7073115104717
 30
0.0
 10
214.096430308686
 20
104.6098131332419
 30
0.0
 10
214.1083349369354
 20
104.5230263438492
 30
0.0
 10
214.1240538662077
 20
104.446833745999
 30
0.0
 10
214.1437908410404
 20
104.3814295018867
 30
0.0
 10
214.1660391060505
 20
104.326028612309
 30
0.0
 10
214.1935709124093
 20
104.2813177286551
 30
0.0
 10
214.223715199463
 20
104.2448718361228
 30
0.0
 10
214.2548371157325
 20
104.2135271898912
 30
0.0
 10
214.2876688523272
 20
104.1868849583066
 30
0.0
 10
214.3219961861336
 20
104.1646707704888
 30
0.0
 10
214.3583517304384
 20
104.1478516469575
 30
0.0
 10
214.3963379434075
 20
104.1356611087696
 30
0.0
 10
214.4359630905167
 20
104.1286456412157
 30
0.0
 10
214.4629496162761
 20
104.1276376505356
 30
0.0
 10
214.4765586917215
 20
104.1271293294077
 30
0.0
  0
SPLINE
  5
1BF
330
1F
100
AcDbEntity
  8
0
  6
Continuous
 62
     7
370
     0
100
AcDbSpline
210
0.0
220
0.0
230
1.0
 70
     8
 71
     3
 72
    15
 73
    11
 74
     0
 42
0.00000001
 43
0.00000001
 40
0.0
 40
0.0
 40
0.0
 40
0.0
 40
0.0838881132795456
 40
0.1771540327539697
 40
0.2825136355617227
 40
0.3993998606601629
 40
0.5294908061912204
 40
0.6728021776758328
 40
0.82953576161967
 40
1.0
 40
1.0
 40
1.0
 40
1.0
 10
214.2003821151886
 20
105.5932112453691
 30
0.0
 10
214.190591690864
 20
105.576842643928
 30
0.0
 10
214.1699163760466
 20
105.5422756040643
 30
0.0
 10
214.1467819009458
 20
105.4821966645749
 30
0.0
 10
214.1263458201881
 20
105.4135378724687
 30
0.0
 10
214.1095201502381
 20
105.3352428623617
 30
0.0
 10
214.0973479584065
 20
105.2474459416885
 30
0.0
 10
214.0877384836195
 20
105.150249069975
 30
0.0
 10
214.0827467191504
 20
105.0435165487598
 30
0.0
 10
214.0818828175485
 20
104.9692458229608
 30
0.0
 10
214.0814327401991
 20
104.9305520975033
 30
0.0
  0
SPLINE
  5
1C0
330
1F
100
AcDbEntity
  8
0
  6
Continuous
 62
     7
370
     0
100
AcDbSpline
210
0.0
220
0.0
230
1.0
 70
     8
 71
     3
 72
    15
 73
    11
 74
     0
 42
0.00000001
 43
0.00000001
 40
0.0
 40
0.0
 40
0.0
 40
0.0
 40
0.1276647678962242
 40
0.2517385630080495
 40
0.3727533493873896
 40
0.4921467589723854
 40
0.6140696213092446
 40
0.7371973244121095
 40
0.8656069906011172
 40
1.0
 40
1.0
 40
1.0
 40
1.0
 10
214.4736775649916
 20
105.7339748655989
 30
0.0
 10
214.4600693442713
 20
105.7336177035205
 30
0.0
 10
214.4332356768023
 20
105.7329134256696
 30
0.0
 10
214.3939476734193
 20
105.7261911007148
 30
0.0
 10
214.3567148941565
 20
105.7149498750714
 30
0.0
 10
214.3211107717187
 20
105.6997225434408
 30
0.0
 10
214.288024144032
 20
105.679229562742
 30
0.0
 10
214.2561428777246
 20
105.6553025490793
 30
0.0
 10
214.2269601679593
 20
105.6261501535359
 30
0.0
 10
214.2093749230937
 20
105.6043562783142
 30
0.0
 10
214.2003821151886
 20
105.5932112453691
 30
0.0
  0
SPLINE
  5
1C1
330
1F
100
AcDbEntity
  8
0
  6
Continuous
 62
     7
370
     0
100
AcDbSpline
210
0.0
220
0.0
230
1.0
 70
     8
 71
     3
 72
    23
 73
    19
 74
     0
 42
0.00000001
 43
0.00000001
 40
0.0
 40
0.0
 40
0.0
 40
0.0
 40
0.0407818458722598
 40
0.0808695887215869
 40
0.1202681657882672
 40
0.1601868504553523
 40
0.2004597376386393
 40
0.2422651778979082
 40
0.2864592615494685
 40
0.3329520837492634
 40
0.3844305340495304
 40
0.4433891253601058
 40
0.5116814722136833
 40
0.5890200255490083
 40
0.6762451906507723
 40
0.7737051914728238
 40
0.881567767781983
 40
1.0
 40
1.0
 40
1.0
 40
1.0
 10
214.4765586917215
 20
104.1271293294077
 30
0.0
 10
214.4901643592984
 20
104.1276487574249
 30
0.0
 10
214.5171441273225
 20
104.1286787728452
 30
0.0
 10
214.5568608319505
 20
104.1355395425296
 30
0.0
 10
214.5946992493259
 20
104.1483576412462
 30
0.0
 10
214.6310005875659
 20
104.1651173597966
 30
0.0
 10
214.6655774227262
 20
104.1868252194545
 30
0.0
 10
214.698247912887
 20
104.2135680847662
 30
0.0
 10
214.7295337731623
 20
104.2448941195846
 30
0.0
 10
214.7595426528443
 20
104.2817636292348
 30
0.0
 10
214.7868647051933
 20
104.3266812261806
 30
0.0
 10
214.8095303203365
 20
104.3820369861456
 30
0.0
 10
214.828959705418
 20
104.4475557725847
 30
0.0
 10
214.8447648874997
 20
104.5237095506341
 30
0.0
 10
214.8567186241136
 20
104.6103591236346
 30
0.0
 10
214.8656687503874
 20
104.7075870845181
 30
0.0
 10
214.8709345339597
 20
104.8155229995292
 30
0.0
 10
214.8714269404634
 20
104.891033431333
 30
0.0
 10
214.8716846432439
 20
104.9305520975033
 30
0.0
  0
SPLINE
  5
1C2
330
1F
100
AcDbEntity
  8
0
  6
Continuous
 62
     7
370
     0
100
AcDbSpline
210
0.0
220
0.0
230
1.0
 70
     8
 71
     3
 72
    19
 73
    15
 74
     0
 42
0.00000001
 43
0.00000001
 40
0.0
 40
0.0
 40
0.0
 40
0.0
 40
0.1288602680417312
 40
0.2408921848092288
 40
0.3380442015575111
 40
0.4201204852136087
 40
0.4940584568685509
 40
0.5660947835833201
 40
0.6368049543510103
 40
0.7091484493607201
 40
0.7819418055941266
 40
0.8542853006038363
 40
0.9261704072165581
 40
1.0
 40
1.0
 40
1.0
 40
1.0
 10
213.4463500910333
 20
108.236439225241
 30
0.0
 10
213.4739439770812
 20
108.2368709577578
 30
0.0
 10
213.5255281589121
 20
108.2376780412041
 30
0.0
 10
213.5976604766217
 20
108.2445696855276
 30
0.0
 10
213.6591332607614
 20
108.2555208010194
 30
0.0
 10
213.7111617405167
 20
108.2714942855177
 30
0.0
 10
213.7548738760184
 20
108.2936707864201
 30
0.0
 10
213.7928911507956
 20
108.3206969967808
 30
0.0
 10
213.8244839846896
 20
108.3545501387275
 30
0.0
 10
213.8507659589725
 20
108.3927462018922
 30
0.0
 10
213.8711954767416
 20
108.4347790627849
 30
0.0
 10
213.8859323564657
 20
108.4789284205446
 30
0.0
 10
213.895577900559
 20
108.5248232283837
 30
0.0
 10
213.8965487347545
 20
108.5560585992536
 30
0.0
 10
213.8970406294886
 20
108.5718846945023
 30
0.0
  0
LINE
  5
1C3
330
1F
100
AcDbEntity
  8
0
  6
Continuous
 62
     7
370
     0
100
AcDbLine
 10
212.8960548856
 20
108.2364392252
 30
0.0
 11
213.446350091
 21
108.2364392252
 31
0.0
  0
LINE
  5
1C4
330
1F
100
AcDbEntity
  8
0
  6
Continuous
 62
     7
370
     0
100
AcDbLine
 10
212.8960548856
 20
108.8949824778
 30
0.0
 11
212.8960548856
 21
108.2364392252
 31
0.0
  0
LINE
  5
1C5
330
1F
100
AcDbEntity
  8
0
  6
Continuous
 62
     7
370
     0
100
AcDbLine
 10
213.5085001105
 20
108.8949824778
 30
0.0
 11
212.8960548856
 21
108.8949824778
 31
0.0
  0
SPLINE
  5
1C6
330
1F
100
AcDbEntity
  8
0
  6
Continuous
 62
     7
370
     0
100
AcDbSpline
210
0.0
220
0.0
230
1.0
 70
     8
 71
     3
 72
    23
 73
    19
 74
     0
 42
0.00000001
 43
0.00000001
 40
0.0
 40
0.0
 40
0.0
 40
0.0
 40
0.0603255293380428
 40
0.1181599905079978
 40
0.1741866762963802
 40
0.2295388181457993
 40
0.2834498146386366
 40
0.337826511950592
 40
0.3926321025334827
 40
0.4484655764151903
 40
0.5059654091573048
 40
0.5650585322290047
 40
0.6266544786228437
 40
0.6922320330373637
 40
0.7611310781257616
 40
0.8353098773394202
 40
0.9153255598322018
 40
1.0
 40
1.0
 40
1.0
 40
1.0
 10
213.8970406294886
 20
108.5718846945023
 30
0.0
 10
213.8966582018777
 20
108.5834177719024
 30
0.0
 10
213.8959091385315
 20
108.6060076825269
 30
0.0
 10
213.8919823007309
 20
108.63916339949
 30
0.0
 10
213.8843475957361
 20
108.6706689942637
 30
0.0
 10
213.8742659865252
 20
108.7006910089634
 30
0.0
 10
213.8607949108159
 20
108.7290095537944
 30
0.0
 10
213.8447918224395
 20
108.7558440661728
 30
0.0
 10
213.8256951976636
 20
108.7810458183971
 30
0.0
 10
213.8038211127902
 20
108.8046915788671
 30
0.0
 10
213.7787056882182
 20
108.8262069100643
 30
0.0
 10
213.7500179688549
 20
108.8447699743289
 30
0.0
 10
213.7179842130577
 20
108.8605445742979
 30
0.0
 10
213.682567186798
 20
108.8730643513474
 30
0.0
 10
213.6438784601795
 20
108.8830781350175
 30
0.0
 10
213.6016977868053
 20
108.8897399823097
 30
0.0
 10
213.5562180679023
 20
108.8945604728061
 30
0.0
 10
213.5247032601447
 20
108.8948391814159
 30
0.0
 10
213.5085001104915
 20
108.8949824777784
 30
0.0
  0
SPLINE
  5
1C7
330
1F
100
AcDbEntity
  8
0
  6
Continuous
 62
     7
370
     0
100
AcDbSpline
210
0.0
220
0.0
230
1.0
 70
     8
 71
     3
 72
    23
 73
    19
 74
     0
 42
0.00000001
 43
0.00000001
 40
0.0
 40
0.0
 40
0.0
 40
0.0
 40
0.0718367171319505
 40
0.1395582629178172
 40
0.2049233526537264
 40
0.2678265586039221
 40
0.3285473200936659
 40
0.3887551463289839
 40
0.4480299679797879
 40
0.5086005276974233
 40
0.5693212891871666
 40
0.6285118954019238
 40
0.687493275539241
 40
0.747078295388978
 40
0.8077025413165653
 40
0.8697098126206608
 40
0.933428331305089
 40
1.0
 40
1.0
 40
1.0
 40
1.0
 10
211.9498105496421
 20
104.1271293294077
 30
0.0
 10
211.9647836631269
 20
104.1273829629935
 30
0.0
 10
211.9938721542472
 20
104.1278757007475
 30
0.0
 10
212.0362740666912
 20
104.1335062866263
 30
0.0
 10
212.0762262546395
 20
104.1420497273082
 30
0.0
 10
212.1139117570779
 20
104.1537641848478
 30
0.0
 10
212.1487758853671
 20
104.1697903381985
 30
0.0
 10
212.1813863876442
 20
104.1885214303129
 30
0.0
 10
212.2114097003772
 20
104.2111593889712
 30
0.0
 10
212.2388373241647
 20
104.236995014054
 30
0.0
 10
212.2633899096946
 20
104.2655740572705
 30
0.0
 10
212.2844223040223
 20
104.2964046004327
 30
0.0
 10
212.3027691100185
 20
104.3286196099263
 30
0.0
 10
212.3177484383388
 20
104.36291433535
 30
0.0
 10
212.3285809069878
 20
104.3993594954071
 30
0.0
 10
212.3369396865403
 20
104.4372975404426
 30
0.0
 10
212.3419822909507
 20
104.4771197806224
 30
0.0
 10
212.3425754694255
 20
104.5042680160681
 30
0.0
 10
212.3428785535004
 20
104.5181393856018
 30
0.0
  0
SPLINE
  5
1C8
330
1F
100
AcDbEntity
  8
0
  6
Continuous
 62
     7
370
     0
100
AcDbSpline
210
0.0
220
0.0
230
1.0
 70
     8
 71
     3
 72
    19
 73
    15
 74
     0
 42
0.00000001
 43
0.00000001
 40
0.0
 40
0.0
 40
0.0
 40
0.0
 40
0.079823271279787
 40
0.1598568116661127
 40
0.2397327021152788
 40
0.3213646023254474
 40
0.4025836963489389
 40
0.483265588546352
 40
0.5660170116609762
 40
0.6530713596602558
 40
0.7418556865073695
 40
0.8285909050739395
 40
0.9142807452008549
 40
1.0
 40
1.0
 40
1.0
 40
1.0
 10
211.5526266504555
 20
104.5263711762585
 30
0.0
 10
211.5530821583954
 20
104.5094688796322
 30
0.0
 10
211.5539943741665
 20
104.4756197626368
 30
0.0
 10
211.5619964698784
 20
104.4253466509382
 30
0.0
 10
211.5755743687939
 20
104.3760097164685
 30
0.0
 10
211.592976809962
 20
104.3275623571039
 30
0.0
 10
211.6175240353926
 20
104.2819599930343
 30
0.0
 10
211.6500764170698
 20
104.2412565278581
 30
0.0
 10
211.6909235590398
 20
104.2070355085081
 30
0.0
 10
211.7375732287281
 20
104.1781242926435
 30
0.0
 10
211.7884800123489
 20
104.1553686792685
 30
0.0
 10
211.8415263694194
 20
104.1394844879127
 30
0.0
 10
211.8953432009208
 20
104.1289890071262
 30
0.0
 10
211.9316526897707
 20
104.1277492928943
 30
0.0
 10
211.9498105496421
 20
104.1271293294077
 30
0.0
  0
SPLINE
  5
1C9
330
1F
100
AcDbEntity
  8
0
  6
Continuous
 62
     7
370
     0
100
AcDbSpline
210
0.0
220
0.0
230
1.0
 70
     8
 71
     3
 72
    23
 73
    19
 74
     0
 42
0.00000001
 43
0.00000001
 40
0.0
 40
0.0
 40
0.0
 40
0.0
 40
0.0709524654154269
 40
0.1390889271416596
 40
0.2035598239190666
 40
0.2664237811295186
 40
0.3275165661984784
 40
0.387860871760897
 40
0.4478987850107175
 40
0.5088188285885848
 40
0.5694824568188304
 40
0.6290357116670979
 40
0.6883784585529112
 40
0.7480679615575833
 40
0.8086301697509071
 40
0.8702311456070246
 40
0.9336825804722019
 40
1.0
 40
1.0
 40
1.0
 40
1.0
 10
211.9419903485182
 20
104.9173812324526
 30
0.0
 10
211.9272918792993
 20
104.9171156410001
 30
0.0
 10
211.8984783024588
 20
104.9165949990468
 30
0.0
 10
211.8566201399508
 20
104.911054920861
 30
0.0
 10
211.8169933202223
 20
104.9025471982104
 30
0.0
 10
211.7799464817172
 20
104.8900950135786
 30
0.0
 10
211.7450164243692
 20
104.8745347433989
 30
0.0
 10
211.7128420071369
 20
104.8549688171337
 30
0.0
 10
211.6828492406843
 20
104.832258359635
 30
0.0
 10
211.6559542966808
 20
104.8058617726239
 30
0.0
 10
211.6316880874296
 20
104.7771879024491
 30
0.0
 10
211.6107073507668
 20
104.7464496017276
 30
0.0
 10
211.592172996338
 20
104.7143599069797
 30
0.0
 10
211.5781076662499
 20
104.6798658382993
 30
0.0
 10
211.5662026234867
 20
104.6440825259107
 30
0.0
 10
211.5587600886562
 20
104.606315454465
 30
0.0
 10
211.5534693764031
 20
104.5669937240883
 30
0.0
 10
211.5529116648478
 20
104.5401099377376
 30
0.0
 10
211.5526266504555
 20
104.5263711762585
 30
0.0
  0
SPLINE
  5
1CA
330
1F
100
AcDbEntity
  8
0
  6
Continuous
 62
     7
370
     0
100
AcDbSpline
210
0.0
220
0.0
230
1.0
 70
     8
 71
     3
 72
    23
 73
    19
 74
     0
 42
0.00000001
 43
0.00000001
 40
0.0
 40
0.0
 40
0.0
 40
0.0
 40
0.0666161804351809
 40
0.130423869924064
 40
0.192670957570017
 40
0.2529685047960664
 40
0.3128803828057838
 40
0.3722002559180859
 40
0.4319271071459045
 40
0.4924217452545996
 40
0.5527712209075772
 40
0.6132624068156188
 40
0.6735564905563713
 40
0.7343197960333017
 40
0.7968580801403247
 40
0.8617690047507046
 40
0.9288631073150262
 40
1.0
 40
1.0
 40
1.0
 40
1.0
 10
212.3428785535004
 20
104.5181393856018
 30
0.0
 10
212.3425658168533
 20
104.532283033793
 30
0.0
 10
212.3419535283144
 20
104.5599740439935
 30
0.0
 10
212.3370390728399
 20
104.6006702999881
 30
0.0
 10
212.3282115865862
 20
104.6392758085189
 30
0.0
 10
212.3168594025131
 20
104.6763737864177
 30
0.0
 10
212.3014739471019
 20
104.7113188350749
 30
0.0
 10
212.2830058619568
 20
104.7446120247521
 30
0.0
 10
212.2603899606492
 20
104.7753758209473
 30
0.0
 10
212.2355898207976
 20
104.8046546594361
 30
0.0
 10
212.2075243673032
 20
104.8311587760397
 30
0.0
 10
212.1765313222649
 20
104.8540142771882
 30
0.0
 10
212.1435929255408
 20
104.8741995554817
 30
0.0
 10
212.1077127607566
 20
104.8896833680589
 30
0.0
 10
212.0696813165664
 20
104.9020862550015
 30
0.0
 10
212.0293179120507
 20
104.9110983811528
 30
0.0
 10
211.9864579736875
 20
104.916607254177
 30
0.0
 10
211.9570991061736
 20
104.9171182579818
 30
0.0
 10
211.9419903485182
 20
104.9173812324526
 30
0.0
  0
SPLINE
  5
1CB
330
1F
100
AcDbEntity
  8
0
  6
Continuous
 62
     7
370
     0
100
AcDbSpline
210
0.0
220
0.0
230
1.0
 70
     8
 71
     3
 72
    19
 73
    15
 74
     0
 42
0.00000001
 43
0.00000001
 40
0.0
 40
0.0
 40
0.0
 40
0.0
 40
0.0768426979287827
 40
0.1498390532852208
 40
0.2183793964454711
 40
0.2849970207005652
 40
0.3476576708142682
 40
0.4098471591145119
 40
0.4699357615076958
 40
0.5304196066566044
 40
0.6487517360264009
 40
0.7637748930771634
 40
0.8787494877784697
 40
0.9999999999999999
 40
0.9999999999999999
 40
0.9999999999999999
 40
0.9999999999999999
 10
211.9502221391749
 20
105.154456803366
 30
0.0
 10
211.9624482252997
 20
105.1546312210034
 30
0.0
 10
211.9862884237793
 20
105.1549713258457
 30
0.0
 10
212.0207744701422
 20
105.1594099053519
 30
0.0
 10
212.0533636637764
 20
105.1653380460413
 30
0.0
 10
212.083574432016
 20
105.1743212321139
 30
0.0
 10
212.1117555566355
 20
105.1860019939006
 30
0.0
 10
212.1374486838617
 20
105.200401489822
 30
0.0
 10
212.1614226755334
 20
105.2169506428283
 30
0.0
 10
212.1894516147631
 20
105.2426933305878
 30
0.0
 10
212.2195297684509
 20
105.2788754241511
 30
0.0
 10
212.2453081743022
 20
105.3282707656637
 30
0.0
 10
212.2613721795581
 20
105.3823122025338
 30
0.0
 10
212.2630117819218
 20
105.419955213633
 30
0.0
 10
212.2638533631959
 20
105.4392767600884
 30
0.0
  0
SPLINE
  5
1CC
330
1F
100
AcDbEntity
  8
0
  6
Continuous
 62
     7
370
     0
100
AcDbSpline
210
0.0
220
0.0
230
1.0
 70
     8
 71
     3
 72
    19
 73
    15
 74
     0
 42
0.00000001
 43
0.00000001
 40
0.0
 40
0.0
 40
0.0
 40
0.0
 40
0.1273939413394725
 40
0.2461816112928119
 40
0.3612680043537856
 40
0.4771402680372256
 40
0.5363265834357716
 40
0.5956719150436505
 40
0.6566189532057533
 40
0.7188356214960805
 40
0.7835815527063729
 40
0.8515878166889452
 40
0.9239265274809916
 40
1.0
 40
1.0
 40
1.0
 40
1.0
 10
211.63165184076
 20
105.4516244460735
 30
0.0
 10
211.6324336603135
 20
105.4306545821776
 30
0.0
 10
211.6339444825348
 20
105.39013150213
 30
0.0
 10
211.6503748360151
 20
105.3325714358929
 30
0.0
 10
211.6760671406269
 20
105.2808663545576
 30
0.0
 10
211.706186858929
 20
105.2433710265853
 30
0.0
 10
211.7350641045781
 20
105.2178235203326
 30
0.0
 10
211.7591661428568
 20
105.2007663581755
 30
0.0
 10
211.785505009807
 20
105.1862851718822
 30
0.0
 10
211.8142715183622
 20
105.1750294806248
 30
0.0
 10
211.8447689424032
 20
105.1650576389858
 30
0.0
 10
211.8780490946611
 20
105.1594841044472
 30
0.0
 10
211.9133297449693
 20
105.1549531520793
 30
0.0
 10
211.9377200818546
 20
105.1546250055171
 30
0.0
 10
211.9502221391749
 20
105.154456803366
 30
0.0
  0
SPLINE
  5
1CD
330
1F
100
AcDbEntity
  8
0
  6
Continuous
 62
     7
370
     0
100
AcDbSpline
210
0.0
220
0.0
230
1.0
 70
     8
 71
     3
 72
    19
 73
    15
 74
     0
 42
0.00000001
 43
0.00000001
 40
0.0
 40
0.0
 40
0.0
 40
0.0
 40
0.0762358674075228
 40
0.1486180999543649
 40
0.2182394281414515
 40
0.2842516902686069
 40
0.3482575207850553
 40
0.4106562042500674
 40
0.4728623729995139
 40
0.5341947480221281
 40
0.653476101422413
 40
0.7677667895221952
 40
0.8817126094674201
 40
1.0
 40
1.0
 40
1.0
 40
1.0
 10
211.9477526019779
 20
105.7339748655989
 30
0.0
 10
211.9356624804876
 20
105.7338063169585
 30
0.0
 10
211.9120933791549
 20
105.7334777396162
 30
0.0
 10
211.8777648885809
 20
105.7289262456354
 30
0.0
 10
211.8452711181881
 20
105.7232096617476
 30
0.0
 10
211.8149118439454
 20
105.7140356024169
 30
0.0
 10
211.7868132595308
 20
105.7020472395836
 30
0.0
 10
211.7606818744418
 20
105.6874571448997
 30
0.0
 10
211.7363237197435
 20
105.670761544714
 30
0.0
 10
211.7075985436554
 20
105.6450466653143
 30
0.0
 10
211.6775136542975
 20
105.6088637522492
 30
0.0
 10
211.6510097128658
 20
105.5602573129391
 30
0.0
 10
211.6346294195226
 20
105.5072598894837
 30
0.0
 10
211.6326566605078
 20
105.470399295264
 30
0.0
 10
211.63165184076
 20
105.4516244460735
 30
0.0
  0
SPLINE
  5
1CE
330
1F
100
AcDbEntity
  8
0
  6
Continuous
 62
     7
370
     0
100
AcDbSpline
210
0.0
220
0.0
230
1.0
 70
     8
 71
     3
 72
    19
 73
    15
 74
     0
 42
0.00000001
 43
0.00000001
 40
0.0
 40
0.0
 40
0.0
 40
0.0
 40
0.1233861213626085
 40
0.2414346864233538
 40
0.3574485461509667
 40
0.4767139204528327
 40
0.5378895868739915
 40
0.5992703938301226
 40
0.6603520522565615
 40
0.7230069362990812
 40
0.7878755372012023
 40
0.855360105861051
 40
0.9253732137563339
 40
0.9999999999999999
 40
0.9999999999999999
 40
0.9999999999999999
 40
0.9999999999999999
 10
212.2638533631959
 20
105.4392767600884
 30
0.0
 10
212.2628393760064
 20
105.4592737333159
 30
0.0
 10
212.2608552656669
 20
105.4984026313417
 30
0.0
 10
212.2448304996936
 20
105.5545739281631
 30
0.0
 10
212.2178514029192
 20
105.6054483475806
 30
0.0
 10
212.1870315250233
 20
105.6426012155527
 30
0.0
 10
212.1585067551758
 20
105.6695162808996
 30
0.0
 10
212.1341023603873
 20
105.6866495225515
 30
0.0
 10
212.1078675446894
 20
105.7012314269438
 30
0.0
 10
212.0797024587831
 20
105.7131395149787
 30
0.0
 10
212.0495663741749
 20
105.7227435119321
 30
0.0
 10
212.0173776559456
 20
105.7290441965532
 30
0.0
 10
211.9832715614208
 20
105.7334630881259
 30
0.0
 10
211.9598413780259
 20
105.7338006836027
 30
0.0
 10
211.9477526019779
 20
105.7339748655989
 30
0.0
  0
SPLINE
  5
1CF
330
1F
100
AcDbEntity
  8
0
  6
Continuous
 62
     7
370
     0
100
AcDbSpline
210
0.0
220
0.0
230
1.0
 70
     8
 71
     3
 72
    23
 73
    19
 74
     0
 42
0.00000001
 43
0.00000001
 40
0.0
 40
0.0
 40
0.0
 40
0.0
 40
0.0610549117432832
 40
0.1195453450847434
 40
0.1768063562451032
 40
0.2329564830316854
 40
0.2885834899465033
 40
0.3446666617213001
 40
0.4016615108374461
 40
0.4605400973082778
 40
0.520477062322188
 40
0.5812128653554004
 40
0.6434307597220102
 40
0.7079608695212424
 40
0.7753707435336734
 40
0.8464136772813297
 40
0.9211518871893692
 40
1.0
 40
1.0
 40
1.0
 40
1.0
 10
211.2616328507405
 20
107.2881369415872
 30
0.0
 10
211.286085770848
 20
107.2887489898884
 30
0.0
 10
211.3339645194877
 20
107.2899473787368
 30
0.0
 10
211.4042333774973
 20
107.2999786625538
 30
0.0
 10
211.4709966586905
 20
107.3170564956686
 30
0.0
 10
211.5349161064977
 20
107.3397909601441
 30
0.0
 10
211.5948361191411
 20
107.3705240805307
 30
0.0
 10
211.6521580545434
 20
107.4065123963269
 30
0.0
 10
211.7053193093532
 20
107.45048908743
 30
0.0
 10
211.7556248419551
 20
107.499888125802
 30
0.0
 10
211.8007455159743
 20
107.5560392056867
 30
0.0
 10
211.8407806154254
 20
107.6175591470836
 30
0.0
 10
211.8733023122288
 20
107.6853705927195
 30
0.0
 10
211.9013804080063
 20
107.7579797492801
 30
0.0
 10
211.9219408079666
 20
107.8367589574486
 30
0.0
 10
211.9371362034589
 20
107.9208126559722
 30
0.0
 10
211.9462932704859
 20
108.0104112191581
 30
0.0
 10
211.9472575568533
 20
108.0719189702924
 30
0.0
 10
211.9477526019779
 20
108.103495806135
 30
0.0
  0
SPLINE
  5
1D0
330
1F
100
AcDbEntity
  8
0
  6
Continuous
 62
     7
370
     0
100
AcDbSpline
210
0.0
220
0.0
230
1.0
 70
     8
 71
     3
 72
    23
 73
    19
 74
     0
 42
0.00000001
 43
0.00000001
 40
0.0
 40
0.0
 40
0.0
 40
0.0
 40
0.0759644026221997
 40
0.148125223974871
 40
0.2172006111446033
 40
0.2832999093723612
 40
0.3472018681362412
 40
0.4092995407059241
 40
0.4704256161074028
 40
0.5315880640528349
 40
0.5917391729173694
 40
0.6502577442905727
 40
0.7073030399522857
 40
0.7642084640229153
 40
0.8211475320101308
 40
0.8791188121552541
 40
0.9384228183936663
 40
1.0
 40
1.0
 40
1.0
 40
1.0
 10
210.5779826367001
 20
108.0742729493037
 30
0.0
 10
210.5784266786836
 20
108.0446095087487
 30
0.0
 10
210.5792925292134
 20
107.9867678931446
 30
0.0
 10
210.58919832793
 20
107.9024378934732
 30
0.0
 10
210.6042287953857
 20
107.8228682442344
 30
0.0
 10
210.624946708185
 20
107.7478355742941
 30
0.0
 10
210.6527966565573
 20
107.6780819456737
 30
0.0
 10
210.6860948757687
 20
107.6129370937816
 30
0.0
 10
210.7259625246832
 20
107.5528340644153
 30
0.0
 10
210.7715200041718
 20
107.4979409894903
 30
0.0
 10
210.8216280089107
 20
107.4486291642116
 30
0.0
 10
210.8751734971797
 20
107.4055579079862
 30
0.0
 10
210.9321685057399
 20
107.3694887775385
 30
0.0
 10
210.9919811435414
 20
107.3397060104772
 30
0.0
 10
211.0550410168172
 20
107.3164578450655
 30
0.0
 10
211.1211592605992
 20
107.3001335690459
 30
0.0
 10
211.1903844548368
 20
107.2899240595355
 30
0.0
 10
211.2375875004126
 20
107.288740069231
 30
0.0
 10
211.2616328507405
 20
107.2881369415872
 30
0.0
  0
SPLINE
  5
1D1
330
1F
100
AcDbEntity
  8
0
  6
Continuous
 62
     7
370
     0
100
AcDbSpline
210
0.0
220
0.0
230
1.0
 70
     8
 71
     3
 72
    23
 73
    19
 74
     0
 42
0.00000001
 43
0.00000001
 40
0.0
 40
0.0
 40
0.0
 40
0.0
 40
0.0559431333569181
 40
0.1103820356898404
 40
0.1640478588828492
 40
0.2167594775435857
 40
0.269601134614447
 40
0.3230085051908685
 40
0.3775814436721361
 40
0.4334493367080536
 40
0.4909218580498927
 40
0.550624770871325
 40
0.6131168723098182
 40
0.6798607463518503
 40
0.7513577440202
 40
0.828261101258994
 40
0.9107950320656292
 40
1.0
 40
1.0
 40
1.0
 40
1.0
 10
211.2657487460689
 20
108.9213242078799
 30
0.0
 10
211.2426628262521
 20
108.9208657306218
 30
0.0
 10
211.1971117340583
 20
108.9199611039048
 30
0.0
 10
211.1300551037018
 20
108.9099047733745
 30
0.0
 10
211.0654052414651
 20
108.894879241526
 30
0.0
 10
211.0030618176669
 20
108.8738727473677
 30
0.0
 10
210.9435580460336
 20
108.8460568477758
 30
0.0
 10
210.8865856425964
 20
108.8119444536728
 30
0.0
 10
210.8316388937908
 20
108.7724643916673
 30
0.0
 10
210.7795842315033
 20
108.7266547389963
 30
0.0
 10
210.7310579003191
 20
108.6740306307017
 30
0.0
 10
210.6900337555915
 20
108.6119884195923
 30
0.0
 10
210.6554574856003
 20
108.5420091835243
 30
0.0
 10
210.6265869370993
 20
108.4642703036093
 30
0.0
 10
210.604573994083
 20
108.3781697436016
 30
0.0
 10
210.5893602970465
 20
108.2840780346399
 30
0.0
 10
210.5797546791385
 20
108.1818960272285
 30
0.0
 10
210.5785884182841
 20
108.1110644375943
 30
0.0
 10
210.5779826367001
 20
108.0742729493037
 30
0.0
  0
SPLINE
  5
1D2
330
1F
100
AcDbEntity
  8
0
  6
Continuous
 62
     7
370
     0
100
AcDbSpline
210
0.0
220
0.0
230
1.0
 70
     8
 71
     3
 72
    31
 73
    27
 74
     0
 42
0.00000001
 43
0.00000001
 40
0.0
 40
0.0
 40
0.0
 40
0.0
 40
0.0508516157922844
 40
0.0997524678094164
 40
0.1474376477769318
 40
0.1940857839327041
 40
0.2391709270841438
 40
0.283339822245434
 40
0.3265771497238441
 40
0.3689362814999023
 40
0.4105718726814497
 40
0.4510505934949118
 40
0.4908768629924158
 40
0.5300443324843855
 40
0.5689366633103303
 40
0.6075778621311333
 40
0.6464200964505126
 40
0.6856793513063945
 40
0.7247985849801966
 40
0.7635130084045103
 40
0.8021725263787549
 40
0.8407403615726127
 40
0.8796493769005859
 40
0.9190706128663397
 40
0.9590978622172242
 40
1.0
 40
1.0
 40
1.0
 40
1.0
 10
211.9477526019779
 20
108.103495806135
 30
0.0
 10
211.9475776532216
 20
108.1238102870066
 30
0.0
 10
211.9472344670727
 20
108.1636599469954
 30
0.0
 10
211.9426895322553
 20
108.2223988017805
 30
0.0
 10
211.9368271495351
 20
108.2793105418593
 30
0.0
 10
211.9279015807042
 20
108.3343217307173
 30
0.0
 10
211.9156010143961
 20
108.3872045545127
 30
0.0
 10
211.901974075777
 20
108.4383616112667
 30
0.0
 10
211.8849340655718
 20
108.4873520575935
 30
0.0
 10
211.8655997992255
 20
108.5343680153058
 30
0.0
 10
211.8439650825651
 20
108.5791681133958
 30
0.0
 10
211.8195639995371
 20
108.6213746692003
 30
0.0
 10
211.7926801407833
 20
108.6608235929838
 30
0.0
 10
211.7640388641596
 20
108.698262796369
 30
0.0
 10
211.7320541777242
 20
108.7322432288567
 30
0.0
 10
211.6982661631099
 20
108.7642002396841
 30
0.0
 10
211.6619073267246
 20
108.7934735899817
 30
0.0
 10
211.6233405164182
 20
108.8200709264283
 30
0.0
 10
211.583112852403
 20
108.8440127209705
 30
0.0
 10
211.5413072637322
 20
108.864503790673
 30
0.0
 10
211.4985897729288
 20
108.8825026209521
 30
0.0
 10
211.4542453496294
 20
108.8962994797719
 30
0.0
 10
211.4088863048572
 20
108.9074268489041
 30
0.0
 10
211.36232927319
 20
108.9158791221215
 30
0.0
 10
211.3144014472922
 20
108.920256102548
 30
0.0
 10
211.2820827736558
 20
108.9209656160337
 30
0.0
 10
211.2657487460689
 20
108.9213242078799
 30
0.0
  0
SPLINE
  5
1D3
330
1F
100
AcDbEntity
  8
0
  6
Continuous
 62
     7
370
     0
100
AcDbSpline
210
0.0
220
0.0
230
1.0
 70
     8
 71
     3
 72
    23
 73
    19
 74
     0
 42
0.00000001
 43
0.00000001
 40
0.0
 40
0.0
 40
0.0
 40
0.0
 40
0.1156291309254414
 40
0.2215410391198768
 40
0.3170478562190417
 40
0.4031508756396167
 40
0.4801812167162795
 40
0.5476493661481898
 40
0.6070358428421809
 40
0.6586524080635072
 40
0.705722890353646
 40
0.749804087979647
 40
0.7925868153452743
 40
0.8338739610102607
 40
0.8747683933034329
 40
0.9152226988916381
 40
0.9568807037304801
 40
1.0
 40
1.0
 40
1.0
 40
1.0
 10
210.7623747474106
 20
104.9305520975033
 30
0.0
 10
210.7621252958334
 20
104.9692485081197
 30
0.0
 10
210.7616473560513
 20
105.043389366479
 30
0.0
 10
210.7562457607129
 20
105.1493822716775
 30
0.0
 10
210.7477809753704
 20
105.2452441784376
 30
0.0
 10
210.7362024937512
 20
105.3310634625482
 30
0.0
 10
210.7208146938263
 20
105.4067469554113
 30
0.0
 10
210.7021513915894
 20
105.4724557768962
 30
0.0
 10
210.6799112763738
 20
105.5280497922663
 30
0.0
 10
210.653467858746
 20
105.5740874445006
 30
0.0
 10
210.6240310439662
 20
105.6118508088337
 30
0.0
 10
210.5932815003499
 20
105.6445382865187
 30
0.0
 10
210.5604504862063
 20
105.6723379213597
 30
0.0
 10
210.5249563347568
 20
105.6946391985217
 30
0.0
 10
210.4879430892586
 20
105.7126310394392
 30
0.0
 10
210.4485602794075
 20
105.7250134825261
 30
0.0
 10
210.4071950071016
 20
105.7326208682499
 30
0.0
 10
210.3788065573779
 20
105.7335183764191
 30
0.0
 10
210.3643676691583
 20
105.7339748655989
 30
0.0
  0
SPLINE
  5
1D4
330
1F
100
AcDbEntity
  8
0
  6
Continuous
 62
     7
370
     0
100
AcDbSpline
210
0.0
220
0.0
230
1.0
 70
     8
 71
     3
 72
    23
 73
    19
 74
     0
 42
0.00000001
 43
0.00000001
 40
0.0
 40
0.0
 40
0.0
 40
0.0
 40
0.0407818458722597
 40
0.0808695887215869
 40
0.1202681657882671
 40
0.1601868504553522
 40
0.2004597376386391
 40
0.2422651778979079
 40
0.2864592615494684
 40
0.3329520837492633
 40
0.3844305340495303
 40
0.4433891253601058
 40
0.5116814722136833
 40
0.5890200255490083
 40
0.6762451906507723
 40
0.7737051914728237
 40
0.881567767781983
 40
1.0
 40
1.0
 40
1.0
 40
1.0
 10
210.3672487958882
 20
104.1271293294077
 30
0.0
 10
210.3808544634651
 20
104.1276487574249
 30
0.0
 10
210.4078342314892
 20
104.1286787728452
 30
0.0
 10
210.4475509361172
 20
104.1355395425296
 30
0.0
 10
210.4853893534926
 20
104.1483576412462
 30
0.0
 10
210.5216906917326
 20
104.1651173597966
 30
0.0
 10
210.5562675268929
 20
104.1868252194545
 30
0.0
 10
210.5889380170536
 20
104.2135680847662
 30
0.0
 10
210.620223877329
 20
104.2448941195846
 30
0.0
 10
210.6502327570109
 20
104.2817636292348
 30
0.0
 10
210.6775548093599
 20
104.3266812261806
 30
0.0
 10
210.7002204245032
 20
104.3820369861456
 30
0.0
 10
210.7196498095847
 20
104.4475557725847
 30
0.0
 10
210.7354549916664
 20
104.5237095506341
 30
0.0
 10
210.7474087282803
 20
104.6103591236346
 30
0.0
 10
210.756358854554
 20
104.7075870845181
 30
0.0
 10
210.7616246381264
 20
104.8155229995292
 30
0.0
 10
210.76211704463
 20
104.891033431333
 30
0.0
 10
210.7623747474106
 20
104.9305520975033
 30
0.0
  0
SPLINE
  5
1D5
330
1F
100
AcDbEntity
  8
0
  6
Continuous
 62
     7
370
     0
100
AcDbSpline
210
0.0
220
0.0
230
1.0
 70
     8
 71
     3
 72
    23
 73
    19
 74
     0
 42
0.00000001
 43
0.00000001
 40
0.0
 40
0.0
 40
0.0
 40
0.0
 40
0.1184055081537695
 40
0.226654332816702
 40
0.3240923419286021
 40
0.4117048030053219
 40
0.4890259050064157
 40
0.5569093973430758
 40
0.6162333444927074
 40
0.6673492812770747
 40
0.7135123932013476
 40
0.7576965045209786
 40
0.7994925114422912
 40
0.8399760647439397
 40
0.8798857418167761
 40
0.9191486593857416
 40
0.9592273564930831
 40
1.0
 40
1.0
 40
1.0
 40
1.0
 10
209.9721228443657
 20
104.9305520975033
 30
0.0
 10
209.9723843967987
 20
104.8910336096131
 30
0.0
 10
209.9728850660083
 20
104.815386482665
 30
0.0
 10
209.9781158439417
 20
104.7073115104717
 30
0.0
 10
209.9871204128527
 20
104.6098131332419
 30
0.0
 10
209.9990250411021
 20
104.5230263438492
 30
0.0
 10
210.0147439703744
 20
104.446833745999
 30
0.0
 10
210.034480945207
 20
104.3814295018867
 30
0.0
 10
210.0567292102172
 20
104.326028612309
 30
0.0
 10
210.084261016576
 20
104.2813177286551
 30
0.0
 10
210.1144053036297
 20
104.2448718361228
 30
0.0
 10
210.1455272198992
 20
104.2135271898912
 30
0.0
 10
210.1783589564939
 20
104.1868849583066
 30
0.0
 10
210.2126862903003
 20
104.1646707704888
 30
0.0
 10
210.249041834605
 20
104.1478516469575
 30
0.0
 10
210.2870280475742
 20
104.1356611087696
 30
0.0
 10
210.3266531946834
 20
104.1286456412157
 30
0.0
 10
210.3536397204428
 20
104.1276376505356
 30
0.0
 10
210.3672487958882
 20
104.1271293294077
 30
0.0
  0
SPLINE
  5
1D6
330
1F
100
AcDbEntity
  8
0
  6
Continuous
 62
     7
370
     0
100
AcDbSpline
210
0.0
220
0.0
230
1.0
 70
     8
 71
     3
 72
    15
 73
    11
 74
     0
 42
0.00000001
 43
0.00000001
 40
0.0
 40
0.0
 40
0.0
 40
0.0
 40
0.0838881132795455
 40
0.1771540327539698
 40
0.2825136355617228
 40
0.3993998606601629
 40
0.5294908061912204
 40
0.6728021776758327
 40
0.82953576161967
 40
1.0
 40
1.0
 40
1.0
 40
1.0
 10
210.0910722193553
 20
105.5932112453691
 30
0.0
 10
210.0812817950306
 20
105.576842643928
 30
0.0
 10
210.0606064802133
 20
105.5422756040643
 30
0.0
 10
210.0374720051125
 20
105.4821966645749
 30
0.0
 10
210.0170359243548
 20
105.4135378724687
 30
0.0
 10
210.0002102544047
 20
105.3352428623617
 30
0.0
 10
209.9880380625731
 20
105.2474459416885
 30
0.0
 10
209.9784285877862
 20
105.150249069975
 30
0.0
 10
209.973436823317
 20
105.0435165487598
 30
0.0
 10
209.9725729217151
 20
104.9692458229608
 30
0.0
 10
209.9721228443657
 20
104.9305520975033
 30
0.0
  0
SPLINE
  5
1D7
330
1F
100
AcDbEntity
  8
0
  6
Continuous
 62
     7
370
     0
100
AcDbSpline
210
0.0
220
0.0
230
1.0
 70
     8
 71
     3
 72
    15
 73
    11
 74
     0
 42
0.00000001
 43
0.00000001
 40
0.0
 40
0.0
 40
0.0
 40
0.0
 40
0.1276647678962251
 40
0.2517385630080496
 40
0.3727533493873896
 40
0.492146758972386
 40
0.614069621309245
 40
0.7371973244121095
 40
0.8656069906011175
 40
1.0
 40
1.0
 40
1.0
 40
1.0
 10
210.3643676691583
 20
105.7339748655989
 30
0.0
 10
210.350759448438
 20
105.7336177035205
 30
0.0
 10
210.3239257809689
 20
105.7329134256696
 30
0.0
 10
210.284637777586
 20
105.7261911007148
 30
0.0
 10
210.2474049983231
 20
105.7149498750714
 30
0.0
 10
210.2118008758854
 20
105.6997225434408
 30
0.0
 10
210.1787142481987
 20
105.679229562742
 30
0.0
 10
210.1468329818913
 20
105.6553025490793
 30
0.0
 10
210.117650272126
 20
105.6261501535359
 30
0.0
 10
210.1000650272604
 20
105.6043562783142
 30
0.0
 10
210.0910722193553
 20
105.5932112453691
 30
0.0
  0
LINE
  5
1D8
330
1F
100
AcDbEntity
  8
0
  6
Continuous
 62
     7
370
     0
100
AcDbLine
 10
145.8719860437
 20
107.644573477
 30
0.0
 11
145.8722860437
 21
107.644573477
 31
0.0
  0
LINE
  5
1D9
330
1F
100
AcDbEntity
  8
0
  6
Continuous
 62
     7
370
     0
100
AcDbLine
 10
145.8722860437
 20
107.6486596483
 30
0.0
 11
145.8719860437
 21
107.6486596625
 31
0.0
  0
LINE
  5
1DA
330
1F
100
AcDbEntity
  8
0
  6
Continuous
 62
     7
370
     0
100
AcDbLine
 10
145.8722860437
 20
107.6486596483
 30
0.0
 11
145.8722860437
 21
107.644573477
 31
0.0
  0
LINE
  5
1DB
330
1F
100
AcDbEntity
  8
0
  6
Continuous
 62
     7
370
     0
100
AcDbLine
 10
145.8719860437
 20
108.5780585375
 30
0.0
 11
145.8722860437
 21
108.5780585375
 31
0.0
  0
LINE
  5
1DC
330
1F
100
AcDbEntity
  8
0
  6
Continuous
 62
     7
370
     0
100
AcDbLine
 10
145.8719860437
 20
108.1766279558
 30
0.0
 11
145.8722860437
 21
108.1766279473
 31
0.0
  0
LINE
  5
1DD
330
1F
100
AcDbEntity
  8
0
  6
Continuous
 62
     7
370
     0
100
AcDbLine
 10
145.8722860437
 20
108.9985514553
 30
0.0
 11
145.8719860437
 21
108.9985514551
 31
0.0
  0
LINE
  5
1DE
330
1F
100
AcDbEntity
  8
0
  6
Continuous
 62
     7
370
     0
100
AcDbLine
 10
145.8719860437
 20
108.9985514551
 30
0.0
 11
145.8719860437
 21
108.1766279558
 31
0.0
  0
LINE
  5
1DF
330
1F
100
AcDbEntity
  8
0
  6
Continuous
 62
     7
370
     0
100
AcDbLine
 10
145.8719860437
 20
107.0899572432
 30
0.0
 11
145.8722860437
 21
107.0899572432
 31
0.0
  0
LINE
  5
1E0
330
1F
100
AcDbEntity
  8
0
  6
Continuous
 62
     7
370
     0
100
AcDbLine
 10
145.8719860437
 20
105.761898728
 30
0.0
 11
145.8719860437
 21
104.0909972335
 31
0.0
  0
LINE
  5
1E1
330
1F
100
AcDbEntity
  8
0
  6
Continuous
 62
     7
370
     0
100
AcDbLine
 10
145.8722860437
 20
81.3274031008
 30
0.0
 11
145.6722860437
 21
81.1274031008
 31
0.0
  0
LINE
  5
1E2
330
1F
100
AcDbEntity
  8
0
  6
Continuous
 62
     7
370
     0
100
AcDbLine
 10
145.6722860437
 20
81.1274031008
 30
0.0
 11
133.792707879
 21
81.1274031008
 31
0.0
  0
LINE
  5
1E3
330
1F
100
AcDbEntity
  8
0
  6
Continuous
 62
     7
370
     0
100
AcDbLine
 10
133.792707879
 20
81.1274031008
 30
0.0
 11
133.6433533814
 21
81.3210442538
 31
0.0
  0
ARC
  5
1E4
330
1F
100
AcDbEntity
  8
0
  6
Continuous
 62
     7
370
     0
100
AcDbCircle
 10
36.8722860437
 20
106.5274031008
 30
0.0
 40
100.0
100
AcDbArc
 50
345.4003416144
 51
14.5996583856
  0
LINE
  5
1E5
330
1F
100
AcDbEntity
  8
0
  6
Continuous
 62
     7
370
     0
100
AcDbLine
 10
133.6433533814
 20
131.7337619478
 30
0.0
 11
133.792707879
 21
131.9274031008
 31
0.0
  0
LINE
  5
1E6
330
1F
100
AcDbEntity
  8
0
  6
Continuous
 62
     7
370
     0
100
AcDbLine
 10
133.792707879
 20
131.9274031008
 30
0.0
 11
145.6722860437
 21
131.9274031008
 31
0.0
  0
LINE
  5
1E7
330
1F
100
AcDbEntity
  8
0
  6
Continuous
 62
     7
370
     0
100
AcDbLine
 10
145.6722860437
 20
131.9274031008
 30
0.0
 11
145.8722860437
 21
131.7274031008
 31
0.0
  0
LINE
  5
1E8
330
1F
100
AcDbEntity
  8
0
  6
Continuous
 62
     7
370
     0
100
AcDbLine
 10
145.8719860437
 20
104.0909972335
 30
0.0
 11
145.8722860437
 21
104.0909972375
 31
0.0
  0
LINE
  5
1E9
330
1F
100
AcDbEntity
  8
0
  6
Continuous
 62
     7
370
     0
100
AcDbLine
 10
145.8722860437
 20
105.7618987224
 30
0.0
 11
145.8719860437
 21
105.761898728
 31
0.0
  0
LINE
  5
1EA
330
1F
100
AcDbEntity
  8
0
  6
Continuous
 62
     7
370
     0
100
AcDbLine
 10
145.8722860437
 20
104.0909972375
 30
0.0
 11
145.8722860437
 21
81.3274031008
 31
0.0
  0
LINE
  5
1EB
330
1F
100
AcDbEntity
  8
0
  6
Continuous
 62
     7
370
     0
100
AcDbLine
 10
145.8722860437
 20
107.0899572432
 30
0.0
 11
145.8722860437
 21
105.7618987224
 31
0.0
  0
LINE
  5
1EC
330
1F
100
AcDbEntity
  8
0
  6
Continuous
 62
     7
370
     0
100
AcDbLine
 10
145.8722860437
 20
108.1766279473
 30
0.0
 11
145.8722860437
 21
107.6486596483
 31
0.0
  0
LINE
  5
1ED
330
1F
100
AcDbEntity
  8
0
  6
Continuous
 62
     7
370
     0
100
AcDbLine
 10
145.8722860437
 20
131.7274031008
 30
0.0
 11
145.8722860437
 21
108.9985514553
 31
0.0
  0
LINE
  5
1EE
330
1F
100
AcDbEntity
  8
0
  6
Continuous
 62
     7
370
     0
100
AcDbLine
 10
145.8719860437
 20
107.6486596625
 30
0.0
 11
145.8719860437
 21
107.0899572432
 31
0.0
  0
LINE
  5
1EF
330
1F
100
AcDbEntity
  8
0
  6
Continuous
 62
     7
370
     0
100
AcDbLine
 10
133.6433533814
 20
131.7337619478
 30
0.0
 11
133.6433533814
 21
81.3210442538
 31
0.0
  0
LINE
  5
1F0
330
1F
100
AcDbEntity
  8
0
  6
Continuous
 62
     7
370
     0
100
AcDbLine
 10
145.8722860437
 20
107.644573477
 30
0.0
 11
145.8722860437
 21
107.0899572432
 31
0.0
  0
LINE
  5
1F1
330
1F
100
AcDbEntity
  8
0
  6
Continuous
 62
     7
370
     0
100
AcDbLine
 10
145.8719860437
 20
104.1271293294
 30
0.0
 11
145.8722860437
 21
104.1271293294
 31
0.0
  0
LINE
  5
1F2
330
1F
100
AcDbEntity
  8
0
  6
Continuous
 62
     7
370
     0
100
AcDbLine
 10
145.8719860437
 20
104.9305520975
 30
0.0
 11
145.8722860437
 21
104.9305520975
 31
0.0
  0
LINE
  5
1F3
330
1F
100
AcDbEntity
  8
0
  6
Continuous
 62
     7
370
     0
100
AcDbLine
 10
145.8719860437
 20
105.5932112454
 30
0.0
 11
145.8722860437
 21
105.5932112454
 31
0.0
  0
LINE
  5
1F4
330
1F
100
AcDbEntity
  8
0
  6
Continuous
 62
     7
370
     0
100
AcDbLine
 10
145.8719860437
 20
105.7339748656
 30
0.0
 11
145.8722860437
 21
105.7339748656
 31
0.0
  0
HATCH
  5
1F5
330
1F
100
AcDbEntity
  8
0
  6
Continuous
 62
     7
370
     0
100
AcDbHatch
 10
0.0
 20
0.0
 30
0.0
210
0.0
220
0.0
230
1.0
  2
ANSI31
 70
     0
 71
     0
 91
        1
 92
        0
 93
       20
 72
     1
 10
145.8722860436771
 20
108.9985514552935
 11
145.8722860436771
 21
131.7274031007752
 72
     1
 10
145.8722860436771
 20
131.7274031007752
 11
145.6722860436771
 21
131.9274031007752
 72
     1
 10
145.6722860436771
 20
131.9274031007752
 11
133.7927078789855
 21
131.9274031007752
 72
     1
 10
133.7927078789855
 20
131.9274031007752
 11
133.6433533813662
 21
131.7337619477894
 72
     2
 10
36.87228604367712
 20
106.5274031007752
 40
100.0
 50
345.4003416143963
 51
374.5996583856053
 73
     0
 72
     1
 10
133.6433533813662
 20
81.32104425376103
 11
133.7927078789855
 21
81.12740310077523
 72
     1
 10
133.7927078789855
 20
81.12740310077523
 11
145.6722860436771
 21
81.12740310077523
 72
     1
 10
145.6722860436771
 20
81.12740310077523
 11
145.8722860436771
 21
81.32740310077523
 72
     1
 10
145.8722860436771
 20
81.32740310077523
 11
145.8722860436771
 21
104.0909972375112
 72
     1
 10
145.8722860436771
 20
104.0909972375112
 11
145.8719860436771
 21
104.0909972335025
 72
     1
 10
145.8719860436771
 20
104.0909972335025
 11
145.8719860436767
 21
105.7618987279758
 72
     1
 10
145.8719860436767
 20
105.7618987279758
 11
145.8722860436771
 21
105.7618987224034
 72
     1
 10
145.8722860436771
 20
105.7618987224034
 11
145.8722860436771
 21
107.0899572432462
 72
     1
 10
145.8722860436771
 20
107.0899572432462
 11
145.8719860436771
 21
107.0899572432462
 72
     1
 10
145.8719860436771
 20
107.0899572432462
 11
145.8719860436771
 21
107.6486596624766
 72
     1
 10
145.8719860436771
 20
107.6486596624766
 11
145.8722860436771
 21
107.6486596483381
 72
     1
 10
145.8722860436771
 20
107.6486596483381
 11
145.8722860436771
 21
108.1766279473201
 72
     1
 10
145.8722860436771
 20
108.1766279473201
 11
145.8719860436771
 21
108.1766279557779
 72
     1
 10
145.8719860436771
 20
108.1766279557779
 11
145.8719860436771
 21
108.9985514550682
 72
     1
 10
145.8719860436771
 20
108.9985514550682
 11
145.8722860436771
 21
108.9985514552935
 97
        0
 75
     0
 76
     1
 52
0.0
 41
0.5
 77
     0
 78
     1
 53
45.0
 43
0.0
 44
0.0
 45
-1.122532015133644
 46
1.122532015133644
 79
     0
 98
        1
 10
0.0
 20
0.0
  0
DIMENSION
  5
1F6
330
1F
100
AcDbEntity
  8
0
  6
Continuous
 62
     7
370
     0
100
AcDbDimension
  2
*D9
 10
36.8722860437
 20
106.5274031008
 30
0.0
 11
164.1222846812
 21
88.3893441429
 31
0.0
 70
   164
  1
<>
 71
     1
 42
-1.0
  3
SLDDIMSTYLE1
100
AcDbRadialDimension
 15
135.6477096731
 25
90.9256183686
 35
0.0
 40
0.0
  0
DIMENSION
  5
207
330
1F
100
AcDbEntity
  8
0
  6
Continuous
 62
     7
370
     0
100
AcDbDimension
  2
*D10
 10
136.8722860437
 20
141.9274031008
 30
0.0
 11
159.7374091722
 21
141.9274031008
 31
0.0
 70
   160
 71
     2
 42
-1.0
  3
SLDDIMSTYLE2
100
AcDbAlignedDimension
 13
145.8722860437
 23
131.7274031008
 33
0.0
 14
136.8722860437
 24
106.5274031008
 34
0.0
100
AcDbRotatedDimension
  0
DIMENSION
  5
21A
330
1F
100
AcDbEntity
  8
0
  6
Continuous
 62
     7
370
     0
100
AcDbDimension
  2
*D11
 10
133.6433533814
 20
153.9274031008
 30
0.0
 11
167.8722860437
 21
153.9274031008
 31
0.0
 70
   160
  1
<> REF
 71
     2
 42
-1.0
  3
SLDDIMSTYLE3
100
AcDbAlignedDimension
 13
145.8722860437
 23
131.7274031008
 33
0.0
 14
133.6433533814
 24
131.7337619478
 34
0.0
100
AcDbRotatedDimension
  0
MTEXT
  5
22E
330
1F
100
AcDbEntity
  8
0
  6
Continuous
 62
     7
370
     0
100
AcDbMText
 10
139.5767756625
 20
74.542596401
 30
0.0
 40
2.1166666667
 41
0.0
 71
     2
 72
     1
  1
SECTION A-A
  7
SLDTEXTSTYLE0
 73
     1
 44
1.0
  0
OLE2FRAME
  5
22F
330
1F
100
AcDbEntity
  8
0
100
AcDbOle2Frame
 70
     2
  3
Paintbrush Picture
 10
229.0524258301
 20
33.6996297921
 30
0.0
 11
265.1686469208
 21
28.555479607
 31
0.0
 71
     2
 72
     0
 73
     1
 90
     7296
310
80557333EF78ADA16C40002412788DD94040000000000000000041161DC7B292
310
7040002412788DD94040000000000000000041161DC7B2927040F6DD59E9338E
310
3C4000000000000000007333EF78ADA16C40F6DD59E9338E3C40000000000000
310
00000000000001000000000100000100000001000000000001000000001C0000
310
D0CF11E0A1B11AE1000000000000000000000000000000003E000300FEFF0900
310
0600000000000000000000000100000001000000000000000010000002000000
310
01000000FEFFFFFF0000000000000000FFFFFFFFFFFFFFFFFFFFFFFFFFFFFFFF
310
FFFFFFFFFFFFFFFFFFFFFFFFFFFFFFFFFFFFFFFFFFFFFFFFFFFFFFFFFFFFFFFF
310
FFFFFFFFFFFFFFFFFFFFFFFFFFFFFFFFFFFFFFFFFFFFFFFFFFFFFFFFFFFFFFFF
310
FFFFFFFFFFFFFFFFFFFFFFFFFFFFFFFFFFFFFFFFFFFFFFFFFFFFFFFFFFFFFFFF
310
FFFFFFFFFFFFFFFFFFFFFFFFFFFFFFFFFFFFFFFFFFFFFFFFFFFFFFFFFFFFFFFF
310
FFFFFFFFFFFFFFFFFFFFFFFFFFFFFFFFFFFFFFFFFFFFFFFFFFFFFFFFFFFFFFFF
310
FFFFFFFFFFFFFFFFFFFFFFFFFFFFFFFFFFFFFFFFFFFFFFFFFFFFFFFFFFFFFFFF
310
FFFFFFFFFFFFFFFFFFFFFFFFFFFFFFFFFFFFFFFFFFFFFFFFFFFFFFFFFFFFFFFF
310
FFFFFFFFFFFFFFFFFFFFFFFFFFFFFFFFFFFFFFFFFFFFFFFFFFFFFFFFFFFFFFFF
310
FFFFFFFFFFFFFFFFFFFFFFFFFFFFFFFFFFFFFFFFFFFFFFFFFFFFFFFFFFFFFFFF
310
FFFFFFFFFFFFFFFFFFFFFFFFFFFFFFFFFFFFFFFFFFFFFFFFFFFFFFFFFFFFFFFF
310
FFFFFFFFFFFFFFFFFFFFFFFFFFFFFFFFFFFFFFFFFFFFFFFFFFFFFFFFFFFFFFFF
310
FFFFFFFFFFFFFFFFFFFFFFFFFFFFFFFFFFFFFFFFFFFFFFFFFFFFFFFFFFFFFFFF
310
FFFFFFFFFFFFFFFFFFFFFFFFFFFFFFFFFFFFFFFFFFFFFFFFFFFFFFFFFFFFFFFF
310
FDFFFFFFFEFFFFFFFEFFFFFFFEFFFFFF05000000060000000700000008000000
310
090000000A0000000B0000000C000000FEFFFFFFFFFFFFFFFFFFFFFFFFFFFFFF
310
FFFFFFFFFFFFFFFFFFFFFFFFFFFFFFFFFFFFFFFFFFFFFFFFFFFFFFFFFFFFFFFF
310
FFFFFFFFFFFFFFFFFFFFFFFFFFFFFFFFFFFFFFFFFFFFFFFFFFFFFFFFFFFFFFFF
310
FFFFFFFFFFFFFFFFFFFFFFFFFFFFFFFFFFFFFFFFFFFFFFFFFFFFFFFFFFFFFFFF
310
FFFFFFFFFFFFFFFFFFFFFFFFFFFFFFFFFFFFFFFFFFFFFFFFFFFFFFFFFFFFFFFF
310
FFFFFFFFFFFFFFFFFFFFFFFFFFFFFFFFFFFFFFFFFFFFFFFFFFFFFFFFFFFFFFFF
310
FFFFFFFFFFFFFFFFFFFFFFFFFFFFFFFFFFFFFFFFFFFFFFFFFFFFFFFFFFFFFFFF
310
FFFFFFFFFFFFFFFFFFFFFFFFFFFFFFFFFFFFFFFFFFFFFFFFFFFFFFFFFFFFFFFF
310
FFFFFFFFFFFFFFFFFFFFFFFFFFFFFFFFFFFFFFFFFFFFFFFFFFFFFFFFFFFFFFFF
310
FFFFFFFFFFFFFFFFFFFFFFFFFFFFFFFFFFFFFFFFFFFFFFFFFFFFFFFFFFFFFFFF
310
FFFFFFFFFFFFFFFFFFFFFFFFFFFFFFFFFFFFFFFFFFFFFFFFFFFFFFFFFFFFFFFF
310
FFFFFFFFFFFFFFFFFFFFFFFFFFFFFFFFFFFFFFFFFFFFFFFFFFFFFFFFFFFFFFFF
310
FFFFFFFFFFFFFFFFFFFFFFFFFFFFFFFFFFFFFFFFFFFFFFFFFFFFFFFFFFFFFFFF
310
FFFFFFFFFFFFFFFFFFFFFFFFFFFFFFFFFFFFFFFFFFFFFFFFFFFFFFFFFFFFFFFF
310
FFFFFFFFFFFFFFFFFFFFFFFFFFFFFFFFFFFFFFFFFFFFFFFFFFFFFFFFFFFFFFFF
310
52006F006F007400200045006E00740072007900000000000000000000000000
310
0000000000000000000000000000000000000000000000000000000000000000
310
16000500FFFFFFFFFFFFFFFF020000000A00030000000000C000000000000046
310
000000000000000000000000B0BC4BFD3942CC0103000000C000000000000000
310
01004F006C006500000000000000000000000000000000000000000000000000
310
0000000000000000000000000000000000000000000000000000000000000000
310
0A000200FFFFFFFFFFFFFFFFFFFFFFFF00000000000000000000000000000000
310
0000000000000000000000000000000000000000000000001400000000000000
310
010043006F006D0070004F0062006A0000000000000000000000000000000000
310
0000000000000000000000000000000000000000000000000000000000000000
310
120002010100000003000000FFFFFFFF00000000000000000000000000000000
310
0000000000000000000000000000000000000000010000004D00000000000000
310
01004F006C006500310030004E00610074006900760065000000000000000000
310
0000000000000000000000000000000000000000000000000000000000000000
310
1A000200FFFFFFFFFFFFFFFFFFFFFFFF00000000000000000000000000000000
310
000000000000000000000000000000000000000004000000E411000000000000
310
FEFFFFFF02000000FEFFFFFFFFFFFFFFFFFFFFFFFFFFFFFFFFFFFFFFFFFFFFFF
310
FFFFFFFFFFFFFFFFFFFFFFFFFFFFFFFFFFFFFFFFFFFFFFFFFFFFFFFFFFFFFFFF
310
FFFFFFFFFFFFFFFFFFFFFFFFFFFFFFFFFFFFFFFFFFFFFFFFFFFFFFFFFFFFFFFF
310
FFFFFFFFFFFFFFFFFFFFFFFFFFFFFFFFFFFFFFFFFFFFFFFFFFFFFFFFFFFFFFFF
310
FFFFFFFFFFFFFFFFFFFFFFFFFFFFFFFFFFFFFFFFFFFFFFFFFFFFFFFFFFFFFFFF
310
FFFFFFFFFFFFFFFFFFFFFFFFFFFFFFFFFFFFFFFFFFFFFFFFFFFFFFFFFFFFFFFF
310
FFFFFFFFFFFFFFFFFFFFFFFFFFFFFFFFFFFFFFFFFFFFFFFFFFFFFFFFFFFFFFFF
310
FFFFFFFFFFFFFFFFFFFFFFFFFFFFFFFFFFFFFFFFFFFFFFFFFFFFFFFFFFFFFFFF
310
FFFFFFFFFFFFFFFFFFFFFFFFFFFFFFFFFFFFFFFFFFFFFFFFFFFFFFFFFFFFFFFF
310
FFFFFFFFFFFFFFFFFFFFFFFFFFFFFFFFFFFFFFFFFFFFFFFFFFFFFFFFFFFFFFFF
310
FFFFFFFFFFFFFFFFFFFFFFFFFFFFFFFFFFFFFFFFFFFFFFFFFFFFFFFFFFFFFFFF
310
FFFFFFFFFFFFFFFFFFFFFFFFFFFFFFFFFFFFFFFFFFFFFFFFFFFFFFFFFFFFFFFF
310
FFFFFFFFFFFFFFFFFFFFFFFFFFFFFFFFFFFFFFFFFFFFFFFFFFFFFFFFFFFFFFFF
310
FFFFFFFFFFFFFFFFFFFFFFFFFFFFFFFFFFFFFFFFFFFFFFFFFFFFFFFFFFFFFFFF
310
FFFFFFFFFFFFFFFFFFFFFFFFFFFFFFFFFFFFFFFFFFFFFFFFFFFFFFFFFFFFFFFF
310
FFFFFFFFFFFFFFFFFFFFFFFFFFFFFFFFFFFFFFFFFFFFFFFFFFFFFFFFFFFFFFFF
310
0100000200000000000000000000000000000000000000000000000000000000
310
0000000000000000000000000000000000000000000000000000000000000000
310
0100FEFF030A0000FFFFFFFF0A00030000000000C00000000000004607000000
310
5042727573680007000000504272757368000700000050427275736800F439B2
310
7100000000000000000000000000000000000000000000000000000000000000
310
0000000000000000000000000000000000000000000000000000000000000000
310
0000000000000000000000000000000000000000000000000000000000000000
310
0000000000000000000000000000000000000000000000000000000000000000
310
0000000000000000000000000000000000000000000000000000000000000000
310
0000000000000000000000000000000000000000000000000000000000000000
310
0000000000000000000000000000000000000000000000000000000000000000
310
0000000000000000000000000000000000000000000000000000000000000000
310
0000000000000000000000000000000000000000000000000000000000000000
310
0000000000000000000000000000000000000000000000000000000000000000
310
0000000000000000000000000000000000000000000000000000000000000000
310
0000000000000000000000000000000000000000000000000000000000000000
310
E0110000424DDE11000000000000360400002800000096000000170000000100
310
08000000000000000000E7240000E72400000001000000010000000000FF0101
310
01FF020202FF030303FF040404FF050505FF060606FF070707FF080808FF0909
310
09FF0A0A0AFF0B0B0BFF0C0C0CFF0D0D0DFF0E0E0EFF0F0F0FFF101010FF1111
310
11FF121212FF131313FF141414FF151515FF161616FF171717FF181818FF1919
310
19FF1A1A1AFF1B1B1BFF1C1C1CFF1D1D1DFF1E1E1EFF1F1F1FFF202020FF2121
310
21FF222222FF232323FF242424FF252525FF262626FF272727FF282828FF2929
310
29FF2A2A2AFF2B2B2BFF2C2C2CFF2D2D2DFF2E2E2EFF2F2F2FFF303030FF3131
310
31FF323232FF333333FF343434FF353535FF363636FF373737FF383838FF3939
310
39FF3A3A3AFF3B3B3BFF3C3C3CFF3D3D3DFF3E3E3EFF3F3F3FFF404040FF4141
310
41FF424242FF434343FF444444FF454545FF464646FF474747FF484848FF4949
310
49FF4A4A4AFF4B4B4BFF4C4C4CFF4D4D4DFF4E4E4EFF4F4F4FFF505050FF5151
310
51FF525252FF535353FF545454FF555555FF565656FF575757FF585858FF5959
310
59FF5A5A5AFF5B5B5BFF5C5C5CFF5D5D5DFF5E5E5EFF5F5F5FFF606060FF6161
310
61FF626262FF636363FF646464FF656565FF666666FF676767FF686868FF6969
310
69FF6A6A6AFF6B6B6BFF6C6C6CFF6D6D6DFF6E6E6EFF6F6F6FFF707070FF7171
310
71FF727272FF737373FF747474FF757575FF767676FF777777FF787878FF7979
310
79FF7A7A7AFF7B7B7BFF7C7C7CFF7D7D7DFF7E7E7EFF7F7F7FFF808080FF8181
310
81FF828282FF838383FF848484FF858585FF868686FF878787FF888888FF8989
310
89FF8A8A8AFF8B8B8BFF8C8C8CFF8D8D8DFF8E8E8EFF8F8F8FFF909090FF9191
310
91FF929292FF939393FF949494FF959595FF969696FF979797FF989898FF9999
310
99FF9A9A9AFF9B9B9BFF9C9C9CFF9D9D9DFF9E9E9EFF9F9F9FFFA0A0A0FFA1A1
310
A1FFA2A2A2FFA3A3A3FFA4A4A4FFA5A5A5FFA6A6A6FFA7A7A7FFA8A8A8FFA9A9
310
A9FFAAAAAAFFABABABFFACACACFFADADADFFAEAEAEFFAFAFAFFFB0B0B0FFB1B1
310
B1FFB2B2B2FFB3B3B3FFB4B4B4FFB5B5B5FFB6B6B6FFB7B7B7FFB8B8B8FFB9B9
310
B9FFBABABAFFBBBBBBFFBCBCBCFFBDBDBDFFBEBEBEFFBFBFBFFFC0C0C0FFC1C1
310
C1FFC2C2C2FFC3C3C3FFC4C4C4FFC5C5C5FFC6C6C6FFC7C7C7FFC8C8C8FFC9C9
310
C9FFCACACAFFCBCBCBFFCCCCCCFFCDCDCDFFCECECEFFCFCFCFFFD0D0D0FFD1D1
310
D1FFD2D2D2FFD3D3D3FFD4D4D4FFD5D5D5FFD6D6D6FFD7D7D7FFD8D8D8FFD9D9
310
D9FFDADADAFFDBDBDBFFDCDCDCFFDDDDDDFFDEDEDEFFDFDFDFFFE0E0E0FFE1E1
310
E1FFE2E2E2FFE3E3E3FFE4E4E4FFE5E5E5FFE6E6E6FFE7E7E7FFE8E8E8FFE9E9
310
E9FFEAEAEAFFEBEBEBFFECECECFFEDEDEDFFEEEEEEFFEFEFEFFFF0F0F0FFF1F1
310
F1FFF2F2F2FFF3F3F3FFF4F4F4FFF5F5F5FFF6F6F6FFF7F7F7FFF8F8F8FFF9F9
310
F9FFFAFAFAFFFBFBFBFFFCFCFCFFFDFDFDFFFEFEFEFFFFFFFFFFFFFFFFFFFFFF
310
C94E4E4E4F4E4EFFFFFFFFFFC94E4E4E4E4E72FFFFFFFFFFFFFF734E4D4E4E4E
310
C9FFFFFFFFFFAA683516171616265B9BE9FFFFFFFFFF4E4E4E4D4E4EFFFFFFFF
310
FFFFFFFF4E4E4F4E4D4E4E4E4F4E4E4F4D4E4E4E4E4E4D4E4F4E4D4E4E4EAAFF
310
FFFFFFFFFFEA4E4F4F4E4E4E4E4E4D4D4F4F4E4E4E4E4E5B7FAAFFFFFFFFFFFF
310
C9744E1716171616164D8DEAFFFFFFFF0000FFFFFFFFFFFFBA161617161716FF
310
FFFFFFFFB917171616174FFFFFFFFFFFFFFF4E1716161616B9FFFFFFB9341717
310
1716171617171616268CFFFFFFFF161617161617FFFFFFFFFFFFFFB917161717
310
1617167F807F7F7F7F7F7F807F7F807F7F807F7F7F414EFFFFFFFFFFFF8C167F
310
7F807F7F7F7E7F7F807F807F7F807F4E3417258EFFFFEA4E162674AABAEAEBBA
310
AA74341680FFFFFF0000FFFFFFFFFFFFB9171717171617FFFFFFFFFFBB161616
310
16164EFFFFFFFFFFFFFF4E1717171717B9FFFF9C171617171716161616171616
310
171766FFFFFF161717161617FFFFFFFFFFFFFF8E16171717161616FFFFFFFFFF
310
FFFFFFFFFFFFFFFFFFFFFFFFFFAA16D9FFFFFFFFFF3467FFFFFFFFEAFFFFFFFF
310
FFFFFFFFFFFFFFFFFFCA671667EB26278DFFFFFFFFFFFFFFFFFFFF8C2541EAFF
310
0000FFFFFFFFFFFFB9171717171716FFFFFFFFFFBA16171617174EFFFFFFFFFF
310
FFFF4E1717161616BAFF9B1617161616171716171617161616161667FFFF1616
310
16161716FFFFFFFFFFFFFF7F16161617174017FFFFFFFFFFFFFFFFFFFFFFFFFF
310
FFFFFFFFFFFF344E7F7F7F7E7417DAFFFFFFFF80FFFFFFFFFFFFFFFFFFFFFFFF
310
FFFFFF9B163425CAFFFFFFFFFFFFFFFFFFFFFFFFCA2667FF0000FFFFFFFFFFFF
310
BA171717171617FFFFFFFFFFB916171716164EFFFFFFFFFFFFFF4F1716161717
310
B9C91716171616161716161617171616161617168DFF161716161717FFFFFFFF
310
FFFFFF7F17171716164F16FFFFFFFFFFFFFFFFFFFFFFFFFFFFFFFFFFFFFF9B16
310
17161617174EFFFFFFFFFF34FFFFFFFFD9BABABABABADAFFFFFFFFFF7F16AAFF
310
FFFFFFFFFFFFFFFFFFFFFFFFFF9C16BA0000FFFFFFFFFFFFB9161717161717FF
310
FFFFFFFFB917161716174DFFFFFFFFFFFFFF4E1616161616BA4E161617171716
310
419BEAEAAA4E16161617161726E9171717161616FFFFFFFFFFFFFF4F16161717
310
164E16FFFFFFFFFFBAB9B9B9B9B9BABABACAFFFFFFFFFFFFFFFFFFFFFFFFFFFF
310
FFFFBA16FFFFFFFF7F1617161617174DEAFFFFFFEA41FFFFFFFFFFAA4D16174E
310
9BFFFFFFFFFF34730000FFFFFFFFFFFFB9161617171617FFFFFFFFFFBA161616
310
16164EFFFFFFFFFFFFFF4F16161717169B1617161716175BFFFFFFFFFFFF7417
310
16171616168D171717161617FFFFFFFFFFFFEA2616171717167416FFFFFFFFFF
310
16171616171717171717EAFFFFFFFFFFFFFFFFFFFFFFFFFFFFFF6716FFFFFFFF
310
7F4EFFFFFFFFBA2573FFFFFFFFBAFFFFFFFFAA167FB9BB9B269BFFFFFFFF664F
310
0000FFFFFFFFFFFFB9171616161616FFFFFFFFFFBA16161717164EFFFFFFFFFF
310
FFFF4E16161616174E161617171626EAFFFFFFFFFFFFFF4E16161616164E1716
310
16161617FFFFFFFFFFFF671616161716347F16FFFFFFFFFF16B9FFFFFFFFFFFF
310
D9168DFFFFFFFFFFFFFFFFFFFFFFFFFFFFEA1716FFFFFFFF7F4EFFFFFFFFFF7F
310
4EFFFFFFFFFFFFFFFFFF5B66FFFFFFEA347FFFFFFFFF7F4D0000FFFFFFFFFFFF
310
B9171616171617FFFFFFFFFFBA17161716174EFFFFFFFFFFFFFF4D1716161617
310
17161716161673FFFFFFFFFFFFFFFF9B1617161717161616171616174F4E4E4E
310
4E341616171616167E7F16FFFFFFFFFF16BAFFFFFFFFFFFFFF5B41FFFFFFFF34
310
1616171616BAFFFFFF9B1716FFFFFFFF7F4EFFFFFFFFFF4E4EFFFFFFFF734E4E
310
4E4E267EDA9B67164EEAFFFFFFFF744D0000FFFFFFFFFFFFBA171717161617FF
310
FFFFFFFFBA1616171616347F7F7F7F80807F331616161717161717161716B9FF
310
FFFFFFFFFFFFFFE9161616161616171716161716171616161616171616171734
310
EA7F16FFFFFFFFFF16BAFFFFFFFFFFFFFFAA17C9FFFFFF7326BABA5B25FFFFFF
310
FF401716FFFFFFFF7F264F4E4E4E4217AAFFFFFFEA16677F73261616164173CA
310
FFFFFFFFFFFF417F0000FFFFFFFFFFFFBA171616171617FFFFFFFFFFBA161616
310
17171616161616161616161717161616161616161617EAFFFFFFFFFFFFFFFFFF
310
261717161716161617161616161617161617161616174EEAFF8016FFFFFFFFFF
310
17BAFFFFFFFFFFFFFFFF3467FFFFFFC916C9FF3467FFFFFFDA166716FFFFFFFF
310
9C4D4E4E4E4E67AAFFFFFFFF6834FF7F262567AAEAFFFFFFFFFFFFFFFF9B17D9
310
0000FFFFFFFFFFFFB9161616161616FFFFFFFFFFBA1617161717171616161616
310
1716171716161716161617171716FFFFFFFFFFFFFFFFFFFF4E17161716171616
310
1617171616161716171717161616169BFF7F17FFFFFFFFFF17B9FFFFFFFFFFFF
310
FFFF7326FFFFFFFF3473DA16AAFFFFFF7317AA16FFFFFFFFFFFFFFFFFFFFFFFF
310
FFFFEA6725BA4E167FEAFFFFFFFFFFFFFFFFFFFF9C167FFF0000FFFFFFFFFFFF
310
B9161717171716FFFFFFFFFFBA16161716171616171717161617161716161616
310
171617171617EAFFFFFFFFFFFFFFFFFF26161717161616161616161617171616
310
1616161616171616AA8016FFFFFFFFFF16BAFFFFFFFFFFFFFFFFDA179BFFFFFF
310
74348D26FFFFFFFF2566B917FFFFFFFFD8BAB9BAB9BADAFFFFEA41169B7425C9
310
FFFFFFFFFFFFFFFFFFFFAB4F1680FFFF0000FFFFFFFFFFFFBA161717171617FF
310
FFFFFFFFBA17161717161617171617161616161617171616171716171617BBFF
310
FFFFFFFFFFFFFFE9171616161617161617161716FFFFFFFFFFD9671616161617
310
348017FFFFFFFFFF16BAFFFFFFFFFFFFFFFFFF4E5AFFFFFFC916265AFFFFFFAA
310
16AABA16FFFFFFFF7F1617161616179BFFFFEB4127168DFFFFFFFFFFFFFFD99B
310
6734175AC9FFFFFF0000FFFFFFFFFFFFB9161617171617FFFFFFFFFFBB161616
310
1616347F807F7F7F7F8033171716171617171616161672FFFFFFFFFFFFFFFF9C
310
171617171617161716161617FFFFFFFFFFFFFF4117161616174E17FFFFFFFFFF
310
16BAFFFFFFFFFFFFFFFFFF9B16DAFFFFFF34169BFFFFFF5A26FFB917FFFFFFFF
310
7F4EFFFFFFEA5B26FFFFFFEA2616EAFFFFFFFFDA743416331617414E4E4E4ECA
310
0000FFFFFFFFFFFFBA161716161616FFFFFFFFFFBA17171616164EFFFFFFFFFF
310
FFFF4E16161717174E161717171626EBFFFFFFFFFFFFFF4E16161617165B1616
310
16171617FFFFFFFFFFFFFF6716161616161617FFFFFFFFFF16BAFFFFFFFFFFFF
310
FFFFFFEA268CFFFFFF7316EAFFFFEB1774FFB916FFFFFFFF7F4EFFFFFFFF7316
310
FFFFFFFF6826FFFFFFFFEB264D9CEABA257F807F7F6616BA0000FFFFFFFFFFFF
310
BA161716161616FFFFFFFFFFBA16171616164DFFFFFFFFFFFFFF4E1617161617
310
9B1617171717165BEBFFFFFFFFFF671616161617179B171616161616FFFFFFFF
310
FFFFFF3417161617171617FFFFFFFFFF17BAFFFFFFFFFFFFFFFFFFFF6734FFFF
310
FFEBCAFFFFFF8D17C9FFBA17FFFFFFFF7F357F808066174FFFFFFFFF7F16FFFF
310
FFFFD91673B99B415BFFFFFFFFBA16DA00009B7F7F7F807F671617161616167F
310
80807F7E6617161616164EFFFFFFFFFFFFFF4E1616161617B94E171716161616
310
349BC9D9AA4E16171616161634FF161617161717B9B9BAB9BA9B411716171716
310
163416FFFFFFFFFF16B9FFFFFFFFFFFFFFFFFFFFC917CAFFFFFFFFFFFFFF3342
310
FFFFBA17FFFFFFFF9B4E4E4F4E4E66EAFFFFFFFF5B16C9FFFFFFFFAA4E164E73
310
EAFFFFFFFF8D26FF00004E161716161616171617171616171717171617161616
310
17174EFFFFFFFFFFFFFF4E1717171616B9D92616171716171716171717171716
310
16171716AAFF161717171617161617171616161617161716166717FFFFFFFFFF
310
17B9FFFFFFFFFFFFFFFFFFFFFF3467FFFFFFFFFFFFCA168CFFFFBB17FFFFFFFF
310
FFFFFFFFFFFFFFFFFFFFFFEA26265BFFFFFFFFFFFFFFFFFFFFFFFFFFEA3467FF
310
00004D16161616161617161717161617161616171617171616164EFFFFFFFFFF
310
FFFF4D1617161616BAFF9B1616161616161716161616171717161766FFFF1616
310
16171617161617161716171616171717667F16FFFFFFFFFF17BAFFFFFFFFFFFF
310
FFFFFFFFFF8C26EAFFFFFFFFFF6617EAFFFFBA17FFFFFFFFFFFFFFFFFFFFFFFF
310
FFFFEA5A25BA269BFFFFFFFFFFFFFFFFFFFFFFFF6616DAFF00004E1616171616
310
1616161616161716161617171616171616174EFFFFFFFFFFFFFF4D1717171716
310
B9FFFF9C161616161616161716161717171667FFFFFF17161717171716161617
310
1716161616161641E97E16FFFFFFFFFF16B9FFFFFFFFFFFFFFFFFFFFFFEA169B
310
FFFFFFFFEA265BFFFFFFB916FFFFFFFFFFFFFFFFFFFFFFFFFF9B3416AAFF9B17
310
67EAFFFFFFFFFFFFFFFFEA5B169BFFFF00004D17161716161616161717171616
310
161717161716171716174EFFFFFFFFFFFFFF4D1616161616BAFFFFFFBB411616
310
161716161616171634ABFFFFFFFF161716161617171716171617171617267FFF
310
FF7F164E4E4E4E4F17BAFFFFFFFFFFFFFFFFFFFFFFFF66344D4E4E4F4117AAFF
310
FFFFBA174E4E4E4D4E4D4D4E4E4E4E4116174EBBFFFFFFCA342666ABEAFFFFEA
310
AA6725269CFFFFFF0000724F4E4D4D4D4E4D4D4E4E4E4D4E4E4E4E4E4E4E4E4D
310
4E4E74FFFFFFFFFFFFFF734E4E4E4D4ECAFFFFFFFFFFAA663416171717265B9B
310
FFFFFFFFFFFF7F8080807F80807F7F7F7F7F807FBAFFFFFFFF9B4E4E4F4D4D4E
310
4DC9FFFFFFFFFFFFFFFFFFFFFFFFBA4E4E4E4E4D4E4EFFFFFFFFC94E4E4E4F4E
310
4E4E4D4E4E5A807F9CD9FFFFFFFFFFFFFF9B5B2617171716174E8DEAFFFFFFFF
310
0000000000000000000000000000000000000000000000000000000000000000
  1
OLE
  0
ENDSEC
  0
SECTION
  2
OBJECTS
  0
DICTIONARY
  5
C
330
0
100
AcDbDictionary
281
     1
  3
ACAD_GROUP
350
D
  3
ACAD_LAYOUT
350
1A
  3
ACAD_MLINESTYLE
350
17
  3
ACAD_PLOTSETTINGS
350
19
  3
ACAD_PLOTSTYLENAME
350
E
  0
DICTIONARY
  5
D
102
{ACAD_REACTORS
330
C
102
}
330
C
100
AcDbDictionary
281
     1
  0
DICTIONARY
  5
1A
102
{ACAD_REACTORS
330
C
102
}
330
C
100
AcDbDictionary
281
     1
  3
Layout1
350
1E
  3
Layout2
350
26
  3
Model
350
22
  0
DICTIONARY
  5
17
102
{ACAD_REACTORS
330
C
102
}
330
C
100
AcDbDictionary
281
     1
  3
Standard
350
18
  0
DICTIONARY
  5
19
102
{ACAD_REACTORS
330
C
102
}
330
C
100
AcDbDictionary
281
     1
  0
ACDBDICTIONARYWDFLT
  5
E
102
{ACAD_REACTORS
330
C
102
}
330
C
100
AcDbDictionary
281
     1
  3
Normal
350
F
100
AcDbDictionaryWithDefault
340
F
  0
LAYOUT
  5
1E
102
{ACAD_REACTORS
330
1A
102
}
330
1A
100
AcDbPlotSettings
  1

  2
none_device
  4

  6

 40
0.0
 41
0.0
 42
0.0
 43
0.0
 44
0.0
 45
0.0
 46
0.0
 47
0.0
 48
0.0
 49
0.0
140
0.0
141
0.0
142
1.0
143
1.0
 70
   688
 72
     0
 73
     0
 74
     5
  7

 75
    16
147
1.0
148
0.0
149
0.0
100
AcDbLayout
  1
Layout1
 70
     1
 71
     1
 10
0.0
 20
0.0
 11
420.0
 21
297.0
 12
0.0
 22
0.0
 32
0.0
 14
1.0000000000E+20
 24
1.0000000000E+20
 34
1.0000000000E+20
 15
-1.0000000000E+20
 25
-1.0000000000E+20
 35
-1.0000000000E+20
146
0.0
 13
0.0
 23
0.0
 33
0.0
 16
1.0
 26
0.0
 36
0.0
 17
0.0
 27
1.0
 37
0.0
 76
     0
330
1B
  0
LAYOUT
  5
26
102
{ACAD_REACTORS
330
1A
102
}
330
1A
100
AcDbPlotSettings
  1

  2
none_device
  4

  6

 40
0.0
 41
0.0
 42
0.0
 43
0.0
 44
0.0
 45
0.0
 46
0.0
 47
0.0
 48
0.0
 49
0.0
140
0.0
141
0.0
142
1.0
143
1.0
 70
   688
 72
     0
 73
     0
 74
     5
  7

 75
    16
147
1.0
148
0.0
149
0.0
100
AcDbLayout
  1
Layout2
 70
     1
 71
     2
 10
0.0
 20
0.0
 11
0.0
 21
0.0
 12
0.0
 22
0.0
 32
0.0
 14
0.0
 24
0.0
 34
0.0
 15
0.0
 25
0.0
 35
0.0
146
0.0
 13
0.0
 23
0.0
 33
0.0
 16
1.0
 26
0.0
 36
0.0
 17
0.0
 27
1.0
 37
0.0
 76
     0
330
23
  0
LAYOUT
  5
22
102
{ACAD_REACTORS
330
1A
102
}
330
1A
100
AcDbPlotSettings
  1

  2
none_device
  4

  6

 40
0.0
 41
0.0
 42
0.0
 43
0.0
 44
0.0
 45
0.0
 46
0.0
 47
0.0
 48
0.0
 49
0.0
140
0.0
141
0.0
142
1.0
143
1.0
 70
  1712
 72
     0
 73
     0
 74
     0
  7

 75
     0
147
1.0
148
0.0
149
0.0
100
AcDbLayout
  1
Model
 70
     1
 71
     0
 10
0.0
 20
0.0
 11
279.4
 21
215.9
 12
0.0
 22
0.0
 32
0.0
 14
0.0
 24
0.0
 34
0.0
 15
279.4
 25
215.9
 35
0.0
146
0.0
 13
0.0
 23
0.0
 33
0.0
 16
1.0
 26
0.0
 36
0.0
 17
0.0
 27
1.0
 37
0.0
 76
     0
330
1F
331
29
  0
MLINESTYLE
  5
18
102
{ACAD_REACTORS
330
17
102
}
330
17
100
AcDbMlineStyle
  2
Standard
 70
     0
  3

 62
   256
 51
90.0
 52
90.0
 71
     2
 49
0.5
 62
   256
  6
BYLAYER
 49
-0.5
 62
   256
  6
BYLAYER
  0
ACDBPLACEHOLDER
  5
F
102
{ACAD_REACTORS
330
E
102
}
330
E
  0
ENDSEC
  0
EOF
