  0
SECTION
  2
HEADER
  9
$ACADVER
  1
AC1015
  9
$ACADMAINTVER
 70
     6
  9
$DWGCODEPAGE
  3
ANSI_1252
  9
$INSBASE
 10
0.0
 20
0.0
 30
0.0
  9
$EXTMIN
 10
0.0
 20
0.0
 30
0.0
  9
$EXTMAX
 10
279.4
 20
215.9
 30
0.0
  9
$LIMMIN
 10
0.0
 20
0.0
  9
$LIMMAX
 10
279.4
 20
215.9
  9
$ORTHOMODE
 70
     0
  9
$REGENMODE
 70
     1
  9
$FILLMODE
 70
     1
  9
$QTEXTMODE
 70
     0
  9
$MIRRTEXT
 70
     1
  9
$LTSCALE
 40
1.0
  9
$ATTMODE
 70
     1
  9
$TEXTSIZE
 40
2.8222222222
  9
$TRACEWID
 40
1.0
  9
$TEXTSTYLE
  7
Standard
  9
$CLAYER
  8
0
  9
$CELTYPE
  6
ByLayer
  9
$CECOLOR
 62
   256
  9
$CELTSCALE
 40
1.0
  9
$DISPSILH
 70
     0
  9
$DIMSCALE
 40
1.0
  9
$DIMASZ
 40
3.175
  9
$DIMEXO
 40
1.27
  9
$DIMDLI
 40
3.75
  9
$DIMRND
 40
0.0
  9
$DIMDLE
 40
0.0
  9
$DIMEXE
 40
1.778
  9
$DIMTP
 40
0.0
  9
$DIMTM
 40
0.0
  9
$DIMTXT
 40
2.8222222222
  9
$DIMCEN
 40
2.5
  9
$DIMTSZ
 40
0.0
  9
$DIMTOL
 70
     0
  9
$DIMLIM
 70
     0
  9
$DIMTIH
 70
     1
  9
$DIMTOH
 70
     1
  9
$DIMSE1
 70
     0
  9
$DIMSE2
 70
     0
  9
$DIMTAD
 70
     0
  9
$DIMZIN
 70
     1
  9
$DIMBLK
  1

  9
$DIMASO
 70
     1
  9
$DIMSHO
 70
     1
  9
$DIMPOST
  1

  9
$DIMAPOST
  1

  9
$DIMALT
 70
     0
  9
$DIMALTD
 70
     3
  9
$DIMALTF
 40
0.0393700787
  9
$DIMLFAC
 40
1.0
  9
$DIMTOFL
 70
     1
  9
$DIMTVP
 40
0.0
  9
$DIMTIX
 70
     0
  9
$DIMSOXD
 70
     0
  9
$DIMSAH
 70
     0
  9
$DIMBLK1
  1

  9
$DIMBLK2
  1

  9
$DIMSTYLE
  2
ISO-25
  9
$DIMCLRD
 70
     0
  9
$DIMCLRE
 70
     0
  9
$DIMCLRT
 70
     0
  9
$DIMTFAC
 40
1.0
  9
$DIMGAP
 40
2.54
  9
$DIMJUST
 70
     0
  9
$DIMSD1
 70
     0
  9
$DIMSD2
 70
     0
  9
$DIMTOLJ
 70
     0
  9
$DIMTZIN
 70
     1
  9
$DIMALTZ
 70
     0
  9
$DIMALTTZ
 70
     0
  9
$DIMUPT
 70
     0
  9
$DIMDEC
 70
     1
  9
$DIMTDEC
 70
     1
  9
$DIMALTU
 70
     2
  9
$DIMALTTD
 70
     3
  9
$DIMTXSTY
  7
Standard
  9
$DIMAUNIT
 70
     0
  9
$DIMADEC
 70
     0
  9
$DIMALTRND
 40
0.0
  9
$DIMAZIN
 70
     0
  9
$DIMDSEP
 70
    44
  9
$DIMATFIT
 70
     3
  9
$DIMFRAC
 70
     0
  9
$DIMLDRBLK
  1

  9
$DIMLUNIT
 70
     2
  9
$DIMLWD
 70
    -2
  9
$DIMLWE
 70
    -2
  9
$DIMTMOVE
 70
     0
  9
$LUNITS
 70
     2
  9
$LUPREC
 70
     1
  9
$SKETCHINC
 40
1.0
  9
$FILLETRAD
 40
10.0
  9
$AUNITS
 70
     0
  9
$AUPREC
 70
     0
  9
$MENU
  1
.
  9
$ELEVATION
 40
0.0
  9
$PELEVATION
 40
0.0
  9
$THICKNESS
 40
0.0
  9
$LIMCHECK
 70
     0
  9
$CHAMFERA
 40
0.0
  9
$CHAMFERB
 40
0.0
  9
$CHAMFERC
 40
0.0
  9
$CHAMFERD
 40
0.0
  9
$SKPOLY
 70
     0
  9
$TDCREATE
 40
2458470.642193252
  9
$TDUCREATE
 40
2458470.850526586
  9
$TDUPDATE
 40
2458470.642206099
  9
$TDUUPDATE
 40
2458470.850539433
  9
$TDINDWG
 40
0.0000000116
  9
$TDUSRTIMER
 40
0.0000000116
  9
$USRTIMER
 70
     1
  9
$ANGBASE
 50
0.0
  9
$ANGDIR
 70
     0
  9
$PDMODE
 70
     0
  9
$PDSIZE
 40
-1.0
  9
$PLINEWID
 40
0.0
  9
$SPLFRAME
 70
     0
  9
$SPLINETYPE
 70
     6
  9
$SPLINESEGS
 70
     8
  9
$HANDSEED
  5
26B
  9
$SURFTAB1
 70
     6
  9
$SURFTAB2
 70
     6
  9
$SURFTYPE
 70
     6
  9
$SURFU
 70
     6
  9
$SURFV
 70
     6
  9
$UCSBASE
  2

  9
$UCSNAME
  2

  9
$UCSORG
 10
0.0
 20
0.0
 30
0.0
  9
$UCSXDIR
 10
1.0
 20
0.0
 30
0.0
  9
$UCSYDIR
 10
0.0
 20
1.0
 30
0.0
  9
$UCSORTHOREF
  2

  9
$UCSORTHOVIEW
 70
     0
  9
$UCSORGTOP
 10
0.0
 20
0.0
 30
0.0
  9
$UCSORGBOTTOM
 10
0.0
 20
0.0
 30
0.0
  9
$UCSORGLEFT
 10
0.0
 20
0.0
 30
0.0
  9
$UCSORGRIGHT
 10
0.0
 20
0.0
 30
0.0
  9
$UCSORGFRONT
 10
0.0
 20
0.0
 30
0.0
  9
$UCSORGBACK
 10
0.0
 20
0.0
 30
0.0
  9
$PUCSBASE
  2

  9
$PUCSNAME
  2

  9
$PUCSORG
 10
0.0
 20
0.0
 30
0.0
  9
$PUCSXDIR
 10
1.0
 20
0.0
 30
0.0
  9
$PUCSYDIR
 10
0.0
 20
1.0
 30
0.0
  9
$PUCSORTHOREF
  2

  9
$PUCSORTHOVIEW
 70
     0
  9
$PUCSORGTOP
 10
0.0
 20
0.0
 30
0.0
  9
$PUCSORGBOTTOM
 10
0.0
 20
0.0
 30
0.0
  9
$PUCSORGLEFT
 10
0.0
 20
0.0
 30
0.0
  9
$PUCSORGRIGHT
 10
0.0
 20
0.0
 30
0.0
  9
$PUCSORGFRONT
 10
0.0
 20
0.0
 30
0.0
  9
$PUCSORGBACK
 10
0.0
 20
0.0
 30
0.0
  9
$USERI1
 70
     0
  9
$USERI2
 70
     0
  9
$USERI3
 70
     0
  9
$USERI4
 70
     0
  9
$USERI5
 70
     0
  9
$USERR1
 40
0.0
  9
$USERR2
 40
0.0
  9
$USERR3
 40
0.0
  9
$USERR4
 40
0.0
  9
$USERR5
 40
0.0
  9
$WORLDVIEW
 70
     1
  9
$SHADEDGE
 70
     3
  9
$SHADEDIF
 70
    70
  9
$TILEMODE
 70
     1
  9
$MAXACTVP
 70
    64
  9
$PINSBASE
 10
0.0
 20
0.0
 30
0.0
  9
$PLIMCHECK
 70
     0
  9
$PEXTMIN
 10
1.0000000000E+20
 20
1.0000000000E+20
 30
1.0000000000E+20
  9
$PEXTMAX
 10
-1.0000000000E+20
 20
-1.0000000000E+20
 30
-1.0000000000E+20
  9
$PLIMMIN
 10
0.0
 20
0.0
  9
$PLIMMAX
 10
420.0
 20
297.0
  9
$UNITMODE
 70
     0
  9
$VISRETAIN
 70
     1
  9
$PLINEGEN
 70
     0
  9
$PSLTSCALE
 70
     1
  9
$TREEDEPTH
 70
  3020
  9
$CMLSTYLE
  2
Standard
  9
$CMLJUST
 70
     0
  9
$CMLSCALE
 40
20.0
  9
$PROXYGRAPHICS
 70
     1
  9
$MEASUREMENT
 70
     1
  9
$CELWEIGHT
370
    -1
  9
$ENDCAPS
280
     0
  9
$JOINSTYLE
280
     0
  9
$LWDISPLAY
290
     1
  9
$INSUNITS
 70
     4
  9
$HYPERLINKBASE
  1

  9
$STYLESHEET
  1

  9
$XEDIT
290
     1
  9
$CEPSNTYPE
380
     0
  9
$PSTYLEMODE
290
     1
  9
$FINGERPRINTGUID
  2
{4FEC9AD4-BBD0-49AE-BB95-020B9242525E}
  9
$VERSIONGUID
  2
{FAEB1C32-E019-11D5-929B-00C0DF256EC4}
  9
$EXTNAMES
290
     1
  9
$PSVPSCALE
 40
0.0
  9
$OLESTARTUP
290
     0
  0
ENDSEC
  0
SECTION
  2
CLASSES
  0
CLASS
  1
ACDBDICTIONARYWDFLT
  2
AcDbDictionaryWithDefault
  3
ObjectDBX Classes
 90
        0
280
     0
281
     0
  0
CLASS
  1
VISUALSTYLE
  2
AcDbVisualStyle
  3
ObjectDBX Classes
 90
     4095
280
     0
281
     0
  0
CLASS
  1
MATERIAL
  2
AcDbMaterial
  3
ObjectDBX Classes
 90
     1153
280
     0
281
     0
  0
CLASS
  1
SCALE
  2
AcDbScale
  3
ObjectDBX Classes
 90
     1153
280
     0
281
     0
  0
CLASS
  1
TABLESTYLE
  2
AcDbTableStyle
  3
ObjectDBX Classes
 90
     4095
280
     0
281
     0
  0
CLASS
  1
MLEADERSTYLE
  2
AcDbMLeaderStyle
  3
ACDB_MLEADERSTYLE_CLASS
 90
     4095
280
     0
281
     0
  0
CLASS
  1
SUN
  2
AcDbSun
  3
SCENEOE
 90
     1153
280
     0
281
     0
  0
CLASS
  1
ACDBPLACEHOLDER
  2
AcDbPlaceHolder
  3
ObjectDBX Classes
 90
        0
280
     0
281
     0
  0
CLASS
  1
LAYOUT
  2
AcDbLayout
  3
ObjectDBX Classes
 90
        0
280
     0
281
     0
  0
ENDSEC
  0
SECTION
  2
TABLES
  0
TABLE
  2
VPORT
  5
8
330
0
100
AcDbSymbolTable
 70
     1
  0
VPORT
  5
29
330
8
100
AcDbSymbolTableRecord
100
AcDbViewportTableRecord
  2
*Active
 70
     0
 10
0.0
 20
0.0
 11
1.0
 21
1.0
 12
139.7
 22
107.95
 13
0.0
 23
0.0
 14
10.0
 24
10.0
 15
10.0
 25
10.0
 16
0.0
 26
0.0
 36
1.0
 17
0.0
 27
0.0
 37
0.0
 40
215.9
 41
1.2941176471
 42
50.0
 43
0.0
 44
0.0
 50
0.0
 51
0.0
 71
     0
 72
  2000
 73
     1
 74
     3
 75
     0
 76
     0
 77
     0
 78
     0
281
     0
 65
     1
110
0.0
120
0.0
130
0.0
111
1.0
121
0.0
131
0.0
112
0.0
122
1.0
132
0.0
 79
     0
146
0.0
  0
ENDTAB
  0
TABLE
  2
LTYPE
  5
5
330
0
100
AcDbSymbolTable
 70
     6
  0
LTYPE
  5
14
330
5
100
AcDbSymbolTableRecord
100
AcDbLinetypeTableRecord
  2
ByBlock
 70
     0
  3

 72
    65
 73
     0
 40
0.0
  0
LTYPE
  5
15
330
5
100
AcDbSymbolTableRecord
100
AcDbLinetypeTableRecord
  2
ByLayer
 70
     0
  3

 72
    65
 73
     0
 40
0.0
  0
LTYPE
  5
16
330
5
100
AcDbSymbolTableRecord
100
AcDbLinetypeTableRecord
  2
Continuous
 70
     0
  3
Solid line
 72
    65
 73
     0
 40
0.0
  0
LTYPE
  5
6E
330
5
100
AcDbSymbolTableRecord
100
AcDbLinetypeTableRecord
  2
HIDDEN
 70
     0
  3
Hidden __ __ __ __ __ __ __ __ __ __ __ __ __ __
 72
    65
 73
     2
 40
1.905
 49
1.27
 74
     0
 49
-0.635
 74
     0
  0
LTYPE
  5
6F
330
5
100
AcDbSymbolTableRecord
100
AcDbLinetypeTableRecord
  2
PHANTOM
 70
     0
  3
Phantom ______  __  __  ______  __  __  ______
 72
    65
 73
     6
 40
12.7
 49
6.35
 74
     0
 49
-1.27
 74
     0
 49
1.27
 74
     0
 49
-1.27
 74
     0
 49
1.27
 74
     0
 49
-1.27
 74
     0
  0
LTYPE
  5
70
330
5
100
AcDbSymbolTableRecord
100
AcDbLinetypeTableRecord
  2
CENTER
 70
     0
  3
Center ____ _ ____ _ ____ _ ____ _ ____ _ ____
 72
    65
 73
     4
 40
10.16
 49
6.35
 74
     0
 49
-1.27
 74
     0
 49
1.27
 74
     0
 49
-1.27
 74
     0
  0
LTYPE
  5
71
330
5
100
AcDbSymbolTableRecord
100
AcDbLinetypeTableRecord
  2
CENTERX2
 70
     0
  3
Center (2x) ________  __  ________  __  _____
 72
    65
 73
     4
 40
20.32
 49
12.7
 74
     0
 49
-2.54
 74
     0
 49
2.54
 74
     0
 49
-2.54
 74
     0
  0
LTYPE
  5
72
330
5
100
AcDbSymbolTableRecord
100
AcDbLinetypeTableRecord
  2
DOT2
 70
     0
  3
Dot (.5x) ........................................
 72
    65
 73
     2
 40
0.635
 49
0.0
 74
     0
 49
-0.635
 74
     0
  0
ENDTAB
  0
TABLE
  2
LAYER
  5
2
330
0
100
AcDbSymbolTable
 70
     2
  0
LAYER
  5
10
330
2
100
AcDbSymbolTableRecord
100
AcDbLayerTableRecord
  2
0
 70
     0
 62
     7
  6
Continuous
370
    -3
390
F
  0
LAYER
  5
73
330
2
100
AcDbSymbolTableRecord
100
AcDbLayerTableRecord
  2
FORMAT
 70
     0
 62
     7
  6
Continuous
370
    -3
390
F
  0
ENDTAB
  0
TABLE
  2
STYLE
  5
3
330
0
100
AcDbSymbolTable
 70
     5
  0
STYLE
  5
11
330
3
100
AcDbSymbolTableRecord
100
AcDbTextStyleTableRecord
  2
Standard
 70
     0
 40
0.0
 41
1.0
 50
0.0
 71
     0
 42
2.8222222222
  3
txt
  4

  0
STYLE
  5
9D
330
3
100
AcDbSymbolTableRecord
100
AcDbTextStyleTableRecord
  2
SLDTEXTSTYLE0
 70
     0
 40
0.0
 41
0.75
 50
0.0
 71
     0
 42
2.8222222222
  3
TXT
  4

  0
STYLE
  5
A3
330
3
100
AcDbSymbolTableRecord
100
AcDbTextStyleTableRecord
  2
SLDTEXTSTYLE1
 70
     0
 40
0.0
 41
0.75
 50
0.0
 71
     0
 42
2.8222222222
  3
TXT
  4
bigfont
  0
STYLE
  5
B5
330
3
100
AcDbSymbolTableRecord
100
AcDbTextStyleTableRecord
  2
SLDTEXTSTYLE2
 70
     0
 40
0.0
 41
0.7
 50
0.0
 71
     0
 42
2.8222222222
  3
TXT
  4

  0
STYLE
  5
C4
330
3
100
AcDbSymbolTableRecord
100
AcDbTextStyleTableRecord
  2
SLDTEXTSTYLE3
 70
     0
 40
0.0
 41
0.6
 50
0.0
 71
     0
 42
2.8222222222
  3
TXT
  4

  0
ENDTAB
  0
TABLE
  2
VIEW
  5
6
330
0
100
AcDbSymbolTable
 70
     0
  0
ENDTAB
  0
TABLE
  2
UCS
  5
7
330
0
100
AcDbSymbolTable
 70
     0
  0
ENDTAB
  0
TABLE
  2
APPID
  5
9
330
0
100
AcDbSymbolTable
 70
     1
  0
APPID
  5
12
330
9
100
AcDbSymbolTableRecord
100
AcDbRegAppTableRecord
  2
ACAD
 70
     0
  0
ENDTAB
  0
TABLE
  2
DIMSTYLE
  5
A
330
0
100
AcDbSymbolTable
 70
     6
100
AcDbDimStyleTable
  0
DIMSTYLE
105
27
330
A
100
AcDbSymbolTableRecord
100
AcDbDimStyleTableRecord
  2
ISO-25
 70
     0
 41
2.5
 42
0.625
 43
3.75
 44
1.25
 73
     0
 74
     0
 77
     1
 78
     8
140
2.5
141
2.5
143
0.0393700787
147
0.625
171
     3
172
     1
178
     0
271
     2
272
     2
274
     3
278
    44
283
     0
284
     8
340
11
  0
DIMSTYLE
105
F3
102
{ACAD_REACTORS
330
F2
102
}
330
A
100
AcDbSymbolTableRecord
100
AcDbDimStyleTableRecord
  2
SLDDIMSTYLE0
 70
     0
 41
3.175
 44
0.0
 45
0.000000001
 78
    12
 79
     3
140
2.1166666667
141
0.0
143
0.0393700787
147
0.5291666667
148
0.000000001
170
     1
173
     1
178
     0
271
     1
272
     1
276
     2
284
    12
340
9D
  0
DIMSTYLE
105
11A
102
{ACAD_REACTORS
330
119
102
}
330
A
100
AcDbSymbolTableRecord
100
AcDbDimStyleTableRecord
  2
SLDDIMSTYLE1
 70
     0
 41
3.175
 44
0.0
 45
0.000000001
 78
    12
 79
     3
140
2.1166666667
143
0.0393700787
147
0.5291666667
148
0.000000001
170
     1
172
     1
173
     1
178
     0
271
     1
272
     1
276
     2
284
    12
289
     0
340
9D
  0
DIMSTYLE
105
12E
102
{ACAD_REACTORS
330
12D
102
}
330
A
100
AcDbSymbolTableRecord
100
AcDbDimStyleTableRecord
  2
SLDDIMSTYLE2
 70
     0
 41
3.175
 44
0.0
 45
0.000000001
 78
     4
 79
     1
140
2.1166666667
141
0.0
143
0.0393700787
147
0.5291666667
148
0.000000001
170
     1
173
     1
178
     0
271
     1
272
     1
276
     2
284
    12
340
9D
  0
DIMSTYLE
105
13F
102
{ACAD_REACTORS
330
13E
102
}
330
A
100
AcDbSymbolTableRecord
100
AcDbDimStyleTableRecord
  2
SLDDIMSTYLE3
 70
     0
 41
3.175
 44
0.0
 45
0.000000001
 78
     4
 79
     1
140
2.1166666667
143
0.0393700787
147
0.5291666667
148
0.000000001
170
     1
172
     1
173
     1
178
     0
271
     1
272
     1
276
     2
284
    12
289
     0
340
9D
  0
DIMSTYLE
105
155
330
A
100
AcDbSymbolTableRecord
100
AcDbDimStyleTableRecord
  2
SLDDIMSTYLE4
 70
     0
 41
3.175
 44
0.0
 45
0.000000001
146
3.175
147
0.0
173
     1
178
     0
271
     0
272
     0
276
     2
340
11
  0
ENDTAB
  0
TABLE
  2
BLOCK_RECORD
  5
1
330
0
100
AcDbSymbolTable
 70
    11
  0
BLOCK_RECORD
  5
1F
330
1
100
AcDbSymbolTableRecord
100
AcDbBlockTableRecord
  2
*Model_Space
340
22
  0
BLOCK_RECORD
  5
1B
330
1
100
AcDbSymbolTableRecord
100
AcDbBlockTableRecord
  2
*Paper_Space
340
1E
  0
BLOCK_RECORD
  5
23
330
1
100
AcDbSymbolTableRecord
100
AcDbBlockTableRecord
  2
*Paper_Space0
340
26
  0
BLOCK_RECORD
  5
74
330
1
100
AcDbSymbolTableRecord
100
AcDbBlockTableRecord
  2
Third Angle Projection Block
340
0
102
{BLKREFS
331
99
102
}
  0
BLOCK_RECORD
  5
9A
330
1
100
AcDbSymbolTableRecord
100
AcDbBlockTableRecord
  2
SW_NOTE_0
340
0
102
{BLKREFS
331
B8
102
}
  0
BLOCK_RECORD
  5
CA
330
1
100
AcDbSymbolTableRecord
100
AcDbBlockTableRecord
  2
SW_NOTE_1
340
0
102
{BLKREFS
331
CF
102
}
  0
BLOCK_RECORD
  5
D0
330
1
100
AcDbSymbolTableRecord
100
AcDbBlockTableRecord
  2
SW_NOTE_2
340
0
102
{BLKREFS
331
D5
102
}
  0
BLOCK_RECORD
  5
D7
330
1
100
AcDbSymbolTableRecord
100
AcDbBlockTableRecord
  2
SW_NOTE_3
340
0
102
{BLKREFS
331
DC
102
}
  0
BLOCK_RECORD
  5
DD
330
1
100
AcDbSymbolTableRecord
100
AcDbBlockTableRecord
  2
SW_NOTE_4
340
0
102
{BLKREFS
331
E3
102
}
  0
BLOCK_RECORD
  5
F4
330
1
100
AcDbSymbolTableRecord
100
AcDbBlockTableRecord
  2
_D
340
0
  0
BLOCK_RECORD
  5
11B
330
1
100
AcDbSymbolTableRecord
100
AcDbBlockTableRecord
  2
_D_1
340
0
  0
BLOCK_RECORD
  5
12F
330
1
100
AcDbSymbolTableRecord
100
AcDbBlockTableRecord
  2
_D_2
340
0
  0
BLOCK_RECORD
  5
140
330
1
100
AcDbSymbolTableRecord
100
AcDbBlockTableRecord
  2
_D_3
340
0
  0
ENDTAB
  0
ENDSEC
  0
SECTION
  2
BLOCKS
  0
BLOCK
  5
20
330
1F
100
AcDbEntity
  8
0
100
AcDbBlockBegin
  2
*Model_Space
 70
     0
 10
0.0
 20
0.0
 30
0.0
  3
*Model_Space
  1

  0
ENDBLK
  5
21
330
1F
100
AcDbEntity
  8
0
100
AcDbBlockEnd
  0
BLOCK
  5
1C
330
1B
100
AcDbEntity
 67
     1
  8
0
100
AcDbBlockBegin
  2
*Paper_Space
 70
     0
 10
0.0
 20
0.0
 30
0.0
  3
*Paper_Space
  1

  0
ENDBLK
  5
1D
330
1B
100
AcDbEntity
 67
     1
  8
0
100
AcDbBlockEnd
  0
BLOCK
  5
24
330
23
100
AcDbEntity
  8
0
100
AcDbBlockBegin
  2
*Paper_Space0
 70
     0
 10
0.0
 20
0.0
 30
0.0
  3
*Paper_Space0
  1

  0
ENDBLK
  5
25
330
23
100
AcDbEntity
  8
0
100
AcDbBlockEnd
  0
BLOCK
  5
75
330
74
100
AcDbEntity
  8
0
100
AcDbBlockBegin
  2
Third Angle Projection Block
 70
     0
 10
0.0
 20
0.0
 30
0.0
  3
Third Angle Projection Block
  1

  0
CIRCLE
  5
77
330
74
100
AcDbEntity
  8
0
  6
Continuous
 62
     7
370
    35
100
AcDbCircle
 10
101.4766388944
 20
18.9404083667
 30
0.0
 40
1.768227153674871
  0
CIRCLE
  5
78
330
74
100
AcDbEntity
  8
0
  6
Continuous
 62
     7
370
    35
100
AcDbCircle
 10
101.4766388944
 20
18.9404083667
 30
0.0
 40
3.901228248531818
  0
LINE
  5
79
330
74
100
AcDbEntity
  8
0
  6
CENTERX2
 62
     7
370
    18
100
AcDbLine
 10
110.1367822585
 20
18.9404083667
 30
0.0
 11
119.4527334874
 21
18.9404083667
 31
0.0
  0
LINE
  5
7A
330
74
100
AcDbEntity
  8
0
  6
Continuous
 62
     7
370
    35
100
AcDbLine
 10
111.0016388944
 20
20.7086355204
 30
0.0
 11
111.0016388944
 21
17.172181213
 31
0.0
  0
LINE
  5
7B
330
74
100
AcDbEntity
  8
0
  6
Continuous
 62
     7
370
    35
100
AcDbLine
 10
111.0016388944
 20
17.172181213
 30
0.0
 11
118.6216388944
 21
15.1304083667
 31
0.0
  0
LINE
  5
7C
330
74
100
AcDbEntity
  8
0
  6
Continuous
 62
     7
370
    35
100
AcDbLine
 10
118.6216388944
 20
15.1304083667
 30
0.0
 11
118.6216388944
 21
22.7504083667
 31
0.0
  0
LINE
  5
7D
330
74
100
AcDbEntity
  8
0
  6
Continuous
 62
     7
370
    35
100
AcDbLine
 10
118.6216388944
 20
22.7504083667
 30
0.0
 11
111.0016388944
 21
20.7086355204
 31
0.0
  0
LINE
  5
7E
330
74
100
AcDbEntity
  8
0
  6
CENTERX2
 62
     7
370
    18
100
AcDbLine
 10
96.6025854619
 20
18.9404083667
 30
0.0
 11
106.3506923269
 21
18.9404083667
 31
0.0
  0
LINE
  5
7F
330
74
100
AcDbEntity
  8
0
  6
CENTERX2
 62
     7
370
    18
100
AcDbLine
 10
101.4766388944
 20
23.8144617992
 30
0.0
 11
101.4766388944
 21
14.0663549342
 31
0.0
  0
POINT
  5
80
330
74
100
AcDbEntity
  8
0
  6
Continuous
 62
     7
370
     0
100
AcDbPoint
 10
101.4766388944
 20
18.9404083667
 30
0.0
  0
ENDBLK
  5
76
330
74
100
AcDbEntity
  8
0
100
AcDbBlockEnd
  0
BLOCK
  5
9B
330
9A
100
AcDbEntity
  8
0
100
AcDbBlockBegin
  2
SW_NOTE_0
 70
     0
 10
0.0
 20
0.0
 30
0.0
  3
SW_NOTE_0
  1

  0
MTEXT
  5
9E
330
9A
100
AcDbEntity
  8
0
  6
Continuous
 62
     0
370
     0
100
AcDbMText
 10
0.0
 20
3.4106583948
 30
0.0
 40
2.6458333333
 41
0.0
 71
     1
 72
     1
  1
NOTES/SPECIFICATIONS:
  7
SLDTEXTSTYLE0
 73
     1
 44
1.0
  0
MTEXT
  5
9F
330
9A
100
AcDbEntity
  8
0
  6
Continuous
 62
     0
370
     0
100
AcDbMText
 10
9.9999997765
 20
-5.6448974033
 30
0.0
 40
2.6458333333
 41
0.0
 71
     1
 72
     1
  1
CLEAR APERTURE: >
  7
SLDTEXTSTYLE0
 73
     1
 44
1.0
  0
MTEXT
  5
A0
330
9A
100
AcDbEntity
  8
0
  6
Continuous
 62
     0
370
     0
100
AcDbMText
 10
42.7789334208
 20
-5.6448974033
 30
0.0
 40
2.6458333333
 41
0.0
 71
     1
 72
     1
  1
%%c
  7
SLDTEXTSTYLE0
 73
     1
 44
1.0
  0
MTEXT
  5
A1
330
9A
100
AcDbEntity
  8
0
  6
Continuous
 62
     0
370
     0
100
AcDbMText
 10
46.7726718634
 20
-5.6448974033
 30
0.0
 40
2.6458333333
 41
0.0
 71
     1
 72
     1
  1
45.72mm
  7
SLDTEXTSTYLE0
 73
     1
 44
1.0
  0
MTEXT
  5
A2
330
9A
100
AcDbEntity
  8
0
  6
Continuous
 62
     0
370
     0
100
AcDbMText
 10
0.0
 20
-5.6448974033
 30
0.0
 40
2.6458333333
 41
0.0
 71
     1
 72
     1
  1
1.
  7
SLDTEXTSTYLE0
 73
     1
 44
1.0
  0
MTEXT
  5
A4
330
9A
100
AcDbEntity
  8
0
  6
Continuous
 62
     0
370
     0
100
AcDbMText
 10
9.9999997765
 20
-10.1726753024
 30
0.0
 40
2.6458333333
 41
0.0
 71
     1
 72
     1
  1
SURFACE IRREGULARITY (S1): \U+2264\M+183C9/4 AT 633nm OVER CLEAR APERTURE
  7
SLDTEXTSTYLE1
 73
     1
 44
1.0
  0
MTEXT
  5
A5
330
9A
100
AcDbEntity
  8
0
  6
Continuous
 62
     0
370
     0
100
AcDbMText
 10
0.0
 20
-10.1726753024
 30
0.0
 40
2.6458333333
 41
0.0
 71
     1
 72
     1
  1
2.
  7
SLDTEXTSTYLE0
 73
     1
 44
1.0
  0
MTEXT
  5
A6
330
9A
100
AcDbEntity
  8
0
  6
Continuous
 62
     0
370
     0
100
AcDbMText
 10
9.9999997765
 20
-14.7004532014
 30
0.0
 40
2.6458333333
 41
0.0
 71
     1
 72
     1
  1
BACK SURFACE (S2): UNIFORM FINE GRIND #12-#20 GRIT
  7
SLDTEXTSTYLE0
 73
     1
 44
1.0
  0
MTEXT
  5
A7
330
9A
100
AcDbEntity
  8
0
  6
Continuous
 62
     0
370
     0
100
AcDbMText
 10
0.0
 20
-14.7004532014
 30
0.0
 40
2.6458333333
 41
0.0
 71
     1
 72
     1
  1
3.
  7
SLDTEXTSTYLE0
 73
     1
 44
1.0
  0
MTEXT
  5
A8
330
9A
100
AcDbEntity
  8
0
  6
Continuous
 62
     0
370
     0
100
AcDbMText
 10
9.9999997765
 20
-19.2282311005
 30
0.0
 40
2.6458333333
 41
0.0
 71
     1
 72
     1
  1
SURFACE QUALITY(S1): 40-20 SCRATCH-DIG
  7
SLDTEXTSTYLE0
 73
     1
 44
1.0
  0
MTEXT
  5
A9
330
9A
100
AcDbEntity
  8
0
  6
Continuous
 62
     0
370
     0
100
AcDbMText
 10
0.0
 20
-19.2282311005
 30
0.0
 40
2.6458333333
 41
0.0
 71
     1
 72
     1
  1
4.
  7
SLDTEXTSTYLE0
 73
     1
 44
1.0
  0
MTEXT
  5
AA
330
9A
100
AcDbEntity
  8
0
  6
Continuous
 62
     0
370
     0
100
AcDbMText
 10
9.9999997765
 20
-23.7560089995
 30
0.0
 40
2.6458333333
 41
0.0
 71
     1
 72
     1
  1
THICKNESS TOLERANCE:
  7
SLDTEXTSTYLE0
 73
     1
 44
1.0
  0
MTEXT
  5
AB
330
9A
100
AcDbEntity
  8
0
  6
Continuous
 62
     0
370
     0
100
AcDbMText
 10
50.8242268115
 20
-23.7560089995
 30
0.0
 40
2.6458333333
 41
0.0
 71
     1
 72
     1
  1
%%p
  7
SLDTEXTSTYLE0
 73
     1
 44
1.0
  0
MTEXT
  5
AC
330
9A
100
AcDbEntity
  8
0
  6
Continuous
 62
     0
370
     0
100
AcDbMText
 10
53.3465910703
 20
-23.7560089995
 30
0.0
 40
2.6458333333
 41
0.0
 71
     1
 72
     1
  1
0.1 mm
  7
SLDTEXTSTYLE0
 73
     1
 44
1.0
  0
MTEXT
  5
AD
330
9A
100
AcDbEntity
  8
0
  6
Continuous
 62
     0
370
     0
100
AcDbMText
 10
0.0
 20
-23.7560089995
 30
0.0
 40
2.6458333333
 41
0.0
 71
     1
 72
     1
  1
5.
  7
SLDTEXTSTYLE0
 73
     1
 44
1.0
  0
MTEXT
  5
AE
330
9A
100
AcDbEntity
  8
0
  6
Continuous
 62
     0
370
     0
100
AcDbMText
 10
9.9999997765
 20
-28.2837868986
 30
0.0
 40
2.6458333333
 41
0.0
 71
     1
 72
     1
  1
DIAMETER TOLERANCE: +0.0/-0.2 mm
  7
SLDTEXTSTYLE0
 73
     1
 44
1.0
  0
MTEXT
  5
AF
330
9A
100
AcDbEntity
  8
0
  6
Continuous
 62
     0
370
     0
100
AcDbMText
 10
0.0
 20
-28.2837868986
 30
0.0
 40
2.6458333333
 41
0.0
 71
     1
 72
     1
  1
6.
  7
SLDTEXTSTYLE0
 73
     1
 44
1.0
  0
MTEXT
  5
B0
330
9A
100
AcDbEntity
  8
0
  6
Continuous
 62
     0
370
     0
100
AcDbMText
 10
9.9999997765
 20
-32.8115647976
 30
0.0
 40
2.6458333333
 41
0.0
 71
     1
 72
     1
  1
COATING(S1): PROTECTED GOLD
  7
SLDTEXTSTYLE0
 73
     1
 44
1.0
  0
MTEXT
  5
B1
330
9A
100
AcDbEntity
  8
0
  6
Continuous
 62
     0
370
     0
100
AcDbMText
 10
0.0
 20
-32.8115647976
 30
0.0
 40
2.6458333333
 41
0.0
 71
     1
 72
     1
  1
7.
  7
SLDTEXTSTYLE0
 73
     1
 44
1.0
  0
MTEXT
  5
B2
330
9A
100
AcDbEntity
  8
0
  6
Continuous
 62
     0
370
     0
100
AcDbMText
 10
34.9609375
 20
-37.3393426967
 30
0.0
 40
2.6458333333
 41
0.0
 71
     1
 72
     1
  1
Ravg: >96% FROM 800nm-20\M+183CAm
  7
SLDTEXTSTYLE1
 73
     1
 44
1.0
  0
MTEXT
  5
B3
330
9A
100
AcDbEntity
  8
0
  6
Continuous
 62
     0
370
     0
100
AcDbMText
 10
34.9609375
 20
-41.8671205958
 30
0.0
 40
2.6458333333
 41
0.0
 71
     1
 72
     1
  1
AOI: 0
  7
SLDTEXTSTYLE0
 73
     1
 44
1.0
  0
MTEXT
  5
B4
330
9A
100
AcDbEntity
  8
0
  6
Continuous
 62
     0
370
     0
100
AcDbMText
 10
45.2576388791
 20
-41.8671205958
 30
0.0
 40
2.6458333333
 41
0.0
 71
     1
 72
     1
  1
%%d
  7
SLDTEXTSTYLE0
 73
     1
 44
1.0
  0
MTEXT
  5
B6
330
9A
100
AcDbEntity
  8
0
  6
Continuous
 62
     0
370
     0
100
AcDbMText
 10
47.9314009994
 20
-41.8671205958
 30
0.0
 40
2.6458333333
 41
0.0
 71
     1
 72
     1
  1
TO 45
  7
SLDTEXTSTYLE2
 73
     1
 44
1.0
  0
MTEXT
  5
B7
330
9A
100
AcDbEntity
  8
0
  6
Continuous
 62
     0
370
     0
100
AcDbMText
 10
57.3706559092
 20
-41.8671205958
 30
0.0
 40
2.6458333333
 41
0.0
 71
     1
 72
     1
  1
%%d
  7
SLDTEXTSTYLE0
 73
     1
 44
1.0
  0
ENDBLK
  5
9C
330
9A
100
AcDbEntity
  8
0
100
AcDbBlockEnd
  0
BLOCK
  5
CB
330
CA
100
AcDbEntity
  8
0
100
AcDbBlockBegin
  2
SW_NOTE_1
 70
     0
 10
0.0
 20
0.0
 30
0.0
  3
SW_NOTE_1
  1

  0
MTEXT
  5
CD
330
CA
100
AcDbEntity
  8
0
  6
Continuous
 62
     0
370
     0
100
AcDbMText
 10
19.90725
 20
1.9645392354
 30
0.0
 40
1.524
 41
0.0
 71
     2
 72
     1
  1
VALUES IN PARENTHESIS ARE CALCULATED
  7
SLDTEXTSTYLE0
 73
     1
 44
1.0
  0
MTEXT
  5
CE
330
CA
100
AcDbEntity
  8
0
  6
Continuous
 62
     0
370
     0
100
AcDbMText
 10
19.8778795174
 20
-0.5594606586
 30
0.0
 40
1.524
 41
0.0
 71
     2
 72
     1
  1
AND MAY CONTAIN ROUNDOFF ERRORS
  7
SLDTEXTSTYLE0
 73
     1
 44
1.0
  0
ENDBLK
  5
CC
330
CA
100
AcDbEntity
  8
0
100
AcDbBlockEnd
  0
BLOCK
  5
D1
330
D0
100
AcDbEntity
  8
0
100
AcDbBlockBegin
  2
SW_NOTE_2
 70
     0
 10
0.0
 20
0.0
 30
0.0
  3
SW_NOTE_2
  1

  0
MTEXT
  5
D3
330
D0
100
AcDbEntity
  8
0
  6
Continuous
 62
     0
370
     0
100
AcDbMText
 10
0.0
 20
2.7285267159
 30
0.0
 40
2.1166666667
 41
0.0
 71
     1
 72
     1
  1
DRAWING
  7
SLDTEXTSTYLE0
 73
     1
 44
1.0
  0
MTEXT
  5
D4
330
D0
100
AcDbEntity
  8
0
  6
Continuous
 62
     0
370
     0
100
AcDbMText
 10
0.0
 20
-0.0936954723
 30
0.0
 40
2.1166666667
 41
0.0
 71
     1
 72
     1
  1
PROJECTION
  7
SLDTEXTSTYLE0
 73
     1
 44
1.0
  0
ENDBLK
  5
D2
330
D0
100
AcDbEntity
  8
0
100
AcDbBlockEnd
  0
BLOCK
  5
D8
330
D7
100
AcDbEntity
  8
0
100
AcDbBlockBegin
  2
SW_NOTE_3
 70
     0
 10
0.0
 20
0.0
 30
0.0
  3
SW_NOTE_3
  1

  0
MTEXT
  5
DA
330
D7
100
AcDbEntity
  8
0
  6
Continuous
 62
     0
370
     0
100
AcDbMText
 10
25.052734375
 20
4.0927900738
 30
0.0
 40
3.175
 41
0.0
 71
     2
 72
     1
  1
FOR INFORMATION ONLY
  7
SLDTEXTSTYLE0
 73
     1
 44
1.0
  0
MTEXT
  5
DB
330
D7
100
AcDbEntity
  8
0
  6
Continuous
 62
     0
370
     0
100
AcDbMText
 10
25.3768468589
 20
-0.1405432084
 30
0.0
 40
3.175
 41
0.0
 71
     2
 72
     1
  1
NOT FOR MANUFACTURING PURPOSES
  7
SLDTEXTSTYLE0
 73
     1
 44
1.0
  0
ENDBLK
  5
D9
330
D7
100
AcDbEntity
  8
0
100
AcDbBlockEnd
  0
BLOCK
  5
DE
330
DD
100
AcDbEntity
  8
0
100
AcDbBlockBegin
  2
SW_NOTE_4
 70
     0
 10
0.0
 20
0.0
 30
0.0
  3
SW_NOTE_4
  1

  0
MTEXT
  5
E0
330
DD
100
AcDbEntity
  8
0
  6
Continuous
 62
     0
370
     0
100
AcDbMText
 10
1.9016927083
 20
3.4106583948
 30
0.0
 40
2.6458333333
 41
0.0
 71
     2
 72
     1
  1
%%c
  7
SLDTEXTSTYLE0
 73
     1
 44
1.0
  0
MTEXT
  5
E1
330
DD
100
AcDbEntity
  8
0
  6
Continuous
 62
     0
370
     0
100
AcDbMText
 10
28.5917202135
 20
3.4106583948
 30
0.0
 40
2.6458333333
 41
0.0
 71
     2
 72
     1
  1
50.8mm, f=750mm CONCAVE
  7
SLDTEXTSTYLE0
 73
     1
 44
1.0
  0
MTEXT
  5
E2
330
DD
100
AcDbEntity
  8
0
  6
Continuous
 62
     0
370
     0
100
AcDbMText
 10
26.9197624127
 20
-0.1171193403
 30
0.0
 40
2.6458333333
 41
0.0
 71
     2
 72
     1
  1
PROTECTED GOLD MIRROR
  7
SLDTEXTSTYLE0
 73
     1
 44
1.0
  0
ENDBLK
  5
DF
330
DD
100
AcDbEntity
  8
0
100
AcDbBlockEnd
  0
BLOCK
  5
F5
330
F4
100
AcDbEntity
  8
0
100
AcDbBlockBegin
  2
_D
 70
     0
 10
0.0
 20
0.0
 30
0.0
  3
_D
  1

  0
SOLID
  5
F7
330
F4
100
AcDbEntity
  8
0
  6
Continuous
 62
     7
370
    18
100
AcDbTrace
 10
72.8111336807
 20
141.1026828717
 30
0.0
 11
75.4154079558
 21
142.9885366572
 31
0.0
 12
74.6969874661
 22
143.7069571468
 32
0.0
 13
74.6969874661
 23
143.7069571468
 33
0.0
  0
LINE
  5
F8
330
F4
100
AcDbEntity
  8
0
  6
Continuous
 62
     7
370
    18
100
AcDbLine
 10
92.5825823467
 20
154.2058124882
 30
0.0
 11
91.9387628926
 21
154.2058124882
 31
0.0
  0
LINE
  5
F9
330
F4
100
AcDbEntity
  8
0
  6
Continuous
 62
     7
370
    18
100
AcDbLine
 10
91.9387628926
 20
154.2058124882
 30
0.0
 11
91.9387628926
 21
150.8426644117
 31
0.0
  0
LINE
  5
FA
330
F4
100
AcDbEntity
  8
0
  6
Continuous
 62
     7
370
    18
100
AcDbLine
 10
91.9387628926
 20
150.8426644117
 30
0.0
 11
92.5825823467
 21
150.8426644117
 31
0.0
  0
LINE
  5
FB
330
F4
100
AcDbEntity
  8
0
  6
Continuous
 62
     7
370
    18
100
AcDbLine
 10
100.339773893
 20
154.2058124882
 30
0.0
 11
100.9835933471
 21
154.2058124882
 31
0.0
  0
LINE
  5
FC
330
F4
100
AcDbEntity
  8
0
  6
Continuous
 62
     7
370
    18
100
AcDbLine
 10
100.9835933471
 20
154.2058124882
 30
0.0
 11
100.9835933471
 21
150.8426644117
 31
0.0
  0
LINE
  5
FD
330
F4
100
AcDbEntity
  8
0
  6
Continuous
 62
     7
370
    18
100
AcDbLine
 10
100.9835933471
 20
150.8426644117
 30
0.0
 11
100.339773893
 21
150.8426644117
 31
0.0
  0
LINE
  5
FE
330
F4
100
AcDbEntity
  8
0
  6
Continuous
 62
     7
370
    18
100
AcDbLine
 10
72.8111336807
 20
141.1026828717
 30
0.0
 11
87.4849434385
 21
155.7764926295
 31
0.0
  0
LINE
  5
FF
330
F4
100
AcDbEntity
  8
0
  6
Continuous
 62
     7
370
    18
100
AcDbLine
 10
87.4849434385
 20
155.7764926295
 30
0.0
 11
91.2949434385
 21
155.7764926295
 31
0.0
  0
MTEXT
  5
100
330
F4
100
AcDbEntity
  8
0
  6
Continuous
 62
     7
370
    18
100
AcDbMText
 10
91.2949434385
 20
157.3635521347
 30
0.0
 40
2.1166666667
 41
0.0
 71
     1
 72
     1
  1
%%c
  7
SLDTEXTSTYLE0
 73
     1
 44
1.0
  0
MTEXT
  5
101
330
F4
100
AcDbEntity
  8
0
  6
Continuous
 62
     7
370
    18
100
AcDbMText
 10
94.4899342392
 20
157.3635521347
 30
0.0
 40
2.1166666667
 41
0.0
 71
     1
 72
     1
  1
50.8mm
  7
SLDTEXTSTYLE0
 73
     1
 44
1.0
  0
MTEXT
  5
102
330
F4
100
AcDbEntity
  8
0
  6
Continuous
 62
     7
370
    18
100
AcDbMText
 10
92.5825823467
 20
153.5711910112
 30
0.0
 40
2.1166666667
 41
0.0
 71
     1
 72
     1
  1
2.00in
  7
SLDTEXTSTYLE0
 73
     1
 44
1.0
  0
ENDBLK
  5
F6
330
F4
100
AcDbEntity
  8
0
100
AcDbBlockEnd
  0
BLOCK
  5
11C
330
11B
100
AcDbEntity
  8
0
100
AcDbBlockBegin
  2
_D_1
 70
     0
 10
0.0
 20
0.0
 30
0.0
  3
_D_1
  1

  0
SOLID
  5
11E
330
11B
100
AcDbEntity
  8
0
  6
Continuous
 62
     7
370
    18
100
AcDbTrace
 10
135.1738351563
 20
161.0257965431
 30
0.0
 11
131.9990183431
 21
161.5349401401
 31
0.0
 12
131.9986523815
 22
160.518940206
 32
0.0
 13
131.9986523815
 23
160.518940206
 33
0.0
  0
SOLID
  5
11F
330
11B
100
AcDbEntity
  8
0
  6
Continuous
 62
     7
370
    18
100
AcDbTrace
 10
144.3855858398
 20
161.0224784849
 30
0.0
 11
147.560402653
 21
160.5133348878
 31
0.0
 12
147.5607686146
 22
161.5293348219
 32
0.0
 13
147.5607686146
 23
161.5293348219
 33
0.0
  0
LINE
  5
120
330
11B
100
AcDbEntity
  8
0
  6
Continuous
 62
     7
370
    18
100
AcDbLine
 10
157.6685253433
 20
161.0153288438
 30
0.0
 11
157.0247058892
 21
161.0153288438
 31
0.0
  0
LINE
  5
121
330
11B
100
AcDbEntity
  8
0
  6
Continuous
 62
     7
370
    18
100
AcDbLine
 10
157.0247058892
 20
161.0153288438
 30
0.0
 11
157.0247058892
 21
157.6521807674
 31
0.0
  0
LINE
  5
122
330
11B
100
AcDbEntity
  8
0
  6
Continuous
 62
     7
370
    18
100
AcDbLine
 10
157.0247058892
 20
157.6521807674
 30
0.0
 11
157.6685253433
 21
157.6521807674
 31
0.0
  0
LINE
  5
123
330
11B
100
AcDbEntity
  8
0
  6
Continuous
 62
     7
370
    18
100
AcDbLine
 10
165.4257168896
 20
161.0153288438
 30
0.0
 11
166.0695363437
 21
161.0153288438
 31
0.0
  0
LINE
  5
124
330
11B
100
AcDbEntity
  8
0
  6
Continuous
 62
     7
370
    18
100
AcDbLine
 10
166.0695363437
 20
161.0153288438
 30
0.0
 11
166.0695363437
 21
157.6521807674
 31
0.0
  0
LINE
  5
125
330
11B
100
AcDbEntity
  8
0
  6
Continuous
 62
     7
370
    18
100
AcDbLine
 10
166.0695363437
 20
157.6521807674
 30
0.0
 11
165.4257168896
 21
157.6521807674
 31
0.0
  0
LINE
  5
126
330
11B
100
AcDbEntity
  8
0
  6
Continuous
 62
     7
370
    18
100
AcDbLine
 10
135.1697251812
 20
149.6154886054
 30
0.0
 11
135.1744755891
 21
162.8037964277
 31
0.0
  0
LINE
  5
127
330
11B
100
AcDbEntity
  8
0
  6
Continuous
 62
     7
370
    18
100
AcDbLine
 10
144.3814758647
 20
149.6121705472
 30
0.0
 11
144.3862262726
 21
162.8004783695
 31
0.0
  0
LINE
  5
128
330
11B
100
AcDbEntity
  8
0
  6
Continuous
 62
     7
370
    18
100
AcDbLine
 10
135.1738351563
 20
161.0257965431
 30
0.0
 11
128.8238355683
 21
161.028083803
 31
0.0
  0
LINE
  5
129
330
11B
100
AcDbEntity
  8
0
  6
Continuous
 62
     7
370
    18
100
AcDbLine
 10
144.3855858398
 20
161.0224784849
 30
0.0
 11
155.9512633713
 21
161.0183125459
 31
0.0
  0
MTEXT
  5
12A
330
11B
100
AcDbEntity
  8
0
  6
Continuous
 62
     7
370
    18
100
AcDbMText
 10
156.9472907479
 20
164.1730684903
 30
0.0
 40
2.1166666667
 41
0.0
 71
     1
 72
     1
  1
9.2mm
  7
SLDTEXTSTYLE0
 73
     1
 44
1.0
  0
MTEXT
  5
12B
330
11B
100
AcDbEntity
  8
0
  6
Continuous
 62
     7
370
    18
100
AcDbMText
 10
157.6685253433
 20
160.3807073668
 30
0.0
 40
2.1166666667
 41
0.0
 71
     1
 72
     1
  1
0.36in
  7
SLDTEXTSTYLE0
 73
     1
 44
1.0
  0
MTEXT
  5
12C
330
11B
100
AcDbEntity
  8
0
  6
Continuous
 62
     7
370
    18
100
AcDbMText
 10
167.5071053321
 20
164.1730684903
 30
0.0
 40
2.1166666667
 41
0.0
 71
     1
 72
     1
  1
REF
  7
SLDTEXTSTYLE0
 73
     1
 44
1.0
  0
ENDBLK
  5
11D
330
11B
100
AcDbEntity
  8
0
100
AcDbBlockEnd
  0
BLOCK
  5
130
330
12F
100
AcDbEntity
  8
0
100
AcDbBlockBegin
  2
_D_2
 70
     0
 10
0.0
 20
0.0
 30
0.0
  3
_D_2
  1

  0
ARC
  5
132
330
12F
100
AcDbEntity
  8
0
  6
Continuous
 62
     7
370
    18
100
AcDbCircle
 10
-1364.619050411
 20
123.1421706296
 30
0.0
 40
1500.000068823651
100
AcDbArc
 50
358.5476461909
 51
358.9887484921
  0
SOLID
  5
133
330
12F
100
AcDbEntity
  8
0
  6
Continuous
 62
     7
370
    18
100
AcDbTrace
 10
134.9431509316
 20
86.9011610471
 30
0.0
 11
138.1049504908
 21
86.3165992047
 31
0.0
 12
138.1294977335
 22
87.3323026225
 32
0.0
 13
138.1294977335
 23
87.3323026225
 33
0.0
  0
LINE
  5
134
330
12F
100
AcDbEntity
  8
0
  6
Continuous
 62
     7
370
    18
100
AcDbLine
 10
155.5846834634
 20
84.9548203314
 30
0.0
 11
154.9408640093
 21
84.9548203314
 31
0.0
  0
LINE
  5
135
330
12F
100
AcDbEntity
  8
0
  6
Continuous
 62
     7
370
    18
100
AcDbLine
 10
154.9408640093
 20
84.9548203314
 30
0.0
 11
154.9408640093
 21
81.591672255
 31
0.0
  0
LINE
  5
136
330
12F
100
AcDbEntity
  8
0
  6
Continuous
 62
     7
370
    18
100
AcDbLine
 10
154.9408640093
 20
81.591672255
 30
0.0
 11
155.5846834634
 21
81.591672255
 31
0.0
  0
LINE
  5
137
330
12F
100
AcDbEntity
  8
0
  6
Continuous
 62
     7
370
    18
100
AcDbLine
 10
164.9058571164
 20
84.9548203314
 30
0.0
 11
165.5496765705
 21
84.9548203314
 31
0.0
  0
LINE
  5
138
330
12F
100
AcDbEntity
  8
0
  6
Continuous
 62
     7
370
    18
100
AcDbLine
 10
165.5496765705
 20
84.9548203314
 30
0.0
 11
165.5496765705
 21
81.591672255
 31
0.0
  0
LINE
  5
139
330
12F
100
AcDbEntity
  8
0
  6
Continuous
 62
     7
370
    18
100
AcDbLine
 10
165.5496765705
 20
81.591672255
 30
0.0
 11
164.9058571164
 21
81.591672255
 31
0.0
  0
LINE
  5
13A
330
12F
100
AcDbEntity
  8
0
  6
Continuous
 62
     7
370
    18
100
AcDbLine
 10
134.9431509316
 20
86.9011610471
 30
0.0
 11
150.4870445551
 21
86.5255004728
 31
0.0
  0
LINE
  5
13B
330
12F
100
AcDbEntity
  8
0
  6
Continuous
 62
     7
370
    18
100
AcDbLine
 10
150.4870445551
 20
86.5255004728
 30
0.0
 11
154.2970445551
 21
86.5255004728
 31
0.0
  0
MTEXT
  5
13C
330
12F
100
AcDbEntity
  8
0
  6
Continuous
 62
     7
370
    18
100
AcDbMText
 10
154.2970445551
 20
88.1125599779
 30
0.0
 40
2.1166666667
 41
0.0
 71
     1
 72
     1
  1
R1500.0mm
  7
SLDTEXTSTYLE0
 73
     1
 44
1.0
  0
MTEXT
  5
13D
330
12F
100
AcDbEntity
  8
0
  6
Continuous
 62
     7
370
    18
100
AcDbMText
 10
155.5846834634
 20
84.3201988544
 30
0.0
 40
2.1166666667
 41
0.0
 71
     1
 72
     1
  1
59.06in
  7
SLDTEXTSTYLE0
 73
     1
 44
1.0
  0
ENDBLK
  5
131
330
12F
100
AcDbEntity
  8
0
100
AcDbBlockEnd
  0
BLOCK
  5
141
330
140
100
AcDbEntity
  8
0
100
AcDbBlockBegin
  2
_D_3
 70
     0
 10
0.0
 20
0.0
 30
0.0
  3
_D_3
  1

  0
SOLID
  5
143
330
140
100
AcDbEntity
  8
0
  6
Continuous
 62
     7
370
    18
100
AcDbTrace
 10
144.3810184127
 20
151.5891976181
 30
0.0
 11
147.5560184127
 21
151.0811976181
 31
0.0
 12
147.5560184127
 22
152.0971976181
 32
0.0
 13
147.5560184127
 23
152.0971976181
 33
0.0
  0
SOLID
  5
144
330
140
100
AcDbEntity
  8
0
  6
Continuous
 62
     7
370
    18
100
AcDbTrace
 10
135.3810184127
 20
151.5891976181
 30
0.0
 11
132.2060184127
 21
152.0971976181
 31
0.0
 12
132.2060184127
 22
151.0811976181
 32
0.0
 13
132.2060184127
 23
151.0811976181
 33
0.0
  0
LINE
  5
145
330
140
100
AcDbEntity
  8
0
  6
Continuous
 62
     7
370
    18
100
AcDbLine
 10
156.5024224067
 20
151.5891973853
 30
0.0
 11
155.8586029526
 21
151.5891973853
 31
0.0
  0
LINE
  5
146
330
140
100
AcDbEntity
  8
0
  6
Continuous
 62
     7
370
    18
100
AcDbLine
 10
155.8586029526
 20
151.5891973853
 30
0.0
 11
155.8586029526
 21
148.2260493088
 31
0.0
  0
LINE
  5
147
330
140
100
AcDbEntity
  8
0
  6
Continuous
 62
     7
370
    18
100
AcDbLine
 10
155.8586029526
 20
148.2260493088
 30
0.0
 11
156.5024224067
 21
148.2260493088
 31
0.0
  0
LINE
  5
148
330
140
100
AcDbEntity
  8
0
  6
Continuous
 62
     7
370
    18
100
AcDbLine
 10
164.259613953
 20
151.5891973853
 30
0.0
 11
164.9034334071
 21
151.5891973853
 31
0.0
  0
LINE
  5
149
330
140
100
AcDbEntity
  8
0
  6
Continuous
 62
     7
370
    18
100
AcDbLine
 10
164.9034334071
 20
151.5891973853
 30
0.0
 11
164.9034334071
 21
148.2260493088
 31
0.0
  0
LINE
  5
14A
330
140
100
AcDbEntity
  8
0
  6
Continuous
 62
     7
370
    18
100
AcDbLine
 10
164.9034334071
 20
148.2260493088
 30
0.0
 11
164.259613953
 21
148.2260493088
 31
0.0
  0
LINE
  5
14B
330
140
100
AcDbEntity
  8
0
  6
Continuous
 62
     7
370
    18
100
AcDbLine
 10
144.3810184127
 20
149.6121706296
 30
0.0
 11
144.3810184127
 21
153.3671976181
 31
0.0
  0
LINE
  5
14C
330
140
100
AcDbEntity
  8
0
  6
Continuous
 62
     7
370
    18
100
AcDbLine
 10
135.3810184127
 20
124.4121706296
 30
0.0
 11
135.3810184127
 21
153.3671976181
 31
0.0
  0
LINE
  5
14D
330
140
100
AcDbEntity
  8
0
  6
Continuous
 62
     7
370
    18
100
AcDbLine
 10
144.3810184127
 20
151.5891976181
 30
0.0
 11
153.2250987304
 21
151.5891976181
 31
0.0
  0
LINE
  5
14E
330
140
100
AcDbEntity
  8
0
  6
Continuous
 62
     7
370
    18
100
AcDbLine
 10
135.3810184127
 20
151.5891976181
 30
0.0
 11
129.0310184127
 21
151.5891976181
 31
0.0
  0
MTEXT
  5
14F
330
140
100
AcDbEntity
  8
0
  6
Continuous
 62
     7
370
    18
100
AcDbMText
 10
155.2422217941
 20
154.7469370317
 30
0.0
 40
2.1166666667
 41
0.0
 71
     1
 72
     1
  1

  7
SLDTEXTSTYLE0
 73
     1
 44
1.0
  0
MTEXT
  5
150
330
140
100
AcDbEntity
  8
0
  6
Continuous
 62
     7
370
    18
100
AcDbMText
 10
155.7811878113
 20
154.7469370317
 30
0.0
 40
2.1166666667
 41
0.0
 71
     1
 72
     1
  1
9.0mm
  7
SLDTEXTSTYLE0
 73
     1
 44
1.0
  0
MTEXT
  5
151
330
140
100
AcDbEntity
  8
0
  6
Continuous
 62
     7
370
    18
100
AcDbMText
 10
156.5024224067
 20
150.9545759083
 30
0.0
 40
2.1166666667
 41
0.0
 71
     1
 72
     1
  1
0.35in
  7
SLDTEXTSTYLE0
 73
     1
 44
1.0
  0
MTEXT
  5
152
330
140
100
AcDbEntity
  8
0
  6
Continuous
 62
     7
370
    18
100
AcDbMText
 10
167.1347528612
 20
154.7469370317
 30
0.0
 40
2.1166666667
 41
0.0
 71
     1
 72
     1
  1

  7
SLDTEXTSTYLE0
 73
     1
 44
1.0
  0
ENDBLK
  5
142
330
140
100
AcDbEntity
  8
0
100
AcDbBlockEnd
  0
ENDSEC
  0
SECTION
  2
ENTITIES
  0
LINE
  5
81
330
1F
100
AcDbEntity
  8
0
  6
Continuous
 62
     7
370
    18
100
AcDbLine
 10
1.5793501011
 20
214.6453799966
 30
0.0
 11
277.9892068491
 21
214.6453799966
 31
0.0
  0
LINE
  5
82
330
1F
100
AcDbEntity
  8
0
  6
Continuous
 62
     7
370
    18
100
AcDbLine
 10
1.5793501011
 20
214.6453799966
 30
0.0
 11
1.5793501011
 21
0.9031642596
 31
0.0
  0
LINE
  5
83
330
1F
100
AcDbEntity
  8
0
  6
Continuous
 62
     7
370
    18
100
AcDbLine
 10
277.9892068491
 20
0.9031642596
 30
0.0
 11
1.5793501011
 21
0.9031642596
 31
0.0
  0
LINE
  5
84
330
1F
100
AcDbEntity
  8
0
  6
Continuous
 62
     7
370
    18
100
AcDbLine
 10
277.9892068491
 20
0.9031642596
 30
0.0
 11
277.9892068491
 21
214.6453799966
 31
0.0
  0
LINE
  5
85
330
1F
100
AcDbEntity
  8
0
  6
Continuous
 62
     7
370
    18
100
AcDbLine
 10
215.7427640041
 20
12.2958890132
 30
0.0
 11
171.6327596684
 21
12.2958890132
 31
0.0
  0
LINE
  5
86
330
1F
100
AcDbEntity
  8
0
  6
Continuous
 62
     7
370
    18
100
AcDbLine
 10
171.6327596684
 20
12.2958890132
 30
0.0
 11
171.6327596684
 21
26.1661402506
 31
0.0
  0
LINE
  5
87
330
1F
100
AcDbEntity
  8
0
  6
Continuous
 62
     7
370
    18
100
AcDbLine
 10
171.6327596684
 20
0.9031642596
 30
0.0
 11
171.6327596684
 21
26.1661402506
 31
0.0
  0
LINE
  5
88
330
1F
100
AcDbEntity
  8
0
  6
Continuous
 62
     7
370
    18
100
AcDbLine
 10
215.7427640041
 20
17.1604579552
 30
0.0
 11
277.9892068491
 21
17.1604579552
 31
0.0
  0
LINE
  5
89
330
1F
100
AcDbEntity
  8
0
  6
Continuous
 62
     7
370
    18
100
AcDbLine
 10
215.7427640041
 20
35.2394508358
 30
0.0
 11
215.7427640041
 21
0.9031642596
 31
0.0
  0
LINE
  5
8A
330
1F
100
AcDbEntity
  8
0
  6
Continuous
 62
     7
370
    18
100
AcDbLine
 10
215.7427640041
 20
26.1661402506
 30
0.0
 11
171.6327596684
 21
26.1661402506
 31
0.0
  0
LINE
  5
8B
330
1F
100
AcDbEntity
  8
0
  6
Continuous
 62
     7
370
    18
100
AcDbLine
 10
215.7427640041
 20
9.1409200612
 30
0.0
 11
277.9892068491
 21
9.1409200612
 31
0.0
  0
LINE
  5
8C
330
1F
100
AcDbEntity
  8
0
  6
Continuous
 62
     7
370
    18
100
AcDbLine
 10
215.7427640041
 20
16.9216824031
 30
0.0
 11
171.6327596684
 21
16.9216824031
 31
0.0
  0
LINE
  5
8D
330
1F
100
AcDbEntity
  8
0
  6
Continuous
 62
     7
370
    18
100
AcDbLine
 10
215.7427640041
 20
21.4874005542
 30
0.0
 11
171.6327596684
 21
21.4874005542
 31
0.0
  0
LINE
  5
8E
330
1F
100
AcDbEntity
  8
0
  6
Continuous
 62
     7
370
    18
100
AcDbLine
 10
186.1338100705
 20
26.1661402506
 30
0.0
 11
186.1338100705
 21
12.2958890132
 31
0.0
  0
LINE
  5
8F
330
1F
100
AcDbEntity
  8
0
  6
Continuous
 62
     7
370
    18
100
AcDbLine
 10
198.2145906188
 20
26.1661402506
 30
0.0
 11
198.2145906188
 21
12.2958890132
 31
0.0
  0
LINE
  5
90
330
1F
100
AcDbEntity
  8
0
  6
Continuous
 62
     7
370
    18
100
AcDbLine
 10
253.7490408369
 20
9.1409200612
 30
0.0
 11
253.7490408369
 21
0.9031642596
 31
0.0
  0
LINE
  5
91
330
1F
100
AcDbEntity
  8
0
  6
Continuous
 62
     7
370
    18
100
AcDbLine
 10
171.6327596684
 20
12.2958890132
 30
0.0
 11
171.6327596684
 21
7.5627342528
 31
0.0
  0
LINE
  5
92
330
1F
100
AcDbEntity
  8
0
  6
Continuous
 62
     7
370
    18
100
AcDbLine
 10
171.6327596684
 20
7.5627342528
 30
0.0
 11
215.7427640041
 21
7.5627342528
 31
0.0
  0
LINE
  5
93
330
1F
100
AcDbEntity
  8
0
  6
Continuous
 62
     7
370
    18
100
AcDbLine
 10
171.6327596684
 20
7.5627342528
 30
0.0
 11
171.6327596684
 21
35.2394508358
 31
0.0
  0
LINE
  5
94
330
1F
100
AcDbEntity
  8
0
  6
Continuous
 62
     7
370
    18
100
AcDbLine
 10
171.6327596684
 20
35.2394508358
 30
0.0
 11
215.7427640041
 21
35.2394508358
 31
0.0
  0
LINE
  5
95
330
1F
100
AcDbEntity
  8
0
  6
Continuous
 62
     7
370
    18
100
AcDbLine
 10
270.1683598194
 20
17.1604579552
 30
0.0
 11
270.1683598194
 21
9.1409200612
 31
0.0
  0
LINE
  5
96
330
1F
100
AcDbEntity
  8
0
  6
Continuous
 62
     7
370
    18
100
AcDbLine
 10
215.7427640041
 20
35.2394508358
 30
0.0
 11
277.9892068491
 21
35.2394508358
 31
0.0
  0
LINE
  5
97
330
1F
100
AcDbEntity
  8
0
  6
Continuous
 62
     7
370
    18
100
AcDbLine
 10
277.9892068491
 20
35.2394508358
 30
0.0
 11
277.9892068491
 21
50.0331356147
 31
0.0
  0
LINE
  5
98
330
1F
100
AcDbEntity
  8
0
  6
Continuous
 62
     7
370
    18
100
AcDbLine
 10
215.7427640041
 20
24.8927335446
 30
0.0
 11
277.9892068491
 21
24.8927335446
 31
0.0
  0
INSERT
  5
99
330
1F
100
AcDbEntity
  8
0
  6
Continuous
 62
     7
100
AcDbBlockReference
  2
Third Angle Projection Block
 10
117.7262204235
 20
15.5162339489
 30
0.0
 41
0.8
 42
0.8
 43
0.8
  0
INSERT
  5
B8
330
1F
100
AcDbEntity
  8
0
  6
Continuous
 62
     7
370
     0
100
AcDbBlockReference
  2
SW_NOTE_0
 10
24.5153000349
 20
66.9211694365
 30
0.0
  0
MTEXT
  5
B9
330
1F
100
AcDbEntity
  8
0
  6
Continuous
 62
     7
370
     0
100
AcDbMText
 10
274.1458225539
 20
13.2559386876
 30
0.0
 40
3.175
 41
0.0
 71
     2
 72
     1
  1
A
  7
SLDTEXTSTYLE0
 73
     1
 44
1.0
  0
MTEXT
  5
BA
330
1F
100
AcDbEntity
  8
0
  6
Continuous
 62
     7
370
     0
100
AcDbMText
 10
234.4866908944
 20
5.1306563898
 30
0.0
 40
3.175
 41
0.0
 71
     2
 72
     1
  1
CM508-750-M01
  7
SLDTEXTSTYLE0
 73
     1
 44
1.0
  0
MTEXT
  5
BB
330
1F
100
AcDbEntity
  8
0
  6
Continuous
 62
     7
370
     0
100
AcDbMText
 10
216.4199766059
 20
16.8243178599
 30
0.0
 40
2.1166666667
 41
0.0
 71
     1
 72
     1
  1
MATERIAL
  7
SLDTEXTSTYLE0
 73
     1
 44
1.0
  0
MTEXT
  5
BC
330
1F
100
AcDbEntity
  8
0
  6
Continuous
 62
     7
370
     0
100
AcDbMText
 10
174.230946566
 20
20.054553926
 30
0.0
 40
1.8520833333
 41
0.0
 71
     1
 72
     1
  1
DRAWN
  7
SLDTEXTSTYLE0
 73
     1
 44
1.0
  0
MTEXT
  5
BD
330
1F
100
AcDbEntity
  8
0
  6
Continuous
 62
     7
370
     0
100
AcDbMText
 10
172.3960124543
 20
15.5787169747
 30
0.0
 40
1.8520833333
 41
0.0
 71
     1
 72
     1
  1
APPROVAL
  7
SLDTEXTSTYLE0
 73
     1
 44
1.0
  0
MTEXT
  5
BE
330
1F
100
AcDbEntity
  8
0
  6
Continuous
 62
     7
370
     0
100
AcDbMText
 10
271.7160653675
 20
16.1671746307
 30
0.0
 40
2.1166666667
 41
0.0
 71
     1
 72
     1
  1
REV
  7
SLDTEXTSTYLE0
 73
     1
 44
1.0
  0
MTEXT
  5
BF
330
1F
100
AcDbEntity
  8
0
  6
Continuous
 62
     7
370
     0
100
AcDbMText
 10
190.2958696448
 20
20.3177146903
 30
0.0
 40
2.1166666667
 41
0.0
 71
     1
 72
     1
  1
YB
  7
SLDTEXTSTYLE0
 73
     1
 44
1.0
  0
MTEXT
  5
C0
330
1F
100
AcDbEntity
  8
0
  6
Continuous
 62
     7
370
     0
100
AcDbMText
 10
190.2958696448
 20
15.841877739
 30
0.0
 40
2.1166666667
 41
0.0
 71
     1
 72
     1
  1
DD
  7
SLDTEXTSTYLE0
 73
     1
 44
1.0
  0
MTEXT
  5
C1
330
1F
100
AcDbEntity
  8
0
  6
Continuous
 62
     7
370
     0
100
AcDbMText
 10
199.8662436873
 20
20.3177146903
 30
0.0
 40
2.1166666667
 41
0.0
 71
     1
 72
     1
  1
16/APR/18
  7
SLDTEXTSTYLE0
 73
     1
 44
1.0
  0
MTEXT
  5
C2
330
1F
100
AcDbEntity
  8
0
  6
Continuous
 62
     7
370
     0
100
AcDbMText
 10
203.6145073853
 20
24.8221395769
 30
0.0
 40
2.1166666667
 41
0.0
 71
     1
 72
     1
  1
DATE
  7
SLDTEXTSTYLE0
 73
     1
 44
1.0
  0
MTEXT
  5
C3
330
1F
100
AcDbEntity
  8
0
  6
Continuous
 62
     7
370
     0
100
AcDbMText
 10
199.8662436873
 20
15.841877739
 30
0.0
 40
2.1166666667
 41
0.0
 71
     1
 72
     1
  1
16/APR/18
  7
SLDTEXTSTYLE0
 73
     1
 44
1.0
  0
MTEXT
  5
C5
330
1F
100
AcDbEntity
  8
0
  6
Continuous
 62
     7
370
     0
100
AcDbMText
 10
229.402906477
 20
27.7957480569
 30
0.0
 40
2.1166666667
 41
0.0
 71
     1
 72
     1
  1
w w w . t h o r  l a b s . c o m
  7
SLDTEXTSTYLE3
 73
     1
 44
1.0
  0
MTEXT
  5
C6
330
1F
100
AcDbEntity
  8
0
  6
Continuous
 62
     7
370
     0
100
AcDbMText
 10
216.7004035316
 20
8.3494791871
 30
0.0
 40
2.1166666667
 41
0.0
 71
     1
 72
     1
  1
ITEM #
  7
SLDTEXTSTYLE0
 73
     1
 44
1.0
  0
MTEXT
  5
C7
330
1F
100
AcDbEntity
  8
0
  6
Continuous
 62
     7
370
     0
100
AcDbMText
 10
254.5318000914
 20
8.3494791871
 30
0.0
 40
2.1166666667
 41
0.0
 71
     1
 72
     1
  1
APPROX WEIGHT
  7
SLDTEXTSTYLE0
 73
     1
 44
1.0
  0
MTEXT
  5
C8
330
1F
100
AcDbEntity
  8
0
  6
Continuous
 62
     7
370
     0
100
AcDbMText
 10
243.5159064132
 20
13.8247651814
 30
0.0
 40
3.175
 41
0.0
 71
     2
 72
     1
  1
N-BK7
  7
SLDTEXTSTYLE0
 73
     1
 44
1.0
  0
MTEXT
  5
C9
330
1F
100
AcDbEntity
  8
0
  6
Continuous
 62
     7
370
     0
100
AcDbMText
 10
266.1553537756
 20
5.1306563898
 30
0.0
 40
3.175
 41
0.0
 71
     2
 72
     1
  1
46.33 g
  7
SLDTEXTSTYLE0
 73
     1
 44
1.0
  0
INSERT
  5
CF
330
1F
100
AcDbEntity
  8
0
  6
Continuous
 62
     7
370
     0
100
AcDbBlockReference
  2
SW_NOTE_1
 10
174.8430140051
 20
4.4558554801
 30
0.0
  0
INSERT
  5
D5
330
1F
100
AcDbEntity
  8
0
  6
Continuous
 62
     7
370
     0
100
AcDbBlockReference
  2
SW_NOTE_2
 10
174.5483650337
 20
30.4835322715
 30
0.0
  0
MTEXT
  5
D6
330
1F
100
AcDbEntity
  8
0
  6
Continuous
 62
     7
370
     0
100
AcDbMText
 10
187.9273588276
 20
24.8221395769
 30
0.0
 40
2.1166666667
 41
0.0
 71
     1
 72
     1
  1
NAME
  7
SLDTEXTSTYLE0
 73
     1
 44
1.0
  0
INSERT
  5
DC
330
1F
100
AcDbEntity
  8
0
  6
Continuous
 62
     7
370
     0
100
AcDbBlockReference
  2
SW_NOTE_3
 10
58.6204667508
 20
8.1776609732
 30
0.0
  0
INSERT
  5
E3
330
1F
100
AcDbEntity
  8
0
  6
Continuous
 62
     7
370
     0
100
AcDbBlockReference
  2
SW_NOTE_4
 10
220.0050186217
 20
20.7222222066
 30
0.0
  0
MTEXT
  5
E4
330
1F
100
AcDbEntity
  8
0
  6
Continuous
 62
     7
370
     0
100
AcDbMText
 10
177.6925831922
 20
10.7142101515
 30
0.0
 40
1.5875
 41
0.0
 71
     1
 72
     1
  1
COPYRIGHT © 2018 BY THORLABS
  7
SLDTEXTSTYLE0
 73
     1
 44
1.0
  0
LINE
  5
E5
330
1F
100
AcDbEntity
  8
0
  6
Continuous
 62
     7
370
    18
100
AcDbLine
 10
232.7055655404
 20
193.9432975387
 30
0.0
 11
232.7055655404
 21
193.782724806
 31
0.0
  0
LINE
  5
E6
330
1F
100
AcDbEntity
  8
0
  6
Continuous
 62
     7
370
    18
100
AcDbLine
 10
250.524106163
 20
162.9167627397
 30
0.0
 11
250.6631586942
 21
162.8364633245
 31
0.0
  0
LINE
  5
E7
330
1F
100
AcDbEntity
  8
0
  6
Continuous
 62
     7
370
    18
100
AcDbLine
 10
263.365045687
 20
161.5772734142
 30
0.0
 11
269.5982405709
 21
165.1756202276
 31
0.0
  0
LINE
  5
E8
330
1F
100
AcDbEntity
  8
0
  6
Continuous
 62
     7
370
    18
100
AcDbLine
 10
244.2003047619
 20
209.1709024366
 30
0.0
 11
237.9671098781
 21
205.5725556231
 31
0.0
  0
LINE
  5
E9
330
1F
100
AcDbEntity
  8
0
  6
Continuous
 62
     7
370
    18
100
AcDbLine
 10
274.8597849086
 20
176.804878312
 30
0.0
 11
274.8597849086
 21
176.9681599343
 31
0.0
  0
LINE
  5
EA
330
1F
100
AcDbEntity
  8
0
  6
Continuous
 62
     7
370
    18
100
AcDbLine
 10
257.0435901261
 20
207.8300584461
 30
0.0
 11
256.9021917548
 21
207.9117125262
 31
0.0
  0
LWPOLYLINE
  5
EB
330
1F
100
AcDbEntity
  8
0
  6
Continuous
 62
     7
370
    18
100
AcDbPolyline
 90
      168
 70
   128
 43
0.0
 10
268.3484397551
 20
173.2065314985
 10
268.3358276295
 20
173.9879113968
 10
268.2980091035
 20
174.7827469897
 10
268.2350377051
 20
175.5899132761
 10
268.1470025633
 20
176.4082678025
 10
268.0340282819
 20
177.2366522796
 10
267.8962747635
 20
178.0738942217
 10
267.7339369826
 20
178.9188086065
 10
267.5472447104
 20
179.7701995522
 10
267.3364621888
 20
180.6268620101
 10
267.101887757
 20
181.4875834703
 10
266.8438534287
 20
182.3511456778
 10
266.5627244228
 20
183.2163263568
 10
266.2588986459
 20
184.081900941
 10
265.9328061294
 20
184.9466443061
 10
265.5849084209
 20
185.8093325048
 10
265.2156979305
 20
186.6687444983
 10
264.8256972345
 20
187.5236638851
 10
264.4154583353
 20
188.3728806223
 10
263.9855618801
 20
189.2151927387
 10
263.5366163394
 20
190.0494080356
 10
263.0692571452
 20
190.8743457745
 10
262.5841457923
 20
191.6888383484
 10
262.0819689016
 20
192.4917329341
 10
261.5634372482
 20
193.281893124
 10
261.0292847559
 20
194.0582005349
 10
260.4802674576
 20
194.8195563902
 10
259.917162426
 20
195.5648830761
 10
259.3407666733
 20
196.2931256659
 10
258.7518960232
 20
197.0032534136
 10
258.1513839562
 20
197.6942612128
 10
257.5400804301
 20
198.3651710194
 10
256.9188506767
 20
199.0150332353
 10
256.2885739771
 20
199.6429280535
 10
255.6501424176
 20
200.2479667589
 10
255.0044596266
 20
200.8292929869
 10
254.352439496
 20
201.3860839353
 10
253.6950048872
 20
201.9175515287
 10
253.0330863256
 20
202.4229435342
 10
252.3676206828
 20
202.901544626
 10
251.699549851
 20
203.3526773976
 10
251.0298194097
 20
203.7757033211
 10
250.3593772875
 20
204.1700236507
 10
249.6891724203
 20
204.5350802699
 10
249.020153408
 20
204.870356482
 10
248.3532671724
 20
205.175377741
 10
247.6894576163
 20
205.4497123233
 10
247.0296642878
 20
205.6929719392
 10
246.3748210507
 20
205.9048122817
 10
245.7258547623
 20
206.0849335145
 10
245.0836839619
 20
206.2330806963
 10
244.4492175704
 20
206.3490441412
 10
243.823353604
 20
206.432659716
 10
243.2069779033
 20
206.4838090721
 10
242.6009628789
 20
206.5024198133
 10
242.0061662776
 20
206.4884655983
 10
241.4234299673
 20
206.4419661777
 10
240.8535787461
 20
206.3629873661
 10
240.2974191748
 20
206.2516409493
 10
239.7557384349
 20
206.1080845257
 10
239.229303215
 20
205.9325212833
 10
238.7188586254
 20
205.7251997123
 10
238.2251271431
 20
205.4864132532
 10
237.74880759
 20
205.2164998815
 10
237.2905741431
 20
204.9158416293
 10
236.8510753805
 20
204.5848640449
 10
236.4309333638
 20
204.22403559
 10
236.0307427568
 20
203.833866977
 10
235.6510699846
 20
203.4149104457
 10
235.2924524317
 20
202.9677589825
 10
234.9553976809
 20
202.4930454801
 10
234.6403827958
 20
201.9914418425
 10
234.3478536445
 20
201.4636580336
 10
234.0782242694
 20
200.9104410721
 10
233.8318763008
 20
200.3325739751
 10
233.6091584165
 20
199.7308746485
 10
233.410385849
 20
199.1061947307
 10
233.2358399384
 20
198.4594183861
 10
233.0857677352
 20
197.7914610544
 10
232.9603816495
 20
197.1032681545
 10
232.8598591516
 20
196.3958137464
 10
232.7843425196
 20
195.6700991527
 10
232.733938639
 20
194.9271515414
 10
232.7087188508
 20
194.1680224716
 10
232.7087188508
 20
193.3937864058
 10
232.733938639
 20
192.6055391883
 10
232.7843425196
 20
191.8043964952
 10
232.8598591516
 20
190.9914922542
 10
232.9603816495
 20
190.1679770403
 10
233.0857677352
 20
189.3350164474
 10
233.2358399384
 20
188.4937894379
 10
233.410385849
 20
187.6454866747
 10
233.6091584165
 20
186.7913088353
 10
233.8318763008
 20
185.9324649132
 10
234.0782242694
 20
185.0701705057
 10
234.3478536445
 20
184.2056460942
 10
234.6403827958
 20
183.3401153162
 10
234.9553976809
 20
182.474803234
 10
235.2924524317
 20
181.6109345998
 10
235.6510699846
 20
180.7497321233
 10
236.0307427568
 20
179.8924147401
 10
236.4309333638
 20
179.0401958872
 10
236.8510753805
 20
178.1942817851
 10
237.2905741431
 20
177.3558697305
 10
237.74880759
 20
176.526146402
 10
238.2251271431
 20
175.7062861802
 10
238.7188586254
 20
174.8974494855
 10
239.229303215
 20
174.1007811359
 10
239.7557384349
 20
173.3174087262
 10
240.2974191748
 20
172.5484410326
 10
240.8535787461
 20
171.7949664428
 10
241.4234299673
 20
171.0580514159
 10
242.0061662776
 20
170.3387389726
 10
242.6009628789
 20
169.6380472193
 10
243.2069779033
 20
168.9569679068
 10
243.823353604
 20
168.2964650267
 10
244.4492175704
 20
167.657473447
 10
245.0836839619
 20
167.0408975888
 10
245.7258547623
 20
166.4476101463
 10
246.3748210507
 20
165.8784508515
 10
247.0296642878
 20
165.3342252858
 10
247.6894576163
 20
164.8157037395
 10
248.3532671724
 20
164.323620122
 10
249.020153408
 20
163.8586709226
 10
249.6891724203
 20
163.4215142249
 10
250.3593772875
 20
163.0127687753
 10
251.0298194097
 20
162.6330131072
 10
251.699549851
 20
162.2827847224
 10
252.3676206828
 20
161.96257933
 10
253.0330863256
 20
161.6728501449
 10
253.6950048872
 20
161.4140072464
 10
254.352439496
 20
161.1864169976
 10
255.0044596266
 20
160.9904015271
 10
255.6501424176
 20
160.8262382729
 10
256.2885739771
 20
160.6941595896
 10
256.9188506767
 20
160.59435242
 10
257.5400804301
 20
160.5269580299
 10
258.1513839562
 20
160.4920718084
 10
258.7518960232
 20
160.4897431333
 10
259.3407666733
 20
160.5199753004
 10
259.917162426
 20
160.5827255194
 10
260.4802674576
 20
160.6779049746
 10
261.0292847559
 20
160.8053789499
 10
261.5634372482
 20
160.9649670203
 10
262.0819689016
 20
161.1564433067
 10
262.5841457923
 20
161.3795367957
 10
263.0692571452
 20
161.6339317236
 10
263.5366163394
 20
161.9192680227
 10
263.9855618801
 20
162.2351418314
 10
264.4154583353
 20
162.5811060657
 10
264.8256972345
 20
162.9566710518
 10
265.2156979305
 20
163.3613052196
 10
265.5849084209
 20
163.7944358546
 10
265.9328061294
 20
164.2554499088
 10
266.2588986459
 20
164.7436948685
 10
266.5627244228
 20
165.2584796774
 10
266.8438534287
 20
165.7990757152
 10
267.101887757
 20
166.3647178287
 10
267.3364621888
 20
166.9546054147
 10
267.5472447104
 20
167.5679035534
 10
267.7339369826
 20
168.2037441897
 10
267.8962747635
 20
168.8612273623
 10
268.0340282819
 20
169.5394224775
 10
268.1470025633
 20
170.2373696257
 10
268.2350377051
 20
170.9540809409
 10
268.2980091035
 20
171.6885419983
 10
268.3358276295
 20
172.4397132505
 10
268.3484397551
 20
173.2065314985
  0
LWPOLYLINE
  5
EC
330
1F
100
AcDbEntity
  8
0
  6
Continuous
 62
     7
370
    18
100
AcDbPolyline
 90
      127
 70
   128
 43
0.0
 10
232.7055655404
 20
193.9432975388
 10
232.7182760888
 20
194.7160998918
 10
232.7563897434
 20
195.4731331428
 10
232.8198525587
 20
196.2133257958
 10
232.9085747102
 20
196.9356301909
 10
233.0224306215
 20
197.6390239871
 10
233.1612591424
 20
198.322511609
 10
233.3248637767
 20
198.9851256564
 10
233.5130129602
 20
199.6259282731
 10
233.7254403888
 20
200.2440124748
 10
233.9618453953
 20
200.8385034323
 10
234.2218933748
 20
201.4085597102
 10
234.5052162585
 20
201.9533744576
 10
234.8114130345
 20
202.4721765501
 10
235.1400503155
 20
202.9642316813
 10
235.4906629521
 20
203.4288434023
 10
235.8627546915
 20
203.8653541071
 10
236.2557988794
 20
204.2731459636
 10
236.6692392056
 20
204.6516417881
 10
237.1024904917
 20
205.0003058621
 10
237.5549395188
 20
205.3186446904
 10
238.025945896
 20
205.6062077002
 10
238.5148429664
 20
205.8625878781
 10
239.0209387509
 20
206.0874223467
 10
239.5435169275
 20
206.2803928779
 10
240.0818378452
 20
206.4412263434
 10
240.635139571
 20
206.5696951017
 10
241.2026389681
 20
206.6656173193
 10
241.7835328045
 20
206.7288572293
 10
242.3769988902
 20
206.7593253225
 10
242.9821972401
 20
206.7569784748
 10
243.5982712636
 20
206.7218200079
 10
244.2243489769
 20
206.6538996846
 10
244.859544237
 20
206.5533136387
 10
245.502957996
 20
206.4202042383
 10
246.1536795738
 20
206.254759885
 10
246.8107879465
 20
206.0572147467
 10
247.473353051
 20
205.8278484265
 10
248.1404371003
 20
205.5669855668
 10
248.8110959115
 20
205.2749953898
 10
249.4843802421
 20
204.9522911749
 10
250.1593371335
 20
204.5993296738
 10
250.8350112596
 20
204.2166104641
 10
251.5104462792
 20
203.8046752421
 10
252.1846861897
 20
203.3641070559
 10
252.8567766797
 20
202.8955294806
 10
253.5257664805
 20
202.3996057354
 10
254.1907087117
 20
201.8770377447
 10
254.8506622219
 20
201.3285651453
 10
255.5046929208
 20
200.7549642387
 10
256.1518751011
 20
200.1570468929
 10
256.7912927487
 20
199.5356593929
 10
257.4220408394
 20
198.8916812434
 10
258.0432266199
 20
198.2260239234
 10
258.6539708712
 20
197.5396295964
 10
259.2534091531
 20
196.8334697768
 10
259.8406930277
 20
196.1085439548
 10
260.4149912603
 20
195.3658781819
 10
260.9754909961
 20
194.6065236185
 10
261.5213989103
 20
193.831555046
 10
262.0519423314
 20
193.0420693458
 10
262.5663703344
 20
192.2391839466
 10
263.063954804
 20
191.4240352428
 10
263.5439914651
 20
190.5977769865
 10
264.0058008795
 20
189.7615786536
 10
264.4487294075
 20
188.9166237894
 10
264.8721501333
 20
188.0641083331
 10
265.2754637524
 20
187.205238925
 10
265.6580994192
 20
186.3412311986
 10
266.019515556
 20
185.4733080603
 10
266.3592006184
 20
184.6026979583
 10
266.6766738203
 20
183.7306331437
 10
266.9714858139
 20
182.8583479268
 10
267.2432193258
 20
181.9870769298
 10
267.4914897476
 20
181.1180533393
 10
267.7159456802
 20
180.2525071611
 10
267.9162694314
 20
179.391663479
 10
268.0921774653
 20
178.5367407209
 10
268.2434208037
 20
177.6889489345
 10
268.3697853787
 20
176.8494880742
 10
268.4710923353
 20
176.0195463029
 10
268.5471982848
 20
175.2002983104
 10
268.5979955078
 20
174.3929036508
 10
268.6234121065
 20
173.5985051007
 10
268.6234121065
 20
172.8182270425
 10
268.5979955078
 20
172.0531738727
 10
268.5471982848
 20
171.3044284383
 10
268.4710923353
 20
170.5730505048
 10
268.3697853787
 20
169.8600752559
 10
268.2434208037
 20
169.1665118283
 10
268.0921774653
 20
168.4933418835
 10
267.9162694314
 20
167.8415182183
 10
267.7159456802
 20
167.2119634162
 10
267.4914897476
 20
166.6055685416
 10
267.2432193258
 20
166.0231918786
 10
266.9714858139
 20
165.4656577164
 10
266.6766738203
 20
164.933755182
 10
266.3592006184
 20
164.4282371242
 10
266.019515556
 20
163.9498190472
 10
265.6580994192
 20
163.4991780983
 10
265.2754637524
 20
163.0769521093
 10
264.8721501333
 20
162.6837386939
 10
264.4487294075
 20
162.3200944018
 10
264.0058008795
 20
161.9865339307
 10
263.5439914651
 20
161.6835293983
 10
263.063954804
 20
161.4115096735
 10
262.5663703344
 20
161.1708597699
 10
262.0519423314
 20
160.9619203004
 10
261.5213989103
 20
160.7849869956
 10
260.9754909961
 20
160.6403102847
 10
260.4149912603
 20
160.5280949415
 10
259.8406930277
 20
160.4484997942
 10
259.2534091531
 20
160.4016375008
 10
258.6539708712
 20
160.3875743898
 10
258.0432266199
 20
160.4063303657
 10
257.4220408394
 20
160.4578788818
 10
256.7912927487
 20
160.5421469767
 10
256.1518751011
 20
160.6590153785
 10
255.5046929208
 20
160.8083186729
 10
254.8506622219
 20
160.9898455379
 10
254.1907087117
 20
161.2033390425
 10
253.5257664805
 20
161.4484970105
 10
252.8567766797
 20
161.7249724482
 10
252.1846861897
 20
162.0323740356
 10
251.5104462792
 20
162.37026668
 10
250.8350112596
 20
162.7381721323
 10
250.6631586942
 20
162.8364633245
  0
LWPOLYLINE
  5
ED
330
1F
100
AcDbEntity
  8
0
  6
Continuous
 62
     7
370
    18
100
AcDbPolyline
 90
       64
 70
   128
 43
0.0
 10
274.8597849086
 20
176.804878312
 10
274.8470743602
 20
177.5923559517
 10
274.8089607056
 20
178.3933942916
 10
274.7454978903
 20
179.2068595516
 10
274.6567757388
 20
180.0316003624
 10
274.5429198275
 20
180.8664493957
 10
274.4040913065
 20
181.7102250161
 10
274.2404866723
 20
182.5617329534
 10
274.0523374888
 20
183.4197679935
 10
273.8399100601
 20
184.2831156837
 10
273.6035050537
 20
185.1505540519
 10
273.3434570742
 20
186.020855336
 10
273.0601341905
 20
186.8927877219
 10
272.7539374145
 20
187.7651170869
 10
272.4253001335
 20
188.6366087463
 10
272.0746874968
 20
189.506029201
 10
271.7025957574
 20
190.3721478836
 10
271.3095515696
 20
191.2337389001
 10
270.8961112433
 20
192.0895827646
 10
270.4628599573
 20
192.9384681259
 10
270.0104109302
 20
193.7791934817
 10
269.539404553
 20
194.6105688792
 10
269.0505074825
 20
195.4314175995
 10
268.5444116981
 20
196.2405778232
 10
268.0218335215
 20
197.0369042742
 10
267.4835126038
 20
197.8192698417
 10
266.930210878
 20
198.5865671746
 10
266.3627114809
 20
199.3377102494
 10
265.7818176444
 20
200.071635907
 10
265.1883515588
 20
200.7873053578
 10
264.5831532089
 20
201.4837056516
 10
263.9670791854
 20
202.1598511118
 10
263.3410014721
 20
202.8147847299
 10
262.705806212
 20
203.4475795208
 10
262.0623924529
 20
204.0573398342
 10
261.4116708752
 20
204.6432026225
 10
260.7545625024
 20
205.2043386625
 10
260.091997398
 20
205.7399537288
 10
259.4249133487
 20
206.2492897182
 10
258.7542545375
 20
206.7316257226
 10
258.0809702069
 20
207.1862790493
 10
257.4060133155
 20
207.6126061874
 10
256.7303391894
 20
208.0100037185
 10
256.0549041698
 20
208.3779091707
 10
255.3806642593
 20
208.7158018152
 10
254.7085737693
 20
209.0232034025
 10
254.0395839685
 20
209.2996788402
 10
253.3746417373
 20
209.5448368082
 10
252.7146882271
 20
209.7583303128
 10
252.0606575282
 20
209.9398571778
 10
251.4134753479
 20
210.0891604723
 10
250.7740577003
 20
210.206028874
 10
250.1433096096
 20
210.290296969
 10
249.522123829
 20
210.341845485
 10
248.9113795777
 20
210.360601461
 10
248.3119412959
 20
210.3465383499
 10
247.7246574213
 20
210.2996760565
 10
247.1503591886
 20
210.2200809092
 10
246.5898594529
 20
210.107865566
 10
246.0439515386
 20
209.9631888551
 10
245.5134081176
 20
209.7862555503
 10
244.9989801146
 20
209.5773160809
 10
244.5013956449
 20
209.3366661772
 10
244.2003047619
 20
209.1709024366
  0
LWPOLYLINE
  5
EE
330
1F
100
AcDbEntity
  8
0
  6
Continuous
 62
     7
370
    18
100
AcDbPolyline
 90
       22
 70
   128
 43
0.0
 10
269.5982405709
 20
165.1756202276
 10
270.0104109302
 20
165.4295311603
 10
270.4628599573
 20
165.7478699887
 10
270.8961112433
 20
166.0965340626
 10
271.3095515696
 20
166.4750298871
 10
271.7025957574
 20
166.8828217436
 10
272.0746874968
 20
167.3193324484
 10
272.4253001335
 20
167.7839441694
 10
272.7539374145
 20
168.2759993007
 10
273.0601341905
 20
168.7948013931
 10
273.3434570742
 20
169.3396161405
 10
273.6035050537
 20
169.9096724184
 10
273.8399100601
 20
170.5041633759
 10
274.0523374888
 20
171.1222475776
 10
274.2404866723
 20
171.7630501943
 10
274.4040913065
 20
172.4256642417
 10
274.5429198275
 20
173.1091518636
 10
274.6567757388
 20
173.8125456598
 10
274.7454978903
 20
174.5348500549
 10
274.8089607056
 20
175.275042708
 10
274.8470743602
 20
176.0320759589
 10
274.8597849086
 20
176.804878312
  0
ARC
  5
EF
330
1F
100
AcDbEntity
  8
0
  6
Continuous
 62
     7
370
    18
100
AcDbCircle
 10
236.2414262518
 20
175.2477404388
 30
0.0
 40
38.6566613740166
100
AcDbArc
 50
2.5507982903
 51
57.443825177
  0
CIRCLE
  5
F0
330
1F
100
AcDbEntity
  8
0
  6
Continuous
 62
     7
370
    18
100
AcDbCircle
 10
54.8506214385
 20
123.1421706296
 30
0.0
 40
25.20331805820369
  0
CIRCLE
  5
F1
330
1F
100
AcDbEntity
  8
0
  6
Continuous
 62
     7
370
    18
100
AcDbCircle
 10
54.8506214385
 20
123.1421706296
 30
0.0
 40
25.4
  0
DIMENSION
  5
F2
330
1F
100
AcDbEntity
  8
0
  6
Continuous
 62
     7
370
    18
100
AcDbDimension
  2
_D
 10
36.8901091964
 20
105.1816583875
 30
0.0
 11
98.2742599115
 21
155.7764926295
 31
0.0
 70
   163
  1
<>
 71
     1
 42
-1.0
  3
SLDDIMSTYLE0
100
AcDbDiametricDimension
 15
72.8111336807
 25
141.1026828717
 35
0.0
 40
0.0
  0
LINE
  5
103
330
1F
100
AcDbEntity
  8
0
  6
PHANTOM
 62
     7
370
    35
100
AcDbLine
 10
54.8506214385
 20
154.6381706296
 30
0.0
 11
54.8506214385
 21
91.6461706296
 31
0.0
  0
LINE
  5
104
330
1F
100
AcDbEntity
  8
0
  6
Continuous
 62
     7
370
    35
100
AcDbLine
 10
54.8506214385
 20
154.6381706296
 30
0.0
 11
45.9606214385
 21
154.6381706296
 31
0.0
  0
SOLID
  5
105
330
1F
100
AcDbEntity
  8
0
  6
Continuous
 62
     7
370
    35
100
AcDbTrace
 10
45.9606214385
 20
154.6381706296
 30
0.0
 11
49.7706214385
 21
154.0031706296
 31
0.0
 12
49.7706214385
 22
155.2731706296
 32
0.0
 13
49.7706214385
 23
155.2731706296
 33
0.0
  0
LINE
  5
106
330
1F
100
AcDbEntity
  8
0
  6
Continuous
 62
     7
370
    35
100
AcDbLine
 10
54.8506214385
 20
91.6461706296
 30
0.0
 11
45.9606214385
 21
91.6461706296
 31
0.0
  0
SOLID
  5
107
330
1F
100
AcDbEntity
  8
0
  6
Continuous
 62
     7
370
    35
100
AcDbTrace
 10
45.9606214385
 20
91.6461706296
 30
0.0
 11
49.7706214385
 21
91.0111706296
 31
0.0
 12
49.7706214385
 22
92.2811706296
 32
0.0
 13
49.7706214385
 23
92.2811706296
 33
0.0
  0
MTEXT
  5
108
330
1F
100
AcDbEntity
  8
0
  6
Continuous
 62
     7
100
AcDbMText
 10
42.5541169435
 20
156.7398402115
 30
0.0
 40
2.6458333333
 41
0.0
 71
     1
 72
     1
  1
A
  7
SLDTEXTSTYLE0
 73
     1
 44
1.0
  0
MTEXT
  5
109
330
1F
100
AcDbEntity
  8
0
  6
Continuous
 62
     7
100
AcDbMText
 10
42.5541169435
 20
93.7478402115
 30
0.0
 40
2.6458333333
 41
0.0
 71
     1
 72
     1
  1
A
  7
SLDTEXTSTYLE0
 73
     1
 44
1.0
  0
LINE
  5
10A
330
1F
100
AcDbEntity
  8
0
  6
Continuous
 62
     7
370
    18
100
AcDbLine
 10
144.3810184127
 20
97.9421706296
 30
0.0
 11
144.1810184127
 21
97.7421706296
 31
0.0
  0
LINE
  5
10B
330
1F
100
AcDbEntity
  8
0
  6
Continuous
 62
     7
370
    18
100
AcDbLine
 10
135.365949671
 20
97.7421706296
 30
0.0
 11
144.1810184127
 21
97.7421706296
 31
0.0
  0
LINE
  5
10C
330
1F
100
AcDbEntity
  8
0
  6
Continuous
 62
     7
370
    18
100
AcDbLine
 10
135.365949671
 20
97.7421706296
 30
0.0
 11
135.1692677292
 21
97.9388525714
 31
0.0
  0
ARC
  5
10D
330
1F
100
AcDbEntity
  8
0
  6
Continuous
 62
     7
370
    18
100
AcDbCircle
 10
-1364.619050411
 20
123.1421706296
 30
0.0
 40
1500.000068823651
100
AcDbArc
 50
359.037258905
 51
0.962741095
  0
LINE
  5
10E
330
1F
100
AcDbEntity
  8
0
  6
Continuous
 62
     7
370
    18
100
AcDbLine
 10
135.1692677292
 20
148.3454886878
 30
0.0
 11
135.365949671
 21
148.5421706296
 31
0.0
  0
LINE
  5
10F
330
1F
100
AcDbEntity
  8
0
  6
Continuous
 62
     7
370
    18
100
AcDbLine
 10
144.1810184127
 20
148.5421706296
 30
0.0
 11
135.365949671
 21
148.5421706296
 31
0.0
  0
LINE
  5
110
330
1F
100
AcDbEntity
  8
0
  6
Continuous
 62
     7
370
    18
100
AcDbLine
 10
144.1810184127
 20
148.5421706296
 30
0.0
 11
144.3810184127
 21
148.3421706296
 31
0.0
  0
LINE
  5
111
330
1F
100
AcDbEntity
  8
0
  6
Continuous
 62
     7
370
    18
100
AcDbLine
 10
144.3810184127
 20
121.5411408001
 30
0.0
 11
144.3810184127
 21
121.7812952745
 31
0.0
  0
LINE
  5
112
330
1F
100
AcDbEntity
  8
0
  6
Continuous
 62
     7
370
    18
100
AcDbLine
 10
144.3810184127
 20
120.4234144
 30
0.0
 11
144.3810184127
 21
121.5411408001
 31
0.0
  0
LINE
  5
113
330
1F
100
AcDbEntity
  8
0
  6
Continuous
 62
     7
370
    18
100
AcDbLine
 10
144.3810184127
 20
119.7533241571
 30
0.0
 11
144.3810184127
 21
120.4234144
 31
0.0
  0
LINE
  5
114
330
1F
100
AcDbEntity
  8
0
  6
Continuous
 62
     7
370
    18
100
AcDbLine
 10
144.3810184127
 20
121.7812952745
 30
0.0
 11
144.3810184127
 21
124.1421706296
 31
0.0
  0
LINE
  5
115
330
1F
100
AcDbEntity
  8
0
  6
Continuous
 62
     7
370
    18
100
AcDbLine
 10
144.3810184127
 20
124.2446439074
 30
0.0
 11
144.3810184127
 21
148.3421706296
 31
0.0
  0
LINE
  5
116
330
1F
100
AcDbEntity
  8
0
  6
Continuous
 62
     7
370
    18
100
AcDbLine
 10
144.3810184127
 20
97.9421706296
 30
0.0
 11
144.3810184127
 21
119.7533241571
 31
0.0
  0
LINE
  5
117
330
1F
100
AcDbEntity
  8
0
  6
Continuous
 62
     7
370
    18
100
AcDbLine
 10
144.3810184127
 20
124.1421706296
 30
0.0
 11
144.3810184127
 21
124.2446439074
 31
0.0
  0
HATCH
  5
118
330
1F
100
AcDbEntity
  8
0
  6
Continuous
 62
     7
370
    18
100
AcDbHatch
 10
0.0
 20
0.0
 30
0.0
210
0.0
220
0.0
230
1.0
  2
ANSI31
 70
     0
 71
     0
 91
        1
 92
        0
 93
       14
 72
     1
 10
144.3810184126959
 20
119.7533241570578
 11
144.3810184126959
 21
120.4234144000177
 72
     1
 10
144.3810184126959
 20
120.4234144000177
 11
144.3810184126959
 21
121.5411408000503
 72
     1
 10
144.3810184126959
 20
121.5411408000503
 11
144.3810184126959
 21
121.7812952744821
 72
     1
 10
144.3810184126959
 20
121.7812952744821
 11
144.3810184126959
 21
124.1421706295957
 72
     1
 10
144.3810184126959
 20
124.1421706295957
 11
144.3810184126959
 21
124.2446439074092
 72
     1
 10
144.3810184126959
 20
124.2446439074092
 11
144.3810184126959
 21
148.3421706295957
 72
     1
 10
144.3810184126959
 20
148.3421706295957
 11
144.1810184126959
 21
148.5421706295957
 72
     1
 10
144.1810184126959
 20
148.5421706295957
 11
135.3659496710425
 21
148.5421706295957
 72
     1
 10
135.3659496710425
 20
148.5421706295957
 11
135.1692677292463
 21
148.3454886877991
 72
     2
 10
-1364.619050410955
 20
123.1421706295957
 40
1500.000068823651
 50
359.0372589049768
 51
360.9627410950252
 73
     0
 72
     1
 10
135.1692677292463
 20
97.93885257138443
 11
135.3659496710425
 21
97.74217062959572
 72
     1
 10
135.3659496710425
 20
97.74217062959572
 11
144.1810184126959
 21
97.74217062959572
 72
     1
 10
144.1810184126959
 20
97.74217062959572
 11
144.3810184126959
 21
97.94217062959572
 72
     1
 10
144.3810184126959
 20
97.94217062959572
 11
144.3810184126959
 21
119.7533241570578
 97
        0
 75
     0
 76
     1
 52
0.0
 41
1.0
 77
     0
 78
     1
 53
45.0
 43
0.0
 44
0.0
 45
-2.245064030267288
 46
2.245064030267288
 79
     0
 98
        1
 10
0.0
 20
0.0
  0
DIMENSION
  5
119
330
1F
100
AcDbEntity
  8
0
  6
Continuous
 62
     7
370
    18
100
AcDbDimension
  2
_D_1
 10
144.3855858398
 20
161.0224784849
 30
0.0
 11
164.2341122399
 21
161.0153290767
 31
0.0
 70
   160
  1
<> REF
 71
     2
 42
-1.0
  3
SLDDIMSTYLE1
100
AcDbAlignedDimension
 13
135.1692677292
 23
148.3454886878
 33
0.0
 14
144.3810184127
 24
148.3421706296
 34
0.0
 50
-0.0206378494
100
AcDbRotatedDimension
  0
DIMENSION
  5
12D
330
1F
100
AcDbEntity
  8
0
  6
Continuous
 62
     7
370
    18
100
AcDbDimension
  2
_D_2
 10
-1364.619050411
 20
123.1421706296
 30
0.0
 11
162.0993130453
 21
86.5255004728
 31
0.0
 70
   164
  1
<>
 71
     1
 42
-1.0
  3
SLDDIMSTYLE2
100
AcDbRadialDimension
 15
134.9431509316
 25
86.9011610471
 35
0.0
 40
0.0
  0
DIMENSION
  5
13E
330
1F
100
AcDbEntity
  8
0
  6
Continuous
 62
     7
370
    18
100
AcDbDimension
  2
_D_3
 10
135.3810184127
 20
151.5891976181
 30
0.0
 11
160.3810184127
 21
151.5891976181
 31
0.0
 70
   160
  1
<>
 71
     2
 42
-1.0
  3
SLDDIMSTYLE3
100
AcDbAlignedDimension
 13
144.3810184127
 23
148.3421706296
 33
0.0
 14
135.3810184127
 24
123.1421706296
 34
0.0
100
AcDbRotatedDimension
  0
MTEXT
  5
153
330
1F
100
AcDbEntity
  8
0
  6
Continuous
 62
     7
370
     0
100
AcDbMText
 10
139.5940990209
 20
80.1573641151
 30
0.0
 40
2.1166666667
 41
0.0
 71
     2
 72
     1
  1
SECTION A-A
  7
SLDTEXTSTYLE0
 73
     1
 44
1.0
  0
MTEXT
  5
154
330
1F
100
AcDbEntity
  8
0
  6
Continuous
 62
     7
370
     0
100
AcDbMText
 10
115.3927841373
 20
97.3058797567
 30
0.0
 40
2.1166666667
 41
0.0
 71
     1
 72
     1
  1
S1
  7
SLDTEXTSTYLE0
 73
     1
 44
1.0
  0
LEADER
  5
156
330
1F
100
AcDbEntity
  8
0
  6
Continuous
 62
     7
370
     0
100
AcDbLeader
  3
SLDDIMSTYLE4
 76
     3
 10
135.3577958845
 20
114.7954917312
 30
0.0
 10
125.1487376934
 20
96.9171965093
 30
0.0
 10
118.7987376934
 20
96.9171965093
 30
0.0
  0
MTEXT
  5
157
330
1F
100
AcDbEntity
  8
0
  6
Continuous
 62
     7
370
     0
100
AcDbMText
 10
162.7485258407
 20
137.2966070139
 30
0.0
 40
2.1166666667
 41
0.0
 71
     1
 72
     1
  1
S2
  7
SLDTEXTSTYLE0
 73
     1
 44
1.0
  0
LEADER
  5
158
330
1F
100
AcDbEntity
  8
0
  6
Continuous
 62
     7
370
     0
100
AcDbLeader
  3
SLDDIMSTYLE4
 76
     3
 10
144.3810184127
 20
118.0846024833
 30
0.0
 10
155.8199629172
 20
136.7194214784
 30
0.0
 10
162.1699629172
 20
136.7194214784
 30
0.0
  0
SPLINE
  5
159
330
1F
100
AcDbEntity
  8
0
  6
Continuous
 62
     7
370
    18
100
AcDbSpline
210
0.0
220
0.0
230
1.0
 70
     8
 71
     3
 72
    13
 73
     9
 74
     0
 42
0.000000001
 43
0.00000001
 40
0.0
 40
0.0
 40
0.0
 40
0.0
 40
0.1943389941804439
 40
0.3816850483972324
 40
0.5594858099433007
 40
0.6963399801806499
 40
0.8391066529687222
 40
0.9999999999999999
 40
0.9999999999999999
 40
0.9999999999999999
 40
0.9999999999999999
 10
223.3389159985552
 20
125.2615280658784
 30
0.0
 10
223.3360909061634
 20
125.3231604881899
 30
0.0
 10
223.3305423772598
 20
125.4442076006956
 30
0.0
 10
223.2815466691258
 20
125.6162261552349
 30
0.0
 10
223.2015352836449
 20
125.7563481777727
 30
0.0
 10
223.0933017631259
 20
125.8553079053223
 30
0.0
 10
222.9642625047497
 20
125.9160784257973
 30
0.0
 10
222.8676106019219
 20
125.9226776317406
 30
0.0
 10
222.8163998822752
 20
125.9261742011362
 30
0.0
  0
SPLINE
  5
15A
330
1F
100
AcDbEntity
  8
0
  6
Continuous
 62
     7
370
    18
100
AcDbSpline
210
0.0
220
0.0
230
1.0
 70
     8
 71
     3
 72
    12
 73
     8
 74
     0
 42
0.000000001
 43
0.00000001
 40
0.0
 40
0.0
 40
0.0
 40
0.0
 40
0.2008908381631383
 40
0.3780365369998049
 40
0.5535498386387566
 40
0.7713747335183461
 40
1.0
 40
1.0
 40
1.0
 40
1.0
 10
222.8163998822752
 20
124.5968638686027
 30
0.0
 10
222.8805380537844
 20
124.6023860719106
 30
0.0
 10
223.0012333152933
 20
124.6127777584314
 30
0.0
 10
223.1539278033207
 20
124.7110381410843
 30
0.0
 10
223.2619097245208
 20
124.8585561194304
 30
0.0
 10
223.3275184770469
 20
125.0476799701585
 30
0.0
 10
223.3350560426383
 20
125.1891049323231
 30
0.0
 10
223.3389159985552
 20
125.2615280658784
 30
0.0
  0
SPLINE
  5
15B
330
1F
100
AcDbEntity
  8
0
  6
Continuous
 62
     7
370
    18
100
AcDbSpline
210
0.0
220
0.0
230
1.0
 70
     8
 71
     3
 72
    13
 73
     9
 74
     0
 42
0.000000001
 43
0.00000001
 40
0.0
 40
0.0
 40
0.0
 40
0.0
 40
0.1943256494037766
 40
0.3816748644005011
 40
0.5594881704966057
 40
0.6963511211546932
 40
0.8391184169589758
 40
0.9999999999999999
 40
0.9999999999999999
 40
0.9999999999999999
 40
0.9999999999999999
 10
222.2938657039772
 20
125.2615280658784
 30
0.0
 10
222.2966921582195
 20
125.199899396893
 30
0.0
 10
222.3022435949082
 20
125.0788545736783
 30
0.0
 10
222.3512521238877
 20
124.9068371658009
 30
0.0
 10
222.4312720374522
 20
124.7667106936019
 30
0.0
 10
222.5395078525064
 20
124.6677427200503
 30
0.0
 10
222.668543288146
 20
124.6069626270877
 30
0.0
 10
222.7651924698916
 20
124.600361387894
 30
0.0
 10
222.8163998822752
 20
124.5968638686027
 30
0.0
  0
SPLINE
  5
15C
330
1F
100
AcDbEntity
  8
0
  6
Continuous
 62
     7
370
    18
100
AcDbSpline
210
0.0
220
0.0
230
1.0
 70
     8
 71
     3
 72
    12
 73
     8
 74
     0
 42
0.000000001
 43
0.00000001
 40
0.0
 40
0.0
 40
0.0
 40
0.0
 40
0.2008792258750624
 40
0.3780217100331182
 40
0.5535332757399342
 40
0.771359577332731
 40
1.0
 40
1.0
 40
1.0
 40
1.0
 10
222.8163998822752
 20
125.9261742011362
 30
0.0
 10
222.752266089722
 20
125.9206525376393
 30
0.0
 10
222.6315768256815
 20
125.9102616738342
 30
0.0
 10
222.4788832919635
 20
125.8120145962093
 30
0.0
 10
222.3708897219021
 20
125.6645083260701
 30
0.0
 10
222.3052662459051
 20
125.4753849581693
 30
0.0
 10
222.2977267573476
 20
125.3339555767798
 30
0.0
 10
222.2938657039772
 20
125.2615280658784
 30
0.0
  0
SPLINE
  5
15D
330
1F
100
AcDbEntity
  8
0
  6
Continuous
 62
     7
370
    18
100
AcDbSpline
210
0.0
220
0.0
230
1.0
 70
     8
 71
     3
 72
    19
 73
    15
 74
     0
 42
0.000000001
 43
0.00000001
 40
0.0
 40
0.0
 40
0.0
 40
0.0
 40
0.091587339706645
 40
0.1741182870805897
 40
0.2526289966153887
 40
0.3313197891920878
 40
0.4131632671988418
 40
0.4999972215981983
 40
0.5868350001903231
 40
0.6686802724867937
 40
0.7473714879383926
 40
0.8258819896397939
 40
0.9084127008286218
 40
1.0
 40
1.0
 40
1.0
 40
1.0
 10
222.8200050464215
 20
124.0609909127198
 30
0.0
 10
222.9306426211133
 20
124.0684356252712
 30
0.0
 10
223.1409776418026
 20
124.0825888979987
 30
0.0
 10
223.4253052167717
 20
124.2059082947918
 30
0.0
 10
223.6494765033612
 20
124.3931739741616
 30
0.0
 10
223.8101557921619
 20
124.6363173996214
 30
0.0
 10
223.9062578722799
 20
124.9210747638121
 30
0.0
 10
223.936245500152
 20
125.2293273774469
 30
0.0
 10
223.9051078593121
 20
125.537468075154
 30
0.0
 10
223.8079442456676
 20
125.8218726490529
 30
0.0
 10
223.6463580546795
 20
126.0644175494029
 30
0.0
 10
223.4214884952527
 20
126.2508444577891
 30
0.0
 10
223.1367021319518
 20
126.3730989401469
 30
0.0
 10
222.9263161096312
 20
126.3864664023697
 30
0.0
 10
222.8156515808562
 20
126.3934977816006
 30
0.0
  0
SPLINE
  5
15E
330
1F
100
AcDbEntity
  8
0
  6
Continuous
 62
     7
370
    18
100
AcDbSpline
210
0.0
220
0.0
230
1.0
 70
     8
 71
     3
 72
    14
 73
    10
 74
     0
 42
0.000000001
 43
0.00000001
 40
0.0
 40
0.0
 40
0.0
 40
0.0
 40
0.1466868109097158
 40
0.2859932799578326
 40
0.4198155341096283
 40
0.5510853201411045
 40
0.6904104027401186
 40
0.8377115977293307
 40
1.0
 40
1.0
 40
1.0
 40
1.0
 10
221.7141529509028
 20
125.2333813484595
 30
0.0
 10
221.718035267782
 20
125.1447068542292
 30
0.0
 10
221.7256045681931
 20
124.9718193990024
 30
0.0
 10
221.7954237717475
 20
124.7258803994915
 30
0.0
 10
221.9077221508202
 20
124.5073770894252
 30
0.0
 10
222.0679647012332
 20
124.3199368011459
 30
0.0
 10
222.2769583585691
 20
124.1744707706011
 30
0.0
 10
222.534438815785
 20
124.0781034126833
 30
0.0
 10
222.7217930353539
 20
124.0668762480834
 30
0.0
 10
222.8200050464215
 20
124.0609909127198
 30
0.0
  0
SPLINE
  5
15F
330
1F
100
AcDbEntity
  8
0
  6
Continuous
 62
     7
370
    18
100
AcDbSpline
210
0.0
220
0.0
230
1.0
 70
     8
 71
     3
 72
    14
 73
    10
 74
     0
 42
0.000000001
 43
0.00000001
 40
0.0
 40
0.0
 40
0.0
 40
0.0
 40
0.1553989656922833
 40
0.2968771122070968
 40
0.4305153137104986
 40
0.5617675040118878
 40
0.7014063449726655
 40
0.8467289956139455
 40
1.0
 40
1.0
 40
1.0
 40
1.0
 10
222.8156515808562
 20
126.3934977816006
 30
0.0
 10
222.7224104402215
 20
126.3881428293773
 30
0.0
 10
222.5442808082308
 20
126.3779126277479
 30
0.0
 10
222.2981014055567
 20
126.290910199305
 30
0.0
 10
222.0923330275267
 20
126.1573059606274
 30
0.0
 10
221.9263893401962
 20
125.977491745814
 30
0.0
 10
221.8050183025678
 20
125.7577728790348
 30
0.0
 10
221.7279458611361
 20
125.5042916924027
 30
0.0
 10
221.718831460631
 20
125.3252732449593
 30
0.0
 10
221.7141529509028
 20
125.2333813484595
 30
0.0
  0
LINE
  5
160
330
1F
100
AcDbEntity
  8
0
  6
Continuous
 62
     7
370
    18
100
AcDbLine
 10
218.5765539855
 20
125.8768829542
 30
0.0
 11
218.5765539855
 21
124.1421706296
 31
0.0
  0
LINE
  5
161
330
1F
100
AcDbEntity
  8
0
  6
Continuous
 62
     7
370
    18
100
AcDbLine
 10
217.9060596917
 20
125.8768829542
 30
0.0
 11
218.5765539855
 21
125.8768829542
 31
0.0
  0
LINE
  5
162
330
1F
100
AcDbEntity
  8
0
  6
Continuous
 62
     7
370
    18
100
AcDbLine
 10
217.9060596917
 20
126.3785193778
 30
0.0
 11
217.9060596917
 21
125.8768829542
 31
0.0
  0
LINE
  5
163
330
1F
100
AcDbEntity
  8
0
  6
Continuous
 62
     7
370
    18
100
AcDbLine
 10
220.3548719567
 20
126.3785193778
 30
0.0
 11
217.9060596917
 21
126.3785193778
 31
0.0
  0
LINE
  5
164
330
1F
100
AcDbEntity
  8
0
  6
Continuous
 62
     7
370
    18
100
AcDbLine
 10
220.3548719567
 20
125.5633443852
 30
0.0
 11
220.3548719567
 21
126.3785193778
 31
0.0
  0
LINE
  5
165
330
1F
100
AcDbEntity
  8
0
  6
Continuous
 62
     7
370
    18
100
AcDbLine
 10
221.1261381837
 20
125.5633443852
 30
0.0
 11
220.3548719567
 21
125.5633443852
 31
0.0
  0
LINE
  5
166
330
1F
100
AcDbEntity
  8
0
  6
Continuous
 62
     7
370
    18
100
AcDbLine
 10
221.1261381837
 20
126.3785193778
 30
0.0
 11
221.1261381837
 21
125.5633443852
 31
0.0
  0
LINE
  5
167
330
1F
100
AcDbEntity
  8
0
  6
Continuous
 62
     7
370
    18
100
AcDbLine
 10
221.7116506832
 20
126.3785193778
 30
0.0
 11
221.1261381837
 21
126.3785193778
 31
0.0
  0
LINE
  5
168
330
1F
100
AcDbEntity
  8
0
  6
Continuous
 62
     7
370
    18
100
AcDbLine
 10
221.7116506832
 20
124.1421706296
 30
0.0
 11
221.7116506832
 21
126.3785193778
 31
0.0
  0
LINE
  5
169
330
1F
100
AcDbEntity
  8
0
  6
Continuous
 62
     7
370
    18
100
AcDbLine
 10
221.1261342484
 20
124.1421706296
 30
0.0
 11
221.7116506832
 21
124.1421706296
 31
0.0
  0
LINE
  5
16A
330
1F
100
AcDbEntity
  8
0
  6
Continuous
 62
     7
370
    18
100
AcDbLine
 10
221.1261342484
 20
125.0639837759
 30
0.0
 11
221.1261342484
 21
124.1421706296
 31
0.0
  0
LINE
  5
16B
330
1F
100
AcDbEntity
  8
0
  6
Continuous
 62
     7
370
    18
100
AcDbLine
 10
220.3548680214
 20
125.0639837759
 30
0.0
 11
221.1261342484
 21
125.0639837759
 31
0.0
  0
LINE
  5
16C
330
1F
100
AcDbEntity
  8
0
  6
Continuous
 62
     7
370
    18
100
AcDbLine
 10
220.3548680214
 20
124.1421706296
 30
0.0
 11
220.3548680214
 21
125.0639837759
 31
0.0
  0
LINE
  5
16D
330
1F
100
AcDbEntity
  8
0
  6
Continuous
 62
     7
370
    18
100
AcDbLine
 10
219.7694238347
 20
124.1421706296
 30
0.0
 11
220.3548680214
 21
124.1421706296
 31
0.0
  0
LINE
  5
16E
330
1F
100
AcDbEntity
  8
0
  6
Continuous
 62
     7
370
    18
100
AcDbLine
 10
219.7694238347
 20
125.8790865204
 30
0.0
 11
219.7694238347
 21
124.1421706296
 31
0.0
  0
LINE
  5
16F
330
1F
100
AcDbEntity
  8
0
  6
Continuous
 62
     7
370
    18
100
AcDbLine
 10
219.1620523583
 20
125.8790865204
 30
0.0
 11
219.7694238347
 21
125.8790865204
 31
0.0
  0
LINE
  5
170
330
1F
100
AcDbEntity
  8
0
  6
Continuous
 62
     7
370
    18
100
AcDbLine
 10
219.1620523583
 20
124.1421706296
 30
0.0
 11
219.1620523583
 21
125.8790865204
 31
0.0
  0
LINE
  5
171
330
1F
100
AcDbEntity
  8
0
  6
Continuous
 62
     7
370
    18
100
AcDbLine
 10
218.5765539855
 20
124.1421706296
 30
0.0
 11
219.1620523583
 21
124.1421706296
 31
0.0
  0
SPLINE
  5
172
330
1F
100
AcDbEntity
  8
0
  6
Continuous
 62
     7
370
    18
100
AcDbSpline
210
0.0
220
0.0
230
1.0
 70
     8
 71
     3
 72
    12
 73
     8
 74
     0
 42
0.000000001
 43
0.00000001
 40
0.0
 40
0.0
 40
0.0
 40
0.0
 40
0.1970292569794095
 40
0.3714318737747127
 40
0.5434083414909576
 40
0.7603083066182463
 40
1.0
 40
1.0
 40
1.0
 40
1.0
 10
225.2743154042641
 20
125.672222229243
 30
0.0
 10
225.2721056915463
 20
125.7006603914059
 30
0.0
 10
225.2679400272797
 20
125.7542709060108
 30
0.0
 10
225.2279025336268
 20
125.8240034400643
 30
0.0
 10
225.1644410160458
 20
125.8757952134005
 30
0.0
 10
225.0784434482381
 20
125.9082575055397
 30
0.0
 10
225.012878454578
 20
125.911798399942
 30
0.0
 10
224.9784595508068
 20
125.9136572227207
 30
0.0
  0
SPLINE
  5
173
330
1F
100
AcDbEntity
  8
0
  6
Continuous
 62
     7
370
    18
100
AcDbSpline
210
0.0
220
0.0
230
1.0
 70
     8
 71
     3
 72
    12
 73
     8
 74
     0
 42
0.000000001
 43
0.00000001
 40
0.0
 40
0.0
 40
0.0
 40
0.0
 40
0.2111291888127934
 40
0.3927062339152212
 40
0.5599129747574139
 40
0.7634359056262738
 40
1.0
 40
1.0
 40
1.0
 40
1.0
 10
225.0036380037811
 20
125.4089321940875
 30
0.0
 10
225.033935958648
 20
125.4104708155034
 30
0.0
 10
225.0902910075071
 20
125.413332694645
 30
0.0
 10
225.166615977317
 20
125.4425117182663
 30
0.0
 10
225.2279400755884
 20
125.4946721270593
 30
0.0
 10
225.2683876003786
 20
125.5748719260358
 30
0.0
 10
225.2722429839027
 20
125.6381875758632
 30
0.0
 10
225.2743154042641
 20
125.672222229243
 30
0.0
  0
LINE
  5
174
330
1F
100
AcDbEntity
  8
0
  6
Continuous
 62
     7
370
    18
100
AcDbLine
 10
224.5125678607
 20
125.4089321941
 30
0.0
 11
225.0036380038
 21
125.4089321941
 31
0.0
  0
LINE
  5
175
330
1F
100
AcDbEntity
  8
0
  6
Continuous
 62
     7
370
    18
100
AcDbLine
 10
224.5125678607
 20
125.9136572227
 30
0.0
 11
224.5125678607
 21
125.4089321941
 31
0.0
  0
LINE
  5
176
330
1F
100
AcDbEntity
  8
0
  6
Continuous
 62
     7
370
    18
100
AcDbLine
 10
224.9784595508
 20
125.9136572227
 30
0.0
 11
224.5125678607
 21
125.9136572227
 31
0.0
  0
SPLINE
  5
177
330
1F
100
AcDbEntity
  8
0
  6
Continuous
 62
     7
370
    18
100
AcDbSpline
210
0.0
220
0.0
230
1.0
 70
     8
 71
     3
 72
    14
 73
    10
 74
     0
 42
0.000000001
 43
0.00000001
 40
0.0
 40
0.0
 40
0.0
 40
0.0
 40
0.2575826845002084
 40
0.4580339644254267
 40
0.6128287983994983
 40
0.7093883131761983
 40
0.799802888308482
 40
0.8941338805613361
 40
1.0
 40
1.0
 40
1.0
 40
1.0
 10
231.894424272703
 20
124.7361942748035
 30
0.0
 10
231.9225015478862
 20
124.7290802111887
 30
0.0
 10
231.9724286060165
 20
124.7164299712589
 30
0.0
 10
232.0411152954227
 20
124.7088336545648
 30
0.0
 10
232.0923194167311
 20
124.7135265354795
 30
0.0
 10
232.1282470669768
 20
124.728635560982
 30
0.0
 10
232.1523391970231
 20
124.7498764961966
 30
0.0
 10
232.1696482165838
 20
124.7781202416661
 30
0.0
 10
232.1759840793564
 20
124.7997734673895
 30
0.0
 10
232.1793345433035
 20
124.8112238972249
 30
0.0
  0
SPLINE
  5
178
330
1F
100
AcDbEntity
  8
0
  6
Continuous
 62
     7
370
    18
100
AcDbSpline
210
0.0
220
0.0
230
1.0
 70
     8
 71
     3
 72
    12
 73
     8
 74
     0
 42
0.000000001
 43
0.00000001
 40
0.0
 40
0.0
 40
0.0
 40
0.0
 40
0.2545415383352844
 40
0.4933538848768417
 40
0.6299818928893286
 40
0.7933578680691682
 40
1.0
 40
1.0
 40
1.0
 40
1.0
 10
231.6948028507
 20
125.0198402041499
 30
0.0
 10
231.6946481558972
 20
124.9871777550006
 30
0.0
 10
231.6943483255338
 20
124.923871206754
 30
0.0
 10
231.7193421488516
 20
124.8436653620034
 30
0.0
 10
231.767399585688
 20
124.7924397902183
 30
0.0
 10
231.8235953606366
 20
124.7583156084674
 30
0.0
 10
231.8690432313188
 20
124.7441212987944
 30
0.0
 10
231.894424272703
 20
124.7361942748035
 30
0.0
  0
SPLINE
  5
179
330
1F
100
AcDbEntity
  8
0
  6
Continuous
 62
     7
370
    18
100
AcDbSpline
210
0.0
220
0.0
230
1.0
 70
     8
 71
     3
 72
    14
 73
    10
 74
     0
 42
0.000000001
 43
0.00000001
 40
0.0
 40
0.0
 40
0.0
 40
0.0
 40
0.0123761948722824
 40
0.0260544786030442
 40
0.0423069896659065
 40
0.1107691877094743
 40
0.3353734156282144
 40
0.6465637489690628
 40
1.0
 40
1.0
 40
1.0
 40
1.0
 10
232.1793345433035
 20
124.8112238972249
 30
0.0
 10
232.1796007827728
 20
124.8134605172082
 30
0.0
 10
232.1801612725378
 20
124.818169070047
 30
0.0
 10
232.177319884836
 20
124.8254749131986
 30
0.0
 10
232.1671965140246
 20
124.8400097537759
 30
0.0
 10
232.120825486069
 20
124.8727869097961
 30
0.0
 10
232.0211124842117
 20
124.9152992807623
 30
0.0
 10
231.8701717891973
 20
124.9681214689913
 30
0.0
 10
231.7556848886395
 20
125.0018852457457
 30
0.0
 10
231.6948028507
 20
125.0198402041499
 30
0.0
  0
LINE
  5
17A
330
1F
100
AcDbEntity
  8
0
  6
Continuous
 62
     7
370
    18
100
AcDbLine
 10
231.1712933234
 20
125.0238499721
 30
0.0
 11
231.681003469
 21
125.0238499721
 31
0.0
  0
SPLINE
  5
17B
330
1F
100
AcDbEntity
  8
0
  6
Continuous
 62
     7
370
    18
100
AcDbSpline
210
0.0
220
0.0
230
1.0
 70
     8
 71
     3
 72
    11
 73
     7
 74
     0
 42
0.000000001
 43
0.00000001
 40
0.0
 40
0.0
 40
0.0
 40
0.0
 40
0.2403133392799475
 40
0.5276554281052306
 40
0.7630136347472214
 40
0.9999999999999999
 40
0.9999999999999999
 40
0.9999999999999999
 40
0.9999999999999999
 10
230.9555605814508
 20
125.3648428083556
 30
0.0
 10
230.9822564291981
 20
125.3445349733958
 30
0.0
 10
231.0408724386711
 20
125.2999451084232
 30
0.0
 10
231.1085537586513
 20
125.2171857467578
 30
0.0
 10
231.160305405779
 20
125.122882926027
 30
0.0
 10
231.1676222771986
 20
125.0569367283307
 30
0.0
 10
231.1712933234346
 20
125.0238499721272
 30
0.0
  0
SPLINE
  5
17C
330
1F
100
AcDbEntity
  8
0
  6
Continuous
 62
     7
370
    18
100
AcDbSpline
210
0.0
220
0.0
230
1.0
 70
     8
 71
     3
 72
    10
 73
     6
 74
     0
 42
0.000000001
 43
0.00000001
 40
0.0
 40
0.0
 40
0.0
 40
0.0
 40
0.3052209345869945
 40
0.5892711010915033
 40
1.0
 40
1.0
 40
1.0
 40
1.0
 10
231.0808748617492
 20
125.5457881038339
 30
0.0
 10
231.0733738720676
 20
125.5242423923588
 30
0.0
 10
231.0588921771769
 20
125.4826454254211
 30
0.0
 10
231.011966900689
 20
125.4241260986874
 30
0.0
 10
230.9765171969976
 20
125.3868683037364
 30
0.0
 10
230.9555605814508
 20
125.3648428083556
 30
0.0
  0
SPLINE
  5
17D
330
1F
100
AcDbEntity
  8
0
  6
Continuous
 62
     7
370
    18
100
AcDbSpline
210
0.0
220
0.0
230
1.0
 70
     8
 71
     3
 72
    11
 73
     7
 74
     0
 42
0.000000001
 43
0.00000001
 40
0.0
 40
0.0
 40
0.0
 40
0.0
 40
0.3113820865694044
 40
0.595215242902464
 40
0.7995709864930255
 40
1.0
 40
1.0
 40
1.0
 40
1.0
 10
231.5819152387275
 20
125.051701603753
 30
0.0
 10
231.5076113639992
 20
125.0770091558689
 30
0.0
 10
231.3655775067137
 20
125.1253852231817
 30
0.0
 10
231.203550653134
 20
125.2484587742275
 30
0.0
 10
231.0996633563069
 20
125.3930108227358
 30
0.0
 10
231.0870970589502
 20
125.4951927584799
 30
0.0
 10
231.0808748617492
 20
125.5457881038339
 30
0.0
  0
SPLINE
  5
17E
330
1F
100
AcDbEntity
  8
0
  6
Continuous
 62
     7
370
    18
100
AcDbSpline
210
0.0
220
0.0
230
1.0
 70
     8
 71
     3
 72
     9
 73
     5
 74
     0
 42
0.000000001
 43
0.00000001
 40
0.0
 40
0.0
 40
0.0
 40
0.0
 40
0.5632377239369556
 40
1.0
 40
1.0
 40
1.0
 40
1.0
 10
231.6810034690125
 20
125.0238499721272
 30
0.0
 10
231.6624172533282
 20
125.0291402417842
 30
0.0
 10
231.629418370451
 20
125.0385328471305
 30
0.0
 10
231.5963557458854
 20
125.0476984250705
 30
0.0
 10
231.5819152387275
 20
125.051701603753
 30
0.0
  0
SPLINE
  5
17F
330
1F
100
AcDbEntity
  8
0
  6
Continuous
 62
     7
370
    18
100
AcDbSpline
210
0.0
220
0.0
230
1.0
 70
     8
 71
     3
 72
    13
 73
     9
 74
     0
 42
0.000000001
 43
0.00000001
 40
0.0
 40
0.0
 40
0.0
 40
0.0
 40
0.2070940199890579
 40
0.3978649646626727
 40
0.573936928003727
 40
0.7077750174858425
 40
0.8462504046616478
 40
1.0
 40
1.0
 40
1.0
 40
1.0
 10
230.3175378606006
 20
124.2445822711771
 30
0.0
 10
230.3889768528898
 20
124.2470488267152
 30
0.0
 10
230.5262240420853
 20
124.2517875247813
 30
0.0
 10
230.7199800880369
 20
124.2982169579571
 30
0.0
 10
230.8762639520686
 20
124.3766929742175
 30
0.0
 10
230.9894920257018
 20
124.4842242641475
 30
0.0
 10
231.06579629625
 20
124.6127966075486
 30
0.0
 10
231.0859731053838
 20
124.712044779963
 30
0.0
 10
231.0965888173358
 20
124.7642626506444
 30
0.0
  0
LINE
  5
180
330
1F
100
AcDbEntity
  8
0
  6
Continuous
 62
     7
370
    18
100
AcDbLine
 10
228.8390171981
 20
124.2445822712
 30
0.0
 11
230.3175378606
 21
124.2445822712
 31
0.0
  0
LINE
  5
181
330
1F
100
AcDbEntity
  8
0
  6
Continuous
 62
     7
370
    18
100
AcDbLine
 10
228.6884160927
 20
124.5880134798
 30
0.0
 11
228.8390171981
 21
124.2445822712
 31
0.0
  0
LINE
  5
182
330
1F
100
AcDbEntity
  8
0
  6
Continuous
 62
     7
370
    18
100
AcDbLine
 10
228.0350045326
 20
124.5880134798
 30
0.0
 11
228.6884160927
 21
124.5880134798
 31
0.0
  0
LINE
  5
183
330
1F
100
AcDbEntity
  8
0
  6
Continuous
 62
     7
370
    18
100
AcDbLine
 10
227.8814412563
 20
124.2473638219
 30
0.0
 11
228.0350045326
 21
124.5880134798
 31
0.0
  0
LINE
  5
184
330
1F
100
AcDbEntity
  8
0
  6
Continuous
 62
     7
370
    18
100
AcDbLine
 10
226.012022402
 20
124.2473638219
 30
0.0
 11
227.8814412563
 21
124.2473638219
 31
0.0
  0
LINE
  5
185
330
1F
100
AcDbEntity
  8
0
  6
Continuous
 62
     7
370
    18
100
AcDbLine
 10
226.012022402
 20
126.2676005258
 30
0.0
 11
226.012022402
 21
124.2473638219
 31
0.0
  0
LINE
  5
186
330
1F
100
AcDbEntity
  8
0
  6
Continuous
 62
     7
370
    18
100
AcDbLine
 10
226.5390720848
 20
126.2676005258
 30
0.0
 11
226.012022402
 21
126.2676005258
 31
0.0
  0
LINE
  5
187
330
1F
100
AcDbEntity
  8
0
  6
Continuous
 62
     7
370
    18
100
AcDbLine
 10
226.5390720848
 20
124.7043328752
 30
0.0
 11
226.5390720848
 21
126.2676005258
 31
0.0
  0
LINE
  5
188
330
1F
100
AcDbEntity
  8
0
  6
Continuous
 62
     7
370
    18
100
AcDbLine
 10
227.5085328344
 20
124.7043328752
 30
0.0
 11
226.5390720848
 21
124.7043328752
 31
0.0
  0
LINE
  5
189
330
1F
100
AcDbEntity
  8
0
  6
Continuous
 62
     7
370
    18
100
AcDbLine
 10
228.0967766338
 20
126.2676005258
 30
0.0
 11
227.5085328344
 21
124.7043328752
 31
0.0
  0
LINE
  5
18A
330
1F
100
AcDbEntity
  8
0
  6
Continuous
 62
     7
370
    18
100
AcDbLine
 10
228.632243217
 20
126.2676005258
 30
0.0
 11
228.0967766338
 21
126.2676005258
 31
0.0
  0
LINE
  5
18B
330
1F
100
AcDbEntity
  8
0
  6
Continuous
 62
     7
370
    18
100
AcDbLine
 10
229.3457651727
 20
124.3842016697
 30
0.0
 11
228.632243217
 21
126.2676005258
 31
0.0
  0
LINE
  5
18C
330
1F
100
AcDbEntity
  8
0
  6
Continuous
 62
     7
370
    18
100
AcDbLine
 10
229.3457651727
 20
126.2676005258
 30
0.0
 11
229.3457651727
 21
124.3842016697
 31
0.0
  0
LINE
  5
18D
330
1F
100
AcDbEntity
  8
0
  6
Continuous
 62
     7
370
    18
100
AcDbLine
 10
230.2919981673
 20
126.2676005258
 30
0.0
 11
229.3457651727
 21
126.2676005258
 31
0.0
  0
SPLINE
  5
18E
330
1F
100
AcDbEntity
  8
0
  6
Continuous
 62
     7
370
    18
100
AcDbSpline
210
0.0
220
0.0
230
1.0
 70
     8
 71
     3
 72
    14
 73
    10
 74
     0
 42
0.000000001
 43
0.00000001
 40
0.0
 40
0.0
 40
0.0
 40
0.0
 40
0.1423816612635871
 40
0.2654010250778279
 40
0.3802085707899266
 40
0.4953201289099343
 40
0.6562432766114735
 40
0.8263515868701822
 40
1.0
 40
1.0
 40
1.0
 40
1.0
 10
231.0229680323118
 20
125.7624961947851
 30
0.0
 10
231.0201441710682
 20
125.8105991055152
 30
0.0
 10
231.014880461809
 20
125.9002634745335
 30
0.0
 10
230.9642999933085
 20
126.0205066952451
 30
0.0
 10
230.8870776997901
 20
126.1127079954358
 30
0.0
 10
230.7770728484664
 20
126.1872309188865
 30
0.0
 10
230.6345179618242
 20
126.2383486311741
 30
0.0
 10
230.466212185811
 20
126.2658312842436
 30
0.0
 10
230.3504668327871
 20
126.2670067435414
 30
0.0
 10
230.291998167268
 20
126.2676005257945
 30
0.0
  0
SPLINE
  5
18F
330
1F
100
AcDbEntity
  8
0
  6
Continuous
 62
     7
370
    18
100
AcDbSpline
210
0.0
220
0.0
230
1.0
 70
     8
 71
     3
 72
    11
 73
     7
 74
     0
 42
0.000000001
 43
0.00000001
 40
0.0
 40
0.0
 40
0.0
 40
0.0
 40
0.2840562052455227
 40
0.5588619016419673
 40
0.775099383828569
 40
1.0
 40
1.0
 40
1.0
 40
1.0
 10
230.7566255161286
 20
125.356191101774
 30
0.0
 10
230.7985316881117
 20
125.3810456725394
 30
0.0
 10
230.8809793253489
 20
125.4299454058525
 30
0.0
 10
230.96491816566
 20
125.5352603364646
 30
0.0
 10
231.0145484323131
 20
125.6486024151464
 30
0.0
 10
231.0201249945329
 20
125.7240377979081
 30
0.0
 10
231.0229680323118
 20
125.7624961947851
 30
0.0
  0
SPLINE
  5
190
330
1F
100
AcDbEntity
  8
0
  6
Continuous
 62
     7
370
    18
100
AcDbSpline
210
0.0
220
0.0
230
1.0
 70
     8
 71
     3
 72
    11
 73
     7
 74
     0
 42
0.000000001
 43
0.00000001
 40
0.0
 40
0.0
 40
0.0
 40
0.0
 40
0.2849839497112115
 40
0.5578557580525009
 40
0.7738896021956493
 40
1.0
 40
1.0
 40
1.0
 40
1.0
 10
231.1026215313195
 20
124.9300719751095
 30
0.0
 10
231.0929238964303
 20
124.9851224065165
 30
0.0
 10
231.0739407871431
 20
125.0928835635037
 30
0.0
 10
230.9875835956237
 20
125.2207705220369
 30
0.0
 10
230.8792738973722
 20
125.3110031143195
 30
0.0
 10
230.7981247779719
 20
125.3409013107101
 30
0.0
 10
230.7566255161286
 20
125.356191101774
 30
0.0
  0
LINE
  5
191
330
1F
100
AcDbEntity
  8
0
  6
Continuous
 62
     7
370
    18
100
AcDbLine
 10
231.606371211
 20
124.9300719751
 30
0.0
 11
231.1026215313
 21
124.9300719751
 31
0.0
  0
SPLINE
  5
192
330
1F
100
AcDbEntity
  8
0
  6
Continuous
 62
     7
370
    18
100
AcDbSpline
210
0.0
220
0.0
230
1.0
 70
     8
 71
     3
 72
    12
 73
     8
 74
     0
 42
0.000000001
 43
0.00000001
 40
0.0
 40
0.0
 40
0.0
 40
0.0
 40
0.3029848175181646
 40
0.5555954840373251
 40
0.686125306864035
 40
0.8302562633026846
 40
1.0
 40
1.0
 40
1.0
 40
1.0
 10
231.9887802542941
 20
124.6168404604174
 30
0.0
 10
231.9319160557054
 20
124.6191092384479
 30
0.0
 10
231.8276418805237
 20
124.6232695882582
 30
0.0
 10
231.7067510829968
 20
124.6822720036955
 30
0.0
 10
231.6453863875071
 20
124.7612223106451
 30
0.0
 10
231.6147379973167
 20
124.8397432015038
 30
0.0
 10
231.6093078434385
 20
124.898367758278
 30
0.0
 10
231.6063712109852
 20
124.9300719751095
 30
0.0
  0
SPLINE
  5
193
330
1F
100
AcDbEntity
  8
0
  6
Continuous
 62
     7
370
    18
100
AcDbSpline
210
0.0
220
0.0
230
1.0
 70
     8
 71
     3
 72
    12
 73
     8
 74
     0
 42
0.000000001
 43
0.00000001
 40
0.0
 40
0.0
 40
0.0
 40
0.0
 40
0.1228977808113465
 40
0.236151700365539
 40
0.4654549568724362
 40
0.7229435422785258
 40
1.0
 40
1.0
 40
1.0
 40
1.0
 10
232.3118013826964
 20
124.8228919607984
 30
0.0
 10
232.3104801306299
 20
124.8053658520021
 30
0.0
 10
232.3079413059247
 20
124.7716889184909
 30
0.0
 10
232.2781309105318
 20
124.7110342334888
 30
0.0
 10
232.2088846126844
 20
124.6560230083192
 30
0.0
 10
232.1041154911084
 20
124.6226028732318
 30
0.0
 10
232.0281522516706
 20
124.6188075756588
 30
0.0
 10
231.9887802542941
 20
124.6168404604174
 30
0.0
  0
SPLINE
  5
194
330
1F
100
AcDbEntity
  8
0
  6
Continuous
 62
     7
370
    18
100
AcDbSpline
210
0.0
220
0.0
230
1.0
 70
     8
 71
     3
 72
    12
 73
     8
 74
     0
 42
0.000000001
 43
0.00000001
 40
0.0
 40
0.0
 40
0.0
 40
0.0
 40
0.32103069194576
 40
0.60295929760987
 40
0.8214028303124052
 40
0.910411712195422
 40
1.0
 40
1.0
 40
1.0
 40
1.0
 10
231.730963010567
 20
125.1162913798192
 30
0.0
 10
231.8023381062095
 20
125.0978986066149
 30
0.0
 10
231.9363946890073
 20
125.0633533313793
 30
0.0
 10
232.1179788631095
 20
125.0153786112773
 30
0.0
 10
232.2439607300835
 20
124.9582739717968
 30
0.0
 10
232.3044462007622
 20
124.8852088113042
 30
0.0
 10
232.3093443585082
 20
124.8437091221404
 30
0.0
 10
232.3118013826964
 20
124.8228919607984
 30
0.0
  0
SPLINE
  5
195
330
1F
100
AcDbEntity
  8
0
  6
Continuous
 62
     7
370
    18
100
AcDbSpline
210
0.0
220
0.0
230
1.0
 70
     8
 71
     3
 72
    12
 73
     8
 74
     0
 42
0.000000001
 43
0.00000001
 40
0.0
 40
0.0
 40
0.0
 40
0.0
 40
0.2059303301559957
 40
0.3857152088822404
 40
0.5622731912300376
 40
0.7785006333333759
 40
1.0
 40
1.0
 40
1.0
 40
1.0
 10
231.1388539392582
 20
125.6976174264324
 30
0.0
 10
231.1438227809826
 20
125.6352175804775
 30
0.0
 10
231.1531296073358
 20
125.5183403356421
 30
0.0
 10
231.2419556370561
 20
125.3684058845159
 30
0.0
 10
231.3742232782403
 20
125.2556719902273
 30
0.0
 10
231.5413153252042
 20
125.1736120956559
 30
0.0
 10
231.6672415690302
 20
125.1355510857104
 30
0.0
 10
231.730963010567
 20
125.1162913798192
 30
0.0
  0
SPLINE
  5
196
330
1F
100
AcDbEntity
  8
0
  6
Continuous
 62
     7
370
    18
100
AcDbSpline
210
0.0
220
0.0
230
1.0
 70
     8
 71
     3
 72
    14
 73
    10
 74
     0
 42
0.000000001
 43
0.00000001
 40
0.0
 40
0.0
 40
0.0
 40
0.0
 40
0.1687571149027793
 40
0.3389805425085121
 40
0.5046286467510827
 40
0.6247827513896885
 40
0.7433698504427207
 40
0.8656643973442371
 40
1.0
 40
1.0
 40
1.0
 40
1.0
 10
231.9632766849973
 20
126.3098837097349
 30
0.0
 10
231.8987410986694
 20
126.3070554880838
 30
0.0
 10
231.7691091831372
 20
126.3013744706632
 30
0.0
 10
231.5806258467274
 20
126.2550706739835
 30
0.0
 10
231.4204944385887
 20
126.1831654432478
 30
0.0
 10
231.2962388533412
 20
126.0891714700046
 30
0.0
 10
231.2084159008503
 20
125.9811923070564
 30
0.0
 10
231.1491325409542
 20
125.8476351758502
 30
0.0
 10
231.1423856607593
 20
125.7491634369538
 30
0.0
 10
231.1388539392582
 20
125.6976174264323
 30
0.0
  0
SPLINE
  5
197
330
1F
100
AcDbEntity
  8
0
  6
Continuous
 62
     7
370
    18
100
AcDbSpline
210
0.0
220
0.0
230
1.0
 70
     8
 71
     3
 72
    12
 73
     8
 74
     0
 42
0.000000001
 43
0.00000001
 40
0.0
 40
0.0
 40
0.0
 40
0.0
 40
0.1993974480574494
 40
0.3779257523812743
 40
0.5550669356786562
 40
0.7731143074051403
 40
1.0
 40
1.0
 40
1.0
 40
1.0
 10
232.773647180798
 20
125.6609515300637
 30
0.0
 10
232.7662602868901
 20
125.7387033641703
 30
0.0
 10
232.7522596190526
 20
125.8860694447799
 30
0.0
 10
232.6321319216918
 20
126.0730859305944
 30
0.0
 10
232.4533150008878
 20
126.2088481049641
 30
0.0
 10
232.2236023273661
 20
126.2943643451294
 30
0.0
 10
232.0511934974724
 20
126.3046425315884
 30
0.0
 10
231.9632766849973
 20
126.3098837097349
 30
0.0
  0
LINE
  5
198
330
1F
100
AcDbEntity
  8
0
  6
Continuous
 62
     7
370
    18
100
AcDbLine
 10
232.2466697461
 20
125.6609515301
 30
0.0
 11
232.7736471808
 21
125.6609515301
 31
0.0
  0
SPLINE
  5
199
330
1F
100
AcDbEntity
  8
0
  6
Continuous
 62
     7
370
    18
100
AcDbSpline
210
0.0
220
0.0
230
1.0
 70
     8
 71
     3
 72
    13
 73
     9
 74
     0
 42
0.000000001
 43
0.00000001
 40
0.0
 40
0.0
 40
0.0
 40
0.0
 40
0.2626041787201669
 40
0.5099839566452471
 40
0.6263386331431503
 40
0.7414049134888266
 40
0.8625801387792145
 40
1.0
 40
1.0
 40
1.0
 40
1.0
 10
231.920758694824
 20
125.9035786167238
 30
0.0
 10
231.9611012524298
 20
125.9015585835218
 30
0.0
 10
232.0394475196115
 20
125.8976356279545
 30
0.0
 10
232.1321823331724
 20
125.8647150645617
 30
0.0
 10
232.1914319212261
 20
125.8201748163516
 30
0.0
 10
232.2248172919853
 20
125.7767545059458
 30
0.0
 10
232.2456720656364
 20
125.7221059986884
 30
0.0
 10
232.2463235442369
 20
125.6821725436633
 30
0.0
 10
232.2466697460928
 20
125.6609515300637
 30
0.0
  0
SPLINE
  5
19A
330
1F
100
AcDbEntity
  8
0
  6
Continuous
 62
     7
370
    18
100
AcDbSpline
210
0.0
220
0.0
230
1.0
 70
     8
 71
     3
 72
    12
 73
     8
 74
     0
 42
0.000000001
 43
0.00000001
 40
0.0
 40
0.0
 40
0.0
 40
0.0
 40
0.1338350776842959
 40
0.2542572338768597
 40
0.4899325118164007
 40
0.7434916633797851
 40
1.0
 40
1.0
 40
1.0
 40
1.0
 10
231.6659036220351
 20
125.7314837100241
 30
0.0
 10
231.667011607534
 20
125.7468602382401
 30
0.0
 10
231.6691165364735
 20
125.7760722624603
 30
0.0
 10
231.6939204921403
 20
125.8277288997477
 30
0.0
 10
231.7505150758714
 20
125.8730601337092
 30
0.0
 10
231.8330209902952
 20
125.8991038981783
 30
0.0
 10
231.8914002779272
 20
125.9020813054679
 30
0.0
 10
231.920758694824
 20
125.9035786167238
 30
0.0
  0
SPLINE
  5
19B
330
1F
100
AcDbEntity
  8
0
  6
Continuous
 62
     7
370
    18
100
AcDbSpline
210
0.0
220
0.0
230
1.0
 70
     8
 71
     3
 72
    12
 73
     8
 74
     0
 42
0.000000001
 43
0.00000001
 40
0.0
 40
0.0
 40
0.0
 40
0.0
 40
0.3295920737084782
 40
0.6175980183821552
 40
0.8358975487564532
 40
0.9197397490046709
 40
1.0
 40
1.0
 40
1.0
 40
1.0
 10
232.2523050956825
 20
125.4661887908799
 30
0.0
 10
232.1803081143989
 20
125.4843538298336
 30
0.0
 10
232.0453983379899
 20
125.5183919422657
 30
0.0
 10
231.8629164894134
 20
125.5627833574108
 30
0.0
 10
231.7372506038975
 20
125.6115029312004
 30
0.0
 10
231.6739145145446
 20
125.6756790948025
 30
0.0
 10
231.6685347774349
 20
125.7131548391148
 30
0.0
 10
231.6659036220351
 20
125.7314837100241
 30
0.0
  0
SPLINE
  5
19C
330
1F
100
AcDbEntity
  8
0
  6
Continuous
 62
     7
370
    18
100
AcDbSpline
210
0.0
220
0.0
230
1.0
 70
     8
 71
     3
 72
    12
 73
     8
 74
     0
 42
0.000000001
 43
0.00000001
 40
0.0
 40
0.0
 40
0.0
 40
0.0
 40
0.2045378821184091
 40
0.3838943514216822
 40
0.5601975822227004
 40
0.7766167962242722
 40
1.0
 40
1.0
 40
1.0
 40
1.0
 10
232.8387788174016
 20
124.8849530543563
 30
0.0
 10
232.8339148585735
 20
124.9465795749638
 30
0.0
 10
232.8247857608225
 20
125.0622455480049
 30
0.0
 10
232.7381142013418
 20
125.2114634141133
 30
0.0
 10
232.6080389865681
 20
125.3250954753741
 30
0.0
 10
232.4420909187606
 20
125.4087153846438
 30
0.0
 10
232.3162313386718
 20
125.4468298162585
 30
0.0
 10
232.2523050956825
 20
125.4661887908799
 30
0.0
  0
SPLINE
  5
19D
330
1F
100
AcDbEntity
  8
0
  6
Continuous
 62
     7
370
    18
100
AcDbSpline
210
0.0
220
0.0
230
1.0
 70
     8
 71
     3
 72
    13
 73
     9
 74
     0
 42
0.000000001
 43
0.00000001
 40
0.0
 40
0.0
 40
0.0
 40
0.0
 40
0.194398482939095
 40
0.3808229110812389
 40
0.5574598692554734
 40
0.6939226743571316
 40
0.8373010797229361
 40
1.0
 40
1.0
 40
1.0
 40
1.0
 10
231.9575690873359
 20
124.1845079995899
 30
0.0
 10
232.039810614744
 20
124.1881852344738
 30
0.0
 10
232.2009201944372
 20
124.1953888673008
 30
0.0
 10
232.429683361812
 20
124.2601692772752
 30
0.0
 10
232.6154205836623
 20
124.3670703312278
 30
0.0
 10
232.7459758107449
 20
124.5123349336789
 30
0.0
 10
232.8256672755857
 20
124.6859551728027
 30
0.0
 10
232.8342281736453
 20
124.8158865418186
 30
0.0
 10
232.8387788174016
 20
124.8849530543563
 30
0.0
  0
SPLINE
  5
19E
330
1F
100
AcDbEntity
  8
0
  6
Continuous
 62
     7
370
    18
100
AcDbSpline
210
0.0
220
0.0
230
1.0
 70
     8
 71
     3
 72
    12
 73
     8
 74
     0
 42
0.000000001
 43
0.00000001
 40
0.0
 40
0.0
 40
0.0
 40
0.0
 40
0.1886637132768444
 40
0.3661825608804922
 40
0.5448728808045997
 40
0.765657932177318
 40
1.0
 40
1.0
 40
1.0
 40
1.0
 10
231.0965888173358
 20
124.7642626506444
 30
0.0
 10
231.116824405763
 20
124.6957464436737
 30
0.0
 10
231.1561002127665
 20
124.562761463708
 30
0.0
 10
231.2894062326743
 20
124.4009562821072
 30
0.0
 10
231.4699860862214
 20
124.2783270134185
 30
0.0
 10
231.6982775892453
 20
124.1987545973158
 30
0.0
 10
231.869439107091
 20
124.1893502423375
 30
0.0
 10
231.9575690873359
 20
124.1845079995899
 30
0.0
  0
LINE
  5
19F
330
1F
100
AcDbEntity
  8
0
  6
Continuous
 62
     7
370
    18
100
AcDbLine
 10
228.6651160896
 20
124.9267846878
 30
0.0
 11
228.4096830322
 21
125.7353309198
 31
0.0
  0
LINE
  5
1A0
330
1F
100
AcDbEntity
  8
0
  6
Continuous
 62
     7
370
    18
100
AcDbLine
 10
228.4096830322
 20
125.7353309198
 30
0.0
 11
228.3273924786
 21
125.7353309198
 31
0.0
  0
LINE
  5
1A1
330
1F
100
AcDbEntity
  8
0
  6
Continuous
 62
     7
370
    18
100
AcDbLine
 10
228.3273924786
 20
125.7353309198
 30
0.0
 11
228.0631812805
 21
124.9267846878
 31
0.0
  0
LINE
  5
1A2
330
1F
100
AcDbEntity
  8
0
  6
Continuous
 62
     7
370
    18
100
AcDbLine
 10
228.0631812805
 20
124.9267846878
 30
0.0
 11
228.6651160896
 21
124.9267846878
 31
0.0
  0
LINE
  5
1A3
330
1F
100
AcDbEntity
  8
0
  6
Continuous
 62
     7
370
    18
100
AcDbLine
 10
229.8260342291
 20
125.3972821925
 30
0.0
 11
230.2950687103
 21
125.3972821925
 31
0.0
  0
SPLINE
  5
1A4
330
1F
100
AcDbEntity
  8
0
  6
Continuous
 62
     7
370
    18
100
AcDbSpline
210
0.0
220
0.0
230
1.0
 70
     8
 71
     3
 72
    12
 73
     8
 74
     0
 42
0.000000001
 43
0.00000001
 40
0.0
 40
0.0
 40
0.0
 40
0.0
 40
0.242466320512139
 40
0.5040777209641409
 40
0.6506173645415594
 40
0.8119564965868004
 40
0.9999999999999999
 40
0.9999999999999999
 40
0.9999999999999999
 40
0.9999999999999999
 10
230.2950687103136
 20
125.397282192532
 30
0.0
 10
230.3265369088254
 20
125.4002752149994
 30
0.0
 10
230.3919580269219
 20
125.4064975882386
 30
0.0
 10
230.4675349420603
 20
125.4515775290904
 30
0.0
 10
230.5136685132541
 20
125.5098201408425
 30
0.0
 10
230.5385208245755
 20
125.5703158702225
 30
0.0
 10
230.5412370555665
 20
125.6156996979473
 30
0.0
 10
230.5426989759364
 20
125.640126023407
 30
0.0
  0
SPLINE
  5
1A5
330
1F
100
AcDbEntity
  8
0
  6
Continuous
 62
     7
370
    18
100
AcDbSpline
210
0.0
220
0.0
230
1.0
 70
     8
 71
     3
 72
    12
 73
     8
 74
     0
 42
0.000000001
 43
0.00000001
 40
0.0
 40
0.0
 40
0.0
 40
0.0
 40
0.23250610395507
 40
0.4222580038951598
 40
0.5928278045028524
 40
0.7922143842709269
 40
1.0
 40
1.0
 40
1.0
 40
1.0
 10
230.5426989759364
 20
125.640126023407
 30
0.0
 10
230.5408772793214
 20
125.6709959454389
 30
0.0
 10
230.537568867356
 20
125.7270592979094
 30
0.0
 10
230.5033565844897
 20
125.7998602932259
 30
0.0
 10
230.4486835981471
 20
125.8516398625053
 30
0.0
 10
230.3765079006345
 20
125.8818738288455
 30
0.0
 10
230.3225858700218
 20
125.884991345765
 30
0.0
 10
230.2950687103136
 20
125.8865822578652
 30
0.0
  0
LINE
  5
1A6
330
1F
100
AcDbEntity
  8
0
  6
Continuous
 62
     7
370
    18
100
AcDbLine
 10
230.2950687103
 20
125.8865822579
 30
0.0
 11
229.8260342291
 21
125.8865822579
 31
0.0
  0
LINE
  5
1A7
330
1F
100
AcDbEntity
  8
0
  6
Continuous
 62
     7
370
    18
100
AcDbLine
 10
229.8260342291
 20
125.8865822579
 30
0.0
 11
229.8260342291
 21
125.3972821925
 31
0.0
  0
LINE
  5
1A8
330
1F
100
AcDbEntity
  8
0
  6
Continuous
 62
     7
370
    18
100
AcDbLine
 10
229.8260342291
 20
124.5993925511
 30
0.0
 11
230.3470150738
 21
124.5993925511
 31
0.0
  0
SPLINE
  5
1A9
330
1F
100
AcDbEntity
  8
0
  6
Continuous
 62
     7
370
    18
100
AcDbSpline
210
0.0
220
0.0
230
1.0
 70
     8
 71
     3
 72
    12
 73
     8
 74
     0
 42
0.000000001
 43
0.00000001
 40
0.0
 40
0.0
 40
0.0
 40
0.0
 40
0.238258450640904
 40
0.497655653104007
 40
0.6448887038896375
 40
0.8084522641844551
 40
0.9999999999999999
 40
0.9999999999999999
 40
0.9999999999999999
 40
0.9999999999999999
 10
230.3470150738389
 20
124.5993925511109
 30
0.0
 10
230.3820076163389
 20
124.6028615070444
 30
0.0
 10
230.4550973075745
 20
124.6101071914096
 30
0.0
 10
230.538959023538
 20
124.6624266309186
 30
0.0
 10
230.5898745447944
 20
124.7293801301907
 30
0.0
 10
230.6173428009656
 20
124.7990197369952
 30
0.0
 10
230.6203389706781
 20
124.8511815302613
 30
0.0
 10
230.6219551105499
 20
124.8793177047667
 30
0.0
  0
SPLINE
  5
1AA
330
1F
100
AcDbEntity
  8
0
  6
Continuous
 62
     7
370
    18
100
AcDbSpline
210
0.0
220
0.0
230
1.0
 70
     8
 71
     3
 72
    12
 73
     8
 74
     0
 42
0.000000001
 43
0.00000001
 40
0.0
 40
0.0
 40
0.0
 40
0.0
 40
0.2366945835519313
 40
0.4286648826954242
 40
0.5991110185125309
 40
0.7959723284782182
 40
1.0
 40
1.0
 40
1.0
 40
1.0
 10
230.6219551105499
 20
124.8793177047667
 30
0.0
 10
230.6199416832544
 20
124.9148515869296
 30
0.0
 10
230.6162952729204
 20
124.9792050976882
 30
0.0
 10
230.5785702495255
 20
125.062929573954
 30
0.0
 10
230.5180106146467
 20
125.1227505651702
 30
0.0
 10
230.4376681086588
 20
125.1578410501697
 30
0.0
 10
230.3775907366491
 20
125.1614513376368
 30
0.0
 10
230.3470150738389
 20
125.1632887504355
 30
0.0
  0
LINE
  5
1AB
330
1F
100
AcDbEntity
  8
0
  6
Continuous
 62
     7
370
    18
100
AcDbLine
 10
230.3470150738
 20
125.1632887504
 30
0.0
 11
229.8260342291
 21
125.1632887504
 31
0.0
  0
LINE
  5
1AC
330
1F
100
AcDbEntity
  8
0
  6
Continuous
 62
     7
370
    18
100
AcDbLine
 10
229.8260342291
 20
125.1632887504
 30
0.0
 11
229.8260342291
 21
124.5993925511
 31
0.0
  0
SPLINE
  5
1AD
330
1F
100
AcDbEntity
  8
0
  6
Continuous
 62
     7
370
    18
100
AcDbSpline
210
0.0
220
0.0
230
1.0
 70
     8
 71
     3
 72
    13
 73
     9
 74
     0
 42
0.000000001
 43
0.00000001
 40
0.0
 40
0.0
 40
0.0
 40
0.0
 40
0.5894795511906041
 40
0.8525979839264138
 40
0.9412877217975751
 40
0.963473568107822
 40
0.9825903643577696
 40
1.0
 40
1.0
 40
1.0
 40
1.0
 10
231.9606757544174
 20
125.7696487538797
 30
0.0
 10
231.9229577110871
 20
125.7677207815216
 30
0.0
 10
231.8684039481345
 20
125.7649322448501
 30
0.0
 10
231.8098754804338
 20
125.7505321183554
 30
0.0
 10
231.7880348267733
 20
125.7397126556369
 30
0.0
 10
231.7821916705366
 20
125.7337889156899
 30
0.0
 10
231.7801409040393
 20
125.7305341306246
 30
0.0
 10
231.7798629435634
 20
125.7281926163297
 30
0.0
 10
231.7797304589391
 20
125.7270765776527
 30
0.0
  0
SPLINE
  5
1AE
330
1F
100
AcDbEntity
  8
0
  6
Continuous
 62
     7
370
    18
100
AcDbSpline
210
0.0
220
0.0
230
1.0
 70
     8
 71
     3
 72
    12
 73
     8
 74
     0
 42
0.000000001
 43
0.00000001
 40
0.0
 40
0.0
 40
0.0
 40
0.0
 40
0.168793226247075
 40
0.3139712558223856
 40
0.4643534436981251
 40
0.6895611553267724
 40
1.0
 40
1.0
 40
1.0
 40
1.0
 10
232.1309644593256
 20
125.6685556396062
 30
0.0
 10
232.1285046520722
 20
125.6807862047734
 30
0.0
 10
232.1239291795274
 20
125.70353620482
 30
0.0
 10
232.105369612577
 20
125.7334045791127
 30
0.0
 10
232.0725749056557
 20
125.754938330215
 30
0.0
 10
232.0228270414431
 20
125.7666962640836
 30
0.0
 10
231.9834798043596
 20
125.7685654500901
 30
0.0
 10
231.9606757544174
 20
125.7696487538797
 30
0.0
  0
SPLINE
  5
1AF
330
1F
100
AcDbEntity
  8
0
  6
Continuous
 62
     7
370
    18
100
AcDbSpline
210
0.0
220
0.0
230
1.0
 70
     8
 71
     3
 72
     9
 73
     5
 74
     0
 42
0.000000001
 43
0.00000001
 40
0.0
 40
0.0
 40
0.0
 40
0.0
 40
0.5915228225857656
 40
1.0
 40
1.0
 40
1.0
 40
1.0
 10
232.1362746925927
 20
125.5844227601554
 30
0.0
 10
232.1363458789604
 20
125.6010920258168
 30
0.0
 10
232.1364662232056
 20
125.6292722836615
 30
0.0
 10
232.1325600442712
 20
125.6571629421504
 30
0.0
 10
232.1309644593256
 20
125.6685556396062
 30
0.0
  0
SPLINE
  5
1B0
330
1F
100
AcDbEntity
  8
0
  6
Continuous
 62
     7
370
    18
100
AcDbSpline
210
0.0
220
0.0
230
1.0
 70
     8
 71
     3
 72
    13
 73
     9
 74
     0
 42
0.000000001
 43
0.00000001
 40
0.0
 40
0.0
 40
0.0
 40
0.0
 40
0.0518958002713984
 40
0.104938840065258
 40
0.1730026251899401
 40
0.2659228894279209
 40
0.5508780002890624
 40
0.9999999999999999
 40
0.9999999999999999
 40
0.9999999999999999
 40
0.9999999999999999
 10
231.7797304589391
 20
125.7270765776527
 30
0.0
 10
231.7803626933672
 20
125.7200571291028
 30
0.0
 10
231.7816411387749
 20
125.7058630558855
 30
0.0
 10
231.7966217818457
 20
125.6869493667535
 30
0.0
 10
231.8210799360674
 20
125.6719560551203
 30
0.0
 10
231.8764705576224
 20
125.6499981209663
 30
0.0
 10
231.9833527313865
 20
125.6225429004245
 30
0.0
 10
232.0782281504514
 20
125.5988925087194
 30
0.0
 10
232.1362746925927
 20
125.5844227601554
 30
0.0
  0
LINE
  5
1B1
330
1F
100
AcDbEntity
  8
0
  6
Continuous
 62
     7
370
    18
100
AcDbLine
 10
226.6548496196
 20
126.3785193778
 30
0.0
 11
225.8942219211
 21
126.3785193778
 31
0.0
  0
LINE
  5
1B2
330
1F
100
AcDbEntity
  8
0
  6
Continuous
 62
     7
370
    18
100
AcDbLine
 10
226.6548496196
 20
124.78353849
 30
0.0
 11
226.6548496196
 21
126.3785193778
 31
0.0
  0
LINE
  5
1B3
330
1F
100
AcDbEntity
  8
0
  6
Continuous
 62
     7
370
    18
100
AcDbLine
 10
227.4211463974
 20
124.78353849
 30
0.0
 11
226.6548496196
 21
124.78353849
 31
0.0
  0
LINE
  5
1B4
330
1F
100
AcDbEntity
  8
0
  6
Continuous
 62
     7
370
    18
100
AcDbLine
 10
228.0331355323
 20
126.3785193778
 30
0.0
 11
227.4211463974
 21
124.78353849
 31
0.0
  0
LINE
  5
1B5
330
1F
100
AcDbEntity
  8
0
  6
Continuous
 62
     7
370
    18
100
AcDbLine
 10
228.7244278271
 20
126.3785193778
 30
0.0
 11
228.0331355323
 21
126.3785193778
 31
0.0
  0
LINE
  5
1B6
330
1F
100
AcDbEntity
  8
0
  6
Continuous
 62
     7
370
    18
100
AcDbLine
 10
229.2411460357
 20
124.9842580289
 30
0.0
 11
228.7244278271
 21
126.3785193778
 31
0.0
  0
LINE
  5
1B7
330
1F
100
AcDbEntity
  8
0
  6
Continuous
 62
     7
370
    18
100
AcDbLine
 10
229.2411460357
 20
126.3785193778
 30
0.0
 11
229.2411460357
 21
124.9842580289
 31
0.0
  0
LINE
  5
1B8
330
1F
100
AcDbEntity
  8
0
  6
Continuous
 62
     7
370
    18
100
AcDbLine
 10
230.2292361491
 20
126.3785193778
 30
0.0
 11
229.2411460357
 21
126.3785193778
 31
0.0
  0
SPLINE
  5
1B9
330
1F
100
AcDbEntity
  8
0
  6
Continuous
 62
     7
370
    18
100
AcDbSpline
210
0.0
220
0.0
230
1.0
 70
     8
 71
     3
 72
    13
 73
     9
 74
     0
 42
0.000000001
 43
0.00000001
 40
0.0
 40
0.0
 40
0.0
 40
0.0
 40
0.1129894123230104
 40
0.2349035042068357
 40
0.3805358024040082
 40
0.5310429421797479
 40
0.7319137862307442
 40
1.0
 40
1.0
 40
1.0
 40
1.0
 10
231.0983804512123
 20
125.9740566106304
 30
0.0
 10
231.0813581137831
 20
126.0088981484006
 30
0.0
 10
231.0459688978408
 20
126.0813332478129
 30
0.0
 10
230.9729159741647
 20
126.1913623190611
 30
0.0
 10
230.8546586471545
 20
126.2783058315609
 30
0.0
 10
230.6932180146833
 20
126.3370866418816
 30
0.0
 10
230.482537850149
 20
126.3731425750135
 30
0.0
 10
230.3213700801726
 20
126.3765636626471
 30
0.0
 10
230.2292361491142
 20
126.3785193778142
 30
0.0
  0
SPLINE
  5
1BA
330
1F
100
AcDbEntity
  8
0
  6
Continuous
 62
     7
370
    18
100
AcDbSpline
210
0.0
220
0.0
230
1.0
 70
     8
 71
     3
 72
    12
 73
     8
 74
     0
 42
0.000000001
 43
0.00000001
 40
0.0
 40
0.0
 40
0.0
 40
0.0
 40
0.257782467716842
 40
0.4746472252827229
 40
0.6603530347935899
 40
0.8468286435267808
 40
1.0
 40
1.0
 40
1.0
 40
1.0
 10
231.9551342090202
 20
126.3997964349187
 30
0.0
 10
231.8688728098494
 20
126.3957243387513
 30
0.0
 10
231.7100422496175
 20
126.3882265086464
 30
0.0
 10
231.4967036551549
 20
126.3235720878662
 30
0.0
 10
231.3235372868562
 20
126.2284671711892
 30
0.0
 10
231.1887250714827
 20
126.1122902410012
 30
0.0
 10
231.1264601865389
 20
126.0170205828341
 30
0.0
 10
231.0983804512123
 20
125.9740566106304
 30
0.0
  0
SPLINE
  5
1BB
330
1F
100
AcDbEntity
  8
0
  6
Continuous
 62
     7
370
    18
100
AcDbSpline
210
0.0
220
0.0
230
1.0
 70
     8
 71
     3
 72
    15
 73
    11
 74
     0
 42
0.000000001
 43
0.00000001
 40
0.0
 40
0.0
 40
0.0
 40
0.0
 40
0.1009667219583008
 40
0.2110426783902181
 40
0.3263227887254702
 40
0.4481367482187073
 40
0.5538549368465837
 40
0.6756292865222517
 40
0.8215985201030968
 40
0.9999999999999999
 40
0.9999999999999999
 40
0.9999999999999999
 40
0.9999999999999999
 10
232.8864841008196
 20
125.5522904302835
 30
0.0
 10
232.885615054238
 20
125.6011184415466
 30
0.0
 10
232.8837985555476
 20
125.7031797353823
 30
0.0
 10
232.8595074601889
 20
125.8597289522788
 30
0.0
 10
232.8034628171647
 20
126.0193672255499
 30
0.0
 10
232.7074526034261
 20
126.1575607657522
 30
0.0
 10
232.5749502852527
 20
126.2650368548088
 30
0.0
 10
232.4099345946927
 20
126.3418193527981
 30
0.0
 10
232.1985044897304
 20
126.3917257389847
 30
0.0
 10
232.0414906519854
 20
126.3969326645722
 30
0.0
 10
231.9551342090202
 20
126.3997964349187
 30
0.0
  0
LINE
  5
1BC
330
1F
100
AcDbEntity
  8
0
  6
Continuous
 62
     7
370
    18
100
AcDbLine
 10
232.2699528234
 20
125.5522904303
 30
0.0
 11
232.8864841008
 21
125.5522904303
 31
0.0
  0
SPLINE
  5
1BD
330
1F
100
AcDbEntity
  8
0
  6
Continuous
 62
     7
370
    18
100
AcDbSpline
210
0.0
220
0.0
230
1.0
 70
     8
 71
     3
 72
     9
 73
     5
 74
     0
 42
0.000000001
 43
0.00000001
 40
0.0
 40
0.0
 40
0.0
 40
0.0
 40
0.5581053349214891
 40
1.0
 40
1.0
 40
1.0
 40
1.0
 10
232.285305538634
 20
125.5482806623063
 30
0.0
 10
232.2824527442977
 20
125.5490394646166
 30
0.0
 10
232.2773411745673
 20
125.5503990687322
 30
0.0
 10
232.2722171170751
 20
125.5517107883724
 30
0.0
 10
232.2699528234057
 20
125.5522904302835
 30
0.0
  0
SPLINE
  5
1BE
330
1F
100
AcDbEntity
  8
0
  6
Continuous
 62
     7
370
    18
100
AcDbSpline
210
0.0
220
0.0
230
1.0
 70
     8
 71
     3
 72
    12
 73
     8
 74
     0
 42
0.000000001
 43
0.00000001
 40
0.0
 40
0.0
 40
0.0
 40
0.0
 40
0.2081936773952727
 40
0.382385480934238
 40
0.5475549960392783
 40
0.7576294387459007
 40
1.0
 40
1.0
 40
1.0
 40
1.0
 10
232.9290384186137
 20
124.8297926452617
 30
0.0
 10
232.9267189370282
 20
124.9037631689842
 30
0.0
 10
232.9224587880521
 20
125.0396234633142
 30
0.0
 10
232.8470374761434
 20
125.2229094847026
 30
0.0
 10
232.7130564339329
 20
125.3677938543686
 30
0.0
 10
232.5199643592856
 20
125.4756181508907
 30
0.0
 10
232.3671609156749
 20
125.5229340026233
 30
0.0
 10
232.285305538634
 20
125.5482806623063
 30
0.0
  0
SPLINE
  5
1BF
330
1F
100
AcDbEntity
  8
0
  6
Continuous
 62
     7
370
    18
100
AcDbSpline
210
0.0
220
0.0
230
1.0
 70
     8
 71
     3
 72
    13
 73
     9
 74
     0
 42
0.000000001
 43
0.00000001
 40
0.0
 40
0.0
 40
0.0
 40
0.0
 40
0.2144903110109676
 40
0.4108455396423897
 40
0.5926499974110344
 40
0.7287207904635504
 40
0.8627130606487936
 40
1.0
 40
1.0
 40
1.0
 40
1.0
 10
231.9883480870034
 20
124.0594806030404
 30
0.0
 10
232.0851032027323
 20
124.06615454497
 30
0.0
 10
232.2704328222731
 20
124.0789381493233
 30
0.0
 10
232.5228082998765
 20
124.1764776574968
 30
0.0
 10
232.7131365073171
 20
124.3135135834787
 30
0.0
 10
232.8398690642938
 20
124.474694672488
 30
0.0
 10
232.9159894173955
 20
124.645181882048
 30
0.0
 10
232.9246536759136
 20
124.7677594917028
 30
0.0
 10
232.9290384186137
 20
124.8297926452617
 30
0.0
  0
SPLINE
  5
1C0
330
1F
100
AcDbEntity
  8
0
  6
Continuous
 62
     7
370
    18
100
AcDbSpline
210
0.0
220
0.0
230
1.0
 70
     8
 71
     3
 72
    12
 73
     8
 74
     0
 42
0.000000001
 43
0.00000001
 40
0.0
 40
0.0
 40
0.0
 40
0.0
 40
0.1266166298736462
 40
0.273245472447085
 40
0.4461934828620917
 40
0.6934352669522338
 40
1.0
 40
1.0
 40
1.0
 40
1.0
 10
231.0946934416743
 20
124.496872537422
 30
0.0
 10
231.1138176376388
 20
124.4565454744085
 30
0.0
 10
231.1550886773648
 20
124.3695175113635
 30
0.0
 10
231.2702511303661
 20
124.2593571681943
 30
0.0
 10
231.4413605558842
 20
124.1571546490726
 30
0.0
 10
231.6869401522582
 20
124.0790363856487
 30
0.0
 10
231.8809513753702
 20
124.0664486569748
 30
0.0
 10
231.9883480870034
 20
124.0594806030404
 30
0.0
  0
SPLINE
  5
1C1
330
1F
100
AcDbEntity
  8
0
  6
Continuous
 62
     7
370
    18
100
AcDbSpline
210
0.0
220
0.0
230
1.0
 70
     8
 71
     3
 72
    11
 73
     7
 74
     0
 42
0.000000001
 43
0.00000001
 40
0.0
 40
0.0
 40
0.0
 40
0.0
 40
0.3104248435957513
 40
0.6000686931456358
 40
0.8080123835287415
 40
1.0
 40
1.0
 40
1.0
 40
1.0
 10
230.4336235859638
 20
124.1421706295957
 30
0.0
 10
230.5153161488217
 20
124.1493619986153
 30
0.0
 10
230.6732324704215
 20
124.1632633196549
 30
0.0
 10
230.8702940647548
 20
124.2489774671087
 30
0.0
 10
231.0184446963309
 20
124.3596331171595
 30
0.0
 10
231.0699623268197
 20
124.4523592296973
 30
0.0
 10
231.0946934416743
 20
124.496872537422
 30
0.0
  0
LINE
  5
1C2
330
1F
100
AcDbEntity
  8
0
  6
Continuous
 62
     7
370
    18
100
AcDbLine
 10
228.7620071644
 20
124.1421706296
 30
0.0
 11
230.433623586
 21
124.1421706296
 31
0.0
  0
LINE
  5
1C3
330
1F
100
AcDbEntity
  8
0
  6
Continuous
 62
     7
370
    18
100
AcDbLine
 10
228.6342725737
 20
124.4721275729
 30
0.0
 11
228.7620071644
 21
124.1421706296
 31
0.0
  0
LINE
  5
1C4
330
1F
100
AcDbEntity
  8
0
  6
Continuous
 62
     7
370
    18
100
AcDbLine
 10
228.0915089354
 20
124.4721275729
 30
0.0
 11
228.6342725737
 21
124.4721275729
 31
0.0
  0
LINE
  5
1C5
330
1F
100
AcDbEntity
  8
0
  6
Continuous
 62
     7
370
    18
100
AcDbLine
 10
227.9583918633
 20
124.1421706296
 30
0.0
 11
228.0915089354
 21
124.4721275729
 31
0.0
  0
LINE
  5
1C6
330
1F
100
AcDbEntity
  8
0
  6
Continuous
 62
     7
370
    18
100
AcDbLine
 10
225.349864889
 20
124.1421706296
 30
0.0
 11
227.9583918633
 21
124.1421706296
 31
0.0
  0
SPLINE
  5
1C7
330
1F
100
AcDbEntity
  8
0
  6
Continuous
 62
     7
370
    18
100
AcDbSpline
210
0.0
220
0.0
230
1.0
 70
     8
 71
     3
 72
    11
 73
     7
 74
     0
 42
0.000000001
 43
0.00000001
 40
0.0
 40
0.0
 40
0.0
 40
0.0
 40
0.2274736611129818
 40
0.5494925387673861
 40
0.8007169048877155
 40
1.0
 40
1.0
 40
1.0
 40
1.0
 10
225.2837940274764
 20
124.4995818401094
 30
0.0
 10
225.2859599597738
 20
124.4719231595528
 30
0.0
 10
225.2911920540352
 20
124.4051099798482
 30
0.0
 10
225.3020364836679
 20
124.3083214046401
 30
0.0
 10
225.316738542938
 20
124.2144834179374
 30
0.0
 10
225.3397054296122
 20
124.164348108379
 30
0.0
 10
225.3498648890116
 20
124.1421706295957
 30
0.0
  0
SPLINE
  5
1C8
330
1F
100
AcDbEntity
  8
0
  6
Continuous
 62
     7
370
    18
100
AcDbSpline
210
0.0
220
0.0
230
1.0
 70
     8
 71
     3
 72
    13
 73
     9
 74
     0
 42
0.000000001
 43
0.00000001
 40
0.0
 40
0.0
 40
0.0
 40
0.0
 40
0.1455849753971025
 40
0.2684075940997144
 40
0.3810001390981613
 40
0.4935379506791351
 40
0.7360826269615445
 40
1.0
 40
1.0
 40
1.0
 40
1.0
 10
224.9564922008281
 20
124.9573817461978
 30
0.0
 10
224.9874928461192
 20
124.9557296266333
 30
0.0
 10
225.0446471547657
 20
124.9526836980528
 30
0.0
 10
225.1211106057303
 20
124.9220502656656
 30
0.0
 10
225.1788600468172
 20
124.8744037619958
 30
0.0
 10
225.2346071415431
 20
124.7910518640952
 30
0.0
 10
225.270487679295
 20
124.6623088515463
 30
0.0
 10
225.2792355250621
 20
124.5553290266701
 30
0.0
 10
225.2837940274764
 20
124.4995818401094
 30
0.0
  0
LINE
  5
1C9
330
1F
100
AcDbEntity
  8
0
  6
Continuous
 62
     7
370
    18
100
AcDbLine
 10
224.5125639245
 20
124.9573817462
 30
0.0
 11
224.9564922008
 21
124.9573817462
 31
0.0
  0
LINE
  5
1CA
330
1F
100
AcDbEntity
  8
0
  6
Continuous
 62
     7
370
    18
100
AcDbLine
 10
224.5125639245
 20
124.1421706296
 30
0.0
 11
224.5125639245
 21
124.9573817462
 31
0.0
  0
LINE
  5
1CB
330
1F
100
AcDbEntity
  8
0
  6
Continuous
 62
     7
370
    18
100
AcDbLine
 10
223.927051425
 20
124.1421706296
 30
0.0
 11
224.5125639245
 21
124.1421706296
 31
0.0
  0
LINE
  5
1CC
330
1F
100
AcDbEntity
  8
0
  6
Continuous
 62
     7
370
    18
100
AcDbLine
 10
223.927051425
 20
126.3785193778
 30
0.0
 11
223.927051425
 21
124.1421706296
 31
0.0
  0
LINE
  5
1CD
330
1F
100
AcDbEntity
  8
0
  6
Continuous
 62
     7
370
    18
100
AcDbLine
 10
225.0729058416
 20
126.3785193778
 30
0.0
 11
223.927051425
 21
126.3785193778
 31
0.0
  0
SPLINE
  5
1CE
330
1F
100
AcDbEntity
  8
0
  6
Continuous
 62
     7
370
    18
100
AcDbSpline
210
0.0
220
0.0
230
1.0
 70
     8
 71
     3
 72
    12
 73
     8
 74
     0
 42
0.000000001
 43
0.00000001
 40
0.0
 40
0.0
 40
0.0
 40
0.0
 40
0.2016496499628993
 40
0.3794039236986323
 40
0.5547793395586202
 40
0.771811080144802
 40
1.0
 40
1.0
 40
1.0
 40
1.0
 10
225.8598679621738
 20
125.748389758793
 30
0.0
 10
225.853372724855
 20
125.8251285381791
 30
0.0
 10
225.8411519323839
 20
125.9695125924249
 30
0.0
 10
225.7258404462375
 20
126.1530865386341
 30
0.0
 10
225.551754800449
 20
126.2841597074211
 30
0.0
 10
225.3273323748842
 20
126.3645093743016
 30
0.0
 10
225.1591198152463
 20
126.3737720031669
 30
0.0
 10
225.0729058415916
 20
126.3785193778142
 30
0.0
  0
SPLINE
  5
1CF
330
1F
100
AcDbEntity
  8
0
  6
Continuous
 62
     7
370
    18
100
AcDbSpline
210
0.0
220
0.0
230
1.0
 70
     8
 71
     3
 72
    11
 73
     7
 74
     0
 42
0.000000001
 43
0.00000001
 40
0.0
 40
0.0
 40
0.0
 40
0.0
 40
0.285264835019694
 40
0.558603774702954
 40
0.7765581993729914
 40
1.0
 40
1.0
 40
1.0
 40
1.0
 10
225.5072612484257
 20
125.1872028621558
 30
0.0
 10
225.5675531451664
 20
125.2181851912839
 30
0.0
 10
225.6856163515935
 20
125.2788545899458
 30
0.0
 10
225.7931063349121
 20
125.4330425324926
 30
0.0
 10
225.8504725096564
 20
125.592055549807
 30
0.0
 10
225.8567102955748
 20
125.6958482437272
 30
0.0
 10
225.8598679621738
 20
125.7483897587931
 30
0.0
  0
LINE
  5
1D0
330
1F
100
AcDbEntity
  8
0
  6
Continuous
 62
     7
370
    18
100
AcDbLine
 10
225.5072612484
 20
125.1809172799
 30
0.0
 11
225.5072612484
 21
125.1872028622
 31
0.0
  0
SPLINE
  5
1D1
330
1F
100
AcDbEntity
  8
0
  6
Continuous
 62
     7
370
    18
100
AcDbSpline
210
0.0
220
0.0
230
1.0
 70
     8
 71
     3
 72
    11
 73
     7
 74
     0
 42
0.000000001
 43
0.00000001
 40
0.0
 40
0.0
 40
0.0
 40
0.0
 40
0.2808304286447826
 40
0.5635450978390039
 40
0.7771991270060421
 40
1.0
 40
1.0
 40
1.0
 40
1.0
 10
225.8347256332352
 20
124.6447643401245
 30
0.0
 10
225.8270057383055
 20
124.7072278221484
 30
0.0
 10
225.8115141515694
 20
124.8325738868837
 30
0.0
 10
225.7502281463541
 20
124.9967628975937
 30
0.0
 10
225.6479119427066
 20
125.1284627535372
 30
0.0
 10
225.554795299175
 20
125.1631898443687
 30
0.0
 10
225.5072612484257
 20
125.1809172799308
 30
0.0
  0
SPLINE
  5
1D2
330
1F
100
AcDbEntity
  8
0
  6
Continuous
 62
     7
370
    18
100
AcDbSpline
210
0.0
220
0.0
230
1.0
 70
     8
 71
     3
 72
    11
 73
     7
 74
     0
 42
0.000000001
 43
0.00000001
 40
0.0
 40
0.0
 40
0.0
 40
0.0
 40
0.3074360073852221
 40
0.6261968550908508
 40
0.8442166228013986
 40
0.9999999999999999
 40
0.9999999999999999
 40
0.9999999999999999
 40
0.9999999999999999
 10
225.8929083503055
 20
124.244643907828
 30
0.0
 10
225.8830675877486
 20
124.2849904303184
 30
0.0
 10
225.8630235642225
 20
124.367169696541
 30
0.0
 10
225.8495951033592
 20
124.4805133490828
 30
0.0
 10
225.8408005451985
 20
124.5735431876006
 30
0.0
 10
225.8365126316997
 20
124.6238138982137
 30
0.0
 10
225.8347256332352
 20
124.6447643401245
 30
0.0
  0
LINE
  5
1D3
330
1F
100
AcDbEntity
  8
0
  6
Continuous
 62
     7
370
    18
100
AcDbLine
 10
225.8942219211
 20
126.3785193778
 30
0.0
 11
225.8929083503
 21
124.2446439078
 31
0.0
  0
SPLINE
  5
1D4
330
1F
100
AcDbEntity
  8
0
  6
Continuous
 62
     7
370
    18
100
AcDbSpline
210
0.0
220
0.0
230
1.0
 70
     8
 71
     3
 72
    12
 73
     8
 74
     0
 42
0.000000001
 43
0.00000001
 40
0.0
 40
0.0
 40
0.0
 40
0.0
 40
0.2554031448979515
 40
0.5239992272002607
 40
0.6685053607654243
 40
0.8229473537118226
 40
1.0
 40
1.0
 40
1.0
 40
1.0
 10
230.3171766202423
 20
124.695446362386
 30
0.0
 10
230.3433070220806
 20
124.6976312132257
 30
0.0
 10
230.3969176006629
 20
124.7021137741275
 30
0.0
 10
230.4599223505641
 20
124.7347947189115
 30
0.0
 10
230.4990436668528
 20
124.7782760821602
 30
0.0
 10
230.5200725256968
 20
124.8233301197742
 30
0.0
 10
230.5223885088939
 20
124.8573529485997
 30
0.0
 10
230.5236254850174
 20
124.8755246810044
 30
0.0
  0
LINE
  5
1D5
330
1F
100
AcDbEntity
  8
0
  6
Continuous
 62
     7
370
    18
100
AcDbLine
 10
229.9259894362
 20
124.6954463624
 30
0.0
 11
230.3171766202
 21
124.6954463624
 31
0.0
  0
LINE
  5
1D6
330
1F
100
AcDbEntity
  8
0
  6
Continuous
 62
     7
370
    18
100
AcDbLine
 10
229.9259894362
 20
125.0582761783
 30
0.0
 11
229.9259894362
 21
124.6954463624
 31
0.0
  0
LINE
  5
1D7
330
1F
100
AcDbEntity
  8
0
  6
Continuous
 62
     7
370
    18
100
AcDbLine
 10
230.3171766202
 20
125.0582761783
 30
0.0
 11
229.9259894362
 21
125.0582761783
 31
0.0
  0
SPLINE
  5
1D8
330
1F
100
AcDbEntity
  8
0
  6
Continuous
 62
     7
370
    18
100
AcDbSpline
210
0.0
220
0.0
230
1.0
 70
     8
 71
     3
 72
    12
 73
     8
 74
     0
 42
0.000000001
 43
0.00000001
 40
0.0
 40
0.0
 40
0.0
 40
0.0
 40
0.2191709004622782
 40
0.402032272796283
 40
0.5732124609680135
 40
0.7805893411712348
 40
1.0
 40
1.0
 40
1.0
 40
1.0
 10
230.5236254850174
 20
124.8755246810044
 30
0.0
 10
230.5220777983706
 20
124.8985060362666
 30
0.0
 10
230.5192388266874
 20
124.9406614796603
 30
0.0
 10
230.4900624408932
 20
124.9949183994824
 30
0.0
 10
230.4442530358359
 20
125.0328898125689
 30
0.0
 10
230.3845857932138
 20
125.0548234183862
 30
0.0
 10
230.3400647853622
 20
125.0571038253889
 30
0.0
 10
230.3171766202423
 20
125.0582761782743
 30
0.0
  0
SPLINE
  5
1D9
330
1F
100
AcDbEntity
  8
0
  6
Continuous
 62
     7
370
    18
100
AcDbSpline
210
0.0
220
0.0
230
1.0
 70
     8
 71
     3
 72
    12
 73
     8
 74
     0
 42
0.000000001
 43
0.00000001
 40
0.0
 40
0.0
 40
0.0
 40
0.0
 40
0.2631780919768604
 40
0.5362228315034394
 40
0.6796343489711612
 40
0.8298665817545476
 40
1.0
 40
1.0
 40
1.0
 40
1.0
 10
230.2561269996876
 20
125.4968219732648
 30
0.0
 10
230.2779498275238
 20
125.4985145525144
 30
0.0
 10
230.3224136293768
 20
125.5019631664585
 30
0.0
 10
230.3750672061996
 20
125.5270621420182
 30
0.0
 10
230.4081111450961
 20
125.5610008242028
 30
0.0
 10
230.4258882718412
 20
125.596142413224
 30
0.0
 10
230.4278607556157
 20
125.622829073523
 30
0.0
 10
230.4289082630681
 20
125.6370012943076
 30
0.0
  0
LINE
  5
1DA
330
1F
100
AcDbEntity
  8
0
  6
Continuous
 62
     7
370
    18
100
AcDbLine
 10
229.9286987389
 20
125.4968219733
 30
0.0
 11
230.2561269997
 21
125.4968219733
 31
0.0
  0
LINE
  5
1DB
330
1F
100
AcDbEntity
  8
0
  6
Continuous
 62
     7
370
    18
100
AcDbLine
 10
229.9286987389
 20
125.7792396854
 30
0.0
 11
229.9286987389
 21
125.4968219733
 31
0.0
  0
LINE
  5
1DC
330
1F
100
AcDbEntity
  8
0
  6
Continuous
 62
     7
370
    18
100
AcDbLine
 10
230.2561269997
 20
125.7792396854
 30
0.0
 11
229.9286987389
 21
125.7792396854
 31
0.0
  0
SPLINE
  5
1DD
330
1F
100
AcDbEntity
  8
0
  6
Continuous
 62
     7
370
    18
100
AcDbSpline
210
0.0
220
0.0
230
1.0
 70
     8
 71
     3
 72
    12
 73
     8
 74
     0
 42
0.000000001
 43
0.00000001
 40
0.0
 40
0.0
 40
0.0
 40
0.0
 40
0.2108655154368313
 40
0.3895958229608272
 40
0.5613353297982684
 40
0.7736399301224668
 40
1.0
 40
1.0
 40
1.0
 40
1.0
 10
230.4289082630681
 20
125.6370012943076
 30
0.0
 10
230.4275919328582
 20
125.6549422150733
 30
0.0
 10
230.4251598768135
 20
125.6880899195517
 30
0.0
 10
230.4003846862336
 20
125.7304064488396
 30
0.0
 10
230.3619974913849
 20
125.7597025006678
 30
0.0
 10
230.312323040795
 20
125.7765666074047
 30
0.0
 10
230.2752549193352
 20
125.7783298273324
 30
0.0
 10
230.2561269996876
 20
125.7792396853929
 30
0.0
  0
LINE
  5
1DE
330
1F
100
AcDbEntity
  8
0
  6
Continuous
 62
     7
370
    18
100
AcDbLine
 10
228.2050403692
 20
125.0345788108
 30
0.0
 11
228.5158154495
 21
125.0345788108
 31
0.0
  0
LINE
  5
1DF
330
1F
100
AcDbEntity
  8
0
  6
Continuous
 62
     7
370
    18
100
AcDbLine
 10
228.363046902
 20
125.5223616666
 30
0.0
 11
228.2050403692
 21
125.0345788108
 31
0.0
  0
LINE
  5
1E0
330
1F
100
AcDbEntity
  8
0
  6
Continuous
 62
     7
370
    18
100
AcDbLine
 10
228.5158154495
 20
125.0345788108
 30
0.0
 11
228.363046902
 21
125.5223616666
 31
0.0
  0
SPLINE
  5
1E1
330
1F
100
AcDbEntity
  8
0
  6
Continuous
 62
     7
370
    18
100
AcDbSpline
210
0.0
220
0.0
230
1.0
 70
     8
 71
     3
 72
    11
 73
     7
 74
     0
 42
0.000000001
 43
0.00000001
 40
0.0
 40
0.0
 40
0.0
 40
0.0
 40
0.2800359244938569
 40
0.5600382743760581
 40
0.7801217300908229
 40
1.0
 40
1.0
 40
1.0
 40
1.0
 10
233.657903023601
 20
121.3009863256185
 30
0.0
 10
233.7167499238076
 20
121.3382435681044
 30
0.0
 10
233.8344366688338
 20
121.4127535861584
 30
0.0
 10
233.9736459507522
 20
121.5484760385132
 30
0.0
 10
234.0881105035355
 20
121.6869163750484
 30
0.0
 10
234.1359726648614
 20
121.7854293965639
 30
0.0
 10
234.1598925847397
 20
121.8346629354669
 30
0.0
  0
LINE
  5
1E2
330
1F
100
AcDbEntity
  8
0
  6
Continuous
 62
     7
370
    18
100
AcDbLine
 10
233.6579030236
 20
121.0608318512
 30
0.0
 11
233.6579030236
 21
121.3009863256
 31
0.0
  0
SPLINE
  5
1E3
330
1F
100
AcDbEntity
  8
0
  6
Continuous
 62
     7
370
    18
100
AcDbSpline
210
0.0
220
0.0
230
1.0
 70
     8
 71
     3
 72
     9
 73
     5
 74
     0
 42
0.000000001
 43
0.00000001
 40
0.0
 40
0.0
 40
0.0
 40
0.0
 40
0.5597552341668147
 40
1.0
 40
1.0
 40
1.0
 40
1.0
 10
234.0848443114797
 20
121.3810378170957
 30
0.0
 10
234.0133298881919
 20
121.3101661291037
 30
0.0
 10
233.885569719242
 20
121.1835542036298
 30
0.0
 10
233.7274947162689
 20
121.098344831338
 30
0.0
 10
233.657903023601
 20
121.0608318511866
 30
0.0
  0
LINE
  5
1E4
330
1F
100
AcDbEntity
  8
0
  6
Continuous
 62
     7
370
    18
100
AcDbLine
 10
234.0848443115
 20
119.7533241571
 30
0.0
 11
234.0848443115
 21
121.3810378171
 31
0.0
  0
LINE
  5
1E5
330
1F
100
AcDbEntity
  8
0
  6
Continuous
 62
     7
370
    18
100
AcDbLine
 10
234.2983149554
 20
119.7533241571
 30
0.0
 11
234.0848443115
 21
119.7533241571
 31
0.0
  0
LINE
  5
1E6
330
1F
100
AcDbEntity
  8
0
  6
Continuous
 62
     7
370
    18
100
AcDbLine
 10
234.2983149554
 20
121.8346629355
 30
0.0
 11
234.2983149554
 21
119.7533241571
 31
0.0
  0
LINE
  5
1E7
330
1F
100
AcDbEntity
  8
0
  6
Continuous
 62
     7
370
    18
100
AcDbLine
 10
234.1598925847
 20
121.8346629355
 30
0.0
 11
234.2983149554
 21
121.8346629355
 31
0.0
  0
SPLINE
  5
1E8
330
1F
100
AcDbEntity
  8
0
  6
Continuous
 62
     7
370
    18
100
AcDbSpline
210
0.0
220
0.0
230
1.0
 70
     8
 71
     3
 72
    10
 73
     6
 74
     0
 42
0.000000001
 43
0.00000001
 40
0.0
 40
0.0
 40
0.0
 40
0.0
 40
0.2795751783825379
 40
0.5597049368157155
 40
1.0
 40
1.0
 40
1.0
 40
1.0
 10
233.1434054169189
 20
121.617856812716
 30
0.0
 10
233.1792839578244
 20
121.545353665249
 30
0.0
 10
233.251112210199
 20
121.4002035492524
 30
0.0
 10
233.3007103335028
 20
121.1136818892665
 30
0.0
 10
233.3071050377297
 20
120.9064622077787
 30
0.0
 10
233.3110132271994
 20
120.7798177613133
 30
0.0
  0
SPLINE
  5
1E9
330
1F
100
AcDbEntity
  8
0
  6
Continuous
 62
     7
370
    18
100
AcDbSpline
210
0.0
220
0.0
230
1.0
 70
     8
 71
     3
 72
    11
 73
     7
 74
     0
 42
0.000000001
 43
0.00000001
 40
0.0
 40
0.0
 40
0.0
 40
0.0
 40
0.2798903849624062
 40
0.5594964420644617
 40
0.7796718965173952
 40
1.0
 40
1.0
 40
1.0
 40
1.0
 10
232.7652455066591
 20
121.8346629354669
 30
0.0
 10
232.8080024483796
 20
121.831810417195
 30
0.0
 10
232.8934728969961
 20
121.8261082783943
 30
0.0
 10
233.002243152099
 20
121.7724831964649
 30
0.0
 10
233.0857634776117
 20
121.70044382838
 30
0.0
 10
233.1241869988102
 20
121.645392177009
 30
0.0
 10
233.1434054169189
 20
121.617856812716
 30
0.0
  0
SPLINE
  5
1EA
330
1F
100
AcDbEntity
  8
0
  6
Continuous
 62
     7
370
    18
100
AcDbSpline
210
0.0
220
0.0
230
1.0
 70
     8
 71
     3
 72
    13
 73
     9
 74
     0
 42
0.000000001
 43
0.00000001
 40
0.0
 40
0.0
 40
0.0
 40
0.0
 40
0.250489058345649
 40
0.5006738274425627
 40
0.6258446378555196
 40
0.7507584155659035
 40
0.8753007099299316
 40
0.9999999999999999
 40
0.9999999999999999
 40
0.9999999999999999
 40
0.9999999999999999
 10
232.2169761770101
 20
120.7798177613133
 30
0.0
 10
232.2196947916252
 20
120.890057958671
 30
0.0
 10
232.2251287183351
 20
121.1104044357334
 30
0.0
 10
232.2751820903767
 20
121.3838318712807
 30
0.0
 10
232.3601176157539
 20
121.5882894055658
 30
0.0
 10
232.4571056914429
 20
121.723802026645
 30
0.0
 10
232.5990613545265
 20
121.8199013087334
 30
0.0
 10
232.7098275323087
 20
121.8297403273771
 30
0.0
 10
232.7652455066591
 20
121.8346629354669
 30
0.0
  0
SPLINE
  5
1EB
330
1F
100
AcDbEntity
  8
0
  6
Continuous
 62
     7
370
    18
100
AcDbSpline
210
0.0
220
0.0
230
1.0
 70
     8
 71
     3
 72
    13
 73
     9
 74
     0
 42
0.000000001
 43
0.00000001
 40
0.0
 40
0.0
 40
0.0
 40
0.0
 40
0.1245870753534853
 40
0.2492227148385392
 40
0.3742192396120934
 40
0.4992998133209643
 40
0.7494812006580004
 40
1.0
 40
1.0
 40
1.0
 40
1.0
 10
232.7627438975504
 20
119.7266403265654
 30
0.0
 10
232.7074802542616
 20
119.7322770228425
 30
0.0
 10
232.5969314258761
 20
119.7435526125849
 30
0.0
 10
232.4581424696534
 20
119.8421856254212
 30
0.0
 10
232.3551033609703
 20
119.9721899619812
 30
0.0
 10
232.2690794758018
 20
120.1765359130348
 30
0.0
 10
232.2239085891827
 20
120.4500380922206
 30
0.0
 10
232.2192880189714
 20
120.669841831144
 30
0.0
 10
232.2169761770101
 20
120.7798177613133
 30
0.0
  0
SPLINE
  5
1EC
330
1F
100
AcDbEntity
  8
0
  6
Continuous
 62
     7
370
    18
100
AcDbSpline
210
0.0
220
0.0
230
1.0
 70
     8
 71
     3
 72
    13
 73
     9
 74
     0
 42
0.000000001
 43
0.00000001
 40
0.0
 40
0.0
 40
0.0
 40
0.0
 40
0.2504702058475066
 40
0.5006494994159211
 40
0.6258027062132783
 40
0.7507410958263502
 40
0.875278539975007
 40
1.0
 40
1.0
 40
1.0
 40
1.0
 10
233.3110132271994
 20
120.7798177613133
 30
0.0
 10
233.3082997319443
 20
120.6696853057617
 30
0.0
 10
233.3028758930628
 20
120.4495483096078
 30
0.0
 10
233.2521060353388
 20
120.1766177093718
 30
0.0
 10
233.1677542879031
 20
119.9721935969205
 30
0.0
 10
233.0708715279467
 20
119.8367387681882
 30
0.0
 10
232.9287949110778
 20
119.7410605033863
 30
0.0
 10
232.8181214703547
 20
119.7314494173068
 30
0.0
 10
232.7627438975504
 20
119.7266403265654
 30
0.0
  0
LINE
  5
1ED
330
1F
100
AcDbEntity
  8
0
  6
Continuous
 62
     7
370
    18
100
AcDbLine
 10
231.0249594367
 20
119.7533241571
 30
0.0
 11
230.535894856
 21
121.5465609531
 31
0.0
  0
LINE
  5
1EE
330
1F
100
AcDbEntity
  8
0
  6
Continuous
 62
     7
370
    18
100
AcDbLine
 10
231.2434332989
 20
119.7533241571
 30
0.0
 11
231.0249594367
 21
119.7533241571
 31
0.0
  0
LINE
  5
1EF
330
1F
100
AcDbEntity
  8
0
  6
Continuous
 62
     7
370
    18
100
AcDbLine
 10
231.7366672281
 20
121.4494151327
 30
0.0
 11
231.2434332989
 21
119.7533241571
 31
0.0
  0
LINE
  5
1F0
330
1F
100
AcDbEntity
  8
0
  6
Continuous
 62
     7
370
    18
100
AcDbLine
 10
231.7366672281
 20
119.7533241571
 30
0.0
 11
231.7366672281
 21
121.4494151327
 31
0.0
  0
LINE
  5
1F1
330
1F
100
AcDbEntity
  8
0
  6
Continuous
 62
     7
370
    18
100
AcDbLine
 10
231.9501378721
 20
119.7533241571
 30
0.0
 11
231.7366672281
 21
119.7533241571
 31
0.0
  0
LINE
  5
1F2
330
1F
100
AcDbEntity
  8
0
  6
Continuous
 62
     7
370
    18
100
AcDbLine
 10
231.9501378721
 20
121.807979105
 30
0.0
 11
231.9501378721
 21
119.7533241571
 31
0.0
  0
LINE
  5
1F3
330
1F
100
AcDbEntity
  8
0
  6
Continuous
 62
     7
370
    18
100
AcDbLine
 10
231.6478601048
 20
121.807979105
 30
0.0
 11
231.9501378721
 21
121.807979105
 31
0.0
  0
LINE
  5
1F4
330
1F
100
AcDbEntity
  8
0
  6
Continuous
 62
     7
370
    18
100
AcDbLine
 10
231.2292575139
 20
120.3783094994
 30
0.0
 11
231.6478601048
 21
121.807979105
 31
0.0
  0
SPLINE
  5
1F5
330
1F
100
AcDbEntity
  8
0
  6
Continuous
 62
     7
370
    18
100
AcDbSpline
210
0.0
220
0.0
230
1.0
 70
     8
 71
     3
 72
     9
 73
     5
 74
     0
 42
0.000000001
 43
0.00000001
 40
0.0
 40
0.0
 40
0.0
 40
0.0
 40
0.5599947003108312
 40
1.0
 40
1.0
 40
1.0
 40
1.0
 10
231.1362810420669
 20
120.0489309667317
 30
0.0
 10
231.1532109483848
 20
120.1105347627606
 30
0.0
 10
231.1834432100626
 20
120.220542582468
 30
0.0
 10
231.2152585817742
 20
120.3301025382117
 30
0.0
 10
231.2292575139389
 20
120.3783094993726
 30
0.0
  0
LINE
  5
1F6
330
1F
100
AcDbEntity
  8
0
  6
Continuous
 62
     7
370
    18
100
AcDbLine
 10
231.0562295506
 20
120.3532934083
 30
0.0
 11
231.1362810421
 21
120.0489309667
 31
0.0
  0
LINE
  5
1F7
330
1F
100
AcDbEntity
  8
0
  6
Continuous
 62
     7
370
    18
100
AcDbLine
 10
230.6563890281
 20
121.807979105
 30
0.0
 11
231.0562295506
 21
120.3532934083
 31
0.0
  0
LINE
  5
1F8
330
1F
100
AcDbEntity
  8
0
  6
Continuous
 62
     7
370
    18
100
AcDbLine
 10
230.322424212
 20
121.807979105
 30
0.0
 11
230.6563890281
 21
121.807979105
 31
0.0
  0
LINE
  5
1F9
330
1F
100
AcDbEntity
  8
0
  6
Continuous
 62
     7
370
    18
100
AcDbLine
 10
230.322424212
 20
119.7533241571
 30
0.0
 11
230.322424212
 21
121.807979105
 31
0.0
  0
LINE
  5
1FA
330
1F
100
AcDbEntity
  8
0
  6
Continuous
 62
     7
370
    18
100
AcDbLine
 10
230.535894856
 20
119.7533241571
 30
0.0
 11
230.322424212
 21
119.7533241571
 31
0.0
  0
LINE
  5
1FB
330
1F
100
AcDbEntity
  8
0
  6
Continuous
 62
     7
370
    18
100
AcDbLine
 10
230.535894856
 20
121.5465609531
 30
0.0
 11
230.535894856
 21
119.7533241571
 31
0.0
  0
LINE
  5
1FC
330
1F
100
AcDbEntity
  8
0
  6
Continuous
 62
     7
370
    18
100
AcDbLine
 10
229.4418578058
 20
120.6072067328
 30
0.0
 11
230.0822697376
 21
120.6072067328
 31
0.0
  0
LINE
  5
1FD
330
1F
100
AcDbEntity
  8
0
  6
Continuous
 62
     7
370
    18
100
AcDbLine
 10
229.4418578058
 20
120.3670522584
 30
0.0
 11
229.4418578058
 21
120.6072067328
 31
0.0
  0
LINE
  5
1FE
330
1F
100
AcDbEntity
  8
0
  6
Continuous
 62
     7
370
    18
100
AcDbLine
 10
230.0822697376
 20
120.3670522584
 30
0.0
 11
229.4418578058
 21
120.3670522584
 31
0.0
  0
LINE
  5
1FF
330
1F
100
AcDbEntity
  8
0
  6
Continuous
 62
     7
370
    18
100
AcDbLine
 10
230.0822697376
 20
120.6072067328
 30
0.0
 11
230.0822697376
 21
120.3670522584
 31
0.0
  0
SPLINE
  5
200
330
1F
100
AcDbEntity
  8
0
  6
Continuous
 62
     7
370
    18
100
AcDbSpline
210
0.0
220
0.0
230
1.0
 70
     8
 71
     3
 72
    10
 73
     6
 74
     0
 42
0.000000001
 43
0.00000001
 40
0.0
 40
0.0
 40
0.0
 40
0.0
 40
0.2795751783825387
 40
0.5597049368157155
 40
1.0
 40
1.0
 40
1.0
 40
1.0
 10
229.0874631820704
 20
121.617856812716
 30
0.0
 10
229.1233417229759
 20
121.545353665249
 30
0.0
 10
229.1951699753505
 20
121.4002035492524
 30
0.0
 10
229.2447680986543
 20
121.1136818892665
 30
0.0
 10
229.2511628028812
 20
120.9064622077787
 30
0.0
 10
229.255070992351
 20
120.7798177613133
 30
0.0
  0
SPLINE
  5
201
330
1F
100
AcDbEntity
  8
0
  6
Continuous
 62
     7
370
    18
100
AcDbSpline
210
0.0
220
0.0
230
1.0
 70
     8
 71
     3
 72
    11
 73
     7
 74
     0
 42
0.000000001
 43
0.00000001
 40
0.0
 40
0.0
 40
0.0
 40
0.0
 40
0.2798903849624057
 40
0.5594964420644606
 40
0.7796718965173823
 40
1.0
 40
1.0
 40
1.0
 40
1.0
 10
228.7093032718106
 20
121.8346629354669
 30
0.0
 10
228.7520602135311
 20
121.831810417195
 30
0.0
 10
228.8375306621476
 20
121.8261082783943
 30
0.0
 10
228.9463009172505
 20
121.7724831964649
 30
0.0
 10
229.0298212427632
 20
121.70044382838
 30
0.0
 10
229.0682447639617
 20
121.645392177009
 30
0.0
 10
229.0874631820704
 20
121.617856812716
 30
0.0
  0
SPLINE
  5
202
330
1F
100
AcDbEntity
  8
0
  6
Continuous
 62
     7
370
    18
100
AcDbSpline
210
0.0
220
0.0
230
1.0
 70
     8
 71
     3
 72
    13
 73
     9
 74
     0
 42
0.000000001
 43
0.00000001
 40
0.0
 40
0.0
 40
0.0
 40
0.0
 40
0.2504890583456488
 40
0.5006738274425626
 40
0.6258446378555199
 40
0.7507584155659034
 40
0.875300709929931
 40
1.0
 40
1.0
 40
1.0
 40
1.0
 10
228.1610339421616
 20
120.7798177613133
 30
0.0
 10
228.1637525567767
 20
120.890057958671
 30
0.0
 10
228.1691864834866
 20
121.1104044357334
 30
0.0
 10
228.2192398555282
 20
121.3838318712807
 30
0.0
 10
228.3041753809054
 20
121.5882894055658
 30
0.0
 10
228.4011634565944
 20
121.723802026645
 30
0.0
 10
228.543119119678
 20
121.8199013087334
 30
0.0
 10
228.6538852974602
 20
121.8297403273771
 30
0.0
 10
228.7093032718106
 20
121.8346629354669
 30
0.0
  0
SPLINE
  5
203
330
1F
100
AcDbEntity
  8
0
  6
Continuous
 62
     7
370
    18
100
AcDbSpline
210
0.0
220
0.0
230
1.0
 70
     8
 71
     3
 72
    13
 73
     9
 74
     0
 42
0.000000001
 43
0.00000001
 40
0.0
 40
0.0
 40
0.0
 40
0.0
 40
0.1245870753534865
 40
0.2492227148385377
 40
0.3742192396120917
 40
0.4992998133209635
 40
0.7494812006579948
 40
1.0
 40
1.0
 40
1.0
 40
1.0
 10
228.7068016627019
 20
119.7266403265654
 30
0.0
 10
228.6515380194131
 20
119.7322770228425
 30
0.0
 10
228.5409891910276
 20
119.7435526125849
 30
0.0
 10
228.4022002348048
 20
119.8421856254212
 30
0.0
 10
228.2991611261218
 20
119.9721899619812
 30
0.0
 10
228.2131372409534
 20
120.1765359130348
 30
0.0
 10
228.1679663543342
 20
120.4500380922206
 30
0.0
 10
228.1633457841229
 20
120.669841831144
 30
0.0
 10
228.1610339421616
 20
120.7798177613133
 30
0.0
  0
SPLINE
  5
204
330
1F
100
AcDbEntity
  8
0
  6
Continuous
 62
     7
370
    18
100
AcDbSpline
210
0.0
220
0.0
230
1.0
 70
     8
 71
     3
 72
    13
 73
     9
 74
     0
 42
0.000000001
 43
0.00000001
 40
0.0
 40
0.0
 40
0.0
 40
0.0
 40
0.2504702058475065
 40
0.5006494994159209
 40
0.6258027062132777
 40
0.7507410958263505
 40
0.8752785399750078
 40
1.0
 40
1.0
 40
1.0
 40
1.0
 10
229.255070992351
 20
120.7798177613133
 30
0.0
 10
229.2523574970959
 20
120.6696853057617
 30
0.0
 10
229.2469336582143
 20
120.4495483096078
 30
0.0
 10
229.1961638004902
 20
120.1766177093718
 30
0.0
 10
229.1118120530546
 20
119.9721935969205
 30
0.0
 10
229.0149292930982
 20
119.8367387681882
 30
0.0
 10
228.8728526762293
 20
119.7410605033863
 30
0.0
 10
228.7621792355062
 20
119.7314494173068
 30
0.0
 10
228.7068016627019
 20
119.7266403265654
 30
0.0
  0
SPLINE
  5
205
330
1F
100
AcDbEntity
  8
0
  6
Continuous
 62
     7
370
    18
100
AcDbSpline
210
0.0
220
0.0
230
1.0
 70
     8
 71
     3
 72
    12
 73
     8
 74
     0
 42
0.000000001
 43
0.00000001
 40
0.0
 40
0.0
 40
0.0
 40
0.0
 40
0.1861323399318262
 40
0.372610881981556
 40
0.5594136204052396
 40
0.7795030968206004
 40
1.0
 40
1.0
 40
1.0
 40
1.0
 10
227.4464076067863
 20
121.1141995121715
 30
0.0
 10
227.5040499217214
 20
121.1075136117886
 30
0.0
 10
227.619441765048
 20
121.094129375393
 30
0.0
 10
227.7615874898766
 20
120.9870177312296
 30
0.0
 10
227.8727575086808
 20
120.8414564134168
 30
0.0
 10
227.9385544084617
 20
120.6561318029188
 30
0.0
 10
227.9445584842373
 20
120.5207129018074
 30
0.0
 10
227.9475632982222
 20
120.4529408377811
 30
0.0
  0
SPLINE
  5
206
330
1F
100
AcDbEntity
  8
0
  6
Continuous
 62
     7
370
    18
100
AcDbSpline
210
0.0
220
0.0
230
1.0
 70
     8
 71
     3
 72
     9
 73
     5
 74
     0
 42
0.000000001
 43
0.00000001
 40
0.0
 40
0.0
 40
0.0
 40
0.0
 40
0.5597945537684308
 40
1.0
 40
1.0
 40
1.0
 40
1.0
 10
227.1420451652321
 20
121.0337310858428
 30
0.0
 10
227.1961659712726
 20
121.0595390909883
 30
0.0
 10
227.2928457365116
 20
121.1056417280572
 30
0.0
 10
227.3994707119112
 20
121.1115837859328
 30
0.0
 10
227.4464076067863
 20
121.1141995121715
 30
0.0
  0
LINE
  5
207
330
1F
100
AcDbEntity
  8
0
  6
Continuous
 62
     7
370
    18
100
AcDbLine
 10
227.2191781127
 20
121.5411408001
 30
0.0
 11
227.1420451652
 21
121.0337310858
 31
0.0
  0
LINE
  5
208
330
1F
100
AcDbEntity
  8
0
  6
Continuous
 62
     7
370
    18
100
AcDbLine
 10
227.8675118067
 20
121.5411408001
 30
0.0
 11
227.2191781127
 21
121.5411408001
 31
0.0
  0
LINE
  5
209
330
1F
100
AcDbEntity
  8
0
  6
Continuous
 62
     7
370
    18
100
AcDbLine
 10
227.8675118067
 20
121.7812952745
 30
0.0
 11
227.8675118067
 21
121.5411408001
 31
0.0
  0
LINE
  5
20A
330
1F
100
AcDbEntity
  8
0
  6
Continuous
 62
     7
370
    18
100
AcDbLine
 10
227.0403130615
 20
121.7812952745
 30
0.0
 11
227.8675118067
 21
121.7812952745
 31
0.0
  0
LINE
  5
20B
330
1F
100
AcDbEntity
  8
0
  6
Continuous
 62
     7
370
    18
100
AcDbLine
 10
226.8802100785
 20
120.7285347746
 30
0.0
 11
227.0403130615
 21
121.7812952745
 31
0.0
  0
LINE
  5
20C
330
1F
100
AcDbEntity
  8
0
  6
Continuous
 62
     7
370
    18
100
AcDbLine
 10
227.0936807225
 20
120.6980985304
 30
0.0
 11
226.8802100785
 21
120.7285347746
 31
0.0
  0
SPLINE
  5
20D
330
1F
100
AcDbEntity
  8
0
  6
Continuous
 62
     7
370
    18
100
AcDbSpline
210
0.0
220
0.0
230
1.0
 70
     8
 71
     3
 72
    10
 73
     6
 74
     0
 42
0.000000001
 43
0.00000001
 40
0.0
 40
0.0
 40
0.0
 40
0.0
 40
0.2801682771676897
 40
0.5607715634932623
 40
1.0
 40
1.0
 40
1.0
 40
1.0
 10
227.3867859230298
 20
120.9007288682321
 30
0.0
 10
227.3517979097922
 20
120.8968619003821
 30
0.0
 10
227.2817675584435
 20
120.8891219605532
 30
0.0
 10
227.1709230458864
 20
120.8224674181999
 30
0.0
 10
227.1229518734703
 20
120.7452283982676
 30
0.0
 10
227.0936807224646
 20
120.6980985304302
 30
0.0
  0
SPLINE
  5
20E
330
1F
100
AcDbEntity
  8
0
  6
Continuous
 62
     7
370
    18
100
AcDbSpline
210
0.0
220
0.0
230
1.0
 70
     8
 71
     3
 72
    11
 73
     7
 74
     0
 42
0.000000001
 43
0.00000001
 40
0.0
 40
0.0
 40
0.0
 40
0.0
 40
0.281031819621698
 40
0.5605860755662323
 40
0.7803889752948985
 40
1.0
 40
1.0
 40
1.0
 40
1.0
 10
227.7340926542828
 20
120.4412666619407
 30
0.0
 10
227.7312361611173
 20
120.5018184100698
 30
0.0
 10
227.7255381931944
 20
120.6226035471338
 30
0.0
 10
227.6514963459533
 20
120.7777048405854
 30
0.0
 10
227.5298042896722
 20
120.8838138170659
 30
0.0
 10
227.4344448319846
 20
120.8950921594483
 30
0.0
 10
227.3867859230298
 20
120.9007288682321
 30
0.0
  0
SPLINE
  5
20F
330
1F
100
AcDbEntity
  8
0
  6
Continuous
 62
     7
370
    18
100
AcDbSpline
210
0.0
220
0.0
230
1.0
 70
     8
 71
     3
 72
    12
 73
     8
 74
     0
 42
0.000000001
 43
0.00000001
 40
0.0
 40
0.0
 40
0.0
 40
0.0
 40
0.1858835197478816
 40
0.3723018513499654
 40
0.5590684864252692
 40
0.7793243380015258
 40
1.0
 40
1.0
 40
1.0
 40
1.0
 10
227.381365769961
 20
119.9401109705048
 30
0.0
 10
227.4238670731442
 20
119.9456329609914
 30
0.0
 10
227.5089919614685
 20
119.9566928294728
 30
0.0
 10
227.6097797937858
 20
120.0415813563562
 30
0.0
 10
227.685670423232
 20
120.1531529105755
 30
0.0
 10
227.7280166732026
 20
120.2914661824487
 30
0.0
 10
227.7320660421228
 20
120.3913014844153
 30
0.0
 10
227.7340926542828
 20
120.4412666619407
 30
0.0
  0
SPLINE
  5
210
330
1F
100
AcDbEntity
  8
0
  6
Continuous
 62
     7
370
    18
100
AcDbSpline
210
0.0
220
0.0
230
1.0
 70
     8
 71
     3
 72
    11
 73
     7
 74
     0
 42
0.000000001
 43
0.00000001
 40
0.0
 40
0.0
 40
0.0
 40
0.0
 40
0.2811074381184291
 40
0.5611160017532768
 40
0.7809929910720587
 40
1.0
 40
1.0
 40
1.0
 40
1.0
 10
227.0669968919722
 20
120.3403684278912
 30
0.0
 10
227.075212620925
 20
120.2887221781723
 30
0.0
 10
227.0916119628007
 20
120.1856315686113
 30
0.0
 10
227.1558667481016
 20
120.0533433204773
 30
0.0
 10
227.2582443061181
 20
119.9583919814989
 30
0.0
 10
227.3403795530391
 20
119.9461965827025
 30
0.0
 10
227.381365769961
 20
119.9401109705048
 30
0.0
  0
LINE
  5
211
330
1F
100
AcDbEntity
  8
0
  6
Continuous
 62
     7
370
    18
100
AcDbLine
 10
226.853526248
 20
120.3136845974
 30
0.0
 11
227.066996892
 21
120.3403684279
 31
0.0
  0
SPLINE
  5
212
330
1F
100
AcDbEntity
  8
0
  6
Continuous
 62
     7
370
    18
100
AcDbSpline
210
0.0
220
0.0
230
1.0
 70
     8
 71
     3
 72
    12
 73
     8
 74
     0
 42
0.000000001
 43
0.00000001
 40
0.0
 40
0.0
 40
0.0
 40
0.0
 40
0.1865885886654313
 40
0.3730457041861937
 40
0.5597053661028969
 40
0.7796179230979448
 40
0.9999999999999999
 40
0.9999999999999999
 40
0.9999999999999999
 40
0.9999999999999999
 10
227.3834504442183
 20
119.7266403265654
 30
0.0
 10
227.328633470952
 20
119.7310021746102
 30
0.0
 10
227.2190381492887
 20
119.7397227972757
 30
0.0
 10
227.0733446743644
 20
119.8235391605546
 30
0.0
 10
226.9542974759943
 20
119.9515777076023
 30
0.0
 10
226.8773570777879
 20
120.1218791766194
 30
0.0
 10
226.8614755031978
 20
120.2497040206636
 30
0.0
 10
226.8535262480328
 20
120.3136845973987
 30
0.0
  0
SPLINE
  5
213
330
1F
100
AcDbEntity
  8
0
  6
Continuous
 62
     7
370
    18
100
AcDbSpline
210
0.0
220
0.0
230
1.0
 70
     8
 71
     3
 72
    13
 73
     9
 74
     0
 42
0.000000001
 43
0.00000001
 40
0.0
 40
0.0
 40
0.0
 40
0.0
 40
0.1868890796518145
 40
0.3736670037034826
 40
0.5603596573753085
 40
0.7069433013335574
 40
0.8533827747571286
 40
1.0
 40
1.0
 40
1.0
 40
1.0
 10
227.9475632982222
 20
120.4529408377811
 30
0.0
 10
227.94446971818
 20
120.3890220189641
 30
0.0
 10
227.9382843980573
 20
120.2612223981831
 30
0.0
 10
227.881121082416
 20
120.0764505224751
 30
0.0
 10
227.7903370699002
 20
119.9216854603417
 30
0.0
 10
227.672467975306
 20
119.8054257774786
 30
0.0
 10
227.5342839041073
 20
119.7371896211444
 30
0.0
 10
227.4337485905493
 20
119.7301581797183
 30
0.0
 10
227.3834504442183
 20
119.7266403265654
 30
0.0
  0
LINE
  5
214
330
1F
100
AcDbEntity
  8
0
  6
Continuous
 62
     7
370
    18
100
AcDbLine
 10
225.9996436723
 20
119.7533241571
 30
0.0
 11
225.7861730283
 21
119.7533241571
 31
0.0
  0
SPLINE
  5
215
330
1F
100
AcDbEntity
  8
0
  6
Continuous
 62
     7
370
    18
100
AcDbSpline
210
0.0
220
0.0
230
1.0
 70
     8
 71
     3
 72
    12
 73
     8
 74
     0
 42
0.000000001
 43
0.00000001
 40
0.0
 40
0.0
 40
0.0
 40
0.0
 40
0.186599490562927
 40
0.3732882655511089
 40
0.5600123352708875
 40
0.7800196168841566
 40
1.0
 40
1.0
 40
1.0
 40
1.0
 10
226.6400556040934
 20
121.5849189594519
 30
0.0
 10
226.5707297862099
 20
121.4840474112799
 30
0.0
 10
226.4320449793137
 20
121.2822560497548
 30
0.0
 10
226.2794750210052
 20
120.9472532225743
 30
0.0
 10
226.1450710375579
 20
120.5827490662342
 30
0.0
 10
226.0408425152392
 20
120.1840513354573
 30
0.0
 10
226.0133760602124
 20
119.896894031436
 30
0.0
 10
225.9996436722752
 20
119.7533241570578
 30
0.0
  0
LINE
  5
216
330
1F
100
AcDbEntity
  8
0
  6
Continuous
 62
     7
370
    18
100
AcDbLine
 10
226.6400556041
 20
121.7812952745
 30
0.0
 11
226.6400556041
 21
121.5849189595
 31
0.0
  0
LINE
  5
217
330
1F
100
AcDbEntity
  8
0
  6
Continuous
 62
     7
370
    18
100
AcDbLine
 10
225.5460185539
 20
121.7812952745
 30
0.0
 11
226.6400556041
 21
121.7812952745
 31
0.0
  0
LINE
  5
218
330
1F
100
AcDbEntity
  8
0
  6
Continuous
 62
     7
370
    18
100
AcDbLine
 10
225.5460185539
 20
121.5411408001
 30
0.0
 11
225.5460185539
 21
121.7812952745
 31
0.0
  0
LINE
  5
219
330
1F
100
AcDbEntity
  8
0
  6
Continuous
 62
     7
370
    18
100
AcDbLine
 10
226.4265849602
 20
121.5411408001
 30
0.0
 11
225.5460185539
 21
121.5411408001
 31
0.0
  0
SPLINE
  5
21A
330
1F
100
AcDbEntity
  8
0
  6
Continuous
 62
     7
370
    18
100
AcDbSpline
210
0.0
220
0.0
230
1.0
 70
     8
 71
     3
 72
    12
 73
     8
 74
     0
 42
0.000000001
 43
0.00000001
 40
0.0
 40
0.0
 40
0.0
 40
0.0
 40
0.1866068624921616
 40
0.3733314982619464
 40
0.560057611229228
 40
0.7800800874790776
 40
1.0
 40
1.0
 40
1.0
 40
1.0
 10
225.7861730283358
 20
119.7533241570578
 30
0.0
 10
225.795491586928
 20
119.8728721307789
 30
0.0
 10
225.8141345853387
 20
120.1120435285905
 30
0.0
 10
225.8983636965
 20
120.4627122617689
 30
0.0
 10
226.0181174178902
 20
120.8243002207332
 30
0.0
 10
226.1857683345247
 20
121.1920412390252
 30
0.0
 10
226.3463252284822
 20
121.4247923667916
 30
0.0
 10
226.426584960154
 20
121.5411408000503
 30
0.0
  0
LINE
  5
21B
330
1F
100
AcDbEntity
  8
0
  6
Continuous
 62
     7
370
    18
100
AcDbLine
 10
224.7455036391
 20
120.6072067328
 30
0.0
 11
225.3859155709
 21
120.6072067328
 31
0.0
  0
LINE
  5
21C
330
1F
100
AcDbEntity
  8
0
  6
Continuous
 62
     7
370
    18
100
AcDbLine
 10
224.7455036391
 20
120.3670522584
 30
0.0
 11
224.7455036391
 21
120.6072067328
 31
0.0
  0
LINE
  5
21D
330
1F
100
AcDbEntity
  8
0
  6
Continuous
 62
     7
370
    18
100
AcDbLine
 10
225.3859155709
 20
120.3670522584
 30
0.0
 11
224.7455036391
 21
120.3670522584
 31
0.0
  0
LINE
  5
21E
330
1F
100
AcDbEntity
  8
0
  6
Continuous
 62
     7
370
    18
100
AcDbLine
 10
225.3859155709
 20
120.6072067328
 30
0.0
 11
225.3859155709
 21
120.3670522584
 31
0.0
  0
SPLINE
  5
21F
330
1F
100
AcDbEntity
  8
0
  6
Continuous
 62
     7
370
    18
100
AcDbSpline
210
0.0
220
0.0
230
1.0
 70
     8
 71
     3
 72
    12
 73
     8
 74
     0
 42
0.000000001
 43
0.00000001
 40
0.0
 40
0.0
 40
0.0
 40
0.0
 40
0.1871057595240074
 40
0.3740211604078915
 40
0.5608338669252957
 40
0.7803585126596493
 40
1.0
 40
1.0
 40
1.0
 40
1.0
 10
224.5587168256843
 20
120.3499579294744
 30
0.0
 10
224.5557677173606
 20
120.2922643794657
 30
0.0
 10
224.5498725010927
 20
120.1769359760151
 30
0.0
 10
224.4903721759487
 20
120.0115136150245
 30
0.0
 10
224.3804579531242
 20
119.8640179657253
 30
0.0
 10
224.2177648768693
 20
119.7468061685872
 30
0.0
 10
224.0812331372931
 20
119.7333634660645
 30
0.0
 10
224.0129491051439
 20
119.7266403265654
 30
0.0
  0
SPLINE
  5
220
330
1F
100
AcDbEntity
  8
0
  6
Continuous
 62
     7
370
    18
100
AcDbSpline
210
0.0
220
0.0
230
1.0
 70
     8
 71
     3
 72
    11
 73
     7
 74
     0
 42
0.000000001
 43
0.00000001
 40
0.0
 40
0.0
 40
0.0
 40
0.0
 40
0.2796220600248674
 40
0.5590245428560601
 40
0.779384731726157
 40
1.0
 40
1.0
 40
1.0
 40
1.0
 10
224.2314229673006
 20
120.8807159953628
 30
0.0
 10
224.2876894959152
 20
120.8528807094147
 30
0.0
 10
224.4001783690535
 20
120.797231995572
 30
0.0
 10
224.503948058451
 20
120.6508100940086
 30
0.0
 10
224.5518821049823
 20
120.4969336231785
 30
0.0
 10
224.5564377070641
 20
120.3989687164315
 30
0.0
 10
224.5587168256843
 20
120.3499579294744
 30
0.0
  0
SPLINE
  5
221
330
1F
100
AcDbEntity
  8
0
  6
Continuous
 62
     7
370
    18
100
AcDbSpline
210
0.0
220
0.0
230
1.0
 70
     8
 71
     3
 72
    11
 73
     7
 74
     0
 42
0.000000001
 43
0.00000001
 40
0.0
 40
0.0
 40
0.0
 40
0.0
 40
0.2801901752489531
 40
0.559731767241871
 40
0.7798035967389152
 40
1.0
 40
1.0
 40
1.0
 40
1.0
 10
224.478665334207
 20
121.2951492376982
 30
0.0
 10
224.4760213109559
 20
121.2471512435703
 30
0.0
 10
224.4707393848297
 20
121.1512663609065
 30
0.0
 10
224.4156073201863
 20
121.0265690033451
 30
0.0
 10
224.3312311722702
 20
120.9343369214849
 30
0.0
 10
224.2646986440768
 20
120.8985930086466
 30
0.0
 10
224.2314229673006
 20
120.8807159953628
 30
0.0
  0
SPLINE
  5
222
330
1F
100
AcDbEntity
  8
0
  6
Continuous
 62
     7
370
    18
100
AcDbSpline
210
0.0
220
0.0
230
1.0
 70
     8
 71
     3
 72
    12
 73
     8
 74
     0
 42
0.000000001
 43
0.00000001
 40
0.0
 40
0.0
 40
0.0
 40
0.0
 40
0.1866818949369808
 40
0.3730939207975814
 40
0.5598445729636958
 40
0.7796788980924664
 40
1.0
 40
1.0
 40
1.0
 40
1.0
 10
224.0096136263324
 20
121.8346629354669
 30
0.0
 10
224.0595639477036
 20
121.8306274699267
 30
0.0
 10
224.1593923817988
 20
121.8225623725525
 30
0.0
 10
224.2920231910562
 20
121.7454413218503
 30
0.0
 10
224.3981467228597
 20
121.6270379797769
 30
0.0
 10
224.4686356544379
 20
121.4714203028013
 30
0.0
 10
224.4753196436311
 20
121.3539495638204
 30
0.0
 10
224.478665334207
 20
121.2951492376982
 30
0.0
  0
SPLINE
  5
223
330
1F
100
AcDbEntity
  8
0
  6
Continuous
 62
     7
370
    18
100
AcDbSpline
210
0.0
220
0.0
230
1.0
 70
     8
 71
     3
 72
    12
 73
     8
 74
     0
 42
0.000000001
 43
0.00000001
 40
0.0
 40
0.0
 40
0.0
 40
0.0
 40
0.1871377587295393
 40
0.374041192134426
 40
0.56084946866772
 40
0.7803659435040519
 40
1.0
 40
1.0
 40
1.0
 40
1.0
 10
223.5447312669721
 20
121.3034879347271
 30
0.0
 10
223.5472803642076
 20
121.3526876885193
 30
0.0
 10
223.5523753668156
 20
121.451025590427
 30
0.0
 10
223.602509090498
 20
121.5922053242962
 30
0.0
 10
223.6955662264868
 20
121.7186431244972
 30
0.0
 10
223.8350523114152
 20
121.8176401769077
 30
0.0
 10
223.9514161359677
 20
121.8289876698578
 30
0.0
 10
224.0096136263324
 20
121.8346629354669
 30
0.0
  0
SPLINE
  5
224
330
1F
100
AcDbEntity
  8
0
  6
Continuous
 62
     7
370
    18
100
AcDbSpline
210
0.0
220
0.0
230
1.0
 70
     8
 71
     3
 72
    11
 73
     7
 74
     0
 42
0.000000001
 43
0.00000001
 40
0.0
 40
0.0
 40
0.0
 40
0.0
 40
0.2798399979573744
 40
0.5592260384591605
 40
0.779566561526532
 40
1.0
 40
1.0
 40
1.0
 40
1.0
 10
223.7944752429872
 20
120.8807159953628
 30
0.0
 10
223.7515327802428
 20
120.9045735452394
 30
0.0
 10
223.6657175161722
 20
120.952249943189
 30
0.0
 10
223.5861409359921
 20
121.0675315597575
 30
0.0
 10
223.5494488033354
 20
121.1883845562344
 30
0.0
 10
223.5463040000687
 20
121.2651147503065
 30
0.0
 10
223.5447312669721
 20
121.3034879347271
 30
0.0
  0
SPLINE
  5
225
330
1F
100
AcDbEntity
  8
0
  6
Continuous
 62
     7
370
    18
100
AcDbSpline
210
0.0
220
0.0
230
1.0
 70
     8
 71
     3
 72
    11
 73
     7
 74
     0
 42
0.000000001
 43
0.00000001
 40
0.0
 40
0.0
 40
0.0
 40
0.0
 40
0.2804755498465848
 40
0.5600957930369929
 40
0.7800256682201228
 40
1.0
 40
1.0
 40
1.0
 40
1.0
 10
223.4646797754949
 20
120.3570458219489
 30
0.0
 10
223.4680061684419
 20
120.4194322543702
 30
0.0
 10
223.4746488105424
 20
120.544014872573
 30
0.0
 10
223.5458884354233
 20
120.7058485811669
 30
0.0
 10
223.6576801163567
 20
120.8252724323915
 30
0.0
 10
223.7488737954411
 20
120.8622335626118
 30
0.0
 10
223.7944752429872
 20
120.8807159953628
 30
0.0
  0
SPLINE
  5
226
330
1F
100
AcDbEntity
  8
0
  6
Continuous
 62
     7
370
    18
100
AcDbSpline
210
0.0
220
0.0
230
1.0
 70
     8
 71
     3
 72
    12
 73
     8
 74
     0
 42
0.000000001
 43
0.00000001
 40
0.0
 40
0.0
 40
0.0
 40
0.0
 40
0.1866482491791775
 40
0.3730988090507025
 40
0.5597919176482334
 40
0.7796545203293548
 40
1.0
 40
1.0
 40
1.0
 40
1.0
 10
224.0129491051439
 20
119.7266403265654
 30
0.0
 10
223.9545374176111
 20
119.7314007292607
 30
0.0
 10
223.8377759095391
 20
119.74091649265
 30
0.0
 10
223.6824002368049
 20
119.8303383148036
 30
0.0
 10
223.5568626147655
 20
119.9679080163061
 30
0.0
 10
223.4763304114054
 20
120.1509595989065
 30
0.0
 10
223.4685661597425
 20
120.2883001966422
 30
0.0
 10
223.4646797754949
 20
120.3570458219489
 30
0.0
  0
SPLINE
  5
227
330
1F
100
AcDbEntity
  8
0
  6
Continuous
 62
     7
370
    18
100
AcDbSpline
210
0.0
220
0.0
230
1.0
 70
     8
 71
     3
 72
    10
 73
     6
 74
     0
 42
0.000000001
 43
0.00000001
 40
0.0
 40
0.0
 40
0.0
 40
0.0
 40
0.2795751783825385
 40
0.5597049368157158
 40
0.9999999999999999
 40
0.9999999999999999
 40
0.9999999999999999
 40
0.9999999999999999
 10
223.083601321275
 20
121.617856812716
 30
0.0
 10
223.1194798621804
 20
121.545353665249
 30
0.0
 10
223.1913081145551
 20
121.4002035492524
 30
0.0
 10
223.2409062378589
 20
121.1136818892666
 30
0.0
 10
223.2473009420857
 20
120.9064622077787
 30
0.0
 10
223.2512091315555
 20
120.7798177613133
 30
0.0
  0
SPLINE
  5
228
330
1F
100
AcDbEntity
  8
0
  6
Continuous
 62
     7
370
    18
100
AcDbSpline
210
0.0
220
0.0
230
1.0
 70
     8
 71
     3
 72
    11
 73
     7
 74
     0
 42
0.000000001
 43
0.00000001
 40
0.0
 40
0.0
 40
0.0
 40
0.0
 40
0.2798903849624059
 40
0.5594964420644611
 40
0.7796718965173844
 40
1.0
 40
1.0
 40
1.0
 40
1.0
 10
222.7054414110151
 20
121.8346629354669
 30
0.0
 10
222.7481983527356
 20
121.831810417195
 30
0.0
 10
222.8336688013521
 20
121.8261082783943
 30
0.0
 10
222.942439056455
 20
121.7724831964649
 30
0.0
 10
223.0259593819678
 20
121.70044382838
 30
0.0
 10
223.0643829031662
 20
121.645392177009
 30
0.0
 10
223.083601321275
 20
121.617856812716
 30
0.0
  0
SPLINE
  5
229
330
1F
100
AcDbEntity
  8
0
  6
Continuous
 62
     7
370
    18
100
AcDbSpline
210
0.0
220
0.0
230
1.0
 70
     8
 71
     3
 72
    13
 73
     9
 74
     0
 42
0.000000001
 43
0.00000001
 40
0.0
 40
0.0
 40
0.0
 40
0.0
 40
0.2504890583456487
 40
0.5006738274425628
 40
0.6258446378555204
 40
0.750758415565903
 40
0.8753007099299317
 40
1.0
 40
1.0
 40
1.0
 40
1.0
 10
222.1571720813661
 20
120.7798177613133
 30
0.0
 10
222.1598906959812
 20
120.890057958671
 30
0.0
 10
222.1653246226911
 20
121.1104044357334
 30
0.0
 10
222.2153779947327
 20
121.3838318712807
 30
0.0
 10
222.30031352011
 20
121.5882894055658
 30
0.0
 10
222.397301595799
 20
121.723802026645
 30
0.0
 10
222.5392572588826
 20
121.8199013087333
 30
0.0
 10
222.6500234366648
 20
121.8297403273771
 30
0.0
 10
222.7054414110151
 20
121.8346629354669
 30
0.0
  0
SPLINE
  5
22A
330
1F
100
AcDbEntity
  8
0
  6
Continuous
 62
     7
370
    18
100
AcDbSpline
210
0.0
220
0.0
230
1.0
 70
     8
 71
     3
 72
    13
 73
     9
 74
     0
 42
0.000000001
 43
0.00000001
 40
0.0
 40
0.0
 40
0.0
 40
0.0
 40
0.1245870753534854
 40
0.2492227148385356
 40
0.374219239612091
 40
0.4992998133209629
 40
0.7494812006579944
 40
1.0
 40
1.0
 40
1.0
 40
1.0
 10
222.7029398019065
 20
119.7266403265654
 30
0.0
 10
222.6476761586177
 20
119.7322770228425
 30
0.0
 10
222.5371273302322
 20
119.7435526125849
 30
0.0
 10
222.3983383740094
 20
119.8421856254212
 30
0.0
 10
222.2952992653263
 20
119.9721899619812
 30
0.0
 10
222.2092753801579
 20
120.1765359130348
 30
0.0
 10
222.1641044935387
 20
120.4500380922206
 30
0.0
 10
222.1594839233274
 20
120.669841831144
 30
0.0
 10
222.1571720813661
 20
120.7798177613133
 30
0.0
  0
SPLINE
  5
22B
330
1F
100
AcDbEntity
  8
0
  6
Continuous
 62
     7
370
    18
100
AcDbSpline
210
0.0
220
0.0
230
1.0
 70
     8
 71
     3
 72
    13
 73
     9
 74
     0
 42
0.000000001
 43
0.00000001
 40
0.0
 40
0.0
 40
0.0
 40
0.0
 40
0.2504702058475062
 40
0.5006494994159203
 40
0.6258027062132768
 40
0.7507410958263493
 40
0.8752785399750059
 40
1.0
 40
1.0
 40
1.0
 40
1.0
 10
223.2512091315555
 20
120.7798177613133
 30
0.0
 10
223.2484956363004
 20
120.6696853057617
 30
0.0
 10
223.2430717974189
 20
120.4495483096078
 30
0.0
 10
223.1923019396948
 20
120.1766177093718
 30
0.0
 10
223.1079501922592
 20
119.9721935969205
 30
0.0
 10
223.0110674323027
 20
119.8367387681882
 30
0.0
 10
222.8689908154338
 20
119.7410605033863
 30
0.0
 10
222.7583173747107
 20
119.7314494173068
 30
0.0
 10
222.7029398019065
 20
119.7266403265654
 30
0.0
  0
SPLINE
  5
22C
330
1F
100
AcDbEntity
  8
0
  6
Continuous
 62
     7
370
    18
100
AcDbSpline
210
0.0
220
0.0
230
1.0
 70
     8
 71
     3
 72
    12
 73
     8
 74
     0
 42
0.000000001
 43
0.00000001
 40
0.0
 40
0.0
 40
0.0
 40
0.0
 40
0.1861323399318245
 40
0.372610881981556
 40
0.5594136204052397
 40
0.7795030968206
 40
1.0
 40
1.0
 40
1.0
 40
1.0
 10
221.4425457459909
 20
121.1141995121715
 30
0.0
 10
221.500188060926
 20
121.1075136117886
 30
0.0
 10
221.6155799042525
 20
121.094129375393
 30
0.0
 10
221.7577256290811
 20
120.9870177312296
 30
0.0
 10
221.8688956478854
 20
120.8414564134168
 30
0.0
 10
221.9346925476662
 20
120.6561318029188
 30
0.0
 10
221.9406966234418
 20
120.5207129018074
 30
0.0
 10
221.9437014374267
 20
120.4529408377811
 30
0.0
  0
SPLINE
  5
22D
330
1F
100
AcDbEntity
  8
0
  6
Continuous
 62
     7
370
    18
100
AcDbSpline
210
0.0
220
0.0
230
1.0
 70
     8
 71
     3
 72
     9
 73
     5
 74
     0
 42
0.000000001
 43
0.00000001
 40
0.0
 40
0.0
 40
0.0
 40
0.0
 40
0.5597945537684201
 40
1.0
 40
1.0
 40
1.0
 40
1.0
 10
221.1381833044367
 20
121.0337310858428
 30
0.0
 10
221.1923041104771
 20
121.0595390909883
 30
0.0
 10
221.2889838757162
 20
121.1056417280572
 30
0.0
 10
221.3956088511157
 20
121.1115837859328
 30
0.0
 10
221.4425457459909
 20
121.1141995121715
 30
0.0
  0
LINE
  5
22E
330
1F
100
AcDbEntity
  8
0
  6
Continuous
 62
     7
370
    18
100
AcDbLine
 10
221.215316252
 20
121.5411408001
 30
0.0
 11
221.1381833044
 21
121.0337310858
 31
0.0
  0
LINE
  5
22F
330
1F
100
AcDbEntity
  8
0
  6
Continuous
 62
     7
370
    18
100
AcDbLine
 10
221.8636499459
 20
121.5411408001
 30
0.0
 11
221.215316252
 21
121.5411408001
 31
0.0
  0
LINE
  5
230
330
1F
100
AcDbEntity
  8
0
  6
Continuous
 62
     7
370
    18
100
AcDbLine
 10
221.8636499459
 20
121.7812952745
 30
0.0
 11
221.8636499459
 21
121.5411408001
 31
0.0
  0
LINE
  5
231
330
1F
100
AcDbEntity
  8
0
  6
Continuous
 62
     7
370
    18
100
AcDbLine
 10
221.0364512007
 20
121.7812952745
 30
0.0
 11
221.8636499459
 21
121.7812952745
 31
0.0
  0
LINE
  5
232
330
1F
100
AcDbEntity
  8
0
  6
Continuous
 62
     7
370
    18
100
AcDbLine
 10
220.8763482177
 20
120.7285347746
 30
0.0
 11
221.0364512007
 21
121.7812952745
 31
0.0
  0
LINE
  5
233
330
1F
100
AcDbEntity
  8
0
  6
Continuous
 62
     7
370
    18
100
AcDbLine
 10
221.0898188617
 20
120.6980985304
 30
0.0
 11
220.8763482177
 21
120.7285347746
 31
0.0
  0
SPLINE
  5
234
330
1F
100
AcDbEntity
  8
0
  6
Continuous
 62
     7
370
    18
100
AcDbSpline
210
0.0
220
0.0
230
1.0
 70
     8
 71
     3
 72
    10
 73
     6
 74
     0
 42
0.000000001
 43
0.00000001
 40
0.0
 40
0.0
 40
0.0
 40
0.0
 40
0.2801682771676899
 40
0.5607715634932647
 40
0.9999999999999999
 40
0.9999999999999999
 40
0.9999999999999999
 40
0.9999999999999999
 10
221.3829240622344
 20
120.9007288682321
 30
0.0
 10
221.3479360489967
 20
120.8968619003821
 30
0.0
 10
221.277905697648
 20
120.8891219605532
 30
0.0
 10
221.167061185091
 20
120.8224674181998
 30
0.0
 10
221.1190900126749
 20
120.7452283982675
 30
0.0
 10
221.0898188616692
 20
120.6980985304302
 30
0.0
  0
SPLINE
  5
235
330
1F
100
AcDbEntity
  8
0
  6
Continuous
 62
     7
370
    18
100
AcDbSpline
210
0.0
220
0.0
230
1.0
 70
     8
 71
     3
 72
    11
 73
     7
 74
     0
 42
0.000000001
 43
0.00000001
 40
0.0
 40
0.0
 40
0.0
 40
0.0
 40
0.2810318196216985
 40
0.5605860755662321
 40
0.7803889752948996
 40
1.0
 40
1.0
 40
1.0
 40
1.0
 10
221.7302307934873
 20
120.4412666619407
 30
0.0
 10
221.7273743003219
 20
120.5018184100698
 30
0.0
 10
221.7216763323989
 20
120.6226035471338
 30
0.0
 10
221.6476344851579
 20
120.7777048405854
 30
0.0
 10
221.5259424288767
 20
120.8838138170659
 30
0.0
 10
221.4305829711892
 20
120.8950921594483
 30
0.0
 10
221.3829240622344
 20
120.9007288682321
 30
0.0
  0
SPLINE
  5
236
330
1F
100
AcDbEntity
  8
0
  6
Continuous
 62
     7
370
    18
100
AcDbSpline
210
0.0
220
0.0
230
1.0
 70
     8
 71
     3
 72
    12
 73
     8
 74
     0
 42
0.000000001
 43
0.00000001
 40
0.0
 40
0.0
 40
0.0
 40
0.0
 40
0.1858835197478828
 40
0.3723018513499665
 40
0.5590684864252702
 40
0.7793243380015259
 40
1.0
 40
1.0
 40
1.0
 40
1.0
 10
221.3775039091656
 20
119.9401109705048
 30
0.0
 10
221.4200052123487
 20
119.9456329609914
 30
0.0
 10
221.5051301006731
 20
119.9566928294728
 30
0.0
 10
221.6059179329904
 20
120.0415813563562
 30
0.0
 10
221.6818085624366
 20
120.1531529105755
 30
0.0
 10
221.7241548124071
 20
120.2914661824487
 30
0.0
 10
221.7282041813273
 20
120.3913014844153
 30
0.0
 10
221.7302307934873
 20
120.4412666619407
 30
0.0
  0
SPLINE
  5
237
330
1F
100
AcDbEntity
  8
0
  6
Continuous
 62
     7
370
    18
100
AcDbSpline
210
0.0
220
0.0
230
1.0
 70
     8
 71
     3
 72
    11
 73
     7
 74
     0
 42
0.000000001
 43
0.00000001
 40
0.0
 40
0.0
 40
0.0
 40
0.0
 40
0.2811074381184288
 40
0.5611160017532774
 40
0.7809929910720543
 40
1.0
 40
1.0
 40
1.0
 40
1.0
 10
221.0631350311767
 20
120.3403684278912
 30
0.0
 10
221.0713507601295
 20
120.2887221781724
 30
0.0
 10
221.0877501020052
 20
120.1856315686113
 30
0.0
 10
221.1520048873061
 20
120.0533433204773
 30
0.0
 10
221.2543824453226
 20
119.9583919814989
 30
0.0
 10
221.3365176922436
 20
119.9461965827025
 30
0.0
 10
221.3775039091656
 20
119.9401109705048
 30
0.0
  0
LINE
  5
238
330
1F
100
AcDbEntity
  8
0
  6
Continuous
 62
     7
370
    18
100
AcDbLine
 10
220.8496643872
 20
120.3136845974
 30
0.0
 11
221.0631350312
 21
120.3403684279
 31
0.0
  0
SPLINE
  5
239
330
1F
100
AcDbEntity
  8
0
  6
Continuous
 62
     7
370
    18
100
AcDbSpline
210
0.0
220
0.0
230
1.0
 70
     8
 71
     3
 72
    12
 73
     8
 74
     0
 42
0.000000001
 43
0.00000001
 40
0.0
 40
0.0
 40
0.0
 40
0.0
 40
0.1865885886654304
 40
0.3730457041861959
 40
0.5597053661028984
 40
0.7796179230979464
 40
1.0
 40
1.0
 40
1.0
 40
1.0
 10
221.3795885834228
 20
119.7266403265654
 30
0.0
 10
221.3247716101565
 20
119.7310021746102
 30
0.0
 10
221.2151762884932
 20
119.7397227972757
 30
0.0
 10
221.0694828135689
 20
119.8235391605546
 30
0.0
 10
220.9504356151988
 20
119.9515777076023
 30
0.0
 10
220.8734952169925
 20
120.1218791766194
 30
0.0
 10
220.8576136424024
 20
120.2497040206636
 30
0.0
 10
220.8496643872373
 20
120.3136845973987
 30
0.0
  0
SPLINE
  5
23A
330
1F
100
AcDbEntity
  8
0
  6
Continuous
 62
     7
370
    18
100
AcDbSpline
210
0.0
220
0.0
230
1.0
 70
     8
 71
     3
 72
    13
 73
     9
 74
     0
 42
0.000000001
 43
0.00000001
 40
0.0
 40
0.0
 40
0.0
 40
0.0
 40
0.1868890796518144
 40
0.3736670037034836
 40
0.5603596573753078
 40
0.7069433013335574
 40
0.8533827747571286
 40
1.0
 40
1.0
 40
1.0
 40
1.0
 10
221.9437014374267
 20
120.4529408377811
 30
0.0
 10
221.9406078573845
 20
120.3890220189641
 30
0.0
 10
221.9344225372619
 20
120.2612223981831
 30
0.0
 10
221.8772592216205
 20
120.0764505224751
 30
0.0
 10
221.7864752091047
 20
119.9216854603417
 30
0.0
 10
221.6686061145106
 20
119.8054257774786
 30
0.0
 10
221.5304220433119
 20
119.7371896211444
 30
0.0
 10
221.4298867297538
 20
119.7301581797183
 30
0.0
 10
221.3795885834228
 20
119.7266403265654
 30
0.0
  0
LINE
  5
23B
330
1F
100
AcDbEntity
  8
0
  6
Continuous
 62
     7
370
    18
100
AcDbLine
 10
219.657647647
 20
119.7533241571
 30
0.0
 11
219.1685830662
 21
121.5465609531
 31
0.0
  0
LINE
  5
23C
330
1F
100
AcDbEntity
  8
0
  6
Continuous
 62
     7
370
    18
100
AcDbLine
 10
219.8761215091
 20
119.7533241571
 30
0.0
 11
219.657647647
 21
119.7533241571
 31
0.0
  0
LINE
  5
23D
330
1F
100
AcDbEntity
  8
0
  6
Continuous
 62
     7
370
    18
100
AcDbLine
 10
220.3693554384
 20
121.4494151327
 30
0.0
 11
219.8761215091
 21
119.7533241571
 31
0.0
  0
LINE
  5
23E
330
1F
100
AcDbEntity
  8
0
  6
Continuous
 62
     7
370
    18
100
AcDbLine
 10
220.3693554384
 20
119.7533241571
 30
0.0
 11
220.3693554384
 21
121.4494151327
 31
0.0
  0
LINE
  5
23F
330
1F
100
AcDbEntity
  8
0
  6
Continuous
 62
     7
370
    18
100
AcDbLine
 10
220.5828260823
 20
119.7533241571
 30
0.0
 11
220.3693554384
 21
119.7533241571
 31
0.0
  0
LINE
  5
240
330
1F
100
AcDbEntity
  8
0
  6
Continuous
 62
     7
370
    18
100
AcDbLine
 10
220.5828260823
 20
121.807979105
 30
0.0
 11
220.5828260823
 21
119.7533241571
 31
0.0
  0
LINE
  5
241
330
1F
100
AcDbEntity
  8
0
  6
Continuous
 62
     7
370
    18
100
AcDbLine
 10
220.280548315
 20
121.807979105
 30
0.0
 11
220.5828260823
 21
121.807979105
 31
0.0
  0
LINE
  5
242
330
1F
100
AcDbEntity
  8
0
  6
Continuous
 62
     7
370
    18
100
AcDbLine
 10
219.8619457242
 20
120.3783094994
 30
0.0
 11
220.280548315
 21
121.807979105
 31
0.0
  0
SPLINE
  5
243
330
1F
100
AcDbEntity
  8
0
  6
Continuous
 62
     7
370
    18
100
AcDbSpline
210
0.0
220
0.0
230
1.0
 70
     8
 71
     3
 72
     9
 73
     5
 74
     0
 42
0.000000001
 43
0.00000001
 40
0.0
 40
0.0
 40
0.0
 40
0.0
 40
0.5599947003108308
 40
1.0
 40
1.0
 40
1.0
 40
1.0
 10
219.7689692522941
 20
120.0489309667317
 30
0.0
 10
219.7858991586121
 20
120.1105347627606
 30
0.0
 10
219.8161314202898
 20
120.220542582468
 30
0.0
 10
219.8479467920015
 20
120.3301025382117
 30
0.0
 10
219.8619457241662
 20
120.3783094993726
 30
0.0
  0
LINE
  5
244
330
1F
100
AcDbEntity
  8
0
  6
Continuous
 62
     7
370
    18
100
AcDbLine
 10
219.6889177608
 20
120.3532934083
 30
0.0
 11
219.7689692523
 21
120.0489309667
 31
0.0
  0
LINE
  5
245
330
1F
100
AcDbEntity
  8
0
  6
Continuous
 62
     7
370
    18
100
AcDbLine
 10
219.2890772383
 20
121.807979105
 30
0.0
 11
219.6889177608
 21
120.3532934083
 31
0.0
  0
LINE
  5
246
330
1F
100
AcDbEntity
  8
0
  6
Continuous
 62
     7
370
    18
100
AcDbLine
 10
218.9551124223
 20
121.807979105
 30
0.0
 11
219.2890772383
 21
121.807979105
 31
0.0
  0
LINE
  5
247
330
1F
100
AcDbEntity
  8
0
  6
Continuous
 62
     7
370
    18
100
AcDbLine
 10
218.9551124223
 20
119.7533241571
 30
0.0
 11
218.9551124223
 21
121.807979105
 31
0.0
  0
LINE
  5
248
330
1F
100
AcDbEntity
  8
0
  6
Continuous
 62
     7
370
    18
100
AcDbLine
 10
219.1685830662
 20
119.7533241571
 30
0.0
 11
218.9551124223
 21
119.7533241571
 31
0.0
  0
LINE
  5
249
330
1F
100
AcDbEntity
  8
0
  6
Continuous
 62
     7
370
    18
100
AcDbLine
 10
219.1685830662
 20
121.5465609531
 30
0.0
 11
219.1685830662
 21
119.7533241571
 31
0.0
  0
SPLINE
  5
24A
330
1F
100
AcDbEntity
  8
0
  6
Continuous
 62
     7
370
    18
100
AcDbSpline
210
0.0
220
0.0
230
1.0
 70
     8
 71
     3
 72
    14
 73
    10
 74
     0
 42
0.000000001
 43
0.00000001
 40
0.0
 40
0.0
 40
0.0
 40
0.0
 40
0.1250267645254237
 40
0.2499561862380711
 40
0.3747506313882857
 40
0.4996959194189177
 40
0.6663177050472571
 40
0.8330998507676216
 40
1.0
 40
1.0
 40
1.0
 40
1.0
 10
217.9707292380156
 20
121.5945084610351
 30
0.0
 10
217.9247016498021
 20
121.5916921307253
 30
0.0
 10
217.8326823093412
 20
121.5860616628324
 30
0.0
 10
217.7025945996463
 20
121.5336033637758
 30
0.0
 10
217.5947404579233
 20
121.4450733514795
 30
0.0
 10
217.5079366544731
 20
121.3175159911523
 30
0.0
 10
217.4452219183451
 20
121.1599652143844
 30
0.0
 10
217.4122310012694
 20
120.9782463902731
 30
0.0
 10
217.4090442118919
 20
120.8557035628616
 30
0.0
 10
217.4074502537146
 20
120.7944104811138
 30
0.0
  0
SPLINE
  5
24B
330
1F
100
AcDbEntity
  8
0
  6
Continuous
 62
     7
370
    18
100
AcDbSpline
210
0.0
220
0.0
230
1.0
 70
     8
 71
     3
 72
    11
 73
     7
 74
     0
 42
0.000000001
 43
0.00000001
 40
0.0
 40
0.0
 40
0.0
 40
0.0
 40
0.2807713074051782
 40
0.5604369820882219
 40
0.7800147849953786
 40
0.9999999999999999
 40
0.9999999999999999
 40
0.9999999999999999
 40
0.9999999999999999
 10
218.4214358124267
 20
121.1675671731563
 30
0.0
 10
218.4028423875806
 20
121.2279561554727
 30
0.0
 10
218.365728755836
 20
121.3484963179042
 30
0.0
 10
218.262057428089
 20
121.4947632203652
 30
0.0
 10
218.1199067525799
 20
121.5825377371845
 30
0.0
 10
218.0204857925441
 20
121.5905157549242
 30
0.0
 10
217.9707292380156
 20
121.5945084610351
 30
0.0
  0
LINE
  5
24C
330
1F
100
AcDbEntity
  8
0
  6
Continuous
 62
     7
370
    18
100
AcDbLine
 10
218.6349064564
 20
121.2209348341
 30
0.0
 11
218.4214358124
 21
121.1675671732
 31
0.0
  0
SPLINE
  5
24D
330
1F
100
AcDbEntity
  8
0
  6
Continuous
 62
     7
370
    18
100
AcDbSpline
210
0.0
220
0.0
230
1.0
 70
     8
 71
     3
 72
    12
 73
     8
 74
     0
 42
0.000000001
 43
0.00000001
 40
0.0
 40
0.0
 40
0.0
 40
0.0
 40
0.1866161660947031
 40
0.3730652985771142
 40
0.5597027812570751
 40
0.7796715026895169
 40
1.0
 40
1.0
 40
1.0
 40
1.0
 10
217.9794848698959
 20
121.8346629354669
 30
0.0
 10
218.040445094917
 20
121.8302051222285
 30
0.0
 10
218.1623109815909
 20
121.8212934857846
 30
0.0
 10
218.3299833920564
 20
121.7399084944658
 30
0.0
 10
218.4729518800737
 20
121.6073840670491
 30
0.0
 10
218.5777412338936
 20
121.4285234351322
 30
0.0
 10
218.6158410048408
 20
121.2901687186293
 30
0.0
 10
218.6349064563661
 20
121.2209348341412
 30
0.0
  0
SPLINE
  5
24E
330
1F
100
AcDbEntity
  8
0
  6
Continuous
 62
     7
370
    18
100
AcDbSpline
210
0.0
220
0.0
230
1.0
 70
     8
 71
     3
 72
    13
 73
     9
 74
     0
 42
0.000000001
 43
0.00000001
 40
0.0
 40
0.0
 40
0.0
 40
0.0
 40
0.1869886270143178
 40
0.3737840604657697
 40
0.5603785113196441
 40
0.7069405280508649
 40
0.8534458164057753
 40
1.0
 40
1.0
 40
1.0
 40
1.0
 10
217.1939796097752
 20
120.7944104811138
 30
0.0
 10
217.1972068671188
 20
120.8854672877912
 30
0.0
 10
217.2036580474568
 20
121.0674868227563
 30
0.0
 10
217.2728070018969
 20
121.3336284751572
 30
0.0
 10
217.3969011495341
 20
121.558600118101
 30
0.0
 10
217.5688960388076
 20
121.7201059983333
 30
0.0
 10
217.7647454488595
 20
121.8178673020872
 30
0.0
 10
217.9078971015483
 20
121.8290637683189
 30
0.0
 10
217.9794848698959
 20
121.8346629354669
 30
0.0
  0
SPLINE
  5
24F
330
1F
100
AcDbEntity
  8
0
  6
Continuous
 62
     7
370
    18
100
AcDbSpline
210
0.0
220
0.0
230
1.0
 70
     8
 71
     3
 72
    14
 73
    10
 74
     0
 42
0.000000001
 43
0.00000001
 40
0.0
 40
0.0
 40
0.0
 40
0.0
 40
0.1249789553015519
 40
0.2498098163504307
 40
0.3745823232578659
 40
0.4995715195159102
 40
0.6662781166416185
 40
0.8331039635850064
 40
1.0
 40
1.0
 40
1.0
 40
1.0
 10
217.9603058667295
 20
119.7266403265654
 30
0.0
 10
217.8986616329122
 20
119.7301284626022
 30
0.0
 10
217.7754462108293
 20
119.7371006013968
 30
0.0
 10
217.6007516998557
 20
119.8063016316257
 30
0.0
 10
217.4565248549168
 20
119.9253940667075
 30
0.0
 10
217.340863378415
 20
120.0965650836119
 30
0.0
 10
217.2530771617819
 20
120.3057312823129
 30
0.0
 10
217.2016813832534
 20
120.548029026929
 30
0.0
 10
217.1965472275454
 20
120.7122718150265
 30
0.0
 10
217.1939796097752
 20
120.7944104811138
 30
0.0
  0
SPLINE
  5
250
330
1F
100
AcDbEntity
  8
0
  6
Continuous
 62
     7
370
    18
100
AcDbSpline
210
0.0
220
0.0
230
1.0
 70
     8
 71
     3
 72
    13
 73
     9
 74
     0
 42
0.000000001
 43
0.00000001
 40
0.0
 40
0.0
 40
0.0
 40
0.0
 40
0.1869090516643047
 40
0.3736796016941256
 40
0.5601136847103865
 40
0.7067311959183729
 40
0.8533138294591287
 40
1.0
 40
1.0
 40
1.0
 40
1.0
 10
218.6615902868585
 20
120.4204199193684
 30
0.0
 10
218.6457364110734
 20
120.3550917663957
 30
0.0
 10
218.6140404073971
 20
120.2244838693201
 30
0.0
 10
218.5289774099783
 20
120.0404886829801
 30
0.0
 10
218.4112992454616
 20
119.8921693875062
 30
0.0
 10
218.2688896576666
 20
119.7923177824193
 30
0.0
 10
218.1187392207329
 20
119.7358130642677
 30
0.0
 10
218.0131294130586
 20
119.7296986253563
 30
0.0
 10
217.9603058667295
 20
119.7266403265654
 30
0.0
  0
LINE
  5
251
330
1F
100
AcDbEntity
  8
0
  6
Continuous
 62
     7
370
    18
100
AcDbLine
 10
218.4481196429
 20
120.4737875804
 30
0.0
 11
218.6615902869
 21
120.4204199194
 31
0.0
  0
SPLINE
  5
252
330
1F
100
AcDbEntity
  8
0
  6
Continuous
 62
     7
370
    18
100
AcDbSpline
210
0.0
220
0.0
230
1.0
 70
     8
 71
     3
 72
    12
 73
     8
 74
     0
 42
0.000000001
 43
0.00000001
 40
0.0
 40
0.0
 40
0.0
 40
0.0
 40
0.1865921528409295
 40
0.3730589116156757
 40
0.5596226295490454
 40
0.779610010416383
 40
1.0
 40
1.0
 40
1.0
 40
1.0
 10
217.9536349091064
 20
119.9667948009972
 30
0.0
 10
218.0021290644071
 20
119.9705844522469
 30
0.0
 10
218.0990847858604
 20
119.9781612080165
 30
0.0
 10
218.2297159631364
 20
120.0487424548251
 30
0.0
 10
218.3384541222877
 20
120.1591600673323
 30
0.0
 10
218.4117752507633
 20
120.3067599573269
 30
0.0
 10
218.4359974639298
 20
120.4180777824343
 30
0.0
 10
218.4481196429191
 20
120.4737875803533
 30
0.0
  0
SPLINE
  5
253
330
1F
100
AcDbEntity
  8
0
  6
Continuous
 62
     7
370
    18
100
AcDbSpline
210
0.0
220
0.0
230
1.0
 70
     8
 71
     3
 72
    14
 73
    10
 74
     0
 42
0.000000001
 43
0.00000001
 40
0.0
 40
0.0
 40
0.0
 40
0.0
 40
0.1669299867484125
 40
0.3337709048041637
 40
0.5004211293286686
 40
0.6254239239505618
 40
0.7503194582828533
 40
0.8750931289475057
 40
1.0
 40
1.0
 40
1.0
 40
1.0
 10
217.4074502537146
 20
120.7944104811138
 30
0.0
 10
217.4087799896451
 20
120.7324635428532
 30
0.0
 10
217.411438752
 20
120.6086027193076
 30
0.0
 10
217.4415849402525
 20
120.4249077437588
 30
0.0
 10
217.4961652154004
 20
120.2622576790172
 30
0.0
 10
217.581935362698
 20
120.1319630859532
 30
0.0
 10
217.6855186362714
 20
120.0371992309309
 30
0.0
 10
217.8141018080422
 20
119.9763978985935
 30
0.0
 10
217.9071073364543
 20
119.9699969717917
 30
0.0
 10
217.9536349091064
 20
119.9667948009972
 30
0.0
  0
CIRCLE
  5
254
330
1F
100
AcDbEntity
  8
0
  6
Continuous
 62
     7
370
    18
100
AcDbCircle
 10
225.8929083503
 20
123.1421706296
 30
0.0
 40
25.19999999999999
  0
SPLINE
  5
255
330
1F
100
AcDbEntity
  8
0
  6
Continuous
 62
     7
370
    18
100
AcDbSpline
210
0.0
220
0.0
230
1.0
 70
     8
 71
     3
 72
    13
 73
     9
 74
     0
 42
0.000000001
 43
0.00000001
 40
0.0
 40
0.0
 40
0.0
 40
0.0
 40
0.1237345749994065
 40
0.2484232101745682
 40
0.3734713343328577
 40
0.4987444967637458
 40
0.7493102257733212
 40
1.0
 40
1.0
 40
1.0
 40
1.0
 10
232.7689979203221
 20
119.9401109705048
 30
0.0
 10
232.8100823165117
 20
119.9474742122576
 30
0.0
 10
232.8925678917001
 20
119.9622574703206
 30
0.0
 10
232.9767624614025
 20
120.0599702643914
 30
0.0
 10
233.0338321839583
 20
120.1687123470076
 30
0.0
 10
233.073002381374
 20
120.3295054541034
 30
0.0
 10
233.0942697042977
 20
120.5340624379632
 30
0.0
 10
233.096451443635
 20
120.6984416737414
 30
0.0
 10
233.0975425832601
 20
120.7806516310162
 30
0.0
  0
SPLINE
  5
256
330
1F
100
AcDbEntity
  8
0
  6
Continuous
 62
     7
370
    18
100
AcDbSpline
210
0.0
220
0.0
230
1.0
 70
     8
 71
     3
 72
    13
 73
     9
 74
     0
 42
0.000000001
 43
0.00000001
 40
0.0
 40
0.0
 40
0.0
 40
0.0
 40
0.2506668541570158
 40
0.5012048357437127
 40
0.6264537829510438
 40
0.7514291871594901
 40
0.8760522367173402
 40
1.0
 40
1.0
 40
1.0
 40
1.0
 10
232.4304468209495
 20
120.7806516310162
 30
0.0
 10
232.431495127766
 20
120.6977063952211
 30
0.0
 10
232.4335912024449
 20
120.5318585673455
 30
0.0
 10
232.4554103014837
 20
120.3254845649677
 30
0.0
 10
232.4955127817542
 20
120.1634301815319
 30
0.0
 10
232.554884123371
 20
120.0543246784127
 30
0.0
 10
232.6439854827188
 20
119.9596343529539
 30
0.0
 10
232.727402646914
 20
119.9466069675943
 30
0.0
 10
232.7689979203221
 20
119.9401109705048
 30
0.0
  0
SPLINE
  5
257
330
1F
100
AcDbEntity
  8
0
  6
Continuous
 62
     7
370
    18
100
AcDbSpline
210
0.0
220
0.0
230
1.0
 70
     8
 71
     3
 72
    13
 73
     9
 74
     0
 42
0.000000001
 43
0.00000001
 40
0.0
 40
0.0
 40
0.0
 40
0.0
 40
0.1236770548154468
 40
0.2483884878623275
 40
0.3734455614730935
 40
0.4987169325063972
 40
0.7492948497723043
 40
1.0
 40
1.0
 40
1.0
 40
1.0
 10
232.7564898747788
 20
121.6211922915275
 30
0.0
 10
232.7155013101244
 20
121.6136990922678
 30
0.0
 10
232.6331813712374
 20
121.5986500240622
 30
0.0
 10
232.5500676518159
 20
121.500292683732
 30
0.0
 10
232.4933346027427
 20
121.391658862396
 30
0.0
 10
232.4553188087501
 20
121.2308768332318
 30
0.0
 10
232.4335740600077
 20
121.0268279232954
 30
0.0
 10
232.4314894103404
 20
120.8627242790762
 30
0.0
 10
232.4304468209495
 20
120.7806516310162
 30
0.0
  0
SPLINE
  5
258
330
1F
100
AcDbEntity
  8
0
  6
Continuous
 62
     7
370
    18
100
AcDbSpline
210
0.0
220
0.0
230
1.0
 70
     8
 71
     3
 72
    13
 73
     9
 74
     0
 42
0.000000001
 43
0.00000001
 40
0.0
 40
0.0
 40
0.0
 40
0.0
 40
0.2506736071386392
 40
0.5012152607337989
 40
0.6264526015104109
 40
0.7514497498805427
 40
0.8760271183236268
 40
1.0
 40
1.0
 40
1.0
 40
1.0
 10
233.0975425832601
 20
120.7806516310162
 30
0.0
 10
233.096504080348
 20
120.86379778477
 30
0.0
 10
233.0944276211874
 20
121.0300463244883
 30
0.0
 10
233.0725133767762
 20
121.2369374522921
 30
0.0
 10
233.0321209215397
 20
121.3993130280224
 30
0.0
 10
232.9723532907895
 20
121.5086537752819
 30
0.0
 10
232.8818332054367
 20
121.6023920269833
 30
0.0
 10
232.7982031875217
 20
121.6149357056329
 30
0.0
 10
232.7564898747788
 20
121.6211922915275
 30
0.0
  0
SPLINE
  5
259
330
1F
100
AcDbEntity
  8
0
  6
Continuous
 62
     7
370
    18
100
AcDbSpline
210
0.0
220
0.0
230
1.0
 70
     8
 71
     3
 72
    13
 73
     9
 74
     0
 42
0.000000001
 43
0.00000001
 40
0.0
 40
0.0
 40
0.0
 40
0.0
 40
0.1237345749994057
 40
0.2484232101745686
 40
0.3734713343328585
 40
0.4987444967637457
 40
0.7493102257733213
 40
1.0
 40
1.0
 40
1.0
 40
1.0
 10
228.7130556854736
 20
119.9401109705048
 30
0.0
 10
228.7541400816632
 20
119.9474742122576
 30
0.0
 10
228.8366256568516
 20
119.9622574703206
 30
0.0
 10
228.920820226554
 20
120.0599702643914
 30
0.0
 10
228.9778899491098
 20
120.1687123470075
 30
0.0
 10
229.0170601465255
 20
120.3295054541035
 30
0.0
 10
229.0383274694493
 20
120.5340624379632
 30
0.0
 10
229.0405092087865
 20
120.6984416737414
 30
0.0
 10
229.0416003484115
 20
120.7806516310162
 30
0.0
  0
SPLINE
  5
25A
330
1F
100
AcDbEntity
  8
0
  6
Continuous
 62
     7
370
    18
100
AcDbSpline
210
0.0
220
0.0
230
1.0
 70
     8
 71
     3
 72
    13
 73
     9
 74
     0
 42
0.000000001
 43
0.00000001
 40
0.0
 40
0.0
 40
0.0
 40
0.0
 40
0.2506668541570164
 40
0.5012048357437136
 40
0.6264537829510449
 40
0.7514291871594854
 40
0.8760522367173392
 40
1.0
 40
1.0
 40
1.0
 40
1.0
 10
228.374504586101
 20
120.7806516310162
 30
0.0
 10
228.3755528929176
 20
120.6977063952211
 30
0.0
 10
228.3776489675964
 20
120.5318585673455
 30
0.0
 10
228.3994680666352
 20
120.3254845649678
 30
0.0
 10
228.4395705469057
 20
120.1634301815319
 30
0.0
 10
228.4989418885226
 20
120.0543246784127
 30
0.0
 10
228.5880432478703
 20
119.9596343529539
 30
0.0
 10
228.6714604120655
 20
119.9466069675943
 30
0.0
 10
228.7130556854736
 20
119.9401109705048
 30
0.0
  0
SPLINE
  5
25B
330
1F
100
AcDbEntity
  8
0
  6
Continuous
 62
     7
370
    18
100
AcDbSpline
210
0.0
220
0.0
230
1.0
 70
     8
 71
     3
 72
    13
 73
     9
 74
     0
 42
0.000000001
 43
0.00000001
 40
0.0
 40
0.0
 40
0.0
 40
0.0
 40
0.1236770548154475
 40
0.2483884878623287
 40
0.3734455614730945
 40
0.4987169325063974
 40
0.7492948497723044
 40
1.0
 40
1.0
 40
1.0
 40
1.0
 10
228.7005476399303
 20
121.6211922915275
 30
0.0
 10
228.659559075276
 20
121.6136990922678
 30
0.0
 10
228.577239136389
 20
121.5986500240622
 30
0.0
 10
228.4941254169674
 20
121.500292683732
 30
0.0
 10
228.4373923678942
 20
121.391658862396
 30
0.0
 10
228.3993765739016
 20
121.2308768332317
 30
0.0
 10
228.3776318251593
 20
121.0268279232954
 30
0.0
 10
228.3755471754919
 20
120.8627242790762
 30
0.0
 10
228.374504586101
 20
120.7806516310162
 30
0.0
  0
SPLINE
  5
25C
330
1F
100
AcDbEntity
  8
0
  6
Continuous
 62
     7
370
    18
100
AcDbSpline
210
0.0
220
0.0
230
1.0
 70
     8
 71
     3
 72
    13
 73
     9
 74
     0
 42
0.000000001
 43
0.00000001
 40
0.0
 40
0.0
 40
0.0
 40
0.0
 40
0.2506736071386391
 40
0.501215260733799
 40
0.6264526015104104
 40
0.7514497498805429
 40
0.8760271183236277
 40
1.0
 40
1.0
 40
1.0
 40
1.0
 10
229.0416003484115
 20
120.7806516310162
 30
0.0
 10
229.0405618454995
 20
120.86379778477
 30
0.0
 10
229.0384853863389
 20
121.0300463244883
 30
0.0
 10
229.0165711419278
 20
121.2369374522921
 30
0.0
 10
228.9761786866912
 20
121.3993130280224
 30
0.0
 10
228.916411055941
 20
121.5086537752819
 30
0.0
 10
228.8258909705882
 20
121.6023920269833
 30
0.0
 10
228.7422609526732
 20
121.6149357056329
 30
0.0
 10
228.7005476399303
 20
121.6211922915275
 30
0.0
  0
SPLINE
  5
25D
330
1F
100
AcDbEntity
  8
0
  6
Continuous
 62
     7
370
    18
100
AcDbSpline
210
0.0
220
0.0
230
1.0
 70
     8
 71
     3
 72
    12
 73
     8
 74
     0
 42
0.000000001
 43
0.00000001
 40
0.0
 40
0.0
 40
0.0
 40
0.0
 40
0.1864266110451011
 40
0.3728066183672675
 40
0.5596384089196473
 40
0.7795953861027523
 40
1.0
 40
1.0
 40
1.0
 40
1.0
 10
224.0129491051439
 20
119.9401109705048
 30
0.0
 10
224.049743348543
 20
119.9436666380934
 30
0.0
 10
224.1233226373586
 20
119.9507770844096
 30
0.0
 10
224.2181171353861
 20
120.0126739358428
 30
0.0
 10
224.2932842283732
 20
120.1026351178034
 30
0.0
 10
224.3385588805561
 20
120.2198960859447
 30
0.0
 10
224.3430155712424
 20
120.30629674904
 30
0.0
 10
224.3452461817449
 20
120.3495409946229
 30
0.0
  0
SPLINE
  5
25E
330
1F
100
AcDbEntity
  8
0
  6
Continuous
 62
     7
370
    18
100
AcDbSpline
210
0.0
220
0.0
230
1.0
 70
     8
 71
     3
 72
    11
 73
     7
 74
     0
 42
0.000000001
 43
0.00000001
 40
0.0
 40
0.0
 40
0.0
 40
0.0
 40
0.2807261943832934
 40
0.5603972916125657
 40
0.7804346209650634
 40
1.0
 40
1.0
 40
1.0
 40
1.0
 10
223.6781504194343
 20
120.3578796916518
 30
0.0
 10
223.6817251593517
 20
120.3018470794315
 30
0.0
 10
223.6888612036826
 20
120.1899924511192
 30
0.0
 10
223.7673720076372
 20
120.0516170254005
 30
0.0
 10
223.8811073087842
 20
119.9568149876958
 30
0.0
 10
223.9690333049972
 20
119.9456749896616
 30
0.0
 10
224.0129491051439
 20
119.9401109705048
 30
0.0
  0
SPLINE
  5
25F
330
1F
100
AcDbEntity
  8
0
  6
Continuous
 62
     7
370
    18
100
AcDbSpline
210
0.0
220
0.0
230
1.0
 70
     8
 71
     3
 72
    11
 73
     7
 74
     0
 42
0.000000001
 43
0.00000001
 40
0.0
 40
0.0
 40
0.0
 40
0.0
 40
0.2782055765816077
 40
0.5579799253701349
 40
0.7788219222535296
 40
1.0
 40
1.0
 40
1.0
 40
1.0
 10
224.0075289520751
 20
120.76730971577
 30
0.0
 10
223.9528446766738
 20
120.7581199633066
 30
0.0
 10
223.8431677669503
 20
120.7396886383251
 30
0.0
 10
223.7379232504762
 20
120.6182169903266
 30
0.0
 10
223.6848459604325
 20
120.487216303867
 30
0.0
 10
223.6803833974397
 20
120.4010137431709
 30
0.0
 10
223.6781504194343
 20
120.3578796916518
 30
0.0
  0
SPLINE
  5
260
330
1F
100
AcDbEntity
  8
0
  6
Continuous
 62
     7
370
    18
100
AcDbSpline
210
0.0
220
0.0
230
1.0
 70
     8
 71
     3
 72
    11
 73
     7
 74
     0
 42
0.000000001
 43
0.00000001
 40
0.0
 40
0.0
 40
0.0
 40
0.0
 40
0.2807535301687806
 40
0.5603207228591548
 40
0.7803822345379194
 40
1.0
 40
1.0
 40
1.0
 40
1.0
 10
224.3452461817449
 20
120.3495409946229
 30
0.0
 10
224.3415619780474
 20
120.4057799453742
 30
0.0
 10
224.3342091384315
 20
120.5180202064989
 30
0.0
 10
224.2540840144372
 20
120.6560594884985
 30
0.0
 10
224.1398496826859
 20
120.7508063028737
 30
0.0
 10
224.0516061756985
 20
120.7618122807315
 30
0.0
 10
224.0075289520751
 20
120.76730971577
 30
0.0
  0
SPLINE
  5
261
330
1F
100
AcDbEntity
  8
0
  6
Continuous
 62
     7
370
    18
100
AcDbSpline
210
0.0
220
0.0
230
1.0
 70
     8
 71
     3
 72
    11
 73
     7
 74
     0
 42
0.000000001
 43
0.00000001
 40
0.0
 40
0.0
 40
0.0
 40
0.0
 40
0.2783889696083863
 40
0.5580817055296858
 40
0.7789018539988227
 40
1.0
 40
1.0
 40
1.0
 40
1.0
 10
224.0129491051439
 20
120.9807803597094
 30
0.0
 10
224.0549361515594
 20
120.9879458201482
 30
0.0
 10
224.139106880402
 20
121.0023102986985
 30
0.0
 10
224.2192102761518
 20
121.0960041438998
 30
0.0
 10
224.2602257379268
 20
121.1963234747912
 30
0.0
 10
224.2635376783399
 20
121.2624714027383
 30
0.0
 10
224.2651946902676
 20
121.2955661725497
 30
0.0
  0
SPLINE
  5
262
330
1F
100
AcDbEntity
  8
0
  6
Continuous
 62
     7
370
    18
100
AcDbSpline
210
0.0
220
0.0
230
1.0
 70
     8
 71
     3
 72
    11
 73
     7
 74
     0
 42
0.000000001
 43
0.00000001
 40
0.0
 40
0.0
 40
0.0
 40
0.0
 40
0.2806987831964763
 40
0.5604086902325234
 40
0.7804393617933015
 40
0.9999999999999999
 40
0.9999999999999999
 40
0.9999999999999999
 40
0.9999999999999999
 10
223.7582019109116
 20
121.3093250226473
 30
0.0
 10
223.7606295943427
 20
121.2657678754049
 30
0.0
 10
223.7654764086981
 20
121.178807028769
 30
0.0
 10
223.8227464084954
 20
121.0693081328802
 30
0.0
 10
223.9101668418416
 20
120.9935109665772
 30
0.0
 10
223.9787127816432
 20
120.9850208693176
 30
0.0
 10
224.0129491051439
 20
120.9807803597094
 30
0.0
  0
SPLINE
  5
263
330
1F
100
AcDbEntity
  8
0
  6
Continuous
 62
     7
370
    18
100
AcDbSpline
210
0.0
220
0.0
230
1.0
 70
     8
 71
     3
 72
    11
 73
     7
 74
     0
 42
0.000000001
 43
0.00000001
 40
0.0
 40
0.0
 40
0.0
 40
0.0
 40
0.2781848052830295
 40
0.5582334878196209
 40
0.7790790531104457
 40
1.0
 40
1.0
 40
1.0
 40
1.0
 10
224.0104474960353
 20
121.6211922915275
 30
0.0
 10
223.9688905616107
 20
121.6138869098047
 30
0.0
 10
223.8854982554662
 20
121.5992271992758
 30
0.0
 10
223.8060669411857
 20
121.5065983415022
 30
0.0
 10
223.7639288862737
 20
121.4076918350073
 30
0.0
 10
223.7601111198493
 20
121.3421176898868
 30
0.0
 10
223.7582019109116
 20
121.3093250226473
 30
0.0
  0
SPLINE
  5
264
330
1F
100
AcDbEntity
  8
0
  6
Continuous
 62
     7
370
    18
100
AcDbSpline
210
0.0
220
0.0
230
1.0
 70
     8
 71
     3
 72
    11
 73
     7
 74
     0
 42
0.000000001
 43
0.00000001
 40
0.0
 40
0.0
 40
0.0
 40
0.0
 40
0.2805990159984099
 40
0.5604527759419509
 40
0.7805133266133505
 40
1.0
 40
1.0
 40
1.0
 40
1.0
 10
224.2651946902676
 20
121.2955661725497
 30
0.0
 10
224.2625107677696
 20
121.338705459116
 30
0.0
 10
224.2571500511289
 20
121.4248694565991
 30
0.0
 10
224.1966375324539
 20
121.5307581165502
 30
0.0
 10
224.1119002711593
 20
121.6069119143107
 30
0.0
 10
224.0442356398685
 20
121.6164363108379
 30
0.0
 10
224.0104474960353
 20
121.6211922915275
 30
0.0
  0
SPLINE
  5
265
330
1F
100
AcDbEntity
  8
0
  6
Continuous
 62
     7
370
    18
100
AcDbSpline
210
0.0
220
0.0
230
1.0
 70
     8
 71
     3
 72
    13
 73
     9
 74
     0
 42
0.000000001
 43
0.00000001
 40
0.0
 40
0.0
 40
0.0
 40
0.0
 40
0.1237345749994064
 40
0.2484232101745681
 40
0.3734713343328592
 40
0.4987444967637458
 40
0.7493102257733214
 40
1.0
 40
1.0
 40
1.0
 40
1.0
 10
222.7091938246781
 20
119.9401109705048
 30
0.0
 10
222.7502782208678
 20
119.9474742122576
 30
0.0
 10
222.8327637960561
 20
119.9622574703206
 30
0.0
 10
222.9169583657585
 20
120.0599702643914
 30
0.0
 10
222.9740280883144
 20
120.1687123470075
 30
0.0
 10
223.0131982857301
 20
120.3295054541035
 30
0.0
 10
223.0344656086538
 20
120.5340624379632
 30
0.0
 10
223.036647347991
 20
120.6984416737414
 30
0.0
 10
223.0377384876161
 20
120.7806516310162
 30
0.0
  0
SPLINE
  5
266
330
1F
100
AcDbEntity
  8
0
  6
Continuous
 62
     7
370
    18
100
AcDbSpline
210
0.0
220
0.0
230
1.0
 70
     8
 71
     3
 72
    13
 73
     9
 74
     0
 42
0.000000001
 43
0.00000001
 40
0.0
 40
0.0
 40
0.0
 40
0.0
 40
0.2506668541570161
 40
0.5012048357437129
 40
0.6264537829510441
 40
0.7514291871594854
 40
0.8760522367173385
 40
1.0
 40
1.0
 40
1.0
 40
1.0
 10
222.3706427253055
 20
120.7806516310162
 30
0.0
 10
222.3716910321221
 20
120.6977063952212
 30
0.0
 10
222.3737871068009
 20
120.5318585673455
 30
0.0
 10
222.3956062058397
 20
120.3254845649678
 30
0.0
 10
222.4357086861102
 20
120.1634301815319
 30
0.0
 10
222.4950800277271
 20
120.0543246784127
 30
0.0
 10
222.5841813870748
 20
119.9596343529539
 30
0.0
 10
222.66759855127
 20
119.9466069675943
 30
0.0
 10
222.7091938246781
 20
119.9401109705048
 30
0.0
  0
SPLINE
  5
267
330
1F
100
AcDbEntity
  8
0
  6
Continuous
 62
     7
370
    18
100
AcDbSpline
210
0.0
220
0.0
230
1.0
 70
     8
 71
     3
 72
    13
 73
     9
 74
     0
 42
0.000000001
 43
0.00000001
 40
0.0
 40
0.0
 40
0.0
 40
0.0
 40
0.1236770548154442
 40
0.2483884878623269
 40
0.3734455614730937
 40
0.4987169325063972
 40
0.7492948497723042
 40
1.0
 40
1.0
 40
1.0
 40
1.0
 10
222.6966857791348
 20
121.6211922915275
 30
0.0
 10
222.6556972144805
 20
121.6136990922678
 30
0.0
 10
222.5733772755935
 20
121.5986500240622
 30
0.0
 10
222.4902635561719
 20
121.500292683732
 30
0.0
 10
222.4335305070987
 20
121.391658862396
 30
0.0
 10
222.3955147131061
 20
121.2308768332317
 30
0.0
 10
222.3737699643638
 20
121.0268279232954
 30
0.0
 10
222.3716853146964
 20
120.8627242790762
 30
0.0
 10
222.3706427253055
 20
120.7806516310162
 30
0.0
  0
SPLINE
  5
268
330
1F
100
AcDbEntity
  8
0
  6
Continuous
 62
     7
370
    18
100
AcDbSpline
210
0.0
220
0.0
230
1.0
 70
     8
 71
     3
 72
    13
 73
     9
 74
     0
 42
0.000000001
 43
0.00000001
 40
0.0
 40
0.0
 40
0.0
 40
0.0
 40
0.2506736071386391
 40
0.5012152607337987
 40
0.6264526015104109
 40
0.7514497498805427
 40
0.8760271183236269
 40
1.0
 40
1.0
 40
1.0
 40
1.0
 10
223.0377384876161
 20
120.7806516310162
 30
0.0
 10
223.0366999847041
 20
120.86379778477
 30
0.0
 10
223.0346235255435
 20
121.0300463244883
 30
0.0
 10
223.0127092811323
 20
121.2369374522921
 30
0.0
 10
222.9723168258957
 20
121.3993130280224
 30
0.0
 10
222.9125491951455
 20
121.5086537752819
 30
0.0
 10
222.8220291097928
 20
121.6023920269833
 30
0.0
 10
222.7383990918778
 20
121.6149357056329
 30
0.0
 10
222.6966857791348
 20
121.6211922915275
 30
0.0
  0
CIRCLE
  5
269
330
1F
100
AcDbEntity
  8
0
  6
Continuous
 62
     7
370
    18
100
AcDbCircle
 10
225.8929083503
 20
123.1421706296
 30
0.0
 40
25.40000000000001
  0
OLE2FRAME
  5
26A
330
1F
100
AcDbEntity
  8
0
100
AcDbOle2Frame
 70
     2
  3
Paintbrush Picture
 10
229.0524258301
 20
33.6996297921
 30
0.0
 11
265.1686469208
 21
28.555479607
 31
0.0
 71
     2
 72
     0
 73
     1
 90
     7296
310
80557333EF78ADA16C40002412788DD94040000000000000000041161DC7B292
310
7040002412788DD94040000000000000000041161DC7B2927040F6DD59E9338E
310
3C4000000000000000007333EF78ADA16C40F6DD59E9338E3C40000000000000
310
00000000000001000000000100000100000001000000000001000000001C0000
310
D0CF11E0A1B11AE1000000000000000000000000000000003E000300FEFF0900
310
0600000000000000000000000100000001000000000000000010000002000000
310
01000000FEFFFFFF0000000000000000FFFFFFFFFFFFFFFFFFFFFFFFFFFFFFFF
310
FFFFFFFFFFFFFFFFFFFFFFFFFFFFFFFFFFFFFFFFFFFFFFFFFFFFFFFFFFFFFFFF
310
FFFFFFFFFFFFFFFFFFFFFFFFFFFFFFFFFFFFFFFFFFFFFFFFFFFFFFFFFFFFFFFF
310
FFFFFFFFFFFFFFFFFFFFFFFFFFFFFFFFFFFFFFFFFFFFFFFFFFFFFFFFFFFFFFFF
310
FFFFFFFFFFFFFFFFFFFFFFFFFFFFFFFFFFFFFFFFFFFFFFFFFFFFFFFFFFFFFFFF
310
FFFFFFFFFFFFFFFFFFFFFFFFFFFFFFFFFFFFFFFFFFFFFFFFFFFFFFFFFFFFFFFF
310
FFFFFFFFFFFFFFFFFFFFFFFFFFFFFFFFFFFFFFFFFFFFFFFFFFFFFFFFFFFFFFFF
310
FFFFFFFFFFFFFFFFFFFFFFFFFFFFFFFFFFFFFFFFFFFFFFFFFFFFFFFFFFFFFFFF
310
FFFFFFFFFFFFFFFFFFFFFFFFFFFFFFFFFFFFFFFFFFFFFFFFFFFFFFFFFFFFFFFF
310
FFFFFFFFFFFFFFFFFFFFFFFFFFFFFFFFFFFFFFFFFFFFFFFFFFFFFFFFFFFFFFFF
310
FFFFFFFFFFFFFFFFFFFFFFFFFFFFFFFFFFFFFFFFFFFFFFFFFFFFFFFFFFFFFFFF
310
FFFFFFFFFFFFFFFFFFFFFFFFFFFFFFFFFFFFFFFFFFFFFFFFFFFFFFFFFFFFFFFF
310
FFFFFFFFFFFFFFFFFFFFFFFFFFFFFFFFFFFFFFFFFFFFFFFFFFFFFFFFFFFFFFFF
310
FFFFFFFFFFFFFFFFFFFFFFFFFFFFFFFFFFFFFFFFFFFFFFFFFFFFFFFFFFFFFFFF
310
FDFFFFFFFEFFFFFFFEFFFFFFFEFFFFFF05000000060000000700000008000000
310
090000000A0000000B0000000C000000FEFFFFFFFFFFFFFFFFFFFFFFFFFFFFFF
310
FFFFFFFFFFFFFFFFFFFFFFFFFFFFFFFFFFFFFFFFFFFFFFFFFFFFFFFFFFFFFFFF
310
FFFFFFFFFFFFFFFFFFFFFFFFFFFFFFFFFFFFFFFFFFFFFFFFFFFFFFFFFFFFFFFF
310
FFFFFFFFFFFFFFFFFFFFFFFFFFFFFFFFFFFFFFFFFFFFFFFFFFFFFFFFFFFFFFFF
310
FFFFFFFFFFFFFFFFFFFFFFFFFFFFFFFFFFFFFFFFFFFFFFFFFFFFFFFFFFFFFFFF
310
FFFFFFFFFFFFFFFFFFFFFFFFFFFFFFFFFFFFFFFFFFFFFFFFFFFFFFFFFFFFFFFF
310
FFFFFFFFFFFFFFFFFFFFFFFFFFFFFFFFFFFFFFFFFFFFFFFFFFFFFFFFFFFFFFFF
310
FFFFFFFFFFFFFFFFFFFFFFFFFFFFFFFFFFFFFFFFFFFFFFFFFFFFFFFFFFFFFFFF
310
FFFFFFFFFFFFFFFFFFFFFFFFFFFFFFFFFFFFFFFFFFFFFFFFFFFFFFFFFFFFFFFF
310
FFFFFFFFFFFFFFFFFFFFFFFFFFFFFFFFFFFFFFFFFFFFFFFFFFFFFFFFFFFFFFFF
310
FFFFFFFFFFFFFFFFFFFFFFFFFFFFFFFFFFFFFFFFFFFFFFFFFFFFFFFFFFFFFFFF
310
FFFFFFFFFFFFFFFFFFFFFFFFFFFFFFFFFFFFFFFFFFFFFFFFFFFFFFFFFFFFFFFF
310
FFFFFFFFFFFFFFFFFFFFFFFFFFFFFFFFFFFFFFFFFFFFFFFFFFFFFFFFFFFFFFFF
310
FFFFFFFFFFFFFFFFFFFFFFFFFFFFFFFFFFFFFFFFFFFFFFFFFFFFFFFFFFFFFFFF
310
FFFFFFFFFFFFFFFFFFFFFFFFFFFFFFFFFFFFFFFFFFFFFFFFFFFFFFFFFFFFFFFF
310
52006F006F007400200045006E00740072007900000000000000000000000000
310
0000000000000000000000000000000000000000000000000000000000000000
310
16000500FFFFFFFFFFFFFFFF020000000A00030000000000C000000000000046
310
00000000000000000000000030B8318D4696D40103000000C000000000000000
310
01004F006C006500000000000000000000000000000000000000000000000000
310
0000000000000000000000000000000000000000000000000000000000000000
310
0A000200FFFFFFFFFFFFFFFFFFFFFFFF00000000000000000000000000000000
310
0000000000000000000000000000000000000000000000001400000000000000
310
010043006F006D0070004F0062006A0000000000000000000000000000000000
310
0000000000000000000000000000000000000000000000000000000000000000
310
120002010100000003000000FFFFFFFF00000000000000000000000000000000
310
0000000000000000000000000000000000000000010000004D00000000000000
310
01004F006C006500310030004E00610074006900760065000000000000000000
310
0000000000000000000000000000000000000000000000000000000000000000
310
1A000200FFFFFFFFFFFFFFFFFFFFFFFF00000000000000000000000000000000
310
000000000000000000000000000000000000000004000000E411000000000000
310
FEFFFFFF02000000FEFFFFFFFFFFFFFFFFFFFFFFFFFFFFFFFFFFFFFFFFFFFFFF
310
FFFFFFFFFFFFFFFFFFFFFFFFFFFFFFFFFFFFFFFFFFFFFFFFFFFFFFFFFFFFFFFF
310
FFFFFFFFFFFFFFFFFFFFFFFFFFFFFFFFFFFFFFFFFFFFFFFFFFFFFFFFFFFFFFFF
310
FFFFFFFFFFFFFFFFFFFFFFFFFFFFFFFFFFFFFFFFFFFFFFFFFFFFFFFFFFFFFFFF
310
FFFFFFFFFFFFFFFFFFFFFFFFFFFFFFFFFFFFFFFFFFFFFFFFFFFFFFFFFFFFFFFF
310
FFFFFFFFFFFFFFFFFFFFFFFFFFFFFFFFFFFFFFFFFFFFFFFFFFFFFFFFFFFFFFFF
310
FFFFFFFFFFFFFFFFFFFFFFFFFFFFFFFFFFFFFFFFFFFFFFFFFFFFFFFFFFFFFFFF
310
FFFFFFFFFFFFFFFFFFFFFFFFFFFFFFFFFFFFFFFFFFFFFFFFFFFFFFFFFFFFFFFF
310
FFFFFFFFFFFFFFFFFFFFFFFFFFFFFFFFFFFFFFFFFFFFFFFFFFFFFFFFFFFFFFFF
310
FFFFFFFFFFFFFFFFFFFFFFFFFFFFFFFFFFFFFFFFFFFFFFFFFFFFFFFFFFFFFFFF
310
FFFFFFFFFFFFFFFFFFFFFFFFFFFFFFFFFFFFFFFFFFFFFFFFFFFFFFFFFFFFFFFF
310
FFFFFFFFFFFFFFFFFFFFFFFFFFFFFFFFFFFFFFFFFFFFFFFFFFFFFFFFFFFFFFFF
310
FFFFFFFFFFFFFFFFFFFFFFFFFFFFFFFFFFFFFFFFFFFFFFFFFFFFFFFFFFFFFFFF
310
FFFFFFFFFFFFFFFFFFFFFFFFFFFFFFFFFFFFFFFFFFFFFFFFFFFFFFFFFFFFFFFF
310
FFFFFFFFFFFFFFFFFFFFFFFFFFFFFFFFFFFFFFFFFFFFFFFFFFFFFFFFFFFFFFFF
310
FFFFFFFFFFFFFFFFFFFFFFFFFFFFFFFFFFFFFFFFFFFFFFFFFFFFFFFFFFFFFFFF
310
0100000200000000000000000000000000000000000000000000000000000000
310
0000000000000000000000000000000000000000000000000000000000000000
310
0100FEFF030A0000FFFFFFFF0A00030000000000C00000000000004607000000
310
5042727573680007000000504272757368000700000050427275736800F439B2
310
7100000000000000000000000000000000000000000000000000000000000000
310
0000000000000000000000000000000000000000000000000000000000000000
310
0000000000000000000000000000000000000000000000000000000000000000
310
0000000000000000000000000000000000000000000000000000000000000000
310
0000000000000000000000000000000000000000000000000000000000000000
310
0000000000000000000000000000000000000000000000000000000000000000
310
0000000000000000000000000000000000000000000000000000000000000000
310
0000000000000000000000000000000000000000000000000000000000000000
310
0000000000000000000000000000000000000000000000000000000000000000
310
0000000000000000000000000000000000000000000000000000000000000000
310
0000000000000000000000000000000000000000000000000000000000000000
310
0000000000000000000000000000000000000000000000000000000000000000
310
E0110000424DDE11000000000000360400002800000096000000170000000100
310
08000000000000000000E7240000E72400000001000000010000000000FF0101
310
01FF020202FF030303FF040404FF050505FF060606FF070707FF080808FF0909
310
09FF0A0A0AFF0B0B0BFF0C0C0CFF0D0D0DFF0E0E0EFF0F0F0FFF101010FF1111
310
11FF121212FF131313FF141414FF151515FF161616FF171717FF181818FF1919
310
19FF1A1A1AFF1B1B1BFF1C1C1CFF1D1D1DFF1E1E1EFF1F1F1FFF202020FF2121
310
21FF222222FF232323FF242424FF252525FF262626FF272727FF282828FF2929
310
29FF2A2A2AFF2B2B2BFF2C2C2CFF2D2D2DFF2E2E2EFF2F2F2FFF303030FF3131
310
31FF323232FF333333FF343434FF353535FF363636FF373737FF383838FF3939
310
39FF3A3A3AFF3B3B3BFF3C3C3CFF3D3D3DFF3E3E3EFF3F3F3FFF404040FF4141
310
41FF424242FF434343FF444444FF454545FF464646FF474747FF484848FF4949
310
49FF4A4A4AFF4B4B4BFF4C4C4CFF4D4D4DFF4E4E4EFF4F4F4FFF505050FF5151
310
51FF525252FF535353FF545454FF555555FF565656FF575757FF585858FF5959
310
59FF5A5A5AFF5B5B5BFF5C5C5CFF5D5D5DFF5E5E5EFF5F5F5FFF606060FF6161
310
61FF626262FF636363FF646464FF656565FF666666FF676767FF686868FF6969
310
69FF6A6A6AFF6B6B6BFF6C6C6CFF6D6D6DFF6E6E6EFF6F6F6FFF707070FF7171
310
71FF727272FF737373FF747474FF757575FF767676FF777777FF787878FF7979
310
79FF7A7A7AFF7B7B7BFF7C7C7CFF7D7D7DFF7E7E7EFF7F7F7FFF808080FF8181
310
81FF828282FF838383FF848484FF858585FF868686FF878787FF888888FF8989
310
89FF8A8A8AFF8B8B8BFF8C8C8CFF8D8D8DFF8E8E8EFF8F8F8FFF909090FF9191
310
91FF929292FF939393FF949494FF959595FF969696FF979797FF989898FF9999
310
99FF9A9A9AFF9B9B9BFF9C9C9CFF9D9D9DFF9E9E9EFF9F9F9FFFA0A0A0FFA1A1
310
A1FFA2A2A2FFA3A3A3FFA4A4A4FFA5A5A5FFA6A6A6FFA7A7A7FFA8A8A8FFA9A9
310
A9FFAAAAAAFFABABABFFACACACFFADADADFFAEAEAEFFAFAFAFFFB0B0B0FFB1B1
310
B1FFB2B2B2FFB3B3B3FFB4B4B4FFB5B5B5FFB6B6B6FFB7B7B7FFB8B8B8FFB9B9
310
B9FFBABABAFFBBBBBBFFBCBCBCFFBDBDBDFFBEBEBEFFBFBFBFFFC0C0C0FFC1C1
310
C1FFC2C2C2FFC3C3C3FFC4C4C4FFC5C5C5FFC6C6C6FFC7C7C7FFC8C8C8FFC9C9
310
C9FFCACACAFFCBCBCBFFCCCCCCFFCDCDCDFFCECECEFFCFCFCFFFD0D0D0FFD1D1
310
D1FFD2D2D2FFD3D3D3FFD4D4D4FFD5D5D5FFD6D6D6FFD7D7D7FFD8D8D8FFD9D9
310
D9FFDADADAFFDBDBDBFFDCDCDCFFDDDDDDFFDEDEDEFFDFDFDFFFE0E0E0FFE1E1
310
E1FFE2E2E2FFE3E3E3FFE4E4E4FFE5E5E5FFE6E6E6FFE7E7E7FFE8E8E8FFE9E9
310
E9FFEAEAEAFFEBEBEBFFECECECFFEDEDEDFFEEEEEEFFEFEFEFFFF0F0F0FFF1F1
310
F1FFF2F2F2FFF3F3F3FFF4F4F4FFF5F5F5FFF6F6F6FFF7F7F7FFF8F8F8FFF9F9
310
F9FFFAFAFAFFFBFBFBFFFCFCFCFFFDFDFDFFFEFEFEFFFFFFFFFFFFFFFFFFFFFF
310
C94E4E4E4F4E4EFFFFFFFFFFC94E4E4E4E4E72FFFFFFFFFFFFFF734E4D4E4E4E
310
C9FFFFFFFFFFAA683516171616265B9BE9FFFFFFFFFF4E4E4E4D4E4EFFFFFFFF
310
FFFFFFFF4E4E4F4E4D4E4E4E4F4E4E4F4D4E4E4E4E4E4D4E4F4E4D4E4E4EAAFF
310
FFFFFFFFFFEA4E4F4F4E4E4E4E4E4D4D4F4F4E4E4E4E4E5B7FAAFFFFFFFFFFFF
310
C9744E1716171616164D8DEAFFFFFFFF0000FFFFFFFFFFFFBA161617161716FF
310
FFFFFFFFB917171616174FFFFFFFFFFFFFFF4E1716161616B9FFFFFFB9341717
310
1716171617171616268CFFFFFFFF161617161617FFFFFFFFFFFFFFB917161717
310
1617167F807F7F7F7F7F7F807F7F807F7F807F7F7F414EFFFFFFFFFFFF8C167F
310
7F807F7F7F7E7F7F807F807F7F807F4E3417258EFFFFEA4E162674AABAEAEBBA
310
AA74341680FFFFFF0000FFFFFFFFFFFFB9171717171617FFFFFFFFFFBB161616
310
16164EFFFFFFFFFFFFFF4E1717171717B9FFFF9C171617171716161616171616
310
171766FFFFFF161717161617FFFFFFFFFFFFFF8E16171717161616FFFFFFFFFF
310
FFFFFFFFFFFFFFFFFFFFFFFFFFAA16D9FFFFFFFFFF3467FFFFFFFFEAFFFFFFFF
310
FFFFFFFFFFFFFFFFFFCA671667EB26278DFFFFFFFFFFFFFFFFFFFF8C2541EAFF
310
0000FFFFFFFFFFFFB9171717171716FFFFFFFFFFBA16171617174EFFFFFFFFFF
310
FFFF4E1717161616BAFF9B1617161616171716171617161616161667FFFF1616
310
16161716FFFFFFFFFFFFFF7F16161617174017FFFFFFFFFFFFFFFFFFFFFFFFFF
310
FFFFFFFFFFFF344E7F7F7F7E7417DAFFFFFFFF80FFFFFFFFFFFFFFFFFFFFFFFF
310
FFFFFF9B163425CAFFFFFFFFFFFFFFFFFFFFFFFFCA2667FF0000FFFFFFFFFFFF
310
BA171717171617FFFFFFFFFFB916171716164EFFFFFFFFFFFFFF4F1716161717
310
B9C91716171616161716161617171616161617168DFF161716161717FFFFFFFF
310
FFFFFF7F17171716164F16FFFFFFFFFFFFFFFFFFFFFFFFFFFFFFFFFFFFFF9B16
310
17161617174EFFFFFFFFFF34FFFFFFFFD9BABABABABADAFFFFFFFFFF7F16AAFF
310
FFFFFFFFFFFFFFFFFFFFFFFFFF9C16BA0000FFFFFFFFFFFFB9161717161717FF
310
FFFFFFFFB917161716174DFFFFFFFFFFFFFF4E1616161616BA4E161617171716
310
419BEAEAAA4E16161617161726E9171717161616FFFFFFFFFFFFFF4F16161717
310
164E16FFFFFFFFFFBAB9B9B9B9B9BABABACAFFFFFFFFFFFFFFFFFFFFFFFFFFFF
310
FFFFBA16FFFFFFFF7F1617161617174DEAFFFFFFEA41FFFFFFFFFFAA4D16174E
310
9BFFFFFFFFFF34730000FFFFFFFFFFFFB9161617171617FFFFFFFFFFBA161616
310
16164EFFFFFFFFFFFFFF4F16161717169B1617161716175BFFFFFFFFFFFF7417
310
16171616168D171717161617FFFFFFFFFFFFEA2616171717167416FFFFFFFFFF
310
16171616171717171717EAFFFFFFFFFFFFFFFFFFFFFFFFFFFFFF6716FFFFFFFF
310
7F4EFFFFFFFFBA2573FFFFFFFFBAFFFFFFFFAA167FB9BB9B269BFFFFFFFF664F
310
0000FFFFFFFFFFFFB9171616161616FFFFFFFFFFBA16161717164EFFFFFFFFFF
310
FFFF4E16161616174E161617171626EAFFFFFFFFFFFFFF4E16161616164E1716
310
16161617FFFFFFFFFFFF671616161716347F16FFFFFFFFFF16B9FFFFFFFFFFFF
310
D9168DFFFFFFFFFFFFFFFFFFFFFFFFFFFFEA1716FFFFFFFF7F4EFFFFFFFFFF7F
310
4EFFFFFFFFFFFFFFFFFF5B66FFFFFFEA347FFFFFFFFF7F4D0000FFFFFFFFFFFF
310
B9171616171617FFFFFFFFFFBA17161716174EFFFFFFFFFFFFFF4D1716161617
310
17161716161673FFFFFFFFFFFFFFFF9B1617161717161616171616174F4E4E4E
310
4E341616171616167E7F16FFFFFFFFFF16BAFFFFFFFFFFFFFF5B41FFFFFFFF34
310
1616171616BAFFFFFF9B1716FFFFFFFF7F4EFFFFFFFFFF4E4EFFFFFFFF734E4E
310
4E4E267EDA9B67164EEAFFFFFFFF744D0000FFFFFFFFFFFFBA171717161617FF
310
FFFFFFFFBA1616171616347F7F7F7F80807F331616161717161717161716B9FF
310
FFFFFFFFFFFFFFE9161616161616171716161716171616161616171616171734
310
EA7F16FFFFFFFFFF16BAFFFFFFFFFFFFFFAA17C9FFFFFF7326BABA5B25FFFFFF
310
FF401716FFFFFFFF7F264F4E4E4E4217AAFFFFFFEA16677F73261616164173CA
310
FFFFFFFFFFFF417F0000FFFFFFFFFFFFBA171616171617FFFFFFFFFFBA161616
310
17171616161616161616161717161616161616161617EAFFFFFFFFFFFFFFFFFF
310
261717161716161617161616161617161617161616174EEAFF8016FFFFFFFFFF
310
17BAFFFFFFFFFFFFFFFF3467FFFFFFC916C9FF3467FFFFFFDA166716FFFFFFFF
310
9C4D4E4E4E4E67AAFFFFFFFF6834FF7F262567AAEAFFFFFFFFFFFFFFFF9B17D9
310
0000FFFFFFFFFFFFB9161616161616FFFFFFFFFFBA1617161717171616161616
310
1716171716161716161617171716FFFFFFFFFFFFFFFFFFFF4E17161716171616
310
1617171616161716171717161616169BFF7F17FFFFFFFFFF17B9FFFFFFFFFFFF
310
FFFF7326FFFFFFFF3473DA16AAFFFFFF7317AA16FFFFFFFFFFFFFFFFFFFFFFFF
310
FFFFEA6725BA4E167FEAFFFFFFFFFFFFFFFFFFFF9C167FFF0000FFFFFFFFFFFF
310
B9161717171716FFFFFFFFFFBA16161716171616171717161617161716161616
310
171617171617EAFFFFFFFFFFFFFFFFFF26161717161616161616161617171616
310
1616161616171616AA8016FFFFFFFFFF16BAFFFFFFFFFFFFFFFFDA179BFFFFFF
310
74348D26FFFFFFFF2566B917FFFFFFFFD8BAB9BAB9BADAFFFFEA41169B7425C9
310
FFFFFFFFFFFFFFFFFFFFAB4F1680FFFF0000FFFFFFFFFFFFBA161717171617FF
310
FFFFFFFFBA17161717161617171617161616161617171616171716171617BBFF
310
FFFFFFFFFFFFFFE9171616161617161617161716FFFFFFFFFFD9671616161617
310
348017FFFFFFFFFF16BAFFFFFFFFFFFFFFFFFF4E5AFFFFFFC916265AFFFFFFAA
310
16AABA16FFFFFFFF7F1617161616179BFFFFEB4127168DFFFFFFFFFFFFFFD99B
310
6734175AC9FFFFFF0000FFFFFFFFFFFFB9161617171617FFFFFFFFFFBB161616
310
1616347F807F7F7F7F8033171716171617171616161672FFFFFFFFFFFFFFFF9C
310
171617171617161716161617FFFFFFFFFFFFFF4117161616174E17FFFFFFFFFF
310
16BAFFFFFFFFFFFFFFFFFF9B16DAFFFFFF34169BFFFFFF5A26FFB917FFFFFFFF
310
7F4EFFFFFFEA5B26FFFFFFEA2616EAFFFFFFFFDA743416331617414E4E4E4ECA
310
0000FFFFFFFFFFFFBA161716161616FFFFFFFFFFBA17171616164EFFFFFFFFFF
310
FFFF4E16161717174E161717171626EBFFFFFFFFFFFFFF4E16161617165B1616
310
16171617FFFFFFFFFFFFFF6716161616161617FFFFFFFFFF16BAFFFFFFFFFFFF
310
FFFFFFEA268CFFFFFF7316EAFFFFEB1774FFB916FFFFFFFF7F4EFFFFFFFF7316
310
FFFFFFFF6826FFFFFFFFEB264D9CEABA257F807F7F6616BA0000FFFFFFFFFFFF
310
BA161716161616FFFFFFFFFFBA16171616164DFFFFFFFFFFFFFF4E1617161617
310
9B1617171717165BEBFFFFFFFFFF671616161617179B171616161616FFFFFFFF
310
FFFFFF3417161617171617FFFFFFFFFF17BAFFFFFFFFFFFFFFFFFFFF6734FFFF
310
FFEBCAFFFFFF8D17C9FFBA17FFFFFFFF7F357F808066174FFFFFFFFF7F16FFFF
310
FFFFD91673B99B415BFFFFFFFFBA16DA00009B7F7F7F807F671617161616167F
310
80807F7E6617161616164EFFFFFFFFFFFFFF4E1616161617B94E171716161616
310
349BC9D9AA4E16171616161634FF161617161717B9B9BAB9BA9B411716171716
310
163416FFFFFFFFFF16B9FFFFFFFFFFFFFFFFFFFFC917CAFFFFFFFFFFFFFF3342
310
FFFFBA17FFFFFFFF9B4E4E4F4E4E66EAFFFFFFFF5B16C9FFFFFFFFAA4E164E73
310
EAFFFFFFFF8D26FF00004E161716161616171617171616171717171617161616
310
17174EFFFFFFFFFFFFFF4E1717171616B9D92616171716171716171717171716
310
16171716AAFF161717171617161617171616161617161716166717FFFFFFFFFF
310
17B9FFFFFFFFFFFFFFFFFFFFFF3467FFFFFFFFFFFFCA168CFFFFBB17FFFFFFFF
310
FFFFFFFFFFFFFFFFFFFFFFEA26265BFFFFFFFFFFFFFFFFFFFFFFFFFFEA3467FF
310
00004D16161616161617161717161617161616171617171616164EFFFFFFFFFF
310
FFFF4D1617161616BAFF9B1616161616161716161616171717161766FFFF1616
310
16171617161617161716171616171717667F16FFFFFFFFFF17BAFFFFFFFFFFFF
310
FFFFFFFFFF8C26EAFFFFFFFFFF6617EAFFFFBA17FFFFFFFFFFFFFFFFFFFFFFFF
310
FFFFEA5A25BA269BFFFFFFFFFFFFFFFFFFFFFFFF6616DAFF00004E1616171616
310
1616161616161716161617171616171616174EFFFFFFFFFFFFFF4D1717171716
310
B9FFFF9C161616161616161716161717171667FFFFFF17161717171716161617
310
1716161616161641E97E16FFFFFFFFFF16B9FFFFFFFFFFFFFFFFFFFFFFEA169B
310
FFFFFFFFEA265BFFFFFFB916FFFFFFFFFFFFFFFFFFFFFFFFFF9B3416AAFF9B17
310
67EAFFFFFFFFFFFFFFFFEA5B169BFFFF00004D17161716161616161717171616
310
161717161716171716174EFFFFFFFFFFFFFF4D1616161616BAFFFFFFBB411616
310
161716161616171634ABFFFFFFFF161716161617171716171617171617267FFF
310
FF7F164E4E4E4E4F17BAFFFFFFFFFFFFFFFFFFFFFFFF66344D4E4E4F4117AAFF
310
FFFFBA174E4E4E4D4E4D4D4E4E4E4E4116174EBBFFFFFFCA342666ABEAFFFFEA
310
AA6725269CFFFFFF0000724F4E4D4D4D4E4D4D4E4E4E4D4E4E4E4E4E4E4E4E4D
310
4E4E74FFFFFFFFFFFFFF734E4E4E4D4ECAFFFFFFFFFFAA663416171717265B9B
310
FFFFFFFFFFFF7F8080807F80807F7F7F7F7F807FBAFFFFFFFF9B4E4E4F4D4D4E
310
4DC9FFFFFFFFFFFFFFFFFFFFFFFFBA4E4E4E4E4D4E4EFFFFFFFFC94E4E4E4F4E
310
4E4E4D4E4E5A807F9CD9FFFFFFFFFFFFFF9B5B2617171716174E8DEAFFFFFFFF
310
0000000000000000000000000000000000000000000000000000000000000000
  1
OLE
  0
ENDSEC
  0
SECTION
  2
OBJECTS
  0
DICTIONARY
  5
C
330
0
100
AcDbDictionary
281
     1
  3
ACAD_GROUP
350
D
  3
ACAD_LAYOUT
350
1A
  3
ACAD_MLINESTYLE
350
17
  3
ACAD_PLOTSETTINGS
350
19
  3
ACAD_PLOTSTYLENAME
350
E
  3
ACAD_SCALELIST
350
47
  0
DICTIONARY
  5
D
102
{ACAD_REACTORS
330
C
102
}
330
C
100
AcDbDictionary
281
     1
  0
DICTIONARY
  5
1A
102
{ACAD_REACTORS
330
C
102
}
330
C
100
AcDbDictionary
281
     1
  3
Layout1
350
1E
  3
Layout2
350
26
  3
Model
350
22
  0
DICTIONARY
  5
17
102
{ACAD_REACTORS
330
C
102
}
330
C
100
AcDbDictionary
281
     1
  3
Standard
350
18
  0
DICTIONARY
  5
19
102
{ACAD_REACTORS
330
C
102
}
330
C
100
AcDbDictionary
281
     1
  0
ACDBDICTIONARYWDFLT
  5
E
102
{ACAD_REACTORS
330
C
102
}
330
C
100
AcDbDictionary
281
     1
  3
Normal
350
F
100
AcDbDictionaryWithDefault
340
F
  0
DICTIONARY
  5
47
102
{ACAD_REACTORS
330
C
102
}
330
C
100
AcDbDictionary
281
     1
  3
A0
350
48
  3
A1
350
49
  3
A2
350
4A
  3
A3
350
4B
  3
A4
350
4C
  3
A5
350
4D
  3
A6
350
4E
  3
A7
350
4F
  3
A8
350
50
  3
A9
350
51
  3
B0
350
52
  3
B1
350
53
  3
B2
350
54
  3
B3
350
55
  3
B4
350
56
  3
B5
350
57
  3
B6
350
58
  3
B7
350
59
  3
B8
350
5A
  3
B9
350
5B
  3
C0
350
5C
  3
C1
350
5D
  3
C2
350
5E
  3
C3
350
5F
  3
C4
350
60
  3
C5
350
61
  3
C6
350
62
  3
C7
350
63
  3
C8
350
64
  3
C9
350
65
  3
D0
350
66
  3
D1
350
67
  3
D2
350
68
  0
LAYOUT
  5
1E
102
{ACAD_REACTORS
330
1A
102
}
330
1A
100
AcDbPlotSettings
  1

  2
none_device
  4

  6

 40
0.0
 41
0.0
 42
0.0
 43
0.0
 44
0.0
 45
0.0
 46
0.0
 47
0.0
 48
0.0
 49
0.0
140
0.0
141
0.0
142
1.0
143
1.0
 70
   688
 72
     1
 73
     0
 74
     5
  7

 75
    16
147
1.0
148
0.0
149
0.0
100
AcDbLayout
  1
Layout1
 70
     1
 71
     1
 10
0.0
 20
0.0
 11
420.0
 21
297.0
 12
0.0
 22
0.0
 32
0.0
 14
1.0000000000E+20
 24
1.0000000000E+20
 34
1.0000000000E+20
 15
-1.0000000000E+20
 25
-1.0000000000E+20
 35
-1.0000000000E+20
146
0.0
 13
0.0
 23
0.0
 33
0.0
 16
1.0
 26
0.0
 36
0.0
 17
0.0
 27
1.0
 37
0.0
 76
     0
330
1B
  0
LAYOUT
  5
26
102
{ACAD_REACTORS
330
1A
102
}
330
1A
100
AcDbPlotSettings
  1

  2
none_device
  4

  6

 40
0.0
 41
0.0
 42
0.0
 43
0.0
 44
0.0
 45
0.0
 46
0.0
 47
0.0
 48
0.0
 49
0.0
140
0.0
141
0.0
142
1.0
143
1.0
 70
   688
 72
     1
 73
     0
 74
     5
  7

 75
    16
147
1.0
148
0.0
149
0.0
100
AcDbLayout
  1
Layout2
 70
     1
 71
     2
 10
0.0
 20
0.0
 11
0.0
 21
0.0
 12
0.0
 22
0.0
 32
0.0
 14
0.0
 24
0.0
 34
0.0
 15
0.0
 25
0.0
 35
0.0
146
0.0
 13
0.0
 23
0.0
 33
0.0
 16
1.0
 26
0.0
 36
0.0
 17
0.0
 27
1.0
 37
0.0
 76
     0
330
23
  0
LAYOUT
  5
22
102
{ACAD_REACTORS
330
1A
102
}
330
1A
100
AcDbPlotSettings
  1

  2
none_device
  4
Letter_(8.50_x_11.00_Inches)
  6

 40
6.35
 41
6.35
 42
6.35000508
 43
6.35000508
 44
215.9
 45
279.4
 46
0.0
 47
0.0
 48
0.0
 49
0.0
140
0.0
141
0.0
142
1.0
143
1.0
 70
  1712
 72
     1
 73
     0
 74
     0
  7

 75
     0
147
1.0
148
0.0
149
0.0
100
AcDbLayout
  1
Model
 70
     1
 71
     0
 10
0.0
 20
0.0
 11
279.4
 21
215.9
 12
0.0
 22
0.0
 32
0.0
 14
0.0
 24
0.0
 34
0.0
 15
279.4
 25
215.9
 35
0.0
146
0.0
 13
0.0
 23
0.0
 33
0.0
 16
1.0
 26
0.0
 36
0.0
 17
0.0
 27
1.0
 37
0.0
 76
     0
330
1F
331
29
  0
MLINESTYLE
  5
18
102
{ACAD_REACTORS
330
17
102
}
330
17
100
AcDbMlineStyle
  2
Standard
 70
     0
  3

 62
   256
 51
90.0
 52
90.0
 71
     2
 49
0.5
 62
   256
  6
BYLAYER
 49
-0.5
 62
   256
  6
BYLAYER
  0
ACDBPLACEHOLDER
  5
F
102
{ACAD_REACTORS
330
E
102
}
330
E
  0
SCALE
  5
48
102
{ACAD_REACTORS
330
47
102
}
330
47
100
AcDbScale
 70
     0
300
1:1
140
1.0
141
1.0
290
     1
  0
SCALE
  5
49
102
{ACAD_REACTORS
330
47
102
}
330
47
100
AcDbScale
 70
     0
300
1:2
140
1.0
141
2.0
290
     0
  0
SCALE
  5
4A
102
{ACAD_REACTORS
330
47
102
}
330
47
100
AcDbScale
 70
     0
300
1:4
140
1.0
141
4.0
290
     0
  0
SCALE
  5
4B
102
{ACAD_REACTORS
330
47
102
}
330
47
100
AcDbScale
 70
     0
300
1:5
140
1.0
141
5.0
290
     0
  0
SCALE
  5
4C
102
{ACAD_REACTORS
330
47
102
}
330
47
100
AcDbScale
 70
     0
300
1:8
140
1.0
141
8.0
290
     0
  0
SCALE
  5
4D
102
{ACAD_REACTORS
330
47
102
}
330
47
100
AcDbScale
 70
     0
300
1:10
140
1.0
141
10.0
290
     0
  0
SCALE
  5
4E
102
{ACAD_REACTORS
330
47
102
}
330
47
100
AcDbScale
 70
     0
300
1:16
140
1.0
141
16.0
290
     0
  0
SCALE
  5
4F
102
{ACAD_REACTORS
330
47
102
}
330
47
100
AcDbScale
 70
     0
300
1:20
140
1.0
141
20.0
290
     0
  0
SCALE
  5
50
102
{ACAD_REACTORS
330
47
102
}
330
47
100
AcDbScale
 70
     0
300
1:30
140
1.0
141
30.0
290
     0
  0
SCALE
  5
51
102
{ACAD_REACTORS
330
47
102
}
330
47
100
AcDbScale
 70
     0
300
1:40
140
1.0
141
40.0
290
     0
  0
SCALE
  5
52
102
{ACAD_REACTORS
330
47
102
}
330
47
100
AcDbScale
 70
     0
300
1:50
140
1.0
141
50.0
290
     0
  0
SCALE
  5
53
102
{ACAD_REACTORS
330
47
102
}
330
47
100
AcDbScale
 70
     0
300
1:100
140
1.0
141
100.0
290
     0
  0
SCALE
  5
54
102
{ACAD_REACTORS
330
47
102
}
330
47
100
AcDbScale
 70
     0
300
2:1
140
2.0
141
1.0
290
     0
  0
SCALE
  5
55
102
{ACAD_REACTORS
330
47
102
}
330
47
100
AcDbScale
 70
     0
300
4:1
140
4.0
141
1.0
290
     0
  0
SCALE
  5
56
102
{ACAD_REACTORS
330
47
102
}
330
47
100
AcDbScale
 70
     0
300
8:1
140
8.0
141
1.0
290
     0
  0
SCALE
  5
57
102
{ACAD_REACTORS
330
47
102
}
330
47
100
AcDbScale
 70
     0
300
10:1
140
10.0
141
1.0
290
     0
  0
SCALE
  5
58
102
{ACAD_REACTORS
330
47
102
}
330
47
100
AcDbScale
 70
     0
300
100:1
140
100.0
141
1.0
290
     0
  0
SCALE
  5
59
102
{ACAD_REACTORS
330
47
102
}
330
47
100
AcDbScale
 70
     0
300
1/128" = 1'-0"
140
0.0078125
141
12.0
290
     0
  0
SCALE
  5
5A
102
{ACAD_REACTORS
330
47
102
}
330
47
100
AcDbScale
 70
     0
300
1/64" = 1'-0"
140
0.015625
141
12.0
290
     0
  0
SCALE
  5
5B
102
{ACAD_REACTORS
330
47
102
}
330
47
100
AcDbScale
 70
     0
300
1/32" = 1'-0"
140
0.03125
141
12.0
290
     0
  0
SCALE
  5
5C
102
{ACAD_REACTORS
330
47
102
}
330
47
100
AcDbScale
 70
     0
300
1/16" = 1'-0"
140
0.0625
141
12.0
290
     0
  0
SCALE
  5
5D
102
{ACAD_REACTORS
330
47
102
}
330
47
100
AcDbScale
 70
     0
300
3/32" = 1'-0"
140
0.09375
141
12.0
290
     0
  0
SCALE
  5
5E
102
{ACAD_REACTORS
330
47
102
}
330
47
100
AcDbScale
 70
     0
300
1/8" = 1'-0"
140
0.125
141
12.0
290
     0
  0
SCALE
  5
5F
102
{ACAD_REACTORS
330
47
102
}
330
47
100
AcDbScale
 70
     0
300
3/16" = 1'-0"
140
0.1875
141
12.0
290
     0
  0
SCALE
  5
60
102
{ACAD_REACTORS
330
47
102
}
330
47
100
AcDbScale
 70
     0
300
1/4" = 1'-0"
140
0.25
141
12.0
290
     0
  0
SCALE
  5
61
102
{ACAD_REACTORS
330
47
102
}
330
47
100
AcDbScale
 70
     0
300
3/8" = 1'-0"
140
0.375
141
12.0
290
     0
  0
SCALE
  5
62
102
{ACAD_REACTORS
330
47
102
}
330
47
100
AcDbScale
 70
     0
300
1/2" = 1'-0"
140
0.5
141
12.0
290
     0
  0
SCALE
  5
63
102
{ACAD_REACTORS
330
47
102
}
330
47
100
AcDbScale
 70
     0
300
3/4" = 1'-0"
140
0.75
141
12.0
290
     0
  0
SCALE
  5
64
102
{ACAD_REACTORS
330
47
102
}
330
47
100
AcDbScale
 70
     0
300
1" = 1'-0"
140
1.0
141
12.0
290
     0
  0
SCALE
  5
65
102
{ACAD_REACTORS
330
47
102
}
330
47
100
AcDbScale
 70
     0
300
1-1/2" = 1'-0"
140
1.5
141
12.0
290
     0
  0
SCALE
  5
66
102
{ACAD_REACTORS
330
47
102
}
330
47
100
AcDbScale
 70
     0
300
3" = 1'-0"
140
3.0
141
12.0
290
     0
  0
SCALE
  5
67
102
{ACAD_REACTORS
330
47
102
}
330
47
100
AcDbScale
 70
     0
300
6" = 1'-0"
140
6.0
141
12.0
290
     0
  0
SCALE
  5
68
102
{ACAD_REACTORS
330
47
102
}
330
47
100
AcDbScale
 70
     0
300
1'-0" = 1'-0"
140
12.0
141
12.0
290
     0
  0
ENDSEC
  0
EOF
