  0
SECTION
  2
HEADER
  9
$ACADVER
  1
AC1015
  9
$ACADMAINTVER
 70
     6
  9
$DWGCODEPAGE
  3
ANSI_1252
  9
$INSBASE
 10
0.0
 20
0.0
 30
0.0
  9
$EXTMIN
 10
0.0
 20
0.0
 30
0.0
  9
$EXTMAX
 10
11.0
 20
8.5
 30
0.0
  9
$LIMMIN
 10
0.0
 20
0.0
  9
$LIMMAX
 10
11.0
 20
8.5
  9
$ORTHOMODE
 70
     0
  9
$REGENMODE
 70
     1
  9
$FILLMODE
 70
     1
  9
$QTEXTMODE
 70
     0
  9
$MIRRTEXT
 70
     1
  9
$LTSCALE
 40
1.0
  9
$ATTMODE
 70
     1
  9
$TEXTSIZE
 40
0.1111111111
  9
$TRACEWID
 40
0.05
  9
$TEXTSTYLE
  7
Standard
  9
$CLAYER
  8
0
  9
$CELTYPE
  6
ByLayer
  9
$CECOLOR
 62
   256
  9
$CELTSCALE
 40
1.0
  9
$DISPSILH
 70
     0
  9
$DIMSCALE
 40
1.0
  9
$DIMASZ
 40
0.125
  9
$DIMEXO
 40
0.05
  9
$DIMDLI
 40
0.38
  9
$DIMRND
 40
0.0
  9
$DIMDLE
 40
0.0
  9
$DIMEXE
 40
0.07
  9
$DIMTP
 40
0.0
  9
$DIMTM
 40
0.0
  9
$DIMTXT
 40
0.1111111111
  9
$DIMCEN
 40
0.09
  9
$DIMTSZ
 40
0.0
  9
$DIMTOL
 70
     0
  9
$DIMLIM
 70
     0
  9
$DIMTIH
 70
     1
  9
$DIMTOH
 70
     1
  9
$DIMSE1
 70
     0
  9
$DIMSE2
 70
     0
  9
$DIMTAD
 70
     0
  9
$DIMZIN
 70
     1
  9
$DIMBLK
  1

  9
$DIMASO
 70
     1
  9
$DIMSHO
 70
     1
  9
$DIMPOST
  1

  9
$DIMAPOST
  1

  9
$DIMALT
 70
     0
  9
$DIMALTD
 70
     2
  9
$DIMALTF
 40
25.4
  9
$DIMLFAC
 40
1.0
  9
$DIMTOFL
 70
     0
  9
$DIMTVP
 40
0.0
  9
$DIMTIX
 70
     0
  9
$DIMSOXD
 70
     0
  9
$DIMSAH
 70
     0
  9
$DIMBLK1
  1

  9
$DIMBLK2
  1

  9
$DIMSTYLE
  2
Standard
  9
$DIMCLRD
 70
     0
  9
$DIMCLRE
 70
     0
  9
$DIMCLRT
 70
     0
  9
$DIMTFAC
 40
1.0
  9
$DIMGAP
 40
0.1
  9
$DIMJUST
 70
     0
  9
$DIMSD1
 70
     0
  9
$DIMSD2
 70
     0
  9
$DIMTOLJ
 70
     1
  9
$DIMTZIN
 70
     1
  9
$DIMALTZ
 70
     0
  9
$DIMALTTZ
 70
     0
  9
$DIMUPT
 70
     0
  9
$DIMDEC
 70
     2
  9
$DIMTDEC
 70
     2
  9
$DIMALTU
 70
     2
  9
$DIMALTTD
 70
     2
  9
$DIMTXSTY
  7
Standard
  9
$DIMAUNIT
 70
     0
  9
$DIMADEC
 70
     0
  9
$DIMALTRND
 40
0.0
  9
$DIMAZIN
 70
     0
  9
$DIMDSEP
 70
    46
  9
$DIMATFIT
 70
     3
  9
$DIMFRAC
 70
     0
  9
$DIMLDRBLK
  1

  9
$DIMLUNIT
 70
     2
  9
$DIMLWD
 70
    -2
  9
$DIMLWE
 70
    -2
  9
$DIMTMOVE
 70
     0
  9
$LUNITS
 70
     2
  9
$LUPREC
 70
     2
  9
$SKETCHINC
 40
0.1
  9
$FILLETRAD
 40
0.5
  9
$AUNITS
 70
     0
  9
$AUPREC
 70
     0
  9
$MENU
  1
.
  9
$ELEVATION
 40
0.0
  9
$PELEVATION
 40
0.0
  9
$THICKNESS
 40
0.0
  9
$LIMCHECK
 70
     0
  9
$CHAMFERA
 40
0.0
  9
$CHAMFERB
 40
0.0
  9
$CHAMFERC
 40
0.0
  9
$CHAMFERD
 40
0.0
  9
$SKPOLY
 70
     0
  9
$TDCREATE
 40
2457347.619940116
  9
$TDUCREATE
 40
2457347.828273449
  9
$TDUPDATE
 40
2457347.619942998
  9
$TDUUPDATE
 40
2457347.828276331
  9
$TDINDWG
 40
0.0000000116
  9
$TDUSRTIMER
 40
0.0000000116
  9
$USRTIMER
 70
     1
  9
$ANGBASE
 50
0.0
  9
$ANGDIR
 70
     0
  9
$PDMODE
 70
     0
  9
$PDSIZE
 40
-1.0
  9
$PLINEWID
 40
0.0
  9
$SPLFRAME
 70
     0
  9
$SPLINETYPE
 70
     6
  9
$SPLINESEGS
 70
     8
  9
$HANDSEED
  5
362
  9
$SURFTAB1
 70
     6
  9
$SURFTAB2
 70
     6
  9
$SURFTYPE
 70
     6
  9
$SURFU
 70
     6
  9
$SURFV
 70
     6
  9
$UCSBASE
  2

  9
$UCSNAME
  2

  9
$UCSORG
 10
0.0
 20
0.0
 30
0.0
  9
$UCSXDIR
 10
1.0
 20
0.0
 30
0.0
  9
$UCSYDIR
 10
0.0
 20
1.0
 30
0.0
  9
$UCSORTHOREF
  2

  9
$UCSORTHOVIEW
 70
     0
  9
$UCSORGTOP
 10
0.0
 20
0.0
 30
0.0
  9
$UCSORGBOTTOM
 10
0.0
 20
0.0
 30
0.0
  9
$UCSORGLEFT
 10
0.0
 20
0.0
 30
0.0
  9
$UCSORGRIGHT
 10
0.0
 20
0.0
 30
0.0
  9
$UCSORGFRONT
 10
0.0
 20
0.0
 30
0.0
  9
$UCSORGBACK
 10
0.0
 20
0.0
 30
0.0
  9
$PUCSBASE
  2

  9
$PUCSNAME
  2

  9
$PUCSORG
 10
0.0
 20
0.0
 30
0.0
  9
$PUCSXDIR
 10
1.0
 20
0.0
 30
0.0
  9
$PUCSYDIR
 10
0.0
 20
1.0
 30
0.0
  9
$PUCSORTHOREF
  2

  9
$PUCSORTHOVIEW
 70
     0
  9
$PUCSORGTOP
 10
0.0
 20
0.0
 30
0.0
  9
$PUCSORGBOTTOM
 10
0.0
 20
0.0
 30
0.0
  9
$PUCSORGLEFT
 10
0.0
 20
0.0
 30
0.0
  9
$PUCSORGRIGHT
 10
0.0
 20
0.0
 30
0.0
  9
$PUCSORGFRONT
 10
0.0
 20
0.0
 30
0.0
  9
$PUCSORGBACK
 10
0.0
 20
0.0
 30
0.0
  9
$USERI1
 70
     0
  9
$USERI2
 70
     0
  9
$USERI3
 70
     0
  9
$USERI4
 70
     0
  9
$USERI5
 70
     0
  9
$USERR1
 40
0.0
  9
$USERR2
 40
0.0
  9
$USERR3
 40
0.0
  9
$USERR4
 40
0.0
  9
$USERR5
 40
0.0
  9
$WORLDVIEW
 70
     1
  9
$SHADEDGE
 70
     3
  9
$SHADEDIF
 70
    70
  9
$TILEMODE
 70
     1
  9
$MAXACTVP
 70
    64
  9
$PINSBASE
 10
0.0
 20
0.0
 30
0.0
  9
$PLIMCHECK
 70
     0
  9
$PEXTMIN
 10
1.0000000000E+20
 20
1.0000000000E+20
 30
1.0000000000E+20
  9
$PEXTMAX
 10
-1.0000000000E+20
 20
-1.0000000000E+20
 30
-1.0000000000E+20
  9
$PLIMMIN
 10
0.0
 20
0.0
  9
$PLIMMAX
 10
12.0
 20
9.0
  9
$UNITMODE
 70
     0
  9
$VISRETAIN
 70
     1
  9
$PLINEGEN
 70
     0
  9
$PSLTSCALE
 70
     1
  9
$TREEDEPTH
 70
  3020
  9
$CMLSTYLE
  2
Standard
  9
$CMLJUST
 70
     0
  9
$CMLSCALE
 40
1.0
  9
$PROXYGRAPHICS
 70
     1
  9
$MEASUREMENT
 70
     0
  9
$CELWEIGHT
370
    -1
  9
$ENDCAPS
280
     0
  9
$JOINSTYLE
280
     0
  9
$LWDISPLAY
290
     1
  9
$INSUNITS
 70
     1
  9
$HYPERLINKBASE
  1

  9
$STYLESHEET
  1

  9
$XEDIT
290
     1
  9
$CEPSNTYPE
380
     0
  9
$PSTYLEMODE
290
     1
  9
$FINGERPRINTGUID
  2
{68C0B439-39D2-42AF-9BB2-610D52B28DDD}
  9
$VERSIONGUID
  2
{FAEB1C32-E019-11D5-929B-00C0DF256EC4}
  9
$EXTNAMES
290
     1
  9
$PSVPSCALE
 40
0.0
  9
$OLESTARTUP
290
     0
  0
ENDSEC
  0
SECTION
  2
CLASSES
  0
CLASS
  1
ACDBDICTIONARYWDFLT
  2
AcDbDictionaryWithDefault
  3
ObjectDBX Classes
 90
        0
280
     0
281
     0
  0
CLASS
  1
VISUALSTYLE
  2
AcDbVisualStyle
  3
ObjectDBX Classes
 90
     4095
280
     0
281
     0
  0
CLASS
  1
MATERIAL
  2
AcDbMaterial
  3
ObjectDBX Classes
 90
     1153
280
     0
281
     0
  0
CLASS
  1
SCALE
  2
AcDbScale
  3
ObjectDBX Classes
 90
     1153
280
     0
281
     0
  0
CLASS
  1
SUN
  2
AcDbSun
  3
SCENEOE
 90
     1153
280
     0
281
     0
  0
CLASS
  1
ACDBPLACEHOLDER
  2
AcDbPlaceHolder
  3
ObjectDBX Classes
 90
        0
280
     0
281
     0
  0
CLASS
  1
LAYOUT
  2
AcDbLayout
  3
ObjectDBX Classes
 90
        0
280
     0
281
     0
  0
ENDSEC
  0
SECTION
  2
TABLES
  0
TABLE
  2
VPORT
  5
8
330
0
100
AcDbSymbolTable
 70
     1
  0
VPORT
  5
29
330
8
100
AcDbSymbolTableRecord
100
AcDbViewportTableRecord
  2
*Active
 70
     0
 10
0.0
 20
0.0
 11
1.0
 21
1.0
 12
5.5
 22
4.25
 13
0.0
 23
0.0
 14
0.5
 24
0.5
 15
0.5
 25
0.5
 16
0.0
 26
0.0
 36
1.0
 17
0.0
 27
0.0
 37
0.0
 40
8.5
 41
1.2941176471
 42
50.0
 43
0.0
 44
0.0
 50
0.0
 51
0.0
 71
     0
 72
  2000
 73
     1
 74
     3
 75
     0
 76
     0
 77
     0
 78
     0
281
     0
 65
     1
110
0.0
120
0.0
130
0.0
111
1.0
121
0.0
131
0.0
112
0.0
122
1.0
132
0.0
 79
     0
146
0.0
  0
ENDTAB
  0
TABLE
  2
LTYPE
  5
5
330
0
100
AcDbSymbolTable
 70
     6
  0
LTYPE
  5
14
330
5
100
AcDbSymbolTableRecord
100
AcDbLinetypeTableRecord
  2
ByBlock
 70
     0
  3

 72
    65
 73
     0
 40
0.0
  0
LTYPE
  5
15
330
5
100
AcDbSymbolTableRecord
100
AcDbLinetypeTableRecord
  2
ByLayer
 70
     0
  3

 72
    65
 73
     0
 40
0.0
  0
LTYPE
  5
16
330
5
100
AcDbSymbolTableRecord
100
AcDbLinetypeTableRecord
  2
Continuous
 70
     0
  3
Solid line
 72
    65
 73
     0
 40
0.0
  0
LTYPE
  5
6A
330
5
100
AcDbSymbolTableRecord
100
AcDbLinetypeTableRecord
  2
HIDDEN
 70
     0
  3
Hidden __ __ __ __ __ __ __ __ __ __ __ __ __ __
 72
    65
 73
     2
 40
0.075
 49
0.05
 74
     0
 49
-0.025
 74
     0
  0
LTYPE
  5
6B
330
5
100
AcDbSymbolTableRecord
100
AcDbLinetypeTableRecord
  2
PHANTOM
 70
     0
  3
Phantom ______  __  __  ______  __  __  ______
 72
    65
 73
     6
 40
0.5
 49
0.25
 74
     0
 49
-0.05
 74
     0
 49
0.05
 74
     0
 49
-0.05
 74
     0
 49
0.05
 74
     0
 49
-0.05
 74
     0
  0
LTYPE
  5
6C
330
5
100
AcDbSymbolTableRecord
100
AcDbLinetypeTableRecord
  2
CENTER
 70
     0
  3
Center ____ _ ____ _ ____ _ ____ _ ____ _ ____
 72
    65
 73
     4
 40
0.4
 49
0.25
 74
     0
 49
-0.05
 74
     0
 49
0.05
 74
     0
 49
-0.05
 74
     0
  0
LTYPE
  5
6D
330
5
100
AcDbSymbolTableRecord
100
AcDbLinetypeTableRecord
  2
CENTERX2
 70
     0
  3
Center (2x) ________  __  ________  __  _____
 72
    65
 73
     4
 40
0.8
 49
0.5
 74
     0
 49
-0.1
 74
     0
 49
0.1
 74
     0
 49
-0.1
 74
     0
  0
LTYPE
  5
6E
330
5
100
AcDbSymbolTableRecord
100
AcDbLinetypeTableRecord
  2
DOT2
 70
     0
  3
Dot (.5x) ........................................
 72
    65
 73
     2
 40
0.025
 49
0.0
 74
     0
 49
-0.025
 74
     0
  0
ENDTAB
  0
TABLE
  2
LAYER
  5
2
330
0
100
AcDbSymbolTable
 70
     2
  0
LAYER
  5
10
330
2
100
AcDbSymbolTableRecord
100
AcDbLayerTableRecord
  2
0
 70
     0
 62
     7
  6
Continuous
370
    -3
390
F
  0
LAYER
  5
6F
330
2
100
AcDbSymbolTableRecord
100
AcDbLayerTableRecord
  2
FORMAT
 70
     0
 62
     7
  6
Continuous
370
    -3
390
F
  0
ENDTAB
  0
TABLE
  2
STYLE
  5
3
330
0
100
AcDbSymbolTable
 70
     5
  0
STYLE
  5
11
330
3
100
AcDbSymbolTableRecord
100
AcDbTextStyleTableRecord
  2
Standard
 70
     0
 40
0.0
 41
1.0
 50
0.0
 71
     0
 42
0.1111111111
  3
txt
  4

  0
STYLE
  5
96
330
3
100
AcDbSymbolTableRecord
100
AcDbTextStyleTableRecord
  2
SLDTEXTSTYLE0
 70
     0
 40
0.0
 41
0.75
 50
0.0
 71
     0
 42
0.1111111111
  3
TXT
  4

  0
STYLE
  5
A2
330
3
100
AcDbSymbolTableRecord
100
AcDbTextStyleTableRecord
  2
SLDTEXTSTYLE1
 70
     0
 40
0.0
 41
0.6
 50
0.0
 71
     0
 42
0.1111111111
  3
TXT
  4

  0
STYLE
  5
A7
330
3
100
AcDbSymbolTableRecord
100
AcDbTextStyleTableRecord
  2
SLDTEXTSTYLE2
 70
     0
 40
0.0
 41
0.6875
 50
0.0
 71
     0
 42
0.1111111111
  3
TXT
  4

  0
STYLE
  5
33D
330
3
100
AcDbSymbolTableRecord
100
AcDbTextStyleTableRecord
  2
SLDTEXTSTYLE3
 70
     0
 40
0.0
 41
0.7
 50
0.0
 71
     0
 42
0.1111111111
  3
TXT
  4

  0
ENDTAB
  0
TABLE
  2
VIEW
  5
6
330
0
100
AcDbSymbolTable
 70
     0
  0
ENDTAB
  0
TABLE
  2
UCS
  5
7
330
0
100
AcDbSymbolTable
 70
     0
  0
ENDTAB
  0
TABLE
  2
APPID
  5
9
330
0
100
AcDbSymbolTable
 70
     1
  0
APPID
  5
12
330
9
100
AcDbSymbolTableRecord
100
AcDbRegAppTableRecord
  2
ACAD
 70
     0
  0
ENDTAB
  0
TABLE
  2
DIMSTYLE
  5
A
330
0
100
AcDbSymbolTable
 70
     6
100
AcDbDimStyleTable
  0
DIMSTYLE
105
27
330
A
100
AcDbSymbolTableRecord
100
AcDbDimStyleTableRecord
  2
Standard
 70
     0
178
     0
340
11
  0
DIMSTYLE
105
11A
102
{ACAD_REACTORS
330
119
102
}
330
A
100
AcDbSymbolTableRecord
100
AcDbDimStyleTableRecord
  2
SLDDIMSTYLE0
 70
     0
 41
0.125
 44
0.0
 45
0.000000001
 78
     4
 79
     1
140
0.0833333333
141
0.0
147
0.0208333333
148
0.000000001
170
     1
171
     1
173
     1
178
     0
271
     2
272
     2
274
     1
276
     2
284
    12
340
96
  0
DIMSTYLE
105
2FD
102
{ACAD_REACTORS
330
2FC
102
}
330
A
100
AcDbSymbolTableRecord
100
AcDbDimStyleTableRecord
  2
SLDDIMSTYLE1
 70
     0
 41
0.125
 44
0.0
 45
0.000000001
140
0.0833333333
147
0.0208333333
148
0.000000001
170
     1
171
     1
172
     1
173
     1
178
     0
271
     2
272
     2
274
     1
276
     2
284
    12
289
     0
340
96
  0
DIMSTYLE
105
312
102
{ACAD_REACTORS
330
311
102
}
330
A
100
AcDbSymbolTableRecord
100
AcDbDimStyleTableRecord
  2
SLDDIMSTYLE2
 70
     0
 41
0.125
 44
0.0
 45
0.000000001
 78
     8
 79
     2
140
0.0833333333
147
0.0208333333
148
0.000000001
170
     1
171
     1
172
     1
173
     1
178
     0
271
     2
272
     2
274
     1
276
     2
284
    12
289
     0
340
96
  0
DIMSTYLE
105
327
102
{ACAD_REACTORS
330
326
102
}
330
A
100
AcDbSymbolTableRecord
100
AcDbDimStyleTableRecord
  2
SLDDIMSTYLE3
 70
     0
 41
0.125
 44
0.0
 45
0.000000001
 78
     4
 79
     1
140
0.0833333333
147
0.0208333333
148
0.000000001
170
     1
171
     1
173
     1
178
     0
271
     2
272
     2
274
     1
276
     2
284
    12
340
96
  0
DIMSTYLE
105
342
330
A
100
AcDbSymbolTableRecord
100
AcDbDimStyleTableRecord
  2
SLDDIMSTYLE4
 70
     0
 41
0.125
 44
0.0
 45
0.000000001
146
0.125
147
0.0
173
     1
178
     0
271
     0
272
     0
276
     2
340
11
  0
ENDTAB
  0
TABLE
  2
BLOCK_RECORD
  5
1
330
0
100
AcDbSymbolTable
 70
    20
  0
BLOCK_RECORD
  5
1F
330
1
100
AcDbSymbolTableRecord
100
AcDbBlockTableRecord
  2
*Model_Space
340
22
  0
BLOCK_RECORD
  5
1B
330
1
100
AcDbSymbolTableRecord
100
AcDbBlockTableRecord
  2
*Paper_Space
340
1E
  0
BLOCK_RECORD
  5
23
330
1
100
AcDbSymbolTableRecord
100
AcDbBlockTableRecord
  2
*Paper_Space0
340
26
  0
BLOCK_RECORD
  5
70
330
1
100
AcDbSymbolTableRecord
100
AcDbBlockTableRecord
  2
Third Angle Projection Block
340
0
102
{BLKREFS
331
95
102
}
  0
BLOCK_RECORD
  5
A9
330
1
100
AcDbSymbolTableRecord
100
AcDbBlockTableRecord
  2
SW_NOTE_0
340
0
102
{BLKREFS
331
AE
102
}
  0
BLOCK_RECORD
  5
AF
330
1
100
AcDbSymbolTableRecord
100
AcDbBlockTableRecord
  2
SW_NOTE_1
340
0
102
{BLKREFS
331
B4
102
}
  0
BLOCK_RECORD
  5
B6
330
1
100
AcDbSymbolTableRecord
100
AcDbBlockTableRecord
  2
SW_NOTE_2
340
0
102
{BLKREFS
331
BC
102
}
  0
BLOCK_RECORD
  5
BE
330
1
100
AcDbSymbolTableRecord
100
AcDbBlockTableRecord
  2
SW_NOTE_3
340
0
102
{BLKREFS
331
C3
102
}
  0
BLOCK_RECORD
  5
C4
330
1
100
AcDbSymbolTableRecord
100
AcDbBlockTableRecord
  2
SW_NOTE_4
340
0
102
{BLKREFS
331
D6
102
}
  0
BLOCK_RECORD
  5
D7
330
1
100
AcDbSymbolTableRecord
100
AcDbBlockTableRecord
  2
SW_TABLEANNOTATION_0
340
0
102
{BLKREFS
331
100
102
}
  0
BLOCK_RECORD
  5
E5
330
1
100
AcDbSymbolTableRecord
100
AcDbBlockTableRecord
  2
SW_SYMBOL_C#_1
340
0
102
{BLKREFS
331
EA
102
}
  0
BLOCK_RECORD
  5
EE
330
1
100
AcDbSymbolTableRecord
100
AcDbBlockTableRecord
  2
SW_SYMBOL_C#_2
340
0
102
{BLKREFS
331
F3
102
}
  0
BLOCK_RECORD
  5
F6
330
1
100
AcDbSymbolTableRecord
100
AcDbBlockTableRecord
  2
SW_SYMBOL_C#_3
340
0
102
{BLKREFS
331
FB
102
}
  0
BLOCK_RECORD
  5
11B
330
1
100
AcDbSymbolTableRecord
100
AcDbBlockTableRecord
  2
_D
340
0
  0
BLOCK_RECORD
  5
2FE
330
1
100
AcDbSymbolTableRecord
100
AcDbBlockTableRecord
  2
_D_1
340
0
  0
BLOCK_RECORD
  5
313
330
1
100
AcDbSymbolTableRecord
100
AcDbBlockTableRecord
  2
_D_2
340
0
  0
BLOCK_RECORD
  5
328
330
1
100
AcDbSymbolTableRecord
100
AcDbBlockTableRecord
  2
_D_3
340
0
  0
BLOCK_RECORD
  5
33A
330
1
100
AcDbSymbolTableRecord
100
AcDbBlockTableRecord
  2
SW_NOTE_5
340
0
102
{BLKREFS
331
341
102
}
  0
BLOCK_RECORD
  5
344
330
1
100
AcDbSymbolTableRecord
100
AcDbBlockTableRecord
  2
SW_NOTE_6
340
0
102
{BLKREFS
331
349
102
}
  0
BLOCK_RECORD
  5
34B
330
1
100
AcDbSymbolTableRecord
100
AcDbBlockTableRecord
  2
SW_NOTE_7
340
0
102
{BLKREFS
331
350
102
}
  0
BLOCK_RECORD
  5
352
330
1
100
AcDbSymbolTableRecord
100
AcDbBlockTableRecord
  2
SW_NOTE_8
340
0
102
{BLKREFS
331
358
102
}
  0
BLOCK_RECORD
  5
35A
330
1
100
AcDbSymbolTableRecord
100
AcDbBlockTableRecord
  2
SW_NOTE_9
340
0
102
{BLKREFS
331
35F
102
}
  0
ENDTAB
  0
ENDSEC
  0
SECTION
  2
BLOCKS
  0
BLOCK
  5
20
330
1F
100
AcDbEntity
  8
0
100
AcDbBlockBegin
  2
*Model_Space
 70
     0
 10
0.0
 20
0.0
 30
0.0
  3
*Model_Space
  1
*Model_Space
  0
ENDBLK
  5
21
330
1F
100
AcDbEntity
  8
0
100
AcDbBlockEnd
  0
BLOCK
  5
1C
330
1B
100
AcDbEntity
 67
     1
  8
0
100
AcDbBlockBegin
  2
*Paper_Space
 70
     0
 10
0.0
 20
0.0
 30
0.0
  3
*Paper_Space
  1
*Paper_Space
  0
ENDBLK
  5
1D
330
1B
100
AcDbEntity
 67
     1
  8
0
100
AcDbBlockEnd
  0
BLOCK
  5
24
330
23
100
AcDbEntity
  8
0
100
AcDbBlockBegin
  2
*Paper_Space0
 70
     0
 10
0.0
 20
0.0
 30
0.0
  3
*Paper_Space0
  1
*Paper_Space0
  0
ENDBLK
  5
25
330
23
100
AcDbEntity
  8
0
100
AcDbBlockEnd
  0
BLOCK
  5
71
330
70
100
AcDbEntity
  8
0
100
AcDbBlockBegin
  2
Third Angle Projection Block
 70
     0
 10
0.0
 20
0.0
 30
0.0
  3
Third Angle Projection Block
  1
Third Angle Projection Block
  0
CIRCLE
  5
73
330
70
100
AcDbEntity
  8
0
  6
Continuous
 62
     7
370
    30
100
AcDbCircle
 10
3.9951432636
 20
0.7456853688
 30
0.0
 40
0.0696152422706639
  0
CIRCLE
  5
74
330
70
100
AcDbEntity
  8
0
  6
Continuous
 62
     7
370
    30
100
AcDbCircle
 10
3.9951432636
 20
0.7456853688
 30
0.0
 40
0.1535916633280245
  0
LINE
  5
75
330
70
100
AcDbEntity
  8
0
  6
CENTERX2
 62
     7
370
     0
100
AcDbLine
 10
4.3360937897
 20
0.7456853688
 30
0.0
 11
4.7028635231
 21
0.7456853688
 31
0.0
  0
LINE
  5
76
330
70
100
AcDbEntity
  8
0
  6
Continuous
 62
     7
370
    30
100
AcDbLine
 10
4.3701432636
 20
0.815300611
 30
0.0
 11
4.3701432636
 21
0.6760701265
 31
0.0
  0
LINE
  5
77
330
70
100
AcDbEntity
  8
0
  6
Continuous
 62
     7
370
    30
100
AcDbLine
 10
4.3701432636
 20
0.6760701265
 30
0.0
 11
4.6701432636
 21
0.5956853688
 31
0.0
  0
LINE
  5
78
330
70
100
AcDbEntity
  8
0
  6
Continuous
 62
     7
370
    30
100
AcDbLine
 10
4.6701432636
 20
0.5956853688
 30
0.0
 11
4.6701432636
 21
0.8956853688
 31
0.0
  0
LINE
  5
79
330
70
100
AcDbEntity
  8
0
  6
Continuous
 62
     7
370
    30
100
AcDbLine
 10
4.6701432636
 20
0.8956853688
 30
0.0
 11
4.3701432636
 21
0.815300611
 31
0.0
  0
LINE
  5
7A
330
70
100
AcDbEntity
  8
0
  6
CENTERX2
 62
     7
370
     0
100
AcDbLine
 10
3.8032513961
 20
0.7456853688
 30
0.0
 11
4.187035131
 21
0.7456853688
 31
0.0
  0
LINE
  5
7B
330
70
100
AcDbEntity
  8
0
  6
CENTERX2
 62
     7
370
     0
100
AcDbLine
 10
3.9951432636
 20
0.9375772362
 30
0.0
 11
3.9951432636
 21
0.5537935013
 31
0.0
  0
POINT
  5
7C
330
70
100
AcDbEntity
  8
0
  6
Continuous
 62
     7
370
     0
100
AcDbPoint
 10
3.9951432636
 20
0.7456853688
 30
0.0
  0
ENDBLK
  5
72
330
70
100
AcDbEntity
  8
0
100
AcDbBlockEnd
  0
BLOCK
  5
AA
330
A9
100
AcDbEntity
  8
0
100
AcDbBlockBegin
  2
SW_NOTE_0
 70
     0
 10
0.0
 20
0.0
 30
0.0
  3
SW_NOTE_0
  1
SW_NOTE_0
  0
MTEXT
  5
AC
330
A9
100
AcDbEntity
  8
0
  6
Continuous
 62
     0
370
     0
100
AcDbMText
 10
0.78375
 20
0.0773440644
 30
0.0
 40
0.06
 41
0.0
 71
     2
 72
     1
  1
VALUES IN PARENTHESIS ARE CALCULATED
  7
SLDTEXTSTYLE0
 73
     1
 44
1.0
  0
MTEXT
  5
AD
330
A9
100
AcDbEntity
  8
0
  6
Continuous
 62
     0
370
     0
100
AcDbMText
 10
0.7825936818
 20
-0.0220260102
 30
0.0
 40
0.06
 41
0.0
 71
     2
 72
     1
  1
AND MAY CONTAIN ROUNDOFF ERRORS
  7
SLDTEXTSTYLE0
 73
     1
 44
1.0
  0
ENDBLK
  5
AB
330
A9
100
AcDbEntity
  8
0
100
AcDbBlockEnd
  0
BLOCK
  5
B0
330
AF
100
AcDbEntity
  8
0
100
AcDbBlockBegin
  2
SW_NOTE_1
 70
     0
 10
0.0
 20
0.0
 30
0.0
  3
SW_NOTE_1
  1
SW_NOTE_1
  0
MTEXT
  5
B2
330
AF
100
AcDbEntity
  8
0
  6
Continuous
 62
     0
370
     0
100
AcDbMText
 10
0.0
 20
0.1074223116
 30
0.0
 40
0.0833333333
 41
0.0
 71
     1
 72
     1
  1
DRAWING
  7
SLDTEXTSTYLE0
 73
     1
 44
1.0
  0
MTEXT
  5
B3
330
AF
100
AcDbEntity
  8
0
  6
Continuous
 62
     0
370
     0
100
AcDbMText
 10
0.0
 20
-0.0036887981
 30
0.0
 40
0.0833333333
 41
0.0
 71
     1
 72
     1
  1
PROJECTION
  7
SLDTEXTSTYLE0
 73
     1
 44
1.0
  0
ENDBLK
  5
B1
330
AF
100
AcDbEntity
  8
0
100
AcDbBlockEnd
  0
BLOCK
  5
B7
330
B6
100
AcDbEntity
  8
0
100
AcDbBlockBegin
  2
SW_NOTE_2
 70
     0
 10
0.0
 20
0.0
 30
0.0
  3
SW_NOTE_2
  1
SW_NOTE_2
  0
MTEXT
  5
B9
330
B6
100
AcDbEntity
  8
0
  6
Continuous
 62
     0
370
     0
100
AcDbMText
 10
0.0748697917
 20
0.1342778896
 30
0.0
 40
0.1041666667
 41
0.0
 71
     2
 72
     1
  1
%%c
  7
SLDTEXTSTYLE0
 73
     1
 44
1.0
  0
MTEXT
  5
BA
330
B6
100
AcDbEntity
  8
0
  6
Continuous
 62
     0
370
     0
100
AcDbMText
 10
1.1940176511
 20
0.1342778896
 30
0.0
 40
0.1041666667
 41
0.0
 71
     2
 72
     1
  1
2" MOUNTED PLANO-CONCAVE
  7
SLDTEXTSTYLE0
 73
     1
 44
1.0
  0
MTEXT
  5
BB
330
B6
100
AcDbEntity
  8
0
  6
Continuous
 62
     0
370
     0
100
AcDbMText
 10
1.1271678387
 20
-0.0046109977
 30
0.0
 40
0.1041666667
 41
0.0
 71
     2
 72
     1
  1
LENS, f=-75mm
  7
SLDTEXTSTYLE0
 73
     1
 44
1.0
  0
ENDBLK
  5
B8
330
B6
100
AcDbEntity
  8
0
100
AcDbBlockEnd
  0
BLOCK
  5
BF
330
BE
100
AcDbEntity
  8
0
100
AcDbBlockBegin
  2
SW_NOTE_3
 70
     0
 10
0.0
 20
0.0
 30
0.0
  3
SW_NOTE_3
  1
SW_NOTE_3
  0
MTEXT
  5
C1
330
BE
100
AcDbEntity
  8
0
  6
Continuous
 62
     0
370
     0
100
AcDbMText
 10
0.986328125
 20
0.1611334675
 30
0.0
 40
0.125
 41
0.0
 71
     2
 72
     1
  1
FOR INFORMATION ONLY
  7
SLDTEXTSTYLE0
 73
     1
 44
1.0
  0
MTEXT
  5
C2
330
BE
100
AcDbEntity
  8
0
  6
Continuous
 62
     0
370
     0
100
AcDbMText
 10
0.999088459
 20
-0.0055331972
 30
0.0
 40
0.125
 41
0.0
 71
     2
 72
     1
  1
NOT FOR MANUFACTURING PURPOSES
  7
SLDTEXTSTYLE0
 73
     1
 44
1.0
  0
ENDBLK
  5
C0
330
BE
100
AcDbEntity
  8
0
100
AcDbBlockEnd
  0
BLOCK
  5
C5
330
C4
100
AcDbEntity
  8
0
100
AcDbBlockBegin
  2
SW_NOTE_4
 70
     0
 10
0.0
 20
0.0
 30
0.0
  3
SW_NOTE_4
  1
SW_NOTE_4
  0
MTEXT
  5
C7
330
C4
100
AcDbEntity
  8
0
  6
Continuous
 62
     0
370
     0
100
AcDbMText
 10
0.0
 20
0.1208501006
 30
0.0
 40
0.09375
 41
0.0
 71
     1
 72
     1
  1
NOTES/SPECIFICATIONS:
  7
SLDTEXTSTYLE0
 73
     1
 44
1.0
  0
MTEXT
  5
C8
330
C4
100
AcDbEntity
  8
0
  6
Continuous
 62
     0
370
     0
100
AcDbMText
 10
0.4214785744
 20
-0.1291498964
 30
0.0
 40
0.09375
 41
0.0
 71
     1
 72
     1
  1
DESIGN WAVELENGTH: 633nm
  7
SLDTEXTSTYLE0
 73
     1
 44
1.0
  0
MTEXT
  5
C9
330
C4
100
AcDbEntity
  8
0
  6
Continuous
 62
     0
370
     0
100
AcDbMText
 10
0.0
 20
-0.1291498964
 30
0.0
 40
0.09375
 41
0.0
 71
     1
 72
     1
  1
1.
  7
SLDTEXTSTYLE0
 73
     1
 44
1.0
  0
MTEXT
  5
CA
330
C4
100
AcDbEntity
  8
0
  6
Continuous
 62
     0
370
     0
100
AcDbMText
 10
0.4214785744
 20
-0.2541498949
 30
0.0
 40
0.09375
 41
0.0
 71
     1
 72
     1
  1
FOCAL LENGTH: f=-74.9mm
  7
SLDTEXTSTYLE0
 73
     1
 44
1.0
  0
MTEXT
  5
CB
330
C4
100
AcDbEntity
  8
0
  6
Continuous
 62
     0
370
     0
100
AcDbMText
 10
2.0791174785
 20
-0.2541498949
 30
0.0
 40
0.09375
 41
0.0
 71
     1
 72
     1
  1
%%p
  7
SLDTEXTSTYLE0
 73
     1
 44
1.0
  0
MTEXT
  5
CC
330
C4
100
AcDbEntity
  8
0
  6
Continuous
 62
     0
370
     0
100
AcDbMText
 10
2.1684924727
 20
-0.2541498949
 30
0.0
 40
0.09375
 41
0.0
 71
     1
 72
     1
  1
1%
  7
SLDTEXTSTYLE0
 73
     1
 44
1.0
  0
MTEXT
  5
CD
330
C4
100
AcDbEntity
  8
0
  6
Continuous
 62
     0
370
     0
100
AcDbMText
 10
0.0
 20
-0.2541498949
 30
0.0
 40
0.09375
 41
0.0
 71
     1
 72
     1
  1
2.
  7
SLDTEXTSTYLE0
 73
     1
 44
1.0
  0
MTEXT
  5
CE
330
C4
100
AcDbEntity
  8
0
  6
Continuous
 62
     0
370
     0
100
AcDbMText
 10
0.4214785744
 20
-0.3791498934
 30
0.0
 40
0.09375
 41
0.0
 71
     1
 72
     1
  1
WORKING DISTANCE (REF): -60.4mm
  7
SLDTEXTSTYLE0
 73
     1
 44
1.0
  0
MTEXT
  5
CF
330
C4
100
AcDbEntity
  8
0
  6
Continuous
 62
     0
370
     0
100
AcDbMText
 10
0.0
 20
-0.3791498934
 30
0.0
 40
0.09375
 41
0.0
 71
     1
 72
     1
  1
3.
  7
SLDTEXTSTYLE0
 73
     1
 44
1.0
  0
MTEXT
  5
D0
330
C4
100
AcDbEntity
  8
0
  6
Continuous
 62
     0
370
     0
100
AcDbMText
 10
0.4214785744
 20
-0.5041498918
 30
0.0
 40
0.09375
 41
0.0
 71
     1
 72
     1
  1
CLEAR APERTURE: >
  7
SLDTEXTSTYLE0
 73
     1
 44
1.0
  0
MTEXT
  5
D1
330
C4
100
AcDbEntity
  8
0
  6
Continuous
 62
     0
370
     0
100
AcDbMText
 10
1.5829368971
 20
-0.5041498918
 30
0.0
 40
0.09375
 41
0.0
 71
     1
 72
     1
  1
%%c
  7
SLDTEXTSTYLE0
 73
     1
 44
1.0
  0
MTEXT
  5
D2
330
C4
100
AcDbEntity
  8
0
  6
Continuous
 62
     0
370
     0
100
AcDbMText
 10
1.7244474024
 20
-0.5041498918
 30
0.0
 40
0.09375
 41
0.0
 71
     1
 72
     1
  1
45.72mm
  7
SLDTEXTSTYLE0
 73
     1
 44
1.0
  0
MTEXT
  5
D3
330
C4
100
AcDbEntity
  8
0
  6
Continuous
 62
     0
370
     0
100
AcDbMText
 10
0.0
 20
-0.5041498918
 30
0.0
 40
0.09375
 41
0.0
 71
     1
 72
     1
  1
4.
  7
SLDTEXTSTYLE0
 73
     1
 44
1.0
  0
MTEXT
  5
D4
330
C4
100
AcDbEntity
  8
0
  6
Continuous
 62
     0
370
     0
100
AcDbMText
 10
0.4214785744
 20
-0.6291498903
 30
0.0
 40
0.09375
 41
0.0
 71
     1
 72
     1
  1
SURFACE QUALITY: 40-20 SCRATCH-DIG
  7
SLDTEXTSTYLE0
 73
     1
 44
1.0
  0
MTEXT
  5
D5
330
C4
100
AcDbEntity
  8
0
  6
Continuous
 62
     0
370
     0
100
AcDbMText
 10
0.0
 20
-0.6291498903
 30
0.0
 40
0.09375
 41
0.0
 71
     1
 72
     1
  1
5.
  7
SLDTEXTSTYLE0
 73
     1
 44
1.0
  0
ENDBLK
  5
C6
330
C4
100
AcDbEntity
  8
0
100
AcDbBlockEnd
  0
BLOCK
  5
D8
330
D7
100
AcDbEntity
  8
0
100
AcDbBlockBegin
  2
SW_TABLEANNOTATION_0
 70
     0
 10
0.0
 20
0.0
 30
0.0
  3
SW_TABLEANNOTATION_0
  1
SW_TABLEANNOTATION_0
  0
LINE
  5
DA
330
D7
100
AcDbEntity
  8
0
  6
Continuous
 62
     0
370
     0
100
AcDbLine
 10
0.0
 20
0.0
 30
0.0
 11
0.0
 21
-1.52
 31
0.0
  0
LINE
  5
DB
330
D7
100
AcDbEntity
  8
0
  6
Continuous
 62
     0
370
     0
100
AcDbLine
 10
0.0
 20
-1.52
 30
0.0
 11
3.2061602982
 21
-1.52
 31
0.0
  0
LINE
  5
DC
330
D7
100
AcDbEntity
  8
0
  6
Continuous
 62
     0
370
     0
100
AcDbLine
 10
3.2061602982
 20
-1.52
 30
0.0
 11
3.2061602982
 21
0.0
 31
0.0
  0
LINE
  5
DD
330
D7
100
AcDbEntity
  8
0
  6
Continuous
 62
     0
370
     0
100
AcDbLine
 10
3.2061602982
 20
0.0
 30
0.0
 11
0.0
 21
0.0
 31
0.0
  0
LINE
  5
DE
330
D7
100
AcDbEntity
  8
0
  6
Continuous
 62
     0
370
     0
100
AcDbLine
 10
1.0687200994
 20
0.0
 30
0.0
 11
1.0687200994
 21
-1.52
 31
0.0
  0
LINE
  5
DF
330
D7
100
AcDbEntity
  8
0
  6
Continuous
 62
     0
370
     0
100
AcDbLine
 10
2.1374401988
 20
0.0
 30
0.0
 11
2.1374401988
 21
-1.52
 31
0.0
  0
LINE
  5
E0
330
D7
100
AcDbEntity
  8
0
  6
Continuous
 62
     0
370
     0
100
AcDbLine
 10
0.0
 20
-0.38
 30
0.0
 11
3.2061602982
 21
-0.38
 31
0.0
  0
LINE
  5
E1
330
D7
100
AcDbEntity
  8
0
  6
Continuous
 62
     0
370
     0
100
AcDbLine
 10
0.0
 20
-0.76
 30
0.0
 11
3.2061602982
 21
-0.76
 31
0.0
  0
LINE
  5
E2
330
D7
100
AcDbEntity
  8
0
  6
Continuous
 62
     0
370
     0
100
AcDbLine
 10
0.0
 20
-1.14
 30
0.0
 11
3.2061602982
 21
-1.14
 31
0.0
  0
MTEXT
  5
E3
330
D7
100
AcDbEntity
  8
0
  6
Continuous
 62
     0
370
     0
100
AcDbMText
 10
1.1074783443
 20
-0.1486229638
 30
0.0
 40
0.0833333333
 41
0.0
 71
     1
 72
     1
  1
PART DESCRIPTION
  7
SLDTEXTSTYLE0
 73
     1
 44
1.0
  0
MTEXT
  5
E4
330
D7
100
AcDbEntity
  8
0
  6
Continuous
 62
     0
370
     0
100
AcDbMText
 10
2.4130039465
 20
-0.1486229638
 30
0.0
 40
0.0833333333
 41
0.0
 71
     1
 72
     1
  1
MATERIAL
  7
SLDTEXTSTYLE0
 73
     1
 44
1.0
  0
INSERT
  5
EA
330
D7
100
AcDbEntity
  8
0
  6
Continuous
 62
     0
370
     0
100
AcDbBlockReference
  2
SW_SYMBOL_C#_1
 10
0.4218137498
 20
-0.6244892858
 30
0.0
 41
0.0027037109
 42
0.0027037109
 43
0.0027037109
  0
MTEXT
  5
EB
330
D7
100
AcDbEntity
  8
0
  6
Continuous
 62
     0
370
     0
100
AcDbMText
 10
1.4260739706
 20
-0.5286229638
 30
0.0
 40
0.0833333333
 41
0.0
 71
     1
 72
     1
  1
SM2RR
  7
SLDTEXTSTYLE0
 73
     1
 44
1.0
  0
MTEXT
  5
EC
330
D7
100
AcDbEntity
  8
0
  6
Continuous
 62
     0
370
     0
100
AcDbMText
 10
2.3894699933
 20
-0.4730674089
 30
0.0
 40
0.0833333333
 41
0.0
 71
     1
 72
     1
  1
ANODIZED
  7
SLDTEXTSTYLE0
 73
     1
 44
1.0
  0
MTEXT
  5
ED
330
D7
100
AcDbEntity
  8
0
  6
Continuous
 62
     0
370
     0
100
AcDbMText
 10
2.376429864
 20
-0.5841785187
 30
0.0
 40
0.0833333333
 41
0.0
 71
     1
 72
     1
  1
ALUMINUM
  7
SLDTEXTSTYLE0
 73
     1
 44
1.0
  0
INSERT
  5
F3
330
D7
100
AcDbEntity
  8
0
  6
Continuous
 62
     0
370
     0
100
AcDbBlockReference
  2
SW_SYMBOL_C#_2
 10
0.4218137498
 20
-1.0044892858
 30
0.0
 41
0.0027037109
 42
0.0027037109
 43
0.0027037109
  0
MTEXT
  5
F4
330
D7
100
AcDbEntity
  8
0
  6
Continuous
 62
     0
370
     0
100
AcDbMText
 10
1.4090986733
 20
-0.9086229638
 30
0.0
 40
0.0833333333
 41
0.0
 71
     1
 72
     1
  1
LC1315
  7
SLDTEXTSTYLE0
 73
     1
 44
1.0
  0
MTEXT
  5
F5
330
D7
100
AcDbEntity
  8
0
  6
Continuous
 62
     0
370
     0
100
AcDbMText
 10
2.5167848143
 20
-0.9086229638
 30
0.0
 40
0.0833333333
 41
0.0
 71
     1
 72
     1
  1
N-BK7
  7
SLDTEXTSTYLE0
 73
     1
 44
1.0
  0
INSERT
  5
FB
330
D7
100
AcDbEntity
  8
0
  6
Continuous
 62
     0
370
     0
100
AcDbBlockReference
  2
SW_SYMBOL_C#_3
 10
0.4218137498
 20
-1.3844892858
 30
0.0
 41
0.0027037109
 42
0.0027037109
 43
0.0027037109
  0
MTEXT
  5
FC
330
D7
100
AcDbEntity
  8
0
  6
Continuous
 62
     0
370
     0
100
AcDbMText
 10
1.2986820039
 20
-1.2330674089
 30
0.0
 40
0.0833333333
 41
0.0
 71
     1
 72
     1
  1
ENGRAVED
  7
SLDTEXTSTYLE0
 73
     1
 44
1.0
  0
MTEXT
  5
FD
330
D7
100
AcDbEntity
  8
0
  6
Continuous
 62
     0
370
     0
100
AcDbMText
 10
1.3506110106
 20
-1.3441785187
 30
0.0
 40
0.0833333333
 41
0.0
 71
     1
 72
     1
  1
HOUSING
  7
SLDTEXTSTYLE0
 73
     1
 44
1.0
  0
MTEXT
  5
FE
330
D7
100
AcDbEntity
  8
0
  6
Continuous
 62
     0
370
     0
100
AcDbMText
 10
2.3894699933
 20
-1.2330674089
 30
0.0
 40
0.0833333333
 41
0.0
 71
     1
 72
     1
  1
ANODIZED
  7
SLDTEXTSTYLE0
 73
     1
 44
1.0
  0
MTEXT
  5
FF
330
D7
100
AcDbEntity
  8
0
  6
Continuous
 62
     0
370
     0
100
AcDbMText
 10
2.376429864
 20
-1.3441785187
 30
0.0
 40
0.0833333333
 41
0.0
 71
     1
 72
     1
  1
ALUMINUM
  7
SLDTEXTSTYLE0
 73
     1
 44
1.0
  0
ENDBLK
  5
D9
330
D7
100
AcDbEntity
  8
0
100
AcDbBlockEnd
  0
BLOCK
  5
E6
330
E5
100
AcDbEntity
  8
0
100
AcDbBlockBegin
  2
SW_SYMBOL_C#_1
 70
     0
 10
0.0
 20
0.0
 30
0.0
  3
SW_SYMBOL_C#_1
  1
SW_SYMBOL_C#_1
  0
CIRCLE
  5
E8
330
E5
100
AcDbEntity
  8
0
  6
Continuous
 62
     0
370
     0
100
AcDbCircle
 10
31.4960629921
 20
19.6850393701
 30
0.0
 40
31.49606299212599
  0
MTEXT
  5
E9
330
E5
100
AcDbEntity
  8
0
  6
Continuous
 62
     0
370
     0
100
AcDbMText
 10
31.4960629921
 20
19.6850393701
 30
0.0
 40
30.821835344
 41
0.0
 71
     5
 72
     1
  1
1
  7
SLDTEXTSTYLE0
 73
     1
 44
1.0
  0
ENDBLK
  5
E7
330
E5
100
AcDbEntity
  8
0
100
AcDbBlockEnd
  0
BLOCK
  5
EF
330
EE
100
AcDbEntity
  8
0
100
AcDbBlockBegin
  2
SW_SYMBOL_C#_2
 70
     0
 10
0.0
 20
0.0
 30
0.0
  3
SW_SYMBOL_C#_2
  1
SW_SYMBOL_C#_2
  0
CIRCLE
  5
F1
330
EE
100
AcDbEntity
  8
0
  6
Continuous
 62
     0
370
     0
100
AcDbCircle
 10
31.4960629921
 20
19.6850393701
 30
0.0
 40
31.49606299212599
  0
MTEXT
  5
F2
330
EE
100
AcDbEntity
  8
0
  6
Continuous
 62
     0
370
     0
100
AcDbMText
 10
31.4960629921
 20
19.6850393701
 30
0.0
 40
30.821835344
 41
0.0
 71
     5
 72
     1
  1
2
  7
SLDTEXTSTYLE0
 73
     1
 44
1.0
  0
ENDBLK
  5
F0
330
EE
100
AcDbEntity
  8
0
100
AcDbBlockEnd
  0
BLOCK
  5
F7
330
F6
100
AcDbEntity
  8
0
100
AcDbBlockBegin
  2
SW_SYMBOL_C#_3
 70
     0
 10
0.0
 20
0.0
 30
0.0
  3
SW_SYMBOL_C#_3
  1
SW_SYMBOL_C#_3
  0
CIRCLE
  5
F9
330
F6
100
AcDbEntity
  8
0
  6
Continuous
 62
     0
370
     0
100
AcDbCircle
 10
31.4960629921
 20
19.6850393701
 30
0.0
 40
31.49606299212599
  0
MTEXT
  5
FA
330
F6
100
AcDbEntity
  8
0
  6
Continuous
 62
     0
370
     0
100
AcDbMText
 10
31.4960629921
 20
19.6850393701
 30
0.0
 40
30.821835344
 41
0.0
 71
     5
 72
     1
  1
3
  7
SLDTEXTSTYLE0
 73
     1
 44
1.0
  0
ENDBLK
  5
F8
330
F6
100
AcDbEntity
  8
0
100
AcDbBlockEnd
  0
BLOCK
  5
11C
330
11B
100
AcDbEntity
  8
0
100
AcDbBlockBegin
  2
_D
 70
     0
 10
0.0
 20
0.0
 30
0.0
  3
_D
  1
_D
  0
SOLID
  5
11E
330
11B
100
AcDbEntity
  8
0
  6
Continuous
 62
     7
370
     0
100
AcDbTrace
 10
3.4827129817
 20
5.0062502951
 30
0.0
 11
3.585243465
 21
5.0804965072
 31
0.0
 12
3.5569591937
 22
5.1087807784
 32
0.0
 13
3.5569591937
 23
5.1087807784
 33
0.0
  0
LINE
  5
11F
330
11B
100
AcDbEntity
  8
0
  6
Continuous
 62
     7
370
     0
100
AcDbLine
 10
4.3598194139
 20
5.6358269704
 30
0.0
 11
4.3429212659
 21
5.6358269704
 31
0.0
  0
LINE
  5
120
330
11B
100
AcDbEntity
  8
0
  6
Continuous
 62
     7
370
     0
100
AcDbLine
 10
4.3429212659
 20
5.6358269704
 30
0.0
 11
4.3429212659
 21
5.5034195658
 31
0.0
  0
LINE
  5
121
330
11B
100
AcDbEntity
  8
0
  6
Continuous
 62
     7
370
     0
100
AcDbLine
 10
4.3429212659
 20
5.5034195658
 30
0.0
 11
4.3598194139
 21
5.5034195658
 31
0.0
  0
LINE
  5
122
330
11B
100
AcDbEntity
  8
0
  6
Continuous
 62
     7
370
     0
100
AcDbLine
 10
4.8258302337
 20
5.6358269704
 30
0.0
 11
4.8427283817
 21
5.6358269704
 31
0.0
  0
LINE
  5
123
330
11B
100
AcDbEntity
  8
0
  6
Continuous
 62
     7
370
     0
100
AcDbLine
 10
4.8427283817
 20
5.6358269704
 30
0.0
 11
4.8427283817
 21
5.5034195658
 31
0.0
  0
LINE
  5
124
330
11B
100
AcDbEntity
  8
0
  6
Continuous
 62
     7
370
     0
100
AcDbLine
 10
4.8427283817
 20
5.5034195658
 30
0.0
 11
4.8258302337
 21
5.5034195658
 31
0.0
  0
LINE
  5
125
330
11B
100
AcDbEntity
  8
0
  6
Continuous
 62
     7
370
     0
100
AcDbLine
 10
3.4827129817
 20
5.0062502951
 30
0.0
 11
4.1802476546
 21
5.703784968
 31
0.0
  0
LINE
  5
126
330
11B
100
AcDbEntity
  8
0
  6
Continuous
 62
     7
370
     0
100
AcDbLine
 10
4.1802476546
 20
5.703784968
 30
0.0
 11
4.3302476546
 21
5.703784968
 31
0.0
  0
MTEXT
  5
127
330
11B
100
AcDbEntity
  8
0
  6
Continuous
 62
     7
370
     0
100
AcDbMText
 10
4.3302476546
 20
5.7601474289
 30
0.0
 40
0.0833333333
 41
0.0
 71
     1
 72
     1
  1
%%c
  7
SLDTEXTSTYLE0
 73
     1
 44
1.0
  0
MTEXT
  5
128
330
11B
100
AcDbEntity
  8
0
  6
Continuous
 62
     7
370
     0
100
AcDbMText
 10
4.456034694
 20
5.7601474289
 30
0.0
 40
0.0833333333
 41
0.0
 71
     1
 72
     1
  1
2.20in
  7
SLDTEXTSTYLE0
 73
     1
 44
1.0
  0
MTEXT
  5
129
330
11B
100
AcDbEntity
  8
0
  6
Continuous
 62
     7
370
     0
100
AcDbMText
 10
4.3809420998
 20
5.6108418728
 30
0.0
 40
0.0833333333
 41
0.0
 71
     1
 72
     1
  1
55.9mm
  7
SLDTEXTSTYLE0
 73
     1
 44
1.0
  0
ENDBLK
  5
11D
330
11B
100
AcDbEntity
  8
0
100
AcDbBlockEnd
  0
BLOCK
  5
2FF
330
2FE
100
AcDbEntity
  8
0
100
AcDbBlockBegin
  2
_D_1
 70
     0
 10
0.0
 20
0.0
 30
0.0
  3
_D_1
  1
_D_1
  0
SOLID
  5
301
330
2FE
100
AcDbEntity
  8
0
  6
Continuous
 62
     7
370
     0
100
AcDbTrace
 10
7.5040235805
 20
6.1945745681
 30
0.0
 11
7.6290235805
 21
6.1745745681
 31
0.0
 12
7.6290235805
 22
6.2145745681
 32
0.0
 13
7.6290235805
 23
6.2145745681
 33
0.0
  0
SOLID
  5
302
330
2FE
100
AcDbEntity
  8
0
  6
Continuous
 62
     7
370
     0
100
AcDbTrace
 10
6.6040235805
 20
6.1945745681
 30
0.0
 11
6.4790235805
 21
6.2145745681
 31
0.0
 12
6.4790235805
 22
6.1745745681
 32
0.0
 13
6.4790235805
 23
6.1745745681
 33
0.0
  0
LINE
  5
303
330
2FE
100
AcDbEntity
  8
0
  6
Continuous
 62
     7
370
     0
100
AcDbLine
 10
6.8210181615
 20
6.1945745589
 30
0.0
 11
6.8041200135
 21
6.1945745589
 31
0.0
  0
LINE
  5
304
330
2FE
100
AcDbEntity
  8
0
  6
Continuous
 62
     7
370
     0
100
AcDbLine
 10
6.8041200135
 20
6.1945745589
 30
0.0
 11
6.8041200135
 21
6.0621671544
 31
0.0
  0
LINE
  5
305
330
2FE
100
AcDbEntity
  8
0
  6
Continuous
 62
     7
370
     0
100
AcDbLine
 10
6.8041200135
 20
6.0621671544
 30
0.0
 11
6.8210181615
 21
6.0621671544
 31
0.0
  0
LINE
  5
306
330
2FE
100
AcDbEntity
  8
0
  6
Continuous
 62
     7
370
     0
100
AcDbLine
 10
7.2870289812
 20
6.1945745589
 30
0.0
 11
7.3039271292
 21
6.1945745589
 31
0.0
  0
LINE
  5
307
330
2FE
100
AcDbEntity
  8
0
  6
Continuous
 62
     7
370
     0
100
AcDbLine
 10
7.3039271292
 20
6.1945745589
 30
0.0
 11
7.3039271292
 21
6.0621671544
 31
0.0
  0
LINE
  5
308
330
2FE
100
AcDbEntity
  8
0
  6
Continuous
 62
     7
370
     0
100
AcDbLine
 10
7.3039271292
 20
6.0621671544
 30
0.0
 11
7.2870289812
 21
6.0621671544
 31
0.0
  0
LINE
  5
309
330
2FE
100
AcDbEntity
  8
0
  6
Continuous
 62
     7
370
     0
100
AcDbLine
 10
7.5040235805
 20
5.2859328358
 30
0.0
 11
7.5040235805
 21
6.2645745681
 31
0.0
  0
LINE
  5
30A
330
2FE
100
AcDbEntity
  8
0
  6
Continuous
 62
     7
370
     0
100
AcDbLine
 10
6.6040235805
 20
5.3684328358
 30
0.0
 11
6.6040235805
 21
6.2645745681
 31
0.0
  0
LINE
  5
30B
330
2FE
100
AcDbEntity
  8
0
  6
Continuous
 62
     7
370
     0
100
AcDbLine
 10
7.5040235805
 20
6.1945745681
 30
0.0
 11
7.7540235805
 21
6.1945745681
 31
0.0
  0
LINE
  5
30C
330
2FE
100
AcDbEntity
  8
0
  6
Continuous
 62
     7
370
     0
100
AcDbLine
 10
6.6040235805
 20
6.1945745681
 30
0.0
 11
6.3540235805
 21
6.1945745681
 31
0.0
  0
MTEXT
  5
30D
330
2FE
100
AcDbEntity
  8
0
  6
Continuous
 62
     7
370
     0
100
AcDbMText
 10
6.79252665
 20
6.3188950175
 30
0.0
 40
0.0833333333
 41
0.0
 71
     1
 72
     1
  1

  7
SLDTEXTSTYLE0
 73
     1
 44
1.0
  0
MTEXT
  5
30E
330
2FE
100
AcDbEntity
  8
0
  6
Continuous
 62
     7
370
     0
100
AcDbMText
 10
6.9013229412
 20
6.3188950175
 30
0.0
 40
0.0833333333
 41
0.0
 71
     1
 72
     1
  1
0.90in
  7
SLDTEXTSTYLE0
 73
     1
 44
1.0
  0
MTEXT
  5
30F
330
2FE
100
AcDbEntity
  8
0
  6
Continuous
 62
     7
370
     0
100
AcDbMText
 10
6.8421408474
 20
6.1695894614
 30
0.0
 40
0.0833333333
 41
0.0
 71
     1
 72
     1
  1
22.9mm
  7
SLDTEXTSTYLE0
 73
     1
 44
1.0
  0
MTEXT
  5
310
330
2FE
100
AcDbEntity
  8
0
  6
Continuous
 62
     7
370
     0
100
AcDbMText
 10
7.3791007405
 20
6.3188950175
 30
0.0
 40
0.0833333333
 41
0.0
 71
     1
 72
     1
  1

  7
SLDTEXTSTYLE0
 73
     1
 44
1.0
  0
ENDBLK
  5
300
330
2FE
100
AcDbEntity
  8
0
100
AcDbBlockEnd
  0
BLOCK
  5
314
330
313
100
AcDbEntity
  8
0
100
AcDbBlockBegin
  2
_D_2
 70
     0
 10
0.0
 20
0.0
 30
0.0
  3
_D_2
  1
_D_2
  0
SOLID
  5
316
330
313
100
AcDbEntity
  8
0
  6
Continuous
 62
     7
370
     0
100
AcDbTrace
 10
7.3840235805
 20
5.7221336232
 30
0.0
 11
7.2590235805
 21
5.7421336232
 31
0.0
 12
7.2590235805
 22
5.7021336232
 32
0.0
 13
7.2590235805
 23
5.7021336232
 33
0.0
  0
SOLID
  5
317
330
313
100
AcDbEntity
  8
0
  6
Continuous
 62
     7
370
     0
100
AcDbTrace
 10
7.5040235805
 20
5.7221336232
 30
0.0
 11
7.6290235805
 21
5.7021336232
 31
0.0
 12
7.6290235805
 22
5.7421336232
 32
0.0
 13
7.6290235805
 23
5.7421336232
 33
0.0
  0
LINE
  5
318
330
313
100
AcDbEntity
  8
0
  6
Continuous
 62
     7
370
     0
100
AcDbLine
 10
7.845015092
 20
5.7221336141
 30
0.0
 11
7.828116944
 21
5.7221336141
 31
0.0
  0
LINE
  5
319
330
313
100
AcDbEntity
  8
0
  6
Continuous
 62
     7
370
     0
100
AcDbLine
 10
7.828116944
 20
5.7221336141
 30
0.0
 11
7.828116944
 21
5.5897262095
 31
0.0
  0
LINE
  5
31A
330
313
100
AcDbEntity
  8
0
  6
Continuous
 62
     7
370
     0
100
AcDbLine
 10
7.828116944
 20
5.5897262095
 30
0.0
 11
7.845015092
 21
5.5897262095
 31
0.0
  0
LINE
  5
31B
330
313
100
AcDbEntity
  8
0
  6
Continuous
 62
     7
370
     0
100
AcDbLine
 10
8.249451813
 20
5.7221336141
 30
0.0
 11
8.266349961
 21
5.7221336141
 31
0.0
  0
LINE
  5
31C
330
313
100
AcDbEntity
  8
0
  6
Continuous
 62
     7
370
     0
100
AcDbLine
 10
8.266349961
 20
5.7221336141
 30
0.0
 11
8.266349961
 21
5.5897262095
 31
0.0
  0
LINE
  5
31D
330
313
100
AcDbEntity
  8
0
  6
Continuous
 62
     7
370
     0
100
AcDbLine
 10
8.266349961
 20
5.5897262095
 30
0.0
 11
8.249451813
 21
5.5897262095
 31
0.0
  0
LINE
  5
31E
330
313
100
AcDbEntity
  8
0
  6
Continuous
 62
     7
370
     0
100
AcDbLine
 10
7.3840235805
 20
5.3684328358
 30
0.0
 11
7.3840235805
 21
5.7921336232
 31
0.0
  0
LINE
  5
31F
330
313
100
AcDbEntity
  8
0
  6
Continuous
 62
     7
370
     0
100
AcDbLine
 10
7.5040235805
 20
5.2859328358
 30
0.0
 11
7.5040235805
 21
5.7921336232
 31
0.0
  0
LINE
  5
320
330
313
100
AcDbEntity
  8
0
  6
Continuous
 62
     7
370
     0
100
AcDbLine
 10
7.3840235805
 20
5.7221336232
 30
0.0
 11
7.1340235805
 21
5.7221336232
 31
0.0
  0
LINE
  5
321
330
313
100
AcDbEntity
  8
0
  6
Continuous
 62
     7
370
     0
100
AcDbLine
 10
7.5040235805
 20
5.7221336232
 30
0.0
 11
7.7371218417
 21
5.7221336232
 31
0.0
  0
MTEXT
  5
322
330
313
100
AcDbEntity
  8
0
  6
Continuous
 62
     7
370
     0
100
AcDbMText
 10
7.8165235805
 20
5.8464540726
 30
0.0
 40
0.0833333333
 41
0.0
 71
     1
 72
     1
  1

  7
SLDTEXTSTYLE0
 73
     1
 44
1.0
  0
MTEXT
  5
323
330
313
100
AcDbEntity
  8
0
  6
Continuous
 62
     7
370
     0
100
AcDbMText
 10
7.8945328223
 20
5.8464540726
 30
0.0
 40
0.0833333333
 41
0.0
 71
     1
 72
     1
  1
0.12in
  7
SLDTEXTSTYLE0
 73
     1
 44
1.0
  0
MTEXT
  5
324
330
313
100
AcDbEntity
  8
0
  6
Continuous
 62
     7
370
     0
100
AcDbMText
 10
7.8661377779
 20
5.6971485165
 30
0.0
 40
0.0833333333
 41
0.0
 71
     1
 72
     1
  1
3.0mm
  7
SLDTEXTSTYLE0
 73
     1
 44
1.0
  0
MTEXT
  5
325
330
313
100
AcDbEntity
  8
0
  6
Continuous
 62
     7
370
     0
100
AcDbMText
 10
8.3415235357
 20
5.8464540726
 30
0.0
 40
0.0833333333
 41
0.0
 71
     1
 72
     1
  1

  7
SLDTEXTSTYLE0
 73
     1
 44
1.0
  0
ENDBLK
  5
315
330
313
100
AcDbEntity
  8
0
100
AcDbBlockEnd
  0
BLOCK
  5
329
330
328
100
AcDbEntity
  8
0
100
AcDbBlockBegin
  2
_D_3
 70
     0
 10
0.0
 20
0.0
 30
0.0
  3
_D_3
  1
_D_3
  0
SOLID
  5
32B
330
328
100
AcDbEntity
  8
0
  6
Continuous
 62
     7
370
     0
100
AcDbTrace
 10
8.6808162902
 20
5.1784328358
 30
0.0
 11
8.6608162902
 21
5.0534328358
 31
0.0
 12
8.7008162902
 22
5.0534328358
 32
0.0
 13
8.7008162902
 23
5.0534328358
 33
0.0
  0
SOLID
  5
32C
330
328
100
AcDbEntity
  8
0
  6
Continuous
 62
     7
370
     0
100
AcDbTrace
 10
8.6808162902
 20
3.2784328358
 30
0.0
 11
8.7008162902
 21
3.4034328358
 31
0.0
 12
8.6608162902
 22
3.4034328358
 32
0.0
 13
8.6608162902
 23
3.4034328358
 33
0.0
  0
LINE
  5
32D
330
328
100
AcDbEntity
  8
0
  6
Continuous
 62
     7
370
     0
100
AcDbLine
 10
8.4478108895
 20
4.2390809786
 30
0.0
 11
8.4309127415
 21
4.2390809786
 31
0.0
  0
LINE
  5
32E
330
328
100
AcDbEntity
  8
0
  6
Continuous
 62
     7
370
     0
100
AcDbLine
 10
8.4309127415
 20
4.2390809786
 30
0.0
 11
8.4309127415
 21
4.1066735741
 31
0.0
  0
LINE
  5
32F
330
328
100
AcDbEntity
  8
0
  6
Continuous
 62
     7
370
     0
100
AcDbLine
 10
8.4309127415
 20
4.1066735741
 30
0.0
 11
8.4478108895
 21
4.1066735741
 31
0.0
  0
LINE
  5
330
330
328
100
AcDbEntity
  8
0
  6
Continuous
 62
     7
370
     0
100
AcDbLine
 10
8.9138217092
 20
4.2390809786
 30
0.0
 11
8.9307198572
 21
4.2390809786
 31
0.0
  0
LINE
  5
331
330
328
100
AcDbEntity
  8
0
  6
Continuous
 62
     7
370
     0
100
AcDbLine
 10
8.9307198572
 20
4.2390809786
 30
0.0
 11
8.9307198572
 21
4.1066735741
 31
0.0
  0
LINE
  5
332
330
328
100
AcDbEntity
  8
0
  6
Continuous
 62
     7
370
     0
100
AcDbLine
 10
8.9307198572
 20
4.1066735741
 30
0.0
 11
8.9138217092
 21
4.1066735741
 31
0.0
  0
LINE
  5
333
330
328
100
AcDbEntity
  8
0
  6
Continuous
 62
     7
370
     0
100
AcDbLine
 10
7.5440235805
 20
5.1784328358
 30
0.0
 11
8.7508162902
 21
5.1784328358
 31
0.0
  0
LINE
  5
334
330
328
100
AcDbEntity
  8
0
  6
Continuous
 62
     7
370
     0
100
AcDbLine
 10
7.5440235805
 20
3.2784328358
 30
0.0
 11
8.7508162902
 21
3.2784328358
 31
0.0
  0
LINE
  5
335
330
328
100
AcDbEntity
  8
0
  6
Continuous
 62
     7
370
     0
100
AcDbLine
 10
8.6808162902
 20
5.1784328358
 30
0.0
 11
8.6808162902
 21
4.3670902399
 31
0.0
  0
LINE
  5
336
330
328
100
AcDbEntity
  8
0
  6
Continuous
 62
     7
370
     0
100
AcDbLine
 10
8.6808162902
 20
3.2784328358
 30
0.0
 11
8.6808162902
 21
4.0897754318
 31
0.0
  0
MTEXT
  5
337
330
328
100
AcDbEntity
  8
0
  6
Continuous
 62
     7
370
     0
100
AcDbMText
 10
8.4652221541
 20
4.3634014372
 30
0.0
 40
0.0833333333
 41
0.0
 71
     1
 72
     1
  1
%%c
  7
SLDTEXTSTYLE0
 73
     1
 44
1.0
  0
MTEXT
  5
338
330
328
100
AcDbEntity
  8
0
  6
Continuous
 62
     7
370
     0
100
AcDbMText
 10
8.5910091935
 20
4.3634014372
 30
0.0
 40
0.0833333333
 41
0.0
 71
     1
 72
     1
  1
1.90in
  7
SLDTEXTSTYLE0
 73
     1
 44
1.0
  0
MTEXT
  5
339
330
328
100
AcDbEntity
  8
0
  6
Continuous
 62
     7
370
     0
100
AcDbMText
 10
8.4689335754
 20
4.2140958811
 30
0.0
 40
0.0833333333
 41
0.0
 71
     1
 72
     1
  1
48.3mm
  7
SLDTEXTSTYLE0
 73
     1
 44
1.0
  0
ENDBLK
  5
32A
330
328
100
AcDbEntity
  8
0
100
AcDbBlockEnd
  0
BLOCK
  5
33B
330
33A
100
AcDbEntity
  8
0
100
AcDbBlockBegin
  2
SW_NOTE_5
 70
     0
 10
0.0
 20
0.0
 30
0.0
  3
SW_NOTE_5
  1
SW_NOTE_5
  0
MTEXT
  5
33E
330
33A
100
AcDbEntity
  8
0
  6
Continuous
 62
     0
370
     0
100
AcDbMText
 10
0.0214457044
 20
0.038406747
 30
0.0
 40
0.0833333333
 41
0.0
 71
     1
 72
     1
  1
SM2 (
  7
SLDTEXTSTYLE3
 73
     1
 44
1.0
  0
MTEXT
  5
33F
330
33A
100
AcDbEntity
  8
0
  6
Continuous
 62
     0
370
     0
100
AcDbMText
 10
0.3123407723
 20
0.038406747
 30
0.0
 40
0.0833333333
 41
0.0
 71
     1
 72
     1
  1
%%c
  7
SLDTEXTSTYLE0
 73
     1
 44
1.0
  0
MTEXT
  5
340
330
33A
100
AcDbEntity
  8
0
  6
Continuous
 62
     0
370
     0
100
AcDbMText
 10
0.4381278209
 20
0.038406747
 30
0.0
 40
0.0833333333
 41
0.0
 71
     1
 72
     1
  1
2.035-40) SERIES EXTERNAL THREAD
  7
SLDTEXTSTYLE0
 73
     1
 44
1.0
  0
ENDBLK
  5
33C
330
33A
100
AcDbEntity
  8
0
100
AcDbBlockEnd
  0
BLOCK
  5
345
330
344
100
AcDbEntity
  8
0
100
AcDbBlockBegin
  2
SW_NOTE_6
 70
     0
 10
0.0
 20
0.0
 30
0.0
  3
SW_NOTE_6
  1
SW_NOTE_6
  0
CIRCLE
  5
347
330
344
100
AcDbEntity
  8
0
  6
Continuous
 62
     0
370
     0
100
AcDbCircle
 10
0.1767581325
 20
0.0
 30
0.0
 40
0.1767581325192459
  0
MTEXT
  5
348
330
344
100
AcDbEntity
  8
0
  6
Continuous
 62
     0
370
     0
100
AcDbMText
 10
0.1754994518
 20
0.0630130583
 30
0.0
 40
0.125
 41
0.0
 71
     2
 72
     1
  1
2
  7
SLDTEXTSTYLE0
 73
     1
 44
1.0
  0
ENDBLK
  5
346
330
344
100
AcDbEntity
  8
0
100
AcDbBlockEnd
  0
BLOCK
  5
34C
330
34B
100
AcDbEntity
  8
0
100
AcDbBlockBegin
  2
SW_NOTE_7
 70
     0
 10
0.0
 20
0.0
 30
0.0
  3
SW_NOTE_7
  1
SW_NOTE_7
  0
CIRCLE
  5
34E
330
34B
100
AcDbEntity
  8
0
  6
Continuous
 62
     0
370
     0
100
AcDbCircle
 10
-0.1767581325
 20
0.0
 30
0.0
 40
0.1767581325192437
  0
MTEXT
  5
34F
330
34B
100
AcDbEntity
  8
0
  6
Continuous
 62
     0
370
     0
100
AcDbMText
 10
-0.1780168132
 20
0.0630130583
 30
0.0
 40
0.125
 41
0.0
 71
     2
 72
     1
  1
1
  7
SLDTEXTSTYLE0
 73
     1
 44
1.0
  0
ENDBLK
  5
34D
330
34B
100
AcDbEntity
  8
0
100
AcDbBlockEnd
  0
BLOCK
  5
353
330
352
100
AcDbEntity
  8
0
100
AcDbBlockBegin
  2
SW_NOTE_8
 70
     0
 10
0.0
 20
0.0
 30
0.0
  3
SW_NOTE_8
  1
SW_NOTE_8
  0
MTEXT
  5
355
330
352
100
AcDbEntity
  8
0
  6
Continuous
 62
     0
370
     0
100
AcDbMText
 10
-2.2384354271
 20
0.0389615646
 30
0.0
 40
0.0833333333
 41
0.0
 71
     1
 72
     1
  1
SM2 (
  7
SLDTEXTSTYLE3
 73
     1
 44
1.0
  0
MTEXT
  5
356
330
352
100
AcDbEntity
  8
0
  6
Continuous
 62
     0
370
     0
100
AcDbMText
 10
-1.9475403592
 20
0.0389615646
 30
0.0
 40
0.0833333333
 41
0.0
 71
     1
 72
     1
  1
%%c
  7
SLDTEXTSTYLE0
 73
     1
 44
1.0
  0
MTEXT
  5
357
330
352
100
AcDbEntity
  8
0
  6
Continuous
 62
     0
370
     0
100
AcDbMText
 10
-1.8217533107
 20
0.0389615646
 30
0.0
 40
0.0833333333
 41
0.0
 71
     1
 72
     1
  1
2.035-40) SERIES INTERNAL THREAD
  7
SLDTEXTSTYLE0
 73
     1
 44
1.0
  0
ENDBLK
  5
354
330
352
100
AcDbEntity
  8
0
100
AcDbBlockEnd
  0
BLOCK
  5
35B
330
35A
100
AcDbEntity
  8
0
100
AcDbBlockBegin
  2
SW_NOTE_9
 70
     0
 10
0.0
 20
0.0
 30
0.0
  3
SW_NOTE_9
  1
SW_NOTE_9
  0
CIRCLE
  5
35D
330
35A
100
AcDbEntity
  8
0
  6
Continuous
 62
     0
370
     0
100
AcDbCircle
 10
-0.1767581325
 20
0.0
 30
0.0
 40
0.1767581325192449
  0
MTEXT
  5
35E
330
35A
100
AcDbEntity
  8
0
  6
Continuous
 62
     0
370
     0
100
AcDbMText
 10
-0.1780168132
 20
0.0630130583
 30
0.0
 40
0.125
 41
0.0
 71
     2
 72
     1
  1
3
  7
SLDTEXTSTYLE0
 73
     1
 44
1.0
  0
ENDBLK
  5
35C
330
35A
100
AcDbEntity
  8
0
100
AcDbBlockEnd
  0
ENDSEC
  0
SECTION
  2
ENTITIES
  0
LINE
  5
7D
330
1F
100
AcDbEntity
  8
0
  6
Continuous
 62
     7
370
     0
100
AcDbLine
 10
0.0621791378
 20
8.4506055117
 30
0.0
 11
10.9444569626
 21
8.4506055117
 31
0.0
  0
LINE
  5
7E
330
1F
100
AcDbEntity
  8
0
  6
Continuous
 62
     7
370
     0
100
AcDbLine
 10
0.0621791378
 20
8.4506055117
 30
0.0
 11
0.0621791378
 21
0.035557648
 31
0.0
  0
LINE
  5
7F
330
1F
100
AcDbEntity
  8
0
  6
Continuous
 62
     7
370
     0
100
AcDbLine
 10
10.9444569626
 20
0.035557648
 30
0.0
 11
0.0621791378
 21
0.035557648
 31
0.0
  0
LINE
  5
80
330
1F
100
AcDbEntity
  8
0
  6
Continuous
 62
     7
370
     0
100
AcDbLine
 10
10.9444569626
 20
0.035557648
 30
0.0
 11
10.9444569626
 21
8.4506055117
 31
0.0
  0
LINE
  5
81
330
1F
100
AcDbEntity
  8
0
  6
Continuous
 62
     7
370
     0
100
AcDbLine
 10
8.4938096065
 20
0.4840901186
 30
0.0
 11
6.7571952625
 21
0.4840901186
 31
0.0
  0
LINE
  5
82
330
1F
100
AcDbEntity
  8
0
  6
Continuous
 62
     7
370
     0
100
AcDbLine
 10
6.7571952625
 20
0.4840901186
 30
0.0
 11
6.7571952625
 21
1.030163002
 31
0.0
  0
LINE
  5
83
330
1F
100
AcDbEntity
  8
0
  6
Continuous
 62
     7
370
     0
100
AcDbLine
 10
6.7571952625
 20
0.035557648
 30
0.0
 11
6.7571952625
 21
1.030163002
 31
0.0
  0
LINE
  5
84
330
1F
100
AcDbEntity
  8
0
  6
Continuous
 62
     7
370
     0
100
AcDbLine
 10
8.4938096065
 20
0.6756085809
 30
0.0
 11
10.9444569626
 21
0.6756085809
 31
0.0
  0
LINE
  5
85
330
1F
100
AcDbEntity
  8
0
  6
Continuous
 62
     7
370
     0
100
AcDbLine
 10
8.4938096065
 20
1.3873799542
 30
0.0
 11
8.4938096065
 21
0.035557648
 31
0.0
  0
LINE
  5
86
330
1F
100
AcDbEntity
  8
0
  6
Continuous
 62
     7
370
     0
100
AcDbLine
 10
8.4938096065
 20
1.030163002
 30
0.0
 11
6.7571952625
 21
1.030163002
 31
0.0
  0
LINE
  5
87
330
1F
100
AcDbEntity
  8
0
  6
Continuous
 62
     7
370
     0
100
AcDbLine
 10
8.4938096065
 20
0.3598787426
 30
0.0
 11
10.9444569626
 21
0.3598787426
 31
0.0
  0
LINE
  5
88
330
1F
100
AcDbEntity
  8
0
  6
Continuous
 62
     7
370
     0
100
AcDbLine
 10
8.4938096065
 20
0.6662079686
 30
0.0
 11
6.7571952625
 21
0.6662079686
 31
0.0
  0
LINE
  5
89
330
1F
100
AcDbEntity
  8
0
  6
Continuous
 62
     7
370
     0
100
AcDbLine
 10
8.4938096065
 20
0.8459606517
 30
0.0
 11
6.7571952625
 21
0.8459606517
 31
0.0
  0
LINE
  5
8A
330
1F
100
AcDbEntity
  8
0
  6
Continuous
 62
     7
370
     0
100
AcDbLine
 10
7.3281027587
 20
1.030163002
 30
0.0
 11
7.3281027587
 21
0.4840901186
 31
0.0
  0
LINE
  5
8B
330
1F
100
AcDbEntity
  8
0
  6
Continuous
 62
     7
370
     0
100
AcDbLine
 10
7.8037240401
 20
1.030163002
 30
0.0
 11
7.8037240401
 21
0.4840901186
 31
0.0
  0
LINE
  5
8C
330
1F
100
AcDbEntity
  8
0
  6
Continuous
 62
     7
370
     0
100
AcDbLine
 10
9.990119718
 20
0.3598787426
 30
0.0
 11
9.990119718
 21
0.035557648
 31
0.0
  0
LINE
  5
8D
330
1F
100
AcDbEntity
  8
0
  6
Continuous
 62
     7
370
     0
100
AcDbLine
 10
6.7571952625
 20
0.4840901186
 30
0.0
 11
6.7571952625
 21
0.297745443
 31
0.0
  0
LINE
  5
8E
330
1F
100
AcDbEntity
  8
0
  6
Continuous
 62
     7
370
     0
100
AcDbLine
 10
6.7571952625
 20
0.297745443
 30
0.0
 11
8.4938096065
 21
0.297745443
 31
0.0
  0
LINE
  5
8F
330
1F
100
AcDbEntity
  8
0
  6
Continuous
 62
     7
370
     0
100
AcDbLine
 10
6.7571952625
 20
0.297745443
 30
0.0
 11
6.7571952625
 21
1.3873799542
 31
0.0
  0
LINE
  5
90
330
1F
100
AcDbEntity
  8
0
  6
Continuous
 62
     7
370
     0
100
AcDbLine
 10
6.7571952625
 20
1.3873799542
 30
0.0
 11
8.4938096065
 21
1.3873799542
 31
0.0
  0
LINE
  5
91
330
1F
100
AcDbEntity
  8
0
  6
Continuous
 62
     7
370
     0
100
AcDbLine
 10
10.6365495992
 20
0.6756085809
 30
0.0
 11
10.6365495992
 21
0.3598787426
 31
0.0
  0
LINE
  5
92
330
1F
100
AcDbEntity
  8
0
  6
Continuous
 62
     7
370
     0
100
AcDbLine
 10
8.4938096065
 20
1.3873799542
 30
0.0
 11
10.9444569626
 21
1.3873799542
 31
0.0
  0
LINE
  5
93
330
1F
100
AcDbEntity
  8
0
  6
Continuous
 62
     7
370
     0
100
AcDbLine
 10
10.9444569626
 20
1.3873799542
 30
0.0
 11
10.9444569626
 21
1.9698084888
 31
0.0
  0
LINE
  5
94
330
1F
100
AcDbEntity
  8
0
  6
Continuous
 62
     7
370
     0
100
AcDbLine
 10
8.4938096065
 20
0.9800288797
 30
0.0
 11
10.9444569626
 21
0.9800288797
 31
0.0
  0
INSERT
  5
95
330
1F
100
AcDbEntity
  8
0
  6
Continuous
 62
     7
100
AcDbBlockReference
  2
Third Angle Projection Block
 10
4.6348905679
 20
0.6108753523
 30
0.0
 41
0.8
 42
0.8
 43
0.8
  0
MTEXT
  5
97
330
1F
100
AcDbEntity
  8
0
  6
Continuous
 62
     7
370
     0
100
AcDbMText
 10
10.7892734632
 20
0.5227176726
 30
0.0
 40
0.125
 41
0.0
 71
     2
 72
     1
  1
A
  7
SLDTEXTSTYLE0
 73
     1
 44
1.0
  0
MTEXT
  5
98
330
1F
100
AcDbEntity
  8
0
  6
Continuous
 62
     7
370
     0
100
AcDbMText
 10
9.2392103072
 20
0.2019943461
 30
0.0
 40
0.125
 41
0.0
 71
     2
 72
     1
  1
LC1315-ML
  7
SLDTEXTSTYLE0
 73
     1
 44
1.0
  0
MTEXT
  5
99
330
1F
100
AcDbEntity
  8
0
  6
Continuous
 62
     7
370
     0
100
AcDbMText
 10
8.5204715199
 20
0.6623747189
 30
0.0
 40
0.0833333333
 41
0.0
 71
     1
 72
     1
  1
MATERIAL
  7
SLDTEXTSTYLE0
 73
     1
 44
1.0
  0
MTEXT
  5
9A
330
1F
100
AcDbEntity
  8
0
  6
Continuous
 62
     7
370
     0
100
AcDbMText
 10
6.8594860853
 20
0.7895493672
 30
0.0
 40
0.0729166667
 41
0.0
 71
     1
 72
     1
  1
DRAWN
  7
SLDTEXTSTYLE0
 73
     1
 44
1.0
  0
MTEXT
  5
9B
330
1F
100
AcDbEntity
  8
0
  6
Continuous
 62
     7
370
     0
100
AcDbMText
 10
6.7872445848
 20
0.613335314
 30
0.0
 40
0.0729166667
 41
0.0
 71
     1
 72
     1
  1
APPROVAL
  7
SLDTEXTSTYLE0
 73
     1
 44
1.0
  0
MTEXT
  5
9C
330
1F
100
AcDbEntity
  8
0
  6
Continuous
 62
     7
370
     0
100
AcDbMText
 10
10.6936137314
 20
0.6373332609
 30
0.0
 40
0.0833333333
 41
0.0
 71
     1
 72
     1
  1
REV
  7
SLDTEXTSTYLE0
 73
     1
 44
1.0
  0
MTEXT
  5
9D
330
1F
100
AcDbEntity
  8
0
  6
Continuous
 62
     7
370
     0
100
AcDbMText
 10
7.4919633718
 20
0.7999100272
 30
0.0
 40
0.0833333333
 41
0.0
 71
     1
 72
     1
  1
GG
  7
SLDTEXTSTYLE0
 73
     1
 44
1.0
  0
MTEXT
  5
9E
330
1F
100
AcDbEntity
  8
0
  6
Continuous
 62
     7
370
     0
100
AcDbMText
 10
7.4919633718
 20
0.623695974
 30
0.0
 40
0.0833333333
 41
0.0
 71
     1
 72
     1
  1
DD
  7
SLDTEXTSTYLE0
 73
     1
 44
1.0
  0
MTEXT
  5
9F
330
1F
100
AcDbEntity
  8
0
  6
Continuous
 62
     7
370
     0
100
AcDbMText
 10
7.8687497515
 20
0.7999100272
 30
0.0
 40
0.0833333333
 41
0.0
 71
     1
 72
     1
  1
20/NOV/15
  7
SLDTEXTSTYLE0
 73
     1
 44
1.0
  0
MTEXT
  5
A0
330
1F
100
AcDbEntity
  8
0
  6
Continuous
 62
     7
370
     0
100
AcDbMText
 10
8.0163191884
 20
0.9772495896
 30
0.0
 40
0.0833333333
 41
0.0
 71
     1
 72
     1
  1
DATE
  7
SLDTEXTSTYLE0
 73
     1
 44
1.0
  0
MTEXT
  5
A1
330
1F
100
AcDbEntity
  8
0
  6
Continuous
 62
     7
370
     0
100
AcDbMText
 10
7.8687497515
 20
0.623695974
 30
0.0
 40
0.0833333333
 41
0.0
 71
     1
 72
     1
  1
20/NOV/15
  7
SLDTEXTSTYLE0
 73
     1
 44
1.0
  0
MTEXT
  5
A3
330
1F
100
AcDbEntity
  8
0
  6
Continuous
 62
     7
370
     0
100
AcDbMText
 10
9.0316104912
 20
1.0943207896
 30
0.0
 40
0.0833333333
 41
0.0
 71
     1
 72
     1
  1
w w w . t h o r  l a b s . c o m
  7
SLDTEXTSTYLE1
 73
     1
 44
1.0
  0
MTEXT
  5
A4
330
1F
100
AcDbEntity
  8
0
  6
Continuous
 62
     7
370
     0
100
AcDbMText
 10
8.5315119501
 20
0.328719653
 30
0.0
 40
0.0833333333
 41
0.0
 71
     1
 72
     1
  1
ITEM #
  7
SLDTEXTSTYLE0
 73
     1
 44
1.0
  0
MTEXT
  5
A5
330
1F
100
AcDbEntity
  8
0
  6
Continuous
 62
     7
370
     0
100
AcDbMText
 10
10.0209370115
 20
0.328719653
 30
0.0
 40
0.0833333333
 41
0.0
 71
     1
 72
     1
  1
APPROX WEIGHT
  7
SLDTEXTSTYLE0
 73
     1
 44
1.0
  0
MTEXT
  5
A6
330
1F
100
AcDbEntity
  8
0
  6
Continuous
 62
     7
370
     0
100
AcDbMText
 10
9.5949135982
 20
0.5414715262
 30
0.0
 40
0.125
 41
0.0
 71
     2
 72
     1
  1
SEE TABLE
  7
SLDTEXTSTYLE0
 73
     1
 44
1.0
  0
MTEXT
  5
A8
330
1F
100
AcDbEntity
  8
0
  6
Continuous
 62
     7
370
     0
100
AcDbMText
 10
10.4826226539
 20
0.2019943461
 30
0.0
 40
0.125
 41
0.0
 71
     2
 72
     1
  1
58 g
  7
SLDTEXTSTYLE2
 73
     1
 44
1.0
  0
INSERT
  5
AE
330
1F
100
AcDbEntity
  8
0
  6
Continuous
 62
     7
370
     0
100
AcDbBlockReference
  2
SW_NOTE_0
 10
6.8835832285
 20
0.1754273811
 30
0.0
  0
INSERT
  5
B4
330
1F
100
AcDbEntity
  8
0
  6
Continuous
 62
     7
370
     0
100
AcDbBlockReference
  2
SW_NOTE_1
 10
6.8719828753
 20
1.2001390658
 30
0.0
  0
MTEXT
  5
B5
330
1F
100
AcDbEntity
  8
0
  6
Continuous
 62
     7
370
     0
100
AcDbMText
 10
7.3987149145
 20
0.9772495896
 30
0.0
 40
0.0833333333
 41
0.0
 71
     1
 72
     1
  1
NAME
  7
SLDTEXTSTYLE0
 73
     1
 44
1.0
  0
INSERT
  5
BC
330
1F
100
AcDbEntity
  8
0
  6
Continuous
 62
     7
370
     0
100
AcDbBlockReference
  2
SW_NOTE_2
 10
8.5688956024
 20
0.8252423426
 30
0.0
  0
MTEXT
  5
BD
330
1F
100
AcDbEntity
  8
0
  6
Continuous
 62
     7
370
     0
100
AcDbMText
 10
7.0281258754
 20
0.4200025137
 30
0.0
 40
0.0625
 41
0.0
 71
     1
 72
     1
  1
COPYRIGHT © 2015 BY THORLABS
  7
SLDTEXTSTYLE0
 73
     1
 44
1.0
  0
INSERT
  5
C3
330
1F
100
AcDbEntity
  8
0
  6
Continuous
 62
     7
370
     0
100
AcDbBlockReference
  2
SW_NOTE_3
 10
2.1096529316
 20
0.3219551564
 30
0.0
  0
INSERT
  5
D6
330
1F
100
AcDbEntity
  8
0
  6
Continuous
 62
     7
370
     0
100
AcDbBlockReference
  2
SW_NOTE_4
 10
0.1740530101
 20
1.6894205447
 30
0.0
  0
INSERT
  5
100
330
1F
100
AcDbEntity
  8
0
  6
Continuous
 62
     7
370
     0
100
AcDbBlockReference
  2
SW_TABLEANNOTATION_0
 10
0.0633547049
 20
8.4516924804
 30
0.0
  0
ARC
  5
101
330
1F
100
AcDbEntity
  8
0
  6
Continuous
 62
     7
370
     0
100
AcDbCircle
 10
2.7048955224
 20
4.2284328358
 30
0.0
 40
1.000179491924312
100
AcDbArc
 50
0.8593146732
 51
179.1406853268
  0
LINE
  5
102
330
1F
100
AcDbEntity
  8
0
  6
Continuous
 62
     7
370
     0
100
AcDbLine
 10
1.7048285086
 20
4.2434328355
 30
0.0
 11
1.6875061287
 21
4.2434328355
 31
0.0
  0
LINE
  5
103
330
1F
100
AcDbEntity
  8
0
  6
Continuous
 62
     7
370
     0
100
AcDbLine
 10
3.7222849161
 20
4.2434328355
 30
0.0
 11
3.7049625362
 21
4.2434328355
 31
0.0
  0
ARC
  5
104
330
1F
100
AcDbEntity
  8
0
  6
Continuous
 62
     7
370
     0
100
AcDbCircle
 10
2.7048955224
 20
4.2284328358
 30
0.0
 40
0.9500000000000001
100
AcDbArc
 50
0.9047077972
 51
179.0952922028
  0
LINE
  5
105
330
1F
100
AcDbEntity
  8
0
  6
Continuous
 62
     7
370
     0
100
AcDbLine
 10
1.7550139622
 20
4.2434328355
 30
0.0
 11
1.745012731
 21
4.2434328355
 31
0.0
  0
ARC
  5
106
330
1F
100
AcDbEntity
  8
0
  6
Continuous
 62
     7
370
     0
100
AcDbCircle
 10
2.7048955224
 20
4.2284328358
 30
0.0
 40
0.9600000000000013
100
AcDbArc
 50
0.8952829866
 51
179.1047170134
  0
LINE
  5
107
330
1F
100
AcDbEntity
  8
0
  6
Continuous
 62
     7
370
     0
100
AcDbLine
 10
3.6647783137
 20
4.2434328355
 30
0.0
 11
3.6547770826
 21
4.2434328355
 31
0.0
  0
ARC
  5
108
330
1F
100
AcDbEntity
  8
0
  6
Continuous
 62
     7
370
     0
100
AcDbCircle
 10
2.7048955224
 20
4.2284328358
 30
0.0
 40
1.000179491924312
100
AcDbArc
 50
180.8593146732
 51
359.1406853268
  0
LINE
  5
109
330
1F
100
AcDbEntity
  8
0
  6
Continuous
 62
     7
370
     0
100
AcDbLine
 10
3.7049625362
 20
4.2134328362
 30
0.0
 11
3.7222849161
 21
4.2134328362
 31
0.0
  0
LINE
  5
10A
330
1F
100
AcDbEntity
  8
0
  6
Continuous
 62
     7
370
     0
100
AcDbLine
 10
1.6875061287
 20
4.2134328362
 30
0.0
 11
1.7048285086
 21
4.2134328362
 31
0.0
  0
LINE
  5
10B
330
1F
100
AcDbEntity
  8
0
  6
Continuous
 62
     7
370
     0
100
AcDbLine
 10
1.745012731
 20
4.2434328355
 30
0.0
 11
1.7048285086
 21
4.2434328355
 31
0.0
  0
LINE
  5
10C
330
1F
100
AcDbEntity
  8
0
  6
Continuous
 62
     7
370
     0
100
AcDbLine
 10
3.7049625362
 20
4.2434328355
 30
0.0
 11
3.6647783137
 21
4.2434328355
 31
0.0
  0
ARC
  5
10D
330
1F
100
AcDbEntity
  8
0
  6
Continuous
 62
     7
370
     0
100
AcDbCircle
 10
2.7048955224
 20
4.2284328358
 30
0.0
 40
0.9500000000000001
100
AcDbArc
 50
180.9047077972
 51
359.0952922028
  0
ARC
  5
10E
330
1F
100
AcDbEntity
  8
0
  6
Continuous
 62
     7
370
     0
100
AcDbCircle
 10
2.7048955224
 20
4.2284328358
 30
0.0
 40
0.9600000000000013
100
AcDbArc
 50
180.8952829866
 51
359.1047170134
  0
LINE
  5
10F
330
1F
100
AcDbEntity
  8
0
  6
Continuous
 62
     7
370
     0
100
AcDbLine
 10
3.6547770826
 20
4.2134328362
 30
0.0
 11
3.6647783137
 21
4.2134328362
 31
0.0
  0
LINE
  5
110
330
1F
100
AcDbEntity
  8
0
  6
Continuous
 62
     7
370
     0
100
AcDbLine
 10
1.745012731
 20
4.2134328362
 30
0.0
 11
1.7550139622
 21
4.2134328362
 31
0.0
  0
LINE
  5
111
330
1F
100
AcDbEntity
  8
0
  6
Continuous
 62
     7
370
     0
100
AcDbLine
 10
3.6647783137
 20
4.2134328362
 30
0.0
 11
3.7049625362
 21
4.2134328362
 31
0.0
  0
LINE
  5
112
330
1F
100
AcDbEntity
  8
0
  6
Continuous
 62
     7
370
     0
100
AcDbLine
 10
1.7048285086
 20
4.2134328362
 30
0.0
 11
1.745012731
 21
4.2134328362
 31
0.0
  0
ARC
  5
113
330
1F
100
AcDbEntity
  8
0
  6
Continuous
 62
     7
370
     0
100
AcDbCircle
 10
2.7048955224
 20
4.2284328358
 30
0.0
 40
0.9500000000000001
100
AcDbArc
 50
359.0952922028
 51
0.9047077972
  0
ARC
  5
114
330
1F
100
AcDbEntity
  8
0
  6
Continuous
 62
     7
370
     0
100
AcDbCircle
 10
2.7048955224
 20
4.2284328358
 30
0.0
 40
0.9499999999999997
100
AcDbArc
 50
179.0952922028
 51
180.9047077972
  0
CIRCLE
  5
115
330
1F
100
AcDbEntity
  8
0
  6
Continuous
 62
     7
370
     0
100
AcDbCircle
 10
2.7048955224
 20
4.2284328358
 30
0.0
 40
1.0175
  0
CIRCLE
  5
116
330
1F
100
AcDbEntity
  8
0
  6
Continuous
 62
     7
370
     0
100
AcDbCircle
 10
2.7048955224
 20
4.2284328358
 30
0.0
 40
1.027500000000001
  0
CIRCLE
  5
117
330
1F
100
AcDbEntity
  8
0
  6
Continuous
 62
     7
370
     0
100
AcDbCircle
 10
2.7048955224
 20
4.2284328358
 30
0.0
 40
1.090000000000001
  0
CIRCLE
  5
118
330
1F
100
AcDbEntity
  8
0
  6
Continuous
 62
     7
370
     0
100
AcDbCircle
 10
2.7048955224
 20
4.2284328358
 30
0.0
 40
1.1
  0
DIMENSION
  5
119
330
1F
100
AcDbEntity
  8
0
  6
Continuous
 62
     7
370
     0
100
AcDbDimension
  2
_D
 10
1.9270780631
 20
3.4506153765
 30
0.0
 11
4.5928248146
 21
5.6976507102
 31
0.0
 70
   163
  1
<>
 71
     1
 42
-1.0
  3
SLDDIMSTYLE0
100
AcDbDiametricDimension
 15
3.4827129817
 25
5.0062502951
 35
0.0
 40
0.0
  0
LINE
  5
12A
330
1F
100
AcDbEntity
  8
0
  6
PHANTOM
 62
     7
370
    30
100
AcDbLine
 10
2.7048955224
 20
5.5924328358
 30
0.0
 11
2.7048955224
 21
2.8644328358
 31
0.0
  0
LINE
  5
12B
330
1F
100
AcDbEntity
  8
0
  6
Continuous
 62
     7
370
    30
100
AcDbLine
 10
2.7048955224
 20
5.5924328358
 30
0.0
 11
2.3548955224
 21
5.5924328358
 31
0.0
  0
SOLID
  5
12C
330
1F
100
AcDbEntity
  8
0
  6
Continuous
 62
     7
370
    30
100
AcDbTrace
 10
2.3548955224
 20
5.5924328358
 30
0.0
 11
2.5048955224
 21
5.5674328358
 31
0.0
 12
2.5048955224
 22
5.6174328358
 32
0.0
 13
2.5048955224
 23
5.6174328358
 33
0.0
  0
LINE
  5
12D
330
1F
100
AcDbEntity
  8
0
  6
Continuous
 62
     7
370
    30
100
AcDbLine
 10
2.7048955224
 20
2.8644328358
 30
0.0
 11
2.3548955224
 21
2.8644328358
 31
0.0
  0
SOLID
  5
12E
330
1F
100
AcDbEntity
  8
0
  6
Continuous
 62
     7
370
    30
100
AcDbTrace
 10
2.3548955224
 20
2.8644328358
 30
0.0
 11
2.5048955224
 21
2.8394328358
 31
0.0
 12
2.5048955224
 22
2.8894328358
 32
0.0
 13
2.5048955224
 23
2.8894328358
 33
0.0
  0
MTEXT
  5
12F
330
1F
100
AcDbEntity
  8
0
  6
Continuous
 62
     7
100
AcDbMText
 10
2.2038323463
 20
5.6643161459
 30
0.0
 40
0.1041666667
 41
0.0
 71
     1
 72
     1
  1
A
  7
SLDTEXTSTYLE0
 73
     1
 44
1.0
  0
MTEXT
  5
130
330
1F
100
AcDbEntity
  8
0
  6
Continuous
 62
     7
100
AcDbMText
 10
2.1785852069
 20
2.9250709658
 30
0.0
 40
0.1041666667
 41
0.0
 71
     1
 72
     1
  1
A
  7
SLDTEXTSTYLE0
 73
     1
 44
1.0
  0
LINE
  5
131
330
1F
100
AcDbEntity
  8
0
  6
Continuous
 62
     7
370
     0
100
AcDbLine
 10
8.4441152585
 20
7.4611758709
 30
0.0
 11
8.4441152585
 21
7.4530117898
 31
0.0
  0
LINE
  5
132
330
1F
100
AcDbEntity
  8
0
  6
Continuous
 62
     7
370
     0
100
AcDbLine
 10
9.214736382
 20
6.1181122113
 30
0.0
 11
9.2218063006
 21
6.1140295073
 31
0.0
  0
LINE
  5
133
330
1F
100
AcDbEntity
  8
0
  6
Continuous
 62
     7
370
     0
100
AcDbLine
 10
9.7718880207
 20
6.0594976608
 30
0.0
 11
10.3092891744
 21
6.3697327433
 31
0.0
  0
LINE
  5
134
330
1F
100
AcDbEntity
  8
0
  6
Continuous
 62
     7
370
     0
100
AcDbLine
 10
9.2093785685
 20
8.2750402405
 30
0.0
 11
8.6719774148
 21
7.964805158
 31
0.0
  0
LINE
  5
135
330
1F
100
AcDbEntity
  8
0
  6
Continuous
 62
     7
370
     0
100
AcDbLine
 10
10.5371513308
 20
6.8733620304
 30
0.0
 11
10.5371513308
 21
6.8815261115
 31
0.0
  0
LINE
  5
136
330
1F
100
AcDbEntity
  8
0
  6
Continuous
 62
     7
370
     0
100
AcDbLine
 10
9.7665302072
 20
8.21642569
 30
0.0
 11
9.7594602887
 21
8.220508394
 31
0.0
  0
LWPOLYLINE
  5
137
330
1F
100
AcDbEntity
  8
0
  6
Continuous
 62
     7
370
     0
100
AcDbPolyline
 90
       32
 70
   128
 43
0.0
 10
8.821116421
 20
7.9354309625
 10
8.8151970582
 20
7.9321926544
 10
8.8023011786
 20
7.9245819076
 10
8.7897476618
 20
7.9163924823
 10
8.7775449478
 20
7.9076298845
 10
8.7657012409
 20
7.8983000054
 10
8.7542245038
 20
7.8884091178
 10
8.7431224526
 20
7.8779638715
 10
8.7324025517
 20
7.8669712893
 10
8.7220720081
 20
7.8554387616
 10
8.7121377675
 20
7.8433740422
 10
8.7026065089
 20
7.8307852424
 10
8.6934846403
 20
7.817680826
 10
8.6847782947
 20
7.8040696034
 10
8.6764933255
 20
7.7899607259
 10
8.668635303
 20
7.7753636791
 10
8.6612095103
 20
7.7602882771
 10
8.6542209399
 20
7.7447446555
 10
8.6476742905
 20
7.7287432646
 10
8.6415739635
 20
7.7122948625
 10
8.6359240604
 20
7.695410508
 10
8.6307283797
 20
7.6781015529
 10
8.6259904146
 20
7.6603796343
 10
8.6217133505
 20
7.6422566673
 10
8.6179000631
 20
7.6237448363
 10
8.6145531161
 20
7.6048565873
 10
8.6116747598
 20
7.5856046195
 10
8.6092669294
 20
7.5660018763
 10
8.6073312436
 20
7.5460615372
 10
8.6058690039
 20
7.5257970087
 10
8.6048811934
 20
7.5052219151
 10
8.6043684763
 20
7.4843500895
  0
LINE
  5
138
330
1F
100
AcDbEntity
  8
0
  6
Continuous
 62
     7
370
     0
100
AcDbLine
 10
8.6043684763
 20
7.4843500895
 30
0.0
 11
8.5991907413
 21
7.4955032134
 31
0.0
  0
LWPOLYLINE
  5
139
330
1F
100
AcDbEntity
  8
0
  6
Continuous
 62
     7
370
     0
100
AcDbPolyline
 90
       28
 70
   128
 43
0.0
 10
8.5991907413
 20
7.4955032134
 10
8.5997077005
 20
7.5167428472
 10
8.600708144
 20
7.5376806486
 10
8.602191399
 20
7.558302536
 10
8.6041564679
 20
7.5785946403
 10
8.6066020292
 20
7.598543314
 10
8.609526438
 20
7.6181351408
 10
8.6129277275
 20
7.6373569442
 10
8.6168036103
 20
7.6561957966
 10
8.6211514796
 20
7.6746390282
 10
8.6259684113
 20
7.6926742348
 10
8.6312511657
 20
7.7102892871
 10
8.63699619
 20
7.727472338
 10
8.6431996204
 20
7.7442118312
 10
8.6498572847
 20
7.7604965086
 10
8.6569647055
 20
7.776315418
 10
8.6645171025
 20
7.7916579204
 10
8.6725093966
 20
7.8065136972
 10
8.6809362124
 20
7.8208727574
 10
8.6897918826
 20
7.8347254437
 10
8.6990704513
 20
7.8480624395
 10
8.7087656782
 20
7.8608747751
 10
8.7188710429
 20
7.8731538337
 10
8.729379749
 20
7.8848913569
 10
8.7402847289
 20
7.8960794508
 10
8.7515786485
 20
7.9067105909
 10
8.7632539122
 20
7.9167776271
 10
8.7662027886
 20
7.9191823742
  0
LWPOLYLINE
  5
13A
330
1F
100
AcDbEntity
  8
0
  6
Continuous
 62
     7
370
     0
100
AcDbPolyline
 90
        3
 70
   128
 43
0.0
 10
8.6097538773
 20
7.4812411637
 10
8.6097631372
 20
7.480211679
 10
8.609797343
 20
7.4771300499
  0
LINE
  5
13B
330
1F
100
AcDbEntity
  8
0
  6
Continuous
 62
     7
370
     0
100
AcDbLine
 10
8.5991907413
 20
7.4710069891
 30
0.0
 11
8.609797343
 21
7.4771300499
 31
0.0
  0
LWPOLYLINE
  5
13C
330
1F
100
AcDbEntity
  8
0
  6
Continuous
 62
     7
370
     0
100
AcDbPolyline
 90
       88
 70
   128
 43
0.0
 10
9.7795000157
 20
6.1639099063
 10
9.7677966059
 20
6.1596298514
 10
9.7530715506
 20
6.1548975158
 10
9.7380542888
 20
6.1507792523
 10
9.7227549202
 20
6.1472778305
 10
9.7071837343
 20
6.1443956054
 10
9.6913512035
 20
6.1421345154
 10
9.675267976
 20
6.1404960812
 10
9.6589448684
 20
6.1394814047
 10
9.6423928588
 20
6.1390911683
 10
9.6256230792
 20
6.1393256345
 10
9.6086468081
 20
6.1401846456
 10
9.5914754627
 20
6.1416676238
 10
9.5741205917
 20
6.1437735719
 10
9.5565938669
 20
6.1465010733
 10
9.5389070759
 20
6.1498482939
 10
9.5210721139
 20
6.1538129823
 10
9.5031009757
 20
6.1583924723
 10
9.4850057479
 20
6.1635836837
 10
9.4667986001
 20
6.1693831254
 10
9.4484917777
 20
6.175786897
 10
9.4300975928
 20
6.1827906915
 10
9.4116284163
 20
6.1903897986
 10
9.3930966697
 20
6.1985791076
 10
9.3745148163
 20
6.2073531107
 10
9.3558953534
 20
6.2167059071
 10
9.3372508034
 20
6.2266312066
 10
9.3185937056
 20
6.2371223338
 10
9.2999366078
 20
6.2481722332
 10
9.2812920578
 20
6.259773473
 10
9.2626725949
 20
6.2719182509
 10
9.2440907415
 20
6.2845983989
 10
9.2255589948
 20
6.2978053892
 10
9.2070898184
 20
6.3115303394
 10
9.1886956334
 20
6.3257640187
 10
9.170388811
 20
6.3404968544
 10
9.1521816633
 20
6.3557189381
 10
9.1340864354
 20
6.371420032
 10
9.1161152973
 20
6.3875895765
 10
9.0982803353
 20
6.4042166968
 10
9.0805935443
 20
6.4212902105
 10
9.0630668195
 20
6.4387986347
 10
9.0457119484
 20
6.4567301943
 10
9.0285406031
 20
6.4750728294
 10
9.0115643319
 20
6.4938142038
 10
8.9947945523
 20
6.512941713
 10
8.9782425427
 20
6.5324424929
 10
8.9619194351
 20
6.5523034283
 10
8.9458362076
 20
6.5725111617
 10
8.9300036769
 20
6.5930521026
 10
8.914432491
 20
6.6139124363
 10
8.8991331224
 20
6.635078133
 10
8.8841158605
 20
6.656534958
 10
8.8693908053
 20
6.6782684806
 10
8.8549678599
 20
6.7002640839
 10
8.8408567245
 20
6.7225069748
 10
8.8270668894
 20
6.744982194
 10
8.813607629
 20
6.7676746259
 10
8.8004879953
 20
6.7905690086
 10
8.7877168118
 20
6.8136499448
 10
8.7753026677
 20
6.8369019114
 10
8.7632539122
 20
6.8603092703
 10
8.7515786485
 20
6.883856279
 10
8.7402847289
 20
6.9075271011
 10
8.729379749
 20
6.9313058168
 10
8.7188710429
 20
6.9551764338
 10
8.7087656782
 20
6.9791228981
 10
8.6990704513
 20
7.0031291045
 10
8.6897918826
 20
7.0271789077
 10
8.6809362124
 20
7.0512561331
 10
8.6725093966
 20
7.0753445877
 10
8.6645171025
 20
7.0994280709
 10
8.6569647055
 20
7.1234903853
 10
8.6498572847
 20
7.147515348
 10
8.6431996204
 20
7.171486801
 10
8.63699619
 20
7.1953886225
 10
8.6312511657
 20
7.2192047373
 10
8.6259684113
 20
7.242919128
 10
8.6211514796
 20
7.2665158456
 10
8.6168036103
 20
7.2899790202
 10
8.6129277275
 20
7.3132928716
 10
8.609526438
 20
7.3364417203
 10
8.6066020292
 20
7.3594099976
 10
8.6041564679
 20
7.3821822562
 10
8.602191399
 20
7.4047431808
 10
8.600708144
 20
7.427077598
 10
8.5997077005
 20
7.4491704869
 10
8.5991907413
 20
7.4710069891
  0
LWPOLYLINE
  5
13D
330
1F
100
AcDbEntity
  8
0
  6
Continuous
 62
     7
370
     0
100
AcDbPolyline
 90
       41
 70
   128
 43
0.0
 10
8.632782997
 20
7.4679467359
 10
8.6332858671
 20
7.4879653315
 10
8.6342443656
 20
7.5076990273
 10
8.6356578484
 20
7.5271345664
 10
8.6375253659
 20
7.5462588925
 10
8.6398456637
 20
7.565059158
 10
8.642617183
 20
7.5835227334
 10
8.6458380619
 20
7.601637215
 10
8.6495061367
 20
7.6193904339
 10
8.6536189433
 20
7.6367704637
 10
8.6581737186
 20
7.6537656289
 10
8.663167403
 20
7.6703645122
 10
8.6685966417
 20
7.686555963
 10
8.6744577874
 20
7.7023291041
 10
8.6807469028
 20
7.7176733392
 10
8.6874597629
 20
7.7325783605
 10
8.6945918581
 20
7.7470341549
 10
8.7021383972
 20
7.7610310113
 10
8.7100943106
 20
7.7745595269
 10
8.7184542535
 20
7.7876106134
 10
8.72721261
 20
7.8001755032
 10
8.7363634964
 20
7.8122457556
 10
8.7459007651
 20
7.823813262
 10
8.7558180092
 20
7.8348702513
 10
8.7661085665
 20
7.8454092959
 10
8.776765524
 20
7.8554233156
 10
8.7877817225
 20
7.8649055833
 10
8.7991497615
 20
7.873849729
 10
8.810862004
 20
7.882249744
 10
8.8229105822
 20
7.8900999854
 10
8.8352874018
 20
7.8973951795
 10
8.8479841483
 20
7.9041304257
 10
8.8609922924
 20
7.9103011991
 10
8.8743030953
 20
7.9159033544
 10
8.8879076151
 20
7.9209331282
 10
8.9017967124
 20
7.9253871415
 10
8.9159610569
 20
7.9292624023
 10
8.930391133
 20
7.9325563071
 10
8.945077247
 20
7.9352666432
 10
8.960009533
 20
7.9373915898
 10
8.9733552707
 20
7.9387769977
  0
LINE
  5
13E
330
1F
100
AcDbEntity
  8
0
  6
Continuous
 62
     7
370
     0
100
AcDbLine
 10
8.632782997
 20
7.4679467359
 30
0.0
 11
8.6043684763
 21
7.4843500895
 31
0.0
  0
LWPOLYLINE
  5
13F
330
1F
100
AcDbEntity
  8
0
  6
Continuous
 62
     7
370
     0
100
AcDbPolyline
 90
       41
 70
   128
 43
0.0
 10
8.9860748747
 20
7.9364585509
 10
8.9759516627
 20
7.935366739
 10
8.9611759416
 20
7.9332654687
 10
8.9466437537
 20
7.9305850254
 10
8.9323648595
 20
7.9273272096
 10
8.9183488492
 20
7.9234942093
 10
8.9046051366
 20
7.9190885989
 10
8.8911429525
 20
7.9141133374
 10
8.8779713386
 20
7.9085717664
 10
8.8650991417
 20
7.9024676078
 10
8.8525350071
 20
7.8958049614
 10
8.8402873736
 20
7.8885883023
 10
8.828364467
 20
7.8808224772
 10
8.8167742953
 20
7.8725127022
 10
8.8055246429
 20
7.8636645584
 10
8.7946230657
 20
7.8542839886
 10
8.7840768855
 20
7.8443772931
 10
8.7738931855
 20
7.8339511257
 10
8.7640788056
 20
7.8230124891
 10
8.7546403376
 20
7.81156873
 10
8.7455841206
 20
7.7996275347
 10
8.7369162372
 20
7.7871969232
 10
8.7286425092
 20
7.7742852446
 10
8.7207684935
 20
7.7609011707
 10
8.7132994786
 20
7.747053691
 10
8.706240481
 20
7.7327521059
 10
8.6995962418
 20
7.7180060211
 10
8.6933712236
 20
7.7028253405
 10
8.6875696074
 20
7.6872202602
 10
8.6821952897
 20
7.6712012611
 10
8.6772518802
 20
7.6547791023
 10
8.672742699
 20
7.6379648136
 10
8.6686707748
 20
7.6207696882
 10
8.6650388424
 20
7.603205275
 10
8.6618493412
 20
7.585283371
 10
8.6591044133
 20
7.5670160133
 10
8.6568059023
 20
7.548415471
 10
8.6549553521
 20
7.529494237
 10
8.6535540056
 20
7.5102650196
 10
8.6526028039
 20
7.490740734
 10
8.6521023859
 20
7.4709344933
  0
LINE
  5
140
330
1F
100
AcDbEntity
  8
0
  6
Continuous
 62
     7
370
     0
100
AcDbLine
 10
8.6521023859
 20
7.4709344933
 30
0.0
 11
8.632782997
 21
7.4679467359
 31
0.0
  0
ARC
  5
141
330
1F
100
AcDbEntity
  8
0
  6
Continuous
 62
     7
370
     0
100
AcDbCircle
 10
9.5531865786
 20
7.4618211809
 30
0.0
 40
0.895737714714693
100
AcDbArc
 50
179.2165262291
 51
180.7834737709
  0
LINE
  5
142
330
1F
100
AcDbEntity
  8
0
  6
Continuous
 62
     7
370
     0
100
AcDbLine
 10
8.6521023859
 20
7.4709344933
 30
0.0
 11
8.6575326067
 21
7.4740692931
 31
0.0
  0
LWPOLYLINE
  5
143
330
1F
100
AcDbEntity
  8
0
  6
Continuous
 62
     7
370
     0
100
AcDbPolyline
 90
      102
 70
   128
 43
0.0
 10
8.6521023859
 20
7.446438269
 10
8.6526028039
 20
7.426054258
 10
8.6535540056
 20
7.4054317383
 10
8.6549553521
 20
7.3845845606
 10
8.6568059023
 20
7.3635267268
 10
8.6591044133
 20
7.3422723803
 10
8.6618493412
 20
7.3208357963
 10
8.6650388424
 20
7.2992313726
 10
8.6686707748
 20
7.2774736195
 10
8.672742699
 20
7.2555771504
 10
8.6772518802
 20
7.233556672
 10
8.6821952897
 20
7.2114269741
 10
8.6875696074
 20
7.1892029199
 10
8.6933712236
 20
7.1668994361
 10
8.6995962418
 20
7.1445315024
 10
8.706240481
 20
7.1221141423
 10
8.7132994786
 20
7.0996624121
 10
8.7207684935
 20
7.0771913913
 10
8.7286425092
 20
7.0547161724
 10
8.7369162372
 20
7.0322518507
 10
8.7455841206
 20
7.0098135142
 10
8.7546403376
 20
6.9874162332
 10
8.7640788056
 20
6.9650750509
 10
8.7738931855
 20
6.9428049725
 10
8.7840768855
 20
6.9206209554
 10
8.7946230657
 20
6.8985378994
 10
8.8055246429
 20
6.8765706364
 10
8.8167742953
 20
6.8547339205
 10
8.828364467
 20
6.8330424181
 10
8.8402873736
 20
6.8115106981
 10
8.8525350071
 20
6.7901532222
 10
8.8650991417
 20
6.7689843349
 10
8.8779713386
 20
6.748018254
 10
8.8911429525
 20
6.7272690614
 10
8.9046051366
 20
6.706750693
 10
8.9183488492
 20
6.6864769297
 10
8.9323648595
 20
6.6664613884
 10
8.9466437537
 20
6.6467175122
 10
8.9611759416
 20
6.627258562
 10
8.9759516627
 20
6.6080976071
 10
8.9909609931
 20
6.589247517
 10
9.0061938518
 20
6.570720952
 10
9.0216400079
 20
6.5525303554
 10
9.037289087
 20
6.5346879448
 10
9.0531305786
 20
6.5172057038
 10
9.0691538429
 20
6.5000953742
 10
9.0853481179
 20
6.4833684481
 10
9.1017025271
 20
6.46703616
 10
9.118206086
 20
6.4511094792
 10
9.1348477102
 20
6.4355991029
 10
9.1516162225
 20
6.4205154483
 10
9.1685003604
 20
6.4058686464
 10
9.1854887839
 20
6.3916685345
 10
9.2025700829
 20
6.37792465
 10
9.2197327848
 20
6.3646462239
 10
9.2369653624
 20
6.3518421745
 10
9.2542562417
 20
6.3395211015
 10
9.2715938094
 20
6.3276912803
 10
9.2889664208
 20
6.3163606562
 10
9.3063624078
 20
6.3055368395
 10
9.3237700865
 20
6.2952270997
 10
9.3411777652
 20
6.2854383614
 10
9.3585737522
 20
6.2761771991
 10
9.3759463636
 20
6.267449833
 10
9.3932839312
 20
6.2592621247
 10
9.4105748105
 20
6.2516195734
 10
9.4278073882
 20
6.2445273122
 10
9.4449700901
 20
6.2379901045
 10
9.462051389
 20
6.232012341
 10
9.4790398125
 20
6.2265980366
 10
9.4959239505
 20
6.2217508278
 10
9.5126924627
 20
6.2174739702
 10
9.5293340869
 20
6.2137703362
 10
9.5458376459
 20
6.2106424134
 10
9.562192055
 20
6.2080923027
 10
9.5783863301
 20
6.2061217167
 10
9.5944095944
 20
6.2047319791
 10
9.610251086
 20
6.2039240232
 10
9.6259001651
 20
6.2036983917
 10
9.6413463212
 20
6.2040552361
 10
9.6565791799
 20
6.2049943168
 10
9.6715885102
 20
6.206515003
 10
9.6863642313
 20
6.2086162734
 10
9.7008964192
 20
6.2112967166
 10
9.7151753135
 20
6.2145545324
 10
9.7291913238
 20
6.2183875327
 10
9.7429350364
 20
6.2227931431
 10
9.7563972205
 20
6.2277684046
 10
9.7695688343
 20
6.2333099757
 10
9.7824410313
 20
6.2394141342
 10
9.7950051658
 20
6.2460767806
 10
9.8072527994
 20
6.2532934398
 10
9.819175706
 20
6.2610592648
 10
9.8307658777
 20
6.2693690398
 10
9.84201553
 20
6.2782171836
 10
9.8529171073
 20
6.2875977535
 10
9.8634632875
 20
6.2975044489
 10
9.8736469875
 20
6.3079306163
 10
9.8834613673
 20
6.318869253
 10
9.8928998354
 20
6.330313012
 10
9.9019560523
 20
6.3422542074
 10
9.9044147236
 20
6.3456749091
  0
LINE
  5
144
330
1F
100
AcDbEntity
  8
0
  6
Continuous
 62
     7
370
     0
100
AcDbLine
 10
8.6575326067
 20
7.4495730687
 30
0.0
 11
8.6521023859
 21
7.446438269
 31
0.0
  0
LWPOLYLINE
  5
145
330
1F
100
AcDbEntity
  8
0
  6
Continuous
 62
     7
370
     0
100
AcDbPolyline
 90
      117
 70
   128
 43
0.0
 10
9.8237321851
 20
6.2642330478
 10
9.8114299111
 20
6.2588995941
 10
9.7979091283
 20
6.2537195305
 10
9.7840986159
 20
6.2491198827
 10
9.770007839
 20
6.2451038029
 10
9.7556464546
 20
6.2416740436
 10
9.7410243053
 20
6.2388329553
 10
9.7261514124
 20
6.2365824853
 10
9.7110379691
 20
6.2349241758
 10
9.6956943334
 20
6.2338591635
 10
9.680131021
 20
6.2333881781
 10
9.6643586982
 20
6.2335115425
 10
9.6483881746
 20
6.2342291722
 10
9.6322303956
 20
6.2355405753
 10
9.615896435
 20
6.237444853
 10
9.5993974872
 20
6.2399407002
 10
9.5827448597
 20
6.2430264065
 10
9.5659499655
 20
6.246699857
 10
9.5490243149
 20
6.2509585341
 10
9.5319795079
 20
6.2557995192
 10
9.5148272262
 20
6.2612194945
 10
9.4975792251
 20
6.2672147453
 10
9.4802473256
 20
6.2737811629
 10
9.4628434059
 20
6.2809142469
 10
9.445379394
 20
6.2886091088
 10
9.4278672588
 20
6.2968604747
 10
9.4103190022
 20
6.3056626897
 10
9.3927466508
 20
6.3150097212
 10
9.3751622481
 20
6.3248951631
 10
9.3575778453
 20
6.3353122405
 10
9.340005494
 20
6.346253814
 10
9.3224572374
 20
6.3577123848
 10
9.3049451021
 20
6.3696800998
 10
9.2874810902
 20
6.382148757
 10
9.2700771706
 20
6.3951098108
 10
9.252745271
 20
6.4085543785
 10
9.2354972699
 20
6.4224732458
 10
9.2183449882
 20
6.4368568735
 10
9.2013001813
 20
6.4516954037
 10
9.1843745307
 20
6.4669786667
 10
9.1675796365
 20
6.4826961884
 10
9.150927009
 20
6.4988371965
 10
9.1344280612
 20
6.5153906289
 10
9.1180941005
 20
6.5323451408
 10
9.1019363215
 20
6.5496891122
 10
9.0859657979
 20
6.5674106566
 10
9.0701934752
 20
6.5854976284
 10
9.0546301627
 20
6.6039376318
 10
9.039286527
 20
6.622718029
 10
9.0241730837
 20
6.6418259486
 10
9.0093001909
 20
6.6612482952
 10
8.9946780416
 20
6.6809717576
 10
8.9803166572
 20
6.7009828184
 10
8.9662258802
 20
6.721267763
 10
8.9524153678
 20
6.7418126891
 10
8.938894585
 20
6.7626035162
 10
8.9256727983
 20
6.7836259953
 10
8.9127590692
 20
6.8048657187
 10
8.9001622481
 20
6.8263081297
 10
8.8878909683
 20
6.8479385328
 10
8.8759536398
 20
6.8697421035
 10
8.8643584441
 20
6.8917038989
 10
8.8531133277
 20
6.9138088673
 10
8.8422259976
 20
6.9360418592
 10
8.8317039154
 20
6.9583876371
 10
8.8215542924
 20
6.9808308864
 10
8.8117840846
 20
7.0033562256
 10
8.802399988
 20
7.0259482169
 10
8.7934084342
 20
7.048591377
 10
8.7848155853
 20
7.0712701873
 10
8.7766273305
 20
7.0939691049
 10
8.7688492817
 20
7.1166725731
 10
8.7614867694
 20
7.1393650321
 10
8.7545448398
 20
7.1620309296
 10
8.7480282502
 20
7.1846547315
 10
8.741941467
 20
7.2072209327
 10
8.7362886617
 20
7.2297140673
 10
8.7310737084
 20
7.2521187197
 10
8.7263001813
 20
7.2744195348
 10
8.7219713518
 20
7.2966012289
 10
8.7180901867
 20
7.3186485996
 10
8.7146593459
 20
7.3405465369
 10
8.7116811809
 20
7.3622800328
 10
8.7091577327
 20
7.3838341925
 10
8.7070907306
 20
7.4051942438
 10
8.7054815915
 20
7.4263455474
 10
8.7043314179
 20
7.4472736075
 10
8.7036409984
 20
7.467964081
 10
8.7034108059
 20
7.4884027875
 10
8.7036409984
 20
7.5085757195
 10
8.7043314179
 20
7.5284690515
 10
8.7054815915
 20
7.5480691495
 10
8.7070907306
 20
7.5673625807
 10
8.7091577327
 20
7.5863361222
 10
8.7116811809
 20
7.6049767705
 10
8.7146593459
 20
7.6232717503
 10
8.7180901867
 20
7.6412085232
 10
8.7219713518
 20
7.6587747961
 10
8.7263001813
 20
7.67595853
 10
8.7310737084
 20
7.692747948
 10
8.7362886617
 20
7.7091315435
 10
8.741941467
 20
7.725098088
 10
8.7480282502
 20
7.7406366388
 10
8.7545448398
 20
7.7557365467
 10
8.7614867694
 20
7.7703874627
 10
8.7688492817
 20
7.7845793461
 10
8.7766273305
 20
7.7983024702
 10
8.7848155853
 20
7.8115474301
 10
8.7934084342
 20
7.8243051483
 10
8.802399988
 20
7.8365668812
 10
8.8117840846
 20
7.8483242253
 10
8.8215542924
 20
7.8595691227
 10
8.8317039154
 20
7.8702938666
 10
8.8422259976
 20
7.880491107
 10
8.8531133277
 20
7.8901538551
 10
8.8643584441
 20
7.8992754886
 10
8.8752001495
 20
7.9073167576
  0
LWPOLYLINE
  5
146
330
1F
100
AcDbEntity
  8
0
  6
Continuous
 62
     7
370
     0
100
AcDbPolyline
 90
       93
 70
   128
 43
0.0
 10
8.6043684763
 20
7.4598538651
 10
8.6048811934
 20
7.438390069
 10
8.6058690039
 20
7.4166744737
 10
8.6073312436
 20
7.3947216791
 10
8.6092669294
 20
7.3725464449
 10
8.6116747598
 20
7.3501636798
 10
8.6145531161
 20
7.3275884325
 10
8.6179000631
 20
7.3048358808
 10
8.6217133505
 20
7.2819213219
 10
8.6259904146
 20
7.2588601618
 10
8.6307283797
 20
7.2356679052
 10
8.6359240604
 20
7.2123601448
 10
8.6415739635
 20
7.1889525509
 10
8.6476742905
 20
7.1654608613
 10
8.6542209399
 20
7.1419008698
 10
8.6612095103
 20
7.1182884166
 10
8.668635303
 20
7.0946393768
 10
8.6764933255
 20
7.0709696504
 10
8.6847782947
 20
7.0472951511
 10
8.6934846403
 20
7.0236317958
 10
8.7026065089
 20
6.9999954942
 10
8.7121377675
 20
6.9764021373
 10
8.7220720081
 20
6.9528675878
 10
8.7324025517
 20
6.9294076685
 10
8.7431224526
 20
6.906038152
 10
8.7542245038
 20
6.8827747504
 10
8.7657012409
 20
6.8596331042
 10
8.7775449478
 20
6.8366287721
 10
8.7897476618
 20
6.8137772206
 10
8.8023011786
 20
6.7910938133
 10
8.8151970582
 20
6.7685938008
 10
8.8284266303
 20
6.7462923106
 10
8.8419810004
 20
6.7242043365
 10
8.8558510555
 20
6.7023447288
 10
8.8700274704
 20
6.6807281843
 10
8.8845007139
 20
6.6593692363
 10
8.8992610553
 20
6.638282245
 10
8.9142985708
 20
6.6174813878
 10
8.9296031504
 20
6.5969806496
 10
8.9451645044
 20
6.5767938135
 10
8.9609721704
 20
6.5569344518
 10
8.9770155205
 20
6.5374159164
 10
8.9932837685
 20
6.5182513301
 10
9.0097659766
 20
6.4994535777
 10
9.0264510636
 20
6.4810352974
 10
9.0433278116
 20
6.4630088724
 10
9.060384874
 20
6.4453864223
 10
9.0776107827
 20
6.4281797951
 10
9.0949939564
 20
6.4114005593
 10
9.112522708
 20
6.3950599959
 10
9.1301852524
 20
6.3791690912
 10
9.1479697146
 20
6.363738529
 10
9.1658641377
 20
6.3487786838
 10
9.1838564908
 20
6.3342996133
 10
9.2019346771
 20
6.3203110523
 10
9.2200865422
 20
6.3068224056
 10
9.2382998822
 20
6.293842742
 10
9.2565624517
 20
6.281380788
 10
9.2748619724
 20
6.2694449222
 10
9.293186141
 20
6.2580431693
 10
9.3115226378
 20
6.247183195
 10
9.3298591345
 20
6.2368723008
 10
9.3481833031
 20
6.2271174189
 10
9.3664828238
 20
6.2179251079
 10
9.3847453933
 20
6.2093015479
 10
9.4029587333
 20
6.2012525368
 10
9.4211105985
 20
6.1937834861
 10
9.4391887848
 20
6.1868994175
 10
9.4571811378
 20
6.1806049593
 10
9.4750755609
 20
6.1749043434
 10
9.4928600231
 20
6.1698014026
 10
9.5105225675
 20
6.1652995676
 10
9.5280513191
 20
6.1614018652
 10
9.5454344928
 20
6.1581109158
 10
9.5626604016
 20
6.1554289321
 10
9.5797174639
 20
6.1533577173
 10
9.5965942119
 20
6.1518986638
 10
9.6132792989
 20
6.1510527526
 10
9.6297615071
 20
6.1508205525
 10
9.646029755
 20
6.1512022196
 10
9.6620731052
 20
6.1521974972
 10
9.6778807712
 20
6.1538057163
 10
9.6934421251
 20
6.1560257955
 10
9.7087467047
 20
6.1588562422
 10
9.7237842202
 20
6.1622951536
 10
9.7385445616
 20
6.1663402174
 10
9.7530178052
 20
6.1709887141
 10
9.76719422
 20
6.1762375184
 10
9.7810642751
 20
6.1820831014
 10
9.7946186452
 20
6.1885215329
 10
9.8078482173
 20
6.1955484843
 10
9.8207440969
 20
6.2031592311
 10
9.8210322222
 20
6.2033383157
  0
LINE
  5
147
330
1F
100
AcDbEntity
  8
0
  6
Continuous
 62
     7
370
     0
100
AcDbLine
 10
8.5991907413
 20
7.4710069891
 30
0.0
 11
8.6043684763
 21
7.4598538651
 31
0.0
  0
LINE
  5
148
330
1F
100
AcDbEntity
  8
0
  6
Continuous
 62
     7
370
     0
100
AcDbLine
 10
8.6043684763
 20
7.4598538651
 30
0.0
 11
8.632782997
 21
7.4434505115
 31
0.0
  0
LWPOLYLINE
  5
149
330
1F
100
AcDbEntity
  8
0
  6
Continuous
 62
     7
370
     0
100
AcDbPolyline
 90
      102
 70
   128
 43
0.0
 10
9.9000616131
 20
6.333500594
 10
9.8958326655
 20
6.3275656355
 10
9.8866817792
 20
6.3154953831
 10
9.8771445104
 20
6.3039278768
 10
9.8672272663
 20
6.2928708874
 10
9.856936709
 20
6.2823318429
 10
9.8462797515
 20
6.2723178231
 10
9.835263553
 20
6.2628355554
 10
9.8238955141
 20
6.2538914098
 10
9.8121832715
 20
6.2454913948
 10
9.8001346934
 20
6.2376411533
 10
9.7877578738
 20
6.2303459592
 10
9.7750611272
 20
6.2236107131
 10
9.7620529831
 20
6.2174399397
 10
9.7487421802
 20
6.2118377843
 10
9.7351376604
 20
6.2068080105
 10
9.7212485631
 20
6.2023539972
 10
9.7070842187
 20
6.1984787365
 10
9.6926541425
 20
6.1951848317
 10
9.6779680285
 20
6.1924744956
 10
9.6630357425
 20
6.1903495489
 10
9.6478673159
 20
6.1888114193
 10
9.6324729384
 20
6.1878611399
 10
9.6168629519
 20
6.1874993492
 10
9.6010478427
 20
6.1877262901
 10
9.5850382354
 20
6.1885418103
 10
9.5688448847
 20
6.1899453619
 10
9.5524786693
 20
6.191936002
 10
9.5359505835
 20
6.1945123934
 10
9.5192717308
 20
6.1976728052
 10
9.5024533157
 20
6.2014151143
 10
9.4855066365
 20
6.2057368067
 10
9.4684430777
 20
6.2106349792
 10
9.4512741024
 20
6.2161063413
 10
9.4340112443
 20
6.2221472173
 10
9.4166661004
 20
6.2287535492
 10
9.3992503229
 20
6.2359208989
 10
9.3817756114
 20
6.2436444515
 10
9.3642537051
 20
6.2519190184
 10
9.3466963749
 20
6.260739041
 10
9.3291154156
 20
6.270098594
 10
9.3115226378
 20
6.27999139
 10
9.2939298599
 20
6.290410783
 10
9.2763489006
 20
6.3013497735
 10
9.2587915704
 20
6.3128010128
 10
9.2412696641
 20
6.3247568083
 10
9.2237949526
 20
6.3372091282
 10
9.2063791751
 20
6.3501496072
 10
9.1890340312
 20
6.3635695522
 10
9.1717711732
 20
6.3774599478
 10
9.1546021978
 20
6.3918114627
 10
9.1375386391
 20
6.4066144558
 10
9.1205919598
 20
6.4218589827
 10
9.1037735447
 20
6.4375348024
 10
9.087094692
 20
6.4536313841
 10
9.0705666063
 20
6.4701379143
 10
9.0542003908
 20
6.4870433044
 10
9.0380070402
 20
6.5043361975
 10
9.0219974328
 20
6.5220049765
 10
9.0061823237
 20
6.5400377718
 10
8.9905723371
 20
6.5584224694
 10
8.9751779597
 20
6.5771467187
 10
8.960009533
 20
6.596197941
 10
8.945077247
 20
6.615563338
 10
8.930391133
 20
6.6352299004
 10
8.9159610569
 20
6.6551844165
 10
8.9017967124
 20
6.6754134813
 10
8.8879076151
 20
6.695903505
 10
8.8743030953
 20
6.716640723
 10
8.8609922924
 20
6.7376112042
 10
8.8479841483
 20
6.7588008611
 10
8.8352874018
 20
6.7801954588
 10
8.8229105822
 20
6.8017806247
 10
8.810862004
 20
6.8235418583
 10
8.7991497615
 20
6.8454645408
 10
8.7877817225
 20
6.8675339448
 10
8.776765524
 20
6.8897352445
 10
8.7661085665
 20
6.9120535255
 10
8.7558180092
 20
6.9344737946
 10
8.7459007651
 20
6.9569809904
 10
8.7363634964
 20
6.9795599928
 10
8.72721261
 20
7.0021956336
 10
8.7184542535
 20
7.0248727067
 10
8.7100943106
 20
7.0475759778
 10
8.7021383972
 20
7.0702901954
 10
8.6945918581
 20
7.0930001004
 10
8.6874597629
 20
7.1156904367
 10
8.6807469028
 20
7.1383459613
 10
8.6744577874
 20
7.1609514545
 10
8.6685966417
 20
7.1834917303
 10
8.663167403
 20
7.2059516467
 10
8.6581737186
 20
7.2283161153
 10
8.6536189433
 20
7.2505701122
 10
8.6495061367
 20
7.2726986873
 10
8.6458380619
 20
7.2946869752
 10
8.642617183
 20
7.3165202045
 10
8.6398456637
 20
7.3381837079
 10
8.6375253659
 20
7.3596629323
 10
8.6356578484
 20
7.3809434482
 10
8.6342443656
 20
7.4020109598
 10
8.6332858671
 20
7.4228513143
 10
8.632782997
 20
7.4434505115
  0
LINE
  5
14A
330
1F
100
AcDbEntity
  8
0
  6
Continuous
 62
     7
370
     0
100
AcDbLine
 10
8.632782997
 20
7.4434505115
 30
0.0
 11
8.6521023859
 21
7.446438269
 31
0.0
  0
LINE
  5
14B
330
1F
100
AcDbEntity
  8
0
  6
Continuous
 62
     7
370
     0
100
AcDbLine
 10
8.609797343
 20
7.4771300499
 30
0.0
 11
8.6575326067
 21
7.4495730687
 31
0.0
  0
LWPOLYLINE
  5
14C
330
1F
100
AcDbEntity
  8
0
  6
Continuous
 62
     7
370
     0
100
AcDbPolyline
 90
      241
 70
   128
 43
0.0
 10
8.4441152585
 20
7.4530117898
 10
8.444379374
 20
7.4295610633
 10
8.4451715396
 20
7.4058214675
 10
8.4464912124
 20
7.3818092723
 10
8.4483374878
 20
7.3575409344
 10
8.4507091007
 20
7.3330330861
 10
8.4536044255
 20
7.3083025239
 10
8.457021478
 20
7.283366197
 10
8.4609579163
 20
7.2582411953
 10
8.4654110426
 20
7.2329447383
 10
8.4703778049
 20
7.2074941631
 10
8.4758547992
 20
7.181906912
 10
8.4818382719
 20
7.1562005213
 10
8.4883241222
 20
7.130392609
 10
8.4953079051
 20
7.1045008624
 10
8.5027848341
 20
7.0785430265
 10
8.510749785
 20
7.0525368915
 10
8.519197299
 20
7.0265002806
 10
8.5281215866
 20
7.0004510382
 10
8.5375165316
 20
6.9744070169
 10
8.5473756951
 20
6.9483860662
 10
8.55769232
 20
6.9224060193
 10
8.5684593361
 20
6.8964846819
 10
8.5796693639
 20
6.8706398191
 10
8.5913147209
 20
6.8448891436
 10
8.6033874257
 20
6.8192503036
 10
8.6158792045
 20
6.7937408709
 10
8.6287814959
 20
6.7683783281
 10
8.6420854574
 20
6.7431800577
 10
8.655781971
 20
6.7181633291
 10
8.66986165
 20
6.6933452877
 10
8.6843148447
 20
6.6687429424
 10
8.6991316497
 20
6.6443731545
 10
8.7143019102
 20
6.6202526259
 10
8.7298152295
 20
6.5963978874
 10
8.7456609753
 20
6.572825288
 10
8.7618282878
 20
6.5495509832
 10
8.7783060867
 20
6.526590924
 10
8.7950830791
 20
6.503960846
 10
8.8121477666
 20
6.4816762589
 10
8.8294884542
 20
6.4597524353
 10
8.8470932573
 20
6.4382044007
 10
8.8649501105
 20
6.4170469231
 10
8.8830467756
 20
6.3962945028
 10
8.90137085
 20
6.3759613624
 10
8.9199097754
 20
6.3560614372
 10
8.938650846
 20
6.3366083658
 10
8.9575812177
 20
6.3176154801
 10
8.9766879166
 20
6.2990957971
 10
8.9959578479
 20
6.2810620091
 10
9.0153778049
 20
6.2635264757
 10
9.0349344782
 20
6.2465012148
 10
9.0546144645
 20
6.2299978946
 10
9.0744042763
 20
6.2140278258
 10
9.0942903505
 20
6.1986019534
 10
9.1142590583
 20
6.1837308495
 10
9.1342967141
 20
6.1694247061
 10
9.154389585
 20
6.1556933278
 10
9.1745239005
 20
6.1425461255
 10
9.1946858615
 20
6.1299921095
 10
9.21486165
 20
6.1180398839
 10
9.2350374384
 20
6.10669764
 10
9.2551993994
 20
6.0959731513
 10
9.2753337149
 20
6.0858737678
 10
9.2954265858
 20
6.0764064111
 10
9.3154642416
 20
6.0675775696
 10
9.3354329494
 20
6.0593932942
 10
9.3553190236
 20
6.051859194
 10
9.3751088354
 20
6.0449804325
 10
9.3947888218
 20
6.0387617241
 10
9.414345495
 20
6.0332073307
 10
9.433765452
 20
6.028321059
 10
9.4530353833
 20
6.0241062579
 10
9.4721420822
 20
6.020565816
 10
9.4910724539
 20
6.0177021597
 10
9.5098135245
 20
6.0155172515
 10
9.5283524499
 20
6.0140125891
 10
9.5466765243
 20
6.0131892035
 10
9.5647731894
 20
6.013047659
 10
9.5826300426
 20
6.0135880528
 10
9.6002348457
 20
6.0148100143
 10
9.6175755333
 20
6.0167127062
 10
9.6346402209
 20
6.0192948245
 10
9.6514172132
 20
6.0225545994
 10
9.6678950121
 20
6.0264897969
 10
9.6840623246
 20
6.03109772
 10
9.6999080705
 20
6.0363752107
 10
9.7154213897
 20
6.042318652
 10
9.7305916502
 20
6.0489239707
 10
9.7454084552
 20
6.0561866397
 10
9.75986165
 20
6.0641016815
 10
9.7739413289
 20
6.0726636717
 10
9.7876378426
 20
6.0818667422
 10
9.800941804
 20
6.0917045857
 10
9.8138440954
 20
6.1021704598
 10
9.8263358742
 20
6.1132571919
 10
9.838408579
 20
6.1249571834
 10
9.850053936
 20
6.137262416
 10
9.8612639639
 20
6.1501644562
 10
9.8720309799
 20
6.1636544615
 10
9.8823476049
 20
6.1777231866
 10
9.8922067683
 20
6.1923609896
 10
9.9016017133
 20
6.2075578383
 10
9.9105260009
 20
6.2233033176
 10
9.9189735149
 20
6.2395866364
 10
9.9269384658
 20
6.2563966348
 10
9.9344153949
 20
6.2737217922
 10
9.9413991777
 20
6.2915502347
 10
9.947885028
 20
6.3098697437
 10
9.9538685007
 20
6.3286677638
 10
9.959345495
 20
6.3479314119
 10
9.9643122573
 20
6.3676474855
 10
9.9687653836
 20
6.3878024723
 10
9.9727018219
 20
6.408382559
 10
9.9761188744
 20
6.4293736411
 10
9.9790141992
 20
6.4507613324
 10
9.9813858121
 20
6.4725309747
 10
9.9832320876
 20
6.4946676484
 10
9.9845517603
 20
6.5171561819
 10
9.9853439259
 20
6.5399811628
 10
9.9856080415
 20
6.5631269479
 10
9.9853439259
 20
6.5865776744
 10
9.9845517603
 20
6.6103172702
 10
9.9832320876
 20
6.6343294655
 10
9.9813858121
 20
6.6585978034
 10
9.9790141992
 20
6.6831056517
 10
9.9761188744
 20
6.7078362138
 10
9.9727018219
 20
6.7327725408
 10
9.9687653836
 20
6.7578975425
 10
9.9643122573
 20
6.7831939994
 10
9.959345495
 20
6.8086445747
 10
9.9538685007
 20
6.8342318258
 10
9.947885028
 20
6.8599382164
 10
9.9413991777
 20
6.8857461287
 10
9.9344153949
 20
6.9116378753
 10
9.9269384658
 20
6.9375957112
 10
9.9189735149
 20
6.9636018463
 10
9.9105260009
 20
6.9896384571
 10
9.9016017133
 20
7.0156876996
 10
9.8922067683
 20
7.0417317208
 10
9.8823476049
 20
7.0677526716
 10
9.8720309799
 20
7.0937327184
 10
9.8612639639
 20
7.1196540558
 10
9.850053936
 20
7.1454989187
 10
9.838408579
 20
7.1712495942
 10
9.8263358742
 20
7.1968884341
 10
9.8138440954
 20
7.2223978669
 10
9.800941804
 20
7.2477604096
 10
9.7876378426
 20
7.2729586801
 10
9.7739413289
 20
7.2979754086
 10
9.75986165
 20
7.3227934501
 10
9.7454084552
 20
7.3473957953
 10
9.7305916502
 20
7.3717655832
 10
9.7154213897
 20
7.3958861119
 10
9.6999080705
 20
7.4197408503
 10
9.6840623246
 20
7.4433134497
 10
9.6678950121
 20
7.4665877545
 10
9.6514172132
 20
7.4895478138
 10
9.6346402209
 20
7.5121778917
 10
9.6175755333
 20
7.5344624789
 10
9.6002348457
 20
7.5563863025
 10
9.5826300426
 20
7.5779343371
 10
9.5647731894
 20
7.5990918146
 10
9.5466765243
 20
7.619844235
 10
9.5283524499
 20
7.6401773754
 10
9.5098135245
 20
7.6600773005
 10
9.4910724539
 20
7.679530372
 10
9.4721420822
 20
7.6985232576
 10
9.4530353833
 20
7.7170429406
 10
9.433765452
 20
7.7350767286
 10
9.414345495
 20
7.752612262
 10
9.3947888218
 20
7.769637523
 10
9.3751088354
 20
7.7861408431
 10
9.3553190236
 20
7.8021109119
 10
9.3354329494
 20
7.8175367844
 10
9.3154642416
 20
7.8324078882
 10
9.2954265858
 20
7.8467140317
 10
9.2753337149
 20
7.86044541
 10
9.2551993994
 20
7.8735926123
 10
9.2350374384
 20
7.8861466282
 10
9.21486165
 20
7.8980988538
 10
9.1946858615
 20
7.9094410977
 10
9.1745239005
 20
7.9201655864
 10
9.154389585
 20
7.93026497
 10
9.1342967141
 20
7.9397323267
 10
9.1142590583
 20
7.9485611682
 10
9.0942903505
 20
7.9567454435
 10
9.0744042763
 20
7.9642795437
 10
9.0546144645
 20
7.9711583052
 10
9.0349344782
 20
7.9773770137
 10
9.0153778049
 20
7.9829314071
 10
8.9959578479
 20
7.9878176787
 10
8.9766879166
 20
7.9920324798
 10
8.9575812177
 20
7.9955729218
 10
8.938650846
 20
7.9984365781
 10
8.9199097754
 20
8.0006214862
 10
8.90137085
 20
8.0021261487
 10
8.8830467756
 20
8.0029495343
 10
8.8649501105
 20
8.0030910787
 10
8.8470932573
 20
8.002550685
 10
8.8294884542
 20
8.0013287234
 10
8.8121477666
 20
7.9994260315
 10
8.7950830791
 20
7.9968439133
 10
8.7783060867
 20
7.9935841384
 10
8.7618282878
 20
7.9896489408
 10
8.7456609753
 20
7.9850410177
 10
8.7298152295
 20
7.979763527
 10
8.7143019102
 20
7.9738200857
 10
8.6991316497
 20
7.9672147671
 10
8.6843148447
 20
7.9599520981
 10
8.66986165
 20
7.9520370562
 10
8.655781971
 20
7.9434750661
 10
8.6420854574
 20
7.9342719956
 10
8.6287814959
 20
7.9244341521
 10
8.6158792045
 20
7.9139682779
 10
8.6033874257
 20
7.9028815459
 10
8.5913147209
 20
7.8911815543
 10
8.5796693639
 20
7.8788763217
 10
8.5684593361
 20
7.8659742816
 10
8.55769232
 20
7.8524842762
 10
8.5473756951
 20
7.8384155511
 10
8.5375165316
 20
7.8237777482
 10
8.5281215866
 20
7.8085808995
 10
8.519197299
 20
7.7928354202
 10
8.510749785
 20
7.7765521014
 10
8.5027848341
 20
7.7597421029
 10
8.4953079051
 20
7.7424169455
 10
8.4883241222
 20
7.724588503
 10
8.4818382719
 20
7.706268994
 10
8.4758547992
 20
7.6874709739
 10
8.4703778049
 20
7.6682073259
 10
8.4654110426
 20
7.6484912523
 10
8.4609579163
 20
7.6283362655
 10
8.457021478
 20
7.6077561787
 10
8.4536044255
 20
7.5867650966
 10
8.4507091007
 20
7.5653774054
 10
8.4483374878
 20
7.543607763
 10
8.4464912124
 20
7.5214710894
 10
8.4451715396
 20
7.4989825559
 10
8.444379374
 20
7.476157575
 10
8.4441152585
 20
7.4530117898
  0
LWPOLYLINE
  5
14D
330
1F
100
AcDbEntity
  8
0
  6
Continuous
 62
     7
370
     0
100
AcDbPolyline
 90
      182
 70
   128
 43
0.0
 10
8.4441152585
 20
7.4611758709
 10
8.4443817971
 20
7.4845340027
 10
8.4451812303
 20
7.5075683871
 10
8.4465130101
 20
7.5302632375
 10
8.4483762239
 20
7.5526029998
 10
8.4507695947
 20
7.5745723637
 10
8.4536914821
 20
7.5961562723
 10
8.4571398837
 20
7.6173399332
 10
8.4611124361
 20
7.638108828
 10
8.4656064168
 20
7.6584487229
 10
8.4706187457
 20
7.678345678
 10
8.4761459877
 20
7.6977860567
 10
8.4821843546
 20
7.7167565357
 10
8.4887297081
 20
7.7352441136
 10
8.4957775624
 20
7.7532361198
 10
8.5033230871
 20
7.7707202236
 10
8.5113611109
 20
7.7876844422
 10
8.5198861251
 20
7.8041171493
 10
8.5288922869
 20
7.8200070825
 10
8.538373424
 20
7.8353433519
 10
8.5483230385
 20
7.8501154465
 10
8.5587343114
 20
7.8643132425
 10
8.5696001074
 20
7.8779270094
 10
8.5809129796
 20
7.8909474169
 10
8.5926651747
 20
7.9033655415
 10
8.6048486383
 20
7.9151728725
 10
8.6174550205
 20
7.9263613176
 10
8.6304756816
 20
7.936923209
 10
8.6439016977
 20
7.9468513079
 10
8.6577238675
 20
7.9561388103
 10
8.6719327178
 20
7.9647793508
 10
8.6865185106
 20
7.9727670077
 10
8.7014712496
 20
7.9800963067
 10
8.7167806869
 20
7.9867622246
 10
8.7324363301
 20
7.9927601929
 10
8.7484274497
 20
7.9980861009
 10
8.7647430862
 20
8.0027362986
 10
8.7813720576
 20
8.0067075988
 10
8.7983029673
 20
8.0099972799
 10
8.8155242117
 20
8.0126030873
 10
8.8330239881
 20
8.0145232351
 10
8.8507903032
 20
8.0157564073
 10
8.8688109807
 20
8.0163017588
 10
8.8870736702
 20
8.0161589158
 10
8.9055658554
 20
8.0153279762
 10
8.9242748627
 20
8.0138095095
 10
8.9431878698
 20
8.0116045563
 10
8.9622919146
 20
8.0087146279
 10
8.9815739043
 20
8.0051417049
 10
9.0010206239
 20
8.0008882359
 10
9.0206187457
 20
7.995957136
 10
9.040354838
 20
7.9903517849
 10
9.0602153747
 20
7.9840760241
 10
9.0801867443
 20
7.9771341547
 10
9.1002552596
 20
7.9695309343
 10
9.1204071666
 20
7.9612715739
 10
9.140628654
 20
7.9523617338
 10
9.1609058633
 20
7.9428075206
 10
9.1812248973
 20
7.9326154822
 10
9.2015718303
 20
7.9217926037
 10
9.2219327178
 20
7.9103463025
 10
9.2422936052
 20
7.8982844234
 10
9.2626405383
 20
7.885615233
 10
9.2829595723
 20
7.8723474142
 10
9.3032367815
 20
7.85849006
 10
9.323458269
 20
7.8440526675
 10
9.3436101759
 20
7.8290451315
 10
9.3636786912
 20
7.8134777373
 10
9.3836500609
 20
7.7973611541
 10
9.4035105976
 20
7.7807064273
 10
9.4232466899
 20
7.7635249713
 10
9.4428448116
 20
7.7458285615
 10
9.4622915312
 20
7.7276293259
 10
9.4815735209
 20
7.7089397375
 10
9.5006775658
 20
7.6897726052
 10
9.5195905729
 20
7.6701410652
 10
9.5382995801
 20
7.6500585719
 10
9.5567917653
 20
7.629538889
 10
9.5750544548
 20
7.6085960795
 10
9.5930751324
 20
7.5872444966
 10
9.6108414474
 20
7.5654987736
 10
9.6283412239
 20
7.543373814
 10
9.6455624682
 20
7.5208847811
 10
9.6624933779
 20
7.4980470878
 10
9.6791223493
 20
7.4748763858
 10
9.6954379858
 20
7.4513885552
 10
9.7114291054
 20
7.4275996935
 10
9.7270847487
 20
7.4035261042
 10
9.742394186
 20
7.3791842863
 10
9.7573469249
 20
7.3545909224
 10
9.7719327178
 20
7.3297628675
 10
9.7861415681
 20
7.3047171376
 10
9.7999637378
 20
7.2794708978
 10
9.813389754
 20
7.2540414505
 10
9.826410415
 20
7.2284462239
 10
9.8390167972
 20
7.2027027597
 10
9.8512002609
 20
7.176828701
 10
9.862952456
 20
7.1508417808
 10
9.8742653281
 20
7.1247598091
 10
9.8851311241
 20
7.0986006612
 10
9.895542397
 20
7.0723822654
 10
9.9054920115
 20
7.0461225903
 10
9.9149731486
 20
7.0198396331
 10
9.9239793104
 20
6.9935514067
 10
9.9325043246
 20
6.9672759279
 10
9.9405423485
 20
6.9410312045
 10
9.9480878732
 20
6.9148352233
 10
9.9551357274
 20
6.8887059377
 10
9.9616810809
 20
6.8626612556
 10
9.9677194479
 20
6.8367190265
 10
9.9732466899
 20
6.81089703
 10
9.9782590188
 20
6.7852129632
 10
9.9827529994
 20
6.7596844286
 10
9.9867255518
 20
6.7343289224
 10
9.9901739534
 20
6.7091638218
 10
9.9930958409
 20
6.6842063737
 10
9.9954892116
 20
6.6594736828
 10
9.9973524254
 20
6.6349826996
 10
9.9986842053
 20
6.610750209
 10
9.9994836385
 20
6.5867928187
 10
9.9997501771
 20
6.5631269479
 10
9.9994836385
 20
6.5397688161
 10
9.9986842053
 20
6.5167344317
 10
9.9973524254
 20
6.4940395814
 10
9.9954892116
 20
6.471699819
 10
9.9930958409
 20
6.4497304552
 10
9.9901739534
 20
6.4281465466
 10
9.9867255518
 20
6.4069628857
 10
9.9827529994
 20
6.3861939908
 10
9.9782590188
 20
6.3658540959
 10
9.9732466899
 20
6.3459571409
 10
9.9677194479
 20
6.3265167621
 10
9.9616810809
 20
6.3075462831
 10
9.9551357274
 20
6.2890587053
 10
9.9480878732
 20
6.271066699
 10
9.9405423485
 20
6.2535825952
 10
9.9325043246
 20
6.2366183766
 10
9.9239793104
 20
6.2201856696
 10
9.9149731486
 20
6.2042957363
 10
9.9054920115
 20
6.188959467
 10
9.895542397
 20
6.1741873723
 10
9.8851311241
 20
6.1599895763
 10
9.8742653281
 20
6.1463758095
 10
9.862952456
 20
6.133355402
 10
9.8512002609
 20
6.1209372773
 10
9.8390167972
 20
6.1091299464
 10
9.826410415
 20
6.0979415012
 10
9.813389754
 20
6.0873796099
 10
9.7999637378
 20
6.0774515109
 10
9.7861415681
 20
6.0681640086
 10
9.7719327178
 20
6.0595234681
 10
9.7573469249
 20
6.0515358111
 10
9.742394186
 20
6.0442065122
 10
9.7270847487
 20
6.0375405943
 10
9.7114291054
 20
6.031542626
 10
9.6954379858
 20
6.0262167179
 10
9.6791223493
 20
6.0215665203
 10
9.6624933779
 20
6.01759522
 10
9.6455624682
 20
6.0143055389
 10
9.6283412239
 20
6.0116997315
 10
9.6108414474
 20
6.0097795837
 10
9.5930751324
 20
6.0085464115
 10
9.5750544548
 20
6.00800106
 10
9.5567917653
 20
6.008143903
 10
9.5382995801
 20
6.0089748427
 10
9.5195905729
 20
6.0104933094
 10
9.5006775658
 20
6.0126982625
 10
9.4815735209
 20
6.0155881909
 10
9.4622915312
 20
6.019161114
 10
9.4428448116
 20
6.023414583
 10
9.4232466899
 20
6.0283456828
 10
9.4035105976
 20
6.033951034
 10
9.3836500609
 20
6.0402267948
 10
9.3636786912
 20
6.0471686642
 10
9.3436101759
 20
6.0547718845
 10
9.323458269
 20
6.063031245
 10
9.3032367815
 20
6.071941085
 10
9.2829595723
 20
6.0814952982
 10
9.2626405383
 20
6.0916873367
 10
9.2422936052
 20
6.1025102152
 10
9.2219327178
 20
6.1139565164
 10
9.2218063006
 20
6.1140295073
  0
SPLINE
  5
14E
330
1F
100
AcDbEntity
  8
0
  6
Continuous
 62
     7
370
     0
100
AcDbSpline
210
0.0
220
0.0
230
1.0
 70
     8
 71
     3
 72
    15
 73
    11
 74
     0
 42
0.000000001
 43
0.00000001
 40
0.0
 40
0.0
 40
0.0
 40
0.0
 40
0.0715686387665185
 40
0.1431353726650866
 40
0.2503322464846199
 40
0.499273763336913
 40
0.6243899522806343
 40
0.7495239290832751
 40
0.874746587957682
 40
1.0
 40
1.0
 40
1.0
 40
1.0
 10
9.04343390669209
 20
8.17313464908204
 30
0.0
 10
9.043723600011543
 20
8.173239338846633
 30
0.0
 10
9.04430297893998
 20
8.173448715589402
 30
0.0
 10
9.045036798992715
 20
8.173654051325943
 30
0.0
 10
9.045856289854175
 20
8.173765400564163
 30
0.0
 10
9.045593006668017
 20
8.173267781080256
 30
0.0
 10
9.044472526872587
 20
8.172359730505281
 30
0.0
 10
9.0431763751024
 20
8.171473749396744
 30
0.0
 10
9.041525826485774
 20
8.17044017138446
 30
0.0
 10
9.04019838651364
 20
8.169665898232612
 30
0.0
 10
9.039534585036787
 20
8.169278714124498
 30
0.0
  0
SPLINE
  5
14F
330
1F
100
AcDbEntity
  8
0
  6
Continuous
 62
     7
370
     0
100
AcDbSpline
210
0.0
220
0.0
230
1.0
 70
     8
 71
     3
 72
    12
 73
     8
 74
     0
 42
0.000000001
 43
0.00000001
 40
0.0
 40
0.0
 40
0.0
 40
0.0
 40
0.2502273872370118
 40
0.500241153295354
 40
0.7498657105196673
 40
0.8749015259391293
 40
1.0
 40
1.0
 40
1.0
 40
1.0
 10
9.02767023381136
 20
8.165681849267235
 30
0.0
 10
9.029115147280123
 20
8.166419710857294
 30
0.0
 10
9.032003740683136
 20
8.167894804118903
 30
0.0
 10
9.036293636163832
 20
8.170004070676057
 30
0.0
 10
9.039661154152984
 20
8.171572293026667
 30
0.0
 10
9.042016033089325
 20
8.172589769878787
 30
0.0
 10
9.042961203236127
 20
8.172952992351878
 30
0.0
 10
9.04343390669209
 20
8.17313464908204
 30
0.0
  0
SPLINE
  5
150
330
1F
100
AcDbEntity
  8
0
  6
Continuous
 62
     7
370
     0
100
AcDbSpline
210
0.0
220
0.0
230
1.0
 70
     8
 71
     3
 72
    11
 73
     7
 74
     0
 42
0.000000001
 43
0.00000001
 40
0.0
 40
0.0
 40
0.0
 40
0.0
 40
0.1406923326806831
 40
0.2856504976998237
 40
0.4999629897007416
 40
1.0
 40
1.0
 40
1.0
 40
1.0
 10
9.02945809176077
 20
8.167528299209584
 30
0.0
 10
9.02944959602586
 20
8.167481750465846
 30
0.0
 10
9.029432346962894
 20
8.16738724160696
 30
0.0
 10
9.029231053647987
 20
8.167131153986833
 30
0.0
 10
9.028724147243718
 20
8.166606202722116
 30
0.0
 10
9.028104194264941
 20
8.166062461974345
 30
0.0
 10
9.02767023381136
 20
8.165681849267235
 30
0.0
  0
SPLINE
  5
151
330
1F
100
AcDbEntity
  8
0
  6
Continuous
 62
     7
370
     0
100
AcDbSpline
210
0.0
220
0.0
230
1.0
 70
     8
 71
     3
 72
    11
 73
     7
 74
     0
 42
0.000000001
 43
0.00000001
 40
0.0
 40
0.0
 40
0.0
 40
0.0
 40
0.2500722882311148
 40
0.4999620443497406
 40
0.749885266069374
 40
1.0
 40
1.0
 40
1.0
 40
1.0
 10
9.026714182519774
 20
8.166697964478853
 30
0.0
 10
9.027120065408646
 20
8.166868309386315
 30
0.0
 10
9.027931534925408
 20
8.16720887486353
 30
0.0
 10
9.028761767113094
 20
8.167493886661955
 30
0.0
 10
9.029297063940312
 20
8.16761336704282
 30
0.0
 10
9.029404402117276
 20
8.167556662393203
 30
0.0
 10
9.02945809176077
 20
8.167528299209584
 30
0.0
  0
SPLINE
  5
152
330
1F
100
AcDbEntity
  8
0
  6
Continuous
 62
     7
370
     0
100
AcDbSpline
210
0.0
220
0.0
230
1.0
 70
     8
 71
     3
 72
    14
 73
    10
 74
     0
 42
0.000000001
 43
0.00000001
 40
0.0
 40
0.0
 40
0.0
 40
0.0
 40
0.1253688471065671
 40
0.2506913889042014
 40
0.3794432808684602
 40
0.5007734369150226
 40
0.7496382694925285
 40
0.8748235175247193
 40
1.0
 40
1.0
 40
1.0
 40
1.0
 10
9.005530787666276
 20
8.155552125759112
 30
0.0
 10
9.006342939053352
 20
8.156019587718792
 30
0.0
 10
9.007966941857285
 20
8.156954338979865
 30
0.0
 10
9.010635232404994
 20
8.158463348788782
 30
0.0
 10
9.013482815068246
 20
8.160042314102324
 30
0.0
 10
9.017492307647894
 20
8.162198283960512
 30
0.0
 10
9.021371170390152
 20
8.164182905570062
 30
0.0
 10
9.024745147076422
 20
8.165822355406815
 30
0.0
 10
9.02605785269195
 20
8.166406101600797
 30
0.0
 10
9.026714182519774
 20
8.166697964478853
 30
0.0
  0
SPLINE
  5
153
330
1F
100
AcDbEntity
  8
0
  6
Continuous
 62
     7
370
     0
100
AcDbSpline
210
0.0
220
0.0
230
1.0
 70
     8
 71
     3
 72
    15
 73
    11
 74
     0
 42
0.000000001
 43
0.00000001
 40
0.0
 40
0.0
 40
0.0
 40
0.0
 40
0.0688261813481185
 40
0.1253069327108652
 40
0.2505010874263656
 40
0.3757413007373944
 40
0.5009237703813684
 40
0.749326603047878
 40
0.8746205673268515
 40
1.0
 40
1.0
 40
1.0
 40
1.0
 10
9.001330862169487
 20
8.152044485548702
 30
0.0
 10
9.001027555010653
 20
8.151916046510454
 30
0.0
 10
9.00047534524108
 20
8.151682206689504
 30
0.0
 10
8.999580709489129
 20
8.151328729527304
 30
0.0
 10
8.998854246870744
 20
8.151095796840805
 30
0.0
 10
8.998558945267389
 20
8.151122270616868
 30
0.0
 10
8.998737670338812
 20
8.151452628251167
 30
0.0
 10
9.000599871296668
 20
8.152652523461912
 30
0.0
 10
9.003244704956295
 20
8.15422685184854
 30
0.0
 10
9.004768586904465
 20
8.155110267387217
 30
0.0
 10
9.005530787666276
 20
8.155552125759112
 30
0.0
  0
SPLINE
  5
154
330
1F
100
AcDbEntity
  8
0
  6
Continuous
 62
     7
370
     0
100
AcDbSpline
210
0.0
220
0.0
230
1.0
 70
     8
 71
     3
 72
    11
 73
     7
 74
     0
 42
0.000000001
 43
0.00000001
 40
0.0
 40
0.0
 40
0.0
 40
0.0
 40
0.2501057289063309
 40
0.50002744173251
 40
0.7499366741641891
 40
1.0
 40
1.0
 40
1.0
 40
1.0
 10
9.008369538559036
 20
8.155354136580561
 30
0.0
 10
9.00768487998929
 20
8.155017844040367
 30
0.0
 10
9.006316066589504
 20
8.154345506388276
 30
0.0
 10
9.004438927315375
 20
8.153452299418321
 30
0.0
 10
9.002714673277787
 20
8.152650956648685
 30
0.0
 10
9.001792227306016
 20
8.152246684114797
 30
0.0
 10
9.001330862169487
 20
8.152044485548702
 30
0.0
  0
SPLINE
  5
155
330
1F
100
AcDbEntity
  8
0
  6
Continuous
 62
     7
370
     0
100
AcDbSpline
210
0.0
220
0.0
230
1.0
 70
     8
 71
     3
 72
    11
 73
     7
 74
     0
 42
0.000000001
 43
0.00000001
 40
0.0
 40
0.0
 40
0.0
 40
0.0
 40
0.5000481029602708
 40
0.7000739104329307
 40
0.8545686096529779
 40
0.9999999999999999
 40
0.9999999999999999
 40
0.9999999999999999
 40
0.9999999999999999
 10
9.019613295968034
 20
8.161030678053246
 30
0.0
 10
9.017720514836034
 20
8.160067975314718
 30
0.0
 10
9.015070596396532
 20
8.158720178839227
 30
0.0
 10
9.011858746697309
 20
8.157096173047025
 30
0.0
 10
9.009993997730023
 20
8.15615981008764
 30
0.0
 10
9.00890000535583
 20
8.155617229092947
 30
0.0
 10
9.008369538559036
 20
8.155354136580561
 30
0.0
  0
SPLINE
  5
156
330
1F
100
AcDbEntity
  8
0
  6
Continuous
 62
     7
370
     0
100
AcDbSpline
210
0.0
220
0.0
230
1.0
 70
     8
 71
     3
 72
    12
 73
     8
 74
     0
 42
0.000000001
 43
0.00000001
 40
0.0
 40
0.0
 40
0.0
 40
0.0
 40
0.1251004913760346
 40
0.2501590347327411
 40
0.4997202301425335
 40
0.7497461316782961
 40
1.0
 40
1.0
 40
1.0
 40
1.0
 10
9.02095153723898
 20
8.160155853458193
 30
0.0
 10
9.020538161578987
 20
8.160008292147335
 30
0.0
 10
9.019711548869893
 20
8.15971321900508
 30
0.0
 10
9.018644391802965
 20
8.159438869911053
 30
0.0
 10
9.0181385938095
 20
8.159522410155004
 30
0.0
 10
9.018488818814545
 20
8.16009263224966
 30
0.0
 10
9.019238356400791
 20
8.160717901144832
 30
0.0
 10
9.019613295968034
 20
8.161030678053246
 30
0.0
  0
SPLINE
  5
157
330
1F
100
AcDbEntity
  8
0
  6
Continuous
 62
     7
370
     0
100
AcDbSpline
210
0.0
220
0.0
230
1.0
 70
     8
 71
     3
 72
    15
 73
    11
 74
     0
 42
0.000000001
 43
0.00000001
 40
0.0
 40
0.0
 40
0.0
 40
0.0
 40
0.1252383696493036
 40
0.2504482143409205
 40
0.3729197441552405
 40
0.5007462977274115
 40
0.7496979142813799
 40
0.8497381416193619
 40
0.9248704692275859
 40
1.0
 40
1.0
 40
1.0
 40
1.0
 10
9.039534585036787
 20
8.169278714124498
 30
0.0
 10
9.038836648339448
 20
8.168879747959584
 30
0.0
 10
9.037440933910549
 20
8.168081906500413
 30
0.0
 10
9.035100659133855
 20
8.166812777217622
 30
0.0
 10
9.032603361351514
 20
8.16550645269903
 30
0.0
 10
9.029168164315305
 20
8.163788134888817
 30
0.0
 10
9.025820083617793
 20
8.162194220723395
 30
0.0
 10
9.023279856959682
 20
8.161084980194971
 30
0.0
 10
9.021938244065353
 20
8.16052853701514
 30
0.0
 10
9.021280435433155
 20
8.16028007976899
 30
0.0
 10
9.02095153723898
 20
8.160155853458193
 30
0.0
  0
SPLINE
  5
158
330
1F
100
AcDbEntity
  8
0
  6
Continuous
 62
     7
370
     0
100
AcDbSpline
210
0.0
220
0.0
230
1.0
 70
     8
 71
     3
 72
    12
 73
     8
 74
     0
 42
0.000000001
 43
0.00000001
 40
0.0
 40
0.0
 40
0.0
 40
0.0
 40
0.2500254403219301
 40
0.4999661796302728
 40
0.7498412451501855
 40
0.8749080833013214
 40
1.0
 40
1.0
 40
1.0
 40
1.0
 10
9.24001106060856
 20
8.194181893737333
 30
0.0
 10
9.241237223139143
 20
8.194861491910883
 30
0.0
 10
9.243689132813738
 20
8.196220458030796
 30
0.0
 10
9.247919877820042
 20
8.198150037182446
 30
0.0
 10
9.251719396551586
 20
8.19961938582646
 30
0.0
 10
9.254869379349525
 20
8.200688837227336
 30
0.0
 10
9.256476088615871
 20
8.20116475756932
 30
0.0
 10
9.25727952378577
 20
8.201402741595945
 30
0.0
  0
SPLINE
  5
159
330
1F
100
AcDbEntity
  8
0
  6
Continuous
 62
     7
370
     0
100
AcDbSpline
210
0.0
220
0.0
230
1.0
 70
     8
 71
     3
 72
    15
 73
    11
 74
     0
 42
0.000000001
 43
0.00000001
 40
0.0
 40
0.0
 40
0.0
 40
0.0
 40
0.0626631227622183
 40
0.1253010678552612
 40
0.2503942881654717
 40
0.4992765565484943
 40
0.6245124185409432
 40
0.7495575867238875
 40
0.8747501309314234
 40
1.0
 40
1.0
 40
1.0
 40
1.0
 10
9.237126840601524
 20
8.181781463921387
 30
0.0
 10
9.23660444027641
 20
8.181860999520216
 30
0.0
 10
9.235559849523522
 20
8.182020038760943
 30
0.0
 10
9.233779405661807
 20
8.182491104298682
 30
0.0
 10
9.231421806151031
 20
8.18364551344875
 30
0.0
 10
9.230893140895578
 20
8.185740298950224
 30
0.0
 10
9.2321384449444
 20
8.188171523270132
 30
0.0
 10
9.234025573613941
 20
8.190145772533382
 30
0.0
 10
9.236681723212435
 20
8.192174556175672
 30
0.0
 10
9.238901112141301
 20
8.193512679120506
 30
0.0
 10
9.24001106060856
 20
8.194181893737333
 30
0.0
  0
SPLINE
  5
15A
330
1F
100
AcDbEntity
  8
0
  6
Continuous
 62
     7
370
     0
100
AcDbSpline
210
0.0
220
0.0
230
1.0
 70
     8
 71
     3
 72
    12
 73
     8
 74
     0
 42
0.000000001
 43
0.00000001
 40
0.0
 40
0.0
 40
0.0
 40
0.0
 40
0.2500264305438205
 40
0.4999579935017197
 40
0.6999160723307214
 40
0.849954145400484
 40
0.9999999999999999
 40
0.9999999999999999
 40
0.9999999999999999
 40
0.9999999999999999
 10
9.25033560845036
 20
8.182626348889347
 30
0.0
 10
9.249102799917038
 20
8.182417875859095
 30
0.0
 10
9.246637650615222
 20
8.182001008899558
 30
0.0
 10
9.243336278905543
 20
8.181656727994902
 30
0.0
 10
9.240732712159113
 20
8.18156605827058
 30
0.0
 10
9.238712129759826
 20
8.18160345917567
 30
0.0
 10
9.237655279456083
 20
8.181722127980407
 30
0.0
 10
9.237126840601524
 20
8.181781463921387
 30
0.0
  0
SPLINE
  5
15B
330
1F
100
AcDbEntity
  8
0
  6
Continuous
 62
     7
370
     0
100
AcDbSpline
210
0.0
220
0.0
230
1.0
 70
     8
 71
     3
 72
     8
 73
     4
 74
     0
 42
0.000000001
 43
0.00000001
 40
0.0
 40
0.0
 40
0.0
 40
0.0
 40
1.0
 40
1.0
 40
1.0
 40
1.0
 10
9.232986080762757
 20
8.174565588279801
 30
0.0
 10
9.23876863635206
 20
8.177254787250616
 30
0.0
 10
9.244551814300014
 20
8.17994170715125
 30
0.0
 10
9.25033560845036
 20
8.182626348889347
 30
0.0
  0
ARC
  5
15C
330
1F
100
AcDbEntity
  8
0
  6
Continuous
 62
     7
370
     0
100
AcDbCircle
 10
9.1528236463
 20
7.6222320212
 30
0.0
 40
0.5581204038619373
100
AcDbArc
 50
81.742087836
 51
83.7580302554
  0
LINE
  5
15D
330
1F
100
AcDbEntity
  8
0
  6
Continuous
 62
     7
370
     0
100
AcDbLine
 10
9.2062543345
 20
8.1728569483
 30
0.0
 11
9.2135067118
 21
8.1770436566
 31
0.0
  0
ARC
  5
15E
330
1F
100
AcDbEntity
  8
0
  6
Continuous
 62
     7
370
     0
100
AcDbCircle
 10
9.1451352177
 20
7.614498433
 30
0.0
 40
0.5616936692337393
100
AcDbArc
 50
81.1767170805
 51
83.7531520791
  0
SPLINE
  5
15F
330
1F
100
AcDbEntity
  8
0
  6
Continuous
 62
     7
370
     0
100
AcDbSpline
210
0.0
220
0.0
230
1.0
 70
     8
 71
     3
 72
     8
 73
     4
 74
     0
 42
0.000000001
 43
0.00000001
 40
0.0
 40
0.0
 40
0.0
 40
0.0
 40
1.0
 40
1.0
 40
1.0
 40
1.0
 10
9.265757829333443
 20
8.185419564283924
 30
0.0
 10
9.25426675977759
 20
8.180137321348564
 30
0.0
 10
9.242778116881043
 20
8.174845833793096
 30
0.0
 10
9.231291951242378
 20
8.169545093527839
 30
0.0
  0
SPLINE
  5
160
330
1F
100
AcDbEntity
  8
0
  6
Continuous
 62
     7
370
     0
100
AcDbSpline
210
0.0
220
0.0
230
1.0
 70
     8
 71
     3
 72
     8
 73
     4
 74
     0
 42
0.000000001
 43
0.00000001
 40
0.0
 40
0.0
 40
0.0
 40
0.0
 40
1.0
 40
1.0
 40
1.0
 40
1.0
 10
9.259664916225482
 20
8.186920015487336
 30
0.0
 10
9.261692029734998
 20
8.186434320292486
 30
0.0
 10
9.263723033701622
 20
8.185934164666513
 30
0.0
 10
9.265757829333443
 20
8.185419564283924
 30
0.0
  0
SPLINE
  5
161
330
1F
100
AcDbEntity
  8
0
  6
Continuous
 62
     7
370
     0
100
AcDbSpline
210
0.0
220
0.0
230
1.0
 70
     8
 71
     3
 72
    12
 73
     8
 74
     0
 42
0.000000001
 43
0.00000001
 40
0.0
 40
0.0
 40
0.0
 40
0.0
 40
0.2501600746970154
 40
0.4997212708769126
 40
0.7496198846855602
 40
0.8747847392147718
 40
0.9999999999999999
 40
0.9999999999999999
 40
0.9999999999999999
 40
0.9999999999999999
 10
9.245526739742024
 20
8.185297677351457
 30
0.0
 10
9.246460352624107
 20
8.185198629634437
 30
0.0
 10
9.248325343336578
 20
8.18500077131877
 30
0.0
 10
9.25186489496495
 20
8.185195990955568
 30
0.0
 10
9.255104167061523
 20
8.185755603603635
 30
0.0
 10
9.257722832638327
 20
8.186355539806366
 30
0.0
 10
9.259017468151553
 20
8.186731831675454
 30
0.0
 10
9.259664916225482
 20
8.186920015487336
 30
0.0
  0
SPLINE
  5
162
330
1F
100
AcDbEntity
  8
0
  6
Continuous
 62
     7
370
     0
100
AcDbSpline
210
0.0
220
0.0
230
1.0
 70
     8
 71
     3
 72
    14
 73
    10
 74
     0
 42
0.000000001
 43
0.00000001
 40
0.0
 40
0.0
 40
0.0
 40
0.0
 40
0.1431629159790139
 40
0.2862518345746115
 40
0.429162772528598
 40
0.5719568474698302
 40
0.7852333652934455
 40
0.8925763382905608
 40
1.0
 40
1.0
 40
1.0
 40
1.0
 10
9.24716545294421
 20
8.193687530480762
 30
0.0
 10
9.246291776577543
 20
8.193162007105766
 30
0.0
 10
9.244544875425989
 20
8.192111231985853
 30
0.0
 10
9.242450984502808
 20
8.190508076062201
 30
0.0
 10
9.241092589612919
 20
8.188958416902148
 30
0.0
 10
9.240548059521032
 20
8.187311894808776
 30
0.0
 10
9.241734215360248
 20
8.186218055337239
 30
0.0
 10
9.243688136602566
 20
8.18559090247621
 30
0.0
 10
9.244913718543472
 20
8.185395443537951
 30
0.0
 10
9.245526739742024
 20
8.185297677351457
 30
0.0
  0
SPLINE
  5
163
330
1F
100
AcDbEntity
  8
0
  6
Continuous
 62
     7
370
     0
100
AcDbSpline
210
0.0
220
0.0
230
1.0
 70
     8
 71
     3
 72
    14
 73
    10
 74
     0
 42
0.000000001
 43
0.00000001
 40
0.0
 40
0.0
 40
0.0
 40
0.0
 40
0.1251970014422515
 40
0.2502999019765076
 40
0.3727610839373641
 40
0.5003498491041326
 40
0.7494545984458523
 40
0.8747156920712726
 40
1.0
 40
1.0
 40
1.0
 40
1.0
 10
9.270941817722234
 20
8.199946830806605
 30
0.0
 10
9.270139502526108
 20
8.200028882346754
 30
0.0
 10
9.26853547517217
 20
8.200192923755251
 30
0.0
 10
9.265618374076004
 20
8.200062225787669
 30
0.0
 10
9.262375222666195
 20
8.19958837951925
 30
0.0
 10
9.257875961577176
 20
8.198489014178579
 30
0.0
 10
9.253483796974955
 20
8.19688807207409
 30
0.0
 10
9.249694275883547
 20
8.195098300168018
 30
0.0
 10
9.24800844599089
 20
8.194157816090055
 30
0.0
 10
9.24716545294421
 20
8.193687530480762
 30
0.0
  0
SPLINE
  5
164
330
1F
100
AcDbEntity
  8
0
  6
Continuous
 62
     7
370
     0
100
AcDbSpline
210
0.0
220
0.0
230
1.0
 70
     8
 71
     3
 72
    14
 73
    10
 74
     0
 42
0.000000001
 43
0.00000001
 40
0.0
 40
0.0
 40
0.0
 40
0.0
 40
0.1252774937453043
 40
0.2504957049746909
 40
0.4995727217359666
 40
0.624099007829527
 40
0.7496548526514487
 40
0.8747861893682151
 40
1.0
 40
1.0
 40
1.0
 40
1.0
 10
9.270499018805124
 20
8.192677131788884
 30
0.0
 10
9.271049728809956
 20
8.19307556024413
 30
0.0
 10
9.272150888218343
 20
8.193872228614444
 30
0.0
 10
9.273944838613208
 20
8.195461673148165
 30
0.0
 10
9.275019671675691
 20
8.1970243160432
 30
0.0
 10
9.27487712769175
 20
8.19832644601214
 30
0.0
 10
9.274075480562653
 20
8.199091113903052
 30
0.0
 10
9.272744595798478
 20
8.19964374486354
 30
0.0
 10
9.271542875712873
 20
8.19984577997271
 30
0.0
 10
9.270941817722234
 20
8.199946830806605
 30
0.0
  0
SPLINE
  5
165
330
1F
100
AcDbEntity
  8
0
  6
Continuous
 62
     7
370
     0
100
AcDbSpline
210
0.0
220
0.0
230
1.0
 70
     8
 71
     3
 72
     8
 73
     4
 74
     0
 42
0.000000001
 43
0.00000001
 40
0.0
 40
0.0
 40
0.0
 40
0.0
 40
1.0
 40
1.0
 40
1.0
 40
1.0
 10
9.278044709034278
 20
8.192005351153792
 30
0.0
 10
9.275525664248464
 20
8.192243726418939
 30
0.0
 10
9.273010401230326
 20
8.192467658564018
 30
0.0
 10
9.270499018805124
 20
8.192677131788884
 30
0.0
  0
SPLINE
  5
166
330
1F
100
AcDbEntity
  8
0
  6
Continuous
 62
     7
370
     0
100
AcDbSpline
210
0.0
220
0.0
230
1.0
 70
     8
 71
     3
 72
    14
 73
    10
 74
     0
 42
0.000000001
 43
0.00000001
 40
0.0
 40
0.0
 40
0.0
 40
0.0
 40
0.1252473964946669
 40
0.2504302969101784
 40
0.4993057413268455
 40
0.6244083469248057
 40
0.7495630757481897
 40
0.8747729446731861
 40
1.0
 40
1.0
 40
1.0
 40
1.0
 10
9.277511301572108
 20
8.203709097976411
 30
0.0
 10
9.278496611811109
 20
8.203543640560127
 30
0.0
 10
9.280466724904132
 20
8.203212810929768
 30
0.0
 10
9.283471966197707
 20
8.202051138690845
 30
0.0
 10
9.284856909779457
 20
8.200176929585847
 30
0.0
 10
9.284313598001939
 20
8.197841518945536
 30
0.0
 10
9.283023864428332
 20
8.195936482975467
 30
0.0
 10
9.280904907356657
 20
8.193959390940497
 30
0.0
 10
9.278998152092523
 20
8.192656727548076
 30
0.0
 10
9.278044709034278
 20
8.192005351153792
 30
0.0
  0
SPLINE
  5
167
330
1F
100
AcDbEntity
  8
0
  6
Continuous
 62
     7
370
     0
100
AcDbSpline
210
0.0
220
0.0
230
1.0
 70
     8
 71
     3
 72
    13
 73
     9
 74
     0
 42
0.000000001
 43
0.00000001
 40
0.0
 40
0.0
 40
0.0
 40
0.0
 40
0.1251643234241767
 40
0.2502678499793954
 40
0.4999977268183688
 40
0.7497087214712039
 40
0.8748307575535736
 40
1.0
 40
1.0
 40
1.0
 40
1.0
 10
9.25727952378577
 20
8.201402741595945
 30
0.0
 10
9.258218195814619
 20
8.201666767382537
 30
0.0
 10
9.260095083925137
 20
8.202194690708783
 30
0.0
 10
9.263850794831654
 20
8.203063610006497
 30
0.0
 10
9.26844782222201
 20
8.20382149304795
 30
0.0
 10
9.272579781329778
 20
8.204039686767983
 30
0.0
 10
9.275534819664205
 20
8.203944443364138
 30
0.0
 10
9.276852391435622
 20
8.203787556302252
 30
0.0
 10
9.277511301572108
 20
8.203709097976411
 30
0.0
  0
SPLINE
  5
168
330
1F
100
AcDbEntity
  8
0
  6
Continuous
 62
     7
370
     0
100
AcDbSpline
210
0.0
220
0.0
230
1.0
 70
     8
 71
     3
 72
    16
 73
    12
 74
     0
 42
0.000000001
 43
0.00000001
 40
0.0
 40
0.0
 40
0.0
 40
0.0
 40
0.0629116303287122
 40
0.1250257283576611
 40
0.1835263708056284
 40
0.2500782449892079
 40
0.3761461362641428
 40
0.5001293926099039
 40
0.750002307140615
 40
0.9166493982577288
 40
0.9999999999999999
 40
0.9999999999999999
 40
0.9999999999999999
 40
0.9999999999999999
 10
9.326318208813683
 20
8.194358896770298
 30
0.0
 10
9.325143207322002
 20
8.19372221157297
 30
0.0
 10
9.322808099861726
 20
8.192456912452373
 30
0.0
 10
9.319150860941944
 20
8.190667266792449
 30
0.0
 10
9.315274600544846
 20
8.188900138181442
 30
0.0
 10
9.309947684199882
 20
8.186584440032009
 30
0.0
 10
9.303024308310496
 20
8.183763328106235
 30
0.0
 10
9.291661425548657
 20
8.179571927448261
 30
0.0
 10
9.278783254474067
 20
8.17551940940562
 30
0.0
 10
9.266596132141286
 20
8.172194303293843
 30
0.0
 10
9.260443481948473
 20
8.170777942578006
 30
0.0
 10
9.25839215463415
 20
8.170305720148274
 30
0.0
  0
ARC
  5
169
330
1F
100
AcDbEntity
  8
0
  6
Continuous
 62
     7
370
     0
100
AcDbCircle
 10
9.189393213
 20
7.5812669291
 30
0.0
 40
0.6281960006786959
100
AcDbArc
 50
77.4104405029
 51
78.056707279
  0
SPLINE
  5
16A
330
1F
100
AcDbEntity
  8
0
  6
Continuous
 62
     7
370
     0
100
AcDbSpline
210
0.0
220
0.0
230
1.0
 70
     8
 71
     3
 72
    11
 73
     7
 74
     0
 42
0.000000001
 43
0.00000001
 40
0.0
 40
0.0
 40
0.0
 40
0.0
 40
0.2500046874459127
 40
0.4999902174400039
 40
0.7499851337530278
 40
1.0
 40
1.0
 40
1.0
 40
1.0
 10
9.301630773684558
 20
8.187486991307493
 30
0.0
 10
9.303202893106189
 20
8.188148426002705
 30
0.0
 10
9.3063470114805
 20
8.189471244708471
 30
0.0
 10
9.3108508646354
 20
8.191550597248977
 30
0.0
 10
9.315212695483531
 20
8.193680010285213
 30
0.0
 10
9.318000384618674
 20
8.195136188570693
 30
0.0
 10
9.31939428479937
 20
8.195864306763525
 30
0.0
  0
SPLINE
  5
16B
330
1F
100
AcDbEntity
  8
0
  6
Continuous
 62
     7
370
     0
100
AcDbSpline
210
0.0
220
0.0
230
1.0
 70
     8
 71
     3
 72
    14
 73
    10
 74
     0
 42
0.000000001
 43
0.00000001
 40
0.0
 40
0.0
 40
0.0
 40
0.0
 40
0.0714406687654163
 40
0.1428795370169204
 40
0.2500353555882018
 40
0.500013002386701
 40
0.7499631047545267
 40
0.874975492322693
 40
0.9999999999999999
 40
0.9999999999999999
 40
0.9999999999999999
 40
0.9999999999999999
 10
9.250144432085246
 20
8.170771292941996
 30
0.0
 10
9.251427058834516
 20
8.171079597189243
 30
0.0
 10
9.253992280007107
 20
8.171696197913567
 30
0.0
 10
9.258457729529765
 20
8.172877979091941
 30
0.0
 10
9.266068962675046
 20
8.174999161587012
 30
0.0
 10
9.276688008191567
 20
8.178284380606982
 30
0.0
 10
9.287350586771238
 20
8.181931463893577
 30
0.0
 10
9.29562003079879
 20
8.185041959962595
 30
0.0
 10
9.299627127976917
 20
8.18667195452213
 30
0.0
 10
9.301630773684558
 20
8.187486991307493
 30
0.0
  0
LINE
  5
16C
330
1F
100
AcDbEntity
  8
0
  6
Continuous
 62
     7
370
     0
100
AcDbLine
 10
9.2442745393
 20
8.1673826759
 30
0.0
 11
9.2501444321
 21
8.1707712929
 31
0.0
  0
ARC
  5
16D
330
1F
100
AcDbEntity
  8
0
  6
Continuous
 62
     7
370
     0
100
AcDbCircle
 10
9.1353241677
 20
7.5568264283
 30
0.0
 40
0.6202008666954024
100
AcDbArc
 50
76.6232374936
 51
79.8823792172
  0
LINE
  5
16E
330
1F
100
AcDbEntity
  8
0
  6
Continuous
 62
     7
370
     0
100
AcDbLine
 10
9.2860620962
 20
8.1643878225
 30
0.0
 11
9.278809719
 21
8.1602011142
 31
0.0
  0
ARC
  5
16F
330
1F
100
AcDbEntity
  8
0
  6
Continuous
 62
     7
370
     0
100
AcDbCircle
 10
9.1415056233
 20
7.5561404759
 30
0.0
 40
0.6251890981642688
100
AcDbArc
 50
76.6310676036
 51
79.2244639806
  0
LINE
  5
170
330
1F
100
AcDbEntity
  8
0
  6
Continuous
 62
     7
370
     0
100
AcDbLine
 10
9.3177146278
 20
8.1775199866
 30
0.0
 11
9.3242417673
 21
8.1812880241
 31
0.0
  0
ARC
  5
171
330
1F
100
AcDbEntity
  8
0
  6
Continuous
 62
     7
370
     0
100
AcDbCircle
 10
9.1562745761
 20
7.5266581367
 30
0.0
 40
0.6705848476644273
100
AcDbArc
 50
74.2751253091
 51
76.0694759507
  0
LINE
  5
172
330
1F
100
AcDbEntity
  8
0
  6
Continuous
 62
     7
370
     0
100
AcDbLine
 10
9.344542527
 20
8.1759138312
 30
0.0
 11
9.3380153875
 21
8.1721457938
 31
0.0
  0
ARC
  5
173
330
1F
100
AcDbEntity
  8
0
  6
Continuous
 62
     7
370
     0
100
AcDbCircle
 10
9.1628017156
 20
7.5304261742
 30
0.0
 40
0.6705848476544
100
AcDbArc
 50
74.2751253091
 51
76.0694759507
  0
LINE
  5
174
330
1F
100
AcDbEntity
  8
0
  6
Continuous
 62
     7
370
     0
100
AcDbLine
 10
9.3710200449
 20
8.1533108779
 30
0.0
 11
9.3637676677
 21
8.1491241696
 31
0.0
  0
ARC
  5
175
330
1F
100
AcDbEntity
  8
0
  6
Continuous
 62
     7
370
     0
100
AcDbCircle
 10
9.1314280442
 20
7.4682952024
 30
0.0
 40
0.725707105103576
100
AcDbArc
 50
70.7221365984
 51
73.715870378
  0
LINE
  5
176
330
1F
100
AcDbEntity
  8
0
  6
Continuous
 62
     7
370
     0
100
AcDbLine
 10
9.3276645498
 20
8.1607024052
 30
0.0
 11
9.334916927
 21
8.1648891135
 31
0.0
  0
ARC
  5
177
330
1F
100
AcDbEntity
  8
0
  6
Continuous
 62
     7
370
     0
100
AcDbCircle
 10
9.1241756669
 20
7.4641084942
 30
0.0
 40
0.7257071051011759
100
AcDbArc
 50
70.7221365984
 51
73.715870378
  0
LINE
  5
178
330
1F
100
AcDbEntity
  8
0
  6
Continuous
 62
     7
370
     0
100
AcDbLine
 10
9.3806796701
 20
8.1478102334
 30
0.0
 11
9.4154910809
 21
8.1679064331
 31
0.0
  0
ARC
  5
179
330
1F
100
AcDbEntity
  8
0
  6
Continuous
 62
     7
370
     0
100
AcDbCircle
 10
9.1147811826
 20
7.4250718266
 30
0.0
 40
0.7700992210477641
100
AcDbArc
 50
69.8012197893
 51
70.3654338689
  0
LINE
  5
17A
330
1F
100
AcDbEntity
  8
0
  6
Continuous
 62
     7
370
     0
100
AcDbLine
 10
9.3670226641
 20
8.1466255185
 30
0.0
 11
9.3735498036
 21
8.150393556
 31
0.0
  0
ARC
  5
17B
330
1F
100
AcDbEntity
  8
0
  6
Continuous
 62
     7
370
     0
100
AcDbCircle
 10
9.1082540431
 20
7.4213037892
 30
0.0
 40
0.7700992210648044
100
AcDbArc
 50
69.8012197893
 51
70.3654338688
  0
LINE
  5
17C
330
1F
100
AcDbEntity
  8
0
  6
Continuous
 62
     7
370
     0
100
AcDbLine
 10
9.3706509922
 20
8.1420208009
 30
0.0
 11
9.3741525306
 21
8.144042196
 31
0.0
  0
SPLINE
  5
17D
330
1F
100
AcDbEntity
  8
0
  6
Continuous
 62
     7
370
     0
100
AcDbSpline
210
0.0
220
0.0
230
1.0
 70
     8
 71
     3
 72
    11
 73
     7
 74
     0
 42
0.000000001
 43
0.00000001
 40
0.0
 40
0.0
 40
0.0
 40
0.0
 40
0.2514051028350296
 40
0.4995925313081209
 40
0.748476675181009
 40
0.9999999999999999
 40
0.9999999999999999
 40
0.9999999999999999
 40
0.9999999999999999
 10
9.359086360224328
 20
8.140648861675633
 30
0.0
 10
9.35990348015184
 20
8.140381599941868
 30
0.0
 10
9.361527261882454
 20
8.139850497093969
 30
0.0
 10
9.364891812771567
 20
8.139598097657752
 30
0.0
 10
9.36818479004474
 20
8.140664648397966
 30
0.0
 10
9.369826039477294
 20
8.14156716340914
 30
0.0
 10
9.37065099222073
 20
8.14202080087563
 30
0.0
  0
SPLINE
  5
17E
330
1F
100
AcDbEntity
  8
0
  6
Continuous
 62
     7
370
     0
100
AcDbSpline
210
0.0
220
0.0
230
1.0
 70
     8
 71
     3
 72
     9
 73
     5
 74
     0
 42
0.000000001
 43
0.00000001
 40
0.0
 40
0.0
 40
0.0
 40
0.0
 40
0.5000055301935228
 40
1.0
 40
1.0
 40
1.0
 40
1.0
 10
9.355464704413247
 20
8.14227645704321
 30
0.0
 10
9.356021863922539
 20
8.141983636735118
 30
0.0
 10
9.35713617061646
 20
8.141398002596276
 30
0.0
 10
9.358436301815024
 20
8.140898573474553
 30
0.0
 10
9.359086360224328
 20
8.140648861675633
 30
0.0
  0
LINE
  5
17F
330
1F
100
AcDbEntity
  8
0
  6
Continuous
 62
     7
370
     0
100
AcDbLine
 10
9.3482767286
 20
8.1390675276
 30
0.0
 11
9.3554647044
 21
8.142276457
 31
0.0
  0
SPLINE
  5
180
330
1F
100
AcDbEntity
  8
0
  6
Continuous
 62
     7
370
     0
100
AcDbSpline
210
0.0
220
0.0
230
1.0
 70
     8
 71
     3
 72
     9
 73
     5
 74
     0
 42
0.000000001
 43
0.00000001
 40
0.0
 40
0.0
 40
0.0
 40
0.0
 40
0.4999614776740632
 40
1.0
 40
1.0
 40
1.0
 40
1.0
 10
9.353873339417756
 20
8.136407593357799
 30
0.0
 10
9.352853126930423
 20
8.136812822372177
 30
0.0
 10
9.350812544739814
 20
8.137623342847197
 30
0.0
 10
9.349122044039854
 20
8.138586107950365
 30
0.0
 10
9.348276728567857
 20
8.139067527589901
 30
0.0
  0
SPLINE
  5
181
330
1F
100
AcDbEntity
  8
0
  6
Continuous
 62
     7
370
     0
100
AcDbSpline
210
0.0
220
0.0
230
1.0
 70
     8
 71
     3
 72
    12
 73
     8
 74
     0
 42
0.000000001
 43
0.00000001
 40
0.0
 40
0.0
 40
0.0
 40
0.0
 40
0.1252020070480956
 40
0.250288976180942
 40
0.4998446615956701
 40
0.749627104088078
 40
1.0
 40
1.0
 40
1.0
 40
1.0
 10
9.370415745200416
 20
8.135820662414362
 30
0.0
 10
9.369687967274785
 20
8.135619728738417
 30
0.0
 10
9.368233080119316
 20
8.135218046008104
 30
0.0
 10
9.365146168288126
 20
8.13477368949335
 30
0.0
 10
9.361292121467761
 20
8.134665683347729
 30
0.0
 10
9.357225861564649
 20
8.135306721499635
 30
0.0
 10
9.354991725962256
 20
8.136040347380161
 30
0.0
 10
9.353873339417756
 20
8.136407593357799
 30
0.0
  0
SPLINE
  5
182
330
1F
100
AcDbEntity
  8
0
  6
Continuous
 62
     7
370
     0
100
AcDbSpline
210
0.0
220
0.0
230
1.0
 70
     8
 71
     3
 72
    10
 73
     6
 74
     0
 42
0.000000001
 43
0.00000001
 40
0.0
 40
0.0
 40
0.0
 40
0.0
 40
0.5000183278221566
 40
0.7500559199693888
 40
1.0
 40
1.0
 40
1.0
 40
1.0
 10
9.37709034989514
 20
8.138948092897659
 30
0.0
 10
9.376068674633569
 20
8.13838036593555
 30
0.0
 10
9.37453610365449
 20
8.137528743214618
 30
0.0
 10
9.372300658691973
 20
8.136472354725168
 30
0.0
 10
9.371043971351067
 20
8.136037866097004
 30
0.0
 10
9.370415745200416
 20
8.135820662414362
 30
0.0
  0
LINE
  5
183
330
1F
100
AcDbEntity
  8
0
  6
Continuous
 62
     7
370
     0
100
AcDbLine
 10
9.3812944623
 20
8.1413750753
 30
0.0
 11
9.3770903499
 21
8.1389480929
 31
0.0
  0
ARC
  5
184
330
1F
100
AcDbEntity
  8
0
  6
Continuous
 62
     7
370
     0
100
AcDbCircle
 10
9.1000226712
 20
7.3992357366
 30
0.0
 40
0.7936527066010101
100
AcDbArc
 50
68.8008294991
 51
69.2432255459
  0
LINE
  5
185
330
1F
100
AcDbEntity
  8
0
  6
Continuous
 62
     7
370
     0
100
AcDbLine
 10
9.393543417
 20
8.1429492373
 30
0.0
 11
9.3870162774
 21
8.1391811998
 31
0.0
  0
ARC
  5
186
330
1F
100
AcDbEntity
  8
0
  6
Continuous
 62
     7
370
     0
100
AcDbCircle
 10
9.1065498106
 20
7.4030037739
 30
0.0
 40
0.7936527066986554
100
AcDbArc
 50
68.8008294991
 51
69.2432255458
  0
LINE
  5
187
330
1F
100
AcDbEntity
  8
0
  6
Continuous
 62
     7
370
     0
100
AcDbLine
 10
9.4226330126
 20
8.1652393125
 30
0.0
 11
9.3878216018
 21
8.1451431128
 31
0.0
  0
ARC
  5
188
330
1F
100
AcDbEntity
  8
0
  6
Continuous
 62
     7
370
     0
100
AcDbCircle
 10
9.1453357821
 20
7.4335972881
 30
0.0
 40
0.7824281474012756
100
AcDbArc
 50
69.2429560703
 51
69.8012274728
  0
LINE
  5
189
330
1F
100
AcDbEntity
  8
0
  6
Continuous
 62
     7
370
     0
100
AcDbLine
 10
9.4486581836
 20
8.1483181458
 30
0.0
 11
9.4551853231
 21
8.1520861832
 31
0.0
  0
ARC
  5
18A
330
1F
100
AcDbEntity
  8
0
  6
Continuous
 62
     7
370
     0
100
AcDbCircle
 10
9.1026266365
 20
7.3422117153
 30
0.0
 40
0.8772373731588734
100
AcDbArc
 50
64.3884197776
 51
66.7679493725
  0
LINE
  5
18B
330
1F
100
AcDbEntity
  8
0
  6
Continuous
 62
     7
370
     0
100
AcDbLine
 10
9.4622468733
 20
8.121952174
 30
0.0
 11
9.4818282919
 21
8.1332562864
 31
0.0
  0
ARC
  5
18C
330
1F
100
AcDbEntity
  8
0
  6
Continuous
 62
     7
370
     0
100
AcDbCircle
 10
9.0816318075
 20
7.3278570361
 30
0.0
 40
0.8805991803821953
100
AcDbArc
 50
64.3912908479
 51
66.506771051
  0
LINE
  5
18D
330
1F
100
AcDbEntity
  8
0
  6
Continuous
 62
     7
370
     0
100
AcDbLine
 10
9.4261473334
 20
8.1316928393
 30
0.0
 11
9.4326744729
 21
8.1354608768
 31
0.0
  0
ARC
  5
18E
330
1F
100
AcDbEntity
  8
0
  6
Continuous
 62
     7
370
     0
100
AcDbCircle
 10
9.075104668
 20
7.3240889986
 30
0.0
 40
0.8805991803807799
100
AcDbArc
 50
64.3912908479
 51
66.506771051
  0
LINE
  5
18F
330
1F
100
AcDbEntity
  8
0
  6
Continuous
 62
     7
370
     0
100
AcDbLine
 10
9.4383140284
 20
8.1081360368
 30
0.0
 11
9.4557197338
 21
8.1181841366
 31
0.0
  0
ARC
  5
190
330
1F
100
AcDbEntity
  8
0
  6
Continuous
 62
     7
370
     0
100
AcDbCircle
 10
9.0585479094
 20
7.3158717509
 30
0.0
 40
0.8785812448983461
100
AcDbArc
 50
64.3896093688
 51
66.6633579772
  0
LINE
  5
191
330
1F
100
AcDbEntity
  8
0
  6
Continuous
 62
     7
370
     0
100
AcDbLine
 10
9.4000556097
 20
8.1188110669
 30
0.0
 11
9.4065827492
 21
8.1225791043
 31
0.0
  0
ARC
  5
192
330
1F
100
AcDbEntity
  8
0
  6
Continuous
 62
     7
370
     0
100
AcDbCircle
 10
9.0489964374
 20
7.3053706497
 30
0.0
 40
0.8859615425340742
100
AcDbArc
 50
63.8298724715
 51
66.6562613826
  0
LINE
  5
193
330
1F
100
AcDbEntity
  8
0
  6
Continuous
 62
     7
370
     0
100
AcDbLine
 10
9.4963076748
 20
8.1331672141
 30
0.0
 11
9.4397391323
 21
8.1005108897
 31
0.0
  0
ARC
  5
194
330
1F
100
AcDbEntity
  8
0
  6
Continuous
 62
     7
370
     0
100
AcDbCircle
 10
9.1061405669
 20
7.3392496735
 30
0.0
 40
0.8846103285255914
100
AcDbArc
 50
63.8284038743
 51
66.760555131
  0
SPLINE
  5
195
330
1F
100
AcDbEntity
  8
0
  6
Continuous
 62
     7
370
     0
100
AcDbSpline
210
0.0
220
0.0
230
1.0
 70
     8
 71
     3
 72
     8
 73
     4
 74
     0
 42
0.000000001
 43
0.00000001
 40
0.0
 40
0.0
 40
0.0
 40
0.0
 40
1.0
 40
1.0
 40
1.0
 40
1.0
 10
9.444859406500264
 20
8.097977263815952
 30
0.0
 10
9.471305451164612
 20
8.105078009422881
 30
0.0
 10
9.497759078853424
 20
8.112045786537854
 30
0.0
 10
9.524217019580062
 20
8.118882281347085
 30
0.0
  0
ARC
  5
196
330
1F
100
AcDbEntity
  8
0
  6
Continuous
 62
     7
370
     0
100
AcDbCircle
 10
9.024654551
 20
7.2553265284
 30
0.0
 40
0.9416115879379766
100
AcDbArc
 50
62.9076692815
 51
63.4959323437
  0
SPLINE
  5
197
330
1F
100
AcDbEntity
  8
0
  6
Continuous
 62
     7
370
     0
100
AcDbSpline
210
0.0
220
0.0
230
1.0
 70
     8
 71
     3
 72
     8
 73
     4
 74
     0
 42
0.000000001
 43
0.00000001
 40
0.0
 40
0.0
 40
0.0
 40
0.0
 40
1.0
 40
1.0
 40
1.0
 40
1.0
 10
9.509439408053717
 20
8.108967666083108
 30
0.0
 10
9.490786950785823
 20
8.10391140268649
 30
0.0
 10
9.47213638140121
 20
8.09879523321465
 30
0.0
 10
9.453488709351781
 20
8.093618629706727
 30
0.0
  0
SPLINE
  5
198
330
1F
100
AcDbEntity
  8
0
  6
Continuous
 62
     7
370
     0
100
AcDbSpline
210
0.0
220
0.0
230
1.0
 70
     8
 71
     3
 72
     9
 73
     5
 74
     0
 42
0.000000001
 43
0.00000001
 40
0.0
 40
0.0
 40
0.0
 40
0.0
 40
0.4999996840328736
 40
1.0
 40
1.0
 40
1.0
 40
1.0
 10
9.52164190839498
 20
8.112592938747595
 30
0.0
 10
9.519640203707453
 20
8.111954284174802
 30
0.0
 10
9.515636791802507
 20
8.110676974222038
 30
0.0
 10
9.511505203506946
 20
8.109537435702789
 30
0.0
 10
9.509439408053717
 20
8.108967666083108
 30
0.0
  0
SPLINE
  5
199
330
1F
100
AcDbEntity
  8
0
  6
Continuous
 62
     7
370
     0
100
AcDbSpline
210
0.0
220
0.0
230
1.0
 70
     8
 71
     3
 72
     9
 73
     5
 74
     0
 42
0.000000001
 43
0.00000001
 40
0.0
 40
0.0
 40
0.0
 40
0.0
 40
0.5154276969717823
 40
1.0
 40
1.0
 40
1.0
 40
1.0
 10
9.515611865899142
 20
8.105640241691377
 30
0.0
 10
9.516590872052651
 20
8.106850393440906
 30
0.0
 10
9.518490277457635
 20
8.109198252814082
 30
0.0
 10
9.5206131992789
 20
8.11148489518683
 30
0.0
 10
9.52164190839498
 20
8.112592938747595
 30
0.0
  0
SPLINE
  5
19A
330
1F
100
AcDbEntity
  8
0
  6
Continuous
 62
     7
370
     0
100
AcDbSpline
210
0.0
220
0.0
230
1.0
 70
     8
 71
     3
 72
     8
 73
     4
 74
     0
 42
0.000000001
 43
0.00000001
 40
0.0
 40
0.0
 40
0.0
 40
0.0
 40
1.0
 40
1.0
 40
1.0
 40
1.0
 10
9.490452090273298
 20
8.073693488942052
 30
0.0
 10
9.498837874432885
 20
8.084401460256021
 30
0.0
 10
9.507224131737217
 20
8.095050563557733
 30
0.0
 10
9.515611865899142
 20
8.105640241691377
 30
0.0
  0
ARC
  5
19B
330
1F
100
AcDbEntity
  8
0
  6
Continuous
 62
     7
370
     0
100
AcDbCircle
 10
8.9821973137
 20
7.1765699631
 30
0.0
 40
1.031093370414439
100
AcDbArc
 50
59.9130718369
 51
60.4667881637
  0
SPLINE
  5
19C
330
1F
100
AcDbEntity
  8
0
  6
Continuous
 62
     7
370
     0
100
AcDbSpline
210
0.0
220
0.0
230
1.0
 70
     8
 71
     3
 72
     8
 73
     4
 74
     0
 42
0.000000001
 43
0.00000001
 40
0.0
 40
0.0
 40
0.0
 40
0.0
 40
1.0
 40
1.0
 40
1.0
 40
1.0
 10
9.53285843460544
 20
8.11422404672997
 30
0.0
 10
9.521603035770141
 20
8.099192505497271
 30
0.0
 10
9.510350706712728
 20
8.084030480187865
 30
0.0
 10
9.49909817793862
 20
8.068739809641864
 30
0.0
  0
ARC
  5
19D
330
1F
100
AcDbEntity
  8
0
  6
Continuous
 62
     7
370
     0
100
AcDbCircle
 10
9.0607084426
 20
7.2486906925
 30
0.0
 40
0.9859379302207455
100
AcDbArc
 50
61.3874542625
 51
61.957950782
  0
SPLINE
  5
19E
330
1F
100
AcDbEntity
  8
0
  6
Continuous
 62
     7
370
     0
100
AcDbSpline
210
0.0
220
0.0
230
1.0
 70
     8
 71
     3
 72
     8
 73
     4
 74
     0
 42
0.000000001
 43
0.00000001
 40
0.0
 40
0.0
 40
0.0
 40
0.0
 40
1.0
 40
1.0
 40
1.0
 40
1.0
 10
9.576104031450674
 20
8.068359632585862
 30
0.0
 10
9.58404869664584
 20
8.070347029335604
 30
0.0
 10
9.591992914037547
 20
8.072324446702115
 30
0.0
 10
9.599936610277311
 20
8.074291931658115
 30
0.0
  0
ARC
  5
19F
330
1F
100
AcDbEntity
  8
0
  6
Continuous
 62
     7
370
     0
100
AcDbCircle
 10
8.9903857039
 20
7.1470549038
 30
0.0
 40
1.091727238204445
100
AcDbArc
 50
57.5538905381
 51
59.0404757866
  0
SPLINE
  5
1A0
330
1F
100
AcDbEntity
  8
0
  6
Continuous
 62
     7
370
     0
100
AcDbSpline
210
0.0
220
0.0
230
1.0
 70
     8
 71
     3
 72
     8
 73
     4
 74
     0
 42
0.000000001
 43
0.00000001
 40
0.0
 40
0.0
 40
0.0
 40
0.0
 40
1.0
 40
1.0
 40
1.0
 40
1.0
 10
9.56297557603649
 20
8.097122041991955
 30
0.0
 10
9.559319034881193
 20
8.092506464913884
 30
0.0
 10
9.555662394403626
 20
8.087880694869341
 30
0.0
 10
9.552005581154448
 20
8.08324477555975
 30
0.0
  0
ARC
  5
1A1
330
1F
100
AcDbEntity
  8
0
  6
Continuous
 62
     7
370
     0
100
AcDbCircle
 10
9.031352981
 20
7.19641139
 30
0.0
 40
1.045897825865747
100
AcDbArc
 50
59.449802652
 51
59.986779876
  0
SPLINE
  5
1A2
330
1F
100
AcDbEntity
  8
0
  6
Continuous
 62
     7
370
     0
100
AcDbSpline
210
0.0
220
0.0
230
1.0
 70
     8
 71
     3
 72
     8
 73
     4
 74
     0
 42
0.000000001
 43
0.00000001
 40
0.0
 40
0.0
 40
0.0
 40
0.0
 40
1.0
 40
1.0
 40
1.0
 40
1.0
 10
9.520398815626217
 20
8.056062256023619
 30
0.0
 10
9.531771615213419
 20
8.071520003747388
 30
0.0
 10
9.543141260962077
 20
8.086854800088652
 30
0.0
 10
9.554510873552688
 20
8.102064790382373
 30
0.0
  0
ARC
  5
1A3
330
1F
100
AcDbEntity
  8
0
  6
Continuous
 62
     7
370
     0
100
AcDbCircle
 10
8.9511680112
 20
7.1244445242
 30
0.0
 40
1.091757897623371
100
AcDbArc
 50
58.019850519
 51
58.5745158057
  0
SPLINE
  5
1A4
330
1F
100
AcDbEntity
  8
0
  6
Continuous
 62
     7
370
     0
100
AcDbSpline
210
0.0
220
0.0
230
1.0
 70
     8
 71
     3
 72
     8
 73
     4
 74
     0
 42
0.000000001
 43
0.00000001
 40
0.0
 40
0.0
 40
0.0
 40
0.0
 40
1.0
 40
1.0
 40
1.0
 40
1.0
 10
9.608384023440117
 20
8.068788395897633
 30
0.0
 10
9.582059412329524
 20
8.062815816657647
 30
0.0
 10
9.555727281299525
 20
8.056723055796661
 30
0.0
 10
9.529390746618422
 20
8.050508115538028
 30
0.0
  0
ARC
  5
1A5
330
1F
100
AcDbEntity
  8
0
  6
Continuous
 62
     7
370
     0
100
AcDbCircle
 10
8.982917472
 20
7.1179904435
 30
0.0
 40
1.13807959007858
100
AcDbArc
 50
56.6617495927
 51
57.1693245481
  0
SPLINE
  5
1A6
330
1F
100
AcDbEntity
  8
0
  6
Continuous
 62
     7
370
     0
100
AcDbSpline
210
0.0
220
0.0
230
1.0
 70
     8
 71
     3
 72
    15
 73
    11
 74
     0
 42
0.000000001
 43
0.00000001
 40
0.0
 40
0.0
 40
0.0
 40
0.0
 40
0.0626761947927354
 40
0.1253392690170961
 40
0.2504957453421011
 40
0.4992172028461658
 40
0.636941619748733
 40
0.7852085601041022
 40
0.892588966060098
 40
1.0
 40
1.0
 40
1.0
 40
1.0
 10
9.691400872727426
 20
7.92837822405584
 30
0.0
 10
9.690523944230595
 20
7.929174516980876
 30
0.0
 10
9.688770270812215
 20
7.930766936135828
 30
0.0
 10
9.68573990494278
 20
7.93416543315288
 30
0.0
 10
9.68153882176894
 20
7.9404307097262
 30
0.0
 10
9.679803300461536
 20
7.948361220278367
 30
0.0
 10
9.682063535944852
 20
7.955829208235342
 30
0.0
 10
9.685542882521219
 20
7.960674982316674
 30
0.0
 10
9.689826798658784
 20
7.964563286143602
 30
0.0
 10
9.692903248092858
 20
7.96648032650608
 30
0.0
 10
9.694441692151605
 20
7.967438983366605
 30
0.0
  0
SPLINE
  5
1A7
330
1F
100
AcDbEntity
  8
0
  6
Continuous
 62
     7
370
     0
100
AcDbSpline
210
0.0
220
0.0
230
1.0
 70
     8
 71
     3
 72
    17
 73
    13
 74
     0
 42
0.000000001
 43
0.00000001
 40
0.0
 40
0.0
 40
0.0
 40
0.0
 40
0.0625872523498925
 40
0.1251621031372381
 40
0.2502151565809064
 40
0.3769364927848626
 40
0.5001010314363423
 40
0.6250388192668235
 40
0.7499288092933256
 40
0.8748555591109664
 40
0.9374185878446935
 40
1.0
 40
1.0
 40
1.0
 40
1.0
 10
9.747052048694822
 20
7.922336222647737
 30
0.0
 10
9.746094679851224
 20
7.921805824800771
 30
0.0
 10
9.74418013186511
 20
7.92074513420431
 30
0.0
 10
9.740106500609292
 20
7.918869071802817
 30
0.0
 10
9.734554501952374
 20
7.916993837659581
 30
0.0
 10
9.72725168735324
 20
7.915793108768375
 30
0.0
 10
9.719463172792759
 20
7.915909287464753
 30
0.0
 10
9.71162160580044
 20
7.917315224315555
 30
0.0
 10
9.70402358792098
 20
7.919951195171332
 30
0.0
 10
9.698327868817291
 20
7.923124990336868
 30
0.0
 10
9.69420340458925
 20
7.926015932342533
 30
0.0
 10
9.692335141495839
 20
7.927590716374058
 30
0.0
 10
9.691400872727426
 20
7.92837822405584
 30
0.0
  0
SPLINE
  5
1A8
330
1F
100
AcDbEntity
  8
0
  6
Continuous
 62
     7
370
     0
100
AcDbSpline
210
0.0
220
0.0
230
1.0
 70
     8
 71
     3
 72
    17
 73
    13
 74
     0
 42
0.000000001
 43
0.00000001
 40
0.0
 40
0.0
 40
0.0
 40
0.0
 40
0.0625735814875132
 40
0.1251438344973453
 40
0.2500878788322863
 40
0.3750376600705156
 40
0.4999484912518483
 40
0.6426403265606585
 40
0.7498323494477077
 40
0.874852525719856
 40
0.9374292607999342
 40
0.9999999999999999
 40
0.9999999999999999
 40
0.9999999999999999
 40
0.9999999999999999
 10
9.749452806872357
 20
7.961843074686377
 30
0.0
 10
9.750312199326013
 20
7.961059612050416
 30
0.0
 10
9.752030938519646
 20
7.959492728453236
 30
0.0
 10
9.755017399071386
 20
7.956130436167504
 30
0.0
 10
9.75796333077463
 20
7.951623982727056
 30
0.0
 10
9.759977072439465
 20
7.945945929835515
 30
0.0
 10
9.760373419564816
 20
7.939997277441289
 30
0.0
 10
9.758909586470647
 20
7.934630213026765
 30
0.0
 10
9.755989083897198
 20
7.929826371271206
 30
0.0
 10
9.752875832724877
 20
7.926463497161597
 30
0.0
 10
9.749721234367628
 20
7.923963926511451
 30
0.0
 10
9.747941748833735
 20
7.922878773272225
 30
0.0
 10
9.747052048694822
 20
7.922336222647737
 30
0.0
  0
SPLINE
  5
1A9
330
1F
100
AcDbEntity
  8
0
  6
Continuous
 62
     7
370
     0
100
AcDbSpline
210
0.0
220
0.0
230
1.0
 70
     8
 71
     3
 72
    16
 73
    12
 74
     0
 42
0.000000001
 43
0.00000001
 40
0.0
 40
0.0
 40
0.0
 40
0.0
 40
0.0626649867820733
 40
0.125319943952695
 40
0.2505126252441359
 40
0.4994724275638515
 40
0.6206389663334549
 40
0.7495739117790825
 40
0.8746967496056383
 40
0.9373438300019802
 40
0.9999999999999999
 40
0.9999999999999999
 40
0.9999999999999999
 40
0.9999999999999999
 10
9.694441692151605
 20
7.967438983366605
 30
0.0
 10
9.69538255881975
 20
7.967958184248269
 30
0.0
 10
9.697264141569127
 20
7.968996502912831
 30
0.0
 10
9.701336189172684
 20
7.970788664792836
 30
0.0
 10
9.709017130835544
 20
7.9732608822792
 30
0.0
 10
9.719152154918953
 20
7.974214942755051
 30
0.0
 10
9.729483088752398
 20
7.972480717027581
 30
0.0
 10
9.73689355819558
 20
7.969908593733399
 30
0.0
 10
9.742612293638985
 20
7.96692252994093
 30
0.0
 10
9.7466965254526
 20
7.964148248822794
 30
0.0
 10
9.748534001968416
 20
7.962611503224116
 30
0.0
 10
9.749452806872357
 20
7.961843074686377
 30
0.0
  0
SPLINE
  5
1AA
330
1F
100
AcDbEntity
  8
0
  6
Continuous
 62
     7
370
     0
100
AcDbSpline
210
0.0
220
0.0
230
1.0
 70
     8
 71
     3
 72
    15
 73
    11
 74
     0
 42
0.000000001
 43
0.00000001
 40
0.0
 40
0.0
 40
0.0
 40
0.0
 40
0.062676194792758
 40
0.1253392690171413
 40
0.2504957453421927
 40
0.4992172028463364
 40
0.6369416197977295
 40
0.7852085601040254
 40
0.8925889660600601
 40
1.0
 40
1.0
 40
1.0
 40
1.0
 10
9.826347407451095
 20
7.79448350652001
 30
0.0
 10
9.825528074844422
 20
7.795432258932949
 30
0.0
 10
9.823889581149297
 20
7.797329565148
 30
0.0
 10
9.821084579323085
 20
7.801335076551307
 30
0.0
 10
9.817259642932905
 20
7.808633569730357
 30
0.0
 10
9.815901066078322
 20
7.817645089592938
 30
0.0
 10
9.818417017632502
 20
7.825867548307178
 30
0.0
 10
9.8220130375515
 20
7.831062694264411
 30
0.0
 10
9.826354908607208
 20
7.835125753013443
 30
0.0
 10
9.829437123673905
 20
7.837060229419198
 30
0.0
 10
9.830978450960037
 20
7.838027605544501
 30
0.0
  0
SPLINE
  5
1AB
330
1F
100
AcDbEntity
  8
0
  6
Continuous
 62
     7
370
     0
100
AcDbSpline
210
0.0
220
0.0
230
1.0
 70
     8
 71
     3
 72
    17
 73
    13
 74
     0
 42
0.000000001
 43
0.00000001
 40
0.0
 40
0.0
 40
0.0
 40
0.0
 40
0.0625872523497831
 40
0.1251621031370181
 40
0.2502151565804679
 40
0.3769364927487291
 40
0.5001010314372186
 40
0.6250388192674763
 40
0.7499288092937776
 40
0.8748555591111857
 40
0.9374185878448045
 40
1.0
 40
1.0
 40
1.0
 40
1.0
 10
9.880243529835617
 20
7.784106339097132
 30
0.0
 10
9.879287221887655
 20
7.783578399983027
 30
0.0
 10
9.877374795482595
 20
7.782522626365094
 30
0.0
 10
9.873323800665885
 20
7.780699070388052
 30
0.0
 10
9.867835044704698
 20
7.778970761280541
 30
0.0
 10
9.8606750622733
 20
7.778104231148427
 30
0.0
 10
9.853103546489393
 20
7.77873460972407
 30
0.0
 10
9.845538402972638
 20
7.780807249964283
 30
0.0
 10
9.838263628180401
 20
7.784240104531916
 30
0.0
 10
9.832861071058554
 20
7.788155631787758
 30
0.0
 10
9.828973132222847
 20
7.791656939130505
 30
0.0
 10
9.827222734751425
 20
7.793541225124462
 30
0.0
 10
9.826347407451095
 20
7.79448350652001
 30
0.0
  0
SPLINE
  5
1AC
330
1F
100
AcDbEntity
  8
0
  6
Continuous
 62
     7
370
     0
100
AcDbSpline
210
0.0
220
0.0
230
1.0
 70
     8
 71
     3
 72
    17
 73
    13
 74
     0
 42
0.000000001
 43
0.00000001
 40
0.0
 40
0.0
 40
0.0
 40
0.0
 40
0.0625735814875129
 40
0.1251438344973154
 40
0.2500878788322602
 40
0.3750376600705214
 40
0.499948491251844
 40
0.6426403265606616
 40
0.7498323494476984
 40
0.8748525257198504
 40
0.9374292607999313
 40
1.0
 40
1.0
 40
1.0
 40
1.0
 10
9.884397222251943
 20
7.827942769867744
 30
0.0
 10
9.885199772493582
 20
7.827010048628121
 30
0.0
 10
9.886804830286794
 20
7.825144655763136
 30
0.0
 10
9.889563166627942
 20
7.821193341144236
 30
0.0
 10
9.892227707934657
 20
7.815973978164052
 30
0.0
 10
9.893926968097526
 20
7.809518868610235
 30
0.0
 10
9.894035896405779
 20
7.802875219407255
 30
0.0
 10
9.892359427864532
 20
7.797003812172304
 30
0.0
 10
9.8892913947115
 20
7.791854044742183
 30
0.0
 10
9.886103737124868
 20
7.788318102889733
 30
0.0
 10
9.882916849680758
 20
7.785743623458192
 30
0.0
 10
9.88113460798796
 20
7.784652083118732
 30
0.0
 10
9.880243529835617
 20
7.784106339097132
 30
0.0
  0
SPLINE
  5
1AD
330
1F
100
AcDbEntity
  8
0
  6
Continuous
 62
     7
370
     0
100
AcDbSpline
210
0.0
220
0.0
230
1.0
 70
     8
 71
     3
 72
    16
 73
    12
 74
     0
 42
0.000000001
 43
0.00000001
 40
0.0
 40
0.0
 40
0.0
 40
0.0
 40
0.0626649867820802
 40
0.1253199439527092
 40
0.2505126252441648
 40
0.4994724275639008
 40
0.6206389663310728
 40
0.7495739117790385
 40
0.8746967496055921
 40
0.9373438300019417
 40
1.0
 40
1.0
 40
1.0
 40
1.0
 10
9.830978450960037
 20
7.838027605544501
 30
0.0
 10
9.831918338207553
 20
7.838543846476695
 30
0.0
 10
9.833797962272426
 20
7.839576245716056
 30
0.0
 10
9.837847155878547
 20
7.841299394689113
 30
0.0
 10
9.84544768336811
 20
7.84352950348195
 30
0.0
 10
9.855380950426996
 20
7.843881339651117
 30
0.0
 10
9.865388506229552
 20
7.841212561252243
 30
0.0
 10
9.872507144318973
 20
7.837816862631166
 30
0.0
 10
9.877953719877778
 20
7.83408333503633
 30
0.0
 10
9.881813247929975
 20
7.830703970940625
 30
0.0
 10
9.88353585582482
 20
7.828863214735364
 30
0.0
 10
9.884397222251943
 20
7.827942769867744
 30
0.0
  0
LINE
  5
1AE
330
1F
100
AcDbEntity
  8
0
  6
Continuous
 62
     7
370
     0
100
AcDbLine
 10
9.9056342062
 20
7.7271602067
 30
0.0
 11
9.9478453081
 21
7.7515281572
 31
0.0
  0
SPLINE
  5
1AF
330
1F
100
AcDbEntity
  8
0
  6
Continuous
 62
     7
370
     0
100
AcDbSpline
210
0.0
220
0.0
230
1.0
 70
     8
 71
     3
 72
     8
 73
     4
 74
     0
 42
0.000000001
 43
0.00000001
 40
0.0
 40
0.0
 40
0.0
 40
0.0
 40
1.0
 40
1.0
 40
1.0
 40
1.0
 10
9.924231392161877
 20
7.780524642964191
 30
0.0
 10
9.918108811781035
 20
7.762851241496992
 30
0.0
 10
9.911911342988107
 20
7.745061139726377
 30
0.0
 10
9.90563420616327
 20
7.727160206741513
 30
0.0
  0
ARC
  5
1B0
330
1F
100
AcDbEntity
  8
0
  6
Continuous
 62
     7
370
     0
100
AcDbCircle
 10
8.5820011265
 20
6.6635775613
 30
0.0
 40
1.746182369985323
100
AcDbArc
 50
39.765791085
 51
40.1458119686
  0
LINE
  5
1B1
330
1F
100
AcDbEntity
  8
0
  6
Continuous
 62
     7
370
     0
100
AcDbLine
 10
9.8602251
 20
7.7567461826
 30
0.0
 11
9.9167936425
 21
7.7894025071
 31
0.0
  0
ARC
  5
1B2
330
1F
100
AcDbEntity
  8
0
  6
Continuous
 62
     7
370
     0
100
AcDbCircle
 10
8.5256617664
 20
6.6311136975
 30
0.0
 40
1.74588309540558
100
AcDbArc
 50
39.7862023064
 51
40.1458330969
  0
LINE
  5
1B3
330
1F
100
AcDbEntity
  8
0
  6
Continuous
 62
     7
370
     0
100
AcDbLine
 10
9.9094751704
 20
7.7727153057
 30
0.0
 11
9.8672640685
 21
7.7483473553
 31
0.0
  0
SPLINE
  5
1B4
330
1F
100
AcDbEntity
  8
0
  6
Continuous
 62
     7
370
     0
100
AcDbSpline
210
0.0
220
0.0
230
1.0
 70
     8
 71
     3
 72
     8
 73
     4
 74
     0
 42
0.000000001
 43
0.00000001
 40
0.0
 40
0.0
 40
0.0
 40
0.0
 40
1.0
 40
1.0
 40
1.0
 40
1.0
 10
9.890885734044103
 20
7.719362289031372
 30
0.0
 10
9.897160207972885
 20
7.737259514009608
 30
0.0
 10
9.903355093023718
 20
7.755045808493904
 30
0.0
 10
9.90947517038501
 20
7.772715305706487
 30
0.0
  0
ARC
  5
1B5
330
1F
100
AcDbEntity
  8
0
  6
Continuous
 62
     7
370
     0
100
AcDbCircle
 10
8.4917508942
 20
6.6034631367
 30
0.0
 40
1.789639410119419
100
AcDbArc
 50
38.2007474094
 51
38.5745911837
  0
LINE
  5
1B6
330
1F
100
AcDbEntity
  8
0
  6
Continuous
 62
     7
370
     0
100
AcDbLine
 10
9.9547054663
 20
7.7428658431
 30
0.0
 11
9.8981369238
 21
7.7102095186
 31
0.0
  0
ARC
  5
1B7
330
1F
100
AcDbEntity
  8
0
  6
Continuous
 62
     7
370
     0
100
AcDbCircle
 10
8.5481141593
 20
6.6359572147
 30
0.0
 40
1.789901063308911
100
AcDbArc
 50
38.2007651371
 51
38.5544753545
  0
SPLINE
  5
1B8
330
1F
100
AcDbEntity
  8
0
  6
Continuous
 62
     7
370
     0
100
AcDbSpline
210
0.0
220
0.0
230
1.0
 70
     8
 71
     3
 72
     8
 73
     4
 74
     0
 42
0.000000001
 43
0.00000001
 40
0.0
 40
0.0
 40
0.0
 40
0.0
 40
1.0
 40
1.0
 40
1.0
 40
1.0
 10
9.975232586685678
 20
7.68285809327294
 30
0.0
 10
9.982806793530377
 20
7.683788029258157
 30
0.0
 10
9.990375997385282
 20
7.684712385523771
 30
0.0
 10
9.997940137741603
 20
7.68563124509715
 30
0.0
  0
ARC
  5
1B9
330
1F
100
AcDbEntity
  8
0
  6
Continuous
 62
     7
370
     0
100
AcDbCircle
 10
8.4999674376
 20
6.6022252242
 30
0.0
 40
1.828708467204158
100
AcDbArc
 50
36.2228053836
 51
37.2767849467
  0
SPLINE
  5
1BA
330
1F
100
AcDbEntity
  8
0
  6
Continuous
 62
     7
370
     0
100
AcDbSpline
210
0.0
220
0.0
230
1.0
 70
     8
 71
     3
 72
     8
 73
     4
 74
     0
 42
0.000000001
 43
0.00000001
 40
0.0
 40
0.0
 40
0.0
 40
0.0
 40
1.0
 40
1.0
 40
1.0
 40
1.0
 10
9.96707006235596
 20
7.726971597858131
 30
0.0
 10
9.963086579396428
 20
7.721257620746152
 30
0.0
 10
9.959098385252963
 20
7.715537675131891
 30
0.0
 10
9.955105417827935
 20
7.709811842179098
 30
0.0
  0
ARC
  5
1BB
330
1F
100
AcDbEntity
  8
0
  6
Continuous
 62
     7
370
     0
100
AcDbCircle
 10
8.5356293973
 20
6.626179724
 30
0.0
 40
1.8057588784137
100
AcDbArc
 50
37.5606364726
 51
37.9337505695
  0
SPLINE
  5
1BC
330
1F
100
AcDbEntity
  8
0
  6
Continuous
 62
     7
370
     0
100
AcDbSpline
210
0.0
220
0.0
230
1.0
 70
     8
 71
     3
 72
     8
 73
     4
 74
     0
 42
0.000000001
 43
0.00000001
 40
0.0
 40
0.0
 40
0.0
 40
0.0
 40
1.0
 40
1.0
 40
1.0
 40
1.0
 10
9.922295406006976
 20
7.678807371087292
 30
0.0
 10
9.934878840477372
 20
7.698033196975994
 30
0.0
 10
9.94740326816093
 20
7.717188499831301
 30
0.0
 10
9.959871328379887
 20
7.736269832451701
 30
0.0
  0
ARC
  5
1BD
330
1F
100
AcDbEntity
  8
0
  6
Continuous
 62
     7
370
     0
100
AcDbCircle
 10
8.4607371255
 20
6.5795854946
 30
0.0
 40
1.828781381400053
100
AcDbArc
 50
36.5531680273
 51
36.9464223029
  0
SPLINE
  5
1BE
330
1F
100
AcDbEntity
  8
0
  6
Continuous
 62
     7
370
     0
100
AcDbSpline
210
0.0
220
0.0
230
1.0
 70
     8
 71
     3
 72
     8
 73
     4
 74
     0
 42
0.000000001
 43
0.00000001
 40
0.0
 40
0.0
 40
0.0
 40
0.0
 40
1.0
 40
1.0
 40
1.0
 40
1.0
 10
10.00486650322947
 20
7.676013536424364
 30
0.0
 10
9.97990793939808
 20
7.673659141430432
 30
0.0
 10
9.954886755114533
 20
7.671239150029923
 30
0.0
 10
9.929805520193264
 20
7.668750033492297
 30
0.0
  0
ARC
  5
1BF
330
1F
100
AcDbEntity
  8
0
  6
Continuous
 62
     7
370
     0
100
AcDbCircle
 10
8.5010495059
 20
6.6003156677
 30
0.0
 40
1.848943337742433
100
AcDbArc
 50
35.5765832688
 51
35.9438647882
  0
LINE
  5
1C0
330
1F
100
AcDbEntity
  8
0
  6
Continuous
 62
     7
370
     0
100
AcDbLine
 10
9.9991241379
 20
7.6711475506
 30
0.0
 11
10.0056512774
 21
7.6749155881
 31
0.0
  0
ARC
  5
1C1
330
1F
100
AcDbEntity
  8
0
  6
Continuous
 62
     7
370
     0
100
AcDbCircle
 10
8.4829430668
 20
6.5883102499
 30
0.0
 40
1.8631536867428
100
AcDbArc
 50
34.3755989677
 51
35.5339447502
  0
LINE
  5
1C2
330
1F
100
AcDbEntity
  8
0
  6
Continuous
 62
     7
370
     0
100
AcDbLine
 10
9.9706630689
 20
7.6113875143
 30
0.0
 11
10.0207044719
 21
7.6402758013
 31
0.0
  0
ARC
  5
1C3
330
1F
100
AcDbEntity
  8
0
  6
Continuous
 62
     7
370
     0
100
AcDbCircle
 10
8.4233158861
 20
6.5528290249
 30
0.0
 40
1.874787822552233
100
AcDbArc
 50
34.0335411532
 51
34.3764922317
  0
LINE
  5
1C4
330
1F
100
AcDbEntity
  8
0
  6
Continuous
 62
     7
370
     0
100
AcDbLine
 10
10.0335399894
 20
7.6347630905
 30
0.0
 11
9.9769714469
 21
7.6021067661
 31
0.0
  0
ARC
  5
1C5
330
1F
100
AcDbEntity
  8
0
  6
Continuous
 62
     7
370
     0
100
AcDbCircle
 10
8.4872372491
 20
6.5905094936
 30
0.0
 40
1.865882563128336
100
AcDbArc
 50
34.0320565877
 51
35.5332961491
  0
LINE
  5
1C6
330
1F
100
AcDbEntity
  8
0
  6
Continuous
 62
     7
370
     0
100
AcDbLine
 10
10.0443822556
 20
7.5691043798
 30
0.0
 11
10.0675898628
 21
7.5825018462
 31
0.0
  0
ARC
  5
1C7
330
1F
100
AcDbEntity
  8
0
  6
Continuous
 62
     7
370
     0
100
AcDbCircle
 10
8.4399537297
 20
6.5610607568
 30
0.0
 40
1.894820002155535
100
AcDbArc
 50
32.1406645541
 51
32.732236649
  0
SPLINE
  5
1C8
330
1F
100
AcDbEntity
  8
0
  6
Continuous
 62
     7
370
     0
100
AcDbSpline
210
0.0
220
0.0
230
1.0
 70
     8
 71
     3
 72
    15
 73
    11
 74
     0
 42
0.000000001
 43
0.00000001
 40
0.0
 40
0.0
 40
0.0
 40
0.0
 40
0.0626964153114154
 40
0.1253787081573924
 40
0.2505492576971765
 40
0.3756933751300157
 40
0.5006718414742881
 40
0.7492845741562065
 40
0.8746116954167762
 40
1.0
 40
1.0
 40
1.0
 40
1.0
 10
10.00118847941304
 20
7.599616883858813
 30
0.0
 10
10.00183101786912
 20
7.599964276682082
 30
0.0
 10
10.00311595004848
 20
7.600658984077842
 30
0.0
 10
10.00588165190858
 20
7.601708004206737
 30
0.0
 10
10.009623004252
 20
7.60243230548499
 30
0.0
 10
10.01438192470199
 20
7.60216528838075
 30
0.0
 10
10.02082792562106
 20
7.600398336887753
 30
0.0
 10
10.02641055364311
 20
7.59553238610656
 30
0.0
 10
10.03092073419895
 20
7.590071888475003
 30
0.0
 10
10.03289941205574
 20
7.587101463738702
 30
0.0
 10
10.03388899241739
 20
7.585615888926848
 30
0.0
  0
SPLINE
  5
1C9
330
1F
100
AcDbEntity
  8
0
  6
Continuous
 62
     7
370
     0
100
AcDbSpline
210
0.0
220
0.0
230
1.0
 70
     8
 71
     3
 72
    14
 73
    10
 74
     0
 42
0.000000001
 43
0.00000001
 40
0.0
 40
0.0
 40
0.0
 40
0.0
 40
0.1251999787231956
 40
0.2503250813996895
 40
0.3754446601512046
 40
0.5003442011332631
 40
0.7496501209501334
 40
0.8748058919808849
 40
1.0
 40
1.0
 40
1.0
 40
1.0
 10
9.995444660333524
 20
7.57534914039899
 30
0.0
 10
9.994926062635958
 20
7.576535703182019
 30
0.0
 10
9.993889177389006
 20
7.578908119122314
 30
0.0
 10
9.992956446322786
 20
7.582590444522356
 30
0.0
 10
9.992683341570638
 20
7.586247351560683
 30
0.0
 10
9.993421745107053
 20
7.590834643292756
 30
0.0
 10
9.995512678248428
 20
7.594775634791718
 30
0.0
 10
9.99847013278081
 20
7.597884287906179
 30
0.0
 10
10.00028227136917
 20
7.599039292917894
 30
0.0
 10
10.00118847941304
 20
7.599616883858813
 30
0.0
  0
SPLINE
  5
1CA
330
1F
100
AcDbEntity
  8
0
  6
Continuous
 62
     7
370
     0
100
AcDbSpline
210
0.0
220
0.0
230
1.0
 70
     8
 71
     3
 72
    10
 73
     6
 74
     0
 42
0.000000001
 43
0.00000001
 40
0.0
 40
0.0
 40
0.0
 40
0.0
 40
0.5000056856159426
 40
0.7500189825075
 40
1.0
 40
1.0
 40
1.0
 40
1.0
 10
10.00133164119407
 20
7.565105793590241
 30
0.0
 10
10.00028257916379
 20
7.566781199722149
 30
0.0
 10
9.99870896418465
 20
7.569294343949281
 30
0.0
 10
9.996719686479725
 20
7.572704146415854
 30
0.0
 10
9.995869650756289
 20
7.574467513685335
 30
0.0
 10
9.995444660333524
 20
7.57534914039899
 30
0.0
  0
ARC
  5
1CB
330
1F
100
AcDbEntity
  8
0
  6
Continuous
 62
     7
370
     0
100
AcDbCircle
 10
8.4053095514
 20
6.5409864638
 30
0.0
 40
1.896340400025624
100
AcDbArc
 50
31.8004296273
 51
32.6870676411
  0
LINE
  5
1CC
330
1F
100
AcDbEntity
  8
0
  6
Continuous
 62
     7
370
     0
100
AcDbLine
 10
10.0735564502
 20
7.5729424373
 30
0.0
 11
10.0169879077
 21
7.5402861129
 31
0.0
  0
ARC
  5
1CD
330
1F
100
AcDbEntity
  8
0
  6
Continuous
 62
     7
370
     0
100
AcDbCircle
 10
8.4601428135
 20
6.5725581676
 30
0.0
 40
1.898386749359515
100
AcDbArc
 50
31.8006523587
 51
32.1407553494
  0
LINE
  5
1CE
330
1F
100
AcDbEntity
  8
0
  6
Continuous
 62
     7
370
     0
100
AcDbLine
 10
9.2766178217
 20
8.1429837365
 30
0.0
 11
9.2831449612
 21
8.146751774
 31
0.0
  0
ARC
  5
1CF
330
1F
100
AcDbEntity
  8
0
  6
Continuous
 62
     7
370
     0
100
AcDbCircle
 10
9.0956316647
 20
7.4715597885
 30
0.0
 40
0.6953891766227387
100
AcDbArc
 50
72.6795700396
 51
74.914153985
  0
LINE
  5
1D0
330
1F
100
AcDbEntity
  8
0
  6
Continuous
 62
     7
370
     0
100
AcDbLine
 10
9.2526182551
 20
8.10652805
 30
0.0
 11
9.3026596581
 21
8.135416337
 31
0.0
  0
ARC
  5
1D1
330
1F
100
AcDbEntity
  8
0
  6
Continuous
 62
     7
370
     0
100
AcDbCircle
 10
9.0375512825
 20
7.416466112
 30
0.0
 40
0.7227996132455525
100
AcDbArc
 50
72.0422359922
 51
72.6896606913
  0
LINE
  5
1D2
330
1F
100
AcDbEntity
  8
0
  6
Continuous
 62
     7
370
     0
100
AcDbLine
 10
9.3169703894
 20
8.1367101813
 30
0.0
 11
9.260401847
 21
8.1040538569
 31
0.0
  0
ARC
  5
1D3
330
1F
100
AcDbEntity
  8
0
  6
Continuous
 62
     7
370
     0
100
AcDbCircle
 10
9.1004567693
 20
7.4693688986
 30
0.0
 40
0.7015857291136399
100
AcDbArc
 50
72.0247536638
 51
74.9066022017
  0
LINE
  5
1D4
330
1F
100
AcDbEntity
  8
0
  6
Continuous
 62
     7
370
     0
100
AcDbLine
 10
9.3269061222
 20
8.0877240062
 30
0.0
 11
9.374771812
 21
8.1153562808
 31
0.0
  0
SPLINE
  5
1D5
330
1F
100
AcDbEntity
  8
0
  6
Continuous
 62
     7
370
     0
100
AcDbSpline
210
0.0
220
0.0
230
1.0
 70
     8
 71
     3
 72
     8
 73
     4
 74
     0
 42
0.000000001
 43
0.00000001
 40
0.0
 40
0.0
 40
0.0
 40
0.0
 40
1.0
 40
1.0
 40
1.0
 40
1.0
 10
9.359937092746339
 20
8.121331657559734
 30
0.0
 10
9.348919409501095
 20
8.110188401145324
 30
0.0
 10
9.337909392625665
 20
8.098985727182935
 30
0.0
 10
9.326906122195531
 20
8.08772400621518
 30
0.0
  0
ARC
  5
1D6
330
1F
100
AcDbEntity
  8
0
  6
Continuous
 62
     7
370
     0
100
AcDbCircle
 10
9.0699999372
 20
7.3805766832
 30
0.0
 40
0.7954756352271337
100
AcDbArc
 50
68.6242456218
 51
69.2592182561
  0
SPLINE
  5
1D7
330
1F
100
AcDbEntity
  8
0
  6
Continuous
 62
     7
370
     0
100
AcDbSpline
210
0.0
220
0.0
230
1.0
 70
     8
 71
     3
 72
     8
 73
     4
 74
     0
 42
0.000000001
 43
0.00000001
 40
0.0
 40
0.0
 40
0.0
 40
0.0
 40
1.0
 40
1.0
 40
1.0
 40
1.0
 10
9.288994647267193
 20
8.102318489221105
 30
0.0
 10
9.309890914643287
 20
8.109772654779157
 30
0.0
 10
9.33079638972519
 20
8.117166141583505
 30
0.0
 10
9.35171014049109
 20
8.124499291786206
 30
0.0
  0
LINE
  5
1D8
330
1F
100
AcDbEntity
  8
0
  6
Continuous
 62
     7
370
     0
100
AcDbLine
 10
9.3368603371
 20
8.1299507638
 30
0.0
 11
9.2889946473
 21
8.1023184892
 31
0.0
  0
ARC
  5
1D9
330
1F
100
AcDbEntity
  8
0
  6
Continuous
 62
     7
370
     0
100
AcDbCircle
 10
9.0836171212
 20
7.4176508949
 30
0.0
 40
0.7559783261188202
100
AcDbArc
 50
70.428228093
 51
71.0565683936
  0
LINE
  5
1DA
330
1F
100
AcDbEntity
  8
0
  6
Continuous
 62
     7
370
     0
100
AcDbLine
 10
9.2724652102
 20
8.10002877
 30
0.0
 11
9.3290337527
 21
8.1326850945
 31
0.0
  0
ARC
  5
1DB
330
1F
100
AcDbEntity
  8
0
  6
Continuous
 62
     7
370
     0
100
AcDbCircle
 10
9.0259734331
 20
7.3819079244
 30
0.0
 40
0.759246827473764
100
AcDbArc
 50
70.1209805184
 51
71.0554452272
  0
SPLINE
  5
1DC
330
1F
100
AcDbEntity
  8
0
  6
Continuous
 62
     7
370
     0
100
AcDbSpline
210
0.0
220
0.0
230
1.0
 70
     8
 71
     3
 72
     8
 73
     4
 74
     0
 42
0.000000001
 43
0.00000001
 40
0.0
 40
0.0
 40
0.0
 40
0.0
 40
1.0
 40
1.0
 40
1.0
 40
1.0
 10
9.335486291606093
 20
8.113861472231758
 30
0.0
 10
9.318366409112816
 20
8.107920311055786
 30
0.0
 10
9.30125216449213
 20
8.101937648299884
 30
0.0
 10
9.284144090179154
 20
8.095913286352936
 30
0.0
  0
SPLINE
  5
1DD
330
1F
100
AcDbEntity
  8
0
  6
Continuous
 62
     7
370
     0
100
AcDbSpline
210
0.0
220
0.0
230
1.0
 70
     8
 71
     3
 72
     9
 73
     5
 74
     0
 42
0.000000001
 43
0.00000001
 40
0.0
 40
0.0
 40
0.0
 40
0.0
 40
0.5714251866672606
 40
1.0
 40
1.0
 40
1.0
 40
1.0
 10
9.347210198450746
 20
8.118000932580141
 30
0.0
 10
9.344983880622447
 20
8.117207625110659
 30
0.0
 10
9.341087801345148
 20
8.115819328815721
 30
0.0
 10
9.337166753818076
 20
8.11444883245411
 30
0.0
 10
9.335486291606093
 20
8.113861472231758
 30
0.0
  0
SPLINE
  5
1DE
330
1F
100
AcDbEntity
  8
0
  6
Continuous
 62
     7
370
     0
100
AcDbSpline
210
0.0
220
0.0
230
1.0
 70
     8
 71
     3
 72
     9
 73
     5
 74
     0
 42
0.000000001
 43
0.00000001
 40
0.0
 40
0.0
 40
0.0
 40
0.0
 40
0.3333359272970961
 40
1.0
 40
1.0
 40
1.0
 40
1.0
 10
9.341419662768503
 20
8.112232500906321
 30
0.0
 10
9.34205463736783
 20
8.112875238770444
 30
0.0
 10
9.343959546342019
 20
8.114803437357782
 30
0.0
 10
9.345909940642807
 20
8.11672193747711
 30
0.0
 10
9.347210198450746
 20
8.118000932580141
 30
0.0
  0
SPLINE
  5
1DF
330
1F
100
AcDbEntity
  8
0
  6
Continuous
 62
     7
370
     0
100
AcDbSpline
210
0.0
220
0.0
230
1.0
 70
     8
 71
     3
 72
     8
 73
     4
 74
     0
 42
0.000000001
 43
0.00000001
 40
0.0
 40
0.0
 40
0.0
 40
0.0
 40
1.0
 40
1.0
 40
1.0
 40
1.0
 10
9.314221481780459
 20
8.084336969145443
 30
0.0
 10
9.323282389968316
 20
8.093677576383831
 30
0.0
 10
9.332348266763129
 20
8.102976160104758
 30
0.0
 10
9.341419662768503
 20
8.112232500906321
 30
0.0
  0
ARC
  5
1E0
330
1F
100
AcDbEntity
  8
0
  6
Continuous
 62
     7
370
     0
100
AcDbCircle
 10
8.9995750298
 20
7.3133616949
 30
0.0
 40
0.8327095912345929
100
AcDbArc
 50
66.9127055147
 51
67.7988997655
  0
LINE
  5
1E1
330
1F
100
AcDbEntity
  8
0
  6
Continuous
 62
     7
370
     0
100
AcDbLine
 10
9.3826765937
 20
8.1120346309
 30
0.0
 11
9.3261080513
 21
8.0793783064
 31
0.0
  0
ARC
  5
1E2
330
1F
100
AcDbEntity
  8
0
  6
Continuous
 62
     7
370
     0
100
AcDbCircle
 10
9.054744437
 20
7.3426962705
 30
0.0
 40
0.8363139435887277
100
AcDbArc
 50
66.9137668327
 51
67.5011950342
  0
LINE
  5
1E3
330
1F
100
AcDbEntity
  8
0
  6
Continuous
 62
     7
370
     0
100
AcDbLine
 10
9.3673843808
 20
8.0952157024
 30
0.0
 11
9.3739115203
 21
8.0989837399
 31
0.0
  0
ARC
  5
1E4
330
1F
100
AcDbEntity
  8
0
  6
Continuous
 62
     7
370
     0
100
AcDbCircle
 10
9.0151688622
 20
7.2917706681
 30
0.0
 40
0.8772569148994915
100
AcDbArc
 50
64.8281300111
 51
66.328239139
  0
LINE
  5
1E5
330
1F
100
AcDbEntity
  8
0
  6
Continuous
 62
     7
370
     0
100
AcDbLine
 10
9.3948240762
 20
8.0894877812
 30
0.0
 11
9.3882969366
 21
8.0857197438
 31
0.0
  0
ARC
  5
1E6
330
1F
100
AcDbEntity
  8
0
  6
Continuous
 62
     7
370
     0
100
AcDbCircle
 10
9.0216960017
 20
7.2955387055
 30
0.0
 40
0.8772569149027587
100
AcDbArc
 50
64.8281300111
 51
66.328239139
  0
SPLINE
  5
1E7
330
1F
100
AcDbEntity
  8
0
  6
Continuous
 62
     7
370
     0
100
AcDbSpline
210
0.0
220
0.0
230
1.0
 70
     8
 71
     3
 72
    13
 73
     9
 74
     0
 42
0.000000001
 43
0.00000001
 40
0.0
 40
0.0
 40
0.0
 40
0.0
 40
0.125071052489751
 40
0.2501213755201695
 40
0.5000714595751168
 40
0.7499678126074877
 40
0.8749906036692444
 40
1.0
 40
1.0
 40
1.0
 40
1.0
 10
9.449475893949698
 20
8.03202330338494
 30
0.0
 10
9.448273067608055
 20
8.032255121951978
 30
0.0
 10
9.445867614282966
 20
8.032718720664105
 30
0.0
 10
9.440957886266863
 20
8.033430609109862
 30
0.0
 10
9.434685853568595
 20
8.033940757663597
 30
0.0
 10
9.428357097682062
 20
8.033912746973446
 30
0.0
 10
9.423328383649196
 20
8.033544255984877
 30
0.0
 10
9.420906809159858
 20
8.033113917359843
 30
0.0
 10
9.419696086779517
 20
8.032898759574383
 30
0.0
  0
LINE
  5
1E8
330
1F
100
AcDbEntity
  8
0
  6
Continuous
 62
     7
370
     0
100
AcDbLine
 10
9.4561616792
 20
8.0358829251
 30
0.0
 11
9.4494758939
 21
8.0320233034
 31
0.0
  0
SPLINE
  5
1E9
330
1F
100
AcDbEntity
  8
0
  6
Continuous
 62
     7
370
     0
100
AcDbSpline
210
0.0
220
0.0
230
1.0
 70
     8
 71
     3
 72
    13
 73
     9
 74
     0
 42
0.000000001
 43
0.00000001
 40
0.0
 40
0.0
 40
0.0
 40
0.0
 40
0.1250131719674727
 40
0.2500192439134914
 40
0.499985652864434
 40
0.750004358487333
 40
0.8671891874654881
 40
1.0
 40
1.0
 40
1.0
 40
1.0
 10
9.434767355030315
 20
8.038639315002166
 30
0.0
 10
9.435685621075178
 20
8.038631698719096
 30
0.0
 10
9.43752210101273
 20
8.038616466585514
 30
0.0
 10
9.441173600557347
 20
8.038381792149554
 30
0.0
 10
9.445687299201529
 20
8.037889236603553
 30
0.0
 10
9.450070812287375
 20
8.037202743497751
 30
0.0
 10
9.453556781768745
 20
8.036514933599774
 30
0.0
 10
9.455257936497588
 20
8.036102194010844
 30
0.0
 10
9.456161679220532
 20
8.035882925067435
 30
0.0
  0
LINE
  5
1EA
330
1F
100
AcDbEntity
  8
0
  6
Continuous
 62
     7
370
     0
100
AcDbLine
 10
9.4788482105
 20
8.0640866512
 30
0.0
 11
9.434767355
 21
8.038639315
 31
0.0
  0
ARC
  5
1EB
330
1F
100
AcDbEntity
  8
0
  6
Continuous
 62
     7
370
     0
100
AcDbCircle
 10
8.973383406
 20
7.1777755322
 30
0.0
 40
1.02031469070696
100
AcDbArc
 50
60.3038111424
 51
60.7715304976
  0
LINE
  5
1EC
330
1F
100
AcDbEntity
  8
0
  6
Continuous
 62
     7
370
     0
100
AcDbLine
 10
9.4150277339
 20
8.0355269817
 30
0.0
 11
9.4715962764
 21
8.0681833062
 31
0.0
  0
ARC
  5
1ED
330
1F
100
AcDbEntity
  8
0
  6
Continuous
 62
     7
370
     0
100
AcDbCircle
 10
8.9180728597
 20
7.1473557606
 30
0.0
 40
1.017748625628754
100
AcDbArc
 50
60.4702530654
 51
60.7718532852
  0
SPLINE
  5
1EE
330
1F
100
AcDbEntity
  8
0
  6
Continuous
 62
     7
370
     0
100
AcDbSpline
210
0.0
220
0.0
230
1.0
 70
     8
 71
     3
 72
    13
 73
     9
 74
     0
 42
0.000000001
 43
0.00000001
 40
0.0
 40
0.0
 40
0.0
 40
0.0
 40
0.1250710524897602
 40
0.2501213755201577
 40
0.5000714595751048
 40
0.7499678126074806
 40
0.8749906036692395
 40
1.0
 40
1.0
 40
1.0
 40
1.0
 10
9.53626580761415
 20
7.975229184021665
 30
0.0
 10
9.53506881963581
 20
7.975560000782929
 30
0.0
 10
9.532675042069673
 20
7.976221579475403
 30
0.0
 10
9.52778644302555
 20
7.977314801627855
 30
0.0
 10
9.521537452483322
 20
7.978272094245817
 30
0.0
 10
9.515227150265467
 20
7.978639827278127
 30
0.0
 10
9.510210590465299
 20
7.978549388869265
 30
0.0
 10
9.507793455058145
 20
7.978225578342262
 30
0.0
 10
9.50658495209999
 20
7.978063681752353
 30
0.0
  0
LINE
  5
1EF
330
1F
100
AcDbEntity
  8
0
  6
Continuous
 62
     7
370
     0
100
AcDbLine
 10
9.5429515929
 20
7.9790888057
 30
0.0
 11
9.5362658076
 21
7.975229184
 31
0.0
  0
SPLINE
  5
1F0
330
1F
100
AcDbEntity
  8
0
  6
Continuous
 62
     7
370
     0
100
AcDbSpline
210
0.0
220
0.0
230
1.0
 70
     8
 71
     3
 72
    13
 73
     9
 74
     0
 42
0.000000001
 43
0.00000001
 40
0.0
 40
0.0
 40
0.0
 40
0.0
 40
0.1250131719674715
 40
0.2500192439134821
 40
0.4999856528643981
 40
0.7500043584872974
 40
0.867189187449263
 40
1.0
 40
1.0
 40
1.0
 40
1.0
 10
9.52164229279747
 20
7.98347901969285
 30
0.0
 10
9.522557921131074
 20
7.983412522735633
 30
0.0
 10
9.524389125795917
 20
7.983279532597837
 30
0.0
 10
9.528028631306551
 20
7.982789276968412
 30
0.0
 10
9.532525656811334
 20
7.981960217496805
 30
0.0
 10
9.53689058246065
 20
7.980926702817842
 30
0.0
 10
9.540360194710559
 20
7.979949034045344
 30
0.0
 10
9.54205253359919
 20
7.979387253193117
 30
0.0
 10
9.542951592884984
 20
7.979088805704161
 30
0.0
  0
LINE
  5
1F1
330
1F
100
AcDbEntity
  8
0
  6
Continuous
 62
     7
370
     0
100
AcDbLine
 10
9.5657231482
 20
8.0089263559
 30
0.0
 11
9.5216422928
 21
7.9834790197
 31
0.0
  0
ARC
  5
1F2
330
1F
100
AcDbEntity
  8
0
  6
Continuous
 62
     7
370
     0
100
AcDbCircle
 10
8.879258936
 20
7.0282113457
 30
0.0
 40
1.197094418127489
100
AcDbArc
 50
55.0094029394
 51
55.4298606918
  0
LINE
  5
1F3
330
1F
100
AcDbEntity
  8
0
  6
Continuous
 62
     7
370
     0
100
AcDbLine
 10
9.5019393351
 20
7.9812811096
 30
0.0
 11
9.5585078776
 21
8.013937434
 31
0.0
  0
ARC
  5
1F4
330
1F
100
AcDbEntity
  8
0
  6
Continuous
 62
     7
370
     0
100
AcDbCircle
 10
8.8241997821
 20
6.9977360557
 30
0.0
 40
1.194442034903375
100
AcDbArc
 50
55.159046002
 51
55.4301162763
  0
LWPOLYLINE
  5
1F5
330
1F
100
AcDbEntity
  8
0
  6
Continuous
 62
     7
370
     0
100
AcDbPolyline
 90
       91
 70
   128
 43
0.0
 10
10.5371513308
 20
6.8733620304
 10
10.5368847922
 20
6.8970279012
 10
10.536085359
 20
6.9209852915
 10
10.5347535791
 20
6.9452177821
 10
10.5328903654
 20
6.9697087653
 10
10.5304969946
 20
6.9944414562
 10
10.5275751071
 20
7.0193989043
 10
10.5241267055
 20
7.0445640049
 10
10.5201541531
 20
7.0699195111
 10
10.5156601725
 20
7.0954480457
 10
10.5106478436
 20
7.1211321125
 10
10.5051206016
 20
7.146954109
 10
10.4990822346
 20
7.1728963381
 10
10.4925368811
 20
7.1989410202
 10
10.4854890269
 20
7.2250703058
 10
10.4779435022
 20
7.251266287
 10
10.4699054783
 20
7.2775110104
 10
10.4613804642
 20
7.3037864892
 10
10.4523743023
 20
7.3300747156
 10
10.4428931652
 20
7.3563576728
 10
10.4329435507
 20
7.3826173479
 10
10.4225322778
 20
7.4088357437
 10
10.4116664818
 20
7.4349948916
 10
10.4003536097
 20
7.4610768633
 10
10.3886014146
 20
7.4870637835
 10
10.3764179509
 20
7.5129378422
 10
10.3638115687
 20
7.5386813064
 10
10.3507909077
 20
7.564276533
 10
10.3373648915
 20
7.5897059803
 10
10.3235427218
 20
7.6149522201
 10
10.3093338715
 20
7.63999795
 10
10.2947480786
 20
7.6648260049
 10
10.2797953397
 20
7.6894193688
 10
10.2644859024
 20
7.7137611867
 10
10.2488302591
 20
7.737834776
 10
10.2328391395
 20
7.7616236377
 10
10.216523503
 20
7.7851114683
 10
10.1998945316
 20
7.8082821703
 10
10.1829636219
 20
7.8311198636
 10
10.1657423776
 20
7.8536088965
 10
10.1482426011
 20
7.8757338561
 10
10.1304762861
 20
7.8974795791
 10
10.1124556085
 20
7.918831162
 10
10.094192919
 20
7.9397739715
 10
10.0757007338
 20
7.9602936544
 10
10.0569917266
 20
7.9803761477
 10
10.0380787195
 20
8.0000076877
 10
10.0189746746
 20
8.01917482
 10
9.9996926849
 20
8.0378644084
 10
9.9802459653
 20
8.0560636439
 10
9.9606478436
 20
8.0737600538
 10
9.9409117513
 20
8.0909415098
 10
9.9210512146
 20
8.1075962366
 10
9.9010798449
 20
8.1237128198
 10
9.8810113296
 20
8.139280214
 10
9.8608594227
 20
8.15428775
 10
9.8406379352
 20
8.1687251425
 10
9.820360726
 20
8.1825824967
 10
9.800041692
 20
8.1958503155
 10
9.7796947589
 20
8.2085195059
 10
9.7593338715
 20
8.220581385
 10
9.738972984
 20
8.2320276862
 10
9.718626051
 20
8.2428505647
 10
9.698307017
 20
8.2530426031
 10
9.6780298077
 20
8.2625968163
 10
9.6578083203
 20
8.2715066563
 10
9.6376564133
 20
8.2797660168
 10
9.617587898
 20
8.2873692372
 10
9.5976165284
 20
8.2943111066
 10
9.5777559917
 20
8.3005868674
 10
9.5580198994
 20
8.3061922185
 10
9.5384217777
 20
8.3111233184
 10
9.518975058
 20
8.3153767874
 10
9.4996930683
 20
8.3189497104
 10
9.4805890235
 20
8.3218396388
 10
9.4616760164
 20
8.324044592
 10
9.4429670091
 20
8.3255630587
 10
9.424474824
 20
8.3263939983
 10
9.4062121344
 20
8.3265368413
 10
9.3881914569
 20
8.3259914898
 10
9.3704251418
 20
8.3247583176
 10
9.3529253654
 20
8.3228381698
 10
9.335704121
 20
8.3202323624
 10
9.3187732113
 20
8.3169426813
 10
9.3021442399
 20
8.3129713811
 10
9.2858286034
 20
8.3083211834
 10
9.2698374838
 20
8.3029952754
 10
9.2541818406
 20
8.2969973071
 10
9.2388724033
 20
8.2903313892
 10
9.2239196643
 20
8.2830020902
 10
9.2093785685
 20
8.2750402405
  0
LWPOLYLINE
  5
1F6
330
1F
100
AcDbEntity
  8
0
  6
Continuous
 62
     7
370
     0
100
AcDbPolyline
 90
       32
 70
   128
 43
0.0
 10
10.3092891744
 20
6.3697327433
 10
10.3093338715
 20
6.3697585506
 10
10.3235427218
 20
6.3783990911
 10
10.3373648915
 20
6.3876865934
 10
10.3507909077
 20
6.3976146924
 10
10.3638115687
 20
6.4081765837
 10
10.3764179509
 20
6.4193650289
 10
10.3886014146
 20
6.4311723598
 10
10.4003536097
 20
6.4435904845
 10
10.4116664818
 20
6.456610892
 10
10.4225322778
 20
6.4702246588
 10
10.4329435507
 20
6.4844224548
 10
10.4428931652
 20
6.4991945495
 10
10.4523743023
 20
6.5145308188
 10
10.4613804642
 20
6.5304207521
 10
10.4699054783
 20
6.5468534591
 10
10.4779435022
 20
6.5638176777
 10
10.4854890269
 20
6.5813017815
 10
10.4925368811
 20
6.5992937878
 10
10.4990822346
 20
6.6177813656
 10
10.5051206016
 20
6.6367518446
 10
10.5106478436
 20
6.6561922234
 10
10.5156601725
 20
6.6760891784
 10
10.5201541531
 20
6.6964290733
 10
10.5241267055
 20
6.7171979682
 10
10.5275751071
 20
6.7383816291
 10
10.5304969946
 20
6.7599655377
 10
10.5328903654
 20
6.7819349015
 10
10.5347535791
 20
6.8042746639
 10
10.536085359
 20
6.8269695142
 10
10.5368847922
 20
6.8500038986
 10
10.5371513308
 20
6.8733620304
  0
LINE
  5
1F7
330
1F
100
AcDbEntity
  8
0
  6
Continuous
 62
     7
370
     0
100
AcDbLine
 10
9.6386645539
 20
7.9447009107
 30
0.0
 11
9.6451916934
 21
7.9484689482
 31
0.0
  0
ARC
  5
1F8
330
1F
100
AcDbEntity
  8
0
  6
Continuous
 62
     7
370
     0
100
AcDbCircle
 10
8.7521260531
 20
6.8671475967
 30
0.0
 40
1.395375095778437
100
AcDbArc
 50
49.1501683483
 51
50.5547466178
  0
LINE
  5
1F9
330
1F
100
AcDbEntity
  8
0
  6
Continuous
 62
     7
370
     0
100
AcDbLine
 10
9.6147698281
 20
7.8937579709
 30
0.0
 11
9.6648112311
 21
7.9226462579
 31
0.0
  0
ARC
  5
1FA
330
1F
100
AcDbEntity
  8
0
  6
Continuous
 62
     7
370
     0
100
AcDbCircle
 10
8.679681251
 20
6.8121958179
 30
0.0
 40
1.429743801439749
100
AcDbArc
 50
48.743356842
 51
49.1542179052
  0
LINE
  5
1FB
330
1F
100
AcDbEntity
  8
0
  6
Continuous
 62
     7
370
     0
100
AcDbLine
 10
9.679070013
 20
7.9196811388
 30
0.0
 11
9.6225014705
 21
7.8870248143
 31
0.0
  0
ARC
  5
1FC
330
1F
100
AcDbEntity
  8
0
  6
Continuous
 62
     7
370
     0
100
AcDbCircle
 10
8.753605231
 20
6.8648960391
 30
0.0
 40
1.403230796872416
100
AcDbArc
 50
48.736398178
 51
50.5517371802
  0
SPLINE
  5
1FD
330
1F
100
AcDbEntity
  8
0
  6
Continuous
 62
     7
370
     0
100
AcDbSpline
210
0.0
220
0.0
230
1.0
 70
     8
 71
     3
 72
    15
 73
    11
 74
     0
 42
0.000000001
 43
0.00000001
 40
0.0
 40
0.0
 40
0.0
 40
0.0
 40
0.0627077247449609
 40
0.1254112927258666
 40
0.2505229930352411
 40
0.4986822572927487
 40
0.623856195598454
 40
0.749215932190616
 40
0.8746049824225658
 40
1.0
 40
1.0
 40
1.0
 40
1.0
 10
9.5635084076157
 20
7.943842118971738
 30
0.0
 10
9.564180672221664
 20
7.943341218943768
 30
0.0
 10
9.56552515687057
 20
7.942339452091445
 30
0.0
 10
9.568503229363944
 20
7.940528665185791
 30
0.0
 10
9.574291574598426
 20
7.937891918457398
 30
0.0
 10
9.582109142370562
 20
7.93670822864159
 30
0.0
 10
9.58926078720444
 20
7.937526911873864
 30
0.0
 10
9.594170922356165
 20
7.938926183274688
 30
0.0
 10
9.598831199187012
 20
7.940625284453387
 30
0.0
 10
9.601577550644226
 20
7.942103701658938
 30
0.0
 10
9.602950759047213
 20
7.942842927851002
 30
0.0
  0
SPLINE
  5
1FE
330
1F
100
AcDbEntity
  8
0
  6
Continuous
 62
     7
370
     0
100
AcDbSpline
210
0.0
220
0.0
230
1.0
 70
     8
 71
     3
 72
    13
 73
     9
 74
     0
 42
0.000000001
 43
0.00000001
 40
0.0
 40
0.0
 40
0.0
 40
0.0
 40
0.1432749372462809
 40
0.2507273399261557
 40
0.5002687912373651
 40
0.7494047175485
 40
0.8746601628233092
 40
1.0
 40
1.0
 40
1.0
 40
1.0
 10
9.561105805942343
 20
7.961262434769137
 30
0.0
 10
9.560500599500948
 20
7.960517413577636
 30
0.0
 10
9.559441504281132
 20
7.959213646253611
 30
0.0
 10
9.557875154152828
 20
7.956413686457427
 30
0.0
 10
9.55696521856469
 20
7.952675352525224
 30
0.0
 10
9.558654105255824
 20
7.94867565917222
 30
0.0
 10
9.56113127094607
 20
7.945793480676167
 30
0.0
 10
9.562715850848424
 20
7.944492718890543
 30
0.0
 10
9.5635084076157
 20
7.943842118971738
 30
0.0
  0
SPLINE
  5
1FF
330
1F
100
AcDbEntity
  8
0
  6
Continuous
 62
     7
370
     0
100
AcDbSpline
210
0.0
220
0.0
230
1.0
 70
     8
 71
     3
 72
     8
 73
     4
 74
     0
 42
0.000000001
 43
0.00000001
 40
0.0
 40
0.0
 40
0.0
 40
0.0
 40
1.0
 40
1.0
 40
1.0
 40
1.0
 10
9.551501360431253
 20
7.966166598790349
 30
0.0
 10
9.554704795764025
 20
7.964546334708146
 30
0.0
 10
9.557906323730657
 20
7.962911578934396
 30
0.0
 10
9.561105805942343
 20
7.961262434769137
 30
0.0
  0
SPLINE
  5
200
330
1F
100
AcDbEntity
  8
0
  6
Continuous
 62
     7
370
     0
100
AcDbSpline
210
0.0
220
0.0
230
1.0
 70
     8
 71
     3
 72
    14
 73
    10
 74
     0
 42
0.000000001
 43
0.00000001
 40
0.0
 40
0.0
 40
0.0
 40
0.0
 40
0.0716530045517789
 40
0.1432915146744429
 40
0.2864108891677041
 40
0.5709536820728823
 40
0.7851429384798596
 40
0.8925549501623609
 40
1.0
 40
1.0
 40
1.0
 40
1.0
 10
9.556601448892302
 20
7.94036800534284
 30
0.0
 10
9.555920352054917
 20
7.940912252998767
 30
0.0
 10
9.554558296156785
 20
7.942000638216717
 30
0.0
 10
9.552115870606999
 20
7.944308029286293
 30
0.0
 10
9.548493211296277
 20
7.948571613977871
 30
0.0
 10
9.546320058996805
 20
7.954679599478309
 30
0.0
 10
9.547444336543565
 20
7.960166730719765
 30
0.0
 10
9.549426924728095
 20
7.963719553337126
 30
0.0
 10
9.550809810982285
 20
7.965350833359683
 30
0.0
 10
9.551501360431253
 20
7.966166598790349
 30
0.0
  0
SPLINE
  5
201
330
1F
100
AcDbEntity
  8
0
  6
Continuous
 62
     7
370
     0
100
AcDbSpline
210
0.0
220
0.0
230
1.0
 70
     8
 71
     3
 72
    16
 73
    12
 74
     0
 42
0.000000001
 43
0.00000001
 40
0.0
 40
0.0
 40
0.0
 40
0.0
 40
0.0626673372253881
 40
0.1253236135994642
 40
0.2505320761322907
 40
0.4994286266897933
 40
0.6209451481813988
 40
0.74957145649886
 40
0.8746959905395729
 40
0.9373444465983474
 40
1.0
 40
1.0
 40
1.0
 40
1.0
 10
9.610808444623526
 20
7.936545321939589
 30
0.0
 10
9.609883546775384
 20
7.93603437634322
 30
0.0
 10
9.60803391432455
 20
7.935012575332918
 30
0.0
 10
9.604076341025936
 20
7.933197896136989
 30
0.0
 10
9.59659556260305
 20
7.930649614642634
 30
0.0
 10
9.586653113452195
 20
7.929515897183951
 30
0.0
 10
9.576439974019582
 20
7.930930105532361
 30
0.0
 10
9.569085247318869
 20
7.9331919778163
 30
0.0
 10
9.563414712147893
 20
7.935854417133821
 30
0.0
 10
9.559360229747485
 20
7.938328719735367
 30
0.0
 10
9.557521077234501
 20
7.939688217805912
 30
0.0
 10
9.556601448892302
 20
7.94036800534284
 30
0.0
  0
SPLINE
  5
202
330
1F
100
AcDbEntity
  8
0
  6
Continuous
 62
     7
370
     0
100
AcDbSpline
210
0.0
220
0.0
230
1.0
 70
     8
 71
     3
 72
    16
 73
    12
 74
     0
 42
0.000000001
 43
0.00000001
 40
0.0
 40
0.0
 40
0.0
 40
0.0
 40
0.0626596732655923
 40
0.125306693586367
 40
0.2504130650862167
 40
0.3753509260122166
 40
0.5003167170701722
 40
0.7494642842602048
 40
0.8746874249442951
 40
0.9373399599321091
 40
1.0
 40
1.0
 40
1.0
 40
1.0
 10
9.614464061392587
 20
7.973982641140378
 30
0.0
 10
9.615367224389198
 20
7.973262401885414
 30
0.0
 10
9.617173368005608
 20
7.97182206881428
 30
0.0
 10
9.620398778449369
 20
7.968736485069655
 30
0.0
 10
9.623788865480458
 20
7.964578762242563
 30
0.0
 10
9.625899273570248
 20
7.95913820491348
 30
0.0
 10
9.6258364228265
 20
7.951898738036248
 30
0.0
 10
9.621944450311096
 20
7.945374838763378
 30
0.0
 10
9.61687394275299
 20
7.940654683599719
 30
0.0
 10
9.613559490897265
 20
7.938194035290246
 30
0.0
 10
9.61172549666128
 20
7.937094914998901
 30
0.0
 10
9.610808444623526
 20
7.936545321939589
 30
0.0
  0
SPLINE
  5
203
330
1F
100
AcDbEntity
  8
0
  6
Continuous
 62
     7
370
     0
100
AcDbSpline
210
0.0
220
0.0
230
1.0
 70
     8
 71
     3
 72
    14
 73
    10
 74
     0
 42
0.000000001
 43
0.00000001
 40
0.0
 40
0.0
 40
0.0
 40
0.0
 40
0.0716724462801699
 40
0.1433330938213351
 40
0.2865135066059595
 40
0.5710080364223085
 40
0.7850962256137248
 40
0.8925354065146038
 40
1.0
 40
1.0
 40
1.0
 40
1.0
 10
9.572807956003135
 20
7.980357797124443
 30
0.0
 10
9.573751871491192
 20
7.980642677388163
 30
0.0
 10
9.575639547079655
 20
7.981212391018534
 30
0.0
 10
9.579600876783399
 20
7.982098362876808
 30
0.0
 10
9.586796869483692
 20
7.983151460640114
 30
0.0
 10
9.59687420635907
 20
7.98251484904292
 30
0.0
 10
9.605548492797176
 20
7.979494418327979
 30
0.0
 10
9.61092119758505
 20
7.976560939012858
 30
0.0
 10
9.613283013694375
 20
7.974842141514375
 30
0.0
 10
9.614464061392587
 20
7.973982641140378
 30
0.0
  0
SPLINE
  5
204
330
1F
100
AcDbEntity
  8
0
  6
Continuous
 62
     7
370
     0
100
AcDbSpline
210
0.0
220
0.0
230
1.0
 70
     8
 71
     3
 72
     8
 73
     4
 74
     0
 42
0.000000001
 43
0.00000001
 40
0.0
 40
0.0
 40
0.0
 40
0.0
 40
1.0
 40
1.0
 40
1.0
 40
1.0
 10
9.5788450146121
 20
7.973408750636733
 30
0.0
 10
9.576834636209071
 20
7.975739541093557
 30
0.0
 10
9.574822237197292
 20
7.978055924264019
 30
0.0
 10
9.572807956003135
 20
7.980357797124443
 30
0.0
  0
SPLINE
  5
205
330
1F
100
AcDbEntity
  8
0
  6
Continuous
 62
     7
370
     0
100
AcDbSpline
210
0.0
220
0.0
230
1.0
 70
     8
 71
     3
 72
    14
 73
    10
 74
     0
 42
0.000000001
 43
0.00000001
 40
0.0
 40
0.0
 40
0.0
 40
0.0
 40
0.114407090885305
 40
0.2002230675500237
 40
0.3997605577176595
 40
0.5482287445042605
 40
0.6997074444442525
 40
0.849832804313224
 40
1.0
 40
1.0
 40
1.0
 40
1.0
 10
9.608674214299269
 20
7.969644023036207
 30
0.0
 10
9.607764050915563
 20
7.970300001419662
 30
0.0
 10
9.606171180200581
 20
7.971448024703581
 30
0.0
 10
9.602542109781746
 20
7.973392856384429
 30
0.0
 10
9.598047094433666
 20
7.974924468446011
 30
0.0
 10
9.592574785181737
 20
7.975681411796953
 30
0.0
 10
9.587696161857318
 20
7.975541912887031
 30
0.0
 10
9.583060652232472
 20
7.974752383613457
 30
0.0
 10
9.580250357659368
 20
7.97385666989165
 30
0.0
 10
9.5788450146121
 20
7.973408750636733
 30
0.0
  0
SPLINE
  5
206
330
1F
100
AcDbEntity
  8
0
  6
Continuous
 62
     7
370
     0
100
AcDbSpline
210
0.0
220
0.0
230
1.0
 70
     8
 71
     3
 72
    15
 73
    11
 74
     0
 42
0.000000001
 43
0.00000001
 40
0.0
 40
0.0
 40
0.0
 40
0.0
 40
0.1252899332557442
 40
0.2505321937203271
 40
0.4998875512559053
 40
0.624807530814274
 40
0.7497334520959903
 40
0.8747525524942666
 40
0.9373611783787353
 40
1.0
 40
1.0
 40
1.0
 40
1.0
 10
9.602950759047213
 20
7.942842927851002
 30
0.0
 10
9.604282488610297
 20
7.943651665898122
 30
0.0
 10
9.606945441013671
 20
7.945268834267722
 30
0.0
 10
9.611512703622987
 20
7.94899863685772
 30
0.0
 10
9.615101382831975
 20
7.95340558282795
 30
0.0
 10
9.615899331208059
 20
7.958583645443742
 30
0.0
 10
9.614756096500363
 20
7.962557665371595
 30
0.0
 10
9.612787640883377
 20
7.96571584394209
 30
0.0
 10
9.610622312187061
 20
7.968049759409052
 30
0.0
 10
9.609323684623318
 20
7.969112516420941
 30
0.0
 10
9.608674214299269
 20
7.969644023036207
 30
0.0
  0
SPLINE
  5
207
330
1F
100
AcDbEntity
  8
0
  6
Continuous
 62
     7
370
     0
100
AcDbSpline
210
0.0
220
0.0
230
1.0
 70
     8
 71
     3
 72
    14
 73
    10
 74
     0
 42
0.000000001
 43
0.00000001
 40
0.0
 40
0.0
 40
0.0
 40
0.0
 40
0.0774551368941018
 40
0.1432421576893933
 40
0.2506462043330154
 40
0.4999824833175516
 40
0.7493896937132019
 40
0.8496532020587524
 40
1.0
 40
1.0
 40
1.0
 40
1.0
 10
9.483871081884026
 20
8.024719858394578
 30
0.0
 10
9.483523175782897
 20
8.025088740685483
 30
0.0
 10
9.482879773387687
 20
8.025770935532739
 30
0.0
 10
9.48194238464098
 20
8.027016577761243
 30
0.0
 10
9.480751425529277
 20
8.02919878317494
 30
0.0
 10
9.480507936799444
 20
8.0325247465429
 30
0.0
 10
9.482312567654281
 20
8.035577501138318
 30
0.0
 10
9.484768712774942
 20
8.037773576527728
 30
0.0
 10
9.486293745148533
 20
8.038732823682828
 30
0.0
 10
9.487208646604596
 20
8.039308297773818
 30
0.0
  0
SPLINE
  5
208
330
1F
100
AcDbEntity
  8
0
  6
Continuous
 62
     7
370
     0
100
AcDbSpline
210
0.0
220
0.0
230
1.0
 70
     8
 71
     3
 72
    13
 73
     9
 74
     0
 42
0.000000001
 43
0.00000001
 40
0.0
 40
0.0
 40
0.0
 40
0.0
 40
0.1252287028659458
 40
0.2503530499376757
 40
0.4999670345463403
 40
0.7495721283346756
 40
0.8747475022561323
 40
1.0
 40
1.0
 40
1.0
 40
1.0
 10
9.464940407452161
 20
8.023009853909771
 30
0.0
 10
9.465567942403638
 20
8.023342294662596
 30
0.0
 10
9.466822489368111
 20
8.024006899138161
 30
0.0
 10
9.469716911720026
 20
8.025033880246037
 30
0.0
 10
9.473802269773895
 20
8.025790948454889
 30
0.0
 10
9.47811132835375
 20
8.025734764394223
 30
0.0
 10
9.481454236273565
 20
8.025271393186214
 30
0.0
 10
9.483065301294937
 20
8.024903741066844
 30
0.0
 10
9.483871081884026
 20
8.024719858394578
 30
0.0
  0
SPLINE
  5
209
330
1F
100
AcDbEntity
  8
0
  6
Continuous
 62
     7
370
     0
100
AcDbSpline
210
0.0
220
0.0
230
1.0
 70
     8
 71
     3
 72
    15
 73
    11
 74
     0
 42
0.000000001
 43
0.00000001
 40
0.0
 40
0.0
 40
0.0
 40
0.0
 40
0.1252131538024193
 40
0.2503694317215137
 40
0.4996060601564346
 40
0.6229262980730126
 40
0.7496877066783714
 40
0.8747482997961816
 40
0.9373565066596925
 40
1.0
 40
1.0
 40
1.0
 40
1.0
 10
9.466637937648759
 20
8.004671916008164
 30
0.0
 10
9.465677108783
 20
8.005332260257262
 30
0.0
 10
9.463755887491171
 20
8.00665264880564
 30
0.0
 10
9.460854841398909
 20
8.009669326877404
 30
0.0
 10
9.459133599795642
 20
8.013016594086178
 30
0.0
 10
9.459241522977557
 20
8.016416660900864
 30
0.0
 10
9.460295036408102
 20
8.018866297640955
 30
0.0
 10
9.461823758290883
 20
8.02077013647274
 30
0.0
 10
9.463492923732291
 20
8.0221080354403
 30
0.0
 10
9.464457822267008
 20
8.02270919129983
 30
0.0
 10
9.464940407452161
 20
8.023009853909771
 30
0.0
  0
SPLINE
  5
20A
330
1F
100
AcDbEntity
  8
0
  6
Continuous
 62
     7
370
     0
100
AcDbSpline
210
0.0
220
0.0
230
1.0
 70
     8
 71
     3
 72
    13
 73
     9
 74
     0
 42
0.000000001
 43
0.00000001
 40
0.0
 40
0.0
 40
0.0
 40
0.0
 40
0.1254117477802287
 40
0.2507477841247274
 40
0.5001123622942523
 40
0.7493466854588953
 40
0.8746475215256659
 40
1.0
 40
1.0
 40
1.0
 40
1.0
 10
9.497655460474528
 20
8.002336121602555
 30
0.0
 10
9.496460728120335
 20
8.00190515684552
 30
0.0
 10
9.494071984675337
 20
8.001043487506124
 30
0.0
 10
9.48884389058836
 20
7.999861804148964
 30
0.0
 10
9.481675743530618
 20
7.999453545785929
 30
0.0
 10
9.474644610417736
 20
8.000853612764601
 30
0.0
 10
9.469773530250432
 20
8.002817323554385
 30
0.0
 10
9.467683278735006
 20
8.004053633617415
 30
0.0
 10
9.466637937648759
 20
8.004671916008164
 30
0.0
  0
SPLINE
  5
20B
330
1F
100
AcDbEntity
  8
0
  6
Continuous
 62
     7
370
     0
100
AcDbSpline
210
0.0
220
0.0
230
1.0
 70
     8
 71
     3
 72
     8
 73
     4
 74
     0
 42
0.000000001
 43
0.00000001
 40
0.0
 40
0.0
 40
0.0
 40
0.0
 40
1.0
 40
1.0
 40
1.0
 40
1.0
 10
9.491144911212249
 20
8.007497617381699
 30
0.0
 10
9.493315838098322
 20
8.005789675415004
 30
0.0
 10
9.495486056133503
 20
8.00406915391483
 30
0.0
 10
9.497655460474526
 20
8.002336121602557
 30
0.0
  0
SPLINE
  5
20C
330
1F
100
AcDbEntity
  8
0
  6
Continuous
 62
     7
370
     0
100
AcDbSpline
210
0.0
220
0.0
230
1.0
 70
     8
 71
     3
 72
    13
 73
     9
 74
     0
 42
0.000000001
 43
0.00000001
 40
0.0
 40
0.0
 40
0.0
 40
0.0
 40
0.1254313632604466
 40
0.250718644662657
 40
0.4999018722939906
 40
0.7491727394145303
 40
0.8745649252623255
 40
1.0
 40
1.0
 40
1.0
 40
1.0
 10
9.472938733268425
 20
8.008583919999523
 30
0.0
 10
9.473555050934726
 20
8.008219622554098
 30
0.0
 10
9.474786978308865
 20
8.007491446128384
 30
0.0
 10
9.47766590805269
 20
8.006351692823115
 30
0.0
 10
9.481833756350866
 20
8.005550780164478
 30
0.0
 10
9.486028982981402
 20
8.005940058816247
 30
0.0
 10
9.489066091988319
 20
8.006699448400731
 30
0.0
 10
9.490451892485046
 20
8.007231530727836
 30
0.0
 10
9.491144911212249
 20
8.007497617381699
 30
0.0
  0
SPLINE
  5
20D
330
1F
100
AcDbEntity
  8
0
  6
Continuous
 62
     7
370
     0
100
AcDbSpline
210
0.0
220
0.0
230
1.0
 70
     8
 71
     3
 72
    14
 73
    10
 74
     0
 42
0.000000001
 43
0.00000001
 40
0.0
 40
0.0
 40
0.0
 40
0.0
 40
0.1252759325083455
 40
0.2505124704087607
 40
0.4994618730213432
 40
0.6992056232354581
 40
0.8195005862892168
 40
0.904325060477261
 40
1.0
 40
1.0
 40
1.0
 40
1.0
 10
9.47242629431002
 20
8.018670332474919
 30
0.0
 10
9.471898004227977
 20
8.01833626481403
 30
0.0
 10
9.470841590191421
 20
8.017668234544068
 30
0.0
 10
9.46936278796323
 20
8.016039772705856
 30
0.0
 10
9.468771563001528
 20
8.01386802132727
 30
0.0
 10
9.469513870664416
 20
8.011723377498921
 30
0.0
 10
9.470679007922127
 20
8.010334196545347
 30
0.0
 10
9.47177061367567
 20
8.009381629703288
 30
0.0
 10
9.472534062197113
 20
8.008860270163002
 30
0.0
 10
9.472938733268425
 20
8.008583919999523
 30
0.0
  0
SPLINE
  5
20E
330
1F
100
AcDbEntity
  8
0
  6
Continuous
 62
     7
370
     0
100
AcDbSpline
210
0.0
220
0.0
230
1.0
 70
     8
 71
     3
 72
    15
 73
    11
 74
     0
 42
0.000000001
 43
0.00000001
 40
0.0
 40
0.0
 40
0.0
 40
0.0
 40
0.1251693409968908
 40
0.2502486976880381
 40
0.3779062878953641
 40
0.5004567933119648
 40
0.6289578528620422
 40
0.750034521705867
 40
0.8749347581733802
 40
1.0
 40
1.0
 40
1.0
 40
1.0
 10
9.491690233105906
 20
8.016989689393457
 30
0.0
 10
9.491023945297654
 20
8.01738438590163
 30
0.0
 10
9.489691848675811
 20
8.018173495170451
 30
0.0
 10
9.487391391319147
 20
8.019152169682249
 30
0.0
 10
9.484920290869383
 20
8.019917482291465
 30
0.0
 10
9.482281576408589
 20
8.020459898227367
 30
0.0
 10
9.479565526630656
 20
8.020686545708102
 30
0.0
 10
9.47687040087147
 20
8.020417587406694
 30
0.0
 10
9.47444216294507
 20
8.019727268475357
 30
0.0
 10
9.47309854616782
 20
8.019022799484683
 30
0.0
 10
9.47242629431002
 20
8.018670332474919
 30
0.0
  0
LINE
  5
20F
330
1F
100
AcDbEntity
  8
0
  6
Continuous
 62
     7
370
     0
100
AcDbLine
 10
9.4926519235
 20
8.0162780354
 30
0.0
 11
9.4916902331
 21
8.0169896894
 31
0.0
  0
LINE
  5
210
330
1F
100
AcDbEntity
  8
0
  6
Continuous
 62
     7
370
     0
100
AcDbLine
 10
9.49992583
 20
8.0195674238
 30
0.0
 11
9.4926519235
 21
8.0162780354
 31
0.0
  0
SPLINE
  5
211
330
1F
100
AcDbEntity
  8
0
  6
Continuous
 62
     7
370
     0
100
AcDbSpline
210
0.0
220
0.0
230
1.0
 70
     8
 71
     3
 72
    10
 73
     6
 74
     0
 42
0.000000001
 43
0.00000001
 40
0.0
 40
0.0
 40
0.0
 40
0.0
 40
0.2534544635704136
 40
0.4999396435964941
 40
1.0
 40
1.0
 40
1.0
 40
1.0
 10
9.494470366494388
 20
8.022111672518921
 30
0.0
 10
9.494891080764619
 20
8.021867389613668
 30
0.0
 10
9.49572094084817
 20
8.0213855408947
 30
0.0
 10
9.497516016503772
 20
8.02051075075833
 30
0.0
 10
9.498959163454774
 20
8.019945827597772
 30
0.0
 10
9.499925829978713
 20
8.019567423785512
 30
0.0
  0
SPLINE
  5
212
330
1F
100
AcDbEntity
  8
0
  6
Continuous
 62
     7
370
     0
100
AcDbSpline
210
0.0
220
0.0
230
1.0
 70
     8
 71
     3
 72
    14
 73
    10
 74
     0
 42
0.000000001
 43
0.00000001
 40
0.0
 40
0.0
 40
0.0
 40
0.0
 40
0.0717181814527273
 40
0.1434279258791493
 40
0.2508656219557253
 40
0.5000849619969782
 40
0.7492522131443075
 40
0.8745877581892474
 40
1.0
 40
1.0
 40
1.0
 40
1.0
 10
9.494400800781152
 20
8.034829391921217
 30
0.0
 10
9.494010190702232
 20
8.034593847796978
 30
0.0
 10
9.493229016496302
 20
8.034122787258237
 30
0.0
 10
9.492063657996539
 20
8.033191961077597
 30
0.0
 10
9.490391564052876
 20
8.031469438063628
 30
0.0
 10
9.489433758812549
 20
8.028596947699292
 30
0.0
 10
9.490497584602458
 20
8.025611675770316
 30
0.0
 10
9.492458084971735
 20
8.02348411384817
 30
0.0
 10
9.493799469222807
 20
8.022569246239513
 30
0.0
 10
9.494470366494388
 20
8.022111672518921
 30
0.0
  0
SPLINE
  5
213
330
1F
100
AcDbEntity
  8
0
  6
Continuous
 62
     7
370
     0
100
AcDbSpline
210
0.0
220
0.0
230
1.0
 70
     8
 71
     3
 72
    15
 73
    11
 74
     0
 42
0.000000001
 43
0.00000001
 40
0.0
 40
0.0
 40
0.0
 40
0.0
 40
0.0717072521810319
 40
0.1434014835785135
 40
0.2508191930549948
 40
0.4997660871570009
 40
0.7491203313106528
 40
0.8494361006909718
 40
0.9247099737865592
 40
1.0
 40
1.0
 40
1.0
 40
1.0
 10
9.51681607725913
 20
8.034353032508058
 30
0.0
 10
9.516385709622316
 20
8.03461800706047
 30
0.0
 10
9.51552505249593
 20
8.035147908050547
 30
0.0
 10
9.513838414635531
 20
8.035949500357217
 30
0.0
 10
9.510731145117845
 20
8.037115748727214
 30
0.0
 10
9.505593156118435
 20
8.037841836061604
 30
0.0
 10
9.500558544916794
 20
8.037277543057227
 30
0.0
 10
9.497467840677299
 20
8.036284518831522
 30
0.0
 10
9.495764581249249
 20
8.035583186830566
 30
0.0
 10
9.494855426783136
 20
8.03508067486152
 30
0.0
 10
9.494400800781152
 20
8.034829391921217
 30
0.0
  0
SPLINE
  5
214
330
1F
100
AcDbEntity
  8
0
  6
Continuous
 62
     7
370
     0
100
AcDbSpline
210
0.0
220
0.0
230
1.0
 70
     8
 71
     3
 72
    15
 73
    11
 74
     0
 42
0.000000001
 43
0.00000001
 40
0.0
 40
0.0
 40
0.0
 40
0.0
 40
0.1373112020767801
 40
0.2502195867864296
 40
0.3823702423715832
 40
0.5002151231390176
 40
0.6240840041863682
 40
0.7499549182437202
 40
0.8749585740752521
 40
1.0
 40
1.0
 40
1.0
 40
1.0
 10
9.51725201203055
 20
8.021680203489426
 30
0.0
 10
9.51780284596937
 20
8.022207989139405
 30
0.0
 10
9.518806620158768
 20
8.023169762871282
 30
0.0
 10
9.520089210590783
 20
8.024735791305835
 30
0.0
 10
9.520977015369354
 20
8.02631980461711
 30
0.0
 10
9.521422467224042
 20
8.028040061330957
 30
0.0
 10
9.521204801134788
 20
8.02977655238721
 30
0.0
 10
9.520249967573417
 20
8.031466624406317
 30
0.0
 10
9.518770847269769
 20
8.033023430384368
 30
0.0
 10
9.517467732875847
 20
8.033909787171172
 30
0.0
 10
9.51681607725913
 20
8.034353032508058
 30
0.0
  0
SPLINE
  5
215
330
1F
100
AcDbEntity
  8
0
  6
Continuous
 62
     7
370
     0
100
AcDbSpline
210
0.0
220
0.0
230
1.0
 70
     8
 71
     3
 72
     8
 73
     4
 74
     0
 42
0.000000001
 43
0.00000001
 40
0.0
 40
0.0
 40
0.0
 40
0.0
 40
1.0
 40
1.0
 40
1.0
 40
1.0
 10
9.525212576832674
 20
8.017348524322488
 30
0.0
 10
9.522559844461238
 20
8.018804944201609
 30
0.0
 10
9.519906287914996
 20
8.020248860200725
 30
0.0
 10
9.51725201203055
 20
8.021680203489426
 30
0.0
  0
SPLINE
  5
216
330
1F
100
AcDbEntity
  8
0
  6
Continuous
 62
     7
370
     0
100
AcDbSpline
210
0.0
220
0.0
230
1.0
 70
     8
 71
     3
 72
    14
 73
    10
 74
     0
 42
0.000000001
 43
0.00000001
 40
0.0
 40
0.0
 40
0.0
 40
0.0
 40
0.0627305927652492
 40
0.1254473520767301
 40
0.2507344035478448
 40
0.4999835138771444
 40
0.749354375565498
 40
0.8746405523095583
 40
1.0
 40
1.0
 40
1.0
 40
1.0
 10
9.523603518121494
 20
8.037955638592662
 30
0.0
 10
9.524140322513317
 20
8.037601872029926
 30
0.0
 10
9.525213812919976
 20
8.036894416917644
 30
0.0
 10
9.52712109417715
 20
8.035353868521177
 30
0.0
 10
9.52997357351069
 20
8.032452982924248
 30
0.0
 10
9.53184673714512
 20
8.027663084120785
 30
0.0
 10
9.530676561841231
 20
8.02289091198875
 30
0.0
 10
9.52801272029943
 20
8.019528806170769
 30
0.0
 10
9.52614613987336
 20
8.018075426560177
 30
0.0
 10
9.525212576832674
 20
8.017348524322488
 30
0.0
  0
SPLINE
  5
217
330
1F
100
AcDbEntity
  8
0
  6
Continuous
 62
     7
370
     0
100
AcDbSpline
210
0.0
220
0.0
230
1.0
 70
     8
 71
     3
 72
    15
 73
    11
 74
     0
 42
0.000000001
 43
0.00000001
 40
0.0
 40
0.0
 40
0.0
 40
0.0
 40
0.0626649955551427
 40
0.1253073328760928
 40
0.2504304340281958
 40
0.4993425453461439
 40
0.62463895966548
 40
0.749605961180651
 40
0.874767606507437
 40
1.0
 40
1.0
 40
1.0
 40
1.0
 10
9.487208646604596
 20
8.039308297773818
 30
0.0
 10
9.48782170815669
 20
8.039646276344111
 30
0.0
 10
9.48904760959179
 20
8.040322111279353
 30
0.0
 10
9.491768790122281
 20
8.041482770731868
 30
0.0
 10
9.497015003218635
 20
8.043061208202634
 30
0.0
 10
9.503906437206268
 20
8.043590597798934
 30
0.0
 10
9.510633634919744
 20
8.042942481992116
 30
0.0
 10
9.515452112471865
 20
8.041814823844575
 30
0.0
 10
9.519873229371074
 20
8.040156280843659
 30
0.0
 10
9.522359854341609
 20
8.038689324171221
 30
0.0
 10
9.523603518121494
 20
8.037955638592662
 30
0.0
  0
SPLINE
  5
218
330
1F
100
AcDbEntity
  8
0
  6
Continuous
 62
     7
370
     0
100
AcDbSpline
210
0.0
220
0.0
230
1.0
 70
     8
 71
     3
 72
    12
 73
     8
 74
     0
 42
0.000000001
 43
0.00000001
 40
0.0
 40
0.0
 40
0.0
 40
0.0
 40
0.2500254403219309
 40
0.4999661796302677
 40
0.7498412451501826
 40
0.8749080833013038
 40
1.0
 40
1.0
 40
1.0
 40
1.0
 10
9.3978833369792
 20
8.085177467793297
 30
0.0
 10
9.399112683052865
 20
8.08584002157882
 30
0.0
 10
9.401570958735142
 20
8.087164904696797
 30
0.0
 10
9.405859283571198
 20
8.088785549169398
 30
0.0
 10
9.409739305576103
 20
8.089820391467292
 30
0.0
 10
9.412971724229228
 20
8.090442180550149
 30
0.0
 10
9.414627593958222
 20
8.090649350197037
 30
0.0
 10
9.415455611823628
 20
8.090752945404914
 30
0.0
  0
SPLINE
  5
219
330
1F
100
AcDbEntity
  8
0
  6
Continuous
 62
     7
370
     0
100
AcDbSpline
210
0.0
220
0.0
230
1.0
 70
     8
 71
     3
 72
    15
 73
    11
 74
     0
 42
0.000000001
 43
0.00000001
 40
0.0
 40
0.0
 40
0.0
 40
0.0
 40
0.0626631227623118
 40
0.1253010678554449
 40
0.2503942881658462
 40
0.4992765565492128
 40
0.6245124185026197
 40
0.7495575867235389
 40
0.8747501309312455
 40
1.0
 40
1.0
 40
1.0
 40
1.0
 10
9.396125689109072
 20
8.06647884065587
 30
0.0
 10
9.395565904799472
 20
8.066776355584677
 30
0.0
 10
9.394446561098269
 20
8.067371265902569
 30
0.0
 10
9.392516271067645
 20
8.068705688727361
 30
0.0
 10
9.389901749297278
 20
8.071320690731001
 30
0.0
 10
9.389116885423121
 20
8.07483282291685
 30
0.0
 10
9.390174416939509
 20
8.078285995216417
 30
0.0
 10
9.391963097286528
 20
8.080791377273933
 30
0.0
 10
9.39456361784756
 20
8.083118634723414
 30
0.0
 10
9.396776595089301
 20
8.08449108538792
 30
0.0
 10
9.3978833369792
 20
8.085177467793297
 30
0.0
  0
SPLINE
  5
21A
330
1F
100
AcDbEntity
  8
0
  6
Continuous
 62
     7
370
     0
100
AcDbSpline
210
0.0
220
0.0
230
1.0
 70
     8
 71
     3
 72
    12
 73
     8
 74
     0
 42
0.000000001
 43
0.00000001
 40
0.0
 40
0.0
 40
0.0
 40
0.0
 40
0.250026430543826
 40
0.499957993501722
 40
0.6999160723306593
 40
0.8499541454004881
 40
0.9999999999999999
 40
0.9999999999999999
 40
0.9999999999999999
 40
0.9999999999999999
 10
9.409967797239416
 20
8.063513900930467
 30
0.0
 10
9.408689817541454
 20
8.06358423861814
 30
0.0
 10
9.406134343049661
 20
8.063724887305243
 30
0.0
 10
9.402689135510041
 20
8.064253676797916
 30
0.0
 10
9.399952829225915
 20
8.064958339401944
 30
0.0
 10
9.397817290497038
 20
8.065677563385947
 30
0.0
 10
9.396689565986136
 20
8.066211743615254
 30
0.0
 10
9.396125689109072
 20
8.06647884065587
 30
0.0
  0
SPLINE
  5
21B
330
1F
100
AcDbEntity
  8
0
  6
Continuous
 62
     7
370
     0
100
AcDbSpline
210
0.0
220
0.0
230
1.0
 70
     8
 71
     3
 72
     8
 73
     4
 74
     0
 42
0.000000001
 43
0.00000001
 40
0.0
 40
0.0
 40
0.0
 40
0.0
 40
1.0
 40
1.0
 40
1.0
 40
1.0
 10
9.392441462864232
 20
8.0565391243465
 30
0.0
 10
9.398283479445743
 20
8.058866151612877
 30
0.0
 10
9.404125593090729
 20
8.06119107601216
 30
0.0
 10
9.409967797239416
 20
8.063513900930467
 30
0.0
  0
ARC
  5
21C
330
1F
100
AcDbEntity
  8
0
  6
Continuous
 62
     7
370
     0
100
AcDbCircle
 10
8.9657776396
 20
7.226719511
 30
0.0
 40
0.9330823161855394
100
AcDbArc
 50
62.7893790944
 51
64.2205076268
  0
LINE
  5
21D
330
1F
100
AcDbEntity
  8
0
  6
Continuous
 62
     7
370
     0
100
AcDbLine
 10
9.3643309955
 20
8.0627496294
 30
0.0
 11
9.3715833727
 21
8.0669363376
 31
0.0
  0
ARC
  5
21E
330
1F
100
AcDbEntity
  8
0
  6
Continuous
 62
     7
370
     0
100
AcDbCircle
 10
8.9560130339
 20
7.2174550185
 30
0.0
 40
0.9387473232491567
100
AcDbArc
 50
62.3878088944
 51
64.2172224935
  0
SPLINE
  5
21F
330
1F
100
AcDbEntity
  8
0
  6
Continuous
 62
     7
370
     0
100
AcDbSpline
210
0.0
220
0.0
230
1.0
 70
     8
 71
     3
 72
     8
 73
     4
 74
     0
 42
0.000000001
 43
0.00000001
 40
0.0
 40
0.0
 40
0.0
 40
0.0
 40
1.0
 40
1.0
 40
1.0
 40
1.0
 10
9.425913893895403
 20
8.062974709776755
 30
0.0
 10
9.414311608564601
 20
8.058419536276704
 30
0.0
 10
9.402709608987546
 20
8.05385587508769
 30
0.0
 10
9.391107948916357
 20
8.049283697872154
 30
0.0
  0
SPLINE
  5
220
330
1F
100
AcDbEntity
  8
0
  6
Continuous
 62
     7
370
     0
100
AcDbSpline
210
0.0
220
0.0
230
1.0
 70
     8
 71
     3
 72
     8
 73
     4
 74
     0
 42
0.000000001
 43
0.00000001
 40
0.0
 40
0.0
 40
0.0
 40
0.0
 40
1.0
 40
1.0
 40
1.0
 40
1.0
 10
9.419393892298745
 20
8.06720517992967
 30
0.0
 10
9.421566709685933
 20
8.065808322081532
 30
0.0
 10
9.423740078544895
 20
8.06439814695348
 30
0.0
 10
9.425913893895403
 20
8.062974709776757
 30
0.0
  0
SPLINE
  5
221
330
1F
100
AcDbEntity
  8
0
  6
Continuous
 62
     7
370
     0
100
AcDbSpline
210
0.0
220
0.0
230
1.0
 70
     8
 71
     3
 72
    12
 73
     8
 74
     0
 42
0.000000001
 43
0.00000001
 40
0.0
 40
0.0
 40
0.0
 40
0.0
 40
0.2501600746970298
 40
0.4997212708768883
 40
0.7496198846855702
 40
0.8747847392147454
 40
1.0
 40
1.0
 40
1.0
 40
1.0
 10
9.40465462462977
 20
8.069236351900452
 30
0.0
 10
9.405649009213665
 20
8.068776283670543
 30
0.0
 10
9.407635397843451
 20
8.067857248605419
 30
0.0
 10
9.41134534351978
 20
8.0670188314177
 30
0.0
 10
9.414702898380485
 20
8.066851003439192
 30
0.0
 10
9.417402734682637
 20
8.06694720688163
 30
0.0
 10
9.418730084019861
 20
8.067119177373353
 30
0.0
 10
9.419393892298745
 20
8.06720517992967
 30
0.0
  0
SPLINE
  5
222
330
1F
100
AcDbEntity
  8
0
  6
Continuous
 62
     7
370
     0
100
AcDbSpline
210
0.0
220
0.0
230
1.0
 70
     8
 71
     3
 72
    14
 73
    10
 74
     0
 42
0.000000001
 43
0.00000001
 40
0.0
 40
0.0
 40
0.0
 40
0.0
 40
0.14316291597901
 40
0.2862518345746037
 40
0.429162772528591
 40
0.5719568474698176
 40
0.7852333652934216
 40
0.8925763382905663
 40
1.0
 40
1.0
 40
1.0
 40
1.0
 10
9.405542722888192
 20
8.081927683804283
 30
0.0
 10
9.40467128809626
 20
8.081389700875372
 30
0.0
 10
9.402928868935566
 20
8.080314013087666
 30
0.0
 10
9.40087666283865
 20
8.078478842870059
 30
0.0
 10
9.399598537781214
 20
8.076480225454272
 30
0.0
 10
9.399192052876208
 20
8.074055918260902
 30
0.0
 10
9.400558314725675
 20
8.071932676994582
 30
0.0
 10
9.402685352548902
 20
8.07029961843851
 30
0.0
 10
9.403998036209256
 20
8.069590862840606
 30
0.0
 10
9.40465462462977
 20
8.069236351900452
 30
0.0
  0
SPLINE
  5
223
330
1F
100
AcDbEntity
  8
0
  6
Continuous
 62
     7
370
     0
100
AcDbSpline
210
0.0
220
0.0
230
1.0
 70
     8
 71
     3
 72
    14
 73
    10
 74
     0
 42
0.000000001
 43
0.00000001
 40
0.0
 40
0.0
 40
0.0
 40
0.0
 40
0.1251970014424423
 40
0.2502999019769238
 40
0.3727610838861365
 40
0.5003498491033561
 40
0.7494545984454546
 40
0.8747156920710812
 40
1.0
 40
1.0
 40
1.0
 40
1.0
 10
9.430071876498284
 20
8.083872650294126
 30
0.0
 10
9.429216929782275
 20
8.084264716538602
 30
0.0
 10
9.427507678947615
 20
8.085048554341663
 30
0.0
 10
9.424436471115447
 20
8.08581002164786
 30
0.0
 10
9.421052033567506
 20
8.086144837999356
 30
0.0
 10
9.416398718521434
 20
8.08591755177392
 30
0.0
 10
9.411908319683121
 20
8.0848652549743
 30
0.0
 10
9.408076748433004
 20
8.083309544219565
 30
0.0
 10
9.406387450243813
 20
8.08238833239436
 30
0.0
 10
9.405542722888192
 20
8.081927683804283
 30
0.0
  0
SPLINE
  5
224
330
1F
100
AcDbEntity
  8
0
  6
Continuous
 62
     7
370
     0
100
AcDbSpline
210
0.0
220
0.0
230
1.0
 70
     8
 71
     3
 72
    14
 73
    10
 74
     0
 42
0.000000001
 43
0.00000001
 40
0.0
 40
0.0
 40
0.0
 40
0.0
 40
0.1252774937450563
 40
0.250495704974183
 40
0.4995727217349473
 40
0.6240990077795225
 40
0.7496548526519351
 40
0.8747861893684593
 40
1.0
 40
1.0
 40
1.0
 40
1.0
 10
9.430271605866528
 20
8.07268898176912
 30
0.0
 10
9.430815274582788
 20
8.073131618661693
 30
0.0
 10
9.431902354746036
 20
8.074016682986796
 30
0.0
 10
9.433647633476518
 20
8.075910737478466
 30
0.0
 10
9.43463902979697
 20
8.077992950153678
 30
0.0
 10
9.43437136719399
 20
8.080063950841067
 30
0.0
 10
9.433457015474746
 20
8.081514121571866
 30
0.0
 10
9.432002896572527
 20
8.082808646720633
 30
0.0
 10
9.430715691209036
 20
8.083517904550131
 30
0.0
 10
9.430071876498284
 20
8.083872650294126
 30
0.0
  0
SPLINE
  5
225
330
1F
100
AcDbEntity
  8
0
  6
Continuous
 62
     7
370
     0
100
AcDbSpline
210
0.0
220
0.0
230
1.0
 70
     8
 71
     3
 72
     8
 73
     4
 74
     0
 42
0.000000001
 43
0.00000001
 40
0.0
 40
0.0
 40
0.0
 40
0.0
 40
1.0
 40
1.0
 40
1.0
 40
1.0
 10
9.438242379151326
 20
8.069287881128872
 30
0.0
 10
9.435584983737044
 20
8.070434856253229
 30
0.0
 10
9.432928024313938
 20
8.071568574915563
 30
0.0
 10
9.430271605866528
 20
8.07268898176912
 30
0.0
  0
SPLINE
  5
226
330
1F
100
AcDbEntity
  8
0
  6
Continuous
 62
     7
370
     0
100
AcDbSpline
210
0.0
220
0.0
230
1.0
 70
     8
 71
     3
 72
    14
 73
    10
 74
     0
 42
0.000000001
 43
0.00000001
 40
0.0
 40
0.0
 40
0.0
 40
0.0
 40
0.1252473964946653
 40
0.2504302969102002
 40
0.4993057413268546
 40
0.624408346924823
 40
0.7495630757481846
 40
0.8747729446731877
 40
1.0
 40
1.0
 40
1.0
 40
1.0
 10
9.436644258182923
 20
8.087617777605587
 30
0.0
 10
9.437699378573699
 20
8.087037113294024
 30
0.0
 10
9.439809076021575
 20
8.08587608368367
 30
0.0
 10
9.443079737979295
 20
8.083097911844979
 30
0.0
 10
9.444699341042805
 20
8.079753792027018
 30
0.0
 10
9.44432764289344
 20
8.076319415146394
 30
0.0
 10
9.443134715588647
 20
8.073787227491275
 30
0.0
 10
9.441077813407238
 20
8.071404525943686
 30
0.0
 10
9.439187567143101
 20
8.069993461678887
 30
0.0
 10
9.438242379151326
 20
8.069287881128872
 30
0.0
  0
SPLINE
  5
227
330
1F
100
AcDbEntity
  8
0
  6
Continuous
 62
     7
370
     0
100
AcDbSpline
210
0.0
220
0.0
230
1.0
 70
     8
 71
     3
 72
    13
 73
     9
 74
     0
 42
0.000000001
 43
0.00000001
 40
0.0
 40
0.0
 40
0.0
 40
0.0
 40
0.125164323424177
 40
0.2502678499793961
 40
0.4999977268184067
 40
0.7497087214712032
 40
0.8748307575535743
 40
1.0
 40
1.0
 40
1.0
 40
1.0
 10
9.415455611823628
 20
8.090752945404914
 30
0.0
 10
9.416424356857952
 20
8.090851992985845
 30
0.0
 10
9.418361376371864
 20
8.091050040036691
 30
0.0
 10
9.422255683953262
 20
8.09115189370264
 30
0.0
 10
9.427051154678699
 20
8.09079859099942
 30
0.0
 10
9.431402427825931
 20
8.089762799330817
 30
0.0
 10
9.434535099808787
 20
8.088635321440426
 30
0.0
 10
9.435941116997256
 20
8.087957001528869
 30
0.0
 10
9.436644258182923
 20
8.087617777605587
 30
0.0
  0
LINE
  5
228
330
1F
100
AcDbEntity
  8
0
  6
Continuous
 62
     7
370
     0
100
AcDbLine
 10
9.8111016976
 20
7.8669114165
 30
0.0
 11
9.8176288371
 21
7.8706794539
 31
0.0
  0
ARC
  5
229
330
1F
100
AcDbEntity
  8
0
  6
Continuous
 62
     7
370
     0
100
AcDbCircle
 10
8.6534539375
 20
6.735273091
 30
0.0
 40
1.618874187830438
100
AcDbArc
 50
43.3519941832
 51
44.349069246
  0
LINE
  5
22A
330
1F
100
AcDbEntity
  8
0
  6
Continuous
 62
     7
370
     0
100
AcDbLine
 10
9.8371456025
 20
7.8503634561
 30
0.0
 11
9.830618463
 21
7.8465954187
 31
0.0
  0
ARC
  5
22B
330
1F
100
AcDbEntity
  8
0
  6
Continuous
 62
     7
370
     0
100
AcDbCircle
 10
8.659981077
 20
6.7390411285
 30
0.0
 40
1.618874187809992
100
AcDbArc
 50
43.3519941832
 51
44.349069246
  0
SPLINE
  5
22C
330
1F
100
AcDbEntity
  8
0
  6
Continuous
 62
     7
370
     0
100
AcDbSpline
210
0.0
220
0.0
230
1.0
 70
     8
 71
     3
 72
    15
 73
    11
 74
     0
 42
0.000000001
 43
0.00000001
 40
0.0
 40
0.0
 40
0.0
 40
0.0
 40
0.0627077247449599
 40
0.1254112927258657
 40
0.2505229930352401
 40
0.498682257292738
 40
0.623856195598447
 40
0.7492159321906099
 40
0.8746049824225645
 40
1.0
 40
1.0
 40
1.0
 40
1.0
 10
9.753265787864928
 20
7.881147585800238
 30
0.0
 10
9.753912142473181
 20
7.88054378964753
 30
0.0
 10
9.755204808844192
 20
7.879336237366497
 30
0.0
 10
9.75807892315424
 20
7.877118947565544
 30
0.0
 10
9.763689150307798
 20
7.873797732838416
 30
0.0
 10
9.771332839001651
 20
7.871969833229728
 30
0.0
 10
9.778382234744292
 20
7.872416578525889
 30
0.0
 10
9.783247814152496
 20
7.873654981423734
 30
0.0
 10
9.78787721959908
 20
7.875243180718487
 30
0.0
 10
9.790620231111813
 20
7.876709637627063
 30
0.0
 10
9.791991769502822
 20
7.877442883528342
 30
0.0
  0
SPLINE
  5
22D
330
1F
100
AcDbEntity
  8
0
  6
Continuous
 62
     7
370
     0
100
AcDbSpline
210
0.0
220
0.0
230
1.0
 70
     8
 71
     3
 72
    13
 73
     9
 74
     0
 42
0.000000001
 43
0.00000001
 40
0.0
 40
0.0
 40
0.0
 40
0.0
 40
0.1432749372462826
 40
0.2507273399261571
 40
0.5002687912373616
 40
0.7494047175484934
 40
0.8746601628233048
 40
1.0
 40
1.0
 40
1.0
 40
1.0
 10
9.751393705314383
 20
7.900778790152698
 30
0.0
 10
9.750777676427477
 20
7.899986606795556
 30
0.0
 10
9.749699642215077
 20
7.898600306932597
 30
0.0
 10
9.748081157973344
 20
7.89557490678082
 30
0.0
 10
9.747082356373584
 20
7.891455451301467
 30
0.0
 10
9.748631180280183
 20
7.886870453789164
 30
0.0
 10
9.7509849909199
 20
7.883484666194377
 30
0.0
 10
9.752505351548136
 20
7.881926787478336
 30
0.0
 10
9.753265787864928
 20
7.881147585800238
 30
0.0
  0
SPLINE
  5
22E
330
1F
100
AcDbEntity
  8
0
  6
Continuous
 62
     7
370
     0
100
AcDbSpline
210
0.0
220
0.0
230
1.0
 70
     8
 71
     3
 72
     8
 73
     4
 74
     0
 42
0.000000001
 43
0.00000001
 40
0.0
 40
0.0
 40
0.0
 40
0.0
 40
1.0
 40
1.0
 40
1.0
 40
1.0
 10
9.742069613992417
 20
7.90693902139969
 30
0.0
 10
9.745181697690787
 20
7.90489830681239
 30
0.0
 10
9.748289772622623
 20
7.902844854622775
 30
0.0
 10
9.751393705314383
 20
7.900778790152698
 30
0.0
  0
SPLINE
  5
22F
330
1F
100
AcDbEntity
  8
0
  6
Continuous
 62
     7
370
     0
100
AcDbSpline
210
0.0
220
0.0
230
1.0
 70
     8
 71
     3
 72
    14
 73
    10
 74
     0
 42
0.000000001
 43
0.00000001
 40
0.0
 40
0.0
 40
0.0
 40
0.0
 40
0.0716530045517796
 40
0.1432915146744441
 40
0.2864108891676852
 40
0.5709536820728837
 40
0.7851429384798599
 40
0.8925549501623598
 40
0.9999999999999999
 40
0.9999999999999999
 40
0.9999999999999999
 40
0.9999999999999999
 10
9.74637373809574
 20
7.87773296416022
 30
0.0
 10
9.745719783644201
 20
7.878386062153823
 30
0.0
 10
9.744412007027224
 20
7.879692126028179
 30
0.0
 10
9.74207600701914
 20
7.882433489478891
 30
0.0
 10
9.738632953522748
 20
7.887443455196284
 30
0.0
 10
9.73666195023102
 20
7.8944276253164
 30
0.0
 10
9.737915775927435
 20
7.900496870756244
 30
0.0
 10
9.739962246108393
 20
7.904340623570743
 30
0.0
 10
9.741367086024567
 20
7.906072800005567
 30
0.0
 10
9.742069613992417
 20
7.90693902139969
 30
0.0
  0
SPLINE
  5
230
330
1F
100
AcDbEntity
  8
0
  6
Continuous
 62
     7
370
     0
100
AcDbSpline
210
0.0
220
0.0
230
1.0
 70
     8
 71
     3
 72
    16
 73
    12
 74
     0
 42
0.000000001
 43
0.00000001
 40
0.0
 40
0.0
 40
0.0
 40
0.0
 40
0.0626673372255172
 40
0.1253236135997228
 40
0.2505320761328094
 40
0.49942862669083
 40
0.6209451481908994
 40
0.7495714564983285
 40
0.8746959905393151
 40
0.9373444465982173
 40
1.0
 40
1.0
 40
1.0
 40
1.0
 10
9.799506528766797
 20
7.869943791460122
 30
0.0
 10
9.798582369210662
 20
7.869435374488927
 30
0.0
 10
9.796734213213531
 20
7.86841863028267
 30
0.0
 10
9.792791729179863
 20
7.866655661954824
 30
0.0
 10
9.785367683342301
 20
7.864302362463589
 30
0.0
 10
9.775572064005296
 20
7.86367745328496
 30
0.0
 10
9.765586788273248
 20
7.865909181771361
 30
0.0
 10
9.758431421253444
 20
7.86890557139711
 30
0.0
 10
9.752938997282769
 20
7.872245212449394
 30
0.0
 10
9.749026742785272
 20
7.875273156246215
 30
0.0
 10
9.747258106384688
 20
7.876912997228147
 30
0.0
 10
9.74637373809574
 20
7.87773296416022
 30
0.0
  0
SPLINE
  5
231
330
1F
100
AcDbEntity
  8
0
  6
Continuous
 62
     7
370
     0
100
AcDbSpline
210
0.0
220
0.0
230
1.0
 70
     8
 71
     3
 72
    16
 73
    12
 74
     0
 42
0.000000001
 43
0.00000001
 40
0.0
 40
0.0
 40
0.0
 40
0.0
 40
0.0626596732655929
 40
0.1253066935863682
 40
0.2504130650862153
 40
0.375350926012216
 40
0.5003167170701823
 40
0.7494642842602074
 40
0.8746874249442952
 40
0.9373399599321083
 40
1.0
 40
1.0
 40
1.0
 40
1.0
 10
9.804242481086426
 20
7.911372104037885
 30
0.0
 10
9.80510950336799
 20
7.91050806238743
 30
0.0
 10
9.806843372852246
 20
7.908780153563509
 30
0.0
 10
9.809922671608046
 20
7.905125606011511
 30
0.0
 10
9.813129219632735
 20
7.900270402970421
 30
0.0
 10
9.81503545912687
 20
7.89407860336994
 30
0.0
 10
9.814747843696606
 20
7.886034029232726
 30
0.0
 10
9.810719481926872
 20
7.879037727090222
 30
0.0
 10
9.805591542884569
 20
7.874120028769325
 30
0.0
 10
9.80225952046291
 20
7.87159916744255
 30
0.0
 10
9.800424229304566
 20
7.870495605485364
 30
0.0
 10
9.799506528766797
 20
7.869943791460122
 30
0.0
  0
SPLINE
  5
232
330
1F
100
AcDbEntity
  8
0
  6
Continuous
 62
     7
370
     0
100
AcDbSpline
210
0.0
220
0.0
230
1.0
 70
     8
 71
     3
 72
    14
 73
    10
 74
     0
 42
0.000000001
 43
0.00000001
 40
0.0
 40
0.0
 40
0.0
 40
0.0
 40
0.0716724462801686
 40
0.1433330938213259
 40
0.2865135066059715
 40
0.5710080364222934
 40
0.7850962256137478
 40
0.892535406514604
 40
1.0
 40
1.0
 40
1.0
 40
1.0
 10
9.763425829298178
 20
7.921359730197687
 30
0.0
 10
9.764362941450406
 20
7.921613016096187
 30
0.0
 10
9.766237011487183
 20
7.922119546197188
 30
0.0
 10
9.770161542261627
 20
7.922835595471205
 30
0.0
 10
9.77727562582061
 20
7.923513401550603
 30
0.0
 10
9.787179939193294
 20
7.92210062907171
 30
0.0
 10
9.79563157821769
 20
7.918129118687538
 30
0.0
 10
9.800833172047987
 20
7.914487872614041
 30
0.0
 10
9.803105955153994
 20
7.912410775436205
 30
0.0
 10
9.804242481086426
 20
7.911372104037886
 30
0.0
  0
SPLINE
  5
233
330
1F
100
AcDbEntity
  8
0
  6
Continuous
 62
     7
370
     0
100
AcDbSpline
210
0.0
220
0.0
230
1.0
 70
     8
 71
     3
 72
     8
 73
     4
 74
     0
 42
0.000000001
 43
0.00000001
 40
0.0
 40
0.0
 40
0.0
 40
0.0
 40
1.0
 40
1.0
 40
1.0
 40
1.0
 10
9.769184823959897
 20
7.913152693105504
 30
0.0
 10
9.76726923255956
 20
7.915901048994785
 30
0.0
 10
9.765349523155235
 20
7.918636769718583
 30
0.0
 10
9.763425829298178
 20
7.921359730197687
 30
0.0
  0
SPLINE
  5
234
330
1F
100
AcDbEntity
  8
0
  6
Continuous
 62
     7
370
     0
100
AcDbSpline
210
0.0
220
0.0
230
1.0
 70
     8
 71
     3
 72
    14
 73
    10
 74
     0
 42
0.000000001
 43
0.00000001
 40
0.0
 40
0.0
 40
0.0
 40
0.0
 40
0.1144070908852991
 40
0.2002230675500125
 40
0.3997605577176382
 40
0.5482287444998007
 40
0.6997074444442717
 40
0.849832804313234
 40
0.9999999999999999
 40
0.9999999999999999
 40
0.9999999999999999
 40
0.9999999999999999
 10
9.798423689747299
 20
7.906918004387357
 30
0.0
 10
9.797547795520822
 20
7.907711039861472
 30
0.0
 10
9.796014899023607
 20
7.909098925822688
 30
0.0
 10
9.79250153806028
 20
7.911515276515887
 30
0.0
 10
9.78812310263388
 20
7.913531637589498
 30
0.0
 10
9.782759746839748
 20
7.914751847163744
 30
0.0
 10
9.777954821831862
 20
7.914930524335307
 30
0.0
 10
9.7733708475729
 20
7.91436600348877
 30
0.0
 10
9.77058029475459
 20
7.913557167461426
 30
0.0
 10
9.769184823959897
 20
7.913152693105504
 30
0.0
  0
SPLINE
  5
235
330
1F
100
AcDbEntity
  8
0
  6
Continuous
 62
     7
370
     0
100
AcDbSpline
210
0.0
220
0.0
230
1.0
 70
     8
 71
     3
 72
    15
 73
    11
 74
     0
 42
0.000000001
 43
0.00000001
 40
0.0
 40
0.0
 40
0.0
 40
0.0
 40
0.1252899332557433
 40
0.2505321937203271
 40
0.499887551255909
 40
0.6248075308142681
 40
0.7497334520959913
 40
0.8747525524942666
 40
0.9373611783787359
 40
1.0
 40
1.0
 40
1.0
 40
1.0
 10
9.791991769502822
 20
7.877442883528342
 30
0.0
 10
9.7933247466193
 20
7.87825608442227
 30
0.0
 10
9.795990193654765
 20
7.879882176787369
 30
0.0
 10
9.800591494638823
 20
7.883734305237761
 30
0.0
 10
9.80425280522067
 20
7.888402720667471
 30
0.0
 10
9.805195393549834
 20
7.894112996964465
 30
0.0
 10
9.80419249298089
 20
7.898613194307367
 30
0.0
 10
9.802352140329724
 20
7.902262774349161
 30
0.0
 10
9.800292473877157
 20
7.905009181470239
 30
0.0
 10
9.799046717903122
 20
7.906281627824197
 30
0.0
 10
9.798423689747299
 20
7.906918004387357
 30
0.0
  0
LINE
  5
236
330
1F
100
AcDbEntity
  8
0
  6
Continuous
 62
     7
370
     0
100
AcDbLine
 10
9.6626789654
 20
7.9738842404
 30
0.0
 11
9.7048900674
 21
7.9982521909
 31
0.0
  0
SPLINE
  5
237
330
1F
100
AcDbEntity
  8
0
  6
Continuous
 62
     7
370
     0
100
AcDbSpline
210
0.0
220
0.0
230
1.0
 70
     8
 71
     3
 72
     8
 73
     4
 74
     0
 42
0.000000001
 43
0.00000001
 40
0.0
 40
0.0
 40
0.0
 40
0.0
 40
1.0
 40
1.0
 40
1.0
 40
1.0
 10
9.678211286945912
 20
8.019178379066924
 30
0.0
 10
9.67306073466684
 20
8.004243930423295
 30
0.0
 10
9.667885094152618
 20
7.989144472332822
 30
0.0
 10
9.662678965433665
 20
7.973884240400665
 30
0.0
  0
ARC
  5
238
330
1F
100
AcDbEntity
  8
0
  6
Continuous
 62
     7
370
     0
100
AcDbCircle
 10
8.8998762481
 20
6.9999947385
 30
0.0
 40
1.282396477668094
100
AcDbArc
 50
52.6315782196
 51
53.0984374372
  0
LINE
  5
239
330
1F
100
AcDbEntity
  8
0
  6
Continuous
 62
     7
370
     0
100
AcDbLine
 10
9.613312455
 20
7.9928302042
 30
0.0
 11
9.6698809975
 21
8.0254865287
 31
0.0
  0
ARC
  5
23A
330
1F
100
AcDbEntity
  8
0
  6
Continuous
 62
     7
370
     0
100
AcDbCircle
 10
8.8435865654
 20
6.967707763
 30
0.0
 40
1.281933681908016
100
AcDbArc
 50
52.6566264866
 51
53.0984920859
  0
LINE
  5
23B
330
1F
100
AcDbEntity
  8
0
  6
Continuous
 62
     7
370
     0
100
AcDbLine
 10
9.663406343
 20
8.0112315956
 30
0.0
 11
9.6211952411
 21
7.9868636452
 31
0.0
  0
SPLINE
  5
23C
330
1F
100
AcDbEntity
  8
0
  6
Continuous
 62
     7
370
     0
100
AcDbSpline
210
0.0
220
0.0
230
1.0
 70
     8
 71
     3
 72
     8
 73
     4
 74
     0
 42
0.000000001
 43
0.00000001
 40
0.0
 40
0.0
 40
0.0
 40
0.0
 40
1.0
 40
1.0
 40
1.0
 40
1.0
 10
9.647876805067483
 20
7.965953804163059
 30
0.0
 10
9.653081915715118
 20
7.981208658381915
 30
0.0
 10
9.658256628179695
 20
7.99630266630427
 30
0.0
 10
9.663406342994207
 20
8.011231595633758
 30
0.0
  0
ARC
  5
23D
330
1F
100
AcDbEntity
  8
0
  6
Continuous
 62
     7
370
     0
100
AcDbCircle
 10
8.7993522718
 20
6.9112642867
 30
0.0
 40
1.35364835235246
100
AcDbArc
 50
50.7321087881
 51
51.1824380713
  0
LINE
  5
23E
330
1F
100
AcDbEntity
  8
0
  6
Continuous
 62
     7
370
     0
100
AcDbLine
 10
9.7127086269
 20
7.9919084479
 30
0.0
 11
9.6561400844
 21
7.9592521235
 31
0.0
  0
ARC
  5
23F
330
1F
100
AcDbEntity
  8
0
  6
Continuous
 62
     7
370
     0
100
AcDbCircle
 10
8.8556324391
 20
6.9435660407
 30
0.0
 40
1.354105385302959
100
AcDbArc
 50
50.7321581089
 51
51.158180283
  0
SPLINE
  5
240
330
1F
100
AcDbEntity
  8
0
  6
Continuous
 62
     7
370
     0
100
AcDbSpline
210
0.0
220
0.0
230
1.0
 70
     8
 71
     3
 72
    15
 73
    11
 74
     0
 42
0.000000001
 43
0.00000001
 40
0.0
 40
0.0
 40
0.0
 40
0.0
 40
0.0627077247449623
 40
0.125411292725869
 40
0.2505229930352468
 40
0.4986822572927394
 40
0.6238561955984416
 40
0.749215932190611
 40
0.8746049824225647
 40
0.9999999999999999
 40
0.9999999999999999
 40
0.9999999999999999
 40
0.9999999999999999
 10
9.583570956086731
 20
8.021903746736413
 30
0.0
 10
9.584249195514987
 20
8.021449542425026
 30
0.0
 10
9.585605629412424
 20
8.020541163910506
 30
0.0
 10
9.588607929972737
 20
8.018914960959409
 30
0.0
 10
9.594438270450228
 20
8.016589222186205
 30
0.0
 10
9.602297798792849
 20
8.015698666288644
 30
0.0
 10
9.609474395660012
 20
8.016686716663665
 30
0.0
 10
9.61439545237464
 20
8.018159264030448
 30
0.0
 10
9.619063318950253
 20
8.019908891658933
 30
0.0
 10
9.621810493066713
 20
8.021392758638337
 30
0.0
 10
9.62318411280911
 20
8.022134709782163
 30
0.0
  0
SPLINE
  5
241
330
1F
100
AcDbEntity
  8
0
  6
Continuous
 62
     7
370
     0
100
AcDbSpline
210
0.0
220
0.0
230
1.0
 70
     8
 71
     3
 72
    13
 73
     9
 74
     0
 42
0.000000001
 43
0.00000001
 40
0.0
 40
0.0
 40
0.0
 40
0.0
 40
0.1432749372462825
 40
0.2507273399261601
 40
0.5002687912373676
 40
0.7494047175485024
 40
0.8746601628233098
 40
1.0
 40
1.0
 40
1.0
 40
1.0
 10
9.581050205026619
 20
8.038322487668383
 30
0.0
 10
9.580447325857406
 20
8.037598798668522
 30
0.0
 10
9.579392303302177
 20
8.036332362114049
 30
0.0
 10
9.577837234607195
 20
8.033634399492254
 30
0.0
 10
9.576946656006053
 20
8.030068547368979
 30
0.0
 10
9.578666670782518
 20
8.026333982163118
 30
0.0
 10
9.58117172937438
 20
8.0236801166473
 30
0.0
 10
9.582771034318917
 20
8.02249600296301
 30
0.0
 10
9.583570956086731
 20
8.021903746736413
 30
0.0
  0
SPLINE
  5
242
330
1F
100
AcDbEntity
  8
0
  6
Continuous
 62
     7
370
     0
100
AcDbSpline
210
0.0
220
0.0
230
1.0
 70
     8
 71
     3
 72
     8
 73
     4
 74
     0
 42
0.000000001
 43
0.00000001
 40
0.0
 40
0.0
 40
0.0
 40
0.0
 40
1.0
 40
1.0
 40
1.0
 40
1.0
 10
9.571386853896144
 20
8.04265904127742
 30
0.0
 10
9.574609033688155
 20
8.041228609402392
 30
0.0
 10
9.5778301972055
 20
8.03978306041655
 30
0.0
 10
9.581050205026619
 20
8.038322487668383
 30
0.0
  0
SPLINE
  5
243
330
1F
100
AcDbEntity
  8
0
  6
Continuous
 62
     7
370
     0
100
AcDbSpline
210
0.0
220
0.0
230
1.0
 70
     8
 71
     3
 72
    14
 73
    10
 74
     0
 42
0.000000001
 43
0.00000001
 40
0.0
 40
0.0
 40
0.0
 40
0.0
 40
0.0716530045517786
 40
0.1432915146744409
 40
0.2864108891677033
 40
0.5709536820728904
 40
0.7851429384798605
 40
0.8925549501623584
 40
1.0
 40
1.0
 40
1.0
 40
1.0
 10
9.576660570811288
 20
8.018402639602723
 30
0.0
 10
9.575973257631865
 20
8.018897507343604
 30
0.0
 10
9.57459877030713
 20
8.019887142720348
 30
0.0
 10
9.572132258992601
 20
8.021997782313333
 30
0.0
 10
9.568469515624226
 20
8.025923208146788
 30
0.0
 10
9.566252702061966
 20
8.031634808510109
 30
0.0
 10
9.567349828541419
 20
8.036858910771619
 30
0.0
 10
9.569319184394509
 20
8.040280334192996
 30
0.0
 10
9.570697560078877
 20
8.04186605763807
 30
0.0
 10
9.571386853896144
 20
8.04265904127742
 30
0.0
  0
SPLINE
  5
244
330
1F
100
AcDbEntity
  8
0
  6
Continuous
 62
     7
370
     0
100
AcDbSpline
210
0.0
220
0.0
230
1.0
 70
     8
 71
     3
 72
    16
 73
    12
 74
     0
 42
0.000000001
 43
0.00000001
 40
0.0
 40
0.0
 40
0.0
 40
0.0
 40
0.0626673372255217
 40
0.1253236135997345
 40
0.25053207613283
 40
0.4994286266908613
 40
0.6209451481923727
 40
0.7495714564983079
 40
0.8746959905393029
 40
0.9373444465982124
 40
1.0
 40
1.0
 40
1.0
 40
1.0
 10
9.631127332109427
 20
8.016385064518525
 30
0.0
 10
9.630202247776655
 20
8.015872964582446
 30
0.0
 10
9.628352242389475
 20
8.014848855096464
 30
0.0
 10
9.624390858938145
 20
8.013010570033115
 30
0.0
 10
9.616895777635738
 20
8.010373290751707
 30
0.0
 10
9.606916479182896
 20
8.009007413804422
 30
0.0
 10
9.596647276928772
 20
8.010049143604233
 30
0.0
 10
9.589244275787353
 20
8.011976715271098
 30
0.0
 10
9.583531455585106
 20
8.014331321877565
 30
0.0
 10
9.57944372526405
 20
8.016554185288124
 30
0.0
 10
9.577588323992796
 20
8.017786464898679
 30
0.0
 10
9.576660570811288
 20
8.018402639602723
 30
0.0
  0
SPLINE
  5
245
330
1F
100
AcDbEntity
  8
0
  6
Continuous
 62
     7
370
     0
100
AcDbSpline
210
0.0
220
0.0
230
1.0
 70
     8
 71
     3
 72
    16
 73
    12
 74
     0
 42
0.000000001
 43
0.00000001
 40
0.0
 40
0.0
 40
0.0
 40
0.0
 40
0.0626596732655923
 40
0.1253066935863671
 40
0.2504130650862166
 40
0.3753509260122158
 40
0.5003167170701831
 40
0.7494642842602078
 40
0.8746874249442949
 40
0.9373399599321084
 40
1.0
 40
1.0
 40
1.0
 40
1.0
 10
9.63452177599058
 20
8.052006157773366
 30
0.0
 10
9.63543326184931
 20
8.051351173397668
 30
0.0
 10
9.637256049509308
 20
8.05004133690807
 30
0.0
 10
9.640515607537475
 20
8.047214147679124
 30
0.0
 10
9.643949282644678
 20
8.043373481795157
 30
0.0
 10
9.646109169608836
 20
8.038274855173777
 30
0.0
 10
9.646101671315245
 20
8.031402235494264
 30
0.0
 10
9.642243936964622
 20
8.025093888988565
 30
0.0
 10
9.637187902080386
 20
8.02046389752153
 30
0.0
 10
9.633877886975316
 20
8.018030736311642
 30
0.0
 10
9.632044220338026
 20
8.016933643684846
 30
0.0
 10
9.631127332109427
 20
8.016385064518525
 30
0.0
  0
SPLINE
  5
246
330
1F
100
AcDbEntity
  8
0
  6
Continuous
 62
     7
370
     0
100
AcDbSpline
210
0.0
220
0.0
230
1.0
 70
     8
 71
     3
 72
    14
 73
    10
 74
     0
 42
0.000000001
 43
0.00000001
 40
0.0
 40
0.0
 40
0.0
 40
0.0
 40
0.071672446280167
 40
0.143333093821324
 40
0.2865135066059565
 40
0.5710080364223051
 40
0.7850962256137292
 40
0.8925354065146064
 40
1.0
 40
1.0
 40
1.0
 40
1.0
 10
9.592683313595368
 20
8.056746632806759
 30
0.0
 10
9.593628613723709
 20
8.05704577373083
 30
0.0
 10
9.59551905836481
 20
8.057644006334302
 30
0.0
 10
9.599487916562586
 20
8.05860668968582
 30
0.0
 10
9.60670078461268
 20
8.059829255346024
 30
0.0
 10
9.616814436823606
 20
8.05954337245287
 30
0.0
 10
9.625537373476206
 20
8.056953425284137
 30
0.0
 10
9.630948399789423
 20
8.0543406635441
 30
0.0
 10
9.633330556692721
 20
8.052784387707332
 30
0.0
 10
9.63452177599058
 20
8.052006157773366
 30
0.0
  0
SPLINE
  5
247
330
1F
100
AcDbEntity
  8
0
  6
Continuous
 62
     7
370
     0
100
AcDbSpline
210
0.0
220
0.0
230
1.0
 70
     8
 71
     3
 72
     8
 73
     4
 74
     0
 42
0.000000001
 43
0.00000001
 40
0.0
 40
0.0
 40
0.0
 40
0.0
 40
1.0
 40
1.0
 40
1.0
 40
1.0
 10
9.598778306185388
 20
8.050365883447583
 30
0.0
 10
9.596747725863304
 20
8.052507871773408
 30
0.0
 10
9.594716015185934
 20
8.054634819246495
 30
0.0
 10
9.592683313595368
 20
8.056746632806759
 30
0.0
  0
SPLINE
  5
248
330
1F
100
AcDbEntity
  8
0
  6
Continuous
 62
     7
370
     0
100
AcDbSpline
210
0.0
220
0.0
230
1.0
 70
     8
 71
     3
 72
    14
 73
    10
 74
     0
 42
0.000000001
 43
0.00000001
 40
0.0
 40
0.0
 40
0.0
 40
0.0
 40
0.1144070908853168
 40
0.2002230675500417
 40
0.3997605577176961
 40
0.5482287445025892
 40
0.6997074444442191
 40
0.8498328043132101
 40
0.9999999999999999
 40
0.9999999999999999
 40
0.9999999999999999
 40
0.9999999999999999
 10
9.628738581858322
 20
8.047719937781046
 30
0.0
 10
9.627820554852404
 20
8.048313734008927
 30
0.0
 10
9.626213922065956
 20
8.049352932727516
 30
0.0
 10
9.62255865229083
 20
8.051083985184958
 30
0.0
 10
9.618037630236893
 20
8.052395979162227
 30
0.0
 10
9.612541427310145
 20
8.052943202352479
 30
0.0
 10
9.607646835569343
 20
8.052659741392958
 30
0.0
 10
9.603000260905285
 20
8.05176844383241
 30
0.0
 10
9.600185755128063
 20
8.050833446996135
 30
0.0
 10
9.598778306185388
 20
8.050365883447583
 30
0.0
  0
SPLINE
  5
249
330
1F
100
AcDbEntity
  8
0
  6
Continuous
 62
     7
370
     0
100
AcDbSpline
210
0.0
220
0.0
230
1.0
 70
     8
 71
     3
 72
    15
 73
    11
 74
     0
 42
0.000000001
 43
0.00000001
 40
0.0
 40
0.0
 40
0.0
 40
0.0
 40
0.1252899332557445
 40
0.2505321937203306
 40
0.4998875512559057
 40
0.6248075308142816
 40
0.7497334520959849
 40
0.8747525524942634
 40
0.9373611783787344
 40
1.0
 40
1.0
 40
1.0
 40
1.0
 10
9.62318411280911
 20
8.022134709782163
 30
0.0
 10
9.624515534902068
 20
8.022941414222403
 30
0.0
 10
9.627177872482182
 20
8.024554516152026
 30
0.0
 10
9.631736768629525
 20
8.028228588451169
 30
0.0
 10
9.635307613503858
 20
8.03251642025769
 30
0.0
 10
9.636070509698166
 20
8.037452243990831
 30
0.0
 10
9.634893661038623
 20
8.041186951275533
 30
0.0
 10
9.632894967335805
 20
8.044121832104471
 30
0.0
 10
9.630704986279842
 20
8.046268432681009
 30
0.0
 10
9.629394155340979
 20
8.047236024989198
 30
0.0
 10
9.628738581858322
 20
8.047719937781046
 30
0.0
  0
LINE
  5
24A
330
1F
100
AcDbEntity
  8
0
  6
Continuous
 62
     7
370
     0
100
AcDbLine
 10
9.3877005126
 20
8.1629403069
 30
0.0
 11
9.3804481353
 21
8.1587535986
 31
0.0
  0
ARC
  5
24B
330
1F
100
AcDbEntity
  8
0
  6
Continuous
 62
     7
370
     0
100
AcDbCircle
 10
9.1481085118
 20
7.4779246314
 30
0.0
 40
0.7257071051011902
100
AcDbArc
 50
70.7221365984
 51
73.715870378
  0
LINE
  5
24C
330
1F
100
AcDbEntity
  8
0
  6
Continuous
 62
     7
370
     0
100
AcDbLine
 10
9.3443450174
 20
8.1703318343
 30
0.0
 11
9.3515973947
 21
8.1745185425
 31
0.0
  0
ARC
  5
24D
330
1F
100
AcDbEntity
  8
0
  6
Continuous
 62
     7
370
     0
100
AcDbCircle
 10
9.1408561346
 20
7.4737379232
 30
0.0
 40
0.7257071051048439
100
AcDbArc
 50
70.7221365984
 51
73.715870378
  0
LINE
  5
24E
330
1F
100
AcDbEntity
  8
0
  6
Continuous
 62
     7
370
     0
100
AcDbLine
 10
9.2235721794
 20
8.1945611124
 30
0.0
 11
9.244626737
 21
8.2067156499
 31
0.0
  0
SPLINE
  5
24F
330
1F
100
AcDbEntity
  8
0
  6
Continuous
 62
     7
370
     0
100
AcDbSpline
210
0.0
220
0.0
230
1.0
 70
     8
 71
     3
 72
    16
 73
    12
 74
     0
 42
0.000000001
 43
0.00000001
 40
0.0
 40
0.0
 40
0.0
 40
0.0
 40
0.0625970617098301
 40
0.125149703790355
 40
0.2500363750336243
 40
0.3752748441538867
 40
0.499520503800884
 40
0.6423186562677798
 40
0.785346658036099
 40
0.884024658847243
 40
0.9999999999999999
 40
0.9999999999999999
 40
0.9999999999999999
 40
0.9999999999999999
 10
9.200195437508492
 20
8.186801698408036
 30
0.0
 10
9.200585335741657
 20
8.18678642507368
 30
0.0
 10
9.201364855531502
 20
8.186755889243111
 30
0.0
 10
9.20317950003891
 20
8.186855265674659
 30
0.0
 10
9.205732776954436
 20
8.187194724500689
 30
0.0
 10
9.20907837977545
 20
8.187947986728748
 30
0.0
 10
9.21261109458939
 20
8.189092209543226
 30
0.0
 10
9.216002879089912
 20
8.190528100899986
 30
0.0
 10
9.218853838665202
 20
8.191955381560774
 30
0.0
 10
9.221372618072037
 20
8.193302417590472
 30
0.0
 10
9.222800634473671
 20
8.19411959730189
 30
0.0
 10
9.223572179364778
 20
8.194561112420864
 30
0.0
  0
SPLINE
  5
250
330
1F
100
AcDbEntity
  8
0
  6
Continuous
 62
     7
370
     0
100
AcDbSpline
210
0.0
220
0.0
230
1.0
 70
     8
 71
     3
 72
    14
 73
    10
 74
     0
 42
0.000000001
 43
0.00000001
 40
0.0
 40
0.0
 40
0.0
 40
0.0
 40
0.1962429596770108
 40
0.3614928808925358
 40
0.5004684503013919
 40
0.6266180396335037
 40
0.7498473153960638
 40
0.8499254015607522
 40
1.0
 40
1.0
 40
1.0
 40
1.0
 10
9.203028197989374
 20
8.1924277598579
 30
0.0
 10
9.202191128516251
 20
8.191928382823594
 30
0.0
 10
9.200649189606214
 20
8.191008496356941
 30
0.0
 10
9.198865420776613
 20
8.189737996867493
 30
0.0
 10
9.197741712393205
 20
8.18868536666057
 30
0.0
 10
9.19735183606685
 20
8.187848525673308
 30
0.0
 10
9.197726877987403
 20
8.187307059615893
 30
0.0
 10
9.198672452780329
 20
8.186944589708778
 30
0.0
 10
9.199624358696047
 20
8.18685527884967
 30
0.0
 10
9.200195437508492
 20
8.186801698408036
 30
0.0
  0
LINE
  5
251
330
1F
100
AcDbEntity
  8
0
  6
Continuous
 62
     7
370
     0
100
AcDbLine
 10
9.2293973884
 20
8.2076503694
 30
0.0
 11
9.203028198
 21
8.1924277599
 31
0.0
  0
ARC
  5
252
330
1F
100
AcDbEntity
  8
0
  6
Continuous
 62
     7
370
     0
100
AcDbCircle
 10
9.2060413689
 20
7.7050081854
 30
0.0
 40
0.5031845275828356
100
AcDbArc
 50
87.3395797022
 51
88.0888825463
  0
LINE
  5
253
330
1F
100
AcDbEntity
  8
0
  6
Continuous
 62
     7
370
     0
100
AcDbLine
 10
9.1992405658
 20
8.19429948
 30
0.0
 11
9.2228221237
 21
8.2079128236
 31
0.0
  0
SPLINE
  5
254
330
1F
100
AcDbEntity
  8
0
  6
Continuous
 62
     7
370
     0
100
AcDbSpline
210
0.0
220
0.0
230
1.0
 70
     8
 71
     3
 72
    13
 73
     9
 74
     0
 42
0.000000001
 43
0.00000001
 40
0.0
 40
0.0
 40
0.0
 40
0.0
 40
0.1431483331898787
 40
0.2861300558850475
 40
0.4997986267800935
 40
0.749077138891346
 40
0.8745090927370441
 40
1.0
 40
1.0
 40
1.0
 40
1.0
 10
9.17857696525962
 20
8.187611912710894
 30
0.0
 10
9.17937413939032
 20
8.18762718631507
 30
0.0
 10
9.18096755981992
 20
8.187657715746456
 30
0.0
 10
9.18451925575614
 20
8.188235302429977
 30
0.0
 10
9.18936685932386
 20
8.189526430704896
 30
0.0
 10
9.193780065604166
 20
8.191401046876175
 30
0.0
 10
9.19701703439958
 20
8.193041833314242
 30
0.0
 10
9.19849927258237
 20
8.19388019876505
 30
0.0
 10
9.19924056579701
 20
8.19429947997592
 30
0.0
  0
SPLINE
  5
255
330
1F
100
AcDbEntity
  8
0
  6
Continuous
 62
     7
370
     0
100
AcDbSpline
210
0.0
220
0.0
230
1.0
 70
     8
 71
     3
 72
    14
 73
    10
 74
     0
 42
0.000000001
 43
0.00000001
 40
0.0
 40
0.0
 40
0.0
 40
0.0
 40
0.2504938292205916
 40
0.3757028501511473
 40
0.5005307050946138
 40
0.6429117438465021
 40
0.7855348750382841
 40
0.8927018362619166
 40
1.0
 40
1.0
 40
1.0
 40
1.0
 10
9.18224467430716
 20
8.19342708470633
 30
0.0
 10
9.181089621509686
 20
8.192750568861879
 30
0.0
 10
9.17935721704513
 20
8.191735897435745
 30
0.0
 10
9.177332693308033
 20
8.190394437374536
 30
0.0
 10
9.17616603486485
 20
8.189385059995056
 30
0.0
 10
9.175834620922933
 20
8.18852367935342
 30
0.0
 10
9.176310722388465
 20
8.187960786367663
 30
0.0
 10
9.177281661604166
 20
8.187666744081858
 30
0.0
 10
9.178145021316372
 20
8.187630197287247
 30
0.0
 10
9.17857696525962
 20
8.187611912710894
 30
0.0
  0
LINE
  5
256
330
1F
100
AcDbEntity
  8
0
  6
Continuous
 62
     7
370
     0
100
AcDbLine
 10
9.2078093041
 20
8.2081852313
 30
0.0
 11
9.1822446743
 21
8.1934270847
 31
0.0
  0
ARC
  5
257
330
1F
100
AcDbEntity
  8
0
  6
Continuous
 62
     7
370
     0
100
AcDbCircle
 10
9.2064674756
 20
7.7281357463
 30
0.0
 40
0.4800513603225063
100
AcDbArc
 50
89.8398479457
 51
90.6130336778
  0
LINE
  5
258
330
1F
100
AcDbEntity
  8
0
  6
Continuous
 62
     7
370
     0
100
AcDbLine
 10
9.1730923412
 20
8.1918576339
 30
0.0
 11
9.2013312851
 21
8.2081596292
 31
0.0
  0
SPLINE
  5
259
330
1F
100
AcDbEntity
  8
0
  6
Continuous
 62
     7
370
     0
100
AcDbSpline
210
0.0
220
0.0
230
1.0
 70
     8
 71
     3
 72
    13
 73
     9
 74
     0
 42
0.000000001
 43
0.00000001
 40
0.0
 40
0.0
 40
0.0
 40
0.0
 40
0.1255997205531016
 40
0.2510728045682246
 40
0.4995957155071165
 40
0.748789078214243
 40
0.849280166276967
 40
1.0
 40
1.0
 40
1.0
 40
1.0
 10
9.17048130594199
 20
8.18386604056856
 30
0.0
 10
9.169715168215149
 20
8.18389448359805
 30
0.0
 10
9.168183665223609
 20
8.183951340979206
 30
0.0
 10
9.165903202041642
 20
8.184439375902983
 30
0.0
 10
9.16490400177491
 20
8.185877497229889
 30
0.0
 10
9.167392883196193
 20
8.188205006260153
 30
0.0
 10
9.170315619749022
 20
8.190211749711732
 30
0.0
 10
9.172051099677194
 20
8.191240444512012
 30
0.0
 10
9.173092341213767
 20
8.19185763387682
 30
0.0
  0
SPLINE
  5
25A
330
1F
100
AcDbEntity
  8
0
  6
Continuous
 62
     7
370
     0
100
AcDbSpline
210
0.0
220
0.0
230
1.0
 70
     8
 71
     3
 72
    13
 73
     9
 74
     0
 42
0.000000001
 43
0.00000001
 40
0.0
 40
0.0
 40
0.0
 40
0.0
 40
0.1252111800123713
 40
0.2503709188547392
 40
0.5001800844950661
 40
0.7497098314791344
 40
0.8748093757729342
 40
1.0
 40
1.0
 40
1.0
 40
1.0
 10
9.189455491133595
 20
8.1880234120789
 30
0.0
 10
9.188599458079437
 20
8.187724729836365
 30
0.0
 10
9.186887743659701
 20
8.187127488060495
 30
0.0
 10
9.1834285661151
 20
8.186034747347609
 30
0.0
 10
9.179098616842362
 20
8.184868650057197
 30
0.0
 10
9.175070115020244
 20
8.18414156425708
 30
0.0
 10
9.17229017564285
 20
8.183887943514714
 30
0.0
 10
9.171084408767408
 20
8.1838733433216
 30
0.0
 10
9.17048130594199
 20
8.18386604056856
 30
0.0
  0
SPLINE
  5
25B
330
1F
100
AcDbEntity
  8
0
  6
Continuous
 62
     7
370
     0
100
AcDbSpline
210
0.0
220
0.0
230
1.0
 70
     8
 71
     3
 72
    13
 73
     9
 74
     0
 42
0.000000001
 43
0.00000001
 40
0.0
 40
0.0
 40
0.0
 40
0.0
 40
0.1253429328899799
 40
0.2505898065604419
 40
0.5000565154178029
 40
0.7494697823308721
 40
0.8746743889016434
 40
1.0
 40
1.0
 40
1.0
 40
1.0
 10
9.191767254406878
 20
8.183142118033942
 30
0.0
 10
9.191234561124658
 20
8.183181973359552
 30
0.0
 10
9.190169582801033
 20
8.1832616534668
 30
0.0
 10
9.188430055593082
 20
8.183614131940233
 30
0.0
 10
9.187073384822993
 20
8.184427593285701
 30
0.0
 10
9.187294730866173
 20
8.185767597428223
 30
0.0
 10
9.188297015022084
 20
8.187017908095719
 30
0.0
 10
9.18906920810828
 20
8.187688136179183
 30
0.0
 10
9.189455491133595
 20
8.1880234120789
 30
0.0
  0
SPLINE
  5
25C
330
1F
100
AcDbEntity
  8
0
  6
Continuous
 62
     7
370
     0
100
AcDbSpline
210
0.0
220
0.0
230
1.0
 70
     8
 71
     3
 72
    13
 73
     9
 74
     0
 42
0.000000001
 43
0.00000001
 40
0.0
 40
0.0
 40
0.0
 40
0.0
 40
0.1251971558968243
 40
0.2503378710232699
 40
0.5001340654709748
 40
0.7497012951317831
 40
0.8748025018892764
 40
1.0
 40
1.0
 40
1.0
 40
1.0
 10
9.209736003405984
 20
8.186573658057599
 30
0.0
 10
9.208930324194695
 20
8.186297399871215
 30
0.0
 10
9.207319328984488
 20
8.185745008039818
 30
0.0
 10
9.204037456165086
 20
8.184782701290688
 30
0.0
 10
9.199943665758568
 20
8.183797496999865
 30
0.0
 10
9.196123147972957
 20
8.183226012305997
 30
0.0
 10
9.193487849575092
 20
8.183088548133759
 30
0.0
 10
9.192340933204727
 20
8.183124256821435
 30
0.0
 10
9.191767254406878
 20
8.183142118033942
 30
0.0
  0
LINE
  5
25D
330
1F
100
AcDbEntity
  8
0
  6
Continuous
 62
     7
370
     0
100
AcDbLine
 10
9.2032881868
 20
8.1828514127
 30
0.0
 11
9.2097360034
 21
8.1865736581
 31
0.0
  0
ARC
  5
25E
330
1F
100
AcDbEntity
  8
0
  6
Continuous
 62
     7
370
     0
100
AcDbCircle
 10
9.1631475117
 20
7.6559018641
 30
0.0
 40
0.5284762063309197
100
AcDbArc
 50
84.9186736611
 51
85.6438749031
  0
LINE
  5
25F
330
1F
100
AcDbEntity
  8
0
  6
Continuous
 62
     7
370
     0
100
AcDbLine
 10
9.2512930228
 20
8.2061653879
 30
0.0
 11
9.2099544726
 21
8.1823011508
 31
0.0
  0
ARC
  5
260
330
1F
100
AcDbEntity
  8
0
  6
Continuous
 62
     7
370
     0
100
AcDbCircle
 10
9.204486062
 20
7.6797661011
 30
0.0
 40
0.5284762064050849
100
AcDbArc
 50
84.9186736612
 51
85.6438749031
  0
LINE
  5
261
330
1F
100
AcDbEntity
  8
0
  6
Continuous
 62
     7
370
     0
100
AcDbLine
 10
9.1648557373
 20
8.1955874929
 30
0.0
 11
9.185910295
 21
8.2077420303
 31
0.0
  0
SPLINE
  5
262
330
1F
100
AcDbEntity
  8
0
  6
Continuous
 62
     7
370
     0
100
AcDbSpline
210
0.0
220
0.0
230
1.0
 70
     8
 71
     3
 72
    16
 73
    12
 74
     0
 42
0.000000001
 43
0.00000001
 40
0.0
 40
0.0
 40
0.0
 40
0.0
 40
0.0625970617099355
 40
0.1251497037905666
 40
0.2500363750340335
 40
0.3752748441718888
 40
0.49952050379986
 40
0.6423186562669949
 40
0.7853466580355603
 40
0.8840246587746994
 40
1.0
 40
1.0
 40
1.0
 40
1.0
 10
9.141839381166248
 20
8.186775077860837
 30
0.0
 10
9.142213768308942
 20
8.186804601373572
 30
0.0
 10
9.142962276924703
 20
8.186863627448803
 30
0.0
 10
9.144716296472065
 20
8.187138798225652
 30
0.0
 10
9.147197789058206
 20
8.187687360024958
 30
0.0
 10
9.150469844343084
 20
8.188656129085803
 30
0.0
 10
9.153947253951614
 20
8.1899631526766
 30
0.0
 10
9.157307012661342
 20
8.191493621906478
 30
0.0
 10
9.160144609721087
 20
8.192960419474325
 30
0.0
 10
9.162656852430322
 20
8.194326795881741
 30
0.0
 10
9.16408442967567
 20
8.195145275454967
 30
0.0
 10
9.164855737294921
 20
8.195587492878289
 30
0.0
  0
SPLINE
  5
263
330
1F
100
AcDbEntity
  8
0
  6
Continuous
 62
     7
370
     0
100
AcDbSpline
210
0.0
220
0.0
230
1.0
 70
     8
 71
     3
 72
    14
 73
    10
 74
     0
 42
0.000000001
 43
0.00000001
 40
0.0
 40
0.0
 40
0.0
 40
0.0
 40
0.196242959714109
 40
0.3614928809295576
 40
0.5004684503042315
 40
0.626618039658707
 40
0.7498473153961904
 40
0.8499254015608344
 40
1.0
 40
1.0
 40
1.0
 40
1.0
 10
9.144935640605379
 20
8.191647586116238
 30
0.0
 10
9.1440974821282
 20
8.191151295519433
 30
0.0
 10
9.14255353719875
 20
8.190237094480683
 30
0.0
 10
9.140753557071752
 20
8.18901257142109
 30
0.0
 10
9.139602741961385
 20
8.188036928220523
 30
0.0
 10
9.139172019972094
 20
8.187316345779115
 30
0.0
 10
9.139496852915602
 20
8.186918269544853
 30
0.0
 10
9.140382721271196
 20
8.18672687610368
 30
0.0
 10
9.141293172404191
 20
8.186757003482462
 30
0.0
 10
9.141839381166248
 20
8.186775077860837
 30
0.0
  0
LINE
  5
264
330
1F
100
AcDbEntity
  8
0
  6
Continuous
 62
     7
370
     0
100
AcDbLine
 10
9.171304831
 20
8.2068701957
 30
0.0
 11
9.1449356406
 21
8.1916475861
 31
0.0
  0
ARC
  5
265
330
1F
100
AcDbEntity
  8
0
  6
Continuous
 62
     7
370
     0
100
AcDbCircle
 10
9.2050090971
 20
7.7629483061
 30
0.0
 40
0.4451995301245206
100
AcDbArc
 50
94.3417872367
 51
95.1548160725
  0
LINE
  5
266
330
1F
100
AcDbEntity
  8
0
  6
Continuous
 62
     7
370
     0
100
AcDbLine
 10
9.1414276128
 20
8.192733911
 30
0.0
 11
9.1650091706
 21
8.2063472546
 31
0.0
  0
SPLINE
  5
267
330
1F
100
AcDbEntity
  8
0
  6
Continuous
 62
     7
370
     0
100
AcDbSpline
210
0.0
220
0.0
230
1.0
 70
     8
 71
     3
 72
    13
 73
     9
 74
     0
 42
0.000000001
 43
0.00000001
 40
0.0
 40
0.0
 40
0.0
 40
0.0
 40
0.1431483331898774
 40
0.2861300558850571
 40
0.4997986267800956
 40
0.749077138891351
 40
0.8745090927370445
 40
1.0
 40
1.0
 40
1.0
 40
1.0
 10
9.121144030427487
 20
8.185001009167738
 30
0.0
 10
9.121908133295445
 20
8.18510635090222
 30
0.0
 10
9.123435449691234
 20
8.185316911763831
 30
0.0
 10
9.1268797414051
 20
8.186189249486398
 30
0.0
 10
9.13161927406256
 20
8.187779007777028
 30
0.0
 10
9.135985011069597
 20
8.189785680460712
 30
0.0
 10
9.139205907456017
 20
8.191471177944381
 30
0.0
 10
9.14068692834429
 20
8.192312934042231
 30
0.0
 10
9.141427612768675
 20
8.19273391097493
 30
0.0
  0
SPLINE
  5
268
330
1F
100
AcDbEntity
  8
0
  6
Continuous
 62
     7
370
     0
100
AcDbSpline
210
0.0
220
0.0
230
1.0
 70
     8
 71
     3
 72
    14
 73
    10
 74
     0
 42
0.000000001
 43
0.00000001
 40
0.0
 40
0.0
 40
0.0
 40
0.0
 40
0.2504938292205906
 40
0.3757028501511575
 40
0.5005307050946142
 40
0.6429117438464509
 40
0.7855348750383015
 40
0.8927018362619716
 40
1.0
 40
1.0
 40
1.0
 40
1.0
 10
9.12509384443651
 20
8.190055735391963
 30
0.0
 10
9.123938033230813
 20
8.18938124593352
 30
0.0
 10
9.122204491268647
 20
8.188369613779855
 30
0.0
 10
9.120166517360174
 20
8.187064121784438
 30
0.0
 10
9.118973759314303
 20
8.186124596293226
 30
0.0
 10
9.118590573646328
 20
8.185402081693523
 30
0.0
 10
9.11900260568618
 20
8.185011727010355
 30
0.0
 10
9.11990881503484
 20
8.184892660648973
 30
0.0
 10
9.12073212407239
 20
8.184964878268051
 30
0.0
 10
9.121144030427487
 20
8.185001009167738
 30
0.0
  0
LINE
  5
269
330
1F
100
AcDbEntity
  8
0
  6
Continuous
 62
     7
370
     0
100
AcDbLine
 10
9.1506584742
 20
8.204813882
 30
0.0
 11
9.1250938444
 21
8.1900557354
 31
0.0
  0
ARC
  5
26A
330
1F
100
AcDbEntity
  8
0
  6
Continuous
 62
     7
370
     0
100
AcDbCircle
 10
9.2031868397
 20
7.7800733242
 30
0.0
 40
0.4279763668773301
100
AcDbArc
 50
97.0500661805
 51
97.8847640088
  0
LINE
  5
26B
330
1F
100
AcDbEntity
  8
0
  6
Continuous
 62
     7
370
     0
100
AcDbLine
 10
9.1162376071
 20
8.1877015975
 30
0.0
 11
9.144476551
 21
8.2040035928
 31
0.0
  0
SPLINE
  5
26C
330
1F
100
AcDbEntity
  8
0
  6
Continuous
 62
     7
370
     0
100
AcDbSpline
210
0.0
220
0.0
230
1.0
 70
     8
 71
     3
 72
    13
 73
     9
 74
     0
 42
0.000000001
 43
0.00000001
 40
0.0
 40
0.0
 40
0.0
 40
0.0
 40
0.1255997205530967
 40
0.251072804568251
 40
0.4995957155071205
 40
0.7487890782142426
 40
0.8492801662769651
 40
1.0
 40
1.0
 40
1.0
 40
1.0
 10
9.1131180058284
 20
8.18106622981343
 30
0.0
 10
9.112387564125541
 20
8.180998222957937
 30
0.0
 10
9.110927417191277
 20
8.180862277815201
 30
0.0
 10
9.108786617551809
 20
8.180975945457376
 30
0.0
 10
9.107947324391466
 20
8.181989557346025
 30
0.0
 10
9.110508656084683
 20
8.184126521499962
 30
0.0
 10
9.1134573781932
 20
8.186064921458778
 30
0.0
 10
9.115195050287756
 20
8.18708786108292
 30
0.0
 10
9.116237607065523
 20
8.187701597495987
 30
0.0
  0
SPLINE
  5
26D
330
1F
100
AcDbEntity
  8
0
  6
Continuous
 62
     7
370
     0
100
AcDbSpline
210
0.0
220
0.0
230
1.0
 70
     8
 71
     3
 72
    13
 73
     9
 74
     0
 42
0.000000001
 43
0.00000001
 40
0.0
 40
0.0
 40
0.0
 40
0.0
 40
0.1252111800123807
 40
0.2503709188547306
 40
0.5001800844950657
 40
0.7497098314791291
 40
0.874809375772926
 40
1.0
 40
1.0
 40
1.0
 40
1.0
 10
9.131598517994531
 20
8.186580553850003
 30
0.0
 10
9.130756180870485
 20
8.186243665738465
 30
0.0
 10
9.129071852684199
 20
8.18557002792091
 30
0.0
 10
9.125676552754229
 20
8.184299707024307
 30
0.0
 10
9.121441816539974
 20
8.182870063679403
 30
0.0
 10
9.117529798325986
 20
8.181823208965662
 30
0.0
 10
9.11484998728273
 20
8.181296560689047
 30
0.0
 10
9.11369547302141
 20
8.181143025395665
 30
0.0
 10
9.1131180058284
 20
8.18106622981343
 30
0.0
  0
SPLINE
  5
26E
330
1F
100
AcDbEntity
  8
0
  6
Continuous
 62
     7
370
     0
100
AcDbSpline
210
0.0
220
0.0
230
1.0
 70
     8
 71
     3
 72
    13
 73
     9
 74
     0
 42
0.000000001
 43
0.00000001
 40
0.0
 40
0.0
 40
0.0
 40
0.0
 40
0.1253429328899359
 40
0.2505898065604479
 40
0.5000565154177762
 40
0.7494697823308702
 40
0.8746743889016502
 40
1.0
 40
1.0
 40
1.0
 40
1.0
 10
9.133489672885878
 20
8.182889674020796
 30
0.0
 10
9.132979797748657
 20
8.182864130064821
 30
0.0
 10
9.131960438227857
 20
8.182813061729023
 30
0.0
 10
9.130311245730482
 20
8.182908124261667
 30
0.0
 10
9.1290625835456
 20
8.183415859259632
 30
0.0
 10
9.129367525663053
 20
8.184521136160996
 30
0.0
 10
9.130416510198804
 20
8.185640761017643
 30
0.0
 10
9.131204388549184
 20
8.186267188718997
 30
0.0
 10
9.131598517994531
 20
8.186580553850003
 30
0.0
  0
SPLINE
  5
26F
330
1F
100
AcDbEntity
  8
0
  6
Continuous
 62
     7
370
     0
100
AcDbSpline
210
0.0
220
0.0
230
1.0
 70
     8
 71
     3
 72
    13
 73
     9
 74
     0
 42
0.000000001
 43
0.00000001
 40
0.0
 40
0.0
 40
0.0
 40
0.0
 40
0.1251971558968216
 40
0.2503378710232627
 40
0.5001340654709856
 40
0.7497012951317912
 40
0.8748025018892305
 40
1.0
 40
1.0
 40
1.0
 40
1.0
 10
9.151019561336126
 20
8.187600038515024
 30
0.0
 10
9.15022542780108
 20
8.18728963461295
 30
0.0
 10
9.148637518738392
 20
8.186668966743579
 30
0.0
 10
9.14541307079023
 20
8.185537394004585
 30
0.0
 10
9.141405029314052
 20
8.184300565559719
 30
0.0
 10
9.137688122690099
 20
8.18342754819027
 30
0.0
 10
9.135141934881911
 20
8.183032484450042
 30
0.0
 10
9.134040568118602
 20
8.182937289704533
 30
0.0
 10
9.133489672885878
 20
8.182889674020796
 30
0.0
  0
LINE
  5
270
330
1F
100
AcDbEntity
  8
0
  6
Continuous
 62
     7
370
     0
100
AcDbLine
 10
9.1445717447
 20
8.1838777932
 30
0.0
 11
9.1510195613
 21
8.1876000385
 31
0.0
  0
ARC
  5
271
330
1F
100
AcDbEntity
  8
0
  6
Continuous
 62
     7
370
     0
100
AcDbCircle
 10
9.1648186248
 20
7.7197309415
 30
0.0
 40
0.4645882435728448
100
AcDbArc
 50
91.7075082436
 51
92.4977564864
  0
LINE
  5
272
330
1F
100
AcDbEntity
  8
0
  6
Continuous
 62
     7
370
     0
100
AcDbLine
 10
9.1923137325
 20
8.2079771283
 30
0.0
 11
9.1509751822
 21
8.1841128912
 31
0.0
  0
ARC
  5
273
330
1F
100
AcDbEntity
  8
0
  6
Continuous
 62
     7
370
     0
100
AcDbCircle
 10
9.2061571751
 20
7.7435951787
 30
0.0
 40
0.4645882435524812
100
AcDbArc
 50
91.7075082436
 51
92.4977564864
  0
LINE
  5
274
330
1F
100
AcDbEntity
  8
0
  6
Continuous
 62
     7
370
     0
100
AcDbLine
 10
9.1238272222
 20
8.2066213848
 30
0.0
 11
9.0674513209
 21
8.1740762698
 31
0.0
  0
ARC
  5
275
330
1F
100
AcDbEntity
  8
0
  6
Continuous
 62
     7
370
     0
100
AcDbCircle
 10
9.214440044
 20
7.8180920959
 30
0.0
 40
0.3989557517421232
100
AcDbArc
 50
103.1278668624
 51
103.5939173899
  0
LINE
  5
276
330
1F
100
AcDbEntity
  8
0
  6
Continuous
 62
     7
370
     0
100
AcDbLine
 10
9.064294011
 20
8.1733263694
 30
0.0
 11
9.1206699123
 21
8.2058714845
 31
0.0
  0
SPLINE
  5
277
330
1F
100
AcDbEntity
  8
0
  6
Continuous
 62
     7
370
     0
100
AcDbSpline
210
0.0
220
0.0
230
1.0
 70
     8
 71
     3
 72
    12
 73
     8
 74
     0
 42
0.000000001
 43
0.00000001
 40
0.0
 40
0.0
 40
0.0
 40
0.0
 40
0.2500197623417345
 40
0.500017456597088
 40
0.7000073827253893
 40
0.8500145534345135
 40
1.0
 40
1.0
 40
1.0
 40
1.0
 10
9.062241843511032
 20
8.175230993630983
 30
0.0
 10
9.062586036593727
 20
8.175164348818678
 30
0.0
 10
9.06327439237879
 20
8.175031065076496
 30
0.0
 10
9.063952425147754
 20
8.174682646466438
 30
0.0
 10
9.064317296398352
 20
8.174271016698386
 30
0.0
 10
9.064445311995877
 20
8.173839270332463
 30
0.0
 10
9.064344442251459
 20
8.173497328154108
 30
0.0
 10
9.064294011031523
 20
8.173326369445903
 30
0.0
  0
LINE
  5
278
330
1F
100
AcDbEntity
  8
0
  6
Continuous
 62
     7
370
     0
100
AcDbLine
 10
9.0592955653
 20
8.1735301434
 30
0.0
 11
9.0622418435
 21
8.1752309936
 31
0.0
  0
SPLINE
  5
279
330
1F
100
AcDbEntity
  8
0
  6
Continuous
 62
     7
370
     0
100
AcDbSpline
210
0.0
220
0.0
230
1.0
 70
     8
 71
     3
 72
    11
 73
     7
 74
     0
 42
0.000000001
 43
0.00000001
 40
0.0
 40
0.0
 40
0.0
 40
0.0
 40
0.1250486697797236
 40
0.2500820807313298
 40
0.5000562481132578
 40
1.0
 40
1.0
 40
1.0
 40
1.0
 10
9.05401458599834
 20
8.167068276949287
 30
0.0
 10
9.054470225132954
 20
8.167437161481866
 30
0.0
 10
9.055381447803676
 20
8.168174885534585
 30
0.0
 10
9.05681515724118
 20
8.169498364659184
 30
0.0
 10
9.058607204254264
 20
8.171521766382977
 30
0.0
 10
9.05902022136016
 20
8.172726794064829
 30
0.0
 10
9.059295565256088
 20
8.173530143398018
 30
0.0
  0
ARC
  5
27A
330
1F
100
AcDbEntity
  8
0
  6
Continuous
 62
     7
370
     0
100
AcDbCircle
 10
9.1468369308
 20
7.7789965319
 30
0.0
 40
0.399018379241703
100
AcDbArc
 50
103.2385829818
 51
103.4517684092
  0
SPLINE
  5
27B
330
1F
100
AcDbEntity
  8
0
  6
Continuous
 62
     7
370
     0
100
AcDbSpline
210
0.0
220
0.0
230
1.0
 70
     8
 71
     3
 72
    11
 73
     7
 74
     0
 42
0.000000001
 43
0.00000001
 40
0.0
 40
0.0
 40
0.0
 40
0.0
 40
0.4999651355568701
 40
0.6999694370052248
 40
0.8499895917083089
 40
1.0
 40
1.0
 40
1.0
 40
1.0
 10
9.081731950482656
 20
8.178847512739374
 30
0.0
 10
9.077342043551434
 20
8.17706442056689
 30
0.0
 10
9.071196013629308
 20
8.174568026447904
 30
0.0
 10
9.063699522139213
 20
8.171261531540704
 30
0.0
 10
9.059311240822103
 20
8.169262485707032
 30
0.0
 10
9.056743157626581
 20
8.16802812327254
 30
0.0
 10
9.055459157740565
 20
8.16741096210426
 30
0.0
  0
LINE
  5
27C
330
1F
100
AcDbEntity
  8
0
  6
Continuous
 62
     7
370
     0
100
AcDbLine
 10
9.0846329014
 20
8.180522196
 30
0.0
 11
9.0817319505
 21
8.1788475127
 31
0.0
  0
SPLINE
  5
27D
330
1F
100
AcDbEntity
  8
0
  6
Continuous
 62
     7
370
     0
100
AcDbSpline
210
0.0
220
0.0
230
1.0
 70
     8
 71
     3
 72
    11
 73
     7
 74
     0
 42
0.000000001
 43
0.00000001
 40
0.0
 40
0.0
 40
0.0
 40
0.0
 40
0.3023087415696263
 40
0.4999876043955392
 40
0.7020377215954352
 40
1.0
 40
1.0
 40
1.0
 40
1.0
 10
9.067451320928816
 20
8.174076269764136
 30
0.0
 10
9.069232013533426
 20
8.174788759221606
 30
0.0
 10
9.072177096182775
 20
8.175967143594972
 30
0.0
 10
9.076281359368515
 20
8.177557724671008
 30
0.0
 10
9.080202438617603
 20
8.178975094371959
 30
0.0
 10
9.082978574717574
 20
8.17994451112078
 30
0.0
 10
9.08463290137983
 20
8.180522196045677
 30
0.0
  0
LWPOLYLINE
  5
27E
330
1F
100
AcDbEntity
  8
0
  6
Continuous
 62
     7
370
     0
100
AcDbPolyline
 90
      241
 70
   128
 43
0.0
 10
8.4883094323
 20
7.4274990363
 10
8.4885584036
 20
7.4493176549
 10
8.4893051469
 20
7.470833864
 10
8.4905491503
 20
7.4920329173
 10
8.4922895614
 20
7.5129002863
 10
8.4945251872
 20
7.5334216693
 10
8.4972544957
 20
7.5535830021
 10
8.5004756163
 20
7.5733704672
 10
8.5041863414
 20
7.5927705031
 10
8.5083841279
 20
7.611769814
 10
8.5130660988
 20
7.6303553788
 10
8.5182290452
 20
7.6485144599
 10
8.5238694289
 20
7.6662346119
 10
8.5299833841
 20
7.6835036903
 10
8.5365667207
 20
7.7003098597
 10
8.5436149268
 20
7.7166416021
 10
8.5511231718
 20
7.7324877245
 10
8.55908631
 20
7.7478373668
 10
8.5674988839
 20
7.762680009
 10
8.5763551278
 20
7.7770054787
 10
8.5856489723
 20
7.7908039581
 10
8.5953740477
 20
7.8040659903
 10
8.6055236889
 20
7.8167824861
 10
8.61609094
 20
7.8289447304
 10
8.6270685586
 20
7.8405443877
 10
8.6384490212
 20
7.8515735082
 10
8.6502245282
 20
7.8620245331
 10
8.6623870093
 20
7.8718902998
 10
8.674928129
 20
7.8811640468
 10
8.6878392921
 20
7.8898394183
 10
8.70111165
 20
7.8979104686
 10
8.7147361064
 20
7.9053716664
 10
8.728703324
 20
7.9122178979
 10
8.7430037302
 20
7.9184444712
 10
8.7576275242
 20
7.9240471189
 10
8.7725646837
 20
7.9290220012
 10
8.7878049714
 20
7.9333657085
 10
8.8033379424
 20
7.937075264
 10
8.8191529512
 20
7.9401481252
 10
8.835239159
 20
7.9425821862
 10
8.8515855411
 20
7.9443757788
 10
8.8681808945
 20
7.9455276737
 10
8.8850138456
 20
7.9460370816
 10
8.9020728578
 20
7.9459036532
 10
8.9193462399
 20
7.9451274801
 10
8.9368221535
 20
7.9437090942
 10
8.9544886215
 20
7.9416494675
 10
8.9723335361
 20
7.9389500116
 10
8.9903446674
 20
7.9356125767
 10
9.0085096714
 20
7.9316394499
 10
9.0268160988
 20
7.9270333544
 10
9.0452514031
 20
7.9217974469
 10
9.0638029499
 20
7.9159353157
 10
9.0824580248
 20
7.9094509787
 10
9.1012038425
 20
7.9023488796
 10
9.1200275555
 20
7.8946338861
 10
9.1389162632
 20
7.8863112855
 10
9.15785702
 20
7.8773867818
 10
9.1768368449
 20
7.8678664914
 10
9.1958427301
 20
7.8577569389
 10
9.21486165
 20
7.8470650531
 10
9.2338805698
 20
7.8357981615
 10
9.252886455
 20
7.8239639859
 10
9.27186628
 20
7.811570637
 10
9.2908070368
 20
7.7986266084
 10
9.3096957444
 20
7.7851407713
 10
9.3285194575
 20
7.7711223683
 10
9.3472652751
 20
7.7565810069
 10
9.36592035
 20
7.7415266531
 10
9.3844718968
 20
7.7259696242
 10
9.4029072012
 20
7.7099205824
 10
9.4212136285
 20
7.6933905268
 10
9.4393786325
 20
7.6763907863
 10
9.4573897638
 20
7.6589330117
 10
9.4752346784
 20
7.6410291677
 10
9.4929011464
 20
7.6226915246
 10
9.51037706
 20
7.6039326502
 10
9.5276504421
 20
7.5847654009
 10
9.5447094543
 20
7.5652029129
 10
9.5615424054
 20
7.5452585935
 10
9.5781377588
 20
7.5249461113
 10
9.5944841409
 20
7.5042793877
 10
9.6105703487
 20
7.4832725865
 10
9.6263853575
 20
7.4619401048
 10
9.6419183285
 20
7.4402965627
 10
9.6571586162
 20
7.4183567937
 10
9.6720957757
 20
7.3961358342
 10
9.6867195697
 20
7.3736489133
 10
9.7010199759
 20
7.3509114425
 10
9.7149871935
 20
7.3279390048
 10
9.72861165
 20
7.3047473445
 10
9.7418840079
 20
7.2813523559
 10
9.754795171
 20
7.2577700728
 10
9.7673362906
 20
7.2340166573
 10
9.7794987717
 20
7.2101083888
 10
9.7912742787
 20
7.1860616528
 10
9.8026547414
 20
7.1618929299
 10
9.8136323599
 20
7.1376187839
 10
9.824199611
 20
7.1132558513
 10
9.8343492522
 20
7.0888208291
 10
9.8440743276
 20
7.0643304639
 10
9.8533681721
 20
7.0398015401
 10
9.8622244161
 20
7.0152508687
 10
9.8706369899
 20
6.9906952754
 10
9.8786001282
 20
6.9661515895
 10
9.8861083732
 20
6.941636632
 10
9.8931565792
 20
6.9171672041
 10
9.8997399158
 20
6.892760076
 10
9.905853871
 20
6.8684319751
 10
9.9114942547
 20
6.8441995748
 10
9.9166572012
 20
6.8200794826
 10
9.921339172
 20
6.7960882293
 10
9.9255369585
 20
6.7722422573
 10
9.9292476836
 20
6.7485579094
 10
9.9324688042
 20
6.7250514177
 10
9.9351981127
 20
6.7017388923
 10
9.9374337386
 20
6.6786363106
 10
9.9391741496
 20
6.6557595058
 10
9.9404181531
 20
6.6331241566
 10
9.9411648963
 20
6.6107457761
 10
9.9414138676
 20
6.5886397014
 10
9.9411648963
 20
6.5668210828
 10
9.9404181531
 20
6.5453048738
 10
9.9391741496
 20
6.5241058204
 10
9.9374337386
 20
6.5032384515
 10
9.9351981127
 20
6.4827170684
 10
9.9324688042
 20
6.4625557356
 10
9.9292476836
 20
6.4427682706
 10
9.9255369585
 20
6.4233682347
 10
9.921339172
 20
6.4043689237
 10
9.9166572012
 20
6.3857833589
 10
9.9114942547
 20
6.3676242779
 10
9.905853871
 20
6.3499041259
 10
9.8997399158
 20
6.3326350475
 10
9.8931565792
 20
6.315828878
 10
9.8861083732
 20
6.2994971356
 10
9.8786001282
 20
6.2836510132
 10
9.8706369899
 20
6.268301371
 10
9.8622244161
 20
6.2534587288
 10
9.8533681721
 20
6.239133259
 10
9.8440743276
 20
6.2253347797
 10
9.8343492522
 20
6.2120727475
 10
9.824199611
 20
6.1993562516
 10
9.8136323599
 20
6.1871940073
 10
9.8026547414
 20
6.17559435
 10
9.7912742787
 20
6.1645652295
 10
9.7794987717
 20
6.1541142046
 10
9.7673362906
 20
6.1442484379
 10
9.754795171
 20
6.1349746909
 10
9.7418840079
 20
6.1262993194
 10
9.72861165
 20
6.1182282691
 10
9.7149871935
 20
6.1107670714
 10
9.7010199759
 20
6.1039208398
 10
9.6867195697
 20
6.0976942665
 10
9.6720957757
 20
6.0920916189
 10
9.6571586162
 20
6.0871167366
 10
9.6419183285
 20
6.0827730292
 10
9.6263853575
 20
6.0790634738
 10
9.6105703487
 20
6.0759906126
 10
9.5944841409
 20
6.0735565515
 10
9.5781377588
 20
6.071762959
 10
9.5615424054
 20
6.070611064
 10
9.5447094543
 20
6.0701016561
 10
9.5276504421
 20
6.0702350845
 10
9.51037706
 20
6.0710112576
 10
9.4929011464
 20
6.0724296436
 10
9.4752346784
 20
6.0744892703
 10
9.4573897638
 20
6.0771887261
 10
9.4393786325
 20
6.0805261611
 10
9.4212136285
 20
6.0844992878
 10
9.4029072012
 20
6.0891053833
 10
9.3844718968
 20
6.0943412909
 10
9.36592035
 20
6.100203422
 10
9.3472652751
 20
6.1066877591
 10
9.3285194575
 20
6.1137898581
 10
9.3096957444
 20
6.1215048516
 10
9.2908070368
 20
6.1298274522
 10
9.27186628
 20
6.1387519559
 10
9.252886455
 20
6.1482722464
 10
9.2338805698
 20
6.1583817988
 10
9.21486165
 20
6.1690736847
 10
9.1958427301
 20
6.1803405762
 10
9.1768368449
 20
6.1921747518
 10
9.15785702
 20
6.2045681008
 10
9.1389162632
 20
6.2175121294
 10
9.1200275555
 20
6.2309979664
 10
9.1012038425
 20
6.2450163694
 10
9.0824580248
 20
6.2595577308
 10
9.0638029499
 20
6.2746120847
 10
9.0452514031
 20
6.2901691135
 10
9.0268160988
 20
6.3062181554
 10
9.0085096714
 20
6.322748211
 10
8.9903446674
 20
6.3397479514
 10
8.9723335361
 20
6.357205726
 10
8.9544886215
 20
6.3751095701
 10
8.9368221535
 20
6.3934472131
 10
8.9193462399
 20
6.4122060875
 10
8.9020728578
 20
6.4313733368
 10
8.8850138456
 20
6.4509358248
 10
8.8681808945
 20
6.4708801443
 10
8.8515855411
 20
6.4911926264
 10
8.835239159
 20
6.51185935
 10
8.8191529512
 20
6.5328661512
 10
8.8033379424
 20
6.554198633
 10
8.7878049714
 20
6.575842175
 10
8.7725646837
 20
6.597781944
 10
8.7576275242
 20
6.6200029035
 10
8.7430037302
 20
6.6424898244
 10
8.728703324
 20
6.6652272953
 10
8.7147361064
 20
6.6881997329
 10
8.70111165
 20
6.7113913933
 10
8.6878392921
 20
6.7347863819
 10
8.674928129
 20
6.758368665
 10
8.6623870093
 20
6.7821220805
 10
8.6502245282
 20
6.806030349
 10
8.6384490212
 20
6.8300770849
 10
8.6270685586
 20
6.8542458079
 10
8.61609094
 20
6.8785199538
 10
8.6055236889
 20
6.9028828865
 10
8.5953740477
 20
6.9273179087
 10
8.5856489723
 20
6.9518082739
 10
8.5763551278
 20
6.9763371976
 10
8.5674988839
 20
7.000887869
 10
8.55908631
 20
7.0254434623
 10
8.5511231718
 20
7.0499871482
 10
8.5436149268
 20
7.0745021058
 10
8.5365667207
 20
7.0989715337
 10
8.5299833841
 20
7.1233786617
 10
8.5238694289
 20
7.1477067626
 10
8.5182290452
 20
7.171939163
 10
8.5130660988
 20
7.1960592551
 10
8.5083841279
 20
7.2200505084
 10
8.5041863414
 20
7.2438964805
 10
8.5004756163
 20
7.2675808284
 10
8.4972544957
 20
7.2910873201
 10
8.4945251872
 20
7.3143998454
 10
8.4922895614
 20
7.3375024272
 10
8.4905491503
 20
7.3603792319
 10
8.4893051469
 20
7.3830145811
 10
8.4885584036
 20
7.4053929616
 10
8.4883094323
 20
7.4274990363
  0
LWPOLYLINE
  5
27F
330
1F
100
AcDbEntity
  8
0
  6
Continuous
 62
     7
370
     0
100
AcDbPolyline
 90
      107
 70
   128
 43
0.0
 10
8.5076279488
 20
7.4304872974
 10
8.507874497
 20
7.408596367
 10
8.5086139727
 20
7.3864357809
 10
8.5098458691
 20
7.3640207271
 10
8.5115693418
 20
7.3413665677
 10
8.5137832098
 20
7.3184888286
 10
8.5164859557
 20
7.2954031891
 10
8.5196757272
 20
7.272125471
 10
8.5233503382
 20
7.2486716277
 10
8.5275072703
 20
7.2250577333
 10
8.5321436745
 20
7.2012999715
 10
8.5372563733
 20
7.1774146248
 10
8.5428418627
 20
7.1534180628
 10
8.5488963148
 20
7.1293267318
 10
8.5554155799
 20
7.1051571427
 10
8.5623951903
 20
7.0809258601
 10
8.5698303624
 20
7.0566494909
 10
8.5777160004
 20
7.032344673
 10
8.5860467001
 20
7.0080280636
 10
8.5948167519
 20
6.9837163282
 10
8.6040201454
 20
6.9594261288
 10
8.6136505728
 20
6.9351741126
 10
8.6237014341
 20
6.9109769008
 10
8.6341658409
 20
6.886851077
 10
8.6450366213
 20
6.8628131758
 10
8.6563063252
 20
6.8388796716
 10
8.6679672287
 20
6.8150669671
 10
8.6800113402
 20
6.7913913825
 10
8.6924304051
 20
6.7678691438
 10
8.7052159121
 20
6.7445163719
 10
8.7183590987
 20
6.7213490718
 10
8.731850957
 20
6.6983831211
 10
8.7456822406
 20
6.6756342594
 10
8.7598434701
 20
6.6531180778
 10
8.7743249401
 20
6.6308500078
 10
8.7891167257
 20
6.6088453106
 10
8.8042086895
 20
6.5871190674
 10
8.819590488
 20
6.5656861681
 10
8.8352515795
 20
6.5445613017
 10
8.8511812305
 20
6.5237589463
 10
8.8673685237
 20
6.5032933586
 10
8.8838023652
 20
6.4831785649
 10
8.9004714919
 20
6.4634283507
 10
8.9173644797
 20
6.4440562519
 10
8.934469751
 20
6.4250755452
 10
8.9517755827
 20
6.4064992389
 10
8.9692701143
 20
6.3883400644
 10
8.9869413558
 20
6.370610467
 10
9.0047771962
 20
6.3533225978
 10
9.0227654119
 20
6.3364883049
 10
9.0408936745
 20
6.3201191258
 10
9.0591495599
 20
6.304226279
 10
9.0775205563
 20
6.2888206567
 10
9.0959940732
 20
6.2739128172
 10
9.1145574499
 20
6.2595129776
 10
9.1331979638
 20
6.2456310068
 10
9.1519028397
 20
6.2322764188
 10
9.1706592583
 20
6.2194583661
 10
9.1894543647
 20
6.2071856337
 10
9.2082752778
 20
6.1954666326
 10
9.2271090987
 20
6.1843093944
 10
9.2459429195
 20
6.1737215658
 10
9.2647638326
 20
6.1637104032
 10
9.2835589391
 20
6.1542827677
 10
9.3023153576
 20
6.1454451204
 10
9.3210202335
 20
6.1372035184
 10
9.3396607475
 20
6.12956361
 10
9.3582241241
 20
6.1225306311
 10
9.3766976411
 20
6.116109402
 10
9.3950686375
 20
6.1103043232
 10
9.4133245228
 20
6.1051193734
 10
9.4314527855
 20
6.100558106
 10
9.4494410011
 20
6.0966236472
 10
9.4672768416
 20
6.0933186934
 10
9.4849480831
 20
6.0906455096
 10
9.5024426146
 20
6.088605928
 10
9.5197484463
 20
6.0872013462
 10
9.5368537176
 20
6.0864327271
 10
9.5537467054
 20
6.0863005973
 10
9.5704158322
 20
6.0868050474
 10
9.5868496736
 20
6.0879457317
 10
9.6030369668
 20
6.0897218684
 10
9.6189666178
 20
6.0921322403
 10
9.6346277093
 20
6.0951751953
 10
9.6500095079
 20
6.0988486481
 10
9.6651014716
 20
6.1031500809
 10
9.6798932573
 20
6.1080765458
 10
9.6943747273
 20
6.1136246665
 10
9.7085359567
 20
6.1197906406
 10
9.7223672403
 20
6.1265702421
 10
9.7358590987
 20
6.1339588248
 10
9.7490022852
 20
6.1419513247
 10
9.7617877922
 20
6.1505422644
 10
9.7742068572
 20
6.1597257559
 10
9.7862509686
 20
6.1694955054
 10
9.7979118722
 20
6.1798448172
 10
9.809181576
 20
6.1907665983
 10
9.8200523565
 20
6.2022533636
 10
9.8305167632
 20
6.2142972405
 10
9.8405676245
 20
6.2268899749
 10
9.850198052
 20
6.2400229362
 10
9.8594014454
 20
6.2536871238
 10
9.8681714972
 20
6.2678731729
 10
9.8765021969
 20
6.2825713612
 10
9.884387835
 20
6.2977716152
 10
9.8918230071
 20
6.3134635174
 10
9.8963625132
 20
6.323805823
  0
LWPOLYLINE
  5
280
330
1F
100
AcDbEntity
  8
0
  6
Continuous
 62
     7
370
     0
100
AcDbPolyline
 90
       47
 70
   128
 43
0.0
 10
8.9631099571
 20
7.9404218301
 10
8.9517755827
 20
7.9416734131
 10
8.934469751
 20
7.9430779948
 10
8.9173644797
 20
7.9438466139
 10
8.9004714919
 20
7.9439787437
 10
8.8838023652
 20
7.9434742936
 10
8.8673685237
 20
7.9423336093
 10
8.8511812305
 20
7.9405574726
 10
8.8352515795
 20
7.9381471007
 10
8.819590488
 20
7.9351041457
 10
8.8042086895
 20
7.931430693
 10
8.7891167257
 20
7.9271292602
 10
8.7743249401
 20
7.9222027952
 10
8.7598434701
 20
7.9166546745
 10
8.7456822406
 20
7.9104887005
 10
8.731850957
 20
7.9037090989
 10
8.7183590987
 20
7.8963205163
 10
8.7052159121
 20
7.8883280163
 10
8.6924304051
 20
7.8797370766
 10
8.6800113402
 20
7.8705535851
 10
8.6679672287
 20
7.8607838356
 10
8.6563063252
 20
7.8504345238
 10
8.6450366213
 20
7.8395127427
 10
8.6341658409
 20
7.8280259774
 10
8.6237014341
 20
7.8159821005
 10
8.6136505728
 20
7.8033893662
 10
8.6040201454
 20
7.7902564049
 10
8.5948167519
 20
7.7765922173
 10
8.5860467001
 20
7.7624061681
 10
8.5777160004
 20
7.7477079799
 10
8.5698303624
 20
7.7325077259
 10
8.5623951903
 20
7.7168158236
 10
8.5554155799
 20
7.7006430276
 10
8.5488963148
 20
7.6840004219
 10
8.5428418627
 20
7.6668994124
 10
8.5372563733
 20
7.6493517193
 10
8.5321436745
 20
7.6313693689
 10
8.5275072703
 20
7.6129646855
 10
8.5233503382
 20
7.5941502827
 10
8.5196757272
 20
7.574939055
 10
8.5164859557
 20
7.5553441687
 10
8.5137832098
 20
7.5353790532
 10
8.5115693418
 20
7.5150573916
 10
8.5098458691
 20
7.4943931115
 10
8.5086139727
 20
7.4734003749
 10
8.507874497
 20
7.4520935693
 10
8.5076279488
 20
7.4304872974
  0
ARC
  5
281
330
1F
100
AcDbEntity
  8
0
  6
Continuous
 62
     7
370
     0
100
AcDbCircle
 10
8.8637308847
 20
6.8053658927
 30
0.0
 40
1.675152640297458
100
AcDbArc
 50
2.60583048
 51
57.3887929873
  0
LWPOLYLINE
  5
282
330
1F
100
AcDbEntity
  8
0
  6
Continuous
 62
     7
370
     0
100
AcDbPolyline
 90
       73
 70
   128
 43
0.0
 10
10.5584914542
 20
6.9530350907
 10
10.5582449059
 20
6.9749260211
 10
10.5575054303
 20
6.9970866071
 10
10.5562735339
 20
7.0195016609
 10
10.5545500612
 20
7.0421558204
 10
10.5523361932
 20
7.0650335595
 10
10.5496334473
 20
7.088119199
 10
10.5464436758
 20
7.111396917
 10
10.5427690648
 20
7.1348507603
 10
10.5386121327
 20
7.1584646548
 10
10.5339757285
 20
7.1822224165
 10
10.5288630297
 20
7.2061077633
 10
10.5232775402
 20
7.2301043252
 10
10.5172230882
 20
7.2541956562
 10
10.5107038231
 20
7.2783652454
 10
10.5037242127
 20
7.302596528
 10
10.4962890406
 20
7.3268728971
 10
10.4884034025
 20
7.351177715
 10
10.4800727029
 20
7.3754943244
 10
10.471302651
 20
7.3998060599
 10
10.4620992576
 20
7.4240962593
 10
10.4524688302
 20
7.4483482755
 10
10.4424179689
 20
7.4725454872
 10
10.4319535621
 20
7.496671311
 10
10.4210827817
 20
7.5207092123
 10
10.4098130778
 20
7.5446427165
 10
10.3981521743
 20
7.568455421
 10
10.3861080628
 20
7.5921310056
 10
10.3736889979
 20
7.6156532443
 10
10.3609034908
 20
7.6390060161
 10
10.3477603043
 20
7.6621733163
 10
10.3342684459
 20
7.685139267
 10
10.3204371624
 20
7.7078881286
 10
10.3062759329
 20
7.7304043102
 10
10.2917944629
 20
7.7526723803
 10
10.2770026772
 20
7.7746770774
 10
10.2619107135
 20
7.7964033207
 10
10.2465289149
 20
7.81783622
 10
10.2308678235
 20
7.8389610864
 10
10.2149381725
 20
7.8597634418
 10
10.1987508792
 20
7.8802290294
 10
10.1823170378
 20
7.9003438232
 10
10.1656479111
 20
7.9200940373
 10
10.1487549233
 20
7.9394661361
 10
10.131649652
 20
7.9584468429
 10
10.1143438203
 20
7.9770231491
 10
10.0968492887
 20
7.9951823236
 10
10.0791780472
 20
8.012911921
 10
10.0613422068
 20
8.0301997903
 10
10.0433539911
 20
8.0470340832
 10
10.0252257285
 20
8.0634032623
 10
10.0069698431
 20
8.0792961091
 10
9.9885988467
 20
8.0947017313
 10
9.9701253297
 20
8.1096095708
 10
9.9515619531
 20
8.1240094104
 10
9.9329214392
 20
8.1378913813
 10
9.9142165633
 20
8.1512459693
 10
9.8954601447
 20
8.164064022
 10
9.8766650383
 20
8.1763367544
 10
9.8578441252
 20
8.1880557555
 10
9.8390103043
 20
8.1992129936
 10
9.8201764834
 20
8.2098008222
 10
9.8013555703
 20
8.2198119848
 10
9.7825604639
 20
8.2292396204
 10
9.7638040454
 20
8.2380772676
 10
9.7450991694
 20
8.2463188696
 10
9.7264586555
 20
8.2539587781
 10
9.7078952789
 20
8.2609917569
 10
9.6894217619
 20
8.2674129861
 10
9.6710507655
 20
8.2732180649
 10
9.6527948801
 20
8.2784030147
 10
9.6346666175
 20
8.282964282
 10
9.6217111675
 20
8.2858581347
  0
ARC
  5
283
330
1F
100
AcDbEntity
  8
0
  6
Continuous
 62
     7
370
     0
100
AcDbCircle
 10
9.8105297877
 20
6.9433771797
 30
0.0
 40
0.7480240168453842
100
AcDbArc
 50
342.7369355628
 51
0.7397796039
  0
ARC
  5
284
330
1F
100
AcDbEntity
  8
0
  6
Continuous
 62
     7
370
     0
100
AcDbCircle
 10
8.433393226
 20
6.5572715979
 30
0.0
 40
1.894859489667352
100
AcDbArc
 50
32.1406686285
 51
32.7230422893
  0
SPLINE
  5
285
330
1F
100
AcDbEntity
  8
0
  6
Continuous
 62
     7
370
     0
100
AcDbSpline
210
0.0
220
0.0
230
1.0
 70
     8
 71
     3
 72
    14
 73
    10
 74
     0
 42
0.000000001
 43
0.00000001
 40
0.0
 40
0.0
 40
0.0
 40
0.0
 40
0.1253839955034195
 40
0.2507191295888358
 40
0.4995238767912824
 40
0.6221861952661619
 40
0.7495943121208831
 40
0.8747213849328412
 40
1.0
 40
1.0
 40
1.0
 40
1.0
 10
10.02752610106822
 20
7.581592281223275
 30
0.0
 10
10.02691783613876
 20
7.582504648410588
 30
0.0
 10
10.02570154331716
 20
7.584329027240999
 30
0.0
 10
10.02295507068753
 20
7.587714121455417
 30
0.0
 10
10.01961414183466
 20
7.590715763474602
 30
0.0
 10
10.01568391457228
 20
7.592071762331293
 30
0.0
 10
10.01276040839925
 20
7.592185593383148
 30
0.0
 10
10.01000737684027
 20
7.591598284724427
 30
0.0
 10
10.00840808956398
 20
7.590776531845308
 30
0.0
 10
10.00760796199194
 20
7.59036540674869
 30
0.0
  0
SPLINE
  5
286
330
1F
100
AcDbEntity
  8
0
  6
Continuous
 62
     7
370
     0
100
AcDbSpline
210
0.0
220
0.0
230
1.0
 70
     8
 71
     3
 72
    13
 73
     9
 74
     0
 42
0.000000001
 43
0.00000001
 40
0.0
 40
0.0
 40
0.0
 40
0.0
 40
0.1253123608593321
 40
0.2505410036196881
 40
0.5002407886108441
 40
0.7496578836112635
 40
0.8747738520886809
 40
1.0
 40
1.0
 40
1.0
 40
1.0
 10
10.00760796199194
 20
7.59036540674869
 30
0.0
 10
10.00711496275952
 20
7.590057906440954
 30
0.0
 10
10.00612929365531
 20
7.589443111258857
 30
0.0
 10
10.00441190368818
 20
7.587887181173467
 30
0.0
 10
10.00276941926728
 20
7.585412258066135
 30
0.0
 10
10.00209363990337
 20
7.582334271560177
 30
0.0
 10
10.00223442002817
 20
7.579697145121558
 30
0.0
 10
10.0026346273833
 20
7.578377488265972
 30
0.0
 10
10.00283481912959
 20
7.577717369437493
 30
0.0
  0
SPLINE
  5
287
330
1F
100
AcDbEntity
  8
0
  6
Continuous
 62
     7
370
     0
100
AcDbSpline
210
0.0
220
0.0
230
1.0
 70
     8
 71
     3
 72
    11
 73
     7
 74
     0
 42
0.000000001
 43
0.00000001
 40
0.0
 40
0.0
 40
0.0
 40
0.0
 40
0.2245830904282295
 40
0.4998470029803672
 40
0.7047624397467948
 40
1.0
 40
1.0
 40
1.0
 40
1.0
 10
10.00283481912959
 20
7.577717369437493
 30
0.0
 10
10.0031081796541
 20
7.577092837812308
 30
0.0
 10
10.00371658894551
 20
7.575702838856823
 30
0.0
 10
10.0047771653888
 20
7.57381484089099
 30
0.0
 10
10.00601396948065
 20
7.571777514616246
 30
0.0
 10
10.00683720765574
 20
7.57047621795145
 30
0.0
 10
10.00732316061767
 20
7.569708069695278
 30
0.0
  0
ARC
  5
288
330
1F
100
AcDbEntity
  8
0
  6
Continuous
 62
     7
370
     0
100
AcDbCircle
 10
8.4130655344
 20
6.5455354994
 30
0.0
 40
1.894884385035048
100
AcDbArc
 50
32.1406711644
 51
32.7172354268
  0
LINE
  5
289
330
1F
100
AcDbEntity
  8
0
  6
Continuous
 62
     7
370
     0
100
AcDbLine
 10
10.0175484598
 20
7.5536135592
 30
0.0
 11
10.0378551161
 21
7.5653363423
 31
0.0
  0
ARC
  5
28A
330
1F
100
AcDbEntity
  8
0
  6
Continuous
 62
     7
370
     0
100
AcDbCircle
 10
8.4934121729
 20
6.5984440547
 30
0.0
 40
1.828738859470673
100
AcDbArc
 50
36.3278101914
 51
37.1717801388
  0
SPLINE
  5
28B
330
1F
100
AcDbEntity
  8
0
  6
Continuous
 62
     7
370
     0
100
AcDbSpline
210
0.0
220
0.0
230
1.0
 70
     8
 71
     3
 72
     8
 73
     4
 74
     0
 42
0.000000001
 43
0.00000001
 40
0.0
 40
0.0
 40
0.0
 40
0.0
 40
1.0
 40
1.0
 40
1.0
 40
1.0
 10
9.950601777172263
 20
7.703380375658394
 30
0.0
 10
9.947187536879307
 20
7.698486514457465
 30
0.0
 10
9.943769799556634
 20
7.693588382970353
 30
0.0
 10
9.940348526809908
 20
7.688686032051907
 30
0.0
  0
SPLINE
  5
28C
330
1F
100
AcDbEntity
  8
0
  6
Continuous
 62
     7
370
     0
100
AcDbSpline
210
0.0
220
0.0
230
1.0
 70
     8
 71
     3
 72
     8
 73
     4
 74
     0
 42
0.000000001
 43
0.00000001
 40
0.0
 40
0.0
 40
0.0
 40
0.0
 40
1.0
 40
1.0
 40
1.0
 40
1.0
 10
9.940348526809908
 20
7.688686032051907
 30
0.0
 10
9.9377626368664
 20
7.684978144535585
 30
0.0
 10
9.93517472255518
 20
7.681267840992224
 30
0.0
 10
9.932584767307697
 20
7.677555143536678
 30
0.0
  0
SPLINE
  5
28D
330
1F
100
AcDbEntity
  8
0
  6
Continuous
 62
     7
370
     0
100
AcDbSpline
210
0.0
220
0.0
230
1.0
 70
     8
 71
     3
 72
    11
 73
     7
 74
     0
 42
0.000000001
 43
0.00000001
 40
0.0
 40
0.0
 40
0.0
 40
0.0
 40
0.2500100436889948
 40
0.4999937932095434
 40
0.7499834514766522
 40
1.0
 40
1.0
 40
1.0
 40
1.0
 10
9.932584767307697
 20
7.677555143536678
 30
0.0
 10
9.933672742793117
 20
7.677833037909132
 30
0.0
 10
9.93584857933891
 20
7.678388797427208
 30
0.0
 10
9.939252956369803
 20
7.678889811057863
 30
0.0
 10
9.942712460443861
 20
7.679226124865753
 30
0.0
 10
9.945072656841445
 20
7.679249426854549
 30
0.0
 10
9.946252818505736
 20
7.679261078475537
 30
0.0
  0
SPLINE
  5
28E
330
1F
100
AcDbEntity
  8
0
  6
Continuous
 62
     7
370
     0
100
AcDbSpline
210
0.0
220
0.0
230
1.0
 70
     8
 71
     3
 72
     8
 73
     4
 74
     0
 42
0.000000001
 43
0.00000001
 40
0.0
 40
0.0
 40
0.0
 40
0.0
 40
1.0
 40
1.0
 40
1.0
 40
1.0
 10
9.946252818505736
 20
7.679261078475537
 30
0.0
 10
9.95307883932658
 20
7.680110900217205
 30
0.0
 10
9.959900873639384
 20
7.680956120836798
 30
0.0
 10
9.966718877055591
 20
7.681796800421303
 30
0.0
  0
ARC
  5
28F
330
1F
100
AcDbEntity
  8
0
  6
Continuous
 62
     7
370
     0
100
AcDbCircle
 10
9.8419056074
 20
6.9526721086
 30
0.0
 40
0.7218540821631902
100
AcDbArc
 50
340.8882681263
 51
0.9140454905
  0
LWPOLYLINE
  5
290
330
1F
100
AcDbEntity
  8
0
  6
Continuous
 62
     7
370
     0
100
AcDbPolyline
 90
       74
 70
   128
 43
0.0
 10
9.6168824414
 20
8.2876251162
 10
9.6311109307
 20
8.284941858
 10
9.648922358
 20
8.2810460671
 10
9.6668724559
 20
8.2765296279
 10
9.6849489222
 20
8.2713956358
 10
9.7031393683
 20
8.2656476094
 10
9.7214313274
 20
8.2592894881
 10
9.739812263
 20
8.2523256295
 10
9.7582695777
 20
8.2447608062
 10
9.7767906219
 20
8.2366002027
 10
9.7953627022
 20
8.2278494119
 10
9.8139730901
 20
8.2185144313
 10
9.8326090311
 20
8.2086016585
 10
9.851257753
 20
8.1981178872
 10
9.8699064749
 20
8.1870703025
 10
9.8885424159
 20
8.1754664758
 10
9.9071528039
 20
8.1633143599
 10
9.9257248841
 20
8.1506222832
 10
9.9442459283
 20
8.1373989442
 10
9.9627032431
 20
8.1236534055
 10
9.9810841787
 20
8.1093950877
 10
9.9993761377
 20
8.0946337626
 10
10.0175665838
 20
8.0793795469
 10
10.0356430502
 20
8.0636428952
 10
10.053593148
 20
8.0474345925
 10
10.0714045753
 20
8.0307657472
 10
10.089065125
 20
8.0136477833
 10
10.1065626934
 20
7.9960924326
 10
10.1238852885
 20
7.9781117266
 10
10.1410210383
 20
7.9597179885
 10
10.1579581988
 20
7.9409238243
 10
10.1746851622
 20
7.9217421147
 10
10.1911904646
 20
7.9021860058
 10
10.207462794
 20
7.8822689005
 10
10.2234909984
 20
7.8620044489
 10
10.2392640926
 20
7.8414065392
 10
10.2547712667
 20
7.8204892882
 10
10.2700018928
 20
7.7992670316
 10
10.2849455326
 20
7.7777543141
 10
10.2995919444
 20
7.7559658794
 10
10.3139310904
 20
7.7339166601
 10
10.3279531432
 20
7.7116217678
 10
10.3416484928
 20
7.6890964822
 10
10.355007753
 20
7.666356241
 10
10.3680217682
 20
7.6434166293
 10
10.3806816191
 20
7.6202933687
 10
10.3929786294
 20
7.5970023068
 10
10.4049043712
 20
7.5735594061
 10
10.4164506713
 20
7.5499807332
 10
10.4276096164
 20
7.5262824476
 10
10.4383735587
 20
7.5024807911
 10
10.4487351211
 20
7.4785920762
 10
10.4586872025
 20
7.4546326748
 10
10.468222982
 20
7.4306190077
 10
10.4773359244
 20
7.4065675326
 10
10.486019784
 20
7.3824947331
 10
10.4942686095
 20
7.3584171076
 10
10.5020767475
 20
7.3343511577
 10
10.5094388466
 20
7.3103133769
 10
10.5163498613
 20
7.2863202396
 10
10.522805055
 20
7.2623881894
 10
10.5288000038
 20
7.2385336283
 10
10.534330599
 20
7.2147729048
 10
10.5393930502
 20
7.1911223035
 10
10.5439838878
 20
7.1675980332
 10
10.5480999655
 20
7.1442162163
 10
10.5517384624
 20
7.1209928776
 10
10.5548968848
 20
7.0979439332
 10
10.5575730681
 20
7.0750851797
 10
10.5597651781
 20
7.0524322832
 10
10.5614717125
 20
7.030000769
 10
10.5626915018
 20
7.0078060106
 10
10.5634237099
 20
6.985863219
 10
10.5636678351
 20
6.9641874329
  0
SPLINE
  5
291
330
1F
100
AcDbEntity
  8
0
  6
Continuous
 62
     7
370
     0
100
AcDbSpline
210
0.0
220
0.0
230
1.0
 70
     8
 71
     3
 72
    15
 73
    11
 74
     0
 42
0.000000001
 43
0.00000001
 40
0.0
 40
0.0
 40
0.0
 40
0.0
 40
0.1252951067980888
 40
0.2505670241319818
 40
0.3770507931623154
 40
0.5008984838913979
 40
0.7495825887402373
 40
0.8746661269955794
 40
0.937322208402113
 40
1.0
 40
1.0
 40
1.0
 40
1.0
 10
9.873209623620514
 20
7.792416279375466
 30
0.0
 10
9.874516119973991
 20
7.793234994288559
 30
0.0
 10
9.877128870876204
 20
7.794872272587996
 30
0.0
 10
9.880403601595914
 20
7.797985826239292
 30
0.0
 10
9.882898236466918
 20
7.801658773586361
 30
0.0
 10
9.884718680327655
 20
7.807297470159609
 30
0.0
 10
9.88429200933642
 20
7.813734682015144
 30
0.0
 10
9.881677335579083
 20
7.819137182401808
 30
0.0
 10
9.879674752491402
 20
7.822069319870073
 30
0.0
 10
9.878492238415983
 20
7.823449912547904
 30
0.0
 10
9.8779008789614
 20
7.824140328459169
 30
0.0
  0
SPLINE
  5
292
330
1F
100
AcDbEntity
  8
0
  6
Continuous
 62
     7
370
     0
100
AcDbSpline
210
0.0
220
0.0
230
1.0
 70
     8
 71
     3
 72
    14
 73
    10
 74
     0
 42
0.000000001
 43
0.00000001
 40
0.0
 40
0.0
 40
0.0
 40
0.0
 40
0.0627712587146432
 40
0.1255164908686894
 40
0.2507936783371056
 40
0.4996926161412322
 40
0.7490368580308088
 40
0.8744925538895042
 40
1.0
 40
1.0
 40
1.0
 40
1.0
 10
9.8779008789614
 20
7.824140328459169
 30
0.0
 10
9.877258860792029
 20
7.824827675730446
 30
0.0
 10
9.875975090650353
 20
7.826202085281333
 30
0.0
 10
9.873085394053431
 20
7.828716329852127
 30
0.0
 10
9.867411095885368
 20
7.832478982875163
 30
0.0
 10
9.85784274830009
 20
7.835412929763249
 30
0.0
 10
9.848786544818616
 20
7.83456561848593
 30
0.0
 10
9.842479577734952
 20
7.832395183909368
 30
0.0
 10
9.839656571833501
 20
7.830873757705137
 30
0.0
 10
9.838244777821576
 20
7.830112887738972
 30
0.0
  0
SPLINE
  5
293
330
1F
100
AcDbEntity
  8
0
  6
Continuous
 62
     7
370
     0
100
AcDbSpline
210
0.0
220
0.0
230
1.0
 70
     8
 71
     3
 72
    15
 73
    11
 74
     0
 42
0.000000001
 43
0.00000001
 40
0.0
 40
0.0
 40
0.0
 40
0.0
 40
0.0742844553815819
 40
0.1433906268050133
 40
0.2866474824502289
 40
0.5007283791548117
 40
0.7493687920853587
 40
0.874559056970279
 40
0.9372675318370757
 40
1.0
 40
1.0
 40
1.0
 40
1.0
 10
9.838244777821576
 20
7.830112887738972
 30
0.0
 10
9.83744835575689
 20
7.829624533846071
 30
0.0
 10
9.835911029293772
 20
7.828681868648541
 30
0.0
 10
9.833045346094988
 20
7.826589071851251
 30
0.0
 10
9.8293583995547
 20
7.822969350841629
 30
0.0
 10
9.825895748611762
 20
7.816552914232477
 30
0.0
 10
9.82639069738808
 20
7.808890054444509
 30
0.0
 10
9.829007611428944
 20
7.80341531895046
 30
0.0
 10
9.831015121729845
 20
7.80041306641765
 30
0.0
 10
9.83222728563548
 20
7.799002720377228
 30
0.0
 10
9.832833483514593
 20
7.798297412477409
 30
0.0
  0
SPLINE
  5
294
330
1F
100
AcDbEntity
  8
0
  6
Continuous
 62
     7
370
     0
100
AcDbSpline
210
0.0
220
0.0
230
1.0
 70
     8
 71
     3
 72
    16
 73
    12
 74
     0
 42
0.000000001
 43
0.00000001
 40
0.0
 40
0.0
 40
0.0
 40
0.0
 40
0.0625794781288046
 40
0.1251437417759299
 40
0.2500356406551086
 40
0.3749737287994218
 40
0.499827623051638
 40
0.6246967345498137
 40
0.7497162312909399
 40
0.8748374344087247
 40
1.0
 40
1.0
 40
1.0
 40
1.0
 10
9.832833483514593
 20
7.798297412477409
 30
0.0
 10
9.833493202634475
 20
7.797587586472534
 30
0.0
 10
9.834812480481649
 20
7.796168107037483
 30
0.0
 10
9.837816414624568
 20
7.79359379639572
 30
0.0
 10
9.841998722055
 20
7.79077286172646
 30
0.0
 10
9.847554481816186
 20
7.788427421365774
 30
0.0
 10
9.85331971726678
 20
7.786970582970726
 30
0.0
 10
9.858930337193813
 20
7.787107710066366
 30
0.0
 10
9.86410472025218
 20
7.788226673575696
 30
0.0
 10
9.86886487202833
 20
7.790057297450667
 30
0.0
 10
9.87176121353776
 20
7.791629865438461
 30
0.0
 10
9.873209623620514
 20
7.792416279375466
 30
0.0
  0
SPLINE
  5
295
330
1F
100
AcDbEntity
  8
0
  6
Continuous
 62
     7
370
     0
100
AcDbSpline
210
0.0
220
0.0
230
1.0
 70
     8
 71
     3
 72
    15
 73
    11
 74
     0
 42
0.000000001
 43
0.00000001
 40
0.0
 40
0.0
 40
0.0
 40
0.0
 40
0.1252951067983514
 40
0.2505670241325113
 40
0.3770507931520094
 40
0.5008984838903286
 40
0.7495825887397192
 40
0.8746661269953196
 40
0.937322208401985
 40
1.0
 40
1.0
 40
1.0
 40
1.0
 10
9.73948034525066
 20
7.929375944898159
 30
0.0
 10
9.740784068831129
 20
7.930187990376281
 30
0.0
 10
9.743391274700512
 20
7.931811931040145
 30
0.0
 10
9.74661348493548
 20
7.934798894135716
 30
0.0
 10
9.749012540589426
 20
7.938240282129906
 30
0.0
 10
9.75063764016175
 20
7.943401593732326
 30
0.0
 10
9.749929352089714
 20
7.949138793709755
 30
0.0
 10
9.747028674770933
 20
7.953809313643027
 30
0.0
 10
9.744858410871489
 20
7.956306228053654
 30
0.0
 10
9.743591932205613
 20
7.957466155913971
 30
0.0
 10
9.742958583183675
 20
7.958046220304823
 30
0.0
  0
SPLINE
  5
296
330
1F
100
AcDbEntity
  8
0
  6
Continuous
 62
     7
370
     0
100
AcDbSpline
210
0.0
220
0.0
230
1.0
 70
     8
 71
     3
 72
    14
 73
    10
 74
     0
 42
0.000000001
 43
0.00000001
 40
0.0
 40
0.0
 40
0.0
 40
0.0
 40
0.0627712587146654
 40
0.1255164908686913
 40
0.2507936783371083
 40
0.4996926161412347
 40
0.749036858030814
 40
0.8744925538895056
 40
1.0
 40
1.0
 40
1.0
 40
1.0
 10
9.742958583183675
 20
7.958046220304823
 30
0.0
 10
9.742273668936656
 20
7.958620172620026
 30
0.0
 10
9.740904124425489
 20
7.959767839275199
 30
0.0
 10
9.737846230803589
 20
7.961831684386257
 30
0.0
 10
9.731891507928399
 20
7.96483235645404
 30
0.0
 10
9.721992996083982
 20
7.966840208720667
 30
0.0
 10
9.712768763524467
 20
7.965508633231516
 30
0.0
 10
9.70640552698741
 20
7.96317543772042
 30
0.0
 10
9.703578388470335
 20
7.961642013407494
 30
0.0
 10
9.702164527724513
 20
7.960875143149937
 30
0.0
  0
SPLINE
  5
297
330
1F
100
AcDbEntity
  8
0
  6
Continuous
 62
     7
370
     0
100
AcDbSpline
210
0.0
220
0.0
230
1.0
 70
     8
 71
     3
 72
    15
 73
    11
 74
     0
 42
0.000000001
 43
0.00000001
 40
0.0
 40
0.0
 40
0.0
 40
0.0
 40
0.0742844553782054
 40
0.1433906268050252
 40
0.2866474824502467
 40
0.5007283791548283
 40
0.7493687920853804
 40
0.8745590569703008
 40
0.937267531837098
 40
1.0
 40
1.0
 40
1.0
 40
1.0
 10
9.702164527724513
 20
7.960875143149937
 30
0.0
 10
9.701369198152229
 20
7.96038995591671
 30
0.0
 10
9.699833980517454
 20
7.959453403294276
 30
0.0
 10
9.696985057582676
 20
7.9574091663572
 30
0.0
 10
9.6933551985734
 20
7.953954473122964
 30
0.0
 10
9.690062308800822
 20
7.948025870602466
 30
0.0
 10
9.690867512050934
 20
7.94123342373585
 30
0.0
 10
9.693762668802142
 20
7.936515055073053
 30
0.0
 10
9.69593746532108
 20
7.933960997087951
 30
0.0
 10
9.697235154636502
 20
7.932776861129844
 30
0.0
 10
9.6978841233998
 20
7.932184679904972
 30
0.0
  0
SPLINE
  5
298
330
1F
100
AcDbEntity
  8
0
  6
Continuous
 62
     7
370
     0
100
AcDbSpline
210
0.0
220
0.0
230
1.0
 70
     8
 71
     3
 72
    16
 73
    12
 74
     0
 42
0.000000001
 43
0.00000001
 40
0.0
 40
0.0
 40
0.0
 40
0.0
 40
0.0625794781288252
 40
0.1251437417759467
 40
0.2500356406551206
 40
0.3749737287994503
 40
0.4998276230516451
 40
0.6246967345498246
 40
0.7497162312909491
 40
0.8748374344087291
 40
0.9999999999999999
 40
0.9999999999999999
 40
0.9999999999999999
 40
0.9999999999999999
 10
9.6978841233998
 20
7.932184679904972
 30
0.0
 10
9.698588217249696
 20
7.931591518403342
 30
0.0
 10
9.699996233768402
 20
7.930405339611012
 30
0.0
 10
9.70317691382782
 20
7.928289649682561
 30
0.0
 10
9.707576010786434
 20
7.926022896081673
 30
0.0
 10
9.713364445870438
 20
7.924261017900927
 30
0.0
 10
9.719332244794128
 20
7.923303903864515
 30
0.0
 10
9.725075203818568
 20
7.923763384180106
 30
0.0
 10
9.73032962407888
 20
7.925075981596382
 30
0.0
 10
9.735129180816875
 20
7.927001531782206
 30
0.0
 10
9.73802979731854
 20
7.928584386664091
 30
0.0
 10
9.73948034525066
 20
7.929375944898159
 30
0.0
  0
ARC
  5
299
330
1F
100
AcDbEntity
  8
0
  6
Continuous
 62
     7
370
     0
100
AcDbCircle
 10
8.9838356993
 20
7.1432859681
 30
0.0
 40
1.091740017501371
100
AcDbArc
 50
57.7019946012
 51
58.8923717235
  0
SPLINE
  5
29A
330
1F
100
AcDbEntity
  8
0
  6
Continuous
 62
     7
370
     0
100
AcDbSpline
210
0.0
220
0.0
230
1.0
 70
     8
 71
     3
 72
     8
 73
     4
 74
     0
 42
0.000000001
 43
0.00000001
 40
0.0
 40
0.0
 40
0.0
 40
0.0
 40
1.0
 40
1.0
 40
1.0
 40
1.0
 10
9.54788026053253
 20
8.078031922215516
 30
0.0
 10
9.54475598426157
 20
8.074065988143854
 30
0.0
 10
9.541631562037194
 20
8.070092666282013
 30
0.0
 10
9.538506948143057
 20
8.066111984398876
 30
0.0
  0
SPLINE
  5
29B
330
1F
100
AcDbEntity
  8
0
  6
Continuous
 62
     7
370
     0
100
AcDbSpline
210
0.0
220
0.0
230
1.0
 70
     8
 71
     3
 72
     8
 73
     4
 74
     0
 42
0.000000001
 43
0.00000001
 40
0.0
 40
0.0
 40
0.0
 40
0.0
 40
1.0
 40
1.0
 40
1.0
 40
1.0
 10
9.538506948143057
 20
8.066111984398876
 30
0.0
 10
9.53614554025914
 20
8.063101524791746
 30
0.0
 10
9.533784022625929
 20
8.06008685087008
 30
0.0
 10
9.53142237543883
 20
8.057067974805584
 30
0.0
  0
SPLINE
  5
29C
330
1F
100
AcDbEntity
  8
0
  6
Continuous
 62
     7
370
     0
100
AcDbSpline
210
0.0
220
0.0
230
1.0
 70
     8
 71
     3
 72
    11
 73
     7
 74
     0
 42
0.000000001
 43
0.00000001
 40
0.0
 40
0.0
 40
0.0
 40
0.0
 40
0.2500100436890057
 40
0.4999937932095523
 40
0.7499834514766585
 40
1.0
 40
1.0
 40
1.0
 40
1.0
 10
9.53142237543883
 20
8.057067974805584
 30
0.0
 10
9.532546422797711
 20
8.057455409603087
 30
0.0
 10
9.534794399296661
 20
8.058230238450623
 30
0.0
 10
9.538350158314524
 20
8.059188629694724
 30
0.0
 10
9.541981895164096
 20
8.06004305233441
 30
0.0
 10
9.544481770505842
 20
8.06048315756107
 30
0.0
 10
9.545731775398169
 20
8.060703222008794
 30
0.0
  0
SPLINE
  5
29D
330
1F
100
AcDbEntity
  8
0
  6
Continuous
 62
     7
370
     0
100
AcDbSpline
210
0.0
220
0.0
230
1.0
 70
     8
 71
     3
 72
     8
 73
     4
 74
     0
 42
0.000000001
 43
0.00000001
 40
0.0
 40
0.0
 40
0.0
 40
0.0
 40
1.0
 40
1.0
 40
1.0
 40
1.0
 10
9.545731775398169
 20
8.060703222008794
 30
0.0
 10
9.552880627308474
 20
8.062514409627646
 30
0.0
 10
9.560029192383762
 20
8.064317472685996
 30
0.0
 10
9.567177417186944
 20
8.066112444727976
 30
0.0
  0
SPLINE
  5
29E
330
1F
100
AcDbEntity
  8
0
  6
Continuous
 62
     7
370
     0
100
AcDbSpline
210
0.0
220
0.0
230
1.0
 70
     8
 71
     3
 72
    11
 73
     7
 74
     0
 42
0.000000001
 43
0.00000001
 40
0.0
 40
0.0
 40
0.0
 40
0.0
 40
0.2786390363563482
 40
0.5001886617784879
 40
0.7655079241420415
 40
1.0
 40
1.0
 40
1.0
 40
1.0
 10
9.021422568670163
 20
8.16247483249412
 30
0.0
 10
9.021741275403318
 20
8.162716993660727
 30
0.0
 10
9.022313390123646
 20
8.16315170041052
 30
0.0
 10
9.023035669671666
 20
8.163737394510129
 30
0.0
 10
9.023525981486682
 20
8.164192503188398
 30
0.0
 10
9.023557883903576
 20
8.164345837835565
 30
0.0
 10
9.023572851279043
 20
8.164417776499148
 30
0.0
  0
SPLINE
  5
29F
330
1F
100
AcDbEntity
  8
0
  6
Continuous
 62
     7
370
     0
100
AcDbSpline
210
0.0
220
0.0
230
1.0
 70
     8
 71
     3
 72
    11
 73
     7
 74
     0
 42
0.000000001
 43
0.00000001
 40
0.0
 40
0.0
 40
0.0
 40
0.0
 40
0.2501057527659579
 40
0.5000136770967188
 40
0.7499022689411956
 40
1.0
 40
1.0
 40
1.0
 40
1.0
 10
9.023572851279043
 20
8.164417776499148
 30
0.0
 10
9.02354014098076
 20
8.164431235598933
 30
0.0
 10
9.023474746257355
 20
8.16445814315264
 30
0.0
 10
9.023157248233407
 20
8.164379764848867
 30
0.0
 10
9.022660311969329
 20
8.164201547766455
 30
0.0
 10
9.022194802706558
 20
8.164005168780701
 30
0.0
 10
9.02196195071627
 20
8.163906938216154
 30
0.0
  0
SPLINE
  5
2A0
330
1F
100
AcDbEntity
  8
0
  6
Continuous
 62
     7
370
     0
100
AcDbSpline
210
0.0
220
0.0
230
1.0
 70
     8
 71
     3
 72
    13
 73
     9
 74
     0
 42
0.000000001
 43
0.00000001
 40
0.0
 40
0.0
 40
0.0
 40
0.0
 40
0.1254299417467354
 40
0.2506842283024131
 40
0.4996143292728804
 40
0.7490348254189936
 40
0.874460711237926
 40
1.0
 40
1.0
 40
1.0
 40
1.0
 10
9.02196195071627
 20
8.163906938216154
 30
0.0
 10
9.021588450102328
 20
8.163742297617272
 30
0.0
 10
9.020841971933942
 20
8.163413246986273
 30
0.0
 10
9.018897805384341
 20
8.162477284218859
 30
0.0
 10
9.016016598368722
 20
8.161002812955914
 30
0.0
 10
9.013126752818318
 20
8.159433221326141
 30
0.0
 10
9.011077470280842
 20
8.158280326354507
 30
0.0
 10
9.010131453306123
 20
8.157737198627363
 30
0.0
 10
9.00965823108172
 20
8.157465512052974
 30
0.0
  0
SPLINE
  5
2A1
330
1F
100
AcDbEntity
  8
0
  6
Continuous
 62
     7
370
     0
100
AcDbSpline
210
0.0
220
0.0
230
1.0
 70
     8
 71
     3
 72
    13
 73
     9
 74
     0
 42
0.000000001
 43
0.00000001
 40
0.0
 40
0.0
 40
0.0
 40
0.0
 40
0.1435207777286559
 40
0.2868797370952166
 40
0.5709063242996714
 40
0.7849096377849261
 40
0.8923723273036865
 40
1.0
 40
1.0
 40
1.0
 40
1.0
 10
9.00965823108172
 20
8.157465512052974
 30
0.0
 10
9.009130724165349
 20
8.157159362131093
 30
0.0
 10
9.008076305091818
 20
8.156547407468565
 30
0.0
 10
9.006285293878536
 20
8.15547132409015
 30
0.0
 10
9.005053849719776
 20
8.154635627741872
 30
0.0
 10
9.005232986006389
 20
8.154536014333496
 30
0.0
 10
9.005990958303675
 20
8.154804969245413
 30
0.0
 10
9.00655883055467
 20
8.155043304908007
 30
0.0
 10
9.006842984470884
 20
8.155162564145945
 30
0.0
  0
SPLINE
  5
2A2
330
1F
100
AcDbEntity
  8
0
  6
Continuous
 62
     7
370
     0
100
AcDbSpline
210
0.0
220
0.0
230
1.0
 70
     8
 71
     3
 72
    11
 73
     7
 74
     0
 42
0.000000001
 43
0.00000001
 40
0.0
 40
0.0
 40
0.0
 40
0.0
 40
0.2500487591314696
 40
0.4999858921708157
 40
0.7499263637971805
 40
1.0
 40
1.0
 40
1.0
 40
1.0
 10
9.006842984470884
 20
8.155162564145945
 30
0.0
 10
9.00706920927165
 20
8.155260904687433
 30
0.0
 10
9.007521557882514
 20
8.15545754186949
 30
0.0
 10
9.008371650191487
 20
8.15585244069189
 30
0.0
 10
9.009283255562833
 20
8.156284532755148
 30
0.0
 10
9.009958332988328
 20
8.156616623962465
 30
0.0
 10
9.010295961594938
 20
8.15678271378766
 30
0.0
  0
SPLINE
  5
2A3
330
1F
100
AcDbEntity
  8
0
  6
Continuous
 62
     7
370
     0
100
AcDbSpline
210
0.0
220
0.0
230
1.0
 70
     8
 71
     3
 72
    11
 73
     7
 74
     0
 42
0.000000001
 43
0.00000001
 40
0.0
 40
0.0
 40
0.0
 40
0.0
 40
0.1427889218553726
 40
0.2856613563781418
 40
0.4999550547499507
 40
0.9999999999999999
 40
0.9999999999999999
 40
0.9999999999999999
 40
0.9999999999999999
 10
9.010295961594938
 20
8.15678271378766
 30
0.0
 10
9.010809306740217
 20
8.15703881828131
 30
0.0
 10
9.011836297269914
 20
8.15755117705592
 30
0.0
 10
9.013694578604666
 20
8.158499634920432
 30
0.0
 10
9.01688248186907
 20
8.160131015848613
 30
0.0
 10
9.01955310380199
 20
8.161509722559401
 30
0.0
 10
9.021422568670163
 20
8.16247483249412
 30
0.0
  0
SPLINE
  5
2A4
330
1F
100
AcDbEntity
  8
0
  6
Continuous
 62
     7
370
     0
100
AcDbSpline
210
0.0
220
0.0
230
1.0
 70
     8
 71
     3
 72
    13
 73
     9
 74
     0
 42
0.000000001
 43
0.00000001
 40
0.0
 40
0.0
 40
0.0
 40
0.0
 40
0.2001718321700965
 40
0.5002900930362588
 40
0.6253436745187549
 40
0.7503297953506132
 40
0.8752622292163689
 40
1.0
 40
1.0
 40
1.0
 40
1.0
 10
9.026105195165604
 20
8.164345371346826
 30
0.0
 10
9.025853900969254
 20
8.164142983893258
 30
0.0
 10
9.02522584058979
 20
8.163637156290658
 30
0.0
 10
9.024602542485084
 20
8.163077609710797
 30
0.0
 10
9.024357072104646
 20
8.162729345537622
 30
0.0
 10
9.024506202393237
 20
8.162649277461886
 30
0.0
 10
9.024890927554493
 20
8.162687589452855
 30
0.0
 10
9.025474098314456
 20
8.162888665104
 30
0.0
 10
9.025765456350896
 20
8.162989124542152
 30
0.0
  0
SPLINE
  5
2A5
330
1F
100
AcDbEntity
  8
0
  6
Continuous
 62
     7
370
     0
100
AcDbSpline
210
0.0
220
0.0
230
1.0
 70
     8
 71
     3
 72
    12
 73
     8
 74
     0
 42
0.000000001
 43
0.00000001
 40
0.0
 40
0.0
 40
0.0
 40
0.0
 40
0.1254098869538509
 40
0.2505747542013541
 40
0.4996165625312038
 40
0.7494318480724954
 40
1.0
 40
1.0
 40
1.0
 40
1.0
 10
9.025765456350896
 20
8.162989124542152
 30
0.0
 10
9.026066559409275
 20
8.163105124672141
 30
0.0
 10
9.026668177245597
 20
8.163336898296732
 30
0.0
 10
9.02826864529764
 20
8.164041149683577
 30
0.0
 10
9.030594706909845
 20
8.165163650869387
 30
0.0
 10
9.033290718899531
 20
8.166577063287582
 30
0.0
 10
9.034787114007896
 20
8.16742920893748
 30
0.0
 10
9.035536437284367
 20
8.167855922822632
 30
0.0
  0
SPLINE
  5
2A6
330
1F
100
AcDbEntity
  8
0
  6
Continuous
 62
     7
370
     0
100
AcDbSpline
210
0.0
220
0.0
230
1.0
 70
     8
 71
     3
 72
    12
 73
     8
 74
     0
 42
0.000000001
 43
0.00000001
 40
0.0
 40
0.0
 40
0.0
 40
0.0
 40
0.2505615752638339
 40
0.5002616093773058
 40
0.7495438170942677
 40
0.8746545161303112
 40
1.0
 40
1.0
 40
1.0
 40
1.0
 10
9.035536437284367
 20
8.167855922822632
 30
0.0
 10
9.036236598183626
 20
8.168266718944283
 30
0.0
 10
9.037634512520317
 20
8.16908689868943
 30
0.0
 10
9.038999417903192
 20
8.17002362469475
 30
0.0
 10
9.039270797383272
 20
8.170401453320178
 30
0.0
 10
9.038824308356014
 20
8.170363381527519
 30
0.0
 10
9.038302905703018
 20
8.17017919886831
 30
0.0
 10
9.038041959987593
 20
8.17008702120964
 30
0.0
  0
SPLINE
  5
2A7
330
1F
100
AcDbEntity
  8
0
  6
Continuous
 62
     7
370
     0
100
AcDbSpline
210
0.0
220
0.0
230
1.0
 70
     8
 71
     3
 72
    12
 73
     8
 74
     0
 42
0.000000001
 43
0.00000001
 40
0.0
 40
0.0
 40
0.0
 40
0.0
 40
0.1248393077246703
 40
0.2498284197822989
 40
0.4994890782924041
 40
0.7496925475890657
 40
0.9999999999999999
 40
0.9999999999999999
 40
0.9999999999999999
 40
0.9999999999999999
 10
9.038041959987593
 20
8.17008702120964
 30
0.0
 10
9.037681645049842
 20
8.169945712583885
 30
0.0
 10
9.036960582804598
 20
8.169662925765232
 30
0.0
 10
9.035043458744214
 20
8.168794642682196
 30
0.0
 10
9.0324651730225
 20
8.16755968001954
 30
0.0
 10
9.029281777280959
 20
8.165971303250133
 30
0.0
 10
9.027164202515554
 20
8.16488742370801
 30
0.0
 10
9.026105195165604
 20
8.164345371346826
 30
0.0
  0
LINE
  5
2A8
330
1F
100
AcDbEntity
  8
0
  6
Continuous
 62
     7
370
     0
100
AcDbLine
 10
6.8407228604
 20
3.2209328358
 30
0.0
 11
6.8234023523
 21
3.2109328358
 31
0.0
  0
LINE
  5
2A9
330
1F
100
AcDbEntity
  8
0
  6
Continuous
 62
     7
370
     0
100
AcDbLine
 10
6.8234023523
 20
5.2459328358
 30
0.0
 11
6.8407228604
 21
5.2359328358
 31
0.0
  0
LINE
  5
2AA
330
1F
100
AcDbEntity
  8
0
  6
Continuous
 62
     7
370
     0
100
AcDbLine
 10
6.7507228604
 20
3.2109328358
 30
0.0
 11
6.8234023523
 21
3.2109328358
 31
0.0
  0
LINE
  5
2AB
330
1F
100
AcDbEntity
  8
0
  6
Continuous
 62
     7
370
     0
100
AcDbLine
 10
6.8234023523
 20
5.2459328358
 30
0.0
 11
6.7507228604
 21
5.2459328358
 31
0.0
  0
LINE
  5
2AC
330
1F
100
AcDbEntity
  8
0
  6
Continuous
 62
     7
370
     0
100
AcDbLine
 10
6.8407228604
 20
5.1957533439
 30
0.0
 11
6.8307228604
 21
5.1784328358
 31
0.0
  0
LINE
  5
2AD
330
1F
100
AcDbEntity
  8
0
  6
Continuous
 62
     7
370
     0
100
AcDbLine
 10
6.8307228604
 20
3.2784328358
 30
0.0
 11
6.8407228604
 21
3.2611123277
 31
0.0
  0
LINE
  5
2AE
330
1F
100
AcDbEntity
  8
0
  6
Continuous
 62
     7
370
     0
100
AcDbLine
 10
6.8307228604
 20
3.2784328358
 30
0.0
 11
6.8307228604
 21
5.1784328358
 31
0.0
  0
LINE
  5
2AF
330
1F
100
AcDbEntity
  8
0
  6
Continuous
 62
     7
370
     0
100
AcDbLine
 10
6.8407228604
 20
5.1957533439
 30
0.0
 11
6.8407228604
 21
3.2611123277
 31
0.0
  0
LINE
  5
2B0
330
1F
100
AcDbEntity
  8
0
  6
Continuous
 62
     7
370
     0
100
AcDbLine
 10
6.8307228604
 20
3.2784328358
 30
0.0
 11
6.7580433685
 21
3.2784328358
 31
0.0
  0
LINE
  5
2B1
330
1F
100
AcDbEntity
  8
0
  6
Continuous
 62
     7
370
     0
100
AcDbLine
 10
6.7580433685
 20
4.2134328358
 30
0.0
 11
6.7580433685
 21
3.2784328358
 31
0.0
  0
LINE
  5
2B2
330
1F
100
AcDbEntity
  8
0
  6
Continuous
 62
     7
370
     0
100
AcDbLine
 10
6.7657228604
 20
4.2134328358
 30
0.0
 11
6.7580433685
 21
4.2134328358
 31
0.0
  0
LINE
  5
2B3
330
1F
100
AcDbEntity
  8
0
  6
Continuous
 62
     7
370
     0
100
AcDbLine
 10
6.7657228604
 20
4.2134328358
 30
0.0
 11
6.7657228604
 21
4.2434328358
 31
0.0
  0
LINE
  5
2B4
330
1F
100
AcDbEntity
  8
0
  6
Continuous
 62
     7
370
     0
100
AcDbLine
 10
6.7580433685
 20
4.2434328358
 30
0.0
 11
6.7657228604
 21
4.2434328358
 31
0.0
  0
LINE
  5
2B5
330
1F
100
AcDbEntity
  8
0
  6
Continuous
 62
     7
370
     0
100
AcDbLine
 10
6.7580433685
 20
5.1784328358
 30
0.0
 11
6.7580433685
 21
4.2434328358
 31
0.0
  0
LINE
  5
2B6
330
1F
100
AcDbEntity
  8
0
  6
Continuous
 62
     7
370
     0
100
AcDbLine
 10
6.7580433685
 20
5.1784328358
 30
0.0
 11
6.8307228604
 21
5.1784328358
 31
0.0
  0
LINE
  5
2B7
330
1F
100
AcDbEntity
  8
0
  6
Continuous
 62
     7
370
     0
100
AcDbLine
 10
6.7407228604
 20
5.2286123277
 30
0.0
 11
6.7507228604
 21
5.2459328358
 31
0.0
  0
LINE
  5
2B8
330
1F
100
AcDbEntity
  8
0
  6
Continuous
 62
     7
370
     0
100
AcDbLine
 10
6.7580433685
 20
4.2434328358
 30
0.0
 11
6.7407228604
 21
4.2434328358
 31
0.0
  0
LINE
  5
2B9
330
1F
100
AcDbEntity
  8
0
  6
Continuous
 62
     7
370
     0
100
AcDbLine
 10
6.7580433685
 20
5.1784328358
 30
0.0
 11
6.7407228604
 21
5.1884328358
 31
0.0
  0
LINE
  5
2BA
330
1F
100
AcDbEntity
  8
0
  6
Continuous
 62
     7
370
     0
100
AcDbLine
 10
6.7407228604
 20
4.2434328358
 30
0.0
 11
6.7407228604
 21
5.1884328358
 31
0.0
  0
LINE
  5
2BB
330
1F
100
AcDbEntity
  8
0
  6
Continuous
 62
     7
370
     0
100
AcDbLine
 10
6.7507228604
 20
3.2109328358
 30
0.0
 11
6.7407228604
 21
3.2282533439
 31
0.0
  0
LINE
  5
2BC
330
1F
100
AcDbEntity
  8
0
  6
Continuous
 62
     7
370
     0
100
AcDbLine
 10
6.7407228604
 20
3.2684328358
 30
0.0
 11
6.7407228604
 21
3.2282533439
 31
0.0
  0
LINE
  5
2BD
330
1F
100
AcDbEntity
  8
0
  6
Continuous
 62
     7
370
     0
100
AcDbLine
 10
6.7407228604
 20
3.2684328358
 30
0.0
 11
6.7580433685
 21
3.2784328358
 31
0.0
  0
LINE
  5
2BE
330
1F
100
AcDbEntity
  8
0
  6
Continuous
 62
     7
370
     0
100
AcDbLine
 10
6.8407228604
 20
3.2209328358
 30
0.0
 11
6.8407228604
 21
3.2611123277
 31
0.0
  0
LINE
  5
2BF
330
1F
100
AcDbEntity
  8
0
  6
Continuous
 62
     7
370
     0
100
AcDbLine
 10
6.7407228604
 20
5.2286123277
 30
0.0
 11
6.7407228604
 21
5.1884328358
 31
0.0
  0
LINE
  5
2C0
330
1F
100
AcDbEntity
  8
0
  6
Continuous
 62
     7
370
     0
100
AcDbLine
 10
6.8407228604
 20
5.1957533439
 30
0.0
 11
6.8407228604
 21
5.2359328358
 31
0.0
  0
LINE
  5
2C1
330
1F
100
AcDbEntity
  8
0
  6
Continuous
 62
     7
370
     0
100
AcDbLine
 10
6.7407228604
 20
4.2134328358
 30
0.0
 11
6.7580433685
 21
4.2134328358
 31
0.0
  0
LINE
  5
2C2
330
1F
100
AcDbEntity
  8
0
  6
Continuous
 62
     7
370
     0
100
AcDbLine
 10
6.7407228604
 20
3.2684328358
 30
0.0
 11
6.7407228604
 21
4.2134328358
 31
0.0
  0
LINE
  5
2C3
330
1F
100
AcDbEntity
  8
0
  6
Continuous
 62
     7
370
     0
100
AcDbLine
 10
6.8407228604
 20
3.2284328358
 30
0.0
 11
7.3540235805
 21
3.2284328358
 31
0.0
  0
LINE
  5
2C4
330
1F
100
AcDbEntity
  8
0
  6
Continuous
 62
     7
370
     0
100
AcDbLine
 10
7.3540235805
 20
5.2284328358
 30
0.0
 11
6.8407228604
 21
5.2284328358
 31
0.0
  0
ARC
  5
2C5
330
1F
100
AcDbEntity
  8
0
  6
Continuous
 62
     7
370
     0
100
AcDbCircle
 10
5.6969369663
 20
4.2284328358
 30
0.0
 40
1.519291338582678
100
AcDbArc
 50
318.8371391088
 51
41.1628608912
  0
LINE
  5
2C6
330
1F
100
AcDbEntity
  8
0
  6
Continuous
 62
     7
370
     0
100
AcDbLine
 10
7.3540235805
 20
3.2284328358
 30
0.0
 11
7.3540235805
 21
5.2284328358
 31
0.0
  0
LINE
  5
2C7
330
1F
100
AcDbEntity
  8
0
  6
Continuous
 62
     7
370
     0
100
AcDbLine
 10
6.9602257277
 20
3.1284328358
 30
0.0
 11
6.6140235805
 21
3.1284328358
 31
0.0
  0
LINE
  5
2C8
330
1F
100
AcDbEntity
  8
0
  6
Continuous
 62
     7
370
     0
100
AcDbLine
 10
7.3740235805
 20
3.1284328358
 30
0.0
 11
7.0340235805
 21
3.1284328358
 31
0.0
  0
LINE
  5
2C9
330
1F
100
AcDbEntity
  8
0
  6
Continuous
 62
     7
370
     0
100
AcDbLine
 10
7.008911807
 20
5.3284328358
 30
0.0
 11
7.3740235805
 21
5.3284328358
 31
0.0
  0
LINE
  5
2CA
330
1F
100
AcDbEntity
  8
0
  6
Continuous
 62
     7
370
     0
100
AcDbLine
 10
6.9270882945
 20
5.3284328358
 30
0.0
 11
7.0040235805
 21
5.3284328358
 31
0.0
  0
LINE
  5
2CB
330
1F
100
AcDbEntity
  8
0
  6
Continuous
 62
     7
370
     0
100
AcDbLine
 10
6.6140235805
 20
5.3284328358
 30
0.0
 11
6.9164190052
 21
5.3284328358
 31
0.0
  0
LINE
  5
2CC
330
1F
100
AcDbEntity
  8
0
  6
Continuous
 62
     7
370
     0
100
AcDbLine
 10
7.3840235805
 20
3.1384328358
 30
0.0
 11
7.3740235805
 21
3.1284328358
 31
0.0
  0
LINE
  5
2CD
330
1F
100
AcDbEntity
  8
0
  6
Continuous
 62
     7
370
     0
100
AcDbLine
 10
7.3740235805
 20
5.3284328358
 30
0.0
 11
7.3840235805
 21
5.3184328358
 31
0.0
  0
LINE
  5
2CE
330
1F
100
AcDbEntity
  8
0
  6
Continuous
 62
     7
370
     0
100
AcDbLine
 10
7.5040235805
 20
3.2209328358
 30
0.0
 11
7.4867030724
 21
3.2109328358
 31
0.0
  0
LINE
  5
2CF
330
1F
100
AcDbEntity
  8
0
  6
Continuous
 62
     7
370
     0
100
AcDbLine
 10
7.4867030724
 20
5.2459328358
 30
0.0
 11
7.5040235805
 21
5.2359328358
 31
0.0
  0
LINE
  5
2D0
330
1F
100
AcDbEntity
  8
0
  6
Continuous
 62
     7
370
     0
100
AcDbLine
 10
7.4867030724
 20
3.2109328358
 30
0.0
 11
7.4140235805
 21
3.2109328358
 31
0.0
  0
LINE
  5
2D1
330
1F
100
AcDbEntity
  8
0
  6
Continuous
 62
     7
370
     0
100
AcDbLine
 10
7.4140235805
 20
5.2459328358
 30
0.0
 11
7.4867030724
 21
5.2459328358
 31
0.0
  0
LINE
  5
2D2
330
1F
100
AcDbEntity
  8
0
  6
Continuous
 62
     7
370
     0
100
AcDbLine
 10
7.3240235805
 20
3.1909328358
 30
0.0
 11
7.3540235805
 21
3.1909328358
 31
0.0
  0
LINE
  5
2D3
330
1F
100
AcDbEntity
  8
0
  6
Continuous
 62
     7
370
     0
100
AcDbLine
 10
7.3540235805
 20
5.2659328358
 30
0.0
 11
7.3240235805
 21
5.2659328358
 31
0.0
  0
LINE
  5
2D4
330
1F
100
AcDbEntity
  8
0
  6
Continuous
 62
     7
370
     0
100
AcDbLine
 10
7.4140235805
 20
3.2289328358
 30
0.0
 11
7.3840235805
 21
3.2289328358
 31
0.0
  0
LINE
  5
2D5
330
1F
100
AcDbEntity
  8
0
  6
Continuous
 62
     7
370
     0
100
AcDbLine
 10
7.3840235805
 20
5.2279328358
 30
0.0
 11
7.4140235805
 21
5.2279328358
 31
0.0
  0
LINE
  5
2D6
330
1F
100
AcDbEntity
  8
0
  6
Continuous
 62
     7
370
     0
100
AcDbLine
 10
6.6213440886
 20
3.2109328358
 30
0.0
 11
7.3240235805
 21
3.2109328358
 31
0.0
  0
LINE
  5
2D7
330
1F
100
AcDbEntity
  8
0
  6
Continuous
 62
     7
370
     0
100
AcDbLine
 10
6.6213440886
 20
5.2459328358
 30
0.0
 11
6.6213440886
 21
3.2109328358
 31
0.0
  0
LINE
  5
2D8
330
1F
100
AcDbEntity
  8
0
  6
Continuous
 62
     7
370
     0
100
AcDbLine
 10
7.3240235805
 20
5.2459328358
 30
0.0
 11
6.6213440886
 21
5.2459328358
 31
0.0
  0
LINE
  5
2D9
330
1F
100
AcDbEntity
  8
0
  6
Continuous
 62
     7
370
     0
100
AcDbLine
 10
7.3240235805
 20
5.2459328358
 30
0.0
 11
7.3240235805
 21
5.2284328358
 31
0.0
  0
LINE
  5
2DA
330
1F
100
AcDbEntity
  8
0
  6
Continuous
 62
     7
370
     0
100
AcDbLine
 10
7.3240235805
 20
3.2284328358
 30
0.0
 11
7.3240235805
 21
3.2109328358
 31
0.0
  0
LINE
  5
2DB
330
1F
100
AcDbEntity
  8
0
  6
Continuous
 62
     7
370
     0
100
AcDbLine
 10
7.5040235805
 20
5.1884328358
 30
0.0
 11
7.4940235805
 21
5.1784328358
 31
0.0
  0
LINE
  5
2DC
330
1F
100
AcDbEntity
  8
0
  6
Continuous
 62
     7
370
     0
100
AcDbLine
 10
7.4940235805
 20
3.2784328358
 30
0.0
 11
7.5040235805
 21
3.2684328358
 31
0.0
  0
LINE
  5
2DD
330
1F
100
AcDbEntity
  8
0
  6
Continuous
 62
     7
370
     0
100
AcDbLine
 10
7.4940235805
 20
3.2784328358
 30
0.0
 11
7.4940235805
 21
5.1784328358
 31
0.0
  0
LINE
  5
2DE
330
1F
100
AcDbEntity
  8
0
  6
Continuous
 62
     7
370
     0
100
AcDbLine
 10
7.5040235805
 20
5.1884328358
 30
0.0
 11
7.5040235805
 21
3.2684328358
 31
0.0
  0
LINE
  5
2DF
330
1F
100
AcDbEntity
  8
0
  6
Continuous
 62
     7
370
     0
100
AcDbLine
 10
7.3540235805
 20
3.2784328358
 30
0.0
 11
7.4940235805
 21
3.2784328358
 31
0.0
  0
LINE
  5
2E0
330
1F
100
AcDbEntity
  8
0
  6
Continuous
 62
     7
370
     0
100
AcDbLine
 10
7.4940235805
 20
5.1784328358
 30
0.0
 11
7.3540235805
 21
5.1784328358
 31
0.0
  0
LINE
  5
2E1
330
1F
100
AcDbEntity
  8
0
  6
Continuous
 62
     7
370
     0
100
AcDbLine
 10
6.6040235805
 20
5.3184328358
 30
0.0
 11
6.6140235805
 21
5.3284328358
 31
0.0
  0
LINE
  5
2E2
330
1F
100
AcDbEntity
  8
0
  6
Continuous
 62
     7
370
     0
100
AcDbLine
 10
6.6140235805
 20
3.1284328358
 30
0.0
 11
6.6040235805
 21
3.1384328358
 31
0.0
  0
LINE
  5
2E3
330
1F
100
AcDbEntity
  8
0
  6
Continuous
 62
     7
370
     0
100
AcDbLine
 10
6.6040235805
 20
3.2009328358
 30
0.0
 11
6.6213440886
 21
3.2109328358
 31
0.0
  0
LINE
  5
2E4
330
1F
100
AcDbEntity
  8
0
  6
Continuous
 62
     7
370
     0
100
AcDbLine
 10
6.6213440886
 20
5.2459328358
 30
0.0
 11
6.6040235805
 21
5.2559328358
 31
0.0
  0
LINE
  5
2E5
330
1F
100
AcDbEntity
  8
0
  6
Continuous
 62
     7
370
     0
100
AcDbLine
 10
6.6040235805
 20
3.2009328358
 30
0.0
 11
6.6040235805
 21
5.2559328358
 31
0.0
  0
LINE
  5
2E6
330
1F
100
AcDbEntity
  8
0
  6
Continuous
 62
     7
370
     0
100
AcDbLine
 10
6.9164190052
 20
5.3284328358
 30
0.0
 11
6.9270882945
 21
5.3284328358
 31
0.0
  0
LINE
  5
2E7
330
1F
100
AcDbEntity
  8
0
  6
Continuous
 62
     7
370
     0
100
AcDbLine
 10
7.0040235805
 20
5.3284328358
 30
0.0
 11
7.008911807
 21
5.3284328358
 31
0.0
  0
LINE
  5
2E8
330
1F
100
AcDbEntity
  8
0
  6
Continuous
 62
     7
370
     0
100
AcDbLine
 10
6.6040235805
 20
5.2559328358
 30
0.0
 11
6.6040235805
 21
5.3184328358
 31
0.0
  0
LINE
  5
2E9
330
1F
100
AcDbEntity
  8
0
  6
Continuous
 62
     7
370
     0
100
AcDbLine
 10
7.3240235805
 20
5.2659328358
 30
0.0
 11
7.3240235805
 21
5.2459328358
 31
0.0
  0
LINE
  5
2EA
330
1F
100
AcDbEntity
  8
0
  6
Continuous
 62
     7
370
     0
100
AcDbLine
 10
7.4140235805
 20
5.2279328358
 30
0.0
 11
7.4140235805
 21
5.2459328358
 31
0.0
  0
LINE
  5
2EB
330
1F
100
AcDbEntity
  8
0
  6
Continuous
 62
     7
370
     0
100
AcDbLine
 10
7.3540235805
 20
5.1784328358
 30
0.0
 11
7.3540235805
 21
5.2659328358
 31
0.0
  0
LINE
  5
2EC
330
1F
100
AcDbEntity
  8
0
  6
Continuous
 62
     7
370
     0
100
AcDbLine
 10
7.5040235805
 20
5.2359328358
 30
0.0
 11
7.5040235805
 21
5.1884328358
 31
0.0
  0
LINE
  5
2ED
330
1F
100
AcDbEntity
  8
0
  6
Continuous
 62
     7
370
     0
100
AcDbLine
 10
7.3840235805
 20
5.3184328358
 30
0.0
 11
7.3840235805
 21
5.2279328358
 31
0.0
  0
LINE
  5
2EE
330
1F
100
AcDbEntity
  8
0
  6
Continuous
 62
     7
370
     0
100
AcDbLine
 10
7.0340235805
 20
3.1284328358
 30
0.0
 11
7.0135041462
 21
3.1284328358
 31
0.0
  0
LINE
  5
2EF
330
1F
100
AcDbEntity
  8
0
  6
Continuous
 62
     7
370
     0
100
AcDbLine
 10
7.0135041462
 20
3.1284328358
 30
0.0
 11
6.9902374598
 21
3.1284328358
 31
0.0
  0
LINE
  5
2F0
330
1F
100
AcDbEntity
  8
0
  6
Continuous
 62
     7
370
     0
100
AcDbLine
 10
6.9902374598
 20
3.1284328358
 30
0.0
 11
6.9602257277
 21
3.1284328358
 31
0.0
  0
LINE
  5
2F1
330
1F
100
AcDbEntity
  8
0
  6
Continuous
 62
     7
370
     0
100
AcDbLine
 10
6.6040235805
 20
3.1384328358
 30
0.0
 11
6.6040235805
 21
3.2009328358
 31
0.0
  0
LINE
  5
2F2
330
1F
100
AcDbEntity
  8
0
  6
Continuous
 62
     7
370
     0
100
AcDbLine
 10
7.3240235805
 20
3.2109328358
 30
0.0
 11
7.3240235805
 21
3.1909328358
 31
0.0
  0
LINE
  5
2F3
330
1F
100
AcDbEntity
  8
0
  6
Continuous
 62
     7
370
     0
100
AcDbLine
 10
7.4140235805
 20
3.2109328358
 30
0.0
 11
7.4140235805
 21
3.2289328358
 31
0.0
  0
LINE
  5
2F4
330
1F
100
AcDbEntity
  8
0
  6
Continuous
 62
     7
370
     0
100
AcDbLine
 10
7.3540235805
 20
3.1909328358
 30
0.0
 11
7.3540235805
 21
3.2784328358
 31
0.0
  0
LINE
  5
2F5
330
1F
100
AcDbEntity
  8
0
  6
Continuous
 62
     7
370
     0
100
AcDbLine
 10
7.5040235805
 20
3.2684328358
 30
0.0
 11
7.5040235805
 21
3.2209328358
 31
0.0
  0
LINE
  5
2F6
330
1F
100
AcDbEntity
  8
0
  6
Continuous
 62
     7
370
     0
100
AcDbLine
 10
7.3840235805
 20
3.2289328358
 30
0.0
 11
7.3840235805
 21
3.1384328358
 31
0.0
  0
HATCH
  5
2F7
330
1F
100
AcDbEntity
  8
0
  6
Continuous
 62
     7
370
     0
100
AcDbHatch
 10
0.0
 20
0.0
 30
0.0
210
0.0
220
0.0
230
1.0
  2
ANSI31
 70
     0
 71
     0
 91
        1
 92
        0
 93
       21
 72
     1
 10
7.374023580517483
 20
5.3284328358209
 11
7.008911807044999
 21
5.3284328358209
 72
     1
 10
7.008911807044999
 20
5.3284328358209
 11
7.004023580517484
 21
5.3284328358209
 72
     1
 10
7.004023580517484
 20
5.3284328358209
 11
6.927088294511688
 21
5.3284328358209
 72
     1
 10
6.927088294511688
 20
5.3284328358209
 11
6.916419005208222
 21
5.3284328358209
 72
     1
 10
6.916419005208222
 20
5.3284328358209
 11
6.614023580517483
 21
5.3284328358209
 72
     1
 10
6.614023580517483
 20
5.3284328358209
 11
6.604023580517484
 21
5.318432835820899
 72
     1
 10
6.604023580517484
 20
5.318432835820899
 11
6.604023580517484
 21
5.255932835820901
 72
     1
 10
6.604023580517484
 20
5.255932835820901
 11
6.621344088593173
 21
5.245932835820899
 72
     1
 10
6.621344088593173
 20
5.245932835820899
 11
7.324023580517483
 21
5.245932835820899
 72
     1
 10
7.324023580517483
 20
5.245932835820899
 11
7.324023580517483
 21
5.2659328358209
 72
     1
 10
7.324023580517483
 20
5.2659328358209
 11
7.354023580517483
 21
5.2659328358209
 72
     1
 10
7.354023580517483
 20
5.2659328358209
 11
7.354023580517483
 21
5.1784328358209
 72
     1
 10
7.354023580517483
 20
5.1784328358209
 11
7.494023580517483
 21
5.1784328358209
 72
     1
 10
7.494023580517483
 20
5.1784328358209
 11
7.504023580517483
 21
5.188432835820899
 72
     1
 10
7.504023580517483
 20
5.188432835820899
 11
7.504023580517483
 21
5.235932835820901
 72
     1
 10
7.504023580517483
 20
5.235932835820901
 11
7.486703072441795
 21
5.245932835820899
 72
     1
 10
7.486703072441795
 20
5.245932835820899
 11
7.414023580517484
 21
5.245932835820899
 72
     1
 10
7.414023580517484
 20
5.245932835820899
 11
7.414023580517484
 21
5.2279328358209
 72
     1
 10
7.414023580517484
 20
5.2279328358209
 11
7.384023580517484
 21
5.2279328358209
 72
     1
 10
7.384023580517484
 20
5.2279328358209
 11
7.384023580517484
 21
5.318432835820899
 72
     1
 10
7.384023580517484
 20
5.318432835820899
 11
7.374023580517483
 21
5.3284328358209
 97
        0
 75
     0
 76
     1
 52
0.0
 41
1.0
 77
     0
 78
     1
 53
45.0
 43
0.0
 44
0.0
 45
-0.0883883476483184
 46
0.0883883476483184
 79
     0
 98
        1
 10
0.0
 20
0.0
  0
HATCH
  5
2F8
330
1F
100
AcDbEntity
  8
0
  6
Continuous
 62
     7
370
     0
100
AcDbHatch
 10
0.0
 20
0.0
 30
0.0
210
0.0
220
0.0
230
1.0
  2
ANSI31
 70
     0
 71
     0
 91
        1
 92
        0
 93
       21
 72
     1
 10
7.034023580517483
 20
3.128432835820899
 11
7.374023580517483
 21
3.128432835820899
 72
     1
 10
7.374023580517483
 20
3.128432835820899
 11
7.384023580517484
 21
3.138432835820899
 72
     1
 10
7.384023580517484
 20
3.138432835820899
 11
7.384023580517485
 21
3.2289328358209
 72
     1
 10
7.384023580517485
 20
3.2289328358209
 11
7.414023580517484
 21
3.2289328358209
 72
     1
 10
7.414023580517484
 20
3.2289328358209
 11
7.414023580517484
 21
3.210932835820899
 72
     1
 10
7.414023580517484
 20
3.210932835820899
 11
7.486703072441795
 21
3.210932835820899
 72
     1
 10
7.486703072441795
 20
3.210932835820899
 11
7.504023580517485
 21
3.220932835820899
 72
     1
 10
7.504023580517485
 20
3.220932835820899
 11
7.504023580517485
 21
3.268432835820899
 72
     1
 10
7.504023580517485
 20
3.268432835820899
 11
7.494023580517484
 21
3.278432835820899
 72
     1
 10
7.494023580517484
 20
3.278432835820899
 11
7.354023580517485
 21
3.278432835820899
 72
     1
 10
7.354023580517485
 20
3.278432835820899
 11
7.354023580517485
 21
3.190932835820898
 72
     1
 10
7.354023580517485
 20
3.190932835820898
 11
7.324023580517483
 21
3.190932835820899
 72
     1
 10
7.324023580517483
 20
3.190932835820899
 11
7.324023580517483
 21
3.210932835820899
 72
     1
 10
7.324023580517483
 20
3.210932835820899
 11
6.621344088593174
 21
3.210932835820899
 72
     1
 10
6.621344088593174
 20
3.210932835820899
 11
6.604023580517484
 21
3.200932835820898
 72
     1
 10
6.604023580517484
 20
3.200932835820898
 11
6.604023580517484
 21
3.138432835820899
 72
     1
 10
6.604023580517484
 20
3.138432835820899
 11
6.614023580517484
 21
3.128432835820899
 72
     1
 10
6.614023580517484
 20
3.128432835820899
 11
6.960225727741782
 21
3.128432835820899
 72
     1
 10
6.960225727741782
 20
3.128432835820899
 11
6.990237459809486
 21
3.128432835820899
 72
     1
 10
6.990237459809486
 20
3.128432835820899
 11
7.013504146248036
 21
3.128432835820899
 72
     1
 10
7.013504146248036
 20
3.128432835820899
 11
7.034023580517483
 21
3.128432835820899
 97
        0
 75
     0
 76
     1
 52
0.0
 41
1.0
 77
     0
 78
     1
 53
45.0
 43
0.0
 44
0.0
 45
-0.0883883476483184
 46
0.0883883476483184
 79
     0
 98
        1
 10
0.0
 20
0.0
  0
HATCH
  5
2F9
330
1F
100
AcDbEntity
  8
0
  6
Continuous
 62
     7
370
     0
100
AcDbHatch
 10
0.0
 20
0.0
 30
0.0
210
0.0
220
0.0
230
1.0
  2
ANSI31
 70
     0
 71
     0
 91
        1
 92
        0
 93
        4
 72
     1
 10
7.354023580517485
 20
3.228432835820899
 11
7.354023580517485
 21
5.228432835820899
 72
     1
 10
7.354023580517485
 20
5.228432835820899
 11
6.840722860422489
 21
5.228432835820899
 72
     2
 10
5.696936966344255
 20
4.228432835820899
 40
1.519291338582677
 50
318.8371391087937
 51
401.162860891208
 73
     0
 72
     1
 10
6.840722860422489
 20
3.228432835820899
 11
7.354023580517485
 21
3.228432835820899
 97
        0
 75
     0
 76
     1
 52
90.0
 41
1.0
 77
     0
 78
     1
 53
135.0000000000002
 43
0.0
 44
0.0
 45
-0.0883883476483181
 46
-0.0883883476483188
 79
     0
 98
        1
 10
0.0
 20
0.0
  0
HATCH
  5
2FA
330
1F
100
AcDbEntity
  8
0
  6
Continuous
 62
     7
370
     0
100
AcDbHatch
 10
0.0
 20
0.0
 30
0.0
210
0.0
220
0.0
230
1.0
  2
ANSI31
 70
     0
 71
     0
 91
        1
 92
        0
 93
        8
 72
     1
 10
6.830722860422489
 20
5.1784328358209
 11
6.840722860422489
 21
5.195753343896588
 72
     1
 10
6.840722860422489
 20
5.195753343896588
 11
6.840722860422489
 21
5.235932835820898
 72
     1
 10
6.840722860422489
 20
5.235932835820898
 11
6.823402352346799
 21
5.245932835820899
 72
     1
 10
6.823402352346799
 20
5.245932835820899
 11
6.750722860422488
 21
5.245932835820899
 72
     1
 10
6.750722860422488
 20
5.245932835820899
 11
6.740722860422488
 21
5.228612327745211
 72
     1
 10
6.740722860422488
 20
5.228612327745211
 11
6.740722860422488
 21
5.1884328358209
 72
     1
 10
6.740722860422488
 20
5.1884328358209
 11
6.758043368498178
 21
5.1784328358209
 72
     1
 10
6.758043368498178
 20
5.1784328358209
 11
6.830722860422489
 21
5.1784328358209
 97
        0
 75
     0
 76
     1
 52
0.0
 41
0.3333333333
 77
     0
 78
     1
 53
45.0
 43
0.0
 44
0.0
 45
-0.0294627825494395
 46
0.0294627825494395
 79
     0
 98
        1
 10
0.0
 20
0.0
  0
HATCH
  5
2FB
330
1F
100
AcDbEntity
  8
0
  6
Continuous
 62
     7
370
     0
100
AcDbHatch
 10
0.0
 20
0.0
 30
0.0
210
0.0
220
0.0
230
1.0
  2
ANSI31
 70
     0
 71
     0
 91
        1
 92
        0
 93
        8
 72
     1
 10
6.840722860422489
 20
3.261112327745211
 11
6.830722860422489
 21
3.278432835820899
 72
     1
 10
6.830722860422489
 20
3.278432835820899
 11
6.758043368498179
 21
3.278432835820899
 72
     1
 10
6.758043368498179
 20
3.278432835820899
 11
6.740722860422488
 21
3.268432835820898
 72
     1
 10
6.740722860422488
 20
3.268432835820898
 11
6.740722860422488
 21
3.228253343896587
 72
     1
 10
6.740722860422488
 20
3.228253343896587
 11
6.750722860422488
 21
3.210932835820899
 72
     1
 10
6.750722860422488
 20
3.210932835820899
 11
6.823402352346799
 21
3.210932835820899
 72
     1
 10
6.823402352346799
 20
3.210932835820899
 11
6.840722860422489
 21
3.2209328358209
 72
     1
 10
6.840722860422489
 20
3.2209328358209
 11
6.840722860422489
 21
3.261112327745211
 97
        0
 75
     0
 76
     1
 52
0.0
 41
0.3333333333
 77
     0
 78
     1
 53
45.0
 43
0.0
 44
0.0
 45
-0.0294627825494395
 46
0.0294627825494395
 79
     0
 98
        1
 10
0.0
 20
0.0
  0
DIMENSION
  5
2FC
330
1F
100
AcDbEntity
  8
0
  6
Continuous
 62
     7
370
     0
100
AcDbDimension
  2
_D_1
 10
6.6040235805
 20
6.1945745681
 30
0.0
 11
7.0540235805
 21
6.1945745681
 31
0.0
 70
   160
  1
<>
 71
     2
 42
-1.0
  3
SLDDIMSTYLE1
100
AcDbAlignedDimension
 13
7.5040235805
 23
5.2359328358
 33
0.0
 14
6.6040235805
 24
5.3184328358
 34
0.0
100
AcDbRotatedDimension
  0
DIMENSION
  5
311
330
1F
100
AcDbEntity
  8
0
  6
Continuous
 62
     7
370
     0
100
AcDbDimension
  2
_D_2
 10
7.5040235805
 20
5.7221336232
 30
0.0
 11
8.0472334433
 21
5.7221336232
 31
0.0
 70
   160
  1
<>
 71
     2
 42
-1.0
  3
SLDDIMSTYLE2
100
AcDbAlignedDimension
 13
7.3840235805
 23
5.3184328358
 33
0.0
 14
7.5040235805
 24
5.2359328358
 34
0.0
100
AcDbRotatedDimension
  0
DIMENSION
  5
326
330
1F
100
AcDbEntity
  8
0
  6
Continuous
 62
     7
370
     0
100
AcDbDimension
  2
_D_3
 10
8.6808162902
 20
3.2784328358
 30
0.0
 11
8.6808162902
 21
4.2284328358
 31
0.0
 70
   160
  1
%%c<>
 71
     2
 42
-1.0
  3
SLDDIMSTYLE3
100
AcDbAlignedDimension
 13
7.4940235805
 23
5.1784328358
 33
0.0
 14
7.4940235805
 24
3.2784328358
 34
0.0
 50
90.0
100
AcDbRotatedDimension
  0
INSERT
  5
341
102
{ACAD_REACTORS
330
343
102
}
330
1F
100
AcDbEntity
  8
0
  6
Continuous
 62
     7
370
     0
100
AcDbBlockReference
  2
SW_NOTE_5
 10
8.0644844101
 20
2.7214873445
 30
0.0
  0
LEADER
  5
343
330
1F
100
AcDbEntity
  8
0
  6
Continuous
 62
     7
370
     0
100
AcDbLeader
  3
SLDDIMSTYLE4
 73
     2
 76
     3
 10
7.4456429196
 20
3.2109328358
 30
0.0
 10
7.8144844101
 20
2.7214873445
 30
0.0
 10
8.0644844101
 20
2.7214873445
 30
0.0
340
341
  0
INSERT
  5
349
102
{ACAD_REACTORS
330
34A
102
}
330
1F
100
AcDbEntity
  8
0
  6
Continuous
 62
     7
370
     0
100
AcDbBlockReference
  2
SW_NOTE_6
 10
7.9421155979
 20
4.286091681
 30
0.0
  0
LEADER
  5
34A
330
1F
100
AcDbEntity
  8
0
  6
Continuous
 62
     7
370
     0
100
AcDbLeader
  3
SLDDIMSTYLE4
 73
     2
 76
     3
 10
7.3540235805
 20
3.996012569
 30
0.0
 10
7.6960526058
 20
4.286091681
 30
0.0
 10
7.9421155979
 20
4.286091681
 30
0.0
340
349
  0
INSERT
  5
350
102
{ACAD_REACTORS
330
351
102
}
330
1F
100
AcDbEntity
  8
0
  6
Continuous
 62
     7
370
     0
100
AcDbBlockReference
  2
SW_NOTE_7
 10
6.0784139123
 20
4.7256792399
 30
0.0
  0
LEADER
  5
351
330
1F
100
AcDbEntity
  8
0
  6
Continuous
 62
     7
370
     0
100
AcDbLeader
  3
SLDDIMSTYLE4
 73
     2
 76
     3
 10
6.7580433685
 20
5.1039136611
 30
0.0
 10
6.3244769045
 20
4.7256792399
 30
0.0
 10
6.0784139123
 20
4.7256792399
 30
0.0
340
350
  0
INSERT
  5
358
102
{ACAD_REACTORS
330
359
102
}
330
1F
100
AcDbEntity
  8
0
  6
Continuous
 62
     7
370
     0
100
AcDbBlockReference
  2
SW_NOTE_8
 10
6.0884683598
 20
3.6893511803
 30
0.0
  0
LEADER
  5
359
330
1F
100
AcDbEntity
  8
0
  6
Continuous
 62
     7
370
     0
100
AcDbLeader
  3
SLDDIMSTYLE4
 73
     2
 76
     3
 10
6.6878482104
 20
3.2109328358
 30
0.0
 10
6.3384683598
 20
3.6893511803
 30
0.0
 10
6.0884683598
 20
3.6893511803
 30
0.0
340
358
  0
INSERT
  5
35F
102
{ACAD_REACTORS
330
360
102
}
330
1F
100
AcDbEntity
  8
0
  6
Continuous
 62
     7
370
     0
100
AcDbBlockReference
  2
SW_NOTE_9
 10
6.2365111923
 20
2.7398231624
 30
0.0
  0
LEADER
  5
360
330
1F
100
AcDbEntity
  8
0
  6
Continuous
 62
     7
370
     0
100
AcDbLeader
  3
SLDDIMSTYLE4
 73
     2
 76
     3
 10
6.9902374598
 20
3.1284328358
 30
0.0
 10
6.4825741844
 20
2.7398231624
 30
0.0
 10
6.2365111923
 20
2.7398231624
 30
0.0
340
35F
  0
OLE2FRAME
  5
361
330
1F
100
AcDbEntity
  8
0
100
AcDbOle2Frame
 70
     2
  3
Paintbrush Picture
 10
9.0178120406
 20
1.3267570784
 30
0.0
 11
10.4397105087
 21
1.1242314806
 31
0.0
 71
     2
 72
     0
 73
     1
 90
     7296
310
8055C64EE7A81E092240C05F59A1653AF53F0000000000000000FD155DBC21E1
310
2440C05F59A1653AF53F0000000000000000FD155DBC21E12440A1732426DAFC
310
F13F0000000000000000C64EE7A81E092240A1732426DAFCF13F000000000000
310
00000000000001000000000100000100000001000000000001000000001C0000
310
D0CF11E0A1B11AE1000000000000000000000000000000003E000300FEFF0900
310
0600000000000000000000000100000001000000000000000010000002000000
310
01000000FEFFFFFF0000000000000000FFFFFFFFFFFFFFFFFFFFFFFFFFFFFFFF
310
FFFFFFFFFFFFFFFFFFFFFFFFFFFFFFFFFFFFFFFFFFFFFFFFFFFFFFFFFFFFFFFF
310
FFFFFFFFFFFFFFFFFFFFFFFFFFFFFFFFFFFFFFFFFFFFFFFFFFFFFFFFFFFFFFFF
310
FFFFFFFFFFFFFFFFFFFFFFFFFFFFFFFFFFFFFFFFFFFFFFFFFFFFFFFFFFFFFFFF
310
FFFFFFFFFFFFFFFFFFFFFFFFFFFFFFFFFFFFFFFFFFFFFFFFFFFFFFFFFFFFFFFF
310
FFFFFFFFFFFFFFFFFFFFFFFFFFFFFFFFFFFFFFFFFFFFFFFFFFFFFFFFFFFFFFFF
310
FFFFFFFFFFFFFFFFFFFFFFFFFFFFFFFFFFFFFFFFFFFFFFFFFFFFFFFFFFFFFFFF
310
FFFFFFFFFFFFFFFFFFFFFFFFFFFFFFFFFFFFFFFFFFFFFFFFFFFFFFFFFFFFFFFF
310
FFFFFFFFFFFFFFFFFFFFFFFFFFFFFFFFFFFFFFFFFFFFFFFFFFFFFFFFFFFFFFFF
310
FFFFFFFFFFFFFFFFFFFFFFFFFFFFFFFFFFFFFFFFFFFFFFFFFFFFFFFFFFFFFFFF
310
FFFFFFFFFFFFFFFFFFFFFFFFFFFFFFFFFFFFFFFFFFFFFFFFFFFFFFFFFFFFFFFF
310
FFFFFFFFFFFFFFFFFFFFFFFFFFFFFFFFFFFFFFFFFFFFFFFFFFFFFFFFFFFFFFFF
310
FFFFFFFFFFFFFFFFFFFFFFFFFFFFFFFFFFFFFFFFFFFFFFFFFFFFFFFFFFFFFFFF
310
FFFFFFFFFFFFFFFFFFFFFFFFFFFFFFFFFFFFFFFFFFFFFFFFFFFFFFFFFFFFFFFF
310
FDFFFFFFFEFFFFFFFEFFFFFFFEFFFFFF05000000060000000700000008000000
310
090000000A0000000B0000000C000000FEFFFFFFFFFFFFFFFFFFFFFFFFFFFFFF
310
FFFFFFFFFFFFFFFFFFFFFFFFFFFFFFFFFFFFFFFFFFFFFFFFFFFFFFFFFFFFFFFF
310
FFFFFFFFFFFFFFFFFFFFFFFFFFFFFFFFFFFFFFFFFFFFFFFFFFFFFFFFFFFFFFFF
310
FFFFFFFFFFFFFFFFFFFFFFFFFFFFFFFFFFFFFFFFFFFFFFFFFFFFFFFFFFFFFFFF
310
FFFFFFFFFFFFFFFFFFFFFFFFFFFFFFFFFFFFFFFFFFFFFFFFFFFFFFFFFFFFFFFF
310
FFFFFFFFFFFFFFFFFFFFFFFFFFFFFFFFFFFFFFFFFFFFFFFFFFFFFFFFFFFFFFFF
310
FFFFFFFFFFFFFFFFFFFFFFFFFFFFFFFFFFFFFFFFFFFFFFFFFFFFFFFFFFFFFFFF
310
FFFFFFFFFFFFFFFFFFFFFFFFFFFFFFFFFFFFFFFFFFFFFFFFFFFFFFFFFFFFFFFF
310
FFFFFFFFFFFFFFFFFFFFFFFFFFFFFFFFFFFFFFFFFFFFFFFFFFFFFFFFFFFFFFFF
310
FFFFFFFFFFFFFFFFFFFFFFFFFFFFFFFFFFFFFFFFFFFFFFFFFFFFFFFFFFFFFFFF
310
FFFFFFFFFFFFFFFFFFFFFFFFFFFFFFFFFFFFFFFFFFFFFFFFFFFFFFFFFFFFFFFF
310
FFFFFFFFFFFFFFFFFFFFFFFFFFFFFFFFFFFFFFFFFFFFFFFFFFFFFFFFFFFFFFFF
310
FFFFFFFFFFFFFFFFFFFFFFFFFFFFFFFFFFFFFFFFFFFFFFFFFFFFFFFFFFFFFFFF
310
FFFFFFFFFFFFFFFFFFFFFFFFFFFFFFFFFFFFFFFFFFFFFFFFFFFFFFFFFFFFFFFF
310
FFFFFFFFFFFFFFFFFFFFFFFFFFFFFFFFFFFFFFFFFFFFFFFFFFFFFFFFFFFFFFFF
310
52006F006F007400200045006E00740072007900000000000000000000000000
310
0000000000000000000000000000000000000000000000000000000000000000
310
16000500FFFFFFFFFFFFFFFF020000000A00030000000000C000000000000046
310
00000000000000000000000030691105CD23D10103000000C000000000000000
310
01004F006C006500000000000000000000000000000000000000000000000000
310
0000000000000000000000000000000000000000000000000000000000000000
310
0A000200FFFFFFFFFFFFFFFFFFFFFFFF00000000000000000000000000000000
310
0000000000000000000000000000000000000000000000001400000000000000
310
010043006F006D0070004F0062006A0000000000000000000000000000000000
310
0000000000000000000000000000000000000000000000000000000000000000
310
120002010100000003000000FFFFFFFF00000000000000000000000000000000
310
0000000000000000000000000000000000000000010000004D00000000000000
310
01004F006C006500310030004E00610074006900760065000000000000000000
310
0000000000000000000000000000000000000000000000000000000000000000
310
1A000200FFFFFFFFFFFFFFFFFFFFFFFF00000000000000000000000000000000
310
000000000000000000000000000000000000000004000000E411000000000000
310
FEFFFFFF02000000FEFFFFFFFFFFFFFFFFFFFFFFFFFFFFFFFFFFFFFFFFFFFFFF
310
FFFFFFFFFFFFFFFFFFFFFFFFFFFFFFFFFFFFFFFFFFFFFFFFFFFFFFFFFFFFFFFF
310
FFFFFFFFFFFFFFFFFFFFFFFFFFFFFFFFFFFFFFFFFFFFFFFFFFFFFFFFFFFFFFFF
310
FFFFFFFFFFFFFFFFFFFFFFFFFFFFFFFFFFFFFFFFFFFFFFFFFFFFFFFFFFFFFFFF
310
FFFFFFFFFFFFFFFFFFFFFFFFFFFFFFFFFFFFFFFFFFFFFFFFFFFFFFFFFFFFFFFF
310
FFFFFFFFFFFFFFFFFFFFFFFFFFFFFFFFFFFFFFFFFFFFFFFFFFFFFFFFFFFFFFFF
310
FFFFFFFFFFFFFFFFFFFFFFFFFFFFFFFFFFFFFFFFFFFFFFFFFFFFFFFFFFFFFFFF
310
FFFFFFFFFFFFFFFFFFFFFFFFFFFFFFFFFFFFFFFFFFFFFFFFFFFFFFFFFFFFFFFF
310
FFFFFFFFFFFFFFFFFFFFFFFFFFFFFFFFFFFFFFFFFFFFFFFFFFFFFFFFFFFFFFFF
310
FFFFFFFFFFFFFFFFFFFFFFFFFFFFFFFFFFFFFFFFFFFFFFFFFFFFFFFFFFFFFFFF
310
FFFFFFFFFFFFFFFFFFFFFFFFFFFFFFFFFFFFFFFFFFFFFFFFFFFFFFFFFFFFFFFF
310
FFFFFFFFFFFFFFFFFFFFFFFFFFFFFFFFFFFFFFFFFFFFFFFFFFFFFFFFFFFFFFFF
310
FFFFFFFFFFFFFFFFFFFFFFFFFFFFFFFFFFFFFFFFFFFFFFFFFFFFFFFFFFFFFFFF
310
FFFFFFFFFFFFFFFFFFFFFFFFFFFFFFFFFFFFFFFFFFFFFFFFFFFFFFFFFFFFFFFF
310
FFFFFFFFFFFFFFFFFFFFFFFFFFFFFFFFFFFFFFFFFFFFFFFFFFFFFFFFFFFFFFFF
310
FFFFFFFFFFFFFFFFFFFFFFFFFFFFFFFFFFFFFFFFFFFFFFFFFFFFFFFFFFFFFFFF
310
0100000200000000000000000000000000000000000000000000000000000000
310
0000000000000000000000000000000000000000000000000000000000000000
310
0100FEFF030A0000FFFFFFFF0A00030000000000C00000000000004607000000
310
5042727573680007000000504272757368000700000050427275736800F439B2
310
7100000000000000000000000000000000000000000000000000000000000000
310
0000000000000000000000000000000000000000000000000000000000000000
310
0000000000000000000000000000000000000000000000000000000000000000
310
0000000000000000000000000000000000000000000000000000000000000000
310
0000000000000000000000000000000000000000000000000000000000000000
310
0000000000000000000000000000000000000000000000000000000000000000
310
0000000000000000000000000000000000000000000000000000000000000000
310
0000000000000000000000000000000000000000000000000000000000000000
310
0000000000000000000000000000000000000000000000000000000000000000
310
0000000000000000000000000000000000000000000000000000000000000000
310
0000000000000000000000000000000000000000000000000000000000000000
310
0000000000000000000000000000000000000000000000000000000000000000
310
E0110000424DDE11000000000000360400002800000096000000170000000100
310
08000000000000000000E7240000E72400000001000000010000000000FF0101
310
01FF020202FF030303FF040404FF050505FF060606FF070707FF080808FF0909
310
09FF0A0A0AFF0B0B0BFF0C0C0CFF0D0D0DFF0E0E0EFF0F0F0FFF101010FF1111
310
11FF121212FF131313FF141414FF151515FF161616FF171717FF181818FF1919
310
19FF1A1A1AFF1B1B1BFF1C1C1CFF1D1D1DFF1E1E1EFF1F1F1FFF202020FF2121
310
21FF222222FF232323FF242424FF252525FF262626FF272727FF282828FF2929
310
29FF2A2A2AFF2B2B2BFF2C2C2CFF2D2D2DFF2E2E2EFF2F2F2FFF303030FF3131
310
31FF323232FF333333FF343434FF353535FF363636FF373737FF383838FF3939
310
39FF3A3A3AFF3B3B3BFF3C3C3CFF3D3D3DFF3E3E3EFF3F3F3FFF404040FF4141
310
41FF424242FF434343FF444444FF454545FF464646FF474747FF484848FF4949
310
49FF4A4A4AFF4B4B4BFF4C4C4CFF4D4D4DFF4E4E4EFF4F4F4FFF505050FF5151
310
51FF525252FF535353FF545454FF555555FF565656FF575757FF585858FF5959
310
59FF5A5A5AFF5B5B5BFF5C5C5CFF5D5D5DFF5E5E5EFF5F5F5FFF606060FF6161
310
61FF626262FF636363FF646464FF656565FF666666FF676767FF686868FF6969
310
69FF6A6A6AFF6B6B6BFF6C6C6CFF6D6D6DFF6E6E6EFF6F6F6FFF707070FF7171
310
71FF727272FF737373FF747474FF757575FF767676FF777777FF787878FF7979
310
79FF7A7A7AFF7B7B7BFF7C7C7CFF7D7D7DFF7E7E7EFF7F7F7FFF808080FF8181
310
81FF828282FF838383FF848484FF858585FF868686FF878787FF888888FF8989
310
89FF8A8A8AFF8B8B8BFF8C8C8CFF8D8D8DFF8E8E8EFF8F8F8FFF909090FF9191
310
91FF929292FF939393FF949494FF959595FF969696FF979797FF989898FF9999
310
99FF9A9A9AFF9B9B9BFF9C9C9CFF9D9D9DFF9E9E9EFF9F9F9FFFA0A0A0FFA1A1
310
A1FFA2A2A2FFA3A3A3FFA4A4A4FFA5A5A5FFA6A6A6FFA7A7A7FFA8A8A8FFA9A9
310
A9FFAAAAAAFFABABABFFACACACFFADADADFFAEAEAEFFAFAFAFFFB0B0B0FFB1B1
310
B1FFB2B2B2FFB3B3B3FFB4B4B4FFB5B5B5FFB6B6B6FFB7B7B7FFB8B8B8FFB9B9
310
B9FFBABABAFFBBBBBBFFBCBCBCFFBDBDBDFFBEBEBEFFBFBFBFFFC0C0C0FFC1C1
310
C1FFC2C2C2FFC3C3C3FFC4C4C4FFC5C5C5FFC6C6C6FFC7C7C7FFC8C8C8FFC9C9
310
C9FFCACACAFFCBCBCBFFCCCCCCFFCDCDCDFFCECECEFFCFCFCFFFD0D0D0FFD1D1
310
D1FFD2D2D2FFD3D3D3FFD4D4D4FFD5D5D5FFD6D6D6FFD7D7D7FFD8D8D8FFD9D9
310
D9FFDADADAFFDBDBDBFFDCDCDCFFDDDDDDFFDEDEDEFFDFDFDFFFE0E0E0FFE1E1
310
E1FFE2E2E2FFE3E3E3FFE4E4E4FFE5E5E5FFE6E6E6FFE7E7E7FFE8E8E8FFE9E9
310
E9FFEAEAEAFFEBEBEBFFECECECFFEDEDEDFFEEEEEEFFEFEFEFFFF0F0F0FFF1F1
310
F1FFF2F2F2FFF3F3F3FFF4F4F4FFF5F5F5FFF6F6F6FFF7F7F7FFF8F8F8FFF9F9
310
F9FFFAFAFAFFFBFBFBFFFCFCFCFFFDFDFDFFFEFEFEFFFFFFFFFFFFFFFFFFFFFF
310
C94E4E4E4F4E4EFFFFFFFFFFC94E4E4E4E4E72FFFFFFFFFFFFFF734E4D4E4E4E
310
C9FFFFFFFFFFAA683516171616265B9BE9FFFFFFFFFF4E4E4E4D4E4EFFFFFFFF
310
FFFFFFFF4E4E4F4E4D4E4E4E4F4E4E4F4D4E4E4E4E4E4D4E4F4E4D4E4E4EAAFF
310
FFFFFFFFFFEA4E4F4F4E4E4E4E4E4D4D4F4F4E4E4E4E4E5B7FAAFFFFFFFFFFFF
310
C9744E1716171616164D8DEAFFFFFFFF0000FFFFFFFFFFFFBA161617161716FF
310
FFFFFFFFB917171616174FFFFFFFFFFFFFFF4E1716161616B9FFFFFFB9341717
310
1716171617171616268CFFFFFFFF161617161617FFFFFFFFFFFFFFB917161717
310
1617167F807F7F7F7F7F7F807F7F807F7F807F7F7F414EFFFFFFFFFFFF8C167F
310
7F807F7F7F7E7F7F807F807F7F807F4E3417258EFFFFEA4E162674AABAEAEBBA
310
AA74341680FFFFFF0000FFFFFFFFFFFFB9171717171617FFFFFFFFFFBB161616
310
16164EFFFFFFFFFFFFFF4E1717171717B9FFFF9C171617171716161616171616
310
171766FFFFFF161717161617FFFFFFFFFFFFFF8E16171717161616FFFFFFFFFF
310
FFFFFFFFFFFFFFFFFFFFFFFFFFAA16D9FFFFFFFFFF3467FFFFFFFFEAFFFFFFFF
310
FFFFFFFFFFFFFFFFFFCA671667EB26278DFFFFFFFFFFFFFFFFFFFF8C2541EAFF
310
0000FFFFFFFFFFFFB9171717171716FFFFFFFFFFBA16171617174EFFFFFFFFFF
310
FFFF4E1717161616BAFF9B1617161616171716171617161616161667FFFF1616
310
16161716FFFFFFFFFFFFFF7F16161617174017FFFFFFFFFFFFFFFFFFFFFFFFFF
310
FFFFFFFFFFFF344E7F7F7F7E7417DAFFFFFFFF80FFFFFFFFFFFFFFFFFFFFFFFF
310
FFFFFF9B163425CAFFFFFFFFFFFFFFFFFFFFFFFFCA2667FF0000FFFFFFFFFFFF
310
BA171717171617FFFFFFFFFFB916171716164EFFFFFFFFFFFFFF4F1716161717
310
B9C91716171616161716161617171616161617168DFF161716161717FFFFFFFF
310
FFFFFF7F17171716164F16FFFFFFFFFFFFFFFFFFFFFFFFFFFFFFFFFFFFFF9B16
310
17161617174EFFFFFFFFFF34FFFFFFFFD9BABABABABADAFFFFFFFFFF7F16AAFF
310
FFFFFFFFFFFFFFFFFFFFFFFFFF9C16BA0000FFFFFFFFFFFFB9161717161717FF
310
FFFFFFFFB917161716174DFFFFFFFFFFFFFF4E1616161616BA4E161617171716
310
419BEAEAAA4E16161617161726E9171717161616FFFFFFFFFFFFFF4F16161717
310
164E16FFFFFFFFFFBAB9B9B9B9B9BABABACAFFFFFFFFFFFFFFFFFFFFFFFFFFFF
310
FFFFBA16FFFFFFFF7F1617161617174DEAFFFFFFEA41FFFFFFFFFFAA4D16174E
310
9BFFFFFFFFFF34730000FFFFFFFFFFFFB9161617171617FFFFFFFFFFBA161616
310
16164EFFFFFFFFFFFFFF4F16161717169B1617161716175BFFFFFFFFFFFF7417
310
16171616168D171717161617FFFFFFFFFFFFEA2616171717167416FFFFFFFFFF
310
16171616171717171717EAFFFFFFFFFFFFFFFFFFFFFFFFFFFFFF6716FFFFFFFF
310
7F4EFFFFFFFFBA2573FFFFFFFFBAFFFFFFFFAA167FB9BB9B269BFFFFFFFF664F
310
0000FFFFFFFFFFFFB9171616161616FFFFFFFFFFBA16161717164EFFFFFFFFFF
310
FFFF4E16161616174E161617171626EAFFFFFFFFFFFFFF4E16161616164E1716
310
16161617FFFFFFFFFFFF671616161716347F16FFFFFFFFFF16B9FFFFFFFFFFFF
310
D9168DFFFFFFFFFFFFFFFFFFFFFFFFFFFFEA1716FFFFFFFF7F4EFFFFFFFFFF7F
310
4EFFFFFFFFFFFFFFFFFF5B66FFFFFFEA347FFFFFFFFF7F4D0000FFFFFFFFFFFF
310
B9171616171617FFFFFFFFFFBA17161716174EFFFFFFFFFFFFFF4D1716161617
310
17161716161673FFFFFFFFFFFFFFFF9B1617161717161616171616174F4E4E4E
310
4E341616171616167E7F16FFFFFFFFFF16BAFFFFFFFFFFFFFF5B41FFFFFFFF34
310
1616171616BAFFFFFF9B1716FFFFFFFF7F4EFFFFFFFFFF4E4EFFFFFFFF734E4E
310
4E4E267EDA9B67164EEAFFFFFFFF744D0000FFFFFFFFFFFFBA171717161617FF
310
FFFFFFFFBA1616171616347F7F7F7F80807F331616161717161717161716B9FF
310
FFFFFFFFFFFFFFE9161616161616171716161716171616161616171616171734
310
EA7F16FFFFFFFFFF16BAFFFFFFFFFFFFFFAA17C9FFFFFF7326BABA5B25FFFFFF
310
FF401716FFFFFFFF7F264F4E4E4E4217AAFFFFFFEA16677F73261616164173CA
310
FFFFFFFFFFFF417F0000FFFFFFFFFFFFBA171616171617FFFFFFFFFFBA161616
310
17171616161616161616161717161616161616161617EAFFFFFFFFFFFFFFFFFF
310
261717161716161617161616161617161617161616174EEAFF8016FFFFFFFFFF
310
17BAFFFFFFFFFFFFFFFF3467FFFFFFC916C9FF3467FFFFFFDA166716FFFFFFFF
310
9C4D4E4E4E4E67AAFFFFFFFF6834FF7F262567AAEAFFFFFFFFFFFFFFFF9B17D9
310
0000FFFFFFFFFFFFB9161616161616FFFFFFFFFFBA1617161717171616161616
310
1716171716161716161617171716FFFFFFFFFFFFFFFFFFFF4E17161716171616
310
1617171616161716171717161616169BFF7F17FFFFFFFFFF17B9FFFFFFFFFFFF
310
FFFF7326FFFFFFFF3473DA16AAFFFFFF7317AA16FFFFFFFFFFFFFFFFFFFFFFFF
310
FFFFEA6725BA4E167FEAFFFFFFFFFFFFFFFFFFFF9C167FFF0000FFFFFFFFFFFF
310
B9161717171716FFFFFFFFFFBA16161716171616171717161617161716161616
310
171617171617EAFFFFFFFFFFFFFFFFFF26161717161616161616161617171616
310
1616161616171616AA8016FFFFFFFFFF16BAFFFFFFFFFFFFFFFFDA179BFFFFFF
310
74348D26FFFFFFFF2566B917FFFFFFFFD8BAB9BAB9BADAFFFFEA41169B7425C9
310
FFFFFFFFFFFFFFFFFFFFAB4F1680FFFF0000FFFFFFFFFFFFBA161717171617FF
310
FFFFFFFFBA17161717161617171617161616161617171616171716171617BBFF
310
FFFFFFFFFFFFFFE9171616161617161617161716FFFFFFFFFFD9671616161617
310
348017FFFFFFFFFF16BAFFFFFFFFFFFFFFFFFF4E5AFFFFFFC916265AFFFFFFAA
310
16AABA16FFFFFFFF7F1617161616179BFFFFEB4127168DFFFFFFFFFFFFFFD99B
310
6734175AC9FFFFFF0000FFFFFFFFFFFFB9161617171617FFFFFFFFFFBB161616
310
1616347F807F7F7F7F8033171716171617171616161672FFFFFFFFFFFFFFFF9C
310
171617171617161716161617FFFFFFFFFFFFFF4117161616174E17FFFFFFFFFF
310
16BAFFFFFFFFFFFFFFFFFF9B16DAFFFFFF34169BFFFFFF5A26FFB917FFFFFFFF
310
7F4EFFFFFFEA5B26FFFFFFEA2616EAFFFFFFFFDA743416331617414E4E4E4ECA
310
0000FFFFFFFFFFFFBA161716161616FFFFFFFFFFBA17171616164EFFFFFFFFFF
310
FFFF4E16161717174E161717171626EBFFFFFFFFFFFFFF4E16161617165B1616
310
16171617FFFFFFFFFFFFFF6716161616161617FFFFFFFFFF16BAFFFFFFFFFFFF
310
FFFFFFEA268CFFFFFF7316EAFFFFEB1774FFB916FFFFFFFF7F4EFFFFFFFF7316
310
FFFFFFFF6826FFFFFFFFEB264D9CEABA257F807F7F6616BA0000FFFFFFFFFFFF
310
BA161716161616FFFFFFFFFFBA16171616164DFFFFFFFFFFFFFF4E1617161617
310
9B1617171717165BEBFFFFFFFFFF671616161617179B171616161616FFFFFFFF
310
FFFFFF3417161617171617FFFFFFFFFF17BAFFFFFFFFFFFFFFFFFFFF6734FFFF
310
FFEBCAFFFFFF8D17C9FFBA17FFFFFFFF7F357F808066174FFFFFFFFF7F16FFFF
310
FFFFD91673B99B415BFFFFFFFFBA16DA00009B7F7F7F807F671617161616167F
310
80807F7E6617161616164EFFFFFFFFFFFFFF4E1616161617B94E171716161616
310
349BC9D9AA4E16171616161634FF161617161717B9B9BAB9BA9B411716171716
310
163416FFFFFFFFFF16B9FFFFFFFFFFFFFFFFFFFFC917CAFFFFFFFFFFFFFF3342
310
FFFFBA17FFFFFFFF9B4E4E4F4E4E66EAFFFFFFFF5B16C9FFFFFFFFAA4E164E73
310
EAFFFFFFFF8D26FF00004E161716161616171617171616171717171617161616
310
17174EFFFFFFFFFFFFFF4E1717171616B9D92616171716171716171717171716
310
16171716AAFF161717171617161617171616161617161716166717FFFFFFFFFF
310
17B9FFFFFFFFFFFFFFFFFFFFFF3467FFFFFFFFFFFFCA168CFFFFBB17FFFFFFFF
310
FFFFFFFFFFFFFFFFFFFFFFEA26265BFFFFFFFFFFFFFFFFFFFFFFFFFFEA3467FF
310
00004D16161616161617161717161617161616171617171616164EFFFFFFFFFF
310
FFFF4D1617161616BAFF9B1616161616161716161616171717161766FFFF1616
310
16171617161617161716171616171717667F16FFFFFFFFFF17BAFFFFFFFFFFFF
310
FFFFFFFFFF8C26EAFFFFFFFFFF6617EAFFFFBA17FFFFFFFFFFFFFFFFFFFFFFFF
310
FFFFEA5A25BA269BFFFFFFFFFFFFFFFFFFFFFFFF6616DAFF00004E1616171616
310
1616161616161716161617171616171616174EFFFFFFFFFFFFFF4D1717171716
310
B9FFFF9C161616161616161716161717171667FFFFFF17161717171716161617
310
1716161616161641E97E16FFFFFFFFFF16B9FFFFFFFFFFFFFFFFFFFFFFEA169B
310
FFFFFFFFEA265BFFFFFFB916FFFFFFFFFFFFFFFFFFFFFFFFFF9B3416AAFF9B17
310
67EAFFFFFFFFFFFFFFFFEA5B169BFFFF00004D17161716161616161717171616
310
161717161716171716174EFFFFFFFFFFFFFF4D1616161616BAFFFFFFBB411616
310
161716161616171634ABFFFFFFFF161716161617171716171617171617267FFF
310
FF7F164E4E4E4E4F17BAFFFFFFFFFFFFFFFFFFFFFFFF66344D4E4E4F4117AAFF
310
FFFFBA174E4E4E4D4E4D4D4E4E4E4E4116174EBBFFFFFFCA342666ABEAFFFFEA
310
AA6725269CFFFFFF0000724F4E4D4D4D4E4D4D4E4E4E4D4E4E4E4E4E4E4E4E4D
310
4E4E74FFFFFFFFFFFFFF734E4E4E4D4ECAFFFFFFFFFFAA663416171717265B9B
310
FFFFFFFFFFFF7F8080807F80807F7F7F7F7F807FBAFFFFFFFF9B4E4E4F4D4D4E
310
4DC9FFFFFFFFFFFFFFFFFFFFFFFFBA4E4E4E4E4D4E4EFFFFFFFFC94E4E4E4F4E
310
4E4E4D4E4E5A807F9CD9FFFFFFFFFFFFFF9B5B2617171716174E8DEAFFFFFFFF
310
0000000000000000000000000000000000000000000000000000000000000000
  1
OLE
  0
ENDSEC
  0
SECTION
  2
OBJECTS
  0
DICTIONARY
  5
C
330
0
100
AcDbDictionary
281
     1
  3
ACAD_GROUP
350
D
  3
ACAD_LAYOUT
350
1A
  3
ACAD_MLINESTYLE
350
17
  3
ACAD_PLOTSETTINGS
350
19
  3
ACAD_PLOTSTYLENAME
350
E
  3
ACAD_SCALELIST
350
47
  0
DICTIONARY
  5
D
102
{ACAD_REACTORS
330
C
102
}
330
C
100
AcDbDictionary
281
     1
  0
DICTIONARY
  5
1A
102
{ACAD_REACTORS
330
C
102
}
330
C
100
AcDbDictionary
281
     1
  3
Layout1
350
1E
  3
Layout2
350
26
  3
Model
350
22
  0
DICTIONARY
  5
17
102
{ACAD_REACTORS
330
C
102
}
330
C
100
AcDbDictionary
281
     1
  3
Standard
350
18
  0
DICTIONARY
  5
19
102
{ACAD_REACTORS
330
C
102
}
330
C
100
AcDbDictionary
281
     1
  0
ACDBDICTIONARYWDFLT
  5
E
102
{ACAD_REACTORS
330
C
102
}
330
C
100
AcDbDictionary
281
     1
  3
Normal
350
F
100
AcDbDictionaryWithDefault
340
F
  0
DICTIONARY
  5
47
102
{ACAD_REACTORS
330
C
102
}
330
C
100
AcDbDictionary
281
     1
  3
A0
350
48
  3
A1
350
49
  3
A2
350
4A
  3
A3
350
4B
  3
A4
350
4C
  3
A5
350
4D
  3
A6
350
4E
  3
A7
350
4F
  3
A8
350
50
  3
A9
350
51
  3
B0
350
52
  3
B1
350
53
  3
B2
350
54
  3
B3
350
55
  3
B4
350
56
  3
B5
350
57
  3
B6
350
58
  3
B7
350
59
  3
B8
350
5A
  3
B9
350
5B
  3
C0
350
5C
  3
C1
350
5D
  3
C2
350
5E
  3
C3
350
5F
  3
C4
350
60
  3
C5
350
61
  3
C6
350
62
  3
C7
350
63
  3
C8
350
64
  3
C9
350
65
  3
D0
350
66
  3
D1
350
67
  3
D2
350
68
  0
LAYOUT
  5
1E
102
{ACAD_REACTORS
330
1A
102
}
330
1A
100
AcDbPlotSettings
  1

  2
none_device
  4

  6

 40
0.0
 41
0.0
 42
0.0
 43
0.0
 44
0.0
 45
0.0
 46
0.0
 47
0.0
 48
0.0
 49
0.0
140
0.0
141
0.0
142
1.0
143
1.0
 70
   688
 72
     0
 73
     0
 74
     5
  7

 75
    16
147
1.0
148
0.0
149
0.0
100
AcDbLayout
  1
Layout1
 70
     1
 71
     1
 10
0.0
 20
0.0
 11
12.0
 21
9.0
 12
0.0
 22
0.0
 32
0.0
 14
1.0000000000E+20
 24
1.0000000000E+20
 34
1.0000000000E+20
 15
-1.0000000000E+20
 25
-1.0000000000E+20
 35
-1.0000000000E+20
146
0.0
 13
0.0
 23
0.0
 33
0.0
 16
1.0
 26
0.0
 36
0.0
 17
0.0
 27
1.0
 37
0.0
 76
     0
330
1B
  0
LAYOUT
  5
26
102
{ACAD_REACTORS
330
1A
102
}
330
1A
100
AcDbPlotSettings
  1

  2
none_device
  4

  6

 40
0.0
 41
0.0
 42
0.0
 43
0.0
 44
0.0
 45
0.0
 46
0.0
 47
0.0
 48
0.0
 49
0.0
140
0.0
141
0.0
142
1.0
143
1.0
 70
   688
 72
     0
 73
     0
 74
     5
  7

 75
    16
147
1.0
148
0.0
149
0.0
100
AcDbLayout
  1
Layout2
 70
     1
 71
     2
 10
0.0
 20
0.0
 11
0.0
 21
0.0
 12
0.0
 22
0.0
 32
0.0
 14
0.0
 24
0.0
 34
0.0
 15
0.0
 25
0.0
 35
0.0
146
0.0
 13
0.0
 23
0.0
 33
0.0
 16
1.0
 26
0.0
 36
0.0
 17
0.0
 27
1.0
 37
0.0
 76
     0
330
23
  0
LAYOUT
  5
22
102
{ACAD_REACTORS
330
1A
102
}
330
1A
100
AcDbPlotSettings
  1

  2
none_device
  4
Letter_(8.50_x_11.00_Inches)
  6

 40
6.35
 41
6.35
 42
6.35000508
 43
6.35000508
 44
215.9
 45
279.4
 46
0.0
 47
0.0
 48
0.0
 49
0.0
140
0.0
141
0.0
142
1.0
143
1.0
 70
  1712
 72
     0
 73
     0
 74
     0
  7

 75
     0
147
1.0
148
0.0
149
0.0
100
AcDbLayout
  1
Model
 70
     1
 71
     0
 10
0.0
 20
0.0
 11
11.0
 21
8.5
 12
0.0
 22
0.0
 32
0.0
 14
0.0
 24
0.0
 34
0.0
 15
11.0
 25
8.5
 35
0.0
146
0.0
 13
0.0
 23
0.0
 33
0.0
 16
1.0
 26
0.0
 36
0.0
 17
0.0
 27
1.0
 37
0.0
 76
     0
330
1F
331
29
  0
MLINESTYLE
  5
18
102
{ACAD_REACTORS
330
17
102
}
330
17
100
AcDbMlineStyle
  2
Standard
 70
     0
  3

 62
   256
 51
90.0
 52
90.0
 71
     2
 49
0.5
 62
   256
  6
BYLAYER
 49
-0.5
 62
   256
  6
BYLAYER
  0
ACDBPLACEHOLDER
  5
F
102
{ACAD_REACTORS
330
E
102
}
330
E
  0
SCALE
  5
48
102
{ACAD_REACTORS
330
47
102
}
330
47
100
AcDbScale
 70
     0
300
1:1
140
1.0
141
1.0
290
     1
  0
SCALE
  5
49
102
{ACAD_REACTORS
330
47
102
}
330
47
100
AcDbScale
 70
     0
300
1:2
140
1.0
141
2.0
290
     0
  0
SCALE
  5
4A
102
{ACAD_REACTORS
330
47
102
}
330
47
100
AcDbScale
 70
     0
300
1:4
140
1.0
141
4.0
290
     0
  0
SCALE
  5
4B
102
{ACAD_REACTORS
330
47
102
}
330
47
100
AcDbScale
 70
     0
300
1:5
140
1.0
141
5.0
290
     0
  0
SCALE
  5
4C
102
{ACAD_REACTORS
330
47
102
}
330
47
100
AcDbScale
 70
     0
300
1:8
140
1.0
141
8.0
290
     0
  0
SCALE
  5
4D
102
{ACAD_REACTORS
330
47
102
}
330
47
100
AcDbScale
 70
     0
300
1:10
140
1.0
141
10.0
290
     0
  0
SCALE
  5
4E
102
{ACAD_REACTORS
330
47
102
}
330
47
100
AcDbScale
 70
     0
300
1:16
140
1.0
141
16.0
290
     0
  0
SCALE
  5
4F
102
{ACAD_REACTORS
330
47
102
}
330
47
100
AcDbScale
 70
     0
300
1:20
140
1.0
141
20.0
290
     0
  0
SCALE
  5
50
102
{ACAD_REACTORS
330
47
102
}
330
47
100
AcDbScale
 70
     0
300
1:30
140
1.0
141
30.0
290
     0
  0
SCALE
  5
51
102
{ACAD_REACTORS
330
47
102
}
330
47
100
AcDbScale
 70
     0
300
1:40
140
1.0
141
40.0
290
     0
  0
SCALE
  5
52
102
{ACAD_REACTORS
330
47
102
}
330
47
100
AcDbScale
 70
     0
300
1:50
140
1.0
141
50.0
290
     0
  0
SCALE
  5
53
102
{ACAD_REACTORS
330
47
102
}
330
47
100
AcDbScale
 70
     0
300
1:100
140
1.0
141
100.0
290
     0
  0
SCALE
  5
54
102
{ACAD_REACTORS
330
47
102
}
330
47
100
AcDbScale
 70
     0
300
2:1
140
2.0
141
1.0
290
     0
  0
SCALE
  5
55
102
{ACAD_REACTORS
330
47
102
}
330
47
100
AcDbScale
 70
     0
300
4:1
140
4.0
141
1.0
290
     0
  0
SCALE
  5
56
102
{ACAD_REACTORS
330
47
102
}
330
47
100
AcDbScale
 70
     0
300
8:1
140
8.0
141
1.0
290
     0
  0
SCALE
  5
57
102
{ACAD_REACTORS
330
47
102
}
330
47
100
AcDbScale
 70
     0
300
10:1
140
10.0
141
1.0
290
     0
  0
SCALE
  5
58
102
{ACAD_REACTORS
330
47
102
}
330
47
100
AcDbScale
 70
     0
300
100:1
140
100.0
141
1.0
290
     0
  0
SCALE
  5
59
102
{ACAD_REACTORS
330
47
102
}
330
47
100
AcDbScale
 70
     0
300
1/128" = 1'-0"
140
0.0078125
141
12.0
290
     0
  0
SCALE
  5
5A
102
{ACAD_REACTORS
330
47
102
}
330
47
100
AcDbScale
 70
     0
300
1/64" = 1'-0"
140
0.015625
141
12.0
290
     0
  0
SCALE
  5
5B
102
{ACAD_REACTORS
330
47
102
}
330
47
100
AcDbScale
 70
     0
300
1/32" = 1'-0"
140
0.03125
141
12.0
290
     0
  0
SCALE
  5
5C
102
{ACAD_REACTORS
330
47
102
}
330
47
100
AcDbScale
 70
     0
300
1/16" = 1'-0"
140
0.0625
141
12.0
290
     0
  0
SCALE
  5
5D
102
{ACAD_REACTORS
330
47
102
}
330
47
100
AcDbScale
 70
     0
300
3/32" = 1'-0"
140
0.09375
141
12.0
290
     0
  0
SCALE
  5
5E
102
{ACAD_REACTORS
330
47
102
}
330
47
100
AcDbScale
 70
     0
300
1/8" = 1'-0"
140
0.125
141
12.0
290
     0
  0
SCALE
  5
5F
102
{ACAD_REACTORS
330
47
102
}
330
47
100
AcDbScale
 70
     0
300
3/16" = 1'-0"
140
0.1875
141
12.0
290
     0
  0
SCALE
  5
60
102
{ACAD_REACTORS
330
47
102
}
330
47
100
AcDbScale
 70
     0
300
1/4" = 1'-0"
140
0.25
141
12.0
290
     0
  0
SCALE
  5
61
102
{ACAD_REACTORS
330
47
102
}
330
47
100
AcDbScale
 70
     0
300
3/8" = 1'-0"
140
0.375
141
12.0
290
     0
  0
SCALE
  5
62
102
{ACAD_REACTORS
330
47
102
}
330
47
100
AcDbScale
 70
     0
300
1/2" = 1'-0"
140
0.5
141
12.0
290
     0
  0
SCALE
  5
63
102
{ACAD_REACTORS
330
47
102
}
330
47
100
AcDbScale
 70
     0
300
3/4" = 1'-0"
140
0.75
141
12.0
290
     0
  0
SCALE
  5
64
102
{ACAD_REACTORS
330
47
102
}
330
47
100
AcDbScale
 70
     0
300
1" = 1'-0"
140
1.0
141
12.0
290
     0
  0
SCALE
  5
65
102
{ACAD_REACTORS
330
47
102
}
330
47
100
AcDbScale
 70
     0
300
1-1/2" = 1'-0"
140
1.5
141
12.0
290
     0
  0
SCALE
  5
66
102
{ACAD_REACTORS
330
47
102
}
330
47
100
AcDbScale
 70
     0
300
3" = 1'-0"
140
3.0
141
12.0
290
     0
  0
SCALE
  5
67
102
{ACAD_REACTORS
330
47
102
}
330
47
100
AcDbScale
 70
     0
300
6" = 1'-0"
140
6.0
141
12.0
290
     0
  0
SCALE
  5
68
102
{ACAD_REACTORS
330
47
102
}
330
47
100
AcDbScale
 70
     0
300
1'-0" = 1'-0"
140
12.0
141
12.0
290
     0
  0
ENDSEC
  0
EOF
