  0
SECTION
  2
HEADER
  9
$ACADVER
  1
AC1015
  9
$ACADMAINTVER
 70
     6
  9
$DWGCODEPAGE
  3
ANSI_1252
  9
$INSBASE
 10
0.0
 20
0.0
 30
0.0
  9
$EXTMIN
 10
0.0
 20
0.0
 30
0.0
  9
$EXTMAX
 10
11.0
 20
8.5
 30
0.0
  9
$LIMMIN
 10
0.0
 20
0.0
  9
$LIMMAX
 10
11.0
 20
8.5
  9
$ORTHOMODE
 70
     0
  9
$REGENMODE
 70
     1
  9
$FILLMODE
 70
     1
  9
$QTEXTMODE
 70
     0
  9
$MIRRTEXT
 70
     1
  9
$LTSCALE
 40
1.0
  9
$ATTMODE
 70
     1
  9
$TEXTSIZE
 40
0.1111111111
  9
$TRACEWID
 40
0.05
  9
$TEXTSTYLE
  7
Standard
  9
$CLAYER
  8
0
  9
$CELTYPE
  6
ByLayer
  9
$CECOLOR
 62
   256
  9
$CELTSCALE
 40
1.0
  9
$DISPSILH
 70
     0
  9
$DIMSCALE
 40
1.0
  9
$DIMASZ
 40
0.125
  9
$DIMEXO
 40
0.05
  9
$DIMDLI
 40
0.38
  9
$DIMRND
 40
0.0
  9
$DIMDLE
 40
0.0
  9
$DIMEXE
 40
0.07
  9
$DIMTP
 40
0.0
  9
$DIMTM
 40
0.0
  9
$DIMTXT
 40
0.1111111111
  9
$DIMCEN
 40
0.09
  9
$DIMTSZ
 40
0.0
  9
$DIMTOL
 70
     0
  9
$DIMLIM
 70
     0
  9
$DIMTIH
 70
     1
  9
$DIMTOH
 70
     1
  9
$DIMSE1
 70
     0
  9
$DIMSE2
 70
     0
  9
$DIMTAD
 70
     0
  9
$DIMZIN
 70
     1
  9
$DIMBLK
  1

  9
$DIMASO
 70
     1
  9
$DIMSHO
 70
     1
  9
$DIMPOST
  1

  9
$DIMAPOST
  1

  9
$DIMALT
 70
     0
  9
$DIMALTD
 70
     2
  9
$DIMALTF
 40
25.4
  9
$DIMLFAC
 40
1.0
  9
$DIMTOFL
 70
     0
  9
$DIMTVP
 40
0.0
  9
$DIMTIX
 70
     0
  9
$DIMSOXD
 70
     0
  9
$DIMSAH
 70
     0
  9
$DIMBLK1
  1

  9
$DIMBLK2
  1

  9
$DIMSTYLE
  2
Standard
  9
$DIMCLRD
 70
     0
  9
$DIMCLRE
 70
     0
  9
$DIMCLRT
 70
     0
  9
$DIMTFAC
 40
1.0
  9
$DIMGAP
 40
0.1
  9
$DIMJUST
 70
     0
  9
$DIMSD1
 70
     0
  9
$DIMSD2
 70
     0
  9
$DIMTOLJ
 70
     1
  9
$DIMTZIN
 70
     1
  9
$DIMALTZ
 70
     0
  9
$DIMALTTZ
 70
     0
  9
$DIMUPT
 70
     0
  9
$DIMDEC
 70
     2
  9
$DIMTDEC
 70
     2
  9
$DIMALTU
 70
     2
  9
$DIMALTTD
 70
     2
  9
$DIMTXSTY
  7
Standard
  9
$DIMAUNIT
 70
     0
  9
$DIMADEC
 70
     0
  9
$DIMALTRND
 40
0.0
  9
$DIMAZIN
 70
     0
  9
$DIMDSEP
 70
    46
  9
$DIMATFIT
 70
     3
  9
$DIMFRAC
 70
     0
  9
$DIMLDRBLK
  1

  9
$DIMLUNIT
 70
     2
  9
$DIMLWD
 70
    -2
  9
$DIMLWE
 70
    -2
  9
$DIMTMOVE
 70
     0
  9
$LUNITS
 70
     2
  9
$LUPREC
 70
     2
  9
$SKETCHINC
 40
0.1
  9
$FILLETRAD
 40
0.5
  9
$AUNITS
 70
     0
  9
$AUPREC
 70
     0
  9
$MENU
  1
.
  9
$ELEVATION
 40
0.0
  9
$PELEVATION
 40
0.0
  9
$THICKNESS
 40
0.0
  9
$LIMCHECK
 70
     0
  9
$CHAMFERA
 40
0.0
  9
$CHAMFERB
 40
0.0
  9
$CHAMFERC
 40
0.0
  9
$CHAMFERD
 40
0.0
  9
$SKPOLY
 70
     0
  9
$TDCREATE
 40
2458505.683675718
  9
$TDUCREATE
 40
2458505.892009051
  9
$TDUPDATE
 40
2458505.683680903
  9
$TDUUPDATE
 40
2458505.892014236
  9
$TDINDWG
 40
0.0000000116
  9
$TDUSRTIMER
 40
0.0000000116
  9
$USRTIMER
 70
     1
  9
$ANGBASE
 50
0.0
  9
$ANGDIR
 70
     0
  9
$PDMODE
 70
     0
  9
$PDSIZE
 40
-1.0
  9
$PLINEWID
 40
0.0
  9
$SPLFRAME
 70
     0
  9
$SPLINETYPE
 70
     6
  9
$SPLINESEGS
 70
     8
  9
$HANDSEED
  5
37A
  9
$SURFTAB1
 70
     6
  9
$SURFTAB2
 70
     6
  9
$SURFTYPE
 70
     6
  9
$SURFU
 70
     6
  9
$SURFV
 70
     6
  9
$UCSBASE
  2

  9
$UCSNAME
  2

  9
$UCSORG
 10
0.0
 20
0.0
 30
0.0
  9
$UCSXDIR
 10
1.0
 20
0.0
 30
0.0
  9
$UCSYDIR
 10
0.0
 20
1.0
 30
0.0
  9
$UCSORTHOREF
  2

  9
$UCSORTHOVIEW
 70
     0
  9
$UCSORGTOP
 10
0.0
 20
0.0
 30
0.0
  9
$UCSORGBOTTOM
 10
0.0
 20
0.0
 30
0.0
  9
$UCSORGLEFT
 10
0.0
 20
0.0
 30
0.0
  9
$UCSORGRIGHT
 10
0.0
 20
0.0
 30
0.0
  9
$UCSORGFRONT
 10
0.0
 20
0.0
 30
0.0
  9
$UCSORGBACK
 10
0.0
 20
0.0
 30
0.0
  9
$PUCSBASE
  2

  9
$PUCSNAME
  2

  9
$PUCSORG
 10
0.0
 20
0.0
 30
0.0
  9
$PUCSXDIR
 10
1.0
 20
0.0
 30
0.0
  9
$PUCSYDIR
 10
0.0
 20
1.0
 30
0.0
  9
$PUCSORTHOREF
  2

  9
$PUCSORTHOVIEW
 70
     0
  9
$PUCSORGTOP
 10
0.0
 20
0.0
 30
0.0
  9
$PUCSORGBOTTOM
 10
0.0
 20
0.0
 30
0.0
  9
$PUCSORGLEFT
 10
0.0
 20
0.0
 30
0.0
  9
$PUCSORGRIGHT
 10
0.0
 20
0.0
 30
0.0
  9
$PUCSORGFRONT
 10
0.0
 20
0.0
 30
0.0
  9
$PUCSORGBACK
 10
0.0
 20
0.0
 30
0.0
  9
$USERI1
 70
     0
  9
$USERI2
 70
     0
  9
$USERI3
 70
     0
  9
$USERI4
 70
     0
  9
$USERI5
 70
     0
  9
$USERR1
 40
0.0
  9
$USERR2
 40
0.0
  9
$USERR3
 40
0.0
  9
$USERR4
 40
0.0
  9
$USERR5
 40
0.0
  9
$WORLDVIEW
 70
     1
  9
$SHADEDGE
 70
     3
  9
$SHADEDIF
 70
    70
  9
$TILEMODE
 70
     1
  9
$MAXACTVP
 70
    64
  9
$PINSBASE
 10
0.0
 20
0.0
 30
0.0
  9
$PLIMCHECK
 70
     0
  9
$PEXTMIN
 10
1.0000000000E+20
 20
1.0000000000E+20
 30
1.0000000000E+20
  9
$PEXTMAX
 10
-1.0000000000E+20
 20
-1.0000000000E+20
 30
-1.0000000000E+20
  9
$PLIMMIN
 10
0.0
 20
0.0
  9
$PLIMMAX
 10
12.0
 20
9.0
  9
$UNITMODE
 70
     0
  9
$VISRETAIN
 70
     1
  9
$PLINEGEN
 70
     0
  9
$PSLTSCALE
 70
     1
  9
$TREEDEPTH
 70
  3020
  9
$CMLSTYLE
  2
Standard
  9
$CMLJUST
 70
     0
  9
$CMLSCALE
 40
1.0
  9
$PROXYGRAPHICS
 70
     1
  9
$MEASUREMENT
 70
     0
  9
$CELWEIGHT
370
    -1
  9
$ENDCAPS
280
     0
  9
$JOINSTYLE
280
     0
  9
$LWDISPLAY
290
     1
  9
$INSUNITS
 70
     1
  9
$HYPERLINKBASE
  1

  9
$STYLESHEET
  1

  9
$XEDIT
290
     1
  9
$CEPSNTYPE
380
     0
  9
$PSTYLEMODE
290
     1
  9
$FINGERPRINTGUID
  2
{B5ACC0D0-7C04-4540-A969-7ECA3929FB70}
  9
$VERSIONGUID
  2
{FAEB1C32-E019-11D5-929B-00C0DF256EC4}
  9
$EXTNAMES
290
     1
  9
$PSVPSCALE
 40
0.0
  9
$OLESTARTUP
290
     0
  0
ENDSEC
  0
SECTION
  2
CLASSES
  0
CLASS
  1
ACDBDICTIONARYWDFLT
  2
AcDbDictionaryWithDefault
  3
ObjectDBX Classes
 90
        0
280
     0
281
     0
  0
CLASS
  1
VISUALSTYLE
  2
AcDbVisualStyle
  3
ObjectDBX Classes
 90
     4095
280
     0
281
     0
  0
CLASS
  1
MATERIAL
  2
AcDbMaterial
  3
ObjectDBX Classes
 90
     1153
280
     0
281
     0
  0
CLASS
  1
SCALE
  2
AcDbScale
  3
ObjectDBX Classes
 90
     1153
280
     0
281
     0
  0
CLASS
  1
TABLESTYLE
  2
AcDbTableStyle
  3
ObjectDBX Classes
 90
     4095
280
     0
281
     0
  0
CLASS
  1
MLEADERSTYLE
  2
AcDbMLeaderStyle
  3
ACDB_MLEADERSTYLE_CLASS
 90
     4095
280
     0
281
     0
  0
CLASS
  1
SUN
  2
AcDbSun
  3
SCENEOE
 90
     1153
280
     0
281
     0
  0
CLASS
  1
ACDBPLACEHOLDER
  2
AcDbPlaceHolder
  3
ObjectDBX Classes
 90
        0
280
     0
281
     0
  0
CLASS
  1
LAYOUT
  2
AcDbLayout
  3
ObjectDBX Classes
 90
        0
280
     0
281
     0
  0
ENDSEC
  0
SECTION
  2
TABLES
  0
TABLE
  2
VPORT
  5
8
330
0
100
AcDbSymbolTable
 70
     1
  0
VPORT
  5
29
330
8
100
AcDbSymbolTableRecord
100
AcDbViewportTableRecord
  2
*Active
 70
     0
 10
0.0
 20
0.0
 11
1.0
 21
1.0
 12
5.5
 22
4.25
 13
0.0
 23
0.0
 14
0.5
 24
0.5
 15
0.5
 25
0.5
 16
0.0
 26
0.0
 36
1.0
 17
0.0
 27
0.0
 37
0.0
 40
8.5
 41
1.2941176471
 42
50.0
 43
0.0
 44
0.0
 50
0.0
 51
0.0
 71
     0
 72
  2000
 73
     1
 74
     3
 75
     0
 76
     0
 77
     0
 78
     0
281
     0
 65
     1
110
0.0
120
0.0
130
0.0
111
1.0
121
0.0
131
0.0
112
0.0
122
1.0
132
0.0
 79
     0
146
0.0
  0
ENDTAB
  0
TABLE
  2
LTYPE
  5
5
330
0
100
AcDbSymbolTable
 70
     6
  0
LTYPE
  5
14
330
5
100
AcDbSymbolTableRecord
100
AcDbLinetypeTableRecord
  2
ByBlock
 70
     0
  3

 72
    65
 73
     0
 40
0.0
  0
LTYPE
  5
15
330
5
100
AcDbSymbolTableRecord
100
AcDbLinetypeTableRecord
  2
ByLayer
 70
     0
  3

 72
    65
 73
     0
 40
0.0
  0
LTYPE
  5
16
330
5
100
AcDbSymbolTableRecord
100
AcDbLinetypeTableRecord
  2
Continuous
 70
     0
  3
Solid line
 72
    65
 73
     0
 40
0.0
  0
LTYPE
  5
6E
330
5
100
AcDbSymbolTableRecord
100
AcDbLinetypeTableRecord
  2
HIDDEN
 70
     0
  3
Hidden __ __ __ __ __ __ __ __ __ __ __ __ __ __
 72
    65
 73
     2
 40
0.075
 49
0.05
 74
     0
 49
-0.025
 74
     0
  0
LTYPE
  5
6F
330
5
100
AcDbSymbolTableRecord
100
AcDbLinetypeTableRecord
  2
PHANTOM
 70
     0
  3
Phantom ______  __  __  ______  __  __  ______
 72
    65
 73
     6
 40
0.5
 49
0.25
 74
     0
 49
-0.05
 74
     0
 49
0.05
 74
     0
 49
-0.05
 74
     0
 49
0.05
 74
     0
 49
-0.05
 74
     0
  0
LTYPE
  5
70
330
5
100
AcDbSymbolTableRecord
100
AcDbLinetypeTableRecord
  2
CENTER
 70
     0
  3
Center ____ _ ____ _ ____ _ ____ _ ____ _ ____
 72
    65
 73
     4
 40
0.4
 49
0.25
 74
     0
 49
-0.05
 74
     0
 49
0.05
 74
     0
 49
-0.05
 74
     0
  0
LTYPE
  5
71
330
5
100
AcDbSymbolTableRecord
100
AcDbLinetypeTableRecord
  2
CENTERX2
 70
     0
  3
Center (2x) ________  __  ________  __  _____
 72
    65
 73
     4
 40
0.8
 49
0.5
 74
     0
 49
-0.1
 74
     0
 49
0.1
 74
     0
 49
-0.1
 74
     0
  0
LTYPE
  5
72
330
5
100
AcDbSymbolTableRecord
100
AcDbLinetypeTableRecord
  2
DOT2
 70
     0
  3
Dot (.5x) ........................................
 72
    65
 73
     2
 40
0.025
 49
0.0
 74
     0
 49
-0.025
 74
     0
  0
ENDTAB
  0
TABLE
  2
LAYER
  5
2
330
0
100
AcDbSymbolTable
 70
     2
  0
LAYER
  5
10
330
2
100
AcDbSymbolTableRecord
100
AcDbLayerTableRecord
  2
0
 70
     0
 62
     7
  6
Continuous
370
    -3
390
F
  0
LAYER
  5
73
330
2
100
AcDbSymbolTableRecord
100
AcDbLayerTableRecord
  2
FORMAT
 70
     0
 62
     7
  6
Continuous
370
    -3
390
F
  0
ENDTAB
  0
TABLE
  2
STYLE
  5
3
330
0
100
AcDbSymbolTable
 70
     4
  0
STYLE
  5
11
330
3
100
AcDbSymbolTableRecord
100
AcDbTextStyleTableRecord
  2
Standard
 70
     0
 40
0.0
 41
1.0
 50
0.0
 71
     0
 42
0.1111111111
  3
txt
  4

  0
STYLE
  5
9D
330
3
100
AcDbSymbolTableRecord
100
AcDbTextStyleTableRecord
  2
SLDTEXTSTYLE0
 70
     0
 40
0.0
 41
0.75
 50
0.0
 71
     0
 42
0.1111111111
  3
TXT
  4

  0
STYLE
  5
A0
330
3
100
AcDbSymbolTableRecord
100
AcDbTextStyleTableRecord
  2
SLDTEXTSTYLE1
 70
     0
 40
0.0
 41
0.7
 50
0.0
 71
     0
 42
0.1111111111
  3
TXT
  4

  0
STYLE
  5
B1
330
3
100
AcDbSymbolTableRecord
100
AcDbTextStyleTableRecord
  2
SLDTEXTSTYLE2
 70
     0
 40
0.0
 41
0.6
 50
0.0
 71
     0
 42
0.1111111111
  3
TXT
  4

  0
ENDTAB
  0
TABLE
  2
VIEW
  5
6
330
0
100
AcDbSymbolTable
 70
     0
  0
ENDTAB
  0
TABLE
  2
UCS
  5
7
330
0
100
AcDbSymbolTable
 70
     0
  0
ENDTAB
  0
TABLE
  2
APPID
  5
9
330
0
100
AcDbSymbolTable
 70
     1
  0
APPID
  5
12
330
9
100
AcDbSymbolTableRecord
100
AcDbRegAppTableRecord
  2
ACAD
 70
     0
  0
ENDTAB
  0
TABLE
  2
DIMSTYLE
  5
A
330
0
100
AcDbSymbolTable
 70
     6
100
AcDbDimStyleTable
  0
DIMSTYLE
105
27
330
A
100
AcDbSymbolTableRecord
100
AcDbDimStyleTableRecord
  2
Standard
 70
     0
178
     0
340
11
  0
DIMSTYLE
105
DD
102
{ACAD_REACTORS
330
DC
330
F1
102
}
330
A
100
AcDbSymbolTableRecord
100
AcDbDimStyleTableRecord
  2
SLDDIMSTYLE0
 70
     0
 41
0.125
 44
0.0
 45
0.000000001
 78
     4
 79
     1
140
0.0833333333
147
0.0208333333
148
0.000000001
170
     1
171
     1
173
     1
178
     0
271
     2
272
     2
274
     1
276
     2
284
    12
340
9D
  0
DIMSTYLE
105
106
102
{ACAD_REACTORS
330
105
102
}
330
A
100
AcDbSymbolTableRecord
100
AcDbDimStyleTableRecord
  2
SLDDIMSTYLE1
 70
     0
 41
0.125
 44
0.0
 45
0.000000001
 78
     8
 79
     2
140
0.0833333333
147
0.0208333333
148
0.000000001
170
     1
171
     1
173
     1
178
     0
271
     2
272
     2
274
     1
276
     2
284
    12
340
9D
  0
DIMSTYLE
105
11B
330
A
100
AcDbSymbolTableRecord
100
AcDbDimStyleTableRecord
  2
SLDDIMSTYLE2
 70
     0
 41
0.04
 44
0.0
 45
0.000000001
146
0.04
147
0.0
173
     1
178
     0
271
     0
272
     0
276
     2
340
11
341
11C
343
11C
344
11C
  0
DIMSTYLE
105
139
102
{ACAD_REACTORS
330
138
102
}
330
A
100
AcDbSymbolTableRecord
100
AcDbDimStyleTableRecord
  2
SLDDIMSTYLE3
 70
     0
 41
0.125
 44
0.0
 78
    12
 79
     3
140
0.0833333333
147
0.0208333333
148
0.000000001
170
     1
171
     1
173
     1
178
     0
272
     0
274
     1
276
     2
284
    12
340
9D
  0
DIMSTYLE
105
145
102
{ACAD_REACTORS
330
144
102
}
330
A
100
AcDbSymbolTableRecord
100
AcDbDimStyleTableRecord
  2
SLDDIMSTYLE4
 70
     0
 41
0.125
 44
0.0
 45
0.000000001
 78
     8
 79
     2
140
0.0833333333
147
0.0208333333
148
0.000000001
170
     1
171
     1
172
     1
173
     1
178
     0
271
     2
272
     2
274
     1
276
     2
284
    12
289
     0
340
9D
  0
ENDTAB
  0
TABLE
  2
BLOCK_RECORD
  5
1
330
0
100
AcDbSymbolTable
 70
    13
  0
BLOCK_RECORD
  5
1F
330
1
100
AcDbSymbolTableRecord
100
AcDbBlockTableRecord
  2
*Model_Space
340
22
  0
BLOCK_RECORD
  5
1B
330
1
100
AcDbSymbolTableRecord
100
AcDbBlockTableRecord
  2
*Paper_Space
340
1E
  0
BLOCK_RECORD
  5
23
330
1
100
AcDbSymbolTableRecord
100
AcDbBlockTableRecord
  2
*Paper_Space0
340
26
  0
BLOCK_RECORD
  5
74
330
1
100
AcDbSymbolTableRecord
100
AcDbBlockTableRecord
  2
Third Angle Projection Block
340
0
102
{BLKREFS
331
99
102
}
  0
BLOCK_RECORD
  5
9A
330
1
100
AcDbSymbolTableRecord
100
AcDbBlockTableRecord
  2
SW_NOTE_0
340
0
102
{BLKREFS
331
A7
102
}
  0
BLOCK_RECORD
  5
B7
330
1
100
AcDbSymbolTableRecord
100
AcDbBlockTableRecord
  2
SW_NOTE_1
340
0
102
{BLKREFS
331
BC
102
}
  0
BLOCK_RECORD
  5
BD
330
1
100
AcDbSymbolTableRecord
100
AcDbBlockTableRecord
  2
SW_NOTE_2
340
0
102
{BLKREFS
331
C2
102
}
  0
BLOCK_RECORD
  5
C4
330
1
100
AcDbSymbolTableRecord
100
AcDbBlockTableRecord
  2
SW_NOTE_3
340
0
102
{BLKREFS
331
C9
102
}
  0
BLOCK_RECORD
  5
DE
330
1
100
AcDbSymbolTableRecord
100
AcDbBlockTableRecord
  2
_D
340
0
  0
BLOCK_RECORD
  5
F2
330
1
100
AcDbSymbolTableRecord
100
AcDbBlockTableRecord
  2
_D_1
340
0
  0
BLOCK_RECORD
  5
107
330
1
100
AcDbSymbolTableRecord
100
AcDbBlockTableRecord
  2
_D_2
340
0
  0
BLOCK_RECORD
  5
11C
330
1
100
AcDbSymbolTableRecord
100
AcDbBlockTableRecord
  2
_DOT
340
0
  0
BLOCK_RECORD
  5
125
330
1
100
AcDbSymbolTableRecord
100
AcDbBlockTableRecord
  2
SW_CENTERMARKSYMBOL_0
340
0
102
{BLKREFS
331
12C
102
}
  0
BLOCK_RECORD
  5
13A
330
1
100
AcDbSymbolTableRecord
100
AcDbBlockTableRecord
  2
_D_3
340
0
  0
BLOCK_RECORD
  5
146
330
1
100
AcDbSymbolTableRecord
100
AcDbBlockTableRecord
  2
_D_4
340
0
  0
ENDTAB
  0
ENDSEC
  0
SECTION
  2
BLOCKS
  0
BLOCK
  5
20
330
1F
100
AcDbEntity
  8
0
100
AcDbBlockBegin
  2
*Model_Space
 70
     0
 10
0.0
 20
0.0
 30
0.0
  3
*Model_Space
  1

  0
ENDBLK
  5
21
330
1F
100
AcDbEntity
  8
0
100
AcDbBlockEnd
  0
BLOCK
  5
1C
330
1B
100
AcDbEntity
 67
     1
  8
0
100
AcDbBlockBegin
  2
*Paper_Space
 70
     0
 10
0.0
 20
0.0
 30
0.0
  3
*Paper_Space
  1

  0
ENDBLK
  5
1D
330
1B
100
AcDbEntity
 67
     1
  8
0
100
AcDbBlockEnd
  0
BLOCK
  5
24
330
23
100
AcDbEntity
  8
0
100
AcDbBlockBegin
  2
*Paper_Space0
 70
     0
 10
0.0
 20
0.0
 30
0.0
  3
*Paper_Space0
  1

  0
ENDBLK
  5
25
330
23
100
AcDbEntity
  8
0
100
AcDbBlockEnd
  0
BLOCK
  5
75
330
74
100
AcDbEntity
  8
0
100
AcDbBlockBegin
  2
Third Angle Projection Block
 70
     0
 10
0.0
 20
0.0
 30
0.0
  3
Third Angle Projection Block
  1

  0
CIRCLE
  5
77
330
74
100
AcDbEntity
  8
0
  6
Continuous
 62
     7
370
    35
100
AcDbCircle
 10
3.9951432636
 20
0.7456853688
 30
0.0
 40
0.0696152422706639
  0
CIRCLE
  5
78
330
74
100
AcDbEntity
  8
0
  6
Continuous
 62
     7
370
    35
100
AcDbCircle
 10
3.9951432636
 20
0.7456853688
 30
0.0
 40
0.1535916633280245
  0
LINE
  5
79
330
74
100
AcDbEntity
  8
0
  6
CENTERX2
 62
     7
370
    18
100
AcDbLine
 10
4.3360937897
 20
0.7456853688
 30
0.0
 11
4.7028635231
 21
0.7456853688
 31
0.0
  0
LINE
  5
7A
330
74
100
AcDbEntity
  8
0
  6
Continuous
 62
     7
370
    35
100
AcDbLine
 10
4.3701432636
 20
0.815300611
 30
0.0
 11
4.3701432636
 21
0.6760701265
 31
0.0
  0
LINE
  5
7B
330
74
100
AcDbEntity
  8
0
  6
Continuous
 62
     7
370
    35
100
AcDbLine
 10
4.3701432636
 20
0.6760701265
 30
0.0
 11
4.6701432636
 21
0.5956853688
 31
0.0
  0
LINE
  5
7C
330
74
100
AcDbEntity
  8
0
  6
Continuous
 62
     7
370
    35
100
AcDbLine
 10
4.6701432636
 20
0.5956853688
 30
0.0
 11
4.6701432636
 21
0.8956853688
 31
0.0
  0
LINE
  5
7D
330
74
100
AcDbEntity
  8
0
  6
Continuous
 62
     7
370
    35
100
AcDbLine
 10
4.6701432636
 20
0.8956853688
 30
0.0
 11
4.3701432636
 21
0.815300611
 31
0.0
  0
LINE
  5
7E
330
74
100
AcDbEntity
  8
0
  6
CENTERX2
 62
     7
370
    18
100
AcDbLine
 10
3.8032513961
 20
0.7456853688
 30
0.0
 11
4.187035131
 21
0.7456853688
 31
0.0
  0
LINE
  5
7F
330
74
100
AcDbEntity
  8
0
  6
CENTERX2
 62
     7
370
    18
100
AcDbLine
 10
3.9951432636
 20
0.9375772362
 30
0.0
 11
3.9951432636
 21
0.5537935013
 31
0.0
  0
POINT
  5
80
330
74
100
AcDbEntity
  8
0
  6
Continuous
 62
     7
370
     0
100
AcDbPoint
 10
3.9951432636
 20
0.7456853688
 30
0.0
  0
ENDBLK
  5
76
330
74
100
AcDbEntity
  8
0
100
AcDbBlockEnd
  0
BLOCK
  5
9B
330
9A
100
AcDbEntity
  8
0
100
AcDbBlockBegin
  2
SW_NOTE_0
 70
     0
 10
0.0
 20
0.0
 30
0.0
  3
SW_NOTE_0
  1

  0
MTEXT
  5
9E
330
9A
100
AcDbEntity
  8
0
  6
Continuous
 62
     0
370
     0
100
AcDbMText
 10
0.0
 20
0.1074223116
 30
0.0
 40
0.0833333333
 41
0.0
 71
     1
 72
     1
  1
NOTES/SPECIFICATIONS:
  7
SLDTEXTSTYLE0
 73
     1
 44
1.0
  0
MTEXT
  5
9F
330
9A
100
AcDbEntity
  8
0
  6
Continuous
 62
     0
370
     0
100
AcDbMText
 10
0.0
 20
-0.0036887981
 30
0.0
 40
0.0833333333
 41
0.0
 71
     1
 72
     1
  1
1.  DESIGN WAVELENGTH: 633nm
  7
SLDTEXTSTYLE0
 73
     1
 44
1.0
  0
MTEXT
  5
A1
330
9A
100
AcDbEntity
  8
0
  6
Continuous
 62
     0
370
     0
100
AcDbMText
 10
0.0
 20
-0.1147999079
 30
0.0
 40
0.0833333333
 41
0.0
 71
     1
 72
     1
  1
2.  ACCEPTED BEAM SIZE: 5mm TO 10mm
  7
SLDTEXTSTYLE1
 73
     1
 44
1.0
  0
MTEXT
  5
A2
330
9A
100
AcDbEntity
  8
0
  6
Continuous
 62
     0
370
     0
100
AcDbMText
 10
0.0
 20
-0.2259110177
 30
0.0
 40
0.0833333333
 41
0.0
 71
     1
 72
     1
  1
3.  WEDGED FLAT:
  7
SLDTEXTSTYLE0
 73
     1
 44
1.0
  0
MTEXT
  5
A3
330
9A
100
AcDbEntity
  8
0
  6
Continuous
 62
     0
370
     0
100
AcDbMText
 10
0.3937007874
 20
-0.3370221274
 30
0.0
 40
0.0833333333
 41
0.0
 71
     1
 72
     1
  1
MATERIAL: UV GRADE FUSED SILICA
  7
SLDTEXTSTYLE0
 73
     1
 44
1.0
  0
MTEXT
  5
A4
330
9A
100
AcDbEntity
  8
0
  6
Continuous
 62
     0
370
     0
100
AcDbMText
 10
0.3937007874
 20
-0.4481332372
 30
0.0
 40
0.0833333333
 41
0.0
 71
     1
 72
     1
  1
WEDGE ANGLE(REF): 40arcsec
  7
SLDTEXTSTYLE0
 73
     1
 44
1.0
  0
MTEXT
  5
A5
330
9A
100
AcDbEntity
  8
0
  6
Continuous
 62
     0
370
     0
100
AcDbMText
 10
0.3937007874
 20
-0.559244347
 30
0.0
 40
0.0833333333
 41
0.0
 71
     1
 72
     1
  1
THICKNESS: 2.60mm +/-0.25mm
  7
SLDTEXTSTYLE0
 73
     1
 44
1.0
  0
MTEXT
  5
A6
330
9A
100
AcDbEntity
  8
0
  6
Continuous
 62
     0
370
     0
100
AcDbMText
 10
0.3937007874
 20
-0.6703554567
 30
0.0
 40
0.0833333333
 41
0.0
 71
     1
 72
     1
  1
SURFACE QUALITY: 40-20 SCRATCH-DIG
  7
SLDTEXTSTYLE0
 73
     1
 44
1.0
  0
ENDBLK
  5
9C
330
9A
100
AcDbEntity
  8
0
100
AcDbBlockEnd
  0
BLOCK
  5
B8
330
B7
100
AcDbEntity
  8
0
100
AcDbBlockBegin
  2
SW_NOTE_1
 70
     0
 10
0.0
 20
0.0
 30
0.0
  3
SW_NOTE_1
  1

  0
MTEXT
  5
BA
330
B7
100
AcDbEntity
  8
0
  6
Continuous
 62
     0
370
     0
100
AcDbMText
 10
0.78375
 20
0.0773440644
 30
0.0
 40
0.06
 41
0.0
 71
     2
 72
     1
  1
VALUES IN PARENTHESIS ARE CALCULATED
  7
SLDTEXTSTYLE0
 73
     1
 44
1.0
  0
MTEXT
  5
BB
330
B7
100
AcDbEntity
  8
0
  6
Continuous
 62
     0
370
     0
100
AcDbMText
 10
0.7825936818
 20
-0.0220260102
 30
0.0
 40
0.06
 41
0.0
 71
     2
 72
     1
  1
AND MAY CONTAIN ROUNDOFF ERRORS
  7
SLDTEXTSTYLE0
 73
     1
 44
1.0
  0
ENDBLK
  5
B9
330
B7
100
AcDbEntity
  8
0
100
AcDbBlockEnd
  0
BLOCK
  5
BE
330
BD
100
AcDbEntity
  8
0
100
AcDbBlockBegin
  2
SW_NOTE_2
 70
     0
 10
0.0
 20
0.0
 30
0.0
  3
SW_NOTE_2
  1

  0
MTEXT
  5
C0
330
BD
100
AcDbEntity
  8
0
  6
Continuous
 62
     0
370
     0
100
AcDbMText
 10
0.0
 20
0.1074223116
 30
0.0
 40
0.0833333333
 41
0.0
 71
     1
 72
     1
  1
DRAWING
  7
SLDTEXTSTYLE0
 73
     1
 44
1.0
  0
MTEXT
  5
C1
330
BD
100
AcDbEntity
  8
0
  6
Continuous
 62
     0
370
     0
100
AcDbMText
 10
0.0
 20
-0.0036887981
 30
0.0
 40
0.0833333333
 41
0.0
 71
     1
 72
     1
  1
PROJECTION
  7
SLDTEXTSTYLE0
 73
     1
 44
1.0
  0
ENDBLK
  5
BF
330
BD
100
AcDbEntity
  8
0
100
AcDbBlockEnd
  0
BLOCK
  5
C5
330
C4
100
AcDbEntity
  8
0
100
AcDbBlockBegin
  2
SW_NOTE_3
 70
     0
 10
0.0
 20
0.0
 30
0.0
  3
SW_NOTE_3
  1

  0
MTEXT
  5
C7
330
C4
100
AcDbEntity
  8
0
  6
Continuous
 62
     0
370
     0
100
AcDbMText
 10
0.986328125
 20
0.1611334675
 30
0.0
 40
0.125
 41
0.0
 71
     2
 72
     1
  1
FOR INFORMATION ONLY
  7
SLDTEXTSTYLE0
 73
     1
 44
1.0
  0
MTEXT
  5
C8
330
C4
100
AcDbEntity
  8
0
  6
Continuous
 62
     0
370
     0
100
AcDbMText
 10
0.999088459
 20
-0.0055331972
 30
0.0
 40
0.125
 41
0.0
 71
     2
 72
     1
  1
NOT FOR MANUFACTURING PURPOSES
  7
SLDTEXTSTYLE0
 73
     1
 44
1.0
  0
ENDBLK
  5
C6
330
C4
100
AcDbEntity
  8
0
100
AcDbBlockEnd
  0
BLOCK
  5
DF
330
DE
100
AcDbEntity
  8
0
100
AcDbBlockBegin
  2
_D
 70
     0
 10
0.0
 20
0.0
 30
0.0
  3
_D
  1

  0
SOLID
  5
E1
330
DE
100
AcDbEntity
  8
0
  6
Continuous
 62
     7
370
    18
100
AcDbTrace
 10
1.5090577519
 20
3.288343262
 30
0.0
 11
1.5290577519
 21
3.413343262
 31
0.0
 12
1.4890577519
 22
3.413343262
 32
0.0
 13
1.4890577519
 23
3.413343262
 33
0.0
  0
SOLID
  5
E2
330
DE
100
AcDbEntity
  8
0
  6
Continuous
 62
     7
370
    18
100
AcDbTrace
 10
1.5090577519
 20
5.288343262
 30
0.0
 11
1.4890577519
 21
5.163343262
 31
0.0
 12
1.5290577519
 22
5.163343262
 32
0.0
 13
1.5290577519
 23
5.163343262
 33
0.0
  0
LINE
  5
E3
330
DE
100
AcDbEntity
  8
0
  6
Continuous
 62
     7
370
    18
100
AcDbLine
 10
1.2971750187
 20
4.2883432528
 30
0.0
 11
1.2718277961
 21
4.2883432528
 31
0.0
  0
LINE
  5
E4
330
DE
100
AcDbEntity
  8
0
  6
Continuous
 62
     7
370
    18
100
AcDbLine
 10
1.2718277961
 20
4.2883432528
 30
0.0
 11
1.2718277961
 21
4.1559358482
 31
0.0
  0
LINE
  5
E5
330
DE
100
AcDbEntity
  8
0
  6
Continuous
 62
     7
370
    18
100
AcDbLine
 10
1.2718277961
 20
4.1559358482
 30
0.0
 11
1.2971750187
 21
4.1559358482
 31
0.0
  0
LINE
  5
E6
330
DE
100
AcDbEntity
  8
0
  6
Continuous
 62
     7
370
    18
100
AcDbLine
 10
1.7209404667
 20
4.2883432528
 30
0.0
 11
1.7462876893
 21
4.2883432528
 31
0.0
  0
LINE
  5
E7
330
DE
100
AcDbEntity
  8
0
  6
Continuous
 62
     7
370
    18
100
AcDbLine
 10
1.7462876893
 20
4.2883432528
 30
0.0
 11
1.7462876893
 21
4.1559358482
 31
0.0
  0
LINE
  5
E8
330
DE
100
AcDbEntity
  8
0
  6
Continuous
 62
     7
370
    18
100
AcDbLine
 10
1.7462876893
 20
4.1559358482
 30
0.0
 11
1.7209404667
 21
4.1559358482
 31
0.0
  0
LINE
  5
E9
330
DE
100
AcDbEntity
  8
0
  6
Continuous
 62
     7
370
    18
100
AcDbLine
 10
2.369526649
 20
3.288343262
 30
0.0
 11
1.4390577519
 21
3.288343262
 31
0.0
  0
LINE
  5
EA
330
DE
100
AcDbEntity
  8
0
  6
Continuous
 62
     7
370
    18
100
AcDbLine
 10
2.369526649
 20
5.288343262
 30
0.0
 11
1.4390577519
 21
5.288343262
 31
0.0
  0
LINE
  5
EB
330
DE
100
AcDbEntity
  8
0
  6
Continuous
 62
     7
370
    18
100
AcDbLine
 10
1.5090577519
 20
3.288343262
 30
0.0
 11
1.5090577519
 21
4.1390377151
 31
0.0
  0
LINE
  5
EC
330
DE
100
AcDbEntity
  8
0
  6
Continuous
 62
     7
370
    18
100
AcDbLine
 10
1.5090577519
 20
5.288343262
 30
0.0
 11
1.5090577519
 21
4.4376488088
 31
0.0
  0
MTEXT
  5
ED
330
DE
100
AcDbEntity
  8
0
  6
Continuous
 62
     7
370
    18
100
AcDbMText
 10
1.2475608214
 20
4.4126637113
 30
0.0
 40
0.0833333333
 41
0.0
 71
     1
 72
     1
  1

  7
SLDTEXTSTYLE0
 73
     1
 44
1.0
  0
MTEXT
  5
EE
330
DE
100
AcDbEntity
  8
0
  6
Continuous
 62
     7
370
    18
100
AcDbMText
 10
1.3563571125
 20
4.4126637113
 30
0.0
 40
0.0833333333
 41
0.0
 71
     1
 72
     1
  1
2.00in
  7
SLDTEXTSTYLE0
 73
     1
 44
1.0
  0
MTEXT
  5
EF
330
DE
100
AcDbEntity
  8
0
  6
Continuous
 62
     7
370
    18
100
AcDbMText
 10
1.2971750187
 20
4.2633581553
 30
0.0
 40
0.0833333333
 41
0.0
 71
     1
 72
     1
  1
50.8mm
  7
SLDTEXTSTYLE0
 73
     1
 44
1.0
  0
MTEXT
  5
F0
330
DE
100
AcDbEntity
  8
0
  6
Continuous
 62
     7
370
    18
100
AcDbMText
 10
1.8341349119
 20
4.4126637113
 30
0.0
 40
0.0833333333
 41
0.0
 71
     1
 72
     1
  1

  7
SLDTEXTSTYLE0
 73
     1
 44
1.0
  0
ENDBLK
  5
E0
330
DE
100
AcDbEntity
  8
0
100
AcDbBlockEnd
  0
BLOCK
  5
F3
330
F2
100
AcDbEntity
  8
0
100
AcDbBlockBegin
  2
_D_1
 70
     0
 10
0.0
 20
0.0
 30
0.0
  3
_D_1
  1

  0
SOLID
  5
F5
330
F2
100
AcDbEntity
  8
0
  6
Continuous
 62
     7
370
    18
100
AcDbTrace
 10
2.419526649
 20
2.9891240628
 30
0.0
 11
2.544526649
 21
2.9691240628
 31
0.0
 12
2.544526649
 22
3.0091240628
 32
0.0
 13
2.544526649
 23
3.0091240628
 33
0.0
  0
SOLID
  5
F6
330
F2
100
AcDbEntity
  8
0
  6
Continuous
 62
     7
370
    18
100
AcDbTrace
 10
4.319526649
 20
2.9891240628
 30
0.0
 11
4.194526649
 21
3.0091240628
 31
0.0
 12
4.194526649
 22
2.9691240628
 32
0.0
 13
4.194526649
 23
2.9691240628
 33
0.0
  0
LINE
  5
F7
330
F2
100
AcDbEntity
  8
0
  6
Continuous
 62
     7
370
    18
100
AcDbLine
 10
3.1576439158
 20
2.9891240536
 30
0.0
 11
3.1322966932
 21
2.9891240536
 31
0.0
  0
LINE
  5
F8
330
F2
100
AcDbEntity
  8
0
  6
Continuous
 62
     7
370
    18
100
AcDbLine
 10
3.1322966932
 20
2.9891240536
 30
0.0
 11
3.1322966932
 21
2.856716649
 31
0.0
  0
LINE
  5
F9
330
F2
100
AcDbEntity
  8
0
  6
Continuous
 62
     7
370
    18
100
AcDbLine
 10
3.1322966932
 20
2.856716649
 30
0.0
 11
3.1576439158
 21
2.856716649
 31
0.0
  0
LINE
  5
FA
330
F2
100
AcDbEntity
  8
0
  6
Continuous
 62
     7
370
    18
100
AcDbLine
 10
3.5814093638
 20
2.9891240536
 30
0.0
 11
3.6067565864
 21
2.9891240536
 31
0.0
  0
LINE
  5
FB
330
F2
100
AcDbEntity
  8
0
  6
Continuous
 62
     7
370
    18
100
AcDbLine
 10
3.6067565864
 20
2.9891240536
 30
0.0
 11
3.6067565864
 21
2.856716649
 31
0.0
  0
LINE
  5
FC
330
F2
100
AcDbEntity
  8
0
  6
Continuous
 62
     7
370
    18
100
AcDbLine
 10
3.6067565864
 20
2.856716649
 30
0.0
 11
3.5814093638
 21
2.856716649
 31
0.0
  0
LINE
  5
FD
330
F2
100
AcDbEntity
  8
0
  6
Continuous
 62
     7
370
    18
100
AcDbLine
 10
2.419526649
 20
3.238343262
 30
0.0
 11
2.419526649
 21
2.9191240628
 31
0.0
  0
LINE
  5
FE
330
F2
100
AcDbEntity
  8
0
  6
Continuous
 62
     7
370
    18
100
AcDbLine
 10
4.319526649
 20
3.238343262
 30
0.0
 11
4.319526649
 21
2.9191240628
 31
0.0
  0
LINE
  5
FF
330
F2
100
AcDbEntity
  8
0
  6
Continuous
 62
     7
370
    18
100
AcDbLine
 10
2.419526649
 20
2.9891240628
 30
0.0
 11
3.0286247386
 21
2.9891240628
 31
0.0
  0
LINE
  5
100
330
F2
100
AcDbEntity
  8
0
  6
Continuous
 62
     7
370
    18
100
AcDbLine
 10
4.319526649
 20
2.9891240628
 30
0.0
 11
3.7104285594
 21
2.9891240628
 31
0.0
  0
MTEXT
  5
101
330
F2
100
AcDbEntity
  8
0
  6
Continuous
 62
     7
370
    18
100
AcDbMText
 10
3.1080297185
 20
3.1134445121
 30
0.0
 40
0.0833333333
 41
0.0
 71
     1
 72
     1
  1

  7
SLDTEXTSTYLE0
 73
     1
 44
1.0
  0
MTEXT
  5
102
330
F2
100
AcDbEntity
  8
0
  6
Continuous
 62
     7
370
    18
100
AcDbMText
 10
3.2168260097
 20
3.1134445121
 30
0.0
 40
0.0833333333
 41
0.0
 71
     1
 72
     1
  1
1.90in
  7
SLDTEXTSTYLE0
 73
     1
 44
1.0
  0
MTEXT
  5
103
330
F2
100
AcDbEntity
  8
0
  6
Continuous
 62
     7
370
    18
100
AcDbMText
 10
3.1576439158
 20
2.9641389561
 30
0.0
 40
0.0833333333
 41
0.0
 71
     1
 72
     1
  1
48.3mm
  7
SLDTEXTSTYLE0
 73
     1
 44
1.0
  0
MTEXT
  5
104
330
F2
100
AcDbEntity
  8
0
  6
Continuous
 62
     7
370
    18
100
AcDbMText
 10
3.694603809
 20
3.1134445121
 30
0.0
 40
0.0833333333
 41
0.0
 71
     1
 72
     1
  1

  7
SLDTEXTSTYLE0
 73
     1
 44
1.0
  0
ENDBLK
  5
F4
330
F2
100
AcDbEntity
  8
0
100
AcDbBlockEnd
  0
BLOCK
  5
108
330
107
100
AcDbEntity
  8
0
100
AcDbBlockBegin
  2
_D_2
 70
     0
 10
0.0
 20
0.0
 30
0.0
  3
_D_2
  1

  0
SOLID
  5
10A
330
107
100
AcDbEntity
  8
0
  6
Continuous
 62
     7
370
    18
100
AcDbTrace
 10
2.0832640371
 20
3.288343262
 30
0.0
 11
2.1032640371
 21
3.413343262
 31
0.0
 12
2.0632640371
 22
3.413343262
 32
0.0
 13
2.0632640371
 23
3.413343262
 33
0.0
  0
SOLID
  5
10B
330
107
100
AcDbEntity
  8
0
  6
Continuous
 62
     7
370
    18
100
AcDbTrace
 10
2.0832640371
 20
4.149343262
 30
0.0
 11
2.0632640371
 21
4.024343262
 31
0.0
 12
2.1032640371
 22
4.024343262
 32
0.0
 13
2.1032640371
 23
4.024343262
 33
0.0
  0
LINE
  5
10C
330
107
100
AcDbEntity
  8
0
  6
Continuous
 62
     7
370
    18
100
AcDbLine
 10
1.8713813039
 20
3.7188432528
 30
0.0
 11
1.8460340813
 21
3.7188432528
 31
0.0
  0
LINE
  5
10D
330
107
100
AcDbEntity
  8
0
  6
Continuous
 62
     7
370
    18
100
AcDbLine
 10
1.8460340813
 20
3.7188432528
 30
0.0
 11
1.8460340813
 21
3.5864358482
 31
0.0
  0
LINE
  5
10E
330
107
100
AcDbEntity
  8
0
  6
Continuous
 62
     7
370
    18
100
AcDbLine
 10
1.8460340813
 20
3.5864358482
 30
0.0
 11
1.8713813039
 21
3.5864358482
 31
0.0
  0
LINE
  5
10F
330
107
100
AcDbEntity
  8
0
  6
Continuous
 62
     7
370
    18
100
AcDbLine
 10
2.2951467519
 20
3.7188432528
 30
0.0
 11
2.3204939745
 21
3.7188432528
 31
0.0
  0
LINE
  5
110
330
107
100
AcDbEntity
  8
0
  6
Continuous
 62
     7
370
    18
100
AcDbLine
 10
2.3204939745
 20
3.7188432528
 30
0.0
 11
2.3204939745
 21
3.5864358482
 31
0.0
  0
LINE
  5
111
330
107
100
AcDbEntity
  8
0
  6
Continuous
 62
     7
370
    18
100
AcDbLine
 10
2.3204939745
 20
3.5864358482
 30
0.0
 11
2.2951467519
 21
3.5864358482
 31
0.0
  0
LINE
  5
112
330
107
100
AcDbEntity
  8
0
  6
Continuous
 62
     7
370
    18
100
AcDbLine
 10
2.369526649
 20
3.288343262
 30
0.0
 11
2.0132640371
 21
3.288343262
 31
0.0
  0
LINE
  5
113
330
107
100
AcDbEntity
  8
0
  6
Continuous
 62
     7
370
    18
100
AcDbLine
 10
3.269526649
 20
4.149343262
 30
0.0
 11
2.0132640371
 21
4.149343262
 31
0.0
  0
LINE
  5
114
330
107
100
AcDbEntity
  8
0
  6
Continuous
 62
     7
370
    18
100
AcDbLine
 10
2.0832640371
 20
3.288343262
 30
0.0
 11
2.0832640371
 21
3.5695377151
 31
0.0
  0
LINE
  5
115
330
107
100
AcDbEntity
  8
0
  6
Continuous
 62
     7
370
    18
100
AcDbLine
 10
2.0832640371
 20
4.149343262
 30
0.0
 11
2.0832640371
 21
3.8681488088
 31
0.0
  0
MTEXT
  5
116
330
107
100
AcDbEntity
  8
0
  6
Continuous
 62
     7
370
    18
100
AcDbMText
 10
1.8217671066
 20
3.8431637113
 30
0.0
 40
0.0833333333
 41
0.0
 71
     1
 72
     1
  1

  7
SLDTEXTSTYLE0
 73
     1
 44
1.0
  0
MTEXT
  5
117
330
107
100
AcDbEntity
  8
0
  6
Continuous
 62
     7
370
    18
100
AcDbMText
 10
1.9305633977
 20
3.8431637113
 30
0.0
 40
0.0833333333
 41
0.0
 71
     1
 72
     1
  1
0.86in
  7
SLDTEXTSTYLE0
 73
     1
 44
1.0
  0
MTEXT
  5
118
330
107
100
AcDbEntity
  8
0
  6
Continuous
 62
     7
370
    18
100
AcDbMText
 10
1.8713813039
 20
3.6938581553
 30
0.0
 40
0.0833333333
 41
0.0
 71
     1
 72
     1
  1
21.9mm
  7
SLDTEXTSTYLE0
 73
     1
 44
1.0
  0
MTEXT
  5
119
330
107
100
AcDbEntity
  8
0
  6
Continuous
 62
     7
370
    18
100
AcDbMText
 10
2.4083411971
 20
3.8431637113
 30
0.0
 40
0.0833333333
 41
0.0
 71
     1
 72
     1
  1

  7
SLDTEXTSTYLE0
 73
     1
 44
1.0
  0
ENDBLK
  5
109
330
107
100
AcDbEntity
  8
0
100
AcDbBlockEnd
  0
BLOCK
  5
11D
330
11C
100
AcDbEntity
  8
0
100
AcDbBlockBegin
  2
_DOT
 70
     0
 10
0.0
 20
0.0
 30
0.0
  3
_DOT
  1

  0
POLYLINE
  5
11F
330
11C
100
AcDbEntity
  8
0
  6
ByBlock
 62
     0
100
AcDb2dPolyline
 66
     1
 10
0.0
 20
0.0
 30
0.0
 70
     1
 40
0.5
 41
0.5
  0
VERTEX
  5
121
330
11F
100
AcDbEntity
  8
0
  6
ByBlock
 62
     0
100
AcDbVertex
100
AcDb2dVertex
 10
-0.25
 20
0.0
 30
0.0
 42
1.0
  0
VERTEX
  5
122
330
11F
100
AcDbEntity
  8
0
  6
ByBlock
 62
     0
100
AcDbVertex
100
AcDb2dVertex
 10
0.25
 20
0.0
 30
0.0
 42
1.0
  0
SEQEND
  5
123
330
11F
100
AcDbEntity
  8
0
  6
ByBlock
 62
     0
  0
LINE
  5
120
330
11C
100
AcDbEntity
  8
0
  6
ByBlock
 62
     0
370
    -2
100
AcDbLine
 10
-0.5
 20
0.0
 30
0.0
 11
-1.0
 21
0.0
 31
0.0
  0
ENDBLK
  5
11E
330
11C
100
AcDbEntity
  8
0
100
AcDbBlockEnd
  0
BLOCK
  5
126
330
125
100
AcDbEntity
  8
0
100
AcDbBlockBegin
  2
SW_CENTERMARKSYMBOL_0
 70
     0
 10
0.0
 20
0.0
 30
0.0
  3
SW_CENTERMARKSYMBOL_0
  1

  0
LINE
  5
128
330
125
100
AcDbEntity
  8
0
  6
Continuous
 62
     0
370
     0
100
AcDbLine
 10
0.0
 20
0.0
 30
0.0
 11
0.0
 21
0.05
 31
0.0
  0
LINE
  5
129
330
125
100
AcDbEntity
  8
0
  6
Continuous
 62
     0
370
     0
100
AcDbLine
 10
0.0
 20
0.0
 30
0.0
 11
-0.05
 21
0.0
 31
0.0
  0
LINE
  5
12A
330
125
100
AcDbEntity
  8
0
  6
Continuous
 62
     0
370
     0
100
AcDbLine
 10
0.0
 20
0.0
 30
0.0
 11
0.0
 21
-0.05
 31
0.0
  0
LINE
  5
12B
330
125
100
AcDbEntity
  8
0
  6
Continuous
 62
     0
370
     0
100
AcDbLine
 10
0.0
 20
0.0
 30
0.0
 11
0.05
 21
0.0
 31
0.0
  0
ENDBLK
  5
127
330
125
100
AcDbEntity
  8
0
100
AcDbBlockEnd
  0
BLOCK
  5
13B
330
13A
100
AcDbEntity
  8
0
100
AcDbBlockBegin
  2
_D_3
 70
     0
 10
0.0
 20
0.0
 30
0.0
  3
_D_3
  1

  0
ARC
  5
13D
330
13A
100
AcDbEntity
  8
0
  6
Continuous
 62
     7
370
    18
100
AcDbCircle
 10
7.4158879962
 20
5.160343262
 30
0.0
 40
0.6510269096609003
100
AcDbArc
 50
90.0
 51
104.7125258565
  0
ARC
  5
13E
330
13A
100
AcDbEntity
  8
0
  6
Continuous
 62
     7
370
    18
100
AcDbCircle
 10
7.4158879962
 20
5.160343262
 30
0.0
 40
0.6510269096608999
100
AcDbArc
 50
120.7569590657
 51
135.0
  0
SOLID
  5
13F
330
13A
100
AcDbEntity
  8
0
  6
Continuous
 62
     7
370
    18
100
AcDbTrace
 10
7.4158879962
 20
5.8113701716
 30
0.0
 11
7.2895557177
 21
5.8194420618
 31
0.0
 12
7.2933439469
 22
5.7796218494
 32
0.0
 13
7.2933439469
 23
5.7796218494
 33
0.0
  0
SOLID
  5
140
330
13A
100
AcDbEntity
  8
0
  6
Continuous
 62
     7
370
    18
100
AcDbTrace
 10
6.9555424537
 20
5.6206888045
 30
0.0
 11
7.0646436359
 21
5.6848910789
 31
0.0
 12
7.0391651762
 22
5.7157269036
 32
0.0
 13
7.0391651762
 23
5.7157269036
 33
0.0
  0
LINE
  5
141
330
13A
100
AcDbEntity
  8
0
  6
Continuous
 62
     7
370
    18
100
AcDbLine
 10
7.4158879962
 20
5.210343262
 30
0.0
 11
7.4158879962
 21
5.8813701716
 31
0.0
  0
LINE
  5
142
330
13A
100
AcDbEntity
  8
0
  6
Continuous
 62
     7
370
    18
100
AcDbLine
 10
7.2525326572
 20
5.323698601
 30
0.0
 11
6.906044979
 21
5.6701862792
 31
0.0
  0
MTEXT
  5
143
330
13A
100
AcDbEntity
  8
0
  6
Continuous
 62
     7
370
    18
100
AcDbMText
 10
7.0829544852
 20
5.8030323037
 30
0.0
 40
0.0833333333
 41
0.0
 71
     1
 72
     1
  1
45°
  7
SLDTEXTSTYLE0
 73
     1
 44
1.0
  0
ENDBLK
  5
13C
330
13A
100
AcDbEntity
  8
0
100
AcDbBlockEnd
  0
BLOCK
  5
147
330
146
100
AcDbEntity
  8
0
100
AcDbBlockBegin
  2
_D_4
 70
     0
 10
0.0
 20
0.0
 30
0.0
  3
_D_4
  1

  0
SOLID
  5
149
330
146
100
AcDbEntity
  8
0
  6
Continuous
 62
     7
370
    18
100
AcDbTrace
 10
7.4158879962
 20
3.1036276416
 30
0.0
 11
7.5408879962
 21
3.0836276416
 31
0.0
 12
7.5408879962
 22
3.1236276416
 32
0.0
 13
7.5408879962
 23
3.1236276416
 33
0.0
  0
SOLID
  5
14A
330
146
100
AcDbEntity
  8
0
  6
Continuous
 62
     7
370
    18
100
AcDbTrace
 10
7.2878879962
 20
3.1036276416
 30
0.0
 11
7.1628879962
 21
3.1236276416
 31
0.0
 12
7.1628879962
 22
3.0836276416
 32
0.0
 13
7.1628879962
 23
3.0836276416
 33
0.0
  0
LINE
  5
14B
330
146
100
AcDbEntity
  8
0
  6
Continuous
 62
     7
370
    18
100
AcDbLine
 10
6.4643253735
 20
3.1036276324
 30
0.0
 11
6.4389781509
 21
3.1036276324
 31
0.0
  0
LINE
  5
14C
330
146
100
AcDbEntity
  8
0
  6
Continuous
 62
     7
370
    18
100
AcDbLine
 10
6.4389781509
 20
3.1036276324
 30
0.0
 11
6.4389781509
 21
2.9712202278
 31
0.0
  0
LINE
  5
14D
330
146
100
AcDbEntity
  8
0
  6
Continuous
 62
     7
370
    18
100
AcDbLine
 10
6.4389781509
 20
2.9712202278
 30
0.0
 11
6.4643253735
 21
2.9712202278
 31
0.0
  0
LINE
  5
14E
330
146
100
AcDbEntity
  8
0
  6
Continuous
 62
     7
370
    18
100
AcDbLine
 10
6.8265167228
 20
3.1036276324
 30
0.0
 11
6.8518639454
 21
3.1036276324
 31
0.0
  0
LINE
  5
14F
330
146
100
AcDbEntity
  8
0
  6
Continuous
 62
     7
370
    18
100
AcDbLine
 10
6.8518639454
 20
3.1036276324
 30
0.0
 11
6.8518639454
 21
2.9712202278
 31
0.0
  0
LINE
  5
150
330
146
100
AcDbEntity
  8
0
  6
Continuous
 62
     7
370
    18
100
AcDbLine
 10
6.8518639454
 20
2.9712202278
 30
0.0
 11
6.8265167228
 21
2.9712202278
 31
0.0
  0
LINE
  5
151
330
146
100
AcDbEntity
  8
0
  6
Continuous
 62
     7
370
    18
100
AcDbLine
 10
7.4158879962
 20
3.238343262
 30
0.0
 11
7.4158879962
 21
3.0336276416
 31
0.0
  0
LINE
  5
152
330
146
100
AcDbEntity
  8
0
  6
Continuous
 62
     7
370
    18
100
AcDbLine
 10
7.2878879962
 20
3.238343262
 30
0.0
 11
7.2878879962
 21
3.0336276416
 31
0.0
  0
LINE
  5
153
330
146
100
AcDbEntity
  8
0
  6
Continuous
 62
     7
370
    18
100
AcDbLine
 10
7.4158879962
 20
3.1036276416
 30
0.0
 11
7.6658879962
 21
3.1036276416
 31
0.0
  0
LINE
  5
154
330
146
100
AcDbEntity
  8
0
  6
Continuous
 62
     7
370
    18
100
AcDbLine
 10
7.2878879962
 20
3.1036276416
 30
0.0
 11
6.9555358817
 21
3.1036276416
 31
0.0
  0
MTEXT
  5
155
330
146
100
AcDbEntity
  8
0
  6
Continuous
 62
     7
370
    18
100
AcDbMText
 10
6.4147111762
 20
3.2279480909
 30
0.0
 40
0.0833333333
 41
0.0
 71
     1
 72
     1
  1

  7
SLDTEXTSTYLE0
 73
     1
 44
1.0
  0
MTEXT
  5
156
330
146
100
AcDbEntity
  8
0
  6
Continuous
 62
     7
370
    18
100
AcDbMText
 10
6.492720418
 20
3.2279480909
 30
0.0
 40
0.0833333333
 41
0.0
 71
     1
 72
     1
  1
0.13in
  7
SLDTEXTSTYLE0
 73
     1
 44
1.0
  0
MTEXT
  5
157
330
146
100
AcDbEntity
  8
0
  6
Continuous
 62
     7
370
    18
100
AcDbMText
 10
6.4643253735
 20
3.0786425349
 30
0.0
 40
0.0833333333
 41
0.0
 71
     1
 72
     1
  1
3.3mm
  7
SLDTEXTSTYLE0
 73
     1
 44
1.0
  0
MTEXT
  5
158
330
146
100
AcDbEntity
  8
0
  6
Continuous
 62
     7
370
    18
100
AcDbMText
 10
6.9397111313
 20
3.2279480909
 30
0.0
 40
0.0833333333
 41
0.0
 71
     1
 72
     1
  1

  7
SLDTEXTSTYLE0
 73
     1
 44
1.0
  0
ENDBLK
  5
148
330
146
100
AcDbEntity
  8
0
100
AcDbBlockEnd
  0
ENDSEC
  0
SECTION
  2
ENTITIES
  0
LINE
  5
81
330
1F
100
AcDbEntity
  8
0
  6
Continuous
 62
     7
370
    18
100
AcDbLine
 10
0.0621791378
 20
8.4506055117
 30
0.0
 11
10.9444569626
 21
8.4506055117
 31
0.0
  0
LINE
  5
82
330
1F
100
AcDbEntity
  8
0
  6
Continuous
 62
     7
370
    18
100
AcDbLine
 10
0.0621791378
 20
8.4506055117
 30
0.0
 11
0.0621791378
 21
0.035557648
 31
0.0
  0
LINE
  5
83
330
1F
100
AcDbEntity
  8
0
  6
Continuous
 62
     7
370
    18
100
AcDbLine
 10
10.9444569626
 20
0.035557648
 30
0.0
 11
0.0621791378
 21
0.035557648
 31
0.0
  0
LINE
  5
84
330
1F
100
AcDbEntity
  8
0
  6
Continuous
 62
     7
370
    18
100
AcDbLine
 10
10.9444569626
 20
0.035557648
 30
0.0
 11
10.9444569626
 21
8.4506055117
 31
0.0
  0
LINE
  5
85
330
1F
100
AcDbEntity
  8
0
  6
Continuous
 62
     7
370
    18
100
AcDbLine
 10
8.4938096065
 20
0.4840901186
 30
0.0
 11
6.7571952625
 21
0.4840901186
 31
0.0
  0
LINE
  5
86
330
1F
100
AcDbEntity
  8
0
  6
Continuous
 62
     7
370
    18
100
AcDbLine
 10
6.7571952625
 20
0.4840901186
 30
0.0
 11
6.7571952625
 21
1.030163002
 31
0.0
  0
LINE
  5
87
330
1F
100
AcDbEntity
  8
0
  6
Continuous
 62
     7
370
    18
100
AcDbLine
 10
6.7571952625
 20
0.035557648
 30
0.0
 11
6.7571952625
 21
1.030163002
 31
0.0
  0
LINE
  5
88
330
1F
100
AcDbEntity
  8
0
  6
Continuous
 62
     7
370
    18
100
AcDbLine
 10
8.4938096065
 20
0.6756085809
 30
0.0
 11
10.9444569626
 21
0.6756085809
 31
0.0
  0
LINE
  5
89
330
1F
100
AcDbEntity
  8
0
  6
Continuous
 62
     7
370
    18
100
AcDbLine
 10
8.4938096065
 20
1.3873799542
 30
0.0
 11
8.4938096065
 21
0.035557648
 31
0.0
  0
LINE
  5
8A
330
1F
100
AcDbEntity
  8
0
  6
Continuous
 62
     7
370
    18
100
AcDbLine
 10
8.4938096065
 20
1.030163002
 30
0.0
 11
6.7571952625
 21
1.030163002
 31
0.0
  0
LINE
  5
8B
330
1F
100
AcDbEntity
  8
0
  6
Continuous
 62
     7
370
    18
100
AcDbLine
 10
8.4938096065
 20
0.3598787426
 30
0.0
 11
10.9444569626
 21
0.3598787426
 31
0.0
  0
LINE
  5
8C
330
1F
100
AcDbEntity
  8
0
  6
Continuous
 62
     7
370
    18
100
AcDbLine
 10
8.4938096065
 20
0.6662079686
 30
0.0
 11
6.7571952625
 21
0.6662079686
 31
0.0
  0
LINE
  5
8D
330
1F
100
AcDbEntity
  8
0
  6
Continuous
 62
     7
370
    18
100
AcDbLine
 10
8.4938096065
 20
0.8459606517
 30
0.0
 11
6.7571952625
 21
0.8459606517
 31
0.0
  0
LINE
  5
8E
330
1F
100
AcDbEntity
  8
0
  6
Continuous
 62
     7
370
    18
100
AcDbLine
 10
7.3281027587
 20
1.030163002
 30
0.0
 11
7.3281027587
 21
0.4840901186
 31
0.0
  0
LINE
  5
8F
330
1F
100
AcDbEntity
  8
0
  6
Continuous
 62
     7
370
    18
100
AcDbLine
 10
7.8037240401
 20
1.030163002
 30
0.0
 11
7.8037240401
 21
0.4840901186
 31
0.0
  0
LINE
  5
90
330
1F
100
AcDbEntity
  8
0
  6
Continuous
 62
     7
370
    18
100
AcDbLine
 10
9.990119718
 20
0.3598787426
 30
0.0
 11
9.990119718
 21
0.035557648
 31
0.0
  0
LINE
  5
91
330
1F
100
AcDbEntity
  8
0
  6
Continuous
 62
     7
370
    18
100
AcDbLine
 10
6.7571952625
 20
0.4840901186
 30
0.0
 11
6.7571952625
 21
0.297745443
 31
0.0
  0
LINE
  5
92
330
1F
100
AcDbEntity
  8
0
  6
Continuous
 62
     7
370
    18
100
AcDbLine
 10
6.7571952625
 20
0.297745443
 30
0.0
 11
8.4938096065
 21
0.297745443
 31
0.0
  0
LINE
  5
93
330
1F
100
AcDbEntity
  8
0
  6
Continuous
 62
     7
370
    18
100
AcDbLine
 10
6.7571952625
 20
0.297745443
 30
0.0
 11
6.7571952625
 21
1.3873799542
 31
0.0
  0
LINE
  5
94
330
1F
100
AcDbEntity
  8
0
  6
Continuous
 62
     7
370
    18
100
AcDbLine
 10
6.7571952625
 20
1.3873799542
 30
0.0
 11
8.4938096065
 21
1.3873799542
 31
0.0
  0
LINE
  5
95
330
1F
100
AcDbEntity
  8
0
  6
Continuous
 62
     7
370
    18
100
AcDbLine
 10
10.6365495992
 20
0.6756085809
 30
0.0
 11
10.6365495992
 21
0.3598787426
 31
0.0
  0
LINE
  5
96
330
1F
100
AcDbEntity
  8
0
  6
Continuous
 62
     7
370
    18
100
AcDbLine
 10
8.4938096065
 20
1.3873799542
 30
0.0
 11
10.9444569626
 21
1.3873799542
 31
0.0
  0
LINE
  5
97
330
1F
100
AcDbEntity
  8
0
  6
Continuous
 62
     7
370
    18
100
AcDbLine
 10
10.9444569626
 20
1.3873799542
 30
0.0
 11
10.9444569626
 21
1.9698084888
 31
0.0
  0
LINE
  5
98
330
1F
100
AcDbEntity
  8
0
  6
Continuous
 62
     7
370
    18
100
AcDbLine
 10
8.4938096065
 20
0.9800288797
 30
0.0
 11
10.9444569626
 21
0.9800288797
 31
0.0
  0
INSERT
  5
99
330
1F
100
AcDbEntity
  8
0
  6
Continuous
 62
     7
100
AcDbBlockReference
  2
Third Angle Projection Block
 10
4.6348905679
 20
0.6108753523
 30
0.0
 41
0.8
 42
0.8
 43
0.8
  0
INSERT
  5
A7
330
1F
100
AcDbEntity
  8
0
  6
Continuous
 62
     7
370
     0
100
AcDbBlockReference
  2
SW_NOTE_0
 10
0.1604253308
 20
1.4717527798
 30
0.0
  0
MTEXT
  5
A8
330
1F
100
AcDbEntity
  8
0
  6
Continuous
 62
     7
370
     0
100
AcDbMText
 10
10.7821154289
 20
0.5162413101
 30
0.0
 40
0.125
 41
0.0
 71
     2
 72
     1
  1
D
  7
SLDTEXTSTYLE0
 73
     1
 44
1.0
  0
MTEXT
  5
A9
330
1F
100
AcDbEntity
  8
0
  6
Continuous
 62
     7
370
     0
100
AcDbMText
 10
9.2452432678
 20
0.2019943461
 30
0.0
 40
0.125
 41
0.0
 71
     2
 72
     1
  1
SI100P
  7
SLDTEXTSTYLE0
 73
     1
 44
1.0
  0
MTEXT
  5
AA
330
1F
100
AcDbEntity
  8
0
  6
Continuous
 62
     7
370
     0
100
AcDbMText
 10
8.5204715199
 20
0.6623747189
 30
0.0
 40
0.0833333333
 41
0.0
 71
     1
 72
     1
  1
MATERIAL
  7
SLDTEXTSTYLE0
 73
     1
 44
1.0
  0
MTEXT
  5
AB
330
1F
100
AcDbEntity
  8
0
  6
Continuous
 62
     7
370
     0
100
AcDbMText
 10
6.8594860853
 20
0.7895493672
 30
0.0
 40
0.0729166667
 41
0.0
 71
     1
 72
     1
  1
DRAWN
  7
SLDTEXTSTYLE0
 73
     1
 44
1.0
  0
MTEXT
  5
AC
330
1F
100
AcDbEntity
  8
0
  6
Continuous
 62
     7
370
     0
100
AcDbMText
 10
6.7872445848
 20
0.613335314
 30
0.0
 40
0.0729166667
 41
0.0
 71
     1
 72
     1
  1
APPROVAL
  7
SLDTEXTSTYLE0
 73
     1
 44
1.0
  0
MTEXT
  5
AD
330
1F
100
AcDbEntity
  8
0
  6
Continuous
 62
     7
370
     0
100
AcDbMText
 10
10.681956279
 20
0.6308568984
 30
0.0
 40
0.0833333333
 41
0.0
 71
     1
 72
     1
  1
REV
  7
SLDTEXTSTYLE0
 73
     1
 44
1.0
  0
MTEXT
  5
AE
330
1F
100
AcDbEntity
  8
0
  6
Continuous
 62
     7
370
     0
100
AcDbMText
 10
7.4919633718
 20
0.7999100272
 30
0.0
 40
0.0833333333
 41
0.0
 71
     1
 72
     1
  1
DT
  7
SLDTEXTSTYLE0
 73
     1
 44
1.0
  0
MTEXT
  5
AF
330
1F
100
AcDbEntity
  8
0
  6
Continuous
 62
     7
370
     0
100
AcDbMText
 10
7.8687497515
 20
0.7999100272
 30
0.0
 40
0.0833333333
 41
0.0
 71
     1
 72
     1
  1
21/JAN/19
  7
SLDTEXTSTYLE0
 73
     1
 44
1.0
  0
MTEXT
  5
B0
330
1F
100
AcDbEntity
  8
0
  6
Continuous
 62
     7
370
     0
100
AcDbMText
 10
8.0163191884
 20
0.9772495896
 30
0.0
 40
0.0833333333
 41
0.0
 71
     1
 72
     1
  1
DATE
  7
SLDTEXTSTYLE0
 73
     1
 44
1.0
  0
MTEXT
  5
B2
330
1F
100
AcDbEntity
  8
0
  6
Continuous
 62
     7
370
     0
100
AcDbMText
 10
9.0316104912
 20
1.0943207896
 30
0.0
 40
0.0833333333
 41
0.0
 71
     1
 72
     1
  1
w w w . t h o r  l a b s . c o m
  7
SLDTEXTSTYLE2
 73
     1
 44
1.0
  0
MTEXT
  5
B3
330
1F
100
AcDbEntity
  8
0
  6
Continuous
 62
     7
370
     0
100
AcDbMText
 10
8.5315119501
 20
0.328719653
 30
0.0
 40
0.0833333333
 41
0.0
 71
     1
 72
     1
  1
ITEM #
  7
SLDTEXTSTYLE0
 73
     1
 44
1.0
  0
MTEXT
  5
B4
330
1F
100
AcDbEntity
  8
0
  6
Continuous
 62
     7
370
     0
100
AcDbMText
 10
10.0209370115
 20
0.328719653
 30
0.0
 40
0.0833333333
 41
0.0
 71
     1
 72
     1
  1
APPROX WEIGHT
  7
SLDTEXTSTYLE0
 73
     1
 44
1.0
  0
MTEXT
  5
B5
330
1F
100
AcDbEntity
  8
0
  6
Continuous
 62
     7
370
     0
100
AcDbMText
 10
9.5912312759
 20
0.5162413101
 30
0.0
 40
0.125
 41
0.0
 71
     2
 72
     1
  1
N/A
  7
SLDTEXTSTYLE0
 73
     1
 44
1.0
  0
MTEXT
  5
B6
330
1F
100
AcDbEntity
  8
0
  6
Continuous
 62
     7
370
     0
100
AcDbMText
 10
10.4790491378
 20
0.2019943461
 30
0.0
 40
0.125
 41
0.0
 71
     2
 72
     1
  1
0.02 kg
  7
SLDTEXTSTYLE0
 73
     1
 44
1.0
  0
INSERT
  5
BC
330
1F
100
AcDbEntity
  8
0
  6
Continuous
 62
     7
370
     0
100
AcDbBlockReference
  2
SW_NOTE_1
 10
6.8835832285
 20
0.1754273811
 30
0.0
  0
INSERT
  5
C2
330
1F
100
AcDbEntity
  8
0
  6
Continuous
 62
     7
370
     0
100
AcDbBlockReference
  2
SW_NOTE_2
 10
6.8719828753
 20
1.2001390658
 30
0.0
  0
MTEXT
  5
C3
330
1F
100
AcDbEntity
  8
0
  6
Continuous
 62
     7
370
     0
100
AcDbMText
 10
7.3987149145
 20
0.9772495896
 30
0.0
 40
0.0833333333
 41
0.0
 71
     1
 72
     1
  1
NAME
  7
SLDTEXTSTYLE0
 73
     1
 44
1.0
  0
INSERT
  5
C9
330
1F
100
AcDbEntity
  8
0
  6
Continuous
 62
     7
370
     0
100
AcDbBlockReference
  2
SW_NOTE_3
 10
2.3078923918
 20
0.3219551564
 30
0.0
  0
MTEXT
  5
CA
330
1F
100
AcDbEntity
  8
0
  6
Continuous
 62
     7
370
     0
100
AcDbMText
 10
7.0518693355
 20
0.4200025137
 30
0.0
 40
0.0625
 41
0.0
 71
     1
 72
     1
  1
COPYRIGHT © 2019 BY THORLABS
  7
SLDTEXTSTYLE0
 73
     1
 44
1.0
  0
MTEXT
  5
CB
330
1F
100
AcDbEntity
  8
0
  6
Continuous
 62
     7
370
     0
100
AcDbMText
 10
9.6986051181
 20
0.894553016
 30
0.0
 40
0.125
 41
0.0
 71
     2
 72
     1
  1
SHEAR-PLATE, 5-10mm BEAM
  7
SLDTEXTSTYLE0
 73
     1
 44
1.0
  0
MTEXT
  5
CC
330
1F
100
AcDbEntity
  8
0
  6
Continuous
 62
     7
370
     0
100
AcDbMText
 10
7.873989701
 20
0.6146014583
 30
0.0
 40
0.0833333333
 41
0.0
 71
     1
 72
     1
  1
21/JAN/19
  7
SLDTEXTSTYLE0
 73
     1
 44
1.0
  0
MTEXT
  5
CD
330
1F
100
AcDbEntity
  8
0
  6
Continuous
 62
     7
370
     0
100
AcDbMText
 10
7.4972033213
 20
0.6146014583
 30
0.0
 40
0.0833333333
 41
0.0
 71
     1
 72
     1
  1
BW
  7
SLDTEXTSTYLE0
 73
     1
 44
1.0
  0
CIRCLE
  5
CE
330
1F
100
AcDbEntity
  8
0
  6
Continuous
 62
     7
370
    18
100
AcDbCircle
 10
3.369526649
 20
4.149343262
 30
0.0
 40
0.3070866141732286
  0
CIRCLE
  5
CF
330
1F
100
AcDbEntity
  8
0
  6
Continuous
 62
     7
370
    18
100
AcDbCircle
 10
3.369526649
 20
5.087343262
 30
0.0
 40
0.0935000000000001
  0
CIRCLE
  5
D0
330
1F
100
AcDbEntity
  8
0
  6
Continuous
 62
     7
370
    18
100
AcDbCircle
 10
3.369526649
 20
5.087343262
 30
0.0
 40
0.0984999999999996
  0
CIRCLE
  5
D1
330
1F
100
AcDbEntity
  8
0
  6
Continuous
 62
     7
370
    18
100
AcDbCircle
 10
3.369526649
 20
4.149343262
 30
0.0
 40
0.3125
  0
CIRCLE
  5
D2
330
1F
100
AcDbEntity
  8
0
  6
Continuous
 62
     7
370
    18
100
AcDbCircle
 10
3.369526649
 20
4.149343262
 30
0.0
 40
0.3075000000000001
  0
LINE
  5
D3
330
1F
100
AcDbEntity
  8
0
  6
Continuous
 62
     7
370
    18
100
AcDbLine
 10
2.4195266568
 20
3.288343274
 30
0.0
 11
4.3195266412
 21
3.288343274
 31
0.0
  0
LINE
  5
D4
330
1F
100
AcDbEntity
  8
0
  6
Continuous
 62
     7
370
    18
100
AcDbLine
 10
2.4195266568
 20
5.2883432499
 30
0.0
 11
2.4195266568
 21
3.288343274
 31
0.0
  0
LINE
  5
D5
330
1F
100
AcDbEntity
  8
0
  6
Continuous
 62
     7
370
    18
100
AcDbLine
 10
4.3195266412
 20
5.2883432499
 30
0.0
 11
2.4195266568
 21
5.2883432499
 31
0.0
  0
LINE
  5
D6
330
1F
100
AcDbEntity
  8
0
  6
Continuous
 62
     7
370
    18
100
AcDbLine
 10
4.3195266412
 20
3.288343274
 30
0.0
 11
4.3195266412
 21
5.2883432499
 31
0.0
  0
CIRCLE
  5
D7
330
1F
100
AcDbEntity
  8
0
  6
Continuous
 62
     7
370
    18
100
AcDbCircle
 10
2.669526649
 20
3.436343262
 30
0.0
 40
0.0984999999999996
  0
CIRCLE
  5
D8
330
1F
100
AcDbEntity
  8
0
  6
Continuous
 62
     7
370
    18
100
AcDbCircle
 10
4.069526649
 20
3.436343262
 30
0.0
 40
0.0984999999999996
  0
CIRCLE
  5
D9
330
1F
100
AcDbEntity
  8
0
  6
Continuous
 62
     7
370
    18
100
AcDbCircle
 10
2.669526649
 20
3.436343262
 30
0.0
 40
0.0935000000000001
  0
CIRCLE
  5
DA
330
1F
100
AcDbEntity
  8
0
  6
Continuous
 62
     7
370
    18
100
AcDbCircle
 10
4.069526649
 20
3.436343262
 30
0.0
 40
0.0934999999999997
  0
CIRCLE
  5
DB
330
1F
100
AcDbEntity
  8
0
  6
HIDDEN
 62
     7
370
    18
100
AcDbCircle
 10
3.369526649
 20
4.149343262
 30
0.0
 40
0.3070866141732279
  0
DIMENSION
  5
DC
330
1F
100
AcDbEntity
  8
0
  6
Continuous
 62
     7
370
    18
100
AcDbDimension
  2
_D
 10
1.5090577519
 20
5.288343262
 30
0.0
 11
1.5090577519
 21
4.288343262
 31
0.0
 70
   160
  1
<>
 71
     2
 42
-1.0
  3
SLDDIMSTYLE0
100
AcDbAlignedDimension
 13
2.419526649
 23
3.288343262
 33
0.0
 14
2.419526649
 24
5.288343262
 34
0.0
 50
90.0
100
AcDbRotatedDimension
  0
DIMENSION
  5
F1
330
1F
100
AcDbEntity
  8
0
  6
Continuous
 62
     7
370
    18
100
AcDbDimension
  2
_D_1
 10
4.319526649
 20
2.9891240628
 30
0.0
 11
3.369526649
 21
2.9891240628
 31
0.0
 70
   160
  1
<>
 71
     2
 42
-1.0
  3
SLDDIMSTYLE0
100
AcDbAlignedDimension
 13
2.419526649
 23
3.288343262
 33
0.0
 14
4.319526649
 24
3.288343262
 34
0.0
100
AcDbRotatedDimension
  0
DIMENSION
  5
105
330
1F
100
AcDbEntity
  8
0
  6
Continuous
 62
     7
370
    18
100
AcDbDimension
  2
_D_2
 10
2.0832640371
 20
4.149343262
 30
0.0
 11
2.0832640371
 21
3.718843262
 31
0.0
 70
   160
  1
<>
 71
     2
 42
-1.0
  3
SLDDIMSTYLE1
100
AcDbAlignedDimension
 13
2.419526649
 23
3.288343262
 33
0.0
 14
3.319526649
 24
4.149343262
 34
0.0
 50
90.0
100
AcDbRotatedDimension
  0
MTEXT
  5
11A
330
1F
100
AcDbEntity
  8
0
  6
Continuous
 62
     7
370
     0
100
AcDbMText
 10
4.8015327381
 20
5.6084871162
 30
0.0
 40
0.0833333333
 41
0.0
 71
     1
 72
     1
  1
WEDGED FLAT
  7
SLDTEXTSTYLE0
 73
     1
 44
1.0
  0
LEADER
  5
124
330
1F
100
AcDbEntity
  8
0
  6
Continuous
 62
     7
370
     0
100
AcDbLeader
  3
SLDDIMSTYLE2
 76
     3
 10
3.2827412521
 20
4.138299955
 30
0.0
 10
4.5287831346
 20
5.5697533422
 30
0.0
 10
4.7787831346
 20
5.5697533422
 30
0.0
  0
INSERT
  5
12C
330
1F
100
AcDbEntity
  8
0
  6
Continuous
 62
     7
370
     0
100
AcDbBlockReference
  2
SW_CENTERMARKSYMBOL_0
 10
3.369526649
 20
4.149343262
 30
0.0
  0
LINE
  5
12D
330
1F
100
AcDbEntity
  8
0
  6
Continuous
 62
     7
370
    18
100
AcDbLine
 10
7.2878879932
 20
4.4564298819
 30
0.0
 11
7.2645371421
 21
4.4564298819
 31
0.0
  0
LINE
  5
12E
330
1F
100
AcDbEntity
  8
0
  6
Continuous
 62
     7
370
    18
100
AcDbLine
 10
7.2646335469
 20
3.8422566519
 30
0.0
 11
7.2878879932
 21
3.8422566519
 31
0.0
  0
LINE
  5
12F
330
1F
100
AcDbEntity
  8
0
  6
Continuous
 62
     7
370
    18
100
AcDbLine
 10
7.4158879962
 20
4.9122014218
 30
0.0
 11
7.4160129962
 21
4.9122014218
 31
0.0
  0
LINE
  5
130
330
1F
100
AcDbEntity
  8
0
  6
Continuous
 62
     7
370
    18
100
AcDbLine
 10
7.4160129962
 20
4.9405366544
 30
0.0
 11
7.4158879962
 21
4.9405366544
 31
0.0
  0
ELLIPSE
  5
131
330
1F
100
AcDbEntity
  8
0
  6
Continuous
 62
     7
370
    18
100
AcDbEllipse
 10
7.2645853434
 20
4.149343262
 30
0.0
 11
-4.820284505768769E-5
 21
0.3070866141732278
 31
0.0
210
0.0
220
0.0
230
1.0
 40
0.0001138774
 41
0.0
 42
3.141592635685134
  0
ARC
  5
132
330
1F
100
AcDbEntity
  8
0
  6
Continuous
 62
     7
370
    18
100
AcDbCircle
 10
7.2941379962
 20
5.087343262
 30
0.0
 40
0.0937500000000011
100
AcDbArc
 50
93.8225537293
 51
266.1774462707
  0
ARC
  5
133
330
1F
100
AcDbEntity
  8
0
  6
Continuous
 62
     7
370
    18
100
AcDbCircle
 10
7.2941379962
 20
3.436343262
 30
0.0
 40
0.0937500000000001
100
AcDbArc
 50
93.8225537293
 51
266.1774462707
  0
LINE
  5
134
330
1F
100
AcDbEntity
  8
0
  6
Continuous
 62
     7
370
    18
100
AcDbLine
 10
7.2878879932
 20
3.288343274
 30
0.0
 11
7.4158879962
 21
3.288343274
 31
0.0
  0
LINE
  5
135
330
1F
100
AcDbEntity
  8
0
  6
Continuous
 62
     7
370
    18
100
AcDbLine
 10
7.2878879932
 20
3.288343274
 30
0.0
 11
7.2878879932
 21
5.2883432499
 31
0.0
  0
LINE
  5
136
330
1F
100
AcDbEntity
  8
0
  6
Continuous
 62
     7
370
    18
100
AcDbLine
 10
7.4158879962
 20
5.1603432285
 30
0.0
 11
7.2878879932
 21
5.2883432499
 31
0.0
  0
LINE
  5
137
330
1F
100
AcDbEntity
  8
0
  6
Continuous
 62
     7
370
    18
100
AcDbLine
 10
7.4158879962
 20
3.288343274
 30
0.0
 11
7.4158879962
 21
5.1603432285
 31
0.0
  0
DIMENSION
  5
138
330
1F
100
AcDbEntity
  8
0
  6
Continuous
 62
     7
370
    18
100
AcDbDimension
  2
_D_3
 10
7.4158879962
 20
5.160343262
 30
0.0
 11
7.1667507839
 21
5.7618136989
 31
0.0
 70
   162
  1
<>
 71
     1
 42
-1.0
  3
SLDDIMSTYLE3
100
AcDb2LineAngularDimension
 13
7.2878879962
 23
5.288343262
 33
0.0
 14
7.4158879962
 24
5.160343262
 34
0.0
 15
7.4158879962
 25
3.288343262
 35
0.0
 16
7.3325314475
 26
5.806011693
 36
0.0
  0
DIMENSION
  5
144
330
1F
100
AcDbEntity
  8
0
  6
Continuous
 62
     7
370
    18
100
AcDbDimension
  2
_D_4
 10
7.2878879962
 20
3.1036276416
 30
0.0
 11
6.645421039
 21
3.1036276416
 31
0.0
 70
   160
  1
<>
 71
     2
 42
-1.0
  3
SLDDIMSTYLE4
100
AcDbAlignedDimension
 13
7.4158879962
 23
3.288343262
 33
0.0
 14
7.2878879962
 24
3.288343262
 34
0.0
100
AcDbRotatedDimension
  0
LINE
  5
159
330
1F
100
AcDbEntity
  8
0
  6
Continuous
 62
     7
370
    18
100
AcDbLine
 10
10.5305947598
 20
6.1394986811
 30
0.0
 11
10.5314786433
 21
6.1400089362
 31
0.0
  0
LINE
  5
15A
330
1F
100
AcDbEntity
  8
0
  6
Continuous
 62
     7
370
    18
100
AcDbLine
 10
9.8983817932
 20
6.5052613006
 30
0.0
 11
9.8992656767
 21
6.5057715556
 31
0.0
  0
LINE
  5
15B
330
1F
100
AcDbEntity
  8
0
  6
Continuous
 62
     7
370
    18
100
AcDbLine
 10
9.9000787149
 20
6.472340203
 30
0.0
 11
9.9009625984
 21
6.4728504581
 31
0.0
  0
LINE
  5
15C
330
1F
100
AcDbEntity
  8
0
  6
Continuous
 62
     7
370
    18
100
AcDbLine
 10
9.8099741928
 20
6.5544156335
 30
0.0
 11
9.8090903093
 21
6.5539053784
 31
0.0
  0
LINE
  5
15D
330
1F
100
AcDbEntity
  8
0
  6
Continuous
 62
     7
370
    18
100
AcDbLine
 10
9.784773396
 20
6.5689866769
 30
0.0
 11
9.7838895125
 21
6.5684764218
 31
0.0
  0
LINE
  5
15E
330
1F
100
AcDbEntity
  8
0
  6
Continuous
 62
     7
370
    18
100
AcDbLine
 10
9.7406233354
 20
6.5944510313
 30
0.0
 11
9.7397394519
 21
6.5939407762
 31
0.0
  0
LINE
  5
15F
330
1F
100
AcDbEntity
  8
0
  6
Continuous
 62
     7
370
    18
100
AcDbLine
 10
9.7154225386
 20
6.6090220747
 30
0.0
 11
9.7145386552
 21
6.6085118196
 31
0.0
  0
LINE
  5
160
330
1F
100
AcDbEntity
  8
0
  6
Continuous
 62
     7
370
    18
100
AcDbLine
 10
9.6688650266
 20
6.6537463602
 30
0.0
 11
9.6679811431
 21
6.6532361051
 31
0.0
  0
LINE
  5
161
330
1F
100
AcDbEntity
  8
0
  6
Continuous
 62
     7
370
    18
100
AcDbLine
 10
9.6818088341
 20
6.5976203394
 30
0.0
 11
9.6826927176
 21
6.5981305945
 31
0.0
  0
LINE
  5
162
330
1F
100
AcDbEntity
  8
0
  6
Continuous
 62
     7
370
    18
100
AcDbLine
 10
9.5995141692
 20
6.693781758
 30
0.0
 11
9.5986302857
 21
6.6932715029
 31
0.0
  0
LINE
  5
163
330
1F
100
AcDbEntity
  8
0
  6
Continuous
 62
     7
370
    18
100
AcDbLine
 10
9.6124579768
 20
6.6376557372
 30
0.0
 11
9.6133418602
 21
6.6381659923
 31
0.0
  0
LINE
  5
164
330
1F
100
AcDbEntity
  8
0
  6
Continuous
 62
     7
370
    18
100
AcDbLine
 10
9.5569129932
 20
6.7205891796
 30
0.0
 11
9.5577968767
 21
6.7210994346
 31
0.0
  0
LINE
  5
165
330
1F
100
AcDbEntity
  8
0
  6
Continuous
 62
     7
370
    18
100
AcDbLine
 10
9.4793060164
 20
6.7631764475
 30
0.0
 11
9.4784221329
 21
6.7626661924
 31
0.0
  0
LINE
  5
166
330
1F
100
AcDbEntity
  8
0
  6
Continuous
 62
     7
370
    18
100
AcDbLine
 10
9.492249824
 20
6.7070504267
 30
0.0
 11
9.4931337074
 21
6.7075606818
 31
0.0
  0
LINE
  5
167
330
1F
100
AcDbEntity
  8
0
  6
Continuous
 62
     7
370
    18
100
AcDbLine
 10
9.4076415582
 20
6.7806410416
 30
0.0
 11
9.4067576748
 21
6.7801307865
 31
0.0
  0
LINE
  5
168
330
1F
100
AcDbEntity
  8
0
  6
Continuous
 62
     7
370
    18
100
AcDbLine
 10
9.4236416177
 20
6.7467830367
 30
0.0
 11
9.4245255012
 21
6.7472932918
 31
0.0
  0
SPLINE
  5
169
330
1F
100
AcDbEntity
  8
0
  6
Continuous
 62
     7
370
    18
100
AcDbSpline
210
0.0
220
0.0
230
1.0
 70
     8
 71
     3
 72
    15
 73
    11
 74
     0
 42
0.000000001
 43
0.00000001
 40
0.0
 40
0.0
 40
0.0
 40
0.0
 40
0.1324702944791563
 40
0.2616666311771803
 40
0.3875720710229674
 40
0.5110290449571765
 40
0.632651311927356
 40
0.7546442917994715
 40
0.8765146957733942
 40
1.0
 40
1.0
 40
1.0
 40
1.0
 10
9.435321777957006
 20
6.753242120341485
 30
0.0
 10
9.43530826068268
 20
6.752479900145397
 30
0.0
 10
9.435281560208816
 20
6.750974297763294
 30
0.0
 10
9.435058878921753
 20
6.748862104008382
 30
0.0
 10
9.434701526999781
 20
6.746905141990967
 30
0.0
 10
9.434190245832795
 20
6.745124532026705
 30
0.0
 10
9.433555761938544
 20
6.7434841760055
 30
0.0
 10
9.432751887936151
 20
6.742035484395135
 30
0.0
 10
9.431832812904567
 20
6.740709199065517
 30
0.0
 10
9.431094203195729
 20
6.739991455517157
 30
0.0
 10
9.430722467623445
 20
6.73963022169433
 30
0.0
  0
SPLINE
  5
16A
330
1F
100
AcDbEntity
  8
0
  6
Continuous
 62
     7
370
    18
100
AcDbSpline
210
0.0
220
0.0
230
1.0
 70
     8
 71
     3
 72
    23
 73
    19
 74
     0
 42
0.000000001
 43
0.00000001
 40
0.0
 40
0.0
 40
0.0
 40
0.0
 40
0.0619947470624108
 40
0.1220826922400537
 40
0.1813674937318424
 40
0.2394976858916857
 40
0.2978228615406401
 40
0.3566433919048759
 40
0.4170426431207686
 40
0.4793985395060789
 40
0.5422554887298432
 40
0.6048200847029737
 40
0.6670423163124137
 40
0.7302648013147095
 40
0.794218665103304
 40
0.8604160236039574
 40
0.9285812581783045
 40
1.0
 40
1.0
 40
1.0
 40
1.0
 10
9.417683061625423
 20
6.785892692453462
 30
0.0
 10
9.418289910710595
 20
6.785523999157943
 30
0.0
 10
9.419484943735352
 20
6.784797952641737
 30
0.0
 10
9.421245923536048
 20
6.783484373774567
 30
0.0
 10
9.422929494559785
 20
6.782007846837141
 30
0.0
 10
9.424549909968016
 20
6.780394352707943
 30
0.0
 10
9.42607999470278
 20
6.778607378948871
 30
0.0
 10
9.427552157094219
 20
6.776685654832098
 30
0.0
 10
9.428937235243216
 20
6.774594193224171
 30
0.0
 10
9.430241341872248
 20
6.772377679933452
 30
0.0
 10
9.431433451031282
 20
6.770069460356821
 30
0.0
 10
9.432466534277923
 20
6.76771580481575
 30
0.0
 10
9.43335646275654
 20
6.765338794945072
 30
0.0
 10
9.43407743580416
 20
6.762946596919771
 30
0.0
 10
9.434634362898858
 20
6.760532924239851
 30
0.0
 10
9.43502549344648
 20
6.758109542013306
 30
0.0
 10
9.435274133169315
 20
6.755654649709286
 30
0.0
 10
9.435305651478542
 20
6.754058696608898
 30
0.0
 10
9.435321777957006
 20
6.753242120341485
 30
0.0
  0
SPLINE
  5
16B
330
1F
100
AcDbEntity
  8
0
  6
Continuous
 62
     7
370
    18
100
AcDbSpline
210
0.0
220
0.0
230
1.0
 70
     8
 71
     3
 72
    15
 73
    11
 74
     0
 42
0.000000001
 43
0.00000001
 40
0.0
 40
0.0
 40
0.0
 40
0.0
 40
0.1367249672973546
 40
0.2685062080121061
 40
0.3955165764289197
 40
0.519032899168381
 40
0.6405081366651227
 40
0.7612438456226489
 40
0.8801106056901654
 40
0.9999999999999999
 40
0.9999999999999999
 40
0.9999999999999999
 40
0.9999999999999999
 10
9.406967390952996
 20
6.787448872170863
 30
0.0
 10
9.40739258724486
 20
6.787571794550831
 30
0.0
 10
9.408227605502654
 20
6.787813194660681
 30
0.0
 10
9.409529755264195
 20
6.788009647645531
 30
0.0
 10
9.410848498956753
 20
6.788042185930891
 30
0.0
 10
9.412176901312751
 20
6.787939791365448
 30
0.0
 10
9.413533378354542
 20
6.787656746413383
 30
0.0
 10
9.414903151265126
 20
6.787223557106188
 30
0.0
 10
9.416288192798051
 20
6.786662516139334
 30
0.0
 10
9.417216779583258
 20
6.786150032035013
 30
0.0
 10
9.417683061625423
 20
6.785892692453462
 30
0.0
  0
LINE
  5
16C
330
1F
100
AcDbEntity
  8
0
  6
Continuous
 62
     7
370
    18
100
AcDbLine
 10
9.4100255711
 20
6.8036605694
 30
0.0
 11
9.406967391
 21
6.7874488722
 31
0.0
  0
LINE
  5
16D
330
1F
100
AcDbEntity
  8
0
  6
Continuous
 62
     7
370
    18
100
AcDbLine
 10
9.4322395176
 20
6.790836731
 30
0.0
 11
9.4100255711
 21
6.8036605694
 31
0.0
  0
LINE
  5
16E
330
1F
100
AcDbEntity
  8
0
  6
Continuous
 62
     7
370
    18
100
AcDbLine
 10
9.4322395176
 20
6.7997349322
 30
0.0
 11
9.4322395176
 21
6.790836731
 31
0.0
  0
LINE
  5
16F
330
1F
100
AcDbEntity
  8
0
  6
Continuous
 62
     7
370
    18
100
AcDbLine
 10
9.4037286096
 20
6.816193929
 30
0.0
 11
9.4322395176
 21
6.7997349322
 31
0.0
  0
LINE
  5
170
330
1F
100
AcDbEntity
  8
0
  6
Continuous
 62
     7
370
    18
100
AcDbLine
 10
9.3975640889
 20
6.7841598264
 30
0.0
 11
9.4037286096
 21
6.816193929
 31
0.0
  0
LINE
  5
171
330
1F
100
AcDbEntity
  8
0
  6
Continuous
 62
     7
370
    18
100
AcDbLine
 10
9.4052697398
 20
6.7788216288
 30
0.0
 11
9.3975640889
 21
6.7841598264
 31
0.0
  0
SPLINE
  5
172
330
1F
100
AcDbEntity
  8
0
  6
Continuous
 62
     7
370
    18
100
AcDbSpline
210
0.0
220
0.0
230
1.0
 70
     8
 71
     3
 72
    15
 73
    11
 74
     0
 42
0.000000001
 43
0.00000001
 40
0.0
 40
0.0
 40
0.0
 40
0.0
 40
0.1478244508077165
 40
0.2844705558819983
 40
0.4123032798653925
 40
0.5337014258803899
 40
0.6521285106906445
 40
0.7687181103834145
 40
0.8836800889140406
 40
1.0
 40
1.0
 40
1.0
 40
1.0
 10
9.415551967570346
 20
6.779114565825108
 30
0.0
 10
9.414952875721426
 20
6.779439530237529
 30
0.0
 10
9.413799994784915
 20
6.780064885559589
 30
0.0
 10
9.412146775233158
 20
6.780700297028859
 30
0.0
 10
9.410649303990779
 20
6.781024964744724
 30
0.0
 10
9.409308226554447
 20
6.781035917301016
 30
0.0
 10
9.408111499160897
 20
6.780785182627947
 30
0.0
 10
9.407041412049596
 20
6.780325697404487
 30
0.0
 10
9.40606805349521
 20
6.779703056574188
 30
0.0
 10
9.405536883893658
 20
6.779116585836857
 30
0.0
 10
9.405269739756577
 20
6.778821628786246
 30
0.0
  0
SPLINE
  5
173
330
1F
100
AcDbEntity
  8
0
  6
Continuous
 62
     7
370
    18
100
AcDbSpline
210
0.0
220
0.0
230
1.0
 70
     8
 71
     3
 72
    23
 73
    19
 74
     0
 42
0.000000001
 43
0.00000001
 40
0.0
 40
0.0
 40
0.0
 40
0.0
 40
0.0728659334565347
 40
0.141886871964127
 40
0.2074526264147116
 40
0.2704376800000976
 40
0.3316408722476732
 40
0.3901075774931603
 40
0.4480692869488377
 40
0.5055029519245372
 40
0.5624881528337253
 40
0.6190843288847314
 40
0.6764155306922396
 40
0.7354523604507925
 40
0.7962407694486813
 40
0.8604056780892053
 40
0.9283049272851076
 40
1.0
 40
1.0
 40
1.0
 40
1.0
 10
9.427616127136382
 20
6.757162167180264
 30
0.0
 10
9.427607281414069
 20
6.757733073234388
 30
0.0
 10
9.427590056741167
 20
6.758844759729879
 30
0.0
 10
9.42744499689373
 20
6.760532821848468
 30
0.0
 10
9.427200263853381
 20
6.762182650338238
 30
0.0
 10
9.426883602214211
 20
6.763794855408196
 30
0.0
 10
9.426447124085092
 20
6.765374746010947
 30
0.0
 10
9.425929436446756
 20
6.766919288311144
 30
0.0
 10
9.42529524733217
 20
6.768422418769689
 30
0.0
 10
9.42458967009362
 20
6.769893496715031
 30
0.0
 10
9.423783811808322
 20
6.771312323976471
 30
0.0
 10
9.422866785466251
 20
6.772646919246997
 30
0.0
 10
9.421874565469363
 20
6.773924434599709
 30
0.0
 10
9.420787167490452
 20
6.775123659189195
 30
0.0
 10
9.419603951216839
 20
6.776231305871905
 30
0.0
 10
9.418336674557887
 20
6.777289573274286
 30
0.0
 10
9.416972187641104
 20
6.778249097295493
 30
0.0
 10
9.416033879033174
 20
6.77882089358816
 30
0.0
 10
9.415551967570346
 20
6.779114565825108
 30
0.0
  0
SPLINE
  5
174
330
1F
100
AcDbEntity
  8
0
  6
Continuous
 62
     7
370
    18
100
AcDbSpline
210
0.0
220
0.0
230
1.0
 70
     8
 71
     3
 72
    23
 73
    19
 74
     0
 42
0.000000001
 43
0.00000001
 40
0.0
 40
0.0
 40
0.0
 40
0.0
 40
0.0657969014422157
 40
0.1286687074936917
 40
0.1886640150334355
 40
0.247387865831583
 40
0.3048931163760717
 40
0.3618260165874491
 40
0.4195591944128803
 40
0.478714584800727
 40
0.5387984953904678
 40
0.5988242749803306
 40
0.6602056418727802
 40
0.7229689455157925
 40
0.7880060156074504
 40
0.8554128575646768
 40
0.9261577032060917
 40
1.0
 40
1.0
 40
1.0
 40
1.0
 10
9.415515847332124
 20
6.747991713551713
 30
0.0
 10
9.415973931853085
 20
6.74774019651257
 30
0.0
 10
9.416869736092233
 20
6.747248343984113
 30
0.0
 10
9.418173788085545
 20
6.746704908044928
 30
0.0
 10
9.419401148961995
 20
6.746351905428847
 30
0.0
 10
9.420563468405637
 20
6.746142403179937
 30
0.0
 10
9.421642175946655
 20
6.74615151415134
 30
0.0
 10
9.422634075244563
 20
6.746358958506377
 30
0.0
 10
9.42357417114053
 20
6.746701130983399
 30
0.0
 10
9.424407811785255
 20
6.747272151347446
 30
0.0
 10
9.425166416392658
 20
6.747980476807437
 30
0.0
 10
9.425821212828932
 20
6.748853472982375
 30
0.0
 10
9.426372441968104
 20
6.749873664290063
 30
0.0
 10
9.426836521324674
 20
6.751031255862855
 30
0.0
 10
9.427179208881387
 20
6.752354175341782
 30
0.0
 10
9.42743128359196
 20
6.753816559648722
 30
0.0
 10
9.427593105408361
 20
6.755419226542898
 30
0.0
 10
9.427608344406732
 20
6.756572948344687
 30
0.0
 10
9.427616127136382
 20
6.757162167180264
 30
0.0
  0
SPLINE
  5
175
330
1F
100
AcDbEntity
  8
0
  6
Continuous
 62
     7
370
    18
100
AcDbSpline
210
0.0
220
0.0
230
1.0
 70
     8
 71
     3
 72
    23
 73
    19
 74
     0
 42
0.000000001
 43
0.00000001
 40
0.0
 40
0.0
 40
0.0
 40
0.0
 40
0.0773613371189801
 40
0.1504798322806849
 40
0.2199772368520772
 40
0.286680996862442
 40
0.3496784941856633
 40
0.4106796250174842
 40
0.4694271135192924
 40
0.526755701427132
 40
0.5831419808348354
 40
0.6388244277786285
 40
0.6952634704038122
 40
0.7526958048985354
 40
0.8108491833348935
 40
0.871356303636084
 40
0.9344364309841287
 40
1.0
 40
1.0
 40
1.0
 40
1.0
 10
9.404499174674514
 20
6.766808984922251
 30
0.0
 10
9.404575472715068
 20
6.766263574201171
 30
0.0
 10
9.40472388427016
 20
6.765202665523931
 30
0.0
 10
9.405006698891047
 20
6.763627722133869
 30
0.0
 10
9.405373994578502
 20
6.762104198540911
 30
0.0
 10
9.405786691720266
 20
6.760643296687212
 30
0.0
 10
9.406277251896825
 20
6.759239204966667
 30
0.0
 10
9.406808777912387
 20
6.757895525294083
 30
0.0
 10
9.407435604219847
 20
6.756617695511625
 30
0.0
 10
9.40809462792048
 20
6.755394238018035
 30
0.0
 10
9.408817956788099
 20
6.754233827187325
 30
0.0
 10
9.409612570404708
 20
6.75314886510857
 30
0.0
 10
9.410456298529484
 20
6.752115433527923
 30
0.0
 10
9.411359417452925
 20
6.751146740657636
 30
0.0
 10
9.412323311309974
 20
6.750262872078474
 30
0.0
 10
9.413335712307813
 20
6.749419488853
 30
0.0
 10
9.414409656940936
 20
6.74866903689659
 30
0.0
 10
9.415142402034311
 20
6.748220375109668
 30
0.0
 10
9.415515847332124
 20
6.747991713551713
 30
0.0
  0
LINE
  5
176
330
1F
100
AcDbEntity
  8
0
  6
Continuous
 62
     7
370
    18
100
AcDbLine
 10
9.3967935239
 20
6.7703675423
 30
0.0
 11
9.4044991747
 21
6.7668089849
 31
0.0
  0
SPLINE
  5
177
330
1F
100
AcDbEntity
  8
0
  6
Continuous
 62
     7
370
    18
100
AcDbSpline
210
0.0
220
0.0
230
1.0
 70
     8
 71
     3
 72
    23
 73
    19
 74
     0
 42
0.000000001
 43
0.00000001
 40
0.0
 40
0.0
 40
0.0
 40
0.0
 40
0.0693182087024715
 40
0.1356003304878317
 40
0.1997291161327755
 40
0.2617924716337854
 40
0.3229211796962229
 40
0.3829790997934826
 40
0.4430077312381355
 40
0.5034940989540183
 40
0.5640370581785096
 40
0.6237053491018795
 40
0.6833720888094605
 40
0.7438094697850023
 40
0.805009300874773
 40
0.8676101914670348
 40
0.9327585037206161
 40
1.0
 40
1.0
 40
1.0
 40
1.0
 10
9.415467687014495
 20
6.740011134871642
 30
0.0
 10
9.414820898007928
 20
6.740399710589744
 30
0.0
 10
9.413555648880921
 20
6.741159842693281
 30
0.0
 10
9.411702821352135
 20
6.742486535591594
 30
0.0
 10
9.40994161446991
 20
6.743916235235817
 30
0.0
 10
9.408265128378888
 20
6.745466382919692
 30
0.0
 10
9.406689286975025
 20
6.747148118977022
 30
0.0
 10
9.405192007223745
 20
6.748926303387889
 30
0.0
 10
9.403806889758682
 20
6.750839420671467
 30
0.0
 10
9.402506032351923
 20
6.752837621488293
 30
0.0
 10
9.40131633357722
 20
6.754908058009722
 30
0.0
 10
9.400262162202294
 20
6.757028797215993
 30
0.0
 10
9.399347161946428
 20
6.759182373765599
 30
0.0
 10
9.398540680361563
 20
6.761368815188932
 30
0.0
 10
9.397913694845938
 20
6.763582422767019
 30
0.0
 10
9.397388521138582
 20
6.765829692043907
 30
0.0
 10
9.396999149319601
 20
6.76811052275399
 30
0.0
 10
9.396862784353894
 20
6.769607314006289
 30
0.0
 10
9.396793523853892
 20
6.770367542339102
 30
0.0
  0
SPLINE
  5
178
330
1F
100
AcDbEntity
  8
0
  6
Continuous
 62
     7
370
    18
100
AcDbSpline
210
0.0
220
0.0
230
1.0
 70
     8
 71
     3
 72
    15
 73
    11
 74
     0
 42
0.000000001
 43
0.00000001
 40
0.0
 40
0.0
 40
0.0
 40
0.0
 40
0.1278829696493919
 40
0.2515595312796911
 40
0.3727646915574451
 40
0.4930749058244777
 40
0.6136192248323005
 40
0.7378284322692578
 40
0.8661899985982143
 40
1.0
 40
1.0
 40
1.0
 40
1.0
 10
9.430722467623445
 20
6.73963022169433
 30
0.0
 10
9.430250274601535
 20
6.739230706469627
 30
0.0
 10
9.429321420231084
 20
6.738444817129229
 30
0.0
 10
9.427714122607687
 20
6.737654575872713
 30
0.0
 10
9.42598080785329
 20
6.737201792468682
 30
0.0
 10
9.424131624109428
 20
6.737060049551952
 30
0.0
 10
9.422143444234338
 20
6.737280935800315
 30
0.0
 10
9.420026745976248
 20
6.737862600503339
 30
0.0
 10
9.41778807561355
 20
6.738731336573815
 30
0.0
 10
9.416251792199928
 20
6.739578665723138
 30
0.0
 10
9.415467687014495
 20
6.740011134871642
 30
0.0
  0
SPLINE
  5
179
330
1F
100
AcDbEntity
  8
0
  6
Continuous
 62
     7
370
    18
100
AcDbSpline
210
0.0
220
0.0
230
1.0
 70
     8
 71
     3
 72
    31
 73
    27
 74
     0
 42
0.000000001
 43
0.00000001
 40
0.0
 40
0.0
 40
0.0
 40
0.0
 40
0.0628729369832531
 40
0.1228346582660095
 40
0.17965368366555
 40
0.233956256795564
 40
0.2855473950458365
 40
0.3345189820567467
 40
0.3806227038405212
 40
0.4245295031767599
 40
0.4664416769228077
 40
0.5065145853718174
 40
0.5447930111054543
 40
0.5818456530092796
 40
0.6174621814237213
 40
0.6520802585584685
 40
0.6858925172859709
 40
0.719186823394995
 40
0.7521933849929773
 40
0.7852513720621817
 40
0.8186671215359255
 40
0.852835618843419
 40
0.8876281460368513
 40
0.9236363038488349
 40
0.9610224701392104
 40
1.0
 40
1.0
 40
1.0
 40
1.0
 10
9.50467263534261
 20
6.723634302028889
 30
0.0
 10
9.50466476961798
 20
6.722651619161327
 30
0.0
 10
9.504649402376634
 20
6.72073175474887
 30
0.0
 10
9.50455701664707
 20
6.717965517146206
 30
0.0
 10
9.504384539935714
 20
6.71538570356761
 30
0.0
 10
9.504162426106944
 20
6.712971419453192
 30
0.0
 10
9.503862860002553
 20
6.710736525624418
 30
0.0
 10
9.50349091832113
 20
6.708687860234349
 30
0.0
 10
9.503055716699453
 20
6.706814762643833
 30
0.0
 10
9.502566348896394
 20
6.705103449368868
 30
0.0
 10
9.502001790634562
 20
6.703561666322554
 30
0.0
 10
9.501362085963668
 20
6.702191762832419
 30
0.0
 10
9.50066372720699
 20
6.700970750299594
 30
0.0
 10
9.499894792398035
 20
6.699913753132178
 30
0.0
 10
9.499059253801478
 20
6.69901352012729
 30
0.0
 10
9.498170606092755
 20
6.698253061296581
 30
0.0
 10
9.497204141853514
 20
6.697664342573226
 30
0.0
 10
9.496161817036512
 20
6.697252053652319
 30
0.0
 10
9.495064577782031
 20
6.696971902975721
 30
0.0
 10
9.493890386000775
 20
6.696868246015462
 30
0.0
 10
9.49264196845413
 20
6.696936974708115
 30
0.0
 10
9.491330457035838
 20
6.697149186422888
 30
0.0
 10
9.489947145111328
 20
6.697533636905714
 30
0.0
 10
9.48849924078158
 20
6.698062022322246
 30
0.0
 10
9.486977297726874
 20
6.698756971916698
 30
0.0
 10
9.485938652968668
 20
6.699338390642258
 30
0.0
 10
9.485408508291053
 20
6.699635158175513
 30
0.0
  0
SPLINE
  5
17A
330
1F
100
AcDbEntity
  8
0
  6
Continuous
 62
     7
370
    18
100
AcDbSpline
210
0.0
220
0.0
230
1.0
 70
     8
 71
     3
 72
    27
 73
    23
 74
     0
 42
0.000000001
 43
0.00000001
 40
0.0
 40
0.0
 40
0.0
 40
0.0
 40
0.0567196362764613
 40
0.1114280005485048
 40
0.164271091180387
 40
0.2163343264019033
 40
0.2672831525731985
 40
0.3174122530729432
 40
0.3673221138318776
 40
0.4182222313367402
 40
0.4714117085699807
 40
0.5279684586103854
 40
0.5880588739916043
 40
0.6522074888314343
 40
0.6864152270246869
 40
0.7232779265513763
 40
0.7626212362197993
 40
0.8047464307438111
 40
0.8494584675399354
 40
0.896719818281155
 40
0.9468940394925561
 40
1.0
 40
1.0
 40
1.0
 40
1.0
 10
9.485408508291053
 20
6.769930947301319
 30
0.0
 10
9.486180502119902
 20
6.769459489104918
 30
0.0
 10
9.487697114962147
 20
6.768533290567411
 30
0.0
 10
9.489908571763015
 20
6.766831179605518
 30
0.0
 10
9.491999158060937
 20
6.764927736607716
 30
0.0
 10
9.493953021589775
 20
6.76283039880528
 30
0.0
 10
9.495744429074911
 20
6.760554400151666
 30
0.0
 10
9.497350953721002
 20
6.758134718612566
 30
0.0
 10
9.498733793810402
 20
6.755571511366084
 30
0.0
 10
9.49992027311177
 20
6.752885065125832
 30
0.0
 10
9.500938577737855
 20
6.750059717675036
 30
0.0
 10
9.501849226960527
 20
6.747079720531445
 30
0.0
 10
9.502665786841973
 20
6.743927381696721
 30
0.0
 10
9.503263453918851
 20
6.741189296910211
 30
0.0
 10
9.5036824757748
 20
6.738878135634714
 30
0.0
 10
9.50393758745053
 20
6.737020963416139
 30
0.0
 10
9.504173129643506
 20
6.735045661287768
 30
0.0
 10
9.504340085124795
 20
6.73297612114019
 30
0.0
 10
9.504509975911452
 20
6.730780276446652
 30
0.0
 10
9.504593853065085
 20
6.728500329046107
 30
0.0
 10
9.504657863701496
 20
6.726099608382429
 30
0.0
 10
9.504667619155251
 20
6.724471476346165
 30
0.0
 10
9.50467263534261
 20
6.723634302028889
 30
0.0
  0
SPLINE
  5
17B
330
1F
100
AcDbEntity
  8
0
  6
Continuous
 62
     7
370
    18
100
AcDbSpline
210
0.0
220
0.0
230
1.0
 70
     8
 71
     3
 72
    31
 73
    27
 74
     0
 42
0.000000001
 43
0.00000001
 40
0.0
 40
0.0
 40
0.0
 40
0.0
 40
0.0631062077160515
 40
0.1235984861642897
 40
0.1809500532795165
 40
0.2352307003011586
 40
0.2870631704073534
 40
0.3362765070450819
 40
0.3826220599819554
 40
0.4265680494373587
 40
0.4681610595943256
 40
0.5081947319458068
 40
0.5465684502053744
 40
0.5834353656443697
 40
0.6191864383818927
 40
0.6535423560669009
 40
0.6873215086103884
 40
0.720583215672023
 40
0.7533869536543235
 40
0.7864125730603119
 40
0.8195275789583778
 40
0.8535644201015123
 40
0.8883228813126391
 40
0.9240057964313778
 40
0.9613553572612671
 40
1.0
 40
1.0
 40
1.0
 40
1.0
 10
9.466144381239497
 20
6.745876189690724
 30
0.0
 10
9.466152146788705
 20
6.746863581265123
 30
0.0
 10
9.466167356229446
 20
6.748797465557397
 30
0.0
 10
9.466261640465426
 20
6.751585511608276
 30
0.0
 10
9.466426407877208
 20
6.754189744719645
 30
0.0
 10
9.466671848840614
 20
6.756602071847935
 30
0.0
 10
9.466964702928044
 20
6.758851505211505
 30
0.0
 10
9.467339861406153
 20
6.760911457248852
 30
0.0
 10
9.467767978402147
 20
6.762801426363535
 30
0.0
 10
9.468275439829496
 20
6.764498069245056
 30
0.0
 10
9.46884238692058
 20
6.766033493133879
 30
0.0
 10
9.469474836771777
 20
6.767409466676166
 30
0.0
 10
9.47019504367216
 20
6.768604249440527
 30
0.0
 10
9.470942201634625
 20
6.769691284694179
 30
0.0
 10
9.471792281765646
 20
6.770568456353583
 30
0.0
 10
9.472685577401055
 20
6.771319916341678
 30
0.0
 10
9.4736492899882
 20
6.771907952028527
 30
0.0
 10
9.474687552594329
 20
6.772324641977424
 30
0.0
 10
9.475792316465903
 20
6.772583901338734
 30
0.0
 10
9.476960103186709
 20
6.772688276235707
 30
0.0
 10
9.478199331114137
 20
6.772636000777308
 30
0.0
 10
9.479513495621637
 20
6.772396856317501
 30
0.0
 10
9.480889805250245
 20
6.772020463044428
 30
0.0
 10
9.48233370624436
 20
6.771496016710764
 30
0.0
 10
9.48384777274252
 20
6.770803827368567
 30
0.0
 10
9.484882385867236
 20
6.770225194316525
 30
0.0
 10
9.485408508291053
 20
6.769930947301319
 30
0.0
  0
SPLINE
  5
17C
330
1F
100
AcDbEntity
  8
0
  6
Continuous
 62
     7
370
    18
100
AcDbSpline
210
0.0
220
0.0
230
1.0
 70
     8
 71
     3
 72
    15
 73
    11
 74
     0
 42
0.000000001
 43
0.00000001
 40
0.0
 40
0.0
 40
0.0
 40
0.0
 40
0.097420668177216
 40
0.2008855880393196
 40
0.3111719701726499
 40
0.4297979458253723
 40
0.557739926364589
 40
0.6947152693641601
 40
0.8421299102060559
 40
0.9999999999999999
 40
0.9999999999999999
 40
0.9999999999999999
 40
0.9999999999999999
 10
9.471983819752
 20
6.714072620213364
 30
0.0
 10
9.471507476913546
 20
6.71514108121297
 30
0.0
 10
9.470525237589989
 20
6.717344293531452
 30
0.0
 10
9.469375611626786
 20
6.720797793101907
 30
0.0
 10
9.468350124913751
 20
6.724461010205142
 30
0.0
 10
9.467545305861663
 20
6.728338477073997
 30
0.0
 10
9.466914931919153
 20
6.732429714953886
 30
0.0
 10
9.466459644547708
 20
6.736741667353876
 30
0.0
 10
9.466201996718057
 20
6.741259565367416
 30
0.0
 10
9.46616401994425
 20
6.744302575719074
 30
0.0
 10
9.466144381239497
 20
6.745876189690724
 30
0.0
  0
SPLINE
  5
17D
330
1F
100
AcDbEntity
  8
0
  6
Continuous
 62
     7
370
    18
100
AcDbSpline
210
0.0
220
0.0
230
1.0
 70
     8
 71
     3
 72
    15
 73
    11
 74
     0
 42
0.000000001
 43
0.00000001
 40
0.0
 40
0.0
 40
0.0
 40
0.0
 40
0.1379032299933958
 40
0.2688733426002942
 40
0.3951781273461131
 40
0.5170892381308898
 40
0.6367430265135503
 40
0.756221816463797
 40
0.8766283594636818
 40
1.0
 40
1.0
 40
1.0
 40
1.0
 10
9.485408508291053
 20
6.699635158175513
 30
0.0
 10
9.484713442750058
 20
6.700059306206681
 30
0.0
 10
9.483358256251947
 20
6.700886278126794
 30
0.0
 10
9.481379106297126
 20
6.702332114351989
 30
0.0
 10
9.479521568497868
 20
6.70393826554417
 30
0.0
 10
9.477769975586586
 20
6.705665363075066
 30
0.0
 10
9.476144015946529
 20
6.707561599796603
 30
0.0
 10
9.474635926266954
 20
6.709597296905222
 30
0.0
 10
9.47321540257294
 20
6.711762841336641
 30
0.0
 10
9.472397662774966
 20
6.713296476005703
 30
0.0
 10
9.471983819752
 20
6.714072620213364
 30
0.0
  0
SPLINE
  5
17E
330
1F
100
AcDbEntity
  8
0
  6
Continuous
 62
     7
370
    18
100
AcDbSpline
210
0.0
220
0.0
230
1.0
 70
     8
 71
     3
 72
    15
 73
    11
 74
     0
 42
0.000000001
 43
0.00000001
 40
0.0
 40
0.0
 40
0.0
 40
0.0
 40
0.1426698808292013
 40
0.281193887141016
 40
0.4173277977783971
 40
0.5512149507785092
 40
0.6787379175113307
 40
0.7950142962491261
 40
0.9019895017774406
 40
1.0
 40
1.0
 40
1.0
 40
1.0
 10
9.545512584691908
 20
6.717882110296281
 30
0.0
 10
9.546475286564007
 20
6.717899285178135
 30
0.0
 10
9.54837271494903
 20
6.717933135853283
 30
0.0
 10
9.551058639157649
 20
6.718329127092864
 30
0.0
 10
9.553553537971291
 20
6.719019452479881
 30
0.0
 10
9.555842583763749
 20
6.719971298785443
 30
0.0
 10
9.557883916263085
 20
6.721121386826105
 30
0.0
 10
9.55961763639575
 20
6.722455420840411
 30
0.0
 10
9.56105690129587
 20
6.723907135978513
 30
0.0
 10
9.5617814590556
 20
6.725080678631771
 30
0.0
 10
9.562127894273877
 20
6.725641788494687
 30
0.0
  0
LINE
  5
17F
330
1F
100
AcDbEntity
  8
0
  6
Continuous
 62
     7
370
    18
100
AcDbLine
 10
9.5455125847
 20
6.7096790811
 30
0.0
 11
9.5455125847
 21
6.7178821103
 31
0.0
  0
SPLINE
  5
180
330
1F
100
AcDbEntity
  8
0
  6
Continuous
 62
     7
370
    18
100
AcDbSpline
210
0.0
220
0.0
230
1.0
 70
     8
 71
     3
 72
    15
 73
    11
 74
     0
 42
0.000000001
 43
0.00000001
 40
0.0
 40
0.0
 40
0.0
 40
0.0
 40
0.1116746448344054
 40
0.2321035109070463
 40
0.3623296061453155
 40
0.5015403706238744
 40
0.6415111562240621
 40
0.7710895894770902
 40
0.8901574839199068
 40
1.0
 40
1.0
 40
1.0
 40
1.0
 10
9.559382756169029
 20
6.711904932876542
 30
0.0
 10
9.558938908864576
 20
6.711667301933599
 30
0.0
 10
9.558016420883323
 20
6.711173412060577
 30
0.0
 10
9.556462073855599
 20
6.710614816683139
 30
0.0
 10
9.554715714462459
 20
6.710171649601718
 30
0.0
 10
9.552825654626275
 20
6.709832873183637
 30
0.0
 10
9.550890001598997
 20
6.709612744200253
 30
0.0
 10
9.549015035850882
 20
6.709493389188377
 30
0.0
 10
9.547241483850625
 20
6.709502213119979
 30
0.0
 10
9.546073189837218
 20
6.709621730680396
 30
0.0
 10
9.545512584691908
 20
6.709679081106364
 30
0.0
  0
LINE
  5
181
330
1F
100
AcDbEntity
  8
0
  6
Continuous
 62
     7
370
    18
100
AcDbLine
 10
9.5593827562
 20
6.657820554
 30
0.0
 11
9.5593827562
 21
6.7119049329
 31
0.0
  0
LINE
  5
182
330
1F
100
AcDbEntity
  8
0
  6
Continuous
 62
     7
370
    18
100
AcDbLine
 10
9.567088407
 20
6.6533721764
 30
0.0
 11
9.5593827562
 21
6.657820554
 31
0.0
  0
LINE
  5
183
330
1F
100
AcDbEntity
  8
0
  6
Continuous
 62
     7
370
    18
100
AcDbLine
 10
9.567088407
 20
6.7227781455
 30
0.0
 11
9.567088407
 21
6.6533721764
 31
0.0
  0
LINE
  5
184
330
1F
100
AcDbEntity
  8
0
  6
Continuous
 62
     7
370
    18
100
AcDbLine
 10
9.5621278943
 20
6.7256417885
 30
0.0
 11
9.567088407
 21
6.7227781455
 31
0.0
  0
LINE
  5
185
330
1F
100
AcDbEntity
  8
0
  6
Continuous
 62
     7
370
    18
100
AcDbLine
 10
9.6364392644
 20
6.6222349798
 30
0.0
 11
9.6441449152
 21
6.6177866023
 31
0.0
  0
LINE
  5
186
330
1F
100
AcDbEntity
  8
0
  6
Continuous
 62
     7
370
    18
100
AcDbLine
 10
9.6364392644
 20
6.6133367787
 30
0.0
 11
9.6364392644
 21
6.6222349798
 31
0.0
  0
LINE
  5
187
330
1F
100
AcDbEntity
  8
0
  6
Continuous
 62
     7
370
    18
100
AcDbLine
 10
9.6441449152
 20
6.6088884011
 30
0.0
 11
9.6364392644
 21
6.6133367787
 31
0.0
  0
LINE
  5
188
330
1F
100
AcDbEntity
  8
0
  6
Continuous
 62
     7
370
    18
100
AcDbLine
 10
9.6441449152
 20
6.6177866023
 30
0.0
 11
9.6441449152
 21
6.6088884011
 31
0.0
  0
SPLINE
  5
189
330
1F
100
AcDbEntity
  8
0
  6
Continuous
 62
     7
370
    18
100
AcDbSpline
210
0.0
220
0.0
230
1.0
 70
     8
 71
     3
 72
    23
 73
    19
 74
     0
 42
0.000000001
 43
0.00000001
 40
0.0
 40
0.0
 40
0.0
 40
0.0
 40
0.0698823039034414
 40
0.1383882841653964
 40
0.206758214230358
 40
0.2765984302164999
 40
0.3471345171864646
 40
0.4179202738343029
 40
0.490213056594082
 40
0.5664711022702212
 40
0.6078661527170744
 40
0.6522325532418384
 40
0.700546975039192
 40
0.7525228927159189
 40
0.808321340815731
 40
0.8684702740719038
 40
0.931979790540806
 40
1.0
 40
1.0
 40
1.0
 40
1.0
 10
9.72161078610195
 20
6.607769491404492
 30
0.0
 10
9.721119272087883
 20
6.608035016477308
 30
0.0
 10
9.72014592436964
 20
6.608560837138296
 30
0.0
 10
9.718724817313234
 20
6.608995884627865
 30
0.0
 10
9.717360219377019
 20
6.609200503406111
 30
0.0
 10
9.716073523182402
 20
6.609119755824267
 30
0.0
 10
9.714885075491434
 20
6.608769903772472
 30
0.0
 10
9.71386498184813
 20
6.60807607912039
 30
0.0
 10
9.713023977418652
 20
6.607062785342958
 30
0.0
 10
9.71248564865629
 20
6.605956653473497
 30
0.0
 10
9.712148938562288
 20
6.604895929527267
 30
0.0
 10
9.711898552562415
 20
6.603991745070872
 30
0.0
 10
9.711714204855092
 20
6.602943542245049
 30
0.0
 10
9.7115622983432
 20
6.601777975228445
 30
0.0
 10
9.711421259243084
 20
6.600506982430493
 30
0.0
 10
9.711350768669522
 20
6.599094465440359
 30
0.0
 10
9.711279079038475
 20
6.597583606458989
 30
0.0
 10
9.711279948388666
 20
6.596516403145206
 30
0.0
 10
9.711280397970553
 20
6.595964502102102
 30
0.0
  0
SPLINE
  5
18A
330
1F
100
AcDbEntity
  8
0
  6
Continuous
 62
     7
370
    18
100
AcDbSpline
210
0.0
220
0.0
230
1.0
 70
     8
 71
     3
 72
    23
 73
    19
 74
     0
 42
0.000000001
 43
0.00000001
 40
0.0
 40
0.0
 40
0.0
 40
0.0
 40
0.0840520374929027
 40
0.1623146334137115
 40
0.2366600199015785
 40
0.3057775454542916
 40
0.3698548822538668
 40
0.4308818052540332
 40
0.4880260023390452
 40
0.5427446849665438
 40
0.5951151179188187
 40
0.6466861713516503
 40
0.6997262587744747
 40
0.7534139566544636
 40
0.8093158108836097
 40
0.8690272915375968
 40
0.9322090442192221
 40
1.0
 40
1.0
 40
1.0
 40
1.0
 10
9.729003394857985
 20
6.592253946811675
 30
0.0
 10
9.729000470928002
 20
6.592710060047933
 30
0.0
 10
9.728994824466147
 20
6.593590869781364
 30
0.0
 10
9.728903355013106
 20
6.594919153429676
 30
0.0
 10
9.728780054001477
 20
6.596180812141763
 30
0.0
 10
9.728586243861603
 20
6.597393239078806
 30
0.0
 10
9.728342136161316
 20
6.598545743234549
 30
0.0
 10
9.728062257065163
 20
6.599639418750167
 30
0.0
 10
9.72770839700917
 20
6.600686097045621
 30
0.0
 10
9.727302455503523
 20
6.601676891251793
 30
0.0
 10
9.72682523856188
 20
6.602612561840558
 30
0.0
 10
9.726289212050341
 20
6.603505775330171
 30
0.0
 10
9.725674646656042
 20
6.604345799346009
 30
0.0
 10
9.724988554134699
 20
6.605124946520379
 30
0.0
 10
9.724249555929894
 20
6.605890750054649
 30
0.0
 10
9.723425582407986
 20
6.60655098107754
 30
0.0
 10
9.722542237773531
 20
6.607216274859902
 30
0.0
 10
9.721928469916648
 20
6.607580809642891
 30
0.0
 10
9.72161078610195
 20
6.607769491404492
 30
0.0
  0
LINE
  5
18B
330
1F
100
AcDbEntity
  8
0
  6
Continuous
 62
     7
370
    18
100
AcDbLine
 10
9.7290033949
 20
6.5599006435
 30
0.0
 11
9.7290033949
 21
6.5922539468
 31
0.0
  0
LINE
  5
18C
330
1F
100
AcDbEntity
  8
0
  6
Continuous
 62
     7
370
    18
100
AcDbLine
 10
9.7367090457
 20
6.555452266
 30
0.0
 11
9.7290033949
 21
6.5599006435
 31
0.0
  0
LINE
  5
18D
330
1F
100
AcDbEntity
  8
0
  6
Continuous
 62
     7
370
    18
100
AcDbLine
 10
9.7367090457
 20
6.5843853232
 30
0.0
 11
9.7367090457
 21
6.555452266
 31
0.0
  0
SPLINE
  5
18E
330
1F
100
AcDbEntity
  8
0
  6
Continuous
 62
     7
370
    18
100
AcDbSpline
210
0.0
220
0.0
230
1.0
 70
     8
 71
     3
 72
    23
 73
    19
 74
     0
 42
0.000000001
 43
0.00000001
 40
0.0
 40
0.0
 40
0.0
 40
0.0
 40
0.0585757660198503
 40
0.1150346943684866
 40
0.1697636152311729
 40
0.2236478972929972
 40
0.2768730316667481
 40
0.3302884546297408
 40
0.3850366836323345
 40
0.4406848389014089
 40
0.4978802676984123
 40
0.557223262316252
 40
0.6200374272436314
 40
0.6862557553842882
 40
0.7567477502249743
 40
0.8318929806595926
 40
0.9128343922551199
 40
1.0
 40
1.0
 40
1.0
 40
1.0
 10
9.74696719333356
 20
6.593131549087045
 30
0.0
 10
9.746605388993908
 20
6.593330631637641
 30
0.0
 10
9.745894855364368
 20
6.593721602203079
 30
0.0
 10
9.744856556541635
 20
6.594143151827305
 30
0.0
 10
9.743859410461663
 20
6.59446639602239
 30
0.0
 10
9.7429202057368
 20
6.5946080197787
 30
0.0
 10
9.742020282133339
 20
6.594644473808908
 30
0.0
 10
9.74117269427808
 20
6.594525132331339
 30
0.0
 10
9.74036368370835
 20
6.594288054250844
 30
0.0
 10
9.73961712369581
 20
6.593889368203445
 30
0.0
 10
9.73891766346758
 20
6.593364590870795
 30
0.0
 10
9.73833038076096
 20
6.592614871296563
 30
0.0
 10
9.737823262513135
 20
6.591696623271495
 30
0.0
 10
9.73741941323686
 20
6.590583550952616
 30
0.0
 10
9.73709250417165
 20
6.589308460324268
 30
0.0
 10
9.736867215573195
 20
6.587842595603814
 30
0.0
 10
9.736737422657924
 20
6.586188558925162
 30
0.0
 10
9.736718735306033
 20
6.585001057606841
 30
0.0
 10
9.736709045678607
 20
6.584385323210292
 30
0.0
  0
SPLINE
  5
18F
330
1F
100
AcDbEntity
  8
0
  6
Continuous
 62
     7
370
    18
100
AcDbSpline
210
0.0
220
0.0
230
1.0
 70
     8
 71
     3
 72
    19
 73
    15
 74
     0
 42
0.000000001
 43
0.00000001
 40
0.0
 40
0.0
 40
0.0
 40
0.0
 40
0.1364148811765273
 40
0.2528973605082374
 40
0.3492204458013846
 40
0.4269322474132377
 40
0.4944524086148355
 40
0.5607020268402109
 40
0.6286260433619806
 40
0.698836431094077
 40
0.7714182240963994
 40
0.844156854000546
 40
0.9199641120853087
 40
1.0
 40
1.0
 40
1.0
 40
1.0
 10
9.75443204256604
 20
6.576587156764212
 30
0.0
 10
9.754421478157505
 20
6.577376579252314
 30
0.0
 10
9.754401892969948
 20
6.578840076942923
 30
0.0
 10
9.754296696701905
 20
6.580904728021534
 30
0.0
 10
9.75408550770004
 20
6.582678487991455
 30
0.0
 10
9.753795647619782
 20
6.584197885032202
 30
0.0
 10
9.753350343749485
 20
6.585562454733141
 30
0.0
 10
9.752787679250732
 20
6.586852162216311
 30
0.0
 10
9.75208105960622
 20
6.588111462545363
 30
0.0
 10
9.75124670144374
 20
6.589332206819249
 30
0.0
 10
9.750301691848266
 20
6.590475233305636
 30
0.0
 10
9.74925818703476
 20
6.5914899302847
 30
0.0
 10
9.748142159476522
 20
6.592414018233513
 30
0.0
 10
9.74736586996438
 20
6.592888084383906
 30
0.0
 10
9.74696719333356
 20
6.593131549087045
 30
0.0
  0
LINE
  5
190
330
1F
100
AcDbEntity
  8
0
  6
Continuous
 62
     7
370
    18
100
AcDbLine
 10
9.7544320426
 20
6.5452209977
 30
0.0
 11
9.7544320426
 21
6.5765871568
 31
0.0
  0
LINE
  5
191
330
1F
100
AcDbEntity
  8
0
  6
Continuous
 62
     7
370
    18
100
AcDbLine
 10
9.7621376934
 20
6.5407726202
 30
0.0
 11
9.7544320426
 21
6.5452209977
 31
0.0
  0
LINE
  5
192
330
1F
100
AcDbEntity
  8
0
  6
Continuous
 62
     7
370
    18
100
AcDbLine
 10
9.7621376934
 20
6.5754199909
 30
0.0
 11
9.7621376934
 21
6.5407726202
 31
0.0
  0
SPLINE
  5
193
330
1F
100
AcDbEntity
  8
0
  6
Continuous
 62
     7
370
    18
100
AcDbSpline
210
0.0
220
0.0
230
1.0
 70
     8
 71
     3
 72
    23
 73
    19
 74
     0
 42
0.000000001
 43
0.00000001
 40
0.0
 40
0.0
 40
0.0
 40
0.0
 40
0.0684858423217284
 40
0.1336315466164042
 40
0.1953270837667405
 40
0.2542221042059945
 40
0.3112724040630444
 40
0.3666124446917554
 40
0.4212564852255809
 40
0.4760702201722825
 40
0.5314280570704047
 40
0.5882286934627503
 40
0.6473050178610779
 40
0.7093984115158152
 40
0.7752829671512457
 40
0.845228497828817
 40
0.9203967621689222
 40
1.0
 40
1.0
 40
1.0
 40
1.0
 10
9.748821365562273
 20
6.600069539282968
 30
0.0
 10
9.74933959205926
 20
6.599756770937158
 30
0.0
 10
9.750350770515158
 20
6.599146488339084
 30
0.0
 10
9.751820394758392
 20
6.598099526510528
 30
0.0
 10
9.753201604463612
 20
6.596991518310016
 30
0.0
 10
9.754486393874764
 20
6.595784450873376
 30
0.0
 10
9.755682316357516
 20
6.594512570850078
 30
0.0
 10
9.756790610090611
 20
6.593163412036156
 30
0.0
 10
9.757793098032758
 20
6.59172360489193
 30
0.0
 10
9.758717870352333
 20
6.590219149027591
 30
0.0
 10
9.75952869908302
 20
6.588626505342564
 30
0.0
 10
9.760230017489052
 20
6.586959958094802
 30
0.0
 10
9.760821772224135
 20
6.585217709585162
 30
0.0
 10
9.761297375309352
 20
6.583401799552617
 30
0.0
 10
9.761689401813111
 20
6.581503958021719
 30
0.0
 10
9.761940493677484
 20
6.579536632732348
 30
0.0
 10
9.762119217694142
 20
6.577479211587713
 30
0.0
 10
9.762131418286598
 20
6.576119386386724
 30
0.0
 10
9.762137693386663
 20
6.575419990907811
 30
0.0
  0
SPLINE
  5
194
330
1F
100
AcDbEntity
  8
0
  6
Continuous
 62
     7
370
    18
100
AcDbSpline
210
0.0
220
0.0
230
1.0
 70
     8
 71
     3
 72
    15
 73
    11
 74
     0
 42
0.000000001
 43
0.00000001
 40
0.0
 40
0.0
 40
0.0
 40
0.0
 40
0.1423029469909943
 40
0.2753838759350564
 40
0.4024786494899652
 40
0.5233761876629234
 40
0.6412310342564431
 40
0.7583226851907713
 40
0.8775530580400313
 40
1.0
 40
1.0
 40
1.0
 40
1.0
 10
9.735505037737886
 20
6.598344263296641
 30
0.0
 10
9.735932378349327
 20
6.598846436149818
 30
0.0
 10
9.736759365536956
 20
6.59981823827775
 30
0.0
 10
9.73820002119841
 20
6.600907754217499
 30
0.0
 10
9.739724877287331
 20
6.601664949493026
 30
0.0
 10
9.741355008231025
 20
6.602064216082266
 30
0.0
 10
9.743080482162512
 20
6.602108663345764
 30
0.0
 10
9.74490657735816
 20
6.601802337532007
 30
0.0
 10
9.74683543811026
 20
6.601123161705613
 30
0.0
 10
9.74815354204068
 20
6.600423849223146
 30
0.0
 10
9.748821365562273
 20
6.600069539282968
 30
0.0
  0
SPLINE
  5
195
330
1F
100
AcDbEntity
  8
0
  6
Continuous
 62
     7
370
    18
100
AcDbSpline
210
0.0
220
0.0
230
1.0
 70
     8
 71
     3
 72
    15
 73
    11
 74
     0
 42
0.000000001
 43
0.00000001
 40
0.0
 40
0.0
 40
0.0
 40
0.0
 40
0.1427448629824129
 40
0.27463464979656
 40
0.3982435516696309
 40
0.5176044543884921
 40
0.6347051380894354
 40
0.7520881184910977
 40
0.8730810341089198
 40
1.0
 40
1.0
 40
1.0
 40
1.0
 10
9.72382616071288
 20
6.614498963903585
 30
0.0
 10
9.724558918939785
 20
6.61405105847129
 30
0.0
 10
9.725968712573177
 20
6.61318930871042
 30
0.0
 10
9.727975565666455
 20
6.611541264675735
 30
0.0
 10
9.729791753575801
 20
6.609739238728173
 30
0.0
 10
9.731385497960632
 20
6.60771777848707
 30
0.0
 10
9.732762275621294
 20
6.605543298492083
 30
0.0
 10
9.733918076211781
 20
6.60323779707758
 30
0.0
 10
9.734860900229418
 20
6.600810563812681
 30
0.0
 10
9.735286930644957
 20
6.599179360816612
 30
0.0
 10
9.735505037737886
 20
6.598344263296641
 30
0.0
  0
SPLINE
  5
196
330
1F
100
AcDbEntity
  8
0
  6
Continuous
 62
     7
370
    18
100
AcDbSpline
210
0.0
220
0.0
230
1.0
 70
     8
 71
     3
 72
    15
 73
    11
 74
     0
 42
0.000000001
 43
0.00000001
 40
0.0
 40
0.0
 40
0.0
 40
0.0
 40
0.1266319284235806
 40
0.2498443757728033
 40
0.3726046475920054
 40
0.496750966403897
 40
0.6205941793274093
 40
0.7437520563069232
 40
0.8691668313601768
 40
0.9999999999999999
 40
0.9999999999999999
 40
0.9999999999999999
 40
0.9999999999999999
 10
9.711280397970553
 20
6.61294060149344
 30
0.0
 10
9.711619576072604
 20
6.613386431842025
 30
0.0
 10
9.71228877334566
 20
6.614266053644593
 30
0.0
 10
9.713530562553514
 20
6.615239564606556
 30
0.0
 10
9.714907411980759
 20
6.615962978912778
 30
0.0
 10
9.716446278570162
 20
6.616378189584232
 30
0.0
 10
9.718118986515053
 20
6.616483586844409
 30
0.0
 10
9.719924369947421
 20
6.616189442528491
 30
0.0
 10
9.72183667229934
 20
6.615566321592081
 30
0.0
 10
9.723153714900302
 20
6.614859730120299
 30
0.0
 10
9.72382616071288
 20
6.614498963903585
 30
0.0
  0
LINE
  5
197
330
1F
100
AcDbEntity
  8
0
  6
Continuous
 62
     7
370
    18
100
AcDbLine
 10
9.711280398
 20
6.6208516585
 30
0.0
 11
9.711280398
 21
6.6129406015
 31
0.0
  0
LINE
  5
198
330
1F
100
AcDbEntity
  8
0
  6
Continuous
 62
     7
370
    18
100
AcDbLine
 10
9.7035747471
 20
6.625300036
 30
0.0
 11
9.711280398
 21
6.6208516585
 31
0.0
  0
LINE
  5
199
330
1F
100
AcDbEntity
  8
0
  6
Continuous
 62
     7
370
    18
100
AcDbLine
 10
9.7035747471
 20
6.5745802894
 30
0.0
 11
9.7035747471
 21
6.625300036
 31
0.0
  0
LINE
  5
19A
330
1F
100
AcDbEntity
  8
0
  6
Continuous
 62
     7
370
    18
100
AcDbLine
 10
9.711280398
 20
6.5701319119
 30
0.0
 11
9.7035747471
 21
6.5745802894
 31
0.0
  0
LINE
  5
19B
330
1F
100
AcDbEntity
  8
0
  6
Continuous
 62
     7
370
    18
100
AcDbLine
 10
9.711280398
 20
6.5959645021
 30
0.0
 11
9.711280398
 21
6.5701319119
 31
0.0
  0
SPLINE
  5
19C
330
1F
100
AcDbEntity
  8
0
  6
Continuous
 62
     7
370
    18
100
AcDbSpline
210
0.0
220
0.0
230
1.0
 70
     8
 71
     3
 72
    23
 73
    19
 74
     0
 42
0.000000001
 43
0.00000001
 40
0.0
 40
0.0
 40
0.0
 40
0.0
 40
0.0704566919359964
 40
0.137942215327459
 40
0.2035567971151967
 40
0.267663058809511
 40
0.3301505615828461
 40
0.3914919015323506
 40
0.4521864543380016
 40
0.5126700013837516
 40
0.5729633191795123
 40
0.6329948591069363
 40
0.6923528599375409
 40
0.7514888206306592
 40
0.8116098011100288
 40
0.8729753007059771
 40
0.9354272115819273
 40
1.0
 40
1.0
 40
1.0
 40
1.0
 10
9.900201283949286
 20
6.497552830577852
 30
0.0
 10
9.900644701995729
 20
6.497136561199035
 30
0.0
 10
9.901512839087635
 20
6.496321576579279
 30
0.0
 10
9.902760856675627
 20
6.495026841524268
 30
0.0
 10
9.903932439036954
 20
6.493696703330928
 30
0.0
 10
9.905029785850937
 20
6.492328413416397
 30
0.0
 10
9.906046743983248
 20
6.490920178569033
 30
0.0
 10
9.906973710615965
 20
6.489473095948671
 30
0.0
 10
9.907836438929717
 20
6.488004081363217
 30
0.0
 10
9.908605972797675
 20
6.486499018323158
 30
0.0
 10
9.909291749571247
 20
6.484975525466723
 30
0.0
 10
9.909894522541881
 20
6.483448135641654
 30
0.0
 10
9.910403075688807
 20
6.481926667238747
 30
0.0
 10
9.910812666064473
 20
6.480413721283371
 30
0.0
 10
9.91114152836181
 20
6.478900541752511
 30
0.0
 10
9.911367456383395
 20
6.477392515947818
 30
0.0
 10
9.911501450470976
 20
6.475887450996068
 30
0.0
 10
9.911521040243937
 20
6.474909008516546
 30
0.0
 10
9.911530998671484
 20
6.474411618957188
 30
0.0
  0
SPLINE
  5
19D
330
1F
100
AcDbEntity
  8
0
  6
Continuous
 62
     7
370
    18
100
AcDbSpline
210
0.0
220
0.0
230
1.0
 70
     8
 71
     3
 72
    15
 73
    11
 74
     0
 42
0.000000001
 43
0.00000001
 40
0.0
 40
0.0
 40
0.0
 40
0.0
 40
0.1158295875216601
 40
0.2305424686501985
 40
0.3473153149035192
 40
0.4672171589244876
 40
0.5918251525040955
 40
0.7200018400675172
 40
0.8556167143161895
 40
1.0
 40
1.0
 40
1.0
 40
1.0
 10
9.909219303425298
 20
6.507279132560514
 30
0.0
 10
9.909191247725992
 20
6.506551047400338
 30
0.0
 10
9.90913540681077
 20
6.505101896507148
 30
0.0
 10
9.908691322803717
 20
6.503176029489761
 30
0.0
 10
9.907991456738175
 20
6.50146726451774
 30
0.0
 10
9.907004790278371
 20
6.500007995200897
 30
0.0
 10
9.905747420524296
 20
6.498819190557438
 30
0.0
 10
9.904159953366468
 20
6.498031789132699
 30
0.0
 10
9.90230891187542
 20
6.497568158011871
 30
0.0
 10
9.900918342265848
 20
6.49755804528577
 30
0.0
 10
9.900201283949286
 20
6.497552830577852
 30
0.0
  0
SPLINE
  5
19E
330
1F
100
AcDbEntity
  8
0
  6
Continuous
 62
     7
370
    18
100
AcDbSpline
210
0.0
220
0.0
230
1.0
 70
     8
 71
     3
 72
    23
 73
    19
 74
     0
 42
0.000000001
 43
0.00000001
 40
0.0
 40
0.0
 40
0.0
 40
0.0
 40
0.0587091926504243
 40
0.1145583248299047
 40
0.1675915981453285
 40
0.2178819266220622
 40
0.2656718295366479
 40
0.3109453394726636
 40
0.3539520014062915
 40
0.3948891755968533
 40
0.4729198560061297
 40
0.5489382800594238
 40
0.6250938359126121
 40
0.702564787611315
 40
0.7798271041064191
 40
0.8541202275563307
 40
0.9271836001441786
 40
1.0
 40
1.0
 40
1.0
 40
1.0
 10
9.889341132323972
 20
6.536745606936643
 30
0.0
 10
9.889899165059598
 20
6.536420979275715
 30
0.0
 10
9.89098804556549
 20
6.535787538423435
 30
0.0
 10
9.892578072603436
 20
6.534749140172218
 30
0.0
 10
9.89408381240594
 20
6.533714395550078
 30
0.0
 10
9.895509115052457
 20
6.532680598884012
 30
0.0
 10
9.896844739066967
 20
6.531595262144219
 30
0.0
 10
9.898101399385173
 20
6.530515565243307
 30
0.0
 10
9.899272597329858
 20
6.529408727504363
 30
0.0
 10
9.90070308400727
 20
6.52792364981091
 30
0.0
 10
9.90234696897223
 20
6.525968350339451
 30
0.0
 10
9.904103981925788
 20
6.523432291523934
 30
0.0
 10
9.905634268793259
 20
6.520738133144641
 30
0.0
 10
9.906914114681937
 20
6.517930030359346
 30
0.0
 10
9.907925113824907
 20
6.515112115990438
 30
0.0
 10
9.908669579468121
 20
6.51236699065735
 30
0.0
 10
9.909138817950987
 20
6.50972806072927
 30
0.0
 10
9.909192505231172
 20
6.508094520095097
 30
0.0
 10
9.909219303425298
 20
6.507279132560514
 30
0.0
  0
LINE
  5
19F
330
1F
100
AcDbEntity
  8
0
  6
Continuous
 62
     7
370
    18
100
AcDbLine
 10
9.8668382239
 20
6.5497362594
 30
0.0
 11
9.8893411323
 21
6.5367456069
 31
0.0
  0
LINE
  5
1A0
330
1F
100
AcDbEntity
  8
0
  6
Continuous
 62
     7
370
    18
100
AcDbLine
 10
9.8668382239
 20
6.4803302904
 30
0.0
 11
9.8668382239
 21
6.5497362594
 31
0.0
  0
LINE
  5
1A1
330
1F
100
AcDbEntity
  8
0
  6
Continuous
 62
     7
370
    18
100
AcDbLine
 10
9.8894013327
 20
6.467304885
 30
0.0
 11
9.8668382239
 21
6.4803302904
 31
0.0
  0
SPLINE
  5
1A2
330
1F
100
AcDbEntity
  8
0
  6
Continuous
 62
     7
370
    18
100
AcDbSpline
210
0.0
220
0.0
230
1.0
 70
     8
 71
     3
 72
    23
 73
    19
 74
     0
 42
0.000000001
 43
0.00000001
 40
0.0
 40
0.0
 40
0.0
 40
0.0
 40
0.0642665479584312
 40
0.1274461798182316
 40
0.1891017562790038
 40
0.251362275940341
 40
0.3116800339902287
 40
0.3686477590533376
 40
0.4221317262002525
 40
0.4735202330394787
 40
0.5252432158190506
 40
0.5796098773427357
 40
0.6368832354805298
 40
0.6979197025564187
 40
0.7638889414843453
 40
0.8362842685641498
 40
0.9146618961957456
 40
1.0
 40
1.0
 40
1.0
 40
1.0
 10
9.911530998671484
 20
6.474411618957188
 30
0.0
 10
9.91151182653332
 20
6.473633072772156
 30
0.0
 10
9.911473806508203
 20
6.47208914766265
 30
0.0
 10
9.911120708854313
 20
6.470000256501937
 30
0.0
 10
9.910582085317888
 20
6.468095705558228
 30
0.0
 10
9.909810790041936
 20
6.466455774129203
 30
0.0
 10
9.908891577207902
 20
6.465051229200383
 30
0.0
 10
9.907861144160819
 20
6.463915073243112
 30
0.0
 10
9.906722053495718
 20
6.463075905939761
 30
0.0
 10
9.905456496463035
 20
6.462548567992721
 30
0.0
 10
9.90405787009371
 20
6.462285300213884
 30
0.0
 10
9.90250850674823
 20
6.462265559135253
 30
0.0
 10
9.900798710206562
 20
6.462472756764578
 30
0.0
 10
9.898916845537709
 20
6.462920371828033
 30
0.0
 10
9.896839336530315
 20
6.463620291613376
 30
0.0
 10
9.894553685741363
 20
6.464590525927987
 30
0.0
 10
9.892049619778357
 20
6.46580711950307
 30
0.0
 10
9.890308766230657
 20
6.466791676796991
 30
0.0
 10
9.889401332721008
 20
6.467304884976883
 30
0.0
  0
LINE
  5
1A3
330
1F
100
AcDbEntity
  8
0
  6
Continuous
 62
     7
370
    18
100
AcDbLine
 10
10.0110302149
 20
6.4184457086
 30
0.0
 11
9.9854089259
 21
6.4332365639
 31
0.0
  0
LINE
  5
1A4
330
1F
100
AcDbEntity
  8
0
  6
Continuous
 62
     7
370
    18
100
AcDbLine
 10
10.01786898
 20
6.3931420908
 30
0.0
 11
10.0110302149
 21
6.4184457086
 31
0.0
  0
LINE
  5
1A5
330
1F
100
AcDbEntity
  8
0
  6
Continuous
 62
     7
370
    18
100
AcDbLine
 10
10.0268629193
 20
6.3879500002
 30
0.0
 11
10.01786898
 21
6.3931420908
 31
0.0
  0
LINE
  5
1A6
330
1F
100
AcDbEntity
  8
0
  6
Continuous
 62
     7
370
    18
100
AcDbLine
 10
10.0029994819
 20
6.4711320383
 30
0.0
 11
10.0268629193
 21
6.3879500002
 31
0.0
  0
LINE
  5
1A7
330
1F
100
AcDbEntity
  8
0
  6
Continuous
 62
     7
370
    18
100
AcDbLine
 10
9.9934396589
 20
6.4766508067
 30
0.0
 11
10.0029994819
 21
6.4711320383
 31
0.0
  0
LINE
  5
1A8
330
1F
100
AcDbEntity
  8
0
  6
Continuous
 62
     7
370
    18
100
AcDbLine
 10
9.9695762215
 20
6.4210209069
 30
0.0
 11
9.9934396589
 21
6.4766508067
 31
0.0
  0
LINE
  5
1A9
330
1F
100
AcDbEntity
  8
0
  6
Continuous
 62
     7
370
    18
100
AcDbLine
 10
9.9785701608
 20
6.4158288162
 30
0.0
 11
9.9695762215
 21
6.4210209069
 31
0.0
  0
LINE
  5
1AA
330
1F
100
AcDbEntity
  8
0
  6
Continuous
 62
     7
370
    18
100
AcDbLine
 10
9.9854089259
 20
6.4332365639
 30
0.0
 11
9.9785701608
 21
6.4158288162
 31
0.0
  0
SPLINE
  5
1AB
330
1F
100
AcDbEntity
  8
0
  6
Continuous
 62
     7
370
    18
100
AcDbSpline
210
0.0
220
0.0
230
1.0
 70
     8
 71
     3
 72
    23
 73
    19
 74
     0
 42
0.000000001
 43
0.00000001
 40
0.0
 40
0.0
 40
0.0
 40
0.0
 40
0.0568085774416421
 40
0.1138743061995227
 40
0.1705217881146937
 40
0.22753238754802
 40
0.2853338163942524
 40
0.343678406679814
 40
0.4031638464236856
 40
0.4640016976891373
 40
0.5258265021920403
 40
0.5890966672842429
 40
0.6532934596517426
 40
0.7191151703198085
 40
0.7867627456159806
 40
0.8557978498721194
 40
0.9268406513628026
 40
1.0
 40
1.0
 40
1.0
 40
1.0
 10
10.16566095471974
 20
6.371264993400086
 30
0.0
 10
10.16604754694346
 20
6.370649789179227
 30
0.0
 10
10.16682248135023
 20
6.369416595936655
 30
0.0
 10
10.16788682594826
 20
6.367507431802982
 30
0.0
 10
10.16887429324504
 20
6.365563933755517
 30
0.0
 10
10.16981392723835
 20
6.363592726472987
 30
0.0
 10
10.17064730939813
 20
6.361576414655936
 30
0.0
 10
10.1714242947957
 20
6.359525026744731
 30
0.0
 10
10.17212086328418
 20
6.357435880587687
 30
0.0
 10
10.17274928311247
 20
6.355311222723401
 30
0.0
 10
10.17328356194109
 20
6.353158614346953
 30
0.0
 10
10.1737709702333
 20
6.350979416097365
 30
0.0
 10
10.17416591042398
 20
6.34878161884792
 30
0.0
 10
10.17448635888492
 20
6.346563286666726
 30
0.0
 10
10.17475784348234
 20
6.344312103486907
 30
0.0
 10
10.17493203988542
 20
6.342048512543117
 30
0.0
 10
10.17504454556491
 20
6.339757456043656
 30
0.0
 10
10.17505762236729
 20
6.338242276109755
 30
0.0
 10
10.17506425673678
 20
6.337473566510528
 30
0.0
  0
SPLINE
  5
1AC
330
1F
100
AcDbEntity
  8
0
  6
Continuous
 62
     7
370
    18
100
AcDbSpline
210
0.0
220
0.0
230
1.0
 70
     8
 71
     3
 72
    11
 73
     7
 74
     0
 42
0.000000001
 43
0.00000001
 40
0.0
 40
0.0
 40
0.0
 40
0.0
 40
0.2612129589999406
 40
0.5120481565985866
 40
0.7577925134560944
 40
0.9999999999999999
 40
0.9999999999999999
 40
0.9999999999999999
 40
0.9999999999999999
 10
10.15691985707009
 20
6.38127464949523
 30
0.0
 10
10.157749140367
 20
6.380545630634261
 30
0.0
 10
10.1593747602639
 20
6.379116556191268
 30
0.0
 10
10.16166890128004
 20
6.376671130092157
 30
0.0
 10
10.16378501119643
 20
6.374069782384664
 30
0.0
 10
10.16503866921705
 20
6.372195394289836
 30
0.0
 10
10.16566095471974
 20
6.371264993400086
 30
0.0
  0
SPLINE
  5
1AD
330
1F
100
AcDbEntity
  8
0
  6
Continuous
 62
     7
370
    18
100
AcDbSpline
210
0.0
220
0.0
230
1.0
 70
     8
 71
     3
 72
    15
 73
    11
 74
     0
 42
0.000000001
 43
0.00000001
 40
0.0
 40
0.0
 40
0.0
 40
0.0
 40
0.1579006741699971
 40
0.3068429927578538
 40
0.4456810446995552
 40
0.5745702240195034
 40
0.6946513602279512
 40
0.8061472401516251
 40
0.9077586887724007
 40
0.9999999999999999
 40
0.9999999999999999
 40
0.9999999999999999
 40
0.9999999999999999
 10
10.14630050703292
 20
6.38840611741198
 30
0.0
 10
10.14686244543745
 20
6.388081063964735
 30
0.0
 10
10.14795444116638
 20
6.387449398691083
 30
0.0
 10
10.14953941560179
 20
6.386467058939313
 30
0.0
 10
10.15102153679198
 20
6.385555431516662
 30
0.0
 10
10.15239783403572
 20
6.384641966079711
 30
0.0
 10
10.15367609399679
 20
6.383775541576456
 30
0.0
 10
10.15485022547328
 20
6.382906737761925
 30
0.0
 10
10.15592638847141
 20
6.38210708395682
 30
0.0
 10
10.1565995468803
 20
6.38154303969975
 30
0.0
 10
10.15691985707009
 20
6.38127464949523
 30
0.0
  0
LINE
  5
1AE
330
1F
100
AcDbEntity
  8
0
  6
Continuous
 62
     7
370
    18
100
AcDbLine
 10
10.1257480915
 20
6.4002707744
 30
0.0
 11
10.146300507
 21
6.3884061174
 31
0.0
  0
LINE
  5
1AF
330
1F
100
AcDbEntity
  8
0
  6
Continuous
 62
     7
370
    18
100
AcDbLine
 10
10.1257480915
 20
6.3308648054
 30
0.0
 11
10.1257480915
 21
6.4002707744
 31
0.0
  0
LINE
  5
1B0
330
1F
100
AcDbEntity
  8
0
  6
Continuous
 62
     7
370
    18
100
AcDbLine
 10
10.1472757535
 20
6.3184371506
 30
0.0
 11
10.1257480915
 21
6.3308648054
 31
0.0
  0
SPLINE
  5
1B1
330
1F
100
AcDbEntity
  8
0
  6
Continuous
 62
     7
370
    18
100
AcDbSpline
210
0.0
220
0.0
230
1.0
 70
     8
 71
     3
 72
    27
 73
    23
 74
     0
 42
0.000000001
 43
0.00000001
 40
0.0
 40
0.0
 40
0.0
 40
0.0
 40
0.0705448498222794
 40
0.1372786169672313
 40
0.2002401813168831
 40
0.2603471513035002
 40
0.3169835805266445
 40
0.3701254960162121
 40
0.4196042158245999
 40
0.4660254160925956
 40
0.5099228771101213
 40
0.5518746116228237
 40
0.5918332769026645
 40
0.6301567736499494
 40
0.6686714112176136
 40
0.7086659988092269
 40
0.7506200671937266
 40
0.7950143457720112
 40
0.8419640617654018
 40
0.8917538081988116
 40
0.9442885369986657
 40
1.0
 40
1.0
 40
1.0
 40
1.0
 10
10.17506425673678
 20
6.337473566510528
 30
0.0
 10
10.17504803858992
 20
6.336202924738394
 30
0.0
 10
10.17501647845795
 20
6.333730285763627
 30
0.0
 10
10.17470715379669
 20
6.330290300945611
 30
0.0
 10
10.17422384615659
 20
6.327168900637212
 30
0.0
 10
10.1735247552713
 20
6.324409801201844
 30
0.0
 10
10.17266466005793
 20
6.321986821620047
 30
0.0
 10
10.17171204595251
 20
6.319862963796285
 30
0.0
 10
10.1706406207936
 20
6.318073157783783
 30
0.0
 10
10.16945332757651
 20
6.316621123026814
 30
0.0
 10
10.16818319337516
 20
6.315451670520836
 30
0.0
 10
10.16684453195008
 20
6.314542568992231
 30
0.0
 10
10.16546130806728
 20
6.313851451124715
 30
0.0
 10
10.16398968267895
 20
6.313428752196321
 30
0.0
 10
10.16241523786922
 20
6.313243047864249
 30
0.0
 10
10.16070893034317
 20
6.313274692417448
 30
0.0
 10
10.15884060991405
 20
6.313572083863042
 30
0.0
 10
10.1568279471028
 20
6.314059464306133
 30
0.0
 10
10.15465200368924
 20
6.314811975553724
 30
0.0
 10
10.15232862215469
 20
6.315779005854115
 30
0.0
 10
10.14985165081348
 20
6.316984139789599
 30
0.0
 10
10.14815102220428
 20
6.317943429487012
 30
0.0
 10
10.14727575346491
 20
6.318437150620251
 30
0.0
  0
LINE
  5
1B2
330
1F
100
AcDbEntity
  8
0
  6
Continuous
 62
     7
370
    18
100
AcDbLine
 10
10.2421997395
 20
6.2849943827
 30
0.0
 11
10.2165784505
 21
6.299785238
 31
0.0
  0
LINE
  5
1B3
330
1F
100
AcDbEntity
  8
0
  6
Continuous
 62
     7
370
    18
100
AcDbLine
 10
10.2490385046
 20
6.2596907648
 30
0.0
 11
10.2421997395
 21
6.2849943827
 31
0.0
  0
LINE
  5
1B4
330
1F
100
AcDbEntity
  8
0
  6
Continuous
 62
     7
370
    18
100
AcDbLine
 10
10.2580324439
 20
6.2544986742
 30
0.0
 11
10.2490385046
 21
6.2596907648
 31
0.0
  0
LINE
  5
1B5
330
1F
100
AcDbEntity
  8
0
  6
Continuous
 62
     7
370
    18
100
AcDbLine
 10
10.2341690065
 20
6.3376807124
 30
0.0
 11
10.2580324439
 21
6.2544986742
 31
0.0
  0
LINE
  5
1B6
330
1F
100
AcDbEntity
  8
0
  6
Continuous
 62
     7
370
    18
100
AcDbLine
 10
10.2246091835
 20
6.3431994807
 30
0.0
 11
10.2341690065
 21
6.3376807124
 31
0.0
  0
LINE
  5
1B7
330
1F
100
AcDbEntity
  8
0
  6
Continuous
 62
     7
370
    18
100
AcDbLine
 10
10.2007457461
 20
6.2875695809
 30
0.0
 11
10.2246091835
 21
6.3431994807
 31
0.0
  0
LINE
  5
1B8
330
1F
100
AcDbEntity
  8
0
  6
Continuous
 62
     7
370
    18
100
AcDbLine
 10
10.2097396854
 20
6.2823774902
 30
0.0
 11
10.2007457461
 21
6.2875695809
 31
0.0
  0
LINE
  5
1B9
330
1F
100
AcDbEntity
  8
0
  6
Continuous
 62
     7
370
    18
100
AcDbLine
 10
10.2165784505
 20
6.299785238
 30
0.0
 11
10.2097396854
 21
6.2823774902
 31
0.0
  0
LINE
  5
1BA
330
1F
100
AcDbEntity
  8
0
  6
Continuous
 62
     7
370
    18
100
AcDbLine
 10
10.3422768795
 20
6.2138737777
 30
0.0
 11
10.3777228733
 21
6.1934112411
 31
0.0
  0
LINE
  5
1BB
330
1F
100
AcDbEntity
  8
0
  6
Continuous
 62
     7
370
    18
100
AcDbLine
 10
10.3422768795
 20
6.2378989209
 30
0.0
 11
10.3422768795
 21
6.2138737777
 31
0.0
  0
LINE
  5
1BC
330
1F
100
AcDbEntity
  8
0
  6
Continuous
 62
     7
370
    18
100
AcDbLine
 10
10.3738700479
 20
6.219660573
 30
0.0
 11
10.3422768795
 21
6.2378989209
 31
0.0
  0
LINE
  5
1BD
330
1F
100
AcDbEntity
  8
0
  6
Continuous
 62
     7
370
    18
100
AcDbLine
 10
10.3738700479
 20
6.227668954
 30
0.0
 11
10.3738700479
 21
6.219660573
 31
0.0
  0
LINE
  5
1BE
330
1F
100
AcDbEntity
  8
0
  6
Continuous
 62
     7
370
    18
100
AcDbLine
 10
10.3422768795
 20
6.2459073019
 30
0.0
 11
10.3738700479
 21
6.227668954
 31
0.0
  0
LINE
  5
1BF
330
1F
100
AcDbEntity
  8
0
  6
Continuous
 62
     7
370
    18
100
AcDbLine
 10
10.3422768795
 20
6.2672629847
 30
0.0
 11
10.3422768795
 21
6.2459073019
 31
0.0
  0
LINE
  5
1C0
330
1F
100
AcDbEntity
  8
0
  6
Continuous
 62
     7
370
    18
100
AcDbLine
 10
10.3761817432
 20
6.2476901235
 30
0.0
 11
10.3422768795
 21
6.2672629847
 31
0.0
  0
LINE
  5
1C1
330
1F
100
AcDbEntity
  8
0
  6
Continuous
 62
     7
370
    18
100
AcDbLine
 10
10.3761817432
 20
6.2556985046
 30
0.0
 11
10.3761817432
 21
6.2476901235
 31
0.0
  0
LINE
  5
1C2
330
1F
100
AcDbEntity
  8
0
  6
Continuous
 62
     7
370
    18
100
AcDbLine
 10
10.3338006636
 20
6.280164581
 30
0.0
 11
10.3761817432
 21
6.2556985046
 31
0.0
  0
LINE
  5
1C3
330
1F
100
AcDbEntity
  8
0
  6
Continuous
 62
     7
370
    18
100
AcDbLine
 10
10.3338006636
 20
6.210758612
 30
0.0
 11
10.3338006636
 21
6.280164581
 31
0.0
  0
LINE
  5
1C4
330
1F
100
AcDbEntity
  8
0
  6
Continuous
 62
     7
370
    18
100
AcDbLine
 10
10.3777228733
 20
6.18540286
 30
0.0
 11
10.3338006636
 21
6.210758612
 31
0.0
  0
LINE
  5
1C5
330
1F
100
AcDbEntity
  8
0
  6
Continuous
 62
     7
370
    18
100
AcDbLine
 10
10.3777228733
 20
6.1934112411
 30
0.0
 11
10.3777228733
 21
6.18540286
 31
0.0
  0
LINE
  5
1C6
330
1F
100
AcDbEntity
  8
0
  6
Continuous
 62
     7
370
    18
100
AcDbLine
 10
10.4486148609
 20
6.1524861678
 30
0.0
 11
10.4840608546
 21
6.1320236311
 31
0.0
  0
LINE
  5
1C7
330
1F
100
AcDbEntity
  8
0
  6
Continuous
 62
     7
370
    18
100
AcDbLine
 10
10.4486148609
 20
6.1765113109
 30
0.0
 11
10.4486148609
 21
6.1524861678
 31
0.0
  0
LINE
  5
1C8
330
1F
100
AcDbEntity
  8
0
  6
Continuous
 62
     7
370
    18
100
AcDbLine
 10
10.4802080292
 20
6.158272963
 30
0.0
 11
10.4486148609
 21
6.1765113109
 31
0.0
  0
LINE
  5
1C9
330
1F
100
AcDbEntity
  8
0
  6
Continuous
 62
     7
370
    18
100
AcDbLine
 10
10.4802080292
 20
6.1662813441
 30
0.0
 11
10.4802080292
 21
6.158272963
 31
0.0
  0
LINE
  5
1CA
330
1F
100
AcDbEntity
  8
0
  6
Continuous
 62
     7
370
    18
100
AcDbLine
 10
10.4486148609
 20
6.1845196919
 30
0.0
 11
10.4802080292
 21
6.1662813441
 31
0.0
  0
LINE
  5
1CB
330
1F
100
AcDbEntity
  8
0
  6
Continuous
 62
     7
370
    18
100
AcDbLine
 10
10.4486148609
 20
6.2058753747
 30
0.0
 11
10.4486148609
 21
6.1845196919
 31
0.0
  0
LINE
  5
1CC
330
1F
100
AcDbEntity
  8
0
  6
Continuous
 62
     7
370
    18
100
AcDbLine
 10
10.4825197245
 20
6.1863025136
 30
0.0
 11
10.4486148609
 21
6.2058753747
 31
0.0
  0
LINE
  5
1CD
330
1F
100
AcDbEntity
  8
0
  6
Continuous
 62
     7
370
    18
100
AcDbLine
 10
10.4825197245
 20
6.1943108946
 30
0.0
 11
10.4825197245
 21
6.1863025136
 31
0.0
  0
LINE
  5
1CE
330
1F
100
AcDbEntity
  8
0
  6
Continuous
 62
     7
370
    18
100
AcDbLine
 10
10.440138645
 20
6.218776971
 30
0.0
 11
10.4825197245
 21
6.1943108946
 31
0.0
  0
LINE
  5
1CF
330
1F
100
AcDbEntity
  8
0
  6
Continuous
 62
     7
370
    18
100
AcDbLine
 10
10.440138645
 20
6.149371002
 30
0.0
 11
10.440138645
 21
6.218776971
 31
0.0
  0
LINE
  5
1D0
330
1F
100
AcDbEntity
  8
0
  6
Continuous
 62
     7
370
    18
100
AcDbLine
 10
10.4840608546
 20
6.1240152501
 30
0.0
 11
10.440138645
 21
6.149371002
 31
0.0
  0
LINE
  5
1D1
330
1F
100
AcDbEntity
  8
0
  6
Continuous
 62
     7
370
    18
100
AcDbLine
 10
10.4840608546
 20
6.1320236311
 30
0.0
 11
10.4840608546
 21
6.1240152501
 31
0.0
  0
LINE
  5
1D2
330
1F
100
AcDbEntity
  8
0
  6
Continuous
 62
     7
370
    18
100
AcDbLine
 10
9.2994983504
 20
8.1649394573
 30
0.0
 11
10.6430012347
 21
7.3893517511
 31
0.0
  0
LINE
  5
1D3
330
1F
100
AcDbEntity
  8
0
  6
Continuous
 62
     7
370
    18
100
AcDbLine
 10
10.6430012347
 20
7.3893517511
 30
0.0
 11
10.6430012347
 21
5.8607873513
 31
0.0
  0
LINE
  5
1D4
330
1F
100
AcDbEntity
  8
0
  6
Continuous
 62
     7
370
    18
100
AcDbLine
 10
9.2994983504
 20
6.6363750575
 30
0.0
 11
10.6430012347
 21
5.8607873513
 31
0.0
  0
LINE
  5
1D5
330
1F
100
AcDbEntity
  8
0
  6
Continuous
 62
     7
370
    18
100
AcDbLine
 10
9.2994983504
 20
6.6363750575
 30
0.0
 11
9.2994983504
 21
8.1649394573
 31
0.0
  0
LWPOLYLINE
  5
1D6
330
1F
100
AcDbEntity
  8
0
  6
Continuous
 62
     7
370
    18
100
AcDbPolyline
 90
       97
 70
   128
 43
0.0
 10
9.745859506
 20
7.204219008
 10
9.7463420839
 20
7.2209630501
 10
9.7477877512
 20
7.237078219
 10
9.7501903172
 20
7.2524955071
 10
9.7535394938
 20
7.2671488953
 10
9.7578209393
 20
7.2809756354
 10
9.76301632
 20
7.2939165193
 10
9.7691033884
 20
7.3059161321
 10
9.7760560787
 20
7.3169230896
 10
9.7838446184
 20
7.3268902583
 10
9.7924356559
 20
7.3357749573
 10
9.8017924029
 20
7.343539141
 10
9.8118747925
 20
7.3501495618
 10
9.8226396504
 20
7.3555779131
 10
9.8340408796
 20
7.3598009497
 10
9.8460296585
 20
7.3628005879
 10
9.8585546493
 20
7.3645639829
 10
9.8715622179
 20
7.3650835835
 10
9.8849966641
 20
7.3643571646
 10
9.8988004594
 20
7.3623878371
 10
9.9129144938
 20
7.3591840337
 10
9.927278329
 20
7.3547594737
 10
9.9418304567
 20
7.3491331038
 10
9.9565085625
 20
7.3423290168
 10
9.9712497925
 20
7.334376349
 10
9.9859910226
 20
7.3253091549
 10
10.0006691284
 20
7.3151662616
 10
10.0152212561
 20
7.3039911025
 10
10.0295850913
 20
7.2918315314
 10
10.0436991257
 20
7.2787396175
 10
10.057502921
 20
7.2647714223
 10
10.0709373671
 20
7.2499867597
 10
10.0839449358
 20
7.23444894
 10
10.0964699265
 20
7.2182244986
 10
10.1084587054
 20
7.2013829109
 10
10.1198599347
 20
7.1839962951
 10
10.1306247925
 20
7.1661391036
 10
10.1407071821
 20
7.1478878035
 10
10.1500639292
 20
7.1293205496
 10
10.1586549667
 20
7.1105168499
 10
10.1664435064
 20
7.0915572246
 10
10.1733961967
 20
7.0725228618
 10
10.1794832651
 20
7.0534952694
 10
10.1846786457
 20
7.0345559267
 10
10.1889600913
 20
7.0157859348
 10
10.1923092679
 20
6.9972656696
 10
10.1947118339
 20
6.9790744378
 10
10.1961575011
 20
6.961290137
 10
10.196640079
 20
6.9439889224
 10
10.1961575011
 20
6.9272448803
 10
10.1947118339
 20
6.9111297114
 10
10.1923092679
 20
6.8957124233
 10
10.1889600913
 20
6.8810590351
 10
10.1846786457
 20
6.867232295
 10
10.1794832651
 20
6.8542914111
 10
10.1733961967
 20
6.8422917983
 10
10.1664435064
 20
6.8312848408
 10
10.1586549667
 20
6.8213176721
 10
10.1500639292
 20
6.8124329731
 10
10.1407071821
 20
6.8046687894
 10
10.1306247925
 20
6.7980583685
 10
10.1198599347
 20
6.7926300173
 10
10.1084587054
 20
6.7884069807
 10
10.0964699265
 20
6.7854073425
 10
10.0839449358
 20
6.7836439475
 10
10.0709373671
 20
6.7831243469
 10
10.057502921
 20
6.7838507657
 10
10.0436991257
 20
6.7858200933
 10
10.0295850913
 20
6.7890238967
 10
10.0152212561
 20
6.7934484567
 10
10.0006691284
 20
6.7990748266
 10
9.9859910226
 20
6.8058789136
 10
9.9712497925
 20
6.8138315814
 10
9.9565085625
 20
6.8228987755
 10
9.9418304567
 20
6.8330416688
 10
9.927278329
 20
6.8442168279
 10
9.9129144938
 20
6.856376399
 10
9.8988004594
 20
6.8694683129
 10
9.8849966641
 20
6.8834365081
 10
9.8715622179
 20
6.8982211707
 10
9.8585546493
 20
6.9137589903
 10
9.8460296585
 20
6.9299834318
 10
9.8340408796
 20
6.9468250195
 10
9.8226396504
 20
6.9642116352
 10
9.8118747925
 20
6.9820688268
 10
9.8017924029
 20
7.0003201269
 10
9.7924356559
 20
7.0188873808
 10
9.7838446184
 20
7.0376910805
 10
9.7760560787
 20
7.0566507058
 10
9.7691033884
 20
7.0756850686
 10
9.76301632
 20
7.094712661
 10
9.7578209393
 20
7.1136520037
 10
9.7535394938
 20
7.1324219956
 10
9.7501903172
 20
7.1509422608
 10
9.7477877512
 20
7.1691334926
 10
9.7463420839
 20
7.1869177934
 10
9.745859506
 20
7.204219008
  0
LINE
  5
1D7
330
1F
100
AcDbEntity
  8
0
  6
Continuous
 62
     7
370
    18
100
AcDbLine
 10
10.512776444
 20
6.1385817972
 30
0.0
 11
10.5040955468
 21
6.1435931726
 31
0.0
  0
SPLINE
  5
1D8
330
1F
100
AcDbEntity
  8
0
  6
Continuous
 62
     7
370
    18
100
AcDbSpline
210
0.0
220
0.0
230
1.0
 70
     8
 71
     3
 72
    11
 73
     7
 74
     0
 42
0.000000001
 43
0.00000001
 40
0.0
 40
0.0
 40
0.0
 40
0.0
 40
0.1774946570818461
 40
0.4052256231013636
 40
0.67838810833485
 40
1.0
 40
1.0
 40
1.0
 40
1.0
 10
10.51695435158428
 20
6.135850163443991
 30
0.0
 10
10.51671004582283
 20
6.136042073130345
 30
0.0
 10
10.51615228844557
 20
6.136480208697415
 30
0.0
 10
10.51520521781081
 20
6.137102798091146
 30
0.0
 10
10.51405772554856
 20
6.137845743493924
 30
0.0
 10
10.51322611835082
 20
6.138323474254411
 30
0.0
 10
10.51277644402997
 20
6.138581797241336
 30
0.0
  0
SPLINE
  5
1D9
330
1F
100
AcDbEntity
  8
0
  6
Continuous
 62
     7
370
    18
100
AcDbSpline
210
0.0
220
0.0
230
1.0
 70
     8
 71
     3
 72
    21
 73
    17
 74
     0
 42
0.000000001
 43
0.00000001
 40
0.0
 40
0.0
 40
0.0
 40
0.0
 40
0.0807565202394666
 40
0.1564928761205837
 40
0.2278645863309012
 40
0.2942194159581935
 40
0.3567576405439986
 40
0.4148044898400759
 40
0.4680257207328432
 40
0.5167566765914664
 40
0.6042176202059655
 40
0.6814453118756422
 40
0.7479519834168781
 40
0.8047659882074071
 40
0.9054352660002635
 40
1.0
 40
1.0
 40
1.0
 40
1.0
 10
10.52957235480305
 20
6.112396245323088
 30
0.0
 10
10.5293030740293
 20
6.11306584614063
 30
0.0
 10
10.5287812521053
 20
6.114363422577542
 30
0.0
 10
10.52802776914453
 20
6.116253707888347
 30
0.0
 10
10.52728800974268
 20
6.118019846447419
 30
0.0
 10
10.52660522939601
 20
6.119678553200471
 30
0.0
 10
10.52593612719405
 20
6.121221476566883
 30
0.0
 10
10.52533632183683
 20
6.122660282808488
 30
0.0
 10
10.52473396081183
 20
6.123974558259253
 30
0.0
 10
10.5240423166745
 20
6.125535023543878
 30
0.0
 10
10.52319764675256
 20
6.12727809494127
 30
0.0
 10
10.52221197667829
 20
6.129136826399549
 30
0.0
 10
10.52130571862585
 20
6.130728341698902
 30
0.0
 10
10.52016052027792
 20
6.132408792508146
 30
0.0
 10
10.51873652618045
 20
6.134164153826508
 30
0.0
 10
10.51753589608395
 20
6.135299998706175
 30
0.0
 10
10.51695435158428
 20
6.135850163443991
 30
0.0
  0
LINE
  5
1DA
330
1F
100
AcDbEntity
  8
0
  6
Continuous
 62
     7
370
    18
100
AcDbLine
 10
10.5370612842
 20
6.0934187534
 30
0.0
 11
10.5295723548
 21
6.1123962453
 31
0.0
  0
LINE
  5
1DB
330
1F
100
AcDbEntity
  8
0
  6
Continuous
 62
     7
370
    18
100
AcDbLine
 10
10.5467776283
 20
6.0878096273
 30
0.0
 11
10.5370612842
 21
6.0934187534
 31
0.0
  0
LINE
  5
1DC
330
1F
100
AcDbEntity
  8
0
  6
Continuous
 62
     7
370
    18
100
AcDbLine
 10
10.5369168032
 20
6.1126610998
 30
0.0
 11
10.5467776283
 21
6.0878096273
 31
0.0
  0
SPLINE
  5
1DD
330
1F
100
AcDbEntity
  8
0
  6
Continuous
 62
     7
370
    18
100
AcDbSpline
210
0.0
220
0.0
230
1.0
 70
     8
 71
     3
 72
    11
 73
     7
 74
     0
 42
0.000000001
 43
0.00000001
 40
0.0
 40
0.0
 40
0.0
 40
0.0
 40
0.2295426438440583
 40
0.4707541631011943
 40
0.728168497232973
 40
1.0
 40
1.0
 40
1.0
 40
1.0
 10
10.53058372147325
 20
6.12577144883413
 30
0.0
 10
10.53115246611035
 20
6.124801276791846
 30
0.0
 10
10.53231886770427
 20
6.122811613694037
 30
0.0
 10
10.53391057501856
 20
6.119629879899368
 30
0.0
 10
10.53548555043196
 20
6.116232166799236
 30
0.0
 10
10.53643113277897
 20
6.113872878579211
 30
0.0
 10
10.53691680324145
 20
6.112661099822352
 30
0.0
  0
SPLINE
  5
1DE
330
1F
100
AcDbEntity
  8
0
  6
Continuous
 62
     7
370
    18
100
AcDbSpline
210
0.0
220
0.0
230
1.0
 70
     8
 71
     3
 72
    11
 73
     7
 74
     0
 42
0.000000001
 43
0.00000001
 40
0.0
 40
0.0
 40
0.0
 40
0.0
 40
0.2931378033625625
 40
0.555909619387244
 40
0.791869901104762
 40
1.0
 40
1.0
 40
1.0
 40
1.0
 10
10.52591217066325
 20
6.131888523782145
 30
0.0
 10
10.52639758766377
 20
6.131328894455435
 30
0.0
 10
10.52731813757889
 20
6.130267607502882
 30
0.0
 10
10.52857080894765
 20
6.128667755512074
 30
0.0
 10
10.52966820477545
 20
6.127208904165089
 30
0.0
 10
10.53029157090938
 20
6.126230155252573
 30
0.0
 10
10.53058372147325
 20
6.12577144883413
 30
0.0
  0
SPLINE
  5
1DF
330
1F
100
AcDbEntity
  8
0
  6
Continuous
 62
     7
370
    18
100
AcDbSpline
210
0.0
220
0.0
230
1.0
 70
     8
 71
     3
 72
    23
 73
    19
 74
     0
 42
0.000000001
 43
0.00000001
 40
0.0
 40
0.0
 40
0.0
 40
0.0
 40
0.0614153619466866
 40
0.1212995515295251
 40
0.1792307330403294
 40
0.2359469026963529
 40
0.2922277422078034
 40
0.3482096381939268
 40
0.4044598375581944
 40
0.4620427821046845
 40
0.5206936332154631
 40
0.5803701846851838
 40
0.6422200441272137
 40
0.7065528540690788
 40
0.7743053019200289
 40
0.8452659380071902
 40
0.9206237685683546
 40
1.0
 40
1.0
 40
1.0
 40
1.0
 10
10.54185323579841
 20
6.141344358309296
 30
0.0
 10
10.54184147438692
 20
6.140757438324812
 30
0.0
 10
10.54181824479266
 20
6.13959823110621
 30
0.0
 10
10.54164030635979
 20
6.137976889452681
 30
0.0
 10
10.54131833424568
 20
6.136515494094254
 30
0.0
 10
10.54090549104408
 20
6.135168894408843
 30
0.0
 10
10.54034035040486
 20
6.133995131183484
 30
0.0
 10
10.53968595872862
 20
6.13292670819511
 30
0.0
 10
10.53887411690778
 20
6.132044446132427
 30
0.0
 10
10.53796765199693
 20
6.131266926352809
 30
0.0
 10
10.53691359738493
 20
6.130683428958168
 30
0.0
 10
10.53574113121447
 20
6.130258593572953
 30
0.0
 10
10.5344150044161
 20
6.130078718722852
 30
0.0
 10
10.53297871154074
 20
6.130029260541981
 30
0.0
 10
10.53139523701811
 20
6.130221811418675
 30
0.0
 10
10.52968846115313
 20
6.130571746813147
 30
0.0
 10
10.52784517444826
 20
6.131145968968482
 30
0.0
 10
10.52656756497998
 20
6.131636756967974
 30
0.0
 10
10.52591217066325
 20
6.131888523782145
 30
0.0
  0
SPLINE
  5
1E0
330
1F
100
AcDbEntity
  8
0
  6
Continuous
 62
     7
370
    18
100
AcDbSpline
210
0.0
220
0.0
230
1.0
 70
     8
 71
     3
 72
    27
 73
    23
 74
     0
 42
0.000000001
 43
0.00000001
 40
0.0
 40
0.0
 40
0.0
 40
0.0
 40
0.0621037847913044
 40
0.1201946065074401
 40
0.174359949222816
 40
0.2250078830566528
 40
0.272315965040078
 40
0.3163395597264796
 40
0.3568150324191081
 40
0.3939185202750513
 40
0.4295244282576432
 40
0.464613031630136
 40
0.4999612336346007
 40
0.5354025186231415
 40
0.5715684610701051
 40
0.6081082509152271
 40
0.645530039744228
 40
0.684379472262271
 40
0.7626128937075278
 40
0.8405203125718234
 40
0.9190846743554559
 40
1.0
 40
1.0
 40
1.0
 40
1.0
 10
10.52169814287072
 20
6.171693675096852
 30
0.0
 10
10.52231222196542
 20
6.171333644919086
 30
0.0
 10
10.52350070017812
 20
6.170636848649861
 30
0.0
 10
10.52522419129955
 20
6.169565421608138
 30
0.0
 10
10.52682909641808
 20
6.168476454599149
 30
0.0
 10
10.52832553033129
 20
6.167431116978482
 30
0.0
 10
10.52971093241673
 20
6.166363405187875
 30
0.0
 10
10.53098596292318
 20
6.165313008263868
 30
0.0
 10
10.53214573181831
 20
6.164271977585829
 30
0.0
 10
10.53319906367667
 20
6.163224761408267
 30
0.0
 10
10.53417640536937
 20
6.162163895006584
 30
0.0
 10
10.53508206948718
 20
6.161027930599718
 30
0.0
 10
10.53595494347799
 20
6.159853322472679
 30
0.0
 10
10.53676023265532
 20
6.158593893600905
 30
0.0
 10
10.53753420696529
 20
6.157293434688235
 30
0.0
 10
10.5382444623845
 20
6.15592793940626
 30
0.0
 10
10.53891201888047
 20
6.154509187807596
 30
0.0
 10
10.53972367939403
 20
6.15254419049547
 30
0.0
 10
10.54057614392496
 20
6.150046207786464
 30
0.0
 10
10.54131038607206
 20
6.147073907228104
 30
0.0
 10
10.54177726712712
 20
6.144135868616552
 30
0.0
 10
10.54182766526058
 20
6.142283961684028
 30
0.0
 10
10.54185323579841
 20
6.141344358309296
 30
0.0
  0
LINE
  5
1E1
330
1F
100
AcDbEntity
  8
0
  6
Continuous
 62
     7
370
    18
100
AcDbLine
 10
10.4956193309
 20
6.1867486528
 30
0.0
 11
10.5216981429
 21
6.1716936751
 31
0.0
  0
LINE
  5
1E2
330
1F
100
AcDbEntity
  8
0
  6
Continuous
 62
     7
370
    18
100
AcDbLine
 10
10.4956193309
 20
6.1173426838
 30
0.0
 11
10.4956193309
 21
6.1867486528
 31
0.0
  0
LINE
  5
1E3
330
1F
100
AcDbEntity
  8
0
  6
Continuous
 62
     7
370
    18
100
AcDbLine
 10
10.5040955468
 20
6.1124494685
 30
0.0
 11
10.4956193309
 21
6.1173426838
 31
0.0
  0
LINE
  5
1E4
330
1F
100
AcDbEntity
  8
0
  6
Continuous
 62
     7
370
    18
100
AcDbLine
 10
10.5040955468
 20
6.1435931726
 30
0.0
 11
10.5040955468
 21
6.1124494685
 31
0.0
  0
LINE
  5
1E5
330
1F
100
AcDbEntity
  8
0
  6
Continuous
 62
     7
370
    18
100
AcDbLine
 10
10.4316624291
 20
6.2156618053
 30
0.0
 11
10.412398302
 21
6.2267827491
 31
0.0
  0
LINE
  5
1E6
330
1F
100
AcDbEntity
  8
0
  6
Continuous
 62
     7
370
    18
100
AcDbLine
 10
10.4316624291
 20
6.2236701863
 30
0.0
 11
10.4316624291
 21
6.2156618053
 31
0.0
  0
LINE
  5
1E7
330
1F
100
AcDbEntity
  8
0
  6
Continuous
 62
     7
370
    18
100
AcDbLine
 10
10.3846579591
 20
6.2508052893
 30
0.0
 11
10.4316624291
 21
6.2236701863
 31
0.0
  0
LINE
  5
1E8
330
1F
100
AcDbEntity
  8
0
  6
Continuous
 62
     7
370
    18
100
AcDbLine
 10
10.3846579591
 20
6.2427969082
 30
0.0
 11
10.3846579591
 21
6.2508052893
 31
0.0
  0
LINE
  5
1E9
330
1F
100
AcDbEntity
  8
0
  6
Continuous
 62
     7
370
    18
100
AcDbLine
 10
10.4039220861
 20
6.2316759644
 30
0.0
 11
10.3846579591
 21
6.2427969082
 31
0.0
  0
LINE
  5
1EA
330
1F
100
AcDbEntity
  8
0
  6
Continuous
 62
     7
370
    18
100
AcDbLine
 10
10.4039220861
 20
6.1702783764
 30
0.0
 11
10.4039220861
 21
6.2316759644
 31
0.0
  0
LINE
  5
1EB
330
1F
100
AcDbEntity
  8
0
  6
Continuous
 62
     7
370
    18
100
AcDbLine
 10
10.412398302
 20
6.1653851611
 30
0.0
 11
10.4039220861
 21
6.1702783764
 31
0.0
  0
LINE
  5
1EC
330
1F
100
AcDbEntity
  8
0
  6
Continuous
 62
     7
370
    18
100
AcDbLine
 10
10.412398302
 20
6.2267827491
 30
0.0
 11
10.412398302
 21
6.1653851611
 31
0.0
  0
LINE
  5
1ED
330
1F
100
AcDbEntity
  8
0
  6
Continuous
 62
     7
370
    18
100
AcDbLine
 10
10.2873259571
 20
6.237587889
 30
0.0
 11
10.271384892
 21
6.3055185976
 31
0.0
  0
LINE
  5
1EE
330
1F
100
AcDbEntity
  8
0
  6
Continuous
 62
     7
370
    18
100
AcDbLine
 10
10.2961874556
 20
6.2324722548
 30
0.0
 11
10.2873259571
 21
6.237587889
 31
0.0
  0
LINE
  5
1EF
330
1F
100
AcDbEntity
  8
0
  6
Continuous
 62
     7
370
    18
100
AcDbLine
 10
10.3122248413
 20
6.2819421967
 30
0.0
 11
10.2961874556
 21
6.2324722548
 31
0.0
  0
LINE
  5
1F0
330
1F
100
AcDbEntity
  8
0
  6
Continuous
 62
     7
370
    18
100
AcDbLine
 10
10.3122248413
 20
6.2232140691
 30
0.0
 11
10.3122248413
 21
6.2819421967
 31
0.0
  0
LINE
  5
1F1
330
1F
100
AcDbEntity
  8
0
  6
Continuous
 62
     7
370
    18
100
AcDbLine
 10
10.3207010572
 20
6.2183208538
 30
0.0
 11
10.3122248413
 21
6.2232140691
 31
0.0
  0
LINE
  5
1F2
330
1F
100
AcDbEntity
  8
0
  6
Continuous
 62
     7
370
    18
100
AcDbLine
 10
10.3207010572
 20
6.2877268228
 30
0.0
 11
10.3207010572
 21
6.2183208538
 31
0.0
  0
LINE
  5
1F3
330
1F
100
AcDbEntity
  8
0
  6
Continuous
 62
     7
370
    18
100
AcDbLine
 10
10.3080589739
 20
6.2950249422
 30
0.0
 11
10.3207010572
 21
6.2877268228
 31
0.0
  0
LINE
  5
1F4
330
1F
100
AcDbEntity
  8
0
  6
Continuous
 62
     7
370
    18
100
AcDbLine
 10
10.2947546861
 20
6.2548358025
 30
0.0
 11
10.3080589739
 21
6.2950249422
 31
0.0
  0
SPLINE
  5
1F5
330
1F
100
AcDbEntity
  8
0
  6
Continuous
 62
     7
370
    18
100
AcDbSpline
210
0.0
220
0.0
230
1.0
 70
     8
 71
     3
 72
    15
 73
    11
 74
     0
 42
0.000000001
 43
0.00000001
 40
0.0
 40
0.0
 40
0.0
 40
0.0
 40
0.0892047702332424
 40
0.1898334556643487
 40
0.2992325919749821
 40
0.4192609378429105
 40
0.5492073901909384
 40
0.6890743636843474
 40
0.8395791979483168
 40
1.0
 40
1.0
 40
1.0
 40
1.0
 10
10.29180486666921
 20
6.245513269643324
 30
0.0
 10
10.2918887731083
 20
6.245794009133388
 30
0.0
 10
10.29206733137647
 20
6.246391440721418
 30
0.0
 10
10.29235680287255
 20
6.247325765979274
 30
0.0
 10
10.29266480878604
 20
6.248366818163038
 30
0.0
 10
10.29303339745393
 20
6.2494693730651
 30
0.0
 10
10.29341760751783
 20
6.250680019827939
 30
0.0
 10
10.29382088598312
 20
6.251995578937147
 30
0.0
 10
10.29428605983963
 20
6.253375868312059
 30
0.0
 10
10.29459519111505
 20
6.254338919956657
 30
0.0
 10
10.29475468612398
 20
6.254835802488037
 30
0.0
  0
SPLINE
  5
1F6
330
1F
100
AcDbEntity
  8
0
  6
Continuous
 62
     7
370
    18
100
AcDbSpline
210
0.0
220
0.0
230
1.0
 70
     8
 71
     3
 72
    15
 73
    11
 74
     0
 42
0.000000001
 43
0.00000001
 40
0.0
 40
0.0
 40
0.0
 40
0.0
 40
0.1625255217041972
 40
0.3143148980392433
 40
0.4549784905465757
 40
0.5845192373662027
 40
0.704567103309073
 40
0.8134949897289324
 40
0.911681259682611
 40
1.0
 40
1.0
 40
1.0
 40
1.0
 10
10.28909584880258
 20
6.257268373380072
 30
0.0
 10
10.28924372057225
 20
6.256631280238901
 30
0.0
 10
10.28952969596688
 20
6.255399179190345
 30
0.0
 10
10.28995376354853
 20
6.253613508167444
 30
0.0
 10
10.29033959395475
 20
6.251958887153691
 30
0.0
 10
10.29068709499083
 20
6.250430811603734
 30
0.0
 10
10.29101503620821
 20
6.249025036901474
 30
0.0
 10
10.29129898162983
 20
6.24774568769891
 30
0.0
 10
10.29157044269068
 20
6.246586967749868
 30
0.0
 10
10.29172953100248
 20
6.245858318657641
 30
0.0
 10
10.29180486666921
 20
6.245513269643324
 30
0.0
  0
LINE
  5
1F7
330
1F
100
AcDbEntity
  8
0
  6
Continuous
 62
     7
370
    18
100
AcDbLine
 10
10.2756591202
 20
6.3137289796
 30
0.0
 11
10.2890958488
 21
6.2572683734
 31
0.0
  0
LINE
  5
1F8
330
1F
100
AcDbEntity
  8
0
  6
Continuous
 62
     7
370
    18
100
AcDbLine
 10
10.2629086761
 20
6.3210896543
 30
0.0
 11
10.2756591202
 21
6.3137289796
 31
0.0
  0
LINE
  5
1F9
330
1F
100
AcDbEntity
  8
0
  6
Continuous
 62
     7
370
    18
100
AcDbLine
 10
10.2629086761
 20
6.2516836853
 30
0.0
 11
10.2629086761
 21
6.3210896543
 31
0.0
  0
LINE
  5
1FA
330
1F
100
AcDbEntity
  8
0
  6
Continuous
 62
     7
370
    18
100
AcDbLine
 10
10.271384892
 20
6.24679047
 30
0.0
 11
10.2629086761
 21
6.2516836853
 31
0.0
  0
LINE
  5
1FB
330
1F
100
AcDbEntity
  8
0
  6
Continuous
 62
     7
370
    18
100
AcDbLine
 10
10.271384892
 20
6.3055185976
 30
0.0
 11
10.271384892
 21
6.24679047
 31
0.0
  0
LINE
  5
1FC
330
1F
100
AcDbEntity
  8
0
  6
Continuous
 62
     7
370
    18
100
AcDbLine
 10
10.186622733
 20
6.3651285919
 30
0.0
 11
10.1950989489
 21
6.3602353766
 31
0.0
  0
LINE
  5
1FD
330
1F
100
AcDbEntity
  8
0
  6
Continuous
 62
     7
370
    18
100
AcDbLine
 10
10.186622733
 20
6.2957226228
 30
0.0
 11
10.186622733
 21
6.3651285919
 31
0.0
  0
LINE
  5
1FE
330
1F
100
AcDbEntity
  8
0
  6
Continuous
 62
     7
370
    18
100
AcDbLine
 10
10.1950989489
 20
6.2908294076
 30
0.0
 11
10.186622733
 21
6.2957226228
 31
0.0
  0
LINE
  5
1FF
330
1F
100
AcDbEntity
  8
0
  6
Continuous
 62
     7
370
    18
100
AcDbLine
 10
10.1950989489
 20
6.3602353766
 30
0.0
 11
10.1950989489
 21
6.2908294076
 31
0.0
  0
LINE
  5
200
330
1F
100
AcDbEntity
  8
0
  6
Continuous
 62
     7
370
    18
100
AcDbLine
 10
10.0561564325
 20
6.3710392149
 30
0.0
 11
10.0402153674
 21
6.4389699236
 31
0.0
  0
LINE
  5
201
330
1F
100
AcDbEntity
  8
0
  6
Continuous
 62
     7
370
    18
100
AcDbLine
 10
10.065017931
 20
6.3659235808
 30
0.0
 11
10.0561564325
 21
6.3710392149
 31
0.0
  0
LINE
  5
202
330
1F
100
AcDbEntity
  8
0
  6
Continuous
 62
     7
370
    18
100
AcDbLine
 10
10.0810553167
 20
6.4153935227
 30
0.0
 11
10.065017931
 21
6.3659235808
 31
0.0
  0
LINE
  5
203
330
1F
100
AcDbEntity
  8
0
  6
Continuous
 62
     7
370
    18
100
AcDbLine
 10
10.0810553167
 20
6.356665395
 30
0.0
 11
10.0810553167
 21
6.4153935227
 31
0.0
  0
LINE
  5
204
330
1F
100
AcDbEntity
  8
0
  6
Continuous
 62
     7
370
    18
100
AcDbLine
 10
10.0895315326
 20
6.3517721798
 30
0.0
 11
10.0810553167
 21
6.356665395
 31
0.0
  0
LINE
  5
205
330
1F
100
AcDbEntity
  8
0
  6
Continuous
 62
     7
370
    18
100
AcDbLine
 10
10.0895315326
 20
6.4211781488
 30
0.0
 11
10.0895315326
 21
6.3517721798
 31
0.0
  0
LINE
  5
206
330
1F
100
AcDbEntity
  8
0
  6
Continuous
 62
     7
370
    18
100
AcDbLine
 10
10.0768894493
 20
6.4284762682
 30
0.0
 11
10.0895315326
 21
6.4211781488
 31
0.0
  0
LINE
  5
207
330
1F
100
AcDbEntity
  8
0
  6
Continuous
 62
     7
370
    18
100
AcDbLine
 10
10.0635851615
 20
6.3882871285
 30
0.0
 11
10.0768894493
 21
6.4284762682
 31
0.0
  0
SPLINE
  5
208
330
1F
100
AcDbEntity
  8
0
  6
Continuous
 62
     7
370
    18
100
AcDbSpline
210
0.0
220
0.0
230
1.0
 70
     8
 71
     3
 72
    15
 73
    11
 74
     0
 42
0.000000001
 43
0.00000001
 40
0.0
 40
0.0
 40
0.0
 40
0.0
 40
0.0892047702332417
 40
0.1898334556643487
 40
0.2992325919749821
 40
0.4192609378429098
 40
0.5492073901909378
 40
0.689074363684346
 40
0.8395791979483163
 40
1.0
 40
1.0
 40
1.0
 40
1.0
 10
10.06063534205053
 20
6.378964595614345
 30
0.0
 10
10.06071924848962
 20
6.379245335104409
 30
0.0
 10
10.0608978067578
 20
6.379842766692438
 30
0.0
 10
10.06118727825387
 20
6.380777091950294
 30
0.0
 10
10.06149528416736
 20
6.381818144134058
 30
0.0
 10
10.06186387283525
 20
6.382920699036121
 30
0.0
 10
10.06224808289915
 20
6.38413134579896
 30
0.0
 10
10.06265136136444
 20
6.385446904908167
 30
0.0
 10
10.06311653522095
 20
6.38682719428308
 30
0.0
 10
10.06342566649637
 20
6.387790245927678
 30
0.0
 10
10.0635851615053
 20
6.388287128459058
 30
0.0
  0
SPLINE
  5
209
330
1F
100
AcDbEntity
  8
0
  6
Continuous
 62
     7
370
    18
100
AcDbSpline
210
0.0
220
0.0
230
1.0
 70
     8
 71
     3
 72
    15
 73
    11
 74
     0
 42
0.000000001
 43
0.00000001
 40
0.0
 40
0.0
 40
0.0
 40
0.0
 40
0.1625255217041964
 40
0.3143148980392429
 40
0.4549784905465752
 40
0.584519237366202
 40
0.7045671033090717
 40
0.8134949897289319
 40
0.9116812596826112
 40
1.0
 40
1.0
 40
1.0
 40
1.0
 10
10.0579263241839
 20
6.390719699351094
 30
0.0
 10
10.05807419595357
 20
6.390082606209922
 30
0.0
 10
10.0583601713482
 20
6.388850505161366
 30
0.0
 10
10.05878423892985
 20
6.387064834138464
 30
0.0
 10
10.05917006933607
 20
6.385410213124712
 30
0.0
 10
10.05951757037215
 20
6.383882137574756
 30
0.0
 10
10.05984551158954
 20
6.382476362872495
 30
0.0
 10
10.06012945701115
 20
6.381197013669931
 30
0.0
 10
10.060400918072
 20
6.380038293720889
 30
0.0
 10
10.0605600063838
 20
6.379309644628662
 30
0.0
 10
10.06063534205053
 20
6.378964595614345
 30
0.0
  0
LINE
  5
20A
330
1F
100
AcDbEntity
  8
0
  6
Continuous
 62
     7
370
    18
100
AcDbLine
 10
10.0444895956
 20
6.4471803056
 30
0.0
 11
10.0579263242
 21
6.3907196994
 31
0.0
  0
LINE
  5
20B
330
1F
100
AcDbEntity
  8
0
  6
Continuous
 62
     7
370
    18
100
AcDbLine
 10
10.0317391515
 20
6.4545409803
 30
0.0
 11
10.0444895956
 21
6.4471803056
 31
0.0
  0
LINE
  5
20C
330
1F
100
AcDbEntity
  8
0
  6
Continuous
 62
     7
370
    18
100
AcDbLine
 10
10.0317391515
 20
6.3851350112
 30
0.0
 11
10.0317391515
 21
6.4545409803
 31
0.0
  0
LINE
  5
20D
330
1F
100
AcDbEntity
  8
0
  6
Continuous
 62
     7
370
    18
100
AcDbLine
 10
10.0402153674
 20
6.380241796
 30
0.0
 11
10.0317391515
 21
6.3851350112
 31
0.0
  0
LINE
  5
20E
330
1F
100
AcDbEntity
  8
0
  6
Continuous
 62
     7
370
    18
100
AcDbLine
 10
10.0402153674
 20
6.4389699236
 30
0.0
 11
10.0402153674
 21
6.380241796
 31
0.0
  0
LINE
  5
20F
330
1F
100
AcDbEntity
  8
0
  6
Continuous
 62
     7
370
    18
100
AcDbLine
 10
9.9307951257
 20
6.451417138
 30
0.0
 11
9.9662411195
 21
6.4309546013
 31
0.0
  0
LINE
  5
210
330
1F
100
AcDbEntity
  8
0
  6
Continuous
 62
     7
370
    18
100
AcDbLine
 10
9.9307951257
 20
6.4754422811
 30
0.0
 11
9.9307951257
 21
6.451417138
 31
0.0
  0
LINE
  5
211
330
1F
100
AcDbEntity
  8
0
  6
Continuous
 62
     7
370
    18
100
AcDbLine
 10
9.9623882941
 20
6.4572039332
 30
0.0
 11
9.9307951257
 21
6.4754422811
 31
0.0
  0
LINE
  5
212
330
1F
100
AcDbEntity
  8
0
  6
Continuous
 62
     7
370
    18
100
AcDbLine
 10
9.9623882941
 20
6.4652123142
 30
0.0
 11
9.9623882941
 21
6.4572039332
 31
0.0
  0
LINE
  5
213
330
1F
100
AcDbEntity
  8
0
  6
Continuous
 62
     7
370
    18
100
AcDbLine
 10
9.9307951257
 20
6.4834506621
 30
0.0
 11
9.9623882941
 21
6.4652123142
 31
0.0
  0
LINE
  5
214
330
1F
100
AcDbEntity
  8
0
  6
Continuous
 62
     7
370
    18
100
AcDbLine
 10
9.9307951257
 20
6.5048063449
 30
0.0
 11
9.9307951257
 21
6.4834506621
 31
0.0
  0
LINE
  5
215
330
1F
100
AcDbEntity
  8
0
  6
Continuous
 62
     7
370
    18
100
AcDbLine
 10
9.9646999893
 20
6.4852334837
 30
0.0
 11
9.9307951257
 21
6.5048063449
 31
0.0
  0
LINE
  5
216
330
1F
100
AcDbEntity
  8
0
  6
Continuous
 62
     7
370
    18
100
AcDbLine
 10
9.9646999893
 20
6.4932418648
 30
0.0
 11
9.9646999893
 21
6.4852334837
 31
0.0
  0
LINE
  5
217
330
1F
100
AcDbEntity
  8
0
  6
Continuous
 62
     7
370
    18
100
AcDbLine
 10
9.9223189098
 20
6.5177079412
 30
0.0
 11
9.9646999893
 21
6.4932418648
 31
0.0
  0
LINE
  5
218
330
1F
100
AcDbEntity
  8
0
  6
Continuous
 62
     7
370
    18
100
AcDbLine
 10
9.9223189098
 20
6.4483019722
 30
0.0
 11
9.9223189098
 21
6.5177079412
 31
0.0
  0
LINE
  5
219
330
1F
100
AcDbEntity
  8
0
  6
Continuous
 62
     7
370
    18
100
AcDbLine
 10
9.9662411195
 20
6.4229462203
 30
0.0
 11
9.9223189098
 21
6.4483019722
 31
0.0
  0
LINE
  5
21A
330
1F
100
AcDbEntity
  8
0
  6
Continuous
 62
     7
370
    18
100
AcDbLine
 10
9.9662411195
 20
6.4309546013
 30
0.0
 11
9.9662411195
 21
6.4229462203
 31
0.0
  0
SPLINE
  5
21B
330
1F
100
AcDbEntity
  8
0
  6
Continuous
 62
     7
370
    18
100
AcDbSpline
210
0.0
220
0.0
230
1.0
 70
     8
 71
     3
 72
    23
 73
    19
 74
     0
 42
0.000000001
 43
0.00000001
 40
0.0
 40
0.0
 40
0.0
 40
0.0
 40
0.0698823039034425
 40
0.1383882841653964
 40
0.2067582142303591
 40
0.2765984302165001
 40
0.3471345171864639
 40
0.4179202738343021
 40
0.490213056594082
 40
0.5664711022702207
 40
0.6078661527170739
 40
0.6522325532418385
 40
0.7005469750391918
 40
0.752522892715919
 40
0.808321340815731
 40
0.8684702740719038
 40
0.931979790540806
 40
1.0
 40
1.0
 40
1.0
 40
1.0
 10
9.790961643487554
 20
6.567734093613185
 30
0.0
 10
9.790470129473487
 20
6.567999618686001
 30
0.0
 10
9.789496781755245
 20
6.56852543934699
 30
0.0
 10
9.788075674698838
 20
6.568960486836558
 30
0.0
 10
9.786711076762622
 20
6.569165105614804
 30
0.0
 10
9.785424380568005
 20
6.569084358032961
 30
0.0
 10
9.784235932877039
 20
6.568734505981165
 30
0.0
 10
9.783215839233735
 20
6.568040681329084
 30
0.0
 10
9.782374834804255
 20
6.567027387551652
 30
0.0
 10
9.781836506041895
 20
6.565921255682191
 30
0.0
 10
9.781499795947893
 20
6.56486053173596
 30
0.0
 10
9.781249409948018
 20
6.563956347279567
 30
0.0
 10
9.781065062240696
 20
6.562908144453742
 30
0.0
 10
9.780913155728804
 20
6.561742577437138
 30
0.0
 10
9.780772116628686
 20
6.560471584639187
 30
0.0
 10
9.780701626055126
 20
6.559059067649052
 30
0.0
 10
9.780629936424077
 20
6.557548208667683
 30
0.0
 10
9.78063080577427
 20
6.5564810053539
 30
0.0
 10
9.780631255356157
 20
6.555929104310795
 30
0.0
  0
SPLINE
  5
21C
330
1F
100
AcDbEntity
  8
0
  6
Continuous
 62
     7
370
    18
100
AcDbSpline
210
0.0
220
0.0
230
1.0
 70
     8
 71
     3
 72
    23
 73
    19
 74
     0
 42
0.000000001
 43
0.00000001
 40
0.0
 40
0.0
 40
0.0
 40
0.0
 40
0.0840520374929028
 40
0.1623146334137115
 40
0.2366600199015783
 40
0.3057775454542922
 40
0.3698548822538674
 40
0.4308818052540333
 40
0.4880260023390452
 40
0.5427446849665447
 40
0.5951151179188185
 40
0.646686171351649
 40
0.6997262587744748
 40
0.7534139566544653
 40
0.8093158108836114
 40
0.8690272915375985
 40
0.9322090442192221
 40
1.0
 40
1.0
 40
1.0
 40
1.0
 10
9.798354252243588
 20
6.552218549020369
 30
0.0
 10
9.798351328313606
 20
6.552674662256628
 30
0.0
 10
9.798345681851751
 20
6.553555471990058
 30
0.0
 10
9.798254212398708
 20
6.554883755638369
 30
0.0
 10
9.79813091138708
 20
6.556145414350457
 30
0.0
 10
9.797937101247207
 20
6.5573578412875
 30
0.0
 10
9.797692993546919
 20
6.558510345443243
 30
0.0
 10
9.797413114450768
 20
6.559604020958862
 30
0.0
 10
9.797059254394775
 20
6.560650699254316
 30
0.0
 10
9.796653312889125
 20
6.561641493460487
 30
0.0
 10
9.796176095947484
 20
6.562577164049251
 30
0.0
 10
9.795640069435944
 20
6.563470377538866
 30
0.0
 10
9.795025504041647
 20
6.564310401554702
 30
0.0
 10
9.794339411520303
 20
6.565089548729072
 30
0.0
 10
9.793600413315497
 20
6.565855352263343
 30
0.0
 10
9.79277643979359
 20
6.566515583286234
 30
0.0
 10
9.791893095159134
 20
6.567180877068595
 30
0.0
 10
9.79127932730225
 20
6.567545411851586
 30
0.0
 10
9.790961643487554
 20
6.567734093613185
 30
0.0
  0
LINE
  5
21D
330
1F
100
AcDbEntity
  8
0
  6
Continuous
 62
     7
370
    18
100
AcDbLine
 10
9.7983542522
 20
6.5198652458
 30
0.0
 11
9.7983542522
 21
6.552218549
 31
0.0
  0
LINE
  5
21E
330
1F
100
AcDbEntity
  8
0
  6
Continuous
 62
     7
370
    18
100
AcDbLine
 10
9.8060599031
 20
6.5154168682
 30
0.0
 11
9.7983542522
 21
6.5198652458
 31
0.0
  0
LINE
  5
21F
330
1F
100
AcDbEntity
  8
0
  6
Continuous
 62
     7
370
    18
100
AcDbLine
 10
9.8060599031
 20
6.5443499254
 30
0.0
 11
9.8060599031
 21
6.5154168682
 31
0.0
  0
SPLINE
  5
220
330
1F
100
AcDbEntity
  8
0
  6
Continuous
 62
     7
370
    18
100
AcDbSpline
210
0.0
220
0.0
230
1.0
 70
     8
 71
     3
 72
    23
 73
    19
 74
     0
 42
0.000000001
 43
0.00000001
 40
0.0
 40
0.0
 40
0.0
 40
0.0
 40
0.0585757660198502
 40
0.1150346943684877
 40
0.1697636152311753
 40
0.2236478972929995
 40
0.2768730316667504
 40
0.3302884546297407
 40
0.3850366836323354
 40
0.4406848389014087
 40
0.497880267698413
 40
0.5572232623162526
 40
0.620037427243632
 40
0.6862557553842886
 40
0.7567477502249746
 40
0.8318929806595928
 40
0.9128343922551199
 40
1.0
 40
1.0
 40
1.0
 40
1.0
 10
9.816318050719165
 20
6.553096151295739
 30
0.0
 10
9.81595624637951
 20
6.553295233846335
 30
0.0
 10
9.81524571274997
 20
6.553686204411773
 30
0.0
 10
9.814207413927239
 20
6.554107754036
 30
0.0
 10
9.813210267847268
 20
6.554430998231084
 30
0.0
 10
9.812271063122404
 20
6.554572621987393
 30
0.0
 10
9.811371139518942
 20
6.554609076017601
 30
0.0
 10
9.810523551663682
 20
6.554489734540032
 30
0.0
 10
9.809714541093955
 20
6.554252656459536
 30
0.0
 10
9.808967981081413
 20
6.553853970412139
 30
0.0
 10
9.808268520853185
 20
6.553329193079488
 30
0.0
 10
9.807681238146564
 20
6.552579473505257
 30
0.0
 10
9.80717411989874
 20
6.551661225480188
 30
0.0
 10
9.806770270622465
 20
6.550548153161309
 30
0.0
 10
9.806443361557255
 20
6.549273062532961
 30
0.0
 10
9.8062180729588
 20
6.547807197812508
 30
0.0
 10
9.806088280043529
 20
6.546153161133856
 30
0.0
 10
9.806069592691635
 20
6.544965659815534
 30
0.0
 10
9.806059903064211
 20
6.544349925418985
 30
0.0
  0
SPLINE
  5
221
330
1F
100
AcDbEntity
  8
0
  6
Continuous
 62
     7
370
    18
100
AcDbSpline
210
0.0
220
0.0
230
1.0
 70
     8
 71
     3
 72
    19
 73
    15
 74
     0
 42
0.000000001
 43
0.00000001
 40
0.0
 40
0.0
 40
0.0
 40
0.0
 40
0.1364148811765276
 40
0.2528973605082379
 40
0.3492204458013853
 40
0.4269322474132385
 40
0.494452408614837
 40
0.5607020268402115
 40
0.6286260433619814
 40
0.698836431094078
 40
0.7714182240964005
 40
0.8441568540005472
 40
0.91996411208531
 40
1.0
 40
1.0
 40
1.0
 40
1.0
 10
9.823782899951642
 20
6.536551758972905
 30
0.0
 10
9.82377233554311
 20
6.537341181461008
 30
0.0
 10
9.82375275035555
 20
6.538804679151617
 30
0.0
 10
9.82364755408751
 20
6.540869330230227
 30
0.0
 10
9.823436365085643
 20
6.54264309020015
 30
0.0
 10
9.823146505005386
 20
6.544162487240896
 30
0.0
 10
9.82270120113509
 20
6.545527056941835
 30
0.0
 10
9.822138536636334
 20
6.546816764425005
 30
0.0
 10
9.821431916991825
 20
6.548076064754057
 30
0.0
 10
9.820597558829345
 20
6.549296809027942
 30
0.0
 10
9.81965254923387
 20
6.55043983551433
 30
0.0
 10
9.818609044420363
 20
6.551454532493395
 30
0.0
 10
9.817493016862127
 20
6.552378620442207
 30
0.0
 10
9.816716727349982
 20
6.552852686592599
 30
0.0
 10
9.816318050719165
 20
6.553096151295739
 30
0.0
  0
LINE
  5
222
330
1F
100
AcDbEntity
  8
0
  6
Continuous
 62
     7
370
    18
100
AcDbLine
 10
9.8237829
 20
6.5051855999
 30
0.0
 11
9.8237829
 21
6.536551759
 31
0.0
  0
LINE
  5
223
330
1F
100
AcDbEntity
  8
0
  6
Continuous
 62
     7
370
    18
100
AcDbLine
 10
9.8314885508
 20
6.5007372224
 30
0.0
 11
9.8237829
 21
6.5051855999
 31
0.0
  0
LINE
  5
224
330
1F
100
AcDbEntity
  8
0
  6
Continuous
 62
     7
370
    18
100
AcDbLine
 10
9.8314885508
 20
6.5353845931
 30
0.0
 11
9.8314885508
 21
6.5007372224
 31
0.0
  0
SPLINE
  5
225
330
1F
100
AcDbEntity
  8
0
  6
Continuous
 62
     7
370
    18
100
AcDbSpline
210
0.0
220
0.0
230
1.0
 70
     8
 71
     3
 72
    23
 73
    19
 74
     0
 42
0.000000001
 43
0.00000001
 40
0.0
 40
0.0
 40
0.0
 40
0.0
 40
0.0684858423217283
 40
0.1336315466164051
 40
0.1953270837667403
 40
0.2542221042059953
 40
0.3112724040630451
 40
0.3666124446917561
 40
0.4212564852255815
 40
0.476070220172283
 40
0.5314280570704053
 40
0.5882286934627508
 40
0.6473050178610782
 40
0.7093984115158154
 40
0.7752829671512459
 40
0.8452284978288171
 40
0.9203967621689222
 40
1.0
 40
1.0
 40
1.0
 40
1.0
 10
9.818172222947878
 20
6.560034141491661
 30
0.0
 10
9.818690449444864
 20
6.559721373145851
 30
0.0
 10
9.819701627900761
 20
6.559111090547778
 30
0.0
 10
9.821171252143996
 20
6.558064128719223
 30
0.0
 10
9.822552461849215
 20
6.55695612051871
 30
0.0
 10
9.823837251260366
 20
6.55574905308207
 30
0.0
 10
9.82503317374312
 20
6.554477173058772
 30
0.0
 10
9.826141467476216
 20
6.55312801424485
 30
0.0
 10
9.82714395541836
 20
6.551688207100624
 30
0.0
 10
9.828068727737937
 20
6.550183751236284
 30
0.0
 10
9.828879556468625
 20
6.548591107551259
 30
0.0
 10
9.829580874874654
 20
6.546924560303497
 30
0.0
 10
9.83017262960974
 20
6.545182311793856
 30
0.0
 10
9.830648232694957
 20
6.543366401761311
 30
0.0
 10
9.831040259198714
 20
6.541468560230412
 30
0.0
 10
9.831291351063088
 20
6.539501234941043
 30
0.0
 10
9.831470075079745
 20
6.537443813796407
 30
0.0
 10
9.831482275672203
 20
6.536083988595419
 30
0.0
 10
9.831488550772265
 20
6.535384593116505
 30
0.0
  0
SPLINE
  5
226
330
1F
100
AcDbEntity
  8
0
  6
Continuous
 62
     7
370
    18
100
AcDbSpline
210
0.0
220
0.0
230
1.0
 70
     8
 71
     3
 72
    15
 73
    11
 74
     0
 42
0.000000001
 43
0.00000001
 40
0.0
 40
0.0
 40
0.0
 40
0.0
 40
0.1423029469909936
 40
0.2753838759350569
 40
0.4024786494899647
 40
0.5233761876629243
 40
0.641231034256444
 40
0.758322685190771
 40
0.8775530580400325
 40
1.0
 40
1.0
 40
1.0
 40
1.0
 10
9.804855895123488
 20
6.558308865505336
 30
0.0
 10
9.805283235734931
 20
6.558811038358511
 30
0.0
 10
9.80611022292256
 20
6.559782840486444
 30
0.0
 10
9.807550878584014
 20
6.560872356426192
 30
0.0
 10
9.809075734672936
 20
6.561629551701719
 30
0.0
 10
9.81070586561663
 20
6.562028818290961
 30
0.0
 10
9.812431339548114
 20
6.562073265554458
 30
0.0
 10
9.814257434743764
 20
6.561766939740701
 30
0.0
 10
9.816186295495864
 20
6.561087763914307
 30
0.0
 10
9.817504399426284
 20
6.56038845143184
 30
0.0
 10
9.818172222947878
 20
6.560034141491661
 30
0.0
  0
SPLINE
  5
227
330
1F
100
AcDbEntity
  8
0
  6
Continuous
 62
     7
370
    18
100
AcDbSpline
210
0.0
220
0.0
230
1.0
 70
     8
 71
     3
 72
    15
 73
    11
 74
     0
 42
0.000000001
 43
0.00000001
 40
0.0
 40
0.0
 40
0.0
 40
0.0
 40
0.1427448629824143
 40
0.2746346497965612
 40
0.3982435516696319
 40
0.5176044543884916
 40
0.6347051380894372
 40
0.752088118491098
 40
0.8730810341089201
 40
1.0
 40
1.0
 40
1.0
 40
1.0
 10
9.793177018098483
 20
6.574463566112279
 30
0.0
 10
9.793909776325389
 20
6.574015660679983
 30
0.0
 10
9.79531956995878
 20
6.573153910919114
 30
0.0
 10
9.797326423052057
 20
6.571505866884428
 30
0.0
 10
9.799142610961406
 20
6.569703840936867
 30
0.0
 10
9.800736355346235
 20
6.567682380695763
 30
0.0
 10
9.802113133006898
 20
6.565507900700776
 30
0.0
 10
9.803268933597385
 20
6.563202399286273
 30
0.0
 10
9.80421175761502
 20
6.560775166021375
 30
0.0
 10
9.80463778803056
 20
6.559143963025306
 30
0.0
 10
9.804855895123488
 20
6.558308865505336
 30
0.0
  0
SPLINE
  5
228
330
1F
100
AcDbEntity
  8
0
  6
Continuous
 62
     7
370
    18
100
AcDbSpline
210
0.0
220
0.0
230
1.0
 70
     8
 71
     3
 72
    15
 73
    11
 74
     0
 42
0.000000001
 43
0.00000001
 40
0.0
 40
0.0
 40
0.0
 40
0.0
 40
0.12663192842358
 40
0.2498443757728049
 40
0.372604647592006
 40
0.4967509664038979
 40
0.6205941793274103
 40
0.7437520563069244
 40
0.8691668313601797
 40
1.0
 40
1.0
 40
1.0
 40
1.0
 10
9.780631255356157
 20
6.572905203702134
 30
0.0
 10
9.780970433458208
 20
6.573351034050718
 30
0.0
 10
9.781639630731263
 20
6.574230655853288
 30
0.0
 10
9.782881419939116
 20
6.57520416681525
 30
0.0
 10
9.784258269366363
 20
6.575927581121472
 30
0.0
 10
9.785797135955766
 20
6.576342791792926
 30
0.0
 10
9.787469843900658
 20
6.576448189053103
 30
0.0
 10
9.789275227333023
 20
6.576154044737184
 30
0.0
 10
9.791187529684944
 20
6.575530923800775
 30
0.0
 10
9.792504572285907
 20
6.574824332328993
 30
0.0
 10
9.793177018098483
 20
6.574463566112279
 30
0.0
  0
LINE
  5
229
330
1F
100
AcDbEntity
  8
0
  6
Continuous
 62
     7
370
    18
100
AcDbLine
 10
9.7806312554
 20
6.5808162607
 30
0.0
 11
9.7806312554
 21
6.5729052037
 31
0.0
  0
LINE
  5
22A
330
1F
100
AcDbEntity
  8
0
  6
Continuous
 62
     7
370
    18
100
AcDbLine
 10
9.7729256045
 20
6.5852646382
 30
0.0
 11
9.7806312554
 21
6.5808162607
 31
0.0
  0
LINE
  5
22B
330
1F
100
AcDbEntity
  8
0
  6
Continuous
 62
     7
370
    18
100
AcDbLine
 10
9.7729256045
 20
6.5345448916
 30
0.0
 11
9.7729256045
 21
6.5852646382
 31
0.0
  0
LINE
  5
22C
330
1F
100
AcDbEntity
  8
0
  6
Continuous
 62
     7
370
    18
100
AcDbLine
 10
9.7806312554
 20
6.5300965141
 30
0.0
 11
9.7729256045
 21
6.5345448916
 31
0.0
  0
LINE
  5
22D
330
1F
100
AcDbEntity
  8
0
  6
Continuous
 62
     7
370
    18
100
AcDbLine
 10
9.7806312554
 20
6.5559291043
 30
0.0
 11
9.7806312554
 21
6.5300965141
 31
0.0
  0
SPLINE
  5
22E
330
1F
100
AcDbEntity
  8
0
  6
Continuous
 62
     7
370
    18
100
AcDbSpline
210
0.0
220
0.0
230
1.0
 70
     8
 71
     3
 72
    31
 73
    27
 74
     0
 42
0.000000001
 43
0.00000001
 40
0.0
 40
0.0
 40
0.0
 40
0.0
 40
0.062872936983253
 40
0.1228346582660095
 40
0.1796536836655498
 40
0.2339562567955639
 40
0.2855473950458364
 40
0.3345189820567464
 40
0.3806227038405211
 40
0.4245295031767599
 40
0.4664416769228077
 40
0.5065145853718168
 40
0.5447930111054538
 40
0.581845653009279
 40
0.617462181423722
 40
0.6520802585584685
 40
0.68589251728597
 40
0.719186823394995
 40
0.7521933849929764
 40
0.7852513720621818
 40
0.8186671215359246
 40
0.8528356188434193
 40
0.8876281460368526
 40
0.923636303848835
 40
0.9610224701392116
 40
1.0
 40
1.0
 40
1.0
 40
1.0
 10
9.694231645529925
 20
6.61420421473265
 30
0.0
 10
9.694223779805297
 20
6.613221531865089
 30
0.0
 10
9.69420841256395
 20
6.611301667452633
 30
0.0
 10
9.694116026834385
 20
6.60853542984997
 30
0.0
 10
9.693943550123029
 20
6.605955616271373
 30
0.0
 10
9.69372143629426
 20
6.603541332156955
 30
0.0
 10
9.693421870189868
 20
6.601306438328181
 30
0.0
 10
9.693049928508445
 20
6.599257772938111
 30
0.0
 10
9.69261472688677
 20
6.597384675347596
 30
0.0
 10
9.69212535908371
 20
6.59567336207263
 30
0.0
 10
9.691560800821879
 20
6.594131579026316
 30
0.0
 10
9.690921096150985
 20
6.592761675536183
 30
0.0
 10
9.690222737394306
 20
6.591540663003357
 30
0.0
 10
9.689453802585351
 20
6.59048366583594
 30
0.0
 10
9.688618263988793
 20
6.589583432831053
 30
0.0
 10
9.687729616280071
 20
6.588822974000345
 30
0.0
 10
9.68676315204083
 20
6.58823425527699
 30
0.0
 10
9.685720827223829
 20
6.587821966356082
 30
0.0
 10
9.684623587969348
 20
6.587541815679485
 30
0.0
 10
9.683449396188092
 20
6.587438158719226
 30
0.0
 10
9.682200978641447
 20
6.587506887411879
 30
0.0
 10
9.680889467223153
 20
6.587719099126652
 30
0.0
 10
9.679506155298645
 20
6.588103549609477
 30
0.0
 10
9.678058250968895
 20
6.588631935026009
 30
0.0
 10
9.67653630791419
 20
6.589326884620461
 30
0.0
 10
9.675497663155985
 20
6.58990830334602
 30
0.0
 10
9.674967518478368
 20
6.590205070879277
 30
0.0
  0
SPLINE
  5
22F
330
1F
100
AcDbEntity
  8
0
  6
Continuous
 62
     7
370
    18
100
AcDbSpline
210
0.0
220
0.0
230
1.0
 70
     8
 71
     3
 72
    27
 73
    23
 74
     0
 42
0.000000001
 43
0.00000001
 40
0.0
 40
0.0
 40
0.0
 40
0.0
 40
0.0567196362764625
 40
0.1114280005485037
 40
0.164271091180387
 40
0.2163343264019023
 40
0.2672831525731984
 40
0.3174122530729432
 40
0.3673221138318768
 40
0.4182222313367408
 40
0.4714117085699801
 40
0.5279684586103852
 40
0.5880588739916046
 40
0.6522074888314343
 40
0.6864152270246868
 40
0.7232779265513762
 40
0.7626212362197994
 40
0.8047464307438112
 40
0.8494584675399355
 40
0.896719818281155
 40
0.9468940394925561
 40
1.0
 40
1.0
 40
1.0
 40
1.0
 10
9.674967518478368
 20
6.660500860005082
 30
0.0
 10
9.675739512307217
 20
6.66002940180868
 30
0.0
 10
9.677256125149462
 20
6.659103203271174
 30
0.0
 10
9.679467581950332
 20
6.657401092309281
 30
0.0
 10
9.681558168248253
 20
6.655497649311478
 30
0.0
 10
9.683512031777092
 20
6.653400311509042
 30
0.0
 10
9.685303439262228
 20
6.651124312855428
 30
0.0
 10
9.686909963908317
 20
6.648704631316328
 30
0.0
 10
9.688292803997719
 20
6.646141424069847
 30
0.0
 10
9.689479283299086
 20
6.643454977829594
 30
0.0
 10
9.690497587925172
 20
6.640629630378798
 30
0.0
 10
9.691408237147842
 20
6.637649633235208
 30
0.0
 10
9.69222479702929
 20
6.634497294400483
 30
0.0
 10
9.692822464106168
 20
6.631759209613975
 30
0.0
 10
9.693241485962115
 20
6.629448048338476
 30
0.0
 10
9.693496597637846
 20
6.627590876119902
 30
0.0
 10
9.693732139830823
 20
6.625615573991531
 30
0.0
 10
9.693899095312112
 20
6.623546033843954
 30
0.0
 10
9.694068986098767
 20
6.621350189150415
 30
0.0
 10
9.694152863252402
 20
6.619070241749871
 30
0.0
 10
9.694216873888813
 20
6.616669521086193
 30
0.0
 10
9.694226629342568
 20
6.615041389049928
 30
0.0
 10
9.694231645529925
 20
6.61420421473265
 30
0.0
  0
SPLINE
  5
230
330
1F
100
AcDbEntity
  8
0
  6
Continuous
 62
     7
370
    18
100
AcDbSpline
210
0.0
220
0.0
230
1.0
 70
     8
 71
     3
 72
    31
 73
    27
 74
     0
 42
0.000000001
 43
0.00000001
 40
0.0
 40
0.0
 40
0.0
 40
0.0
 40
0.0631062077160515
 40
0.1235984861642897
 40
0.1809500532795165
 40
0.2352307003011586
 40
0.2870631704073532
 40
0.336276507045082
 40
0.3826220599819552
 40
0.4265680494373588
 40
0.468161059594326
 40
0.5081947319458063
 40
0.5465684502053744
 40
0.5834353656443692
 40
0.6191864383818928
 40
0.6535423560669018
 40
0.6873215086103883
 40
0.720583215672022
 40
0.7533869536543235
 40
0.7864125730603129
 40
0.8195275789583766
 40
0.8535644201015123
 40
0.8883228813126379
 40
0.9240057964313767
 40
0.9613553572612671
 40
1.0
 40
1.0
 40
1.0
 40
1.0
 10
9.655703391426812
 20
6.636446102394488
 30
0.0
 10
9.655711156976022
 20
6.637433493968886
 30
0.0
 10
9.655726366416761
 20
6.63936737826116
 30
0.0
 10
9.655820650652743
 20
6.642155424312038
 30
0.0
 10
9.655985418064525
 20
6.644759657423408
 30
0.0
 10
9.656230859027929
 20
6.647171984551698
 30
0.0
 10
9.656523713115359
 20
6.649421417915268
 30
0.0
 10
9.65689887159347
 20
6.651481369952616
 30
0.0
 10
9.657326988589462
 20
6.653371339067299
 30
0.0
 10
9.65783445001681
 20
6.655067981948819
 30
0.0
 10
9.658401397107896
 20
6.656603405837642
 30
0.0
 10
9.659033846959094
 20
6.657979379379929
 30
0.0
 10
9.659754053859475
 20
6.65917416214429
 30
0.0
 10
9.660501211821941
 20
6.660261197397943
 30
0.0
 10
9.661351291952961
 20
6.661138369057347
 30
0.0
 10
9.662244587588372
 20
6.661889829045442
 30
0.0
 10
9.663208300175517
 20
6.66247786473229
 30
0.0
 10
9.664246562781644
 20
6.662894554681188
 30
0.0
 10
9.66535132665322
 20
6.663153814042496
 30
0.0
 10
9.666519113374024
 20
6.663258188939469
 30
0.0
 10
9.667758341301454
 20
6.663205913481072
 30
0.0
 10
9.669072505808954
 20
6.662966769021264
 30
0.0
 10
9.670448815437561
 20
6.662590375748191
 30
0.0
 10
9.671892716431676
 20
6.662065929414528
 30
0.0
 10
9.673406782929835
 20
6.661373740072331
 30
0.0
 10
9.674441396054553
 20
6.660795107020288
 30
0.0
 10
9.674967518478368
 20
6.660500860005082
 30
0.0
  0
SPLINE
  5
231
330
1F
100
AcDbEntity
  8
0
  6
Continuous
 62
     7
370
    18
100
AcDbSpline
210
0.0
220
0.0
230
1.0
 70
     8
 71
     3
 72
    15
 73
    11
 74
     0
 42
0.000000001
 43
0.00000001
 40
0.0
 40
0.0
 40
0.0
 40
0.0
 40
0.0974206681772141
 40
0.2008855880393194
 40
0.3111719701726499
 40
0.4297979458253718
 40
0.5577399263645887
 40
0.6947152693641601
 40
0.8421299102060559
 40
1.0
 40
1.0
 40
1.0
 40
1.0
 10
9.661542829939314
 20
6.604642532917127
 30
0.0
 10
9.661066487100863
 20
6.605710993916733
 30
0.0
 10
9.660084247777306
 20
6.607914206235215
 30
0.0
 10
9.658934621814103
 20
6.61136770580567
 30
0.0
 10
9.657909135101068
 20
6.615030922908906
 30
0.0
 10
9.65710431604898
 20
6.61890838977776
 30
0.0
 10
9.65647394210647
 20
6.622999627657649
 30
0.0
 10
9.656018654735023
 20
6.627311580057638
 30
0.0
 10
9.655761006905374
 20
6.63182947807118
 30
0.0
 10
9.655723030131567
 20
6.634872488422838
 30
0.0
 10
9.655703391426812
 20
6.636446102394488
 30
0.0
  0
SPLINE
  5
232
330
1F
100
AcDbEntity
  8
0
  6
Continuous
 62
     7
370
    18
100
AcDbSpline
210
0.0
220
0.0
230
1.0
 70
     8
 71
     3
 72
    15
 73
    11
 74
     0
 42
0.000000001
 43
0.00000001
 40
0.0
 40
0.0
 40
0.0
 40
0.0
 40
0.1379032299933924
 40
0.2688733426002906
 40
0.3951781273461124
 40
0.5170892381308858
 40
0.6367430265135461
 40
0.7562218164637954
 40
0.8766283594636799
 40
1.0
 40
1.0
 40
1.0
 40
1.0
 10
9.674967518478368
 20
6.590205070879277
 30
0.0
 10
9.674272452937375
 20
6.590629218910444
 30
0.0
 10
9.672917266439264
 20
6.591456190830557
 30
0.0
 10
9.670938116484443
 20
6.592902027055752
 30
0.0
 10
9.669080578685184
 20
6.594508178247933
 30
0.0
 10
9.667328985773903
 20
6.596235275778828
 30
0.0
 10
9.665703026133846
 20
6.598131512500366
 30
0.0
 10
9.664194936454269
 20
6.600167209608984
 30
0.0
 10
9.662774412760259
 20
6.602332754040405
 30
0.0
 10
9.661956672962281
 20
6.603866388709466
 30
0.0
 10
9.661542829939314
 20
6.604642532917127
 30
0.0
  0
SPLINE
  5
233
330
1F
100
AcDbEntity
  8
0
  6
Continuous
 62
     7
370
    18
100
AcDbSpline
210
0.0
220
0.0
230
1.0
 70
     8
 71
     3
 72
    31
 73
    27
 74
     0
 42
0.000000001
 43
0.00000001
 40
0.0
 40
0.0
 40
0.0
 40
0.0
 40
0.062872936983253
 40
0.1228346582660095
 40
0.1796536836655498
 40
0.2339562567955639
 40
0.2855473950458364
 40
0.3345189820567464
 40
0.3806227038405211
 40
0.4245295031767599
 40
0.4664416769228077
 40
0.5065145853718168
 40
0.5447930111054538
 40
0.581845653009279
 40
0.617462181423722
 40
0.6520802585584685
 40
0.68589251728597
 40
0.719186823394995
 40
0.7521933849929764
 40
0.7852513720621818
 40
0.8186671215359246
 40
0.8528356188434193
 40
0.8876281460368526
 40
0.923636303848835
 40
0.9610224701392116
 40
1.0
 40
1.0
 40
1.0
 40
1.0
 10
9.62488078814432
 20
6.654239612523956
 30
0.0
 10
9.624872922419693
 20
6.653256929656396
 30
0.0
 10
9.624857555178346
 20
6.65133706524394
 30
0.0
 10
9.624765169448782
 20
6.648570827641275
 30
0.0
 10
9.624592692737425
 20
6.64599101406268
 30
0.0
 10
9.624370578908657
 20
6.643576729948261
 30
0.0
 10
9.624071012804265
 20
6.641341836119488
 30
0.0
 10
9.623699071122843
 20
6.639293170729418
 30
0.0
 10
9.623263869501166
 20
6.637420073138903
 30
0.0
 10
9.622774501698107
 20
6.635708759863937
 30
0.0
 10
9.622209943436275
 20
6.634166976817622
 30
0.0
 10
9.621570238765381
 20
6.632797073327489
 30
0.0
 10
9.620871880008703
 20
6.631576060794663
 30
0.0
 10
9.620102945199749
 20
6.630519063627246
 30
0.0
 10
9.619267406603191
 20
6.62961883062236
 30
0.0
 10
9.618378758894467
 20
6.628858371791651
 30
0.0
 10
9.617412294655226
 20
6.628269653068296
 30
0.0
 10
9.616369969838225
 20
6.627857364147388
 30
0.0
 10
9.615272730583744
 20
6.627577213470791
 30
0.0
 10
9.614098538802487
 20
6.627473556510532
 30
0.0
 10
9.612850121255843
 20
6.627542285203185
 30
0.0
 10
9.61153860983755
 20
6.627754496917958
 30
0.0
 10
9.61015529791304
 20
6.628138947400783
 30
0.0
 10
9.608707393583293
 20
6.628667332817315
 30
0.0
 10
9.607185450528586
 20
6.629362282411767
 30
0.0
 10
9.606146805770381
 20
6.629943701137326
 30
0.0
 10
9.605616661092764
 20
6.630240468670583
 30
0.0
  0
SPLINE
  5
234
330
1F
100
AcDbEntity
  8
0
  6
Continuous
 62
     7
370
    18
100
AcDbSpline
210
0.0
220
0.0
230
1.0
 70
     8
 71
     3
 72
    27
 73
    23
 74
     0
 42
0.000000001
 43
0.00000001
 40
0.0
 40
0.0
 40
0.0
 40
0.0
 40
0.0567196362764625
 40
0.1114280005485037
 40
0.164271091180387
 40
0.2163343264019023
 40
0.2672831525731984
 40
0.3174122530729432
 40
0.3673221138318768
 40
0.4182222313367408
 40
0.4714117085699801
 40
0.5279684586103852
 40
0.5880588739916046
 40
0.6522074888314343
 40
0.6864152270246868
 40
0.7232779265513762
 40
0.7626212362197994
 40
0.8047464307438112
 40
0.8494584675399355
 40
0.896719818281155
 40
0.9468940394925561
 40
1.0
 40
1.0
 40
1.0
 40
1.0
 10
9.605616661092764
 20
6.700536257796388
 30
0.0
 10
9.606388654921613
 20
6.700064799599987
 30
0.0
 10
9.60790526776386
 20
6.69913860106248
 30
0.0
 10
9.610116724564728
 20
6.697436490100587
 30
0.0
 10
9.61220731086265
 20
6.695533047102785
 30
0.0
 10
9.614161174391487
 20
6.693435709300348
 30
0.0
 10
9.615952581876623
 20
6.691159710646734
 30
0.0
 10
9.617559106522712
 20
6.688740029107635
 30
0.0
 10
9.618941946612114
 20
6.686176821861153
 30
0.0
 10
9.620128425913483
 20
6.6834903756209
 30
0.0
 10
9.62114673053957
 20
6.680665028170105
 30
0.0
 10
9.62205737976224
 20
6.677685031026514
 30
0.0
 10
9.622873939643686
 20
6.674532692191789
 30
0.0
 10
9.623471606720564
 20
6.671794607405281
 30
0.0
 10
9.623890628576513
 20
6.669483446129783
 30
0.0
 10
9.624145740252242
 20
6.667626273911209
 30
0.0
 10
9.624381282445219
 20
6.665650971782837
 30
0.0
 10
9.62454823792651
 20
6.66358143163526
 30
0.0
 10
9.624718128713162
 20
6.661385586941721
 30
0.0
 10
9.6248020058668
 20
6.659105639541177
 30
0.0
 10
9.624866016503208
 20
6.656704918877499
 30
0.0
 10
9.624875771956964
 20
6.655076786841235
 30
0.0
 10
9.62488078814432
 20
6.654239612523956
 30
0.0
  0
SPLINE
  5
235
330
1F
100
AcDbEntity
  8
0
  6
Continuous
 62
     7
370
    18
100
AcDbSpline
210
0.0
220
0.0
230
1.0
 70
     8
 71
     3
 72
    31
 73
    27
 74
     0
 42
0.000000001
 43
0.00000001
 40
0.0
 40
0.0
 40
0.0
 40
0.0
 40
0.0631062077160515
 40
0.1235984861642897
 40
0.1809500532795165
 40
0.2352307003011586
 40
0.2870631704073532
 40
0.336276507045082
 40
0.3826220599819552
 40
0.4265680494373588
 40
0.468161059594326
 40
0.5081947319458063
 40
0.5465684502053744
 40
0.5834353656443692
 40
0.6191864383818928
 40
0.6535423560669018
 40
0.6873215086103883
 40
0.720583215672022
 40
0.7533869536543235
 40
0.7864125730603129
 40
0.8195275789583766
 40
0.8535644201015123
 40
0.8883228813126379
 40
0.9240057964313767
 40
0.9613553572612671
 40
1.0
 40
1.0
 40
1.0
 40
1.0
 10
9.58635253404121
 20
6.676481500185794
 30
0.0
 10
9.58636029959042
 20
6.677468891760193
 30
0.0
 10
9.586375509031157
 20
6.679402776052466
 30
0.0
 10
9.586469793267138
 20
6.682190822103345
 30
0.0
 10
9.586634560678922
 20
6.684795055214714
 30
0.0
 10
9.586880001642324
 20
6.687207382343004
 30
0.0
 10
9.587172855729756
 20
6.689456815706574
 30
0.0
 10
9.587548014207865
 20
6.691516767743922
 30
0.0
 10
9.58797613120386
 20
6.693406736858605
 30
0.0
 10
9.588483592631206
 20
6.695103379740125
 30
0.0
 10
9.589050539722294
 20
6.696638803628948
 30
0.0
 10
9.589682989573491
 20
6.698014777171236
 30
0.0
 10
9.590403196473872
 20
6.699209559935596
 30
0.0
 10
9.591150354436337
 20
6.700296595189248
 30
0.0
 10
9.592000434567359
 20
6.701173766848654
 30
0.0
 10
9.592893730202768
 20
6.701925226836748
 30
0.0
 10
9.593857442789913
 20
6.702513262523596
 30
0.0
 10
9.594895705396041
 20
6.702929952472493
 30
0.0
 10
9.596000469267615
 20
6.703189211833803
 30
0.0
 10
9.59716825598842
 20
6.703293586730776
 30
0.0
 10
9.59840748391585
 20
6.703241311272379
 30
0.0
 10
9.59972164842335
 20
6.703002166812571
 30
0.0
 10
9.601097958051957
 20
6.702625773539498
 30
0.0
 10
9.602541859046074
 20
6.702101327205834
 30
0.0
 10
9.60405592554423
 20
6.701409137863637
 30
0.0
 10
9.60509053866895
 20
6.700830504811594
 30
0.0
 10
9.605616661092764
 20
6.700536257796388
 30
0.0
  0
SPLINE
  5
236
330
1F
100
AcDbEntity
  8
0
  6
Continuous
 62
     7
370
    18
100
AcDbSpline
210
0.0
220
0.0
230
1.0
 70
     8
 71
     3
 72
    15
 73
    11
 74
     0
 42
0.000000001
 43
0.00000001
 40
0.0
 40
0.0
 40
0.0
 40
0.0
 40
0.0974206681772141
 40
0.2008855880393194
 40
0.3111719701726499
 40
0.4297979458253718
 40
0.5577399263645887
 40
0.6947152693641601
 40
0.8421299102060559
 40
1.0
 40
1.0
 40
1.0
 40
1.0
 10
9.592191972553712
 20
6.644677930708434
 30
0.0
 10
9.591715629715258
 20
6.645746391708039
 30
0.0
 10
9.590733390391703
 20
6.647949604026522
 30
0.0
 10
9.589583764428498
 20
6.651403103596977
 30
0.0
 10
9.588558277715464
 20
6.655066320700212
 30
0.0
 10
9.587753458663375
 20
6.658943787569067
 30
0.0
 10
9.587123084720867
 20
6.663035025448956
 30
0.0
 10
9.58666779734942
 20
6.667346977848945
 30
0.0
 10
9.58641014951977
 20
6.671864875862486
 30
0.0
 10
9.586372172745964
 20
6.674907886214144
 30
0.0
 10
9.58635253404121
 20
6.676481500185794
 30
0.0
  0
SPLINE
  5
237
330
1F
100
AcDbEntity
  8
0
  6
Continuous
 62
     7
370
    18
100
AcDbSpline
210
0.0
220
0.0
230
1.0
 70
     8
 71
     3
 72
    15
 73
    11
 74
     0
 42
0.000000001
 43
0.00000001
 40
0.0
 40
0.0
 40
0.0
 40
0.0
 40
0.1379032299933924
 40
0.2688733426002906
 40
0.3951781273461124
 40
0.5170892381308858
 40
0.6367430265135461
 40
0.7562218164637954
 40
0.8766283594636799
 40
1.0
 40
1.0
 40
1.0
 40
1.0
 10
9.605616661092764
 20
6.630240468670583
 30
0.0
 10
9.604921595551772
 20
6.630664616701751
 30
0.0
 10
9.60356640905366
 20
6.631491588621864
 30
0.0
 10
9.601587259098839
 20
6.632937424847058
 30
0.0
 10
9.599729721299582
 20
6.634543576039239
 30
0.0
 10
9.597978128388299
 20
6.636270673570134
 30
0.0
 10
9.596352168748243
 20
6.638166910291671
 30
0.0
 10
9.594844079068665
 20
6.64020260740029
 30
0.0
 10
9.593423555374654
 20
6.642368151831711
 30
0.0
 10
9.592605815576679
 20
6.643901786500773
 30
0.0
 10
9.592191972553712
 20
6.644677930708434
 30
0.0
  0
LINE
  5
238
330
1F
100
AcDbEntity
  8
0
  6
Continuous
 62
     7
370
    18
100
AcDbLine
 10
9.510837156
 20
6.7143195761
 30
0.0
 11
9.5331835434
 21
6.7014192813
 31
0.0
  0
LINE
  5
239
330
1F
100
AcDbEntity
  8
0
  6
Continuous
 62
     7
370
    18
100
AcDbLine
 10
9.510837156
 20
6.7063111951
 30
0.0
 11
9.510837156
 21
6.7143195761
 31
0.0
  0
LINE
  5
23A
330
1F
100
AcDbEntity
  8
0
  6
Continuous
 62
     7
370
    18
100
AcDbLine
 10
9.5331835434
 20
6.6934109002
 30
0.0
 11
9.510837156
 21
6.7063111951
 31
0.0
  0
LINE
  5
23B
330
1F
100
AcDbEntity
  8
0
  6
Continuous
 62
     7
370
    18
100
AcDbLine
 10
9.5331835434
 20
6.7014192813
 30
0.0
 11
9.5331835434
 21
6.6934109002
 31
0.0
  0
LINE
  5
23C
330
1F
100
AcDbEntity
  8
0
  6
Continuous
 62
     7
370
    18
100
AcDbLine
 10
9.4468802542
 20
6.7316650671
 30
0.0
 11
9.454585905
 21
6.7272166896
 31
0.0
  0
LINE
  5
23D
330
1F
100
AcDbEntity
  8
0
  6
Continuous
 62
     7
370
    18
100
AcDbLine
 10
9.4468802542
 20
6.722766866
 30
0.0
 11
9.4468802542
 21
6.7316650671
 31
0.0
  0
LINE
  5
23E
330
1F
100
AcDbEntity
  8
0
  6
Continuous
 62
     7
370
    18
100
AcDbLine
 10
9.454585905
 20
6.7183184884
 30
0.0
 11
9.4468802542
 21
6.722766866
 31
0.0
  0
LINE
  5
23F
330
1F
100
AcDbEntity
  8
0
  6
Continuous
 62
     7
370
    18
100
AcDbLine
 10
9.454585905
 20
6.7272166896
 30
0.0
 11
9.454585905
 21
6.7183184884
 31
0.0
  0
LINE
  5
240
330
1F
100
AcDbEntity
  8
0
  6
Continuous
 62
     7
370
    18
100
AcDbLine
 10
10.7335109027
 20
7.4416018703
 30
0.0
 11
10.6430012347
 21
7.3893517511
 31
0.0
  0
LINE
  5
241
330
1F
100
AcDbEntity
  8
0
  6
Continuous
 62
     7
370
    18
100
AcDbLine
 10
10.7335109027
 20
7.4416018703
 30
0.0
 11
10.7335109027
 21
5.8085202465
 31
0.0
  0
LINE
  5
242
330
1F
100
AcDbEntity
  8
0
  6
Continuous
 62
     7
370
    18
100
AcDbLine
 10
10.6430012347
 20
5.8607873513
 30
0.0
 11
10.7335109027
 21
5.8085202465
 31
0.0
  0
LINE
  5
243
330
1F
100
AcDbEntity
  8
0
  6
Continuous
 62
     7
370
    18
100
AcDbLine
 10
9.3900080184
 20
8.2171895765
 30
0.0
 11
9.2994983504
 21
8.1649394573
 31
0.0
  0
LINE
  5
244
330
1F
100
AcDbEntity
  8
0
  6
Continuous
 62
     7
370
    18
100
AcDbLine
 10
9.3900080184
 20
8.2171895765
 30
0.0
 11
10.7335109027
 21
7.4416018703
 31
0.0
  0
LWPOLYLINE
  5
245
330
1F
100
AcDbEntity
  8
0
  6
Continuous
 62
     7
370
    18
100
AcDbPolyline
 90
       47
 70
   128
 43
0.0
 10
9.7900536799
 20
7.204219008
 10
9.7905276032
 20
7.1879251371
 10
9.7919471637
 20
7.1711600555
 10
9.7943057426
 20
7.1540019297
 10
9.7975923432
 20
7.1365307589
 10
9.8017916417
 20
7.1188280016
 10
9.8068840593
 20
7.1009761964
 10
9.8128458525
 20
7.0830585765
 10
9.8196492249
 20
7.0651586822
 10
9.8272624559
 20
7.047359971
 10
9.8356500492
 20
7.0297454288
 10
9.8447728979
 20
7.0123971827
 10
9.8545884671
 20
6.9953961183
 10
9.865050992
 20
6.9788215022
 10
9.8761116916
 20
6.9627506131
 10
9.8877189958
 20
6.9472583809
 10
9.8998187859
 20
6.9324170374
 10
9.9123546472
 20
6.9182957799
 10
9.9252681316
 20
6.9049604482
 10
9.9384990306
 20
6.8924732178
 10
9.9519856556
 20
6.8808923099
 10
9.9656651257
 20
6.8702717201
 10
9.9794736609
 20
6.8606609663
 10
9.9933468794
 20
6.8521048585
 10
10.007220098
 20
6.8446432891
 10
10.0210286332
 20
6.8383110475
 10
10.0347081033
 20
6.8331376573
 10
10.0481947283
 20
6.8291472395
 10
10.0614256273
 20
6.8263583991
 10
10.0743391117
 20
6.824784139
 10
10.086874973
 20
6.8244317991
 10
10.0989747631
 20
6.8253030223
 10
10.1105820673
 20
6.8273937464
 10
10.1216427669
 20
6.8306942236
 10
10.1321052918
 20
6.8351890654
 10
10.141920861
 20
6.840857315
 10
10.1510437097
 20
6.8476725442
 10
10.159431303
 20
6.8556029773
 10
10.167044534
 20
6.864611639
 10
10.1738479064
 20
6.8746565267
 10
10.1798096996
 20
6.8856908066
 10
10.1849021172
 20
6.8976630318
 10
10.1891014157
 20
6.9105173821
 10
10.1923880163
 20
6.9241939247
 10
10.1947465952
 20
6.9386288933
 10
10.1961661557
 20
6.9537549853
 10
10.1963550362
 20
6.9572390613
  0
ARC
  5
246
330
1F
100
AcDbEntity
  8
0
  6
Continuous
 62
     7
370
    18
100
AcDbCircle
 10
9.9126044206
 20
7.2248134129
 30
0.0
 40
0.1242691174935942
100
AcDbArc
 50
55.7084215822
 51
189.539309546
  0
LWPOLYLINE
  5
247
330
1F
100
AcDbEntity
  8
0
  6
Continuous
 62
     7
370
    18
100
AcDbPolyline
 90
       48
 70
   128
 43
0.0
 10
10.1415223235
 20
6.8405960286
 10
10.1411209033
 20
6.8403936671
 10
10.1306583783
 20
6.8358988253
 10
10.1195976787
 20
6.8325983481
 10
10.1079903746
 20
6.830507624
 10
10.0958905844
 20
6.8296364009
 10
10.0833547232
 20
6.8299887407
 10
10.0704412387
 20
6.8315630008
 10
10.0572103398
 20
6.8343518412
 10
10.0437237148
 20
6.838342259
 10
10.0300442447
 20
6.8435156492
 10
10.0162357095
 20
6.8498478909
 10
10.0023624909
 20
6.8573094602
 10
9.9884892723
 20
6.8658655681
 10
9.9746807371
 20
6.8754763218
 10
9.961001267
 20
6.8860969116
 10
9.9475146421
 20
6.8976778195
 10
9.9342837431
 20
6.91016505
 10
9.9213702586
 20
6.9235003816
 10
9.9088343974
 20
6.9376216391
 10
9.8967346072
 20
6.9524629826
 10
9.8851273031
 20
6.9679552148
 10
9.8740666035
 20
6.9840261039
 10
9.8636040785
 20
7.00060072
 10
9.8537885093
 20
7.0176017844
 10
9.8446656607
 20
7.0349500305
 10
9.8362780674
 20
7.0525645727
 10
9.8286648364
 20
7.0703632839
 10
9.821861464
 20
7.0882631782
 10
9.8158996707
 20
7.1061807981
 10
9.8108072532
 20
7.1240326033
 10
9.8066079546
 20
7.1417353606
 10
9.803321354
 20
7.1592065315
 10
9.8009627751
 20
7.1763646572
 10
9.7995432147
 20
7.1931297389
 10
9.7990692913
 20
7.2094236097
 10
9.7995432147
 20
7.2251703003
 10
9.8009627751
 20
7.2402963923
 10
9.803321354
 20
7.2547313609
 10
9.8066079546
 20
7.2684079035
 10
9.8108072532
 20
7.2812622538
 10
9.8158996707
 20
7.2932344789
 10
9.821861464
 20
7.3042687589
 10
9.8286648364
 20
7.3143136466
 10
9.8362780674
 20
7.3233223083
 10
9.8446656607
 20
7.3312527414
 10
9.8537885093
 20
7.3380679706
 10
9.8541870469
 20
7.338329257
  0
ARC
  5
248
330
1F
100
AcDbEntity
  8
0
  6
Continuous
 62
     7
370
    18
100
AcDbCircle
 10
10.2482819301
 20
7.2340312141
 30
0.0
 40
0.4497721619028757
100
AcDbArc
 50
182.8776127567
 51
237.1170107107
  0
LINE
  5
249
330
1F
100
AcDbEntity
  8
0
  6
Continuous
 62
     7
370
    18
100
AcDbLine
 10
10.4963264377
 20
6.1177508879
 30
0.0
 11
10.4963264377
 21
6.1863404488
 31
0.0
  0
SPLINE
  5
24A
330
1F
100
AcDbEntity
  8
0
  6
Continuous
 62
     7
370
    18
100
AcDbSpline
210
0.0
220
0.0
230
1.0
 70
     8
 71
     3
 72
    10
 73
     6
 74
     0
 42
0.000000001
 43
0.00000001
 40
0.0
 40
0.0
 40
0.0
 40
0.0
 40
0.1397011331200455
 40
0.5693257522817485
 40
1.0
 40
1.0
 40
1.0
 40
1.0
 10
10.5379607484561
 20
6.131814204124399
 30
0.0
 10
10.53761160215618
 20
6.131450061428617
 30
0.0
 10
10.53618872193027
 20
6.129966066205506
 30
0.0
 10
10.53196430490179
 20
6.13048158020429
 30
0.0
 10
10.52840240185903
 20
6.131691186690197
 30
0.0
 10
10.52661927744444
 20
6.132296727838057
 30
0.0
  0
LINE
  5
24B
330
1F
100
AcDbEntity
  8
0
  6
Continuous
 62
     7
370
    18
100
AcDbLine
 10
10.546357435
 20
6.0888686079
 30
0.0
 11
10.537768391
 21
6.0938269574
 31
0.0
  0
LINE
  5
24C
330
1F
100
AcDbEntity
  8
0
  6
Continuous
 62
     7
370
    18
100
AcDbLine
 10
10.537768391
 20
6.0938269574
 30
0.0
 11
10.5302794616
 21
6.1128044494
 31
0.0
  0
SPLINE
  5
24D
330
1F
100
AcDbEntity
  8
0
  6
Continuous
 62
     7
370
    18
100
AcDbSpline
210
0.0
220
0.0
230
1.0
 70
     8
 71
     3
 72
    21
 73
    17
 74
     0
 42
0.000000001
 43
0.00000001
 40
0.0
 40
0.0
 40
0.0
 40
0.0
 40
0.0807565202394666
 40
0.1564928761205837
 40
0.2278645863309012
 40
0.2942194159581935
 40
0.3567576405439986
 40
0.4148044898400759
 40
0.4680257207328432
 40
0.5167566765914664
 40
0.6042176202059655
 40
0.6814453118756422
 40
0.7479519834168781
 40
0.8047659882074071
 40
0.9054352660002635
 40
1.0
 40
1.0
 40
1.0
 40
1.0
 10
10.53027946158423
 20
6.112804449379
 30
0.0
 10
10.53001018081049
 20
6.11347405019654
 30
0.0
 10
10.52948835888648
 20
6.114771626633454
 30
0.0
 10
10.52873487592571
 20
6.116661911944259
 30
0.0
 10
10.52799511652387
 20
6.11842805050333
 30
0.0
 10
10.5273123361772
 20
6.120086757256383
 30
0.0
 10
10.52664323397524
 20
6.121629680622795
 30
0.0
 10
10.52604342861802
 20
6.123068486864399
 30
0.0
 10
10.52544106759302
 20
6.124382762315164
 30
0.0
 10
10.52474942345568
 20
6.12594322759979
 30
0.0
 10
10.52390475353375
 20
6.127686298997182
 30
0.0
 10
10.52291908345948
 20
6.129545030455461
 30
0.0
 10
10.52201282540704
 20
6.131136545754813
 30
0.0
 10
10.52086762705911
 20
6.132816996564057
 30
0.0
 10
10.51944363296164
 20
6.134572357882418
 30
0.0
 10
10.51824300286514
 20
6.135708202762086
 30
0.0
 10
10.51766145836546
 20
6.136258367499902
 30
0.0
  0
SPLINE
  5
24E
330
1F
100
AcDbEntity
  8
0
  6
Continuous
 62
     7
370
    18
100
AcDbSpline
210
0.0
220
0.0
230
1.0
 70
     8
 71
     3
 72
    11
 73
     7
 74
     0
 42
0.000000001
 43
0.00000001
 40
0.0
 40
0.0
 40
0.0
 40
0.0
 40
0.1774946570818461
 40
0.4052256231013636
 40
0.67838810833485
 40
1.0
 40
1.0
 40
1.0
 40
1.0
 10
10.51766145836546
 20
6.136258367499902
 30
0.0
 10
10.51741715260401
 20
6.136450277186257
 30
0.0
 10
10.51685939522676
 20
6.136888412753325
 30
0.0
 10
10.51591232459199
 20
6.137511002147058
 30
0.0
 10
10.51476483232975
 20
6.138253947549836
 30
0.0
 10
10.51393322513201
 20
6.138731678310323
 30
0.0
 10
10.51348355081116
 20
6.138990001297246
 30
0.0
  0
LINE
  5
24F
330
1F
100
AcDbEntity
  8
0
  6
Continuous
 62
     7
370
    18
100
AcDbLine
 10
10.5134835508
 20
6.1389900013
 30
0.0
 11
10.5048026536
 21
6.1440013766
 31
0.0
  0
LINE
  5
250
330
1F
100
AcDbEntity
  8
0
  6
Continuous
 62
     7
370
    18
100
AcDbLine
 10
10.5040955468
 20
6.1132658766
 30
0.0
 11
10.4963264377
 21
6.1177508879
 31
0.0
  0
SPLINE
  5
251
330
1F
100
AcDbEntity
  8
0
  6
Continuous
 62
     7
370
    18
100
AcDbSpline
210
0.0
220
0.0
230
1.0
 70
     8
 71
     3
 72
     9
 73
     5
 74
     0
 42
0.000000001
 43
0.00000001
 40
0.0
 40
0.0
 40
0.0
 40
0.0
 40
0.4590142478266614
 40
1.0
 40
1.0
 40
1.0
 40
1.0
 10
10.53128266097581
 20
6.140108000745517
 30
0.0
 10
10.53205771789634
 20
6.140705281966382
 30
0.0
 10
10.53374624265171
 20
6.142006507851406
 30
0.0
 10
10.5339655075117
 20
6.144881757154382
 30
0.0
 10
10.53408412667691
 20
6.146437226061238
 30
0.0
  0
SPLINE
  5
252
330
1F
100
AcDbEntity
  8
0
  6
Continuous
 62
     7
370
    18
100
AcDbSpline
210
0.0
220
0.0
230
1.0
 70
     8
 71
     3
 72
    23
 73
    19
 74
     0
 42
0.000000001
 43
0.00000001
 40
0.0
 40
0.0
 40
0.0
 40
0.0
 40
0.0603272326790053
 40
0.1181633268525656
 40
0.1741915946005239
 40
0.2288671201359929
 40
0.2834295822545128
 40
0.3378078149372619
 40
0.3926149530011024
 40
0.4484500033868904
 40
0.5059514596840964
 40
0.5650462512987542
 40
0.6266439369048299
 40
0.6922233429555579
 40
0.7611243334651906
 40
0.8353052271782847
 40
0.9153231689797097
 40
1.0
 40
1.0
 40
1.0
 40
1.0
 10
10.53408412667691
 20
6.146437226061238
 30
0.0
 10
10.53407298964951
 20
6.146833262699078
 30
0.0
 10
10.53405117548448
 20
6.147608982131322
 30
0.0
 10
10.53393560130211
 20
6.148795393831854
 30
0.0
 10
10.5337157113873
 20
6.149983422961293
 30
0.0
 10
10.53341207335388
 20
6.15116884495213
 30
0.0
 10
10.53302762330013
 20
6.152352157971937
 30
0.0
 10
10.53255519500289
 20
6.153533717853417
 30
0.0
 10
10.53199722616501
 20
6.154707475390605
 30
0.0
 10
10.53135717049063
 20
6.15587562951514
 30
0.0
 10
10.5306225285518
 20
6.157026540156282
 30
0.0
 10
10.52978332295939
 20
6.158138053811777
 30
0.0
 10
10.52884625514347
 20
6.159211877487845
 30
0.0
 10
10.52781021253844
 20
6.160232887943361
 30
0.0
 10
10.5266784655848
 20
6.161224495999593
 30
0.0
 10
10.52544456953522
 20
6.162161845284498
 30
0.0
 10
10.5241141678338
 20
6.16309270537758
 30
0.0
 10
10.52319227658201
 20
6.163634316606466
 30
0.0
 10
10.5227182917165
 20
6.163912782775862
 30
0.0
  0
LINE
  5
253
330
1F
100
AcDbEntity
  8
0
  6
Continuous
 62
     7
370
    18
100
AcDbLine
 10
10.5227182917
 20
6.1639127828
 30
0.0
 11
10.5048026536
 21
6.1742552605
 31
0.0
  0
LINE
  5
254
330
1F
100
AcDbEntity
  8
0
  6
Continuous
 62
     7
370
    18
100
AcDbLine
 10
10.5227182917
 20
6.1639127828
 30
0.0
 11
10.5220111849
 21
6.1635045787
 31
0.0
  0
LINE
  5
255
330
1F
100
AcDbEntity
  8
0
  6
Continuous
 62
     7
370
    18
100
AcDbLine
 10
10.5340841267
 20
6.1464372261
 30
0.0
 11
10.5333770199
 21
6.146029022
 31
0.0
  0
SPLINE
  5
256
330
1F
100
AcDbEntity
  8
0
  6
Continuous
 62
     7
370
    18
100
AcDbSpline
210
0.0
220
0.0
230
1.0
 70
     8
 71
     3
 72
    23
 73
    19
 74
     0
 42
0.000000001
 43
0.00000001
 40
0.0
 40
0.0
 40
0.0
 40
0.0
 40
0.0603272326790053
 40
0.1181633268525656
 40
0.1741915946005239
 40
0.2288671201359929
 40
0.2834295822545128
 40
0.3378078149372619
 40
0.3926149530011024
 40
0.4484500033868904
 40
0.5059514596840964
 40
0.5650462512987542
 40
0.6266439369048299
 40
0.6922233429555579
 40
0.7611243334651906
 40
0.8353052271782847
 40
0.9153231689797097
 40
1.0
 40
1.0
 40
1.0
 40
1.0
 10
10.53337701989573
 20
6.146029022005327
 30
0.0
 10
10.53336588286832
 20
6.146425058643167
 30
0.0
 10
10.53334406870329
 20
6.147200778075411
 30
0.0
 10
10.53322849452092
 20
6.148387189775943
 30
0.0
 10
10.53300860460611
 20
6.149575218905382
 30
0.0
 10
10.53270496657269
 20
6.150760640896218
 30
0.0
 10
10.53232051651894
 20
6.151943953916025
 30
0.0
 10
10.5318480882217
 20
6.153125513797507
 30
0.0
 10
10.53129011938382
 20
6.154299271334693
 30
0.0
 10
10.53065006370944
 20
6.155467425459228
 30
0.0
 10
10.52991542177061
 20
6.156618336100371
 30
0.0
 10
10.52907621617821
 20
6.157729849755866
 30
0.0
 10
10.52813914836229
 20
6.158803673431934
 30
0.0
 10
10.52710310575725
 20
6.159824683887449
 30
0.0
 10
10.52597135880362
 20
6.160816291943681
 30
0.0
 10
10.52473746275403
 20
6.161753641228586
 30
0.0
 10
10.52340706105262
 20
6.162684501321669
 30
0.0
 10
10.52248516980083
 20
6.163226112550555
 30
0.0
 10
10.52201118493531
 20
6.163504578719952
 30
0.0
  0
SPLINE
  5
257
330
1F
100
AcDbEntity
  8
0
  6
Continuous
 62
     7
370
    18
100
AcDbSpline
210
0.0
220
0.0
230
1.0
 70
     8
 71
     3
 72
    19
 73
    15
 74
     0
 42
0.000000001
 43
0.00000001
 40
0.0
 40
0.0
 40
0.0
 40
0.0
 40
0.128838042999503
 40
0.2408506371773563
 40
0.3379858977314474
 40
0.4208544298319358
 40
0.4947796491112434
 40
0.5659088810869705
 40
0.6370496543952386
 40
0.7093806720350354
 40
0.7821614733091782
 40
0.8536820657736279
 40
0.9261831408996576
 40
1.0
 40
1.0
 40
1.0
 40
1.0
 10
10.52019313294482
 20
6.142308614906081
 30
0.0
 10
10.52100036337521
 20
6.141857068426629
 30
0.0
 10
10.52250940495161
 20
6.141012944635555
 30
0.0
 10
10.52461902443827
 20
6.140029410920681
 30
0.0
 10
10.52642359589535
 20
6.139353935505843
 30
0.0
 10
10.52794617009902
 20
6.139031292037478
 30
0.0
 10
10.5292257452662
 20
6.139037631156233
 30
0.0
 10
10.53033475605879
 20
6.13930850283297
 30
0.0
 10
10.53126724046488
 20
6.139900508523399
 30
0.0
 10
10.53203412836143
 20
6.140753870280196
 30
0.0
 10
10.53263362540848
 20
6.14182024275172
 30
0.0
 10
10.53305252355346
 20
6.143073327952039
 30
0.0
 10
10.53333375708846
 20
6.144459674802056
 30
0.0
 10
10.53336251276353
 20
6.14550277951711
 30
0.0
 10
10.53337701989573
 20
6.146029022005327
 30
0.0
  0
LINE
  5
258
330
1F
100
AcDbEntity
  8
0
  6
Continuous
 62
     7
370
    18
100
AcDbLine
 10
10.5040955468
 20
6.1516015536
 30
0.0
 11
10.5201931329
 21
6.1423086149
 31
0.0
  0
LINE
  5
259
330
1F
100
AcDbEntity
  8
0
  6
Continuous
 62
     7
370
    18
100
AcDbLine
 10
10.5040955468
 20
6.1738470565
 30
0.0
 11
10.5040955468
 21
6.1516015536
 31
0.0
  0
LINE
  5
25A
330
1F
100
AcDbEntity
  8
0
  6
Continuous
 62
     7
370
    18
100
AcDbLine
 10
10.5220111849
 20
6.1635045787
 30
0.0
 11
10.5040955468
 21
6.1738470565
 31
0.0
  0
LINE
  5
25B
330
1F
100
AcDbEntity
  8
0
  6
Continuous
 62
     7
370
    18
100
AcDbLine
 10
10.5266192774
 20
6.1322967278
 30
0.0
 11
10.5259121707
 21
6.1318885238
 31
0.0
  0
LINE
  5
25C
330
1F
100
AcDbEntity
  8
0
  6
Continuous
 62
     7
370
    18
100
AcDbLine
 10
10.5048026536
 20
6.1742552605
 30
0.0
 11
10.5040955468
 21
6.1738470565
 31
0.0
  0
LINE
  5
25D
330
1F
100
AcDbEntity
  8
0
  6
Continuous
 62
     7
370
    18
100
AcDbLine
 10
10.5176614584
 20
6.1362583675
 30
0.0
 11
10.5169543516
 21
6.1358501634
 31
0.0
  0
LINE
  5
25E
330
1F
100
AcDbEntity
  8
0
  6
Continuous
 62
     7
370
    18
100
AcDbLine
 10
10.5302794616
 20
6.1128044494
 30
0.0
 11
10.5295723548
 21
6.1123962453
 31
0.0
  0
LINE
  5
25F
330
1F
100
AcDbEntity
  8
0
  6
Continuous
 62
     7
370
    18
100
AcDbLine
 10
10.4963264377
 20
6.1177508879
 30
0.0
 11
10.4956193309
 21
6.1173426838
 31
0.0
  0
LINE
  5
260
330
1F
100
AcDbEntity
  8
0
  6
Continuous
 62
     7
370
    18
100
AcDbLine
 10
10.537768391
 20
6.0938269574
 30
0.0
 11
10.5370612842
 21
6.0934187534
 31
0.0
  0
LINE
  5
261
330
1F
100
AcDbEntity
  8
0
  6
Continuous
 62
     7
370
    18
100
AcDbLine
 10
10.5134835508
 20
6.1389900013
 30
0.0
 11
10.512776444
 21
6.1385817972
 31
0.0
  0
LINE
  5
262
330
1F
100
AcDbEntity
  8
0
  6
Continuous
 62
     7
370
    18
100
AcDbLine
 10
10.4408457517
 20
6.1497792061
 30
0.0
 11
10.4408457517
 21
6.218368767
 31
0.0
  0
LINE
  5
263
330
1F
100
AcDbEntity
  8
0
  6
Continuous
 62
     7
370
    18
100
AcDbLine
 10
10.4825197245
 20
6.1871189217
 30
0.0
 11
10.4493219677
 21
6.2062835788
 31
0.0
  0
LINE
  5
264
330
1F
100
AcDbEntity
  8
0
  6
Continuous
 62
     7
370
    18
100
AcDbLine
 10
10.4802080292
 20
6.1590893711
 30
0.0
 11
10.4493219677
 21
6.176919515
 31
0.0
  0
LINE
  5
265
330
1F
100
AcDbEntity
  8
0
  6
Continuous
 62
     7
370
    18
100
AcDbLine
 10
10.4840608546
 20
6.1248316582
 30
0.0
 11
10.4408457517
 21
6.1497792061
 31
0.0
  0
LINE
  5
266
330
1F
100
AcDbEntity
  8
0
  6
Continuous
 62
     7
370
    18
100
AcDbLine
 10
10.5048026536
 20
6.1440013766
 30
0.0
 11
10.5040955468
 21
6.1435931726
 31
0.0
  0
LINE
  5
267
330
1F
100
AcDbEntity
  8
0
  6
Continuous
 62
     7
370
    18
100
AcDbLine
 10
10.4493219677
 20
6.2062835788
 30
0.0
 11
10.4486148609
 21
6.2058753747
 31
0.0
  0
LINE
  5
268
330
1F
100
AcDbEntity
  8
0
  6
Continuous
 62
     7
370
    18
100
AcDbLine
 10
10.4493219677
 20
6.176919515
 30
0.0
 11
10.4486148609
 21
6.1765113109
 31
0.0
  0
LINE
  5
269
330
1F
100
AcDbEntity
  8
0
  6
Continuous
 62
     7
370
    18
100
AcDbLine
 10
10.4408457517
 20
6.1497792061
 30
0.0
 11
10.440138645
 21
6.149371002
 31
0.0
  0
LINE
  5
26A
330
1F
100
AcDbEntity
  8
0
  6
Continuous
 62
     7
370
    18
100
AcDbLine
 10
9.3900080184
 20
6.5841079527
 30
0.0
 11
9.2994983504
 21
6.6363750575
 31
0.0
  0
LINE
  5
26B
330
1F
100
AcDbEntity
  8
0
  6
Continuous
 62
     7
370
    18
100
AcDbLine
 10
10.7335109027
 20
5.8085202465
 30
0.0
 11
9.3900080184
 21
6.5841079527
 31
0.0
  0
LINE
  5
26C
330
1F
100
AcDbEntity
  8
0
  6
Continuous
 62
     7
370
    18
100
AcDbLine
 10
10.4046291929
 20
6.1706865805
 30
0.0
 11
10.4046291929
 21
6.2320841685
 31
0.0
  0
LINE
  5
26D
330
1F
100
AcDbEntity
  8
0
  6
Continuous
 62
     7
370
    18
100
AcDbLine
 10
10.4046291929
 20
6.2320841685
 30
0.0
 11
10.3853650658
 21
6.2432051123
 31
0.0
  0
LINE
  5
26E
330
1F
100
AcDbEntity
  8
0
  6
Continuous
 62
     7
370
    18
100
AcDbLine
 10
10.3853650658
 20
6.2432051123
 30
0.0
 11
10.3853650658
 21
6.2503970852
 31
0.0
  0
LINE
  5
26F
330
1F
100
AcDbEntity
  8
0
  6
Continuous
 62
     7
370
    18
100
AcDbLine
 10
10.4316624291
 20
6.2164782134
 30
0.0
 11
10.4131054088
 21
6.2271909532
 31
0.0
  0
LINE
  5
270
330
1F
100
AcDbEntity
  8
0
  6
Continuous
 62
     7
370
    18
100
AcDbLine
 10
10.412398302
 20
6.1662015693
 30
0.0
 11
10.4046291929
 21
6.1706865805
 31
0.0
  0
LINE
  5
271
330
1F
100
AcDbEntity
  8
0
  6
Continuous
 62
     7
370
    18
100
AcDbLine
 10
10.4131054088
 20
6.2271909532
 30
0.0
 11
10.412398302
 21
6.2267827491
 31
0.0
  0
LINE
  5
272
330
1F
100
AcDbEntity
  8
0
  6
Continuous
 62
     7
370
    18
100
AcDbLine
 10
10.3853650658
 20
6.2432051123
 30
0.0
 11
10.3846579591
 21
6.2427969082
 31
0.0
  0
LINE
  5
273
330
1F
100
AcDbEntity
  8
0
  6
Continuous
 62
     7
370
    18
100
AcDbLine
 10
10.4046291929
 20
6.2320841685
 30
0.0
 11
10.4039220861
 21
6.2316759644
 31
0.0
  0
LINE
  5
274
330
1F
100
AcDbEntity
  8
0
  6
Continuous
 62
     7
370
    18
100
AcDbLine
 10
10.4046291929
 20
6.1706865805
 30
0.0
 11
10.4039220861
 21
6.1702783764
 31
0.0
  0
LINE
  5
275
330
1F
100
AcDbEntity
  8
0
  6
Continuous
 62
     7
370
    18
100
AcDbLine
 10
10.3345077704
 20
6.211166816
 30
0.0
 11
10.3345077704
 21
6.2797563769
 31
0.0
  0
LINE
  5
276
330
1F
100
AcDbEntity
  8
0
  6
Continuous
 62
     7
370
    18
100
AcDbLine
 10
10.3761817432
 20
6.2485065316
 30
0.0
 11
10.3429839863
 21
6.2676711887
 31
0.0
  0
LINE
  5
277
330
1F
100
AcDbEntity
  8
0
  6
Continuous
 62
     7
370
    18
100
AcDbLine
 10
10.3738700479
 20
6.2204769811
 30
0.0
 11
10.3429839863
 21
6.2383071249
 31
0.0
  0
LINE
  5
278
330
1F
100
AcDbEntity
  8
0
  6
Continuous
 62
     7
370
    18
100
AcDbLine
 10
10.3777228733
 20
6.1862192682
 30
0.0
 11
10.3345077704
 21
6.211166816
 31
0.0
  0
LINE
  5
279
330
1F
100
AcDbEntity
  8
0
  6
Continuous
 62
     7
370
    18
100
AcDbLine
 10
10.3429839863
 20
6.2676711887
 30
0.0
 11
10.3422768795
 21
6.2672629847
 31
0.0
  0
LINE
  5
27A
330
1F
100
AcDbEntity
  8
0
  6
Continuous
 62
     7
370
    18
100
AcDbLine
 10
10.3429839863
 20
6.2383071249
 30
0.0
 11
10.3422768795
 21
6.2378989209
 31
0.0
  0
LINE
  5
27B
330
1F
100
AcDbEntity
  8
0
  6
Continuous
 62
     7
370
    18
100
AcDbLine
 10
10.3345077704
 20
6.211166816
 30
0.0
 11
10.3338006636
 21
6.210758612
 31
0.0
  0
LINE
  5
27C
330
1F
100
AcDbEntity
  8
0
  6
Continuous
 62
     7
370
    18
100
AcDbLine
 10
10.2636157829
 20
6.2520918893
 30
0.0
 11
10.2636157829
 21
6.3206814502
 31
0.0
  0
SPLINE
  5
27D
330
1F
100
AcDbEntity
  8
0
  6
Continuous
 62
     7
370
    18
100
AcDbSpline
210
0.0
220
0.0
230
1.0
 70
     8
 71
     3
 72
    15
 73
    11
 74
     0
 42
0.000000001
 43
0.00000001
 40
0.0
 40
0.0
 40
0.0
 40
0.0
 40
0.0892047702332424
 40
0.1898334556643487
 40
0.2992325919749821
 40
0.4192609378429105
 40
0.5492073901909384
 40
0.6890743636843474
 40
0.8395791979483168
 40
1.0
 40
1.0
 40
1.0
 40
1.0
 10
10.2925119734504
 20
6.245921473699236
 30
0.0
 10
10.29259587988949
 20
6.2462022131893
 30
0.0
 10
10.29277443815766
 20
6.246799644777329
 30
0.0
 10
10.29306390965374
 20
6.247733970035185
 30
0.0
 10
10.29337191556722
 20
6.248775022218949
 30
0.0
 10
10.29374050423511
 20
6.249877577121012
 30
0.0
 10
10.29412471429902
 20
6.251088223883851
 30
0.0
 10
10.2945279927643
 20
6.252403782993058
 30
0.0
 10
10.29499316662082
 20
6.253784072367971
 30
0.0
 10
10.29530229789623
 20
6.254747124012568
 30
0.0
 10
10.29546179290517
 20
6.255244006543949
 30
0.0
  0
LINE
  5
27E
330
1F
100
AcDbEntity
  8
0
  6
Continuous
 62
     7
370
    18
100
AcDbLine
 10
10.2954617929
 20
6.2552440065
 30
0.0
 11
10.3085391779
 21
6.2947477263
 31
0.0
  0
LINE
  5
27F
330
1F
100
AcDbEntity
  8
0
  6
Continuous
 62
     7
370
    18
100
AcDbLine
 10
10.3207010572
 20
6.2191372619
 30
0.0
 11
10.3129319481
 21
6.2236222731
 31
0.0
  0
LINE
  5
280
330
1F
100
AcDbEntity
  8
0
  6
Continuous
 62
     7
370
    18
100
AcDbLine
 10
10.3129319481
 20
6.2236222731
 30
0.0
 11
10.3129319481
 21
6.2823504007
 31
0.0
  0
LINE
  5
281
330
1F
100
AcDbEntity
  8
0
  6
Continuous
 62
     7
370
    18
100
AcDbLine
 10
10.296410399
 20
6.2331599604
 30
0.0
 11
10.2880330639
 21
6.237996093
 31
0.0
  0
LINE
  5
282
330
1F
100
AcDbEntity
  8
0
  6
Continuous
 62
     7
370
    18
100
AcDbLine
 10
10.2880330639
 20
6.237996093
 30
0.0
 11
10.2720919988
 21
6.3059268017
 31
0.0
  0
LINE
  5
283
330
1F
100
AcDbEntity
  8
0
  6
Continuous
 62
     7
370
    18
100
AcDbLine
 10
10.271384892
 20
6.2476068781
 30
0.0
 11
10.2636157829
 21
6.2520918893
 31
0.0
  0
LINE
  5
284
330
1F
100
AcDbEntity
  8
0
  6
Continuous
 62
     7
370
    18
100
AcDbLine
 10
10.2954617929
 20
6.2552440065
 30
0.0
 11
10.2947546861
 21
6.2548358025
 31
0.0
  0
LINE
  5
285
330
1F
100
AcDbEntity
  8
0
  6
Continuous
 62
     7
370
    18
100
AcDbLine
 10
10.3129319481
 20
6.2236222731
 30
0.0
 11
10.3122248413
 21
6.2232140691
 31
0.0
  0
LINE
  5
286
330
1F
100
AcDbEntity
  8
0
  6
Continuous
 62
     7
370
    18
100
AcDbLine
 10
10.3129319481
 20
6.2823504007
 30
0.0
 11
10.3122248413
 21
6.2819421967
 31
0.0
  0
LINE
  5
287
330
1F
100
AcDbEntity
  8
0
  6
Continuous
 62
     7
370
    18
100
AcDbLine
 10
10.2720919988
 20
6.3059268017
 30
0.0
 11
10.271384892
 21
6.3055185976
 31
0.0
  0
LINE
  5
288
330
1F
100
AcDbEntity
  8
0
  6
Continuous
 62
     7
370
    18
100
AcDbLine
 10
10.2880330639
 20
6.237996093
 30
0.0
 11
10.2873259571
 21
6.237587889
 31
0.0
  0
LINE
  5
289
330
1F
100
AcDbEntity
  8
0
  6
Continuous
 62
     7
370
    18
100
AcDbLine
 10
10.2636157829
 20
6.2520918893
 30
0.0
 11
10.2629086761
 21
6.2516836853
 31
0.0
  0
LINE
  5
28A
330
1F
100
AcDbEntity
  8
0
  6
Continuous
 62
     7
370
    18
100
AcDbLine
 10
10.2014528529
 20
6.287977785
 30
0.0
 11
10.2250355896
 21
6.3429533217
 31
0.0
  0
LINE
  5
28B
330
1F
100
AcDbEntity
  8
0
  6
Continuous
 62
     7
370
    18
100
AcDbLine
 10
10.2577517432
 20
6.2554771274
 30
0.0
 11
10.2497456114
 21
6.2600989689
 31
0.0
  0
LINE
  5
28C
330
1F
100
AcDbEntity
  8
0
  6
Continuous
 62
     7
370
    18
100
AcDbLine
 10
10.2497456114
 20
6.2600989689
 30
0.0
 11
10.2429068463
 21
6.2854025867
 31
0.0
  0
LINE
  5
28D
330
1F
100
AcDbEntity
  8
0
  6
Continuous
 62
     7
370
    18
100
AcDbLine
 10
10.2429068463
 20
6.2854025867
 30
0.0
 11
10.2172855573
 21
6.300193442
 31
0.0
  0
LINE
  5
28E
330
1F
100
AcDbEntity
  8
0
  6
Continuous
 62
     7
370
    18
100
AcDbLine
 10
10.2100011251
 20
6.2830429724
 30
0.0
 11
10.2014528529
 21
6.287977785
 31
0.0
  0
LINE
  5
28F
330
1F
100
AcDbEntity
  8
0
  6
Continuous
 62
     7
370
    18
100
AcDbLine
 10
10.2403543495
 20
6.2948844928
 30
0.0
 11
10.2345149109
 21
6.3164968413
 31
0.0
  0
SPLINE
  5
290
330
1F
100
AcDbEntity
  8
0
  6
Continuous
 62
     7
370
    18
100
AcDbSpline
210
0.0
220
0.0
230
1.0
 70
     8
 71
     3
 72
    15
 73
    11
 74
     0
 42
0.000000001
 43
0.00000001
 40
0.0
 40
0.0
 40
0.0
 40
0.0
 40
0.1531481085926319
 40
0.2994334688329077
 40
0.4364263514567485
 40
0.565670572956358
 40
0.6865083102878743
 40
0.7992685160630044
 40
0.9033947408013443
 40
1.0
 40
1.0
 40
1.0
 40
1.0
 10
10.2345149109458
 20
6.316496841285789
 30
0.0
 10
10.2342910477217
 20
6.317330894225316
 30
0.0
 10
10.23385335285004
 20
6.318961625203112
 30
0.0
 10
10.23320061793027
 20
6.321340638789958
 30
0.0
 10
10.23260428982597
 20
6.323586260828166
 30
0.0
 10
10.23201954115052
 20
6.325697106707029
 30
0.0
 10
10.23149167807663
 20
6.327672780370046
 30
0.0
 10
10.23100513315118
 20
6.329510982241335
 30
0.0
 10
10.23052394432525
 20
6.331221648612427
 30
0.0
 10
10.23023517614188
 20
6.332314140333433
 30
0.0
 10
10.23009620180335
 20
6.332839919567513
 30
0.0
  0
LINE
  5
291
330
1F
100
AcDbEntity
  8
0
  6
Continuous
 62
     7
370
    18
100
AcDbLine
 10
10.2925119735
 20
6.2459214737
 30
0.0
 11
10.2918048667
 21
6.2455132696
 31
0.0
  0
SPLINE
  5
292
330
1F
100
AcDbEntity
  8
0
  6
Continuous
 62
     7
370
    18
100
AcDbSpline
210
0.0
220
0.0
230
1.0
 70
     8
 71
     3
 72
    15
 73
    11
 74
     0
 42
0.000000001
 43
0.00000001
 40
0.0
 40
0.0
 40
0.0
 40
0.0
 40
0.1531481085926319
 40
0.2994334688329077
 40
0.4364263514567485
 40
0.565670572956358
 40
0.6865083102878743
 40
0.7992685160630044
 40
0.9033947408013443
 40
1.0
 40
1.0
 40
1.0
 40
1.0
 10
10.23380780416462
 20
6.316088637229878
 30
0.0
 10
10.23358394094052
 20
6.316922690169406
 30
0.0
 10
10.23314624606885
 20
6.318553421147202
 30
0.0
 10
10.23249351114908
 20
6.320932434734046
 30
0.0
 10
10.23189718304478
 20
6.323178056772254
 30
0.0
 10
10.23131243436934
 20
6.325288902651117
 30
0.0
 10
10.23078457129544
 20
6.327264576314135
 30
0.0
 10
10.23029802637
 20
6.329102778185423
 30
0.0
 10
10.22981683754406
 20
6.330813444556517
 30
0.0
 10
10.2295280693607
 20
6.331905936277522
 30
0.0
 10
10.22938909502217
 20
6.332431715511601
 30
0.0
  0
LINE
  5
293
330
1F
100
AcDbEntity
  8
0
  6
Continuous
 62
     7
370
    18
100
AcDbLine
 10
10.2396472427
 20
6.2944762888
 30
0.0
 11
10.2338078042
 21
6.3160886372
 31
0.0
  0
LINE
  5
294
330
1F
100
AcDbEntity
  8
0
  6
Continuous
 62
     7
370
    18
100
AcDbLine
 10
10.2191309474
 20
6.3063200939
 30
0.0
 11
10.2396472427
 21
6.2944762888
 31
0.0
  0
LINE
  5
295
330
1F
100
AcDbEntity
  8
0
  6
Continuous
 62
     7
370
    18
100
AcDbLine
 10
10.2252834279
 20
6.3219828956
 30
0.0
 11
10.2191309474
 21
6.3063200939
 31
0.0
  0
SPLINE
  5
296
330
1F
100
AcDbEntity
  8
0
  6
Continuous
 62
     7
370
    18
100
AcDbSpline
210
0.0
220
0.0
230
1.0
 70
     8
 71
     3
 72
    11
 73
     7
 74
     0
 42
0.000000001
 43
0.00000001
 40
0.0
 40
0.0
 40
0.0
 40
0.0
 40
0.2472885692344848
 40
0.4965585959218943
 40
0.7463647942382589
 40
1.0
 40
1.0
 40
1.0
 40
1.0
 10
10.22938909502217
 20
6.332431715511601
 30
0.0
 10
10.22915864006
 20
6.331466292594175
 30
0.0
 10
10.22869588356142
 20
6.329527711082576
 30
0.0
 10
10.22773923669951
 20
6.326850500993588
 30
0.0
 10
10.22662693737239
 20
6.324299919158174
 30
0.0
 10
10.22573352940802
 20
6.322759143013522
 30
0.0
 10
10.2252834279443
 20
6.321982895626405
 30
0.0
  0
LINE
  5
297
330
1F
100
AcDbEntity
  8
0
  6
Continuous
 62
     7
370
    18
100
AcDbLine
 10
10.2300962018
 20
6.3328399196
 30
0.0
 11
10.229389095
 21
6.3324317155
 31
0.0
  0
LINE
  5
298
330
1F
100
AcDbEntity
  8
0
  6
Continuous
 62
     7
370
    18
100
AcDbLine
 10
10.2345149109
 20
6.3164968413
 30
0.0
 11
10.2338078042
 21
6.3160886372
 31
0.0
  0
LINE
  5
299
330
1F
100
AcDbEntity
  8
0
  6
Continuous
 62
     7
370
    18
100
AcDbLine
 10
10.2014528529
 20
6.287977785
 30
0.0
 11
10.2007457461
 21
6.2875695809
 31
0.0
  0
LINE
  5
29A
330
1F
100
AcDbEntity
  8
0
  6
Continuous
 62
     7
370
    18
100
AcDbLine
 10
10.2403543495
 20
6.2948844928
 30
0.0
 11
10.2396472427
 21
6.2944762888
 31
0.0
  0
LINE
  5
29B
330
1F
100
AcDbEntity
  8
0
  6
Continuous
 62
     7
370
    18
100
AcDbLine
 10
10.2429068463
 20
6.2854025867
 30
0.0
 11
10.2421997395
 21
6.2849943827
 31
0.0
  0
LINE
  5
29C
330
1F
100
AcDbEntity
  8
0
  6
Continuous
 62
     7
370
    18
100
AcDbLine
 10
10.2497456114
 20
6.2600989689
 30
0.0
 11
10.2490385046
 21
6.2596907648
 31
0.0
  0
LINE
  5
29D
330
1F
100
AcDbEntity
  8
0
  6
Continuous
 62
     7
370
    18
100
AcDbLine
 10
10.2172855573
 20
6.300193442
 30
0.0
 11
10.2165784505
 21
6.299785238
 31
0.0
  0
LINE
  5
29E
330
1F
100
AcDbEntity
  8
0
  6
Continuous
 62
     7
370
    18
100
AcDbLine
 10
10.1873298397
 20
6.2961308269
 30
0.0
 11
10.1873298397
 21
6.3647203878
 31
0.0
  0
LINE
  5
29F
330
1F
100
AcDbEntity
  8
0
  6
Continuous
 62
     7
370
    18
100
AcDbLine
 10
10.1950989489
 20
6.2916458157
 30
0.0
 11
10.1873298397
 21
6.2961308269
 31
0.0
  0
LINE
  5
2A0
330
1F
100
AcDbEntity
  8
0
  6
Continuous
 62
     7
370
    18
100
AcDbLine
 10
10.1873298397
 20
6.2961308269
 30
0.0
 11
10.186622733
 21
6.2957226228
 31
0.0
  0
LINE
  5
2A1
330
1F
100
AcDbEntity
  8
0
  6
Continuous
 62
     7
370
    18
100
AcDbLine
 10
10.1264551983
 20
6.3312730094
 30
0.0
 11
10.1264551983
 21
6.3998625703
 31
0.0
  0
SPLINE
  5
2A2
330
1F
100
AcDbEntity
  8
0
  6
Continuous
 62
     7
370
    18
100
AcDbSpline
210
0.0
220
0.0
230
1.0
 70
     8
 71
     3
 72
    11
 73
     7
 74
     0
 42
0.000000001
 43
0.00000001
 40
0.0
 40
0.0
 40
0.0
 40
0.0
 40
0.014746259551041
 40
0.3423365009043732
 40
0.6709402737444722
 40
1.0
 40
1.0
 40
1.0
 40
1.0
 10
10.16741851516918
 20
6.31500236976992
 30
0.0
 10
10.1673594307149
 20
6.314938717970145
 30
0.0
 10
10.16598777675315
 20
6.3134610324367
 30
0.0
 10
10.16151554233463
 20
6.313435265909599
 30
0.0
 10
10.1549242500868
 20
6.315087308956455
 30
0.0
 10
10.15029772603838
 20
6.317592093919742
 30
0.0
 10
10.14798286024609
 20
6.318845354676163
 30
0.0
  0
LINE
  5
2A3
330
1F
100
AcDbEntity
  8
0
  6
Continuous
 62
     7
370
    18
100
AcDbLine
 10
10.1479828602
 20
6.3188453547
 30
0.0
 11
10.1264551983
 21
6.3312730094
 31
0.0
  0
SPLINE
  5
2A4
330
1F
100
AcDbEntity
  8
0
  6
Continuous
 62
     7
370
    18
100
AcDbSpline
210
0.0
220
0.0
230
1.0
 70
     8
 71
     3
 72
    15
 73
    11
 74
     0
 42
0.000000001
 43
0.00000001
 40
0.0
 40
0.0
 40
0.0
 40
0.0
 40
0.0977695964822331
 40
0.2008523784955812
 40
0.3104302888087521
 40
0.4285493214350529
 40
0.5551842864614315
 40
0.6918447589416411
 40
0.8400944459418304
 40
1.0
 40
1.0
 40
1.0
 40
1.0
 10
10.16151590949981
 20
6.323949186749237
 30
0.0
 10
10.16195926216677
 20
6.324278737151386
 30
0.0
 10
10.16287006103344
 20
6.324955747024469
 30
0.0
 10
10.16400530562958
 20
6.326401169437409
 30
0.0
 10
10.16499288662076
 20
6.328202147226775
 30
0.0
 10
10.1658351370123
 20
6.33036258634278
 30
0.0
 10
10.1664955567105
 20
6.332919030854152
 30
0.0
 10
10.16695208766229
 20
6.335885367264945
 30
0.0
 10
10.16724624985118
 20
6.339236697953113
 30
0.0
 10
10.16727844246897
 20
6.341666874902119
 30
0.0
 10
10.16729514761528
 20
6.342927923684399
 30
0.0
  0
SPLINE
  5
2A5
330
1F
100
AcDbEntity
  8
0
  6
Continuous
 62
     7
370
    18
100
AcDbSpline
210
0.0
220
0.0
230
1.0
 70
     8
 71
     3
 72
    23
 73
    19
 74
     0
 42
0.000000001
 43
0.00000001
 40
0.0
 40
0.0
 40
0.0
 40
0.0
 40
0.0912609520412069
 40
0.1774380523622645
 40
0.2586781753433991
 40
0.3347782543759362
 40
0.4064987035437802
 40
0.4737257195372778
 40
0.5371521470015597
 40
0.5974031390993008
 40
0.6545219121410192
 40
0.7092765662779078
 40
0.7615100947779048
 40
0.8118413153607345
 40
0.8605996190280615
 40
0.9078026946136556
 40
0.9542577632202354
 40
1.0
 40
1.0
 40
1.0
 40
1.0
 10
10.16729514761528
 20
6.342927923684399
 30
0.0
 10
10.16728681093353
 20
6.343818243969827
 30
0.0
 10
10.16727060197955
 20
6.345549287684489
 30
0.0
 10
10.16711938878817
 20
6.348141219451933
 30
0.0
 10
10.16690020200999
 20
6.350617590989997
 30
0.0
 10
10.16657481644435
 20
6.352997137024865
 30
0.0
 10
10.16615992642696
 20
6.355269115191675
 30
0.0
 10
10.16563830310417
 20
6.357440771668168
 30
0.0
 10
10.16504154706241
 20
6.35950651968764
 30
0.0
 10
10.16434249959849
 20
6.36147088298193
 30
0.0
 10
10.1635591080083
 20
6.363328358838523
 30
0.0
 10
10.16275759206397
 20
6.365087229251356
 30
0.0
 10
10.16191444199517
 20
6.366751921165704
 30
0.0
 10
10.16101756197298
 20
6.368312275182926
 30
0.0
 10
10.16009296827755
 20
6.369783394203169
 30
0.0
 10
10.15912366550635
 20
6.37115607711636
 30
0.0
 10
10.15811230469447
 20
6.372428497944593
 30
0.0
 10
10.15740163004281
 20
6.373196207325072
 30
0.0
 10
10.15704904003973
 20
6.373577094207968
 30
0.0
  0
SPLINE
  5
2A6
330
1F
100
AcDbEntity
  8
0
  6
Continuous
 62
     7
370
    18
100
AcDbSpline
210
0.0
220
0.0
230
1.0
 70
     8
 71
     3
 72
    15
 73
    11
 74
     0
 42
0.000000001
 43
0.00000001
 40
0.0
 40
0.0
 40
0.0
 40
0.0
 40
0.0874250109285979
 40
0.1852478649797585
 40
0.2927383539894224
 40
0.4112061016770258
 40
0.541245594232324
 40
0.682780938524952
 40
0.8360339502048014
 40
1.0
 40
1.0
 40
1.0
 40
1.0
 10
10.15704904003973
 20
6.373577094207968
 30
0.0
 10
10.15677354008683
 20
6.373852561393366
 30
0.0
 10
10.15618977375342
 20
6.374436258294574
 30
0.0
 10
10.15523701048904
 20
6.3752654993303
 30
0.0
 10
10.15417371704781
 20
6.376136287620795
 30
0.0
 10
10.15298941292096
 20
6.377000325697236
 30
0.0
 10
10.15169008769467
 20
6.37792569445873
 30
0.0
 10
10.150267664804
 20
6.378853358327208
 30
0.0
 10
10.14872960424276
 20
6.379789532319008
 30
0.0
 10
10.14766582630897
 20
6.380418355370623
 30
0.0
 10
10.14711597452877
 20
6.380743385119193
 30
0.0
  0
LINE
  5
2A7
330
1F
100
AcDbEntity
  8
0
  6
Continuous
 62
     7
370
    18
100
AcDbLine
 10
10.1471159745
 20
6.3807433851
 30
0.0
 11
10.1349314142
 21
6.3877773821
 31
0.0
  0
SPLINE
  5
2A8
330
1F
100
AcDbEntity
  8
0
  6
Continuous
 62
     7
370
    18
100
AcDbSpline
210
0.0
220
0.0
230
1.0
 70
     8
 71
     3
 72
    15
 73
    11
 74
     0
 42
0.000000001
 43
0.00000001
 40
0.0
 40
0.0
 40
0.0
 40
0.0
 40
0.0874250109285979
 40
0.1852478649797585
 40
0.2927383539894224
 40
0.4112061016770258
 40
0.541245594232324
 40
0.682780938524952
 40
0.8360339502048014
 40
1.0
 40
1.0
 40
1.0
 40
1.0
 10
10.15634193325854
 20
6.373168890152056
 30
0.0
 10
10.15606643330564
 20
6.373444357337455
 30
0.0
 10
10.15548266697224
 20
6.374028054238663
 30
0.0
 10
10.15452990370785
 20
6.374857295274388
 30
0.0
 10
10.15346661026662
 20
6.375728083564884
 30
0.0
 10
10.15228230613978
 20
6.376592121641325
 30
0.0
 10
10.15098298091349
 20
6.377517490402819
 30
0.0
 10
10.14956055802281
 20
6.378445154271296
 30
0.0
 10
10.14802249746158
 20
6.379381328263096
 30
0.0
 10
10.14695871952778
 20
6.380010151314711
 30
0.0
 10
10.14640886774758
 20
6.380335181063282
 30
0.0
  0
SPLINE
  5
2A9
330
1F
100
AcDbEntity
  8
0
  6
Continuous
 62
     7
370
    18
100
AcDbSpline
210
0.0
220
0.0
230
1.0
 70
     8
 71
     3
 72
    23
 73
    19
 74
     0
 42
0.000000001
 43
0.00000001
 40
0.0
 40
0.0
 40
0.0
 40
0.0
 40
0.0912609520412069
 40
0.1774380523622645
 40
0.2586781753433991
 40
0.3347782543759362
 40
0.4064987035437802
 40
0.4737257195372778
 40
0.5371521470015597
 40
0.5974031390993008
 40
0.6545219121410192
 40
0.7092765662779078
 40
0.7615100947779048
 40
0.8118413153607345
 40
0.8605996190280615
 40
0.9078026946136556
 40
0.9542577632202354
 40
1.0
 40
1.0
 40
1.0
 40
1.0
 10
10.16658804083409
 20
6.342519719628488
 30
0.0
 10
10.16657970415235
 20
6.343410039913916
 30
0.0
 10
10.16656349519836
 20
6.345141083628577
 30
0.0
 10
10.16641228200699
 20
6.347733015396021
 30
0.0
 10
10.16619309522881
 20
6.350209386934086
 30
0.0
 10
10.16586770966316
 20
6.352588932968954
 30
0.0
 10
10.16545281964578
 20
6.354860911135763
 30
0.0
 10
10.16493119632298
 20
6.357032567612256
 30
0.0
 10
10.16433444028123
 20
6.359098315631729
 30
0.0
 10
10.1636353928173
 20
6.36106267892602
 30
0.0
 10
10.16285200122711
 20
6.362920154782612
 30
0.0
 10
10.16205048528278
 20
6.364679025195444
 30
0.0
 10
10.16120733521398
 20
6.366343717109793
 30
0.0
 10
10.1603104551918
 20
6.367904071127015
 30
0.0
 10
10.15938586149636
 20
6.369375190147257
 30
0.0
 10
10.15841655872516
 20
6.370747873060448
 30
0.0
 10
10.15740519791328
 20
6.372020293888682
 30
0.0
 10
10.15669452326162
 20
6.372788003269161
 30
0.0
 10
10.15634193325854
 20
6.373168890152056
 30
0.0
  0
SPLINE
  5
2AA
330
1F
100
AcDbEntity
  8
0
  6
Continuous
 62
     7
370
    18
100
AcDbSpline
210
0.0
220
0.0
230
1.0
 70
     8
 71
     3
 72
    15
 73
    11
 74
     0
 42
0.000000001
 43
0.00000001
 40
0.0
 40
0.0
 40
0.0
 40
0.0
 40
0.0977695964822331
 40
0.2008523784955812
 40
0.3104302888087521
 40
0.4285493214350529
 40
0.5551842864614315
 40
0.6918447589416411
 40
0.8400944459418304
 40
1.0
 40
1.0
 40
1.0
 40
1.0
 10
10.16080880271862
 20
6.323540982693325
 30
0.0
 10
10.16125215538558
 20
6.323870533095476
 30
0.0
 10
10.16216295425226
 20
6.324547542968558
 30
0.0
 10
10.1632981988484
 20
6.325992965381497
 30
0.0
 10
10.16428577983957
 20
6.327793943170863
 30
0.0
 10
10.16512803023111
 20
6.329954382286868
 30
0.0
 10
10.16578844992931
 20
6.332510826798241
 30
0.0
 10
10.16624498088111
 20
6.335477163209034
 30
0.0
 10
10.16653914306999
 20
6.338828493897201
 30
0.0
 10
10.16657133568779
 20
6.341258670846207
 30
0.0
 10
10.16658804083409
 20
6.342519719628488
 30
0.0
  0
SPLINE
  5
2AB
330
1F
100
AcDbEntity
  8
0
  6
Continuous
 62
     7
370
    18
100
AcDbSpline
210
0.0
220
0.0
230
1.0
 70
     8
 71
     3
 72
    15
 73
    11
 74
     0
 42
0.000000001
 43
0.00000001
 40
0.0
 40
0.0
 40
0.0
 40
0.0
 40
0.1779933312737979
 40
0.3367237259982473
 40
0.4762209971933655
 40
0.5976674382561524
 40
0.7073637327202694
 40
0.8092389540542927
 40
0.9070683407136616
 40
1.0
 40
1.0
 40
1.0
 40
1.0
 10
10.14661354909751
 20
6.326827814104087
 30
0.0
 10
10.14751698457859
 20
6.32632170594771
 30
0.0
 10
10.1492260832241
 20
6.325364262076335
 30
0.0
 10
10.1516367019746
 20
6.32420180862916
 30
0.0
 10
10.15374381110559
 20
6.3233697872564
 30
0.0
 10
10.15556057184199
 20
6.322900327608211
 30
0.0
 10
10.15713718883476
 20
6.322704491784942
 30
0.0
 10
10.15852824158271
 20
6.322747214871211
 30
0.0
 10
10.15976957197001
 20
6.3229861589939
 30
0.0
 10
10.16046837296464
 20
6.323359234322472
 30
0.0
 10
10.16080880271862
 20
6.323540982693325
 30
0.0
  0
LINE
  5
2AC
330
1F
100
AcDbEntity
  8
0
  6
Continuous
 62
     7
370
    18
100
AcDbLine
 10
10.1342243074
 20
6.3339799711
 30
0.0
 11
10.1466135491
 21
6.3268278141
 31
0.0
  0
LINE
  5
2AD
330
1F
100
AcDbEntity
  8
0
  6
Continuous
 62
     7
370
    18
100
AcDbLine
 10
10.1342243074
 20
6.387369178
 30
0.0
 11
10.1342243074
 21
6.3339799711
 31
0.0
  0
LINE
  5
2AE
330
1F
100
AcDbEntity
  8
0
  6
Continuous
 62
     7
370
    18
100
AcDbLine
 10
10.1464088677
 20
6.3803351811
 30
0.0
 11
10.1342243074
 21
6.387369178
 31
0.0
  0
LINE
  5
2AF
330
1F
100
AcDbEntity
  8
0
  6
Continuous
 62
     7
370
    18
100
AcDbLine
 10
10.15704904
 20
6.3735770942
 30
0.0
 11
10.1563419333
 21
6.3731688902
 31
0.0
  0
LINE
  5
2B0
330
1F
100
AcDbEntity
  8
0
  6
Continuous
 62
     7
370
    18
100
AcDbLine
 10
10.1672951476
 20
6.3429279237
 30
0.0
 11
10.1665880408
 21
6.3425197196
 31
0.0
  0
LINE
  5
2B1
330
1F
100
AcDbEntity
  8
0
  6
Continuous
 62
     7
370
    18
100
AcDbLine
 10
10.1471159745
 20
6.3807433851
 30
0.0
 11
10.1464088677
 21
6.3803351811
 31
0.0
  0
LINE
  5
2B2
330
1F
100
AcDbEntity
  8
0
  6
Continuous
 62
     7
370
    18
100
AcDbLine
 10
10.1479828602
 20
6.3188453547
 30
0.0
 11
10.1472757535
 21
6.3184371506
 31
0.0
  0
LINE
  5
2B3
330
1F
100
AcDbEntity
  8
0
  6
Continuous
 62
     7
370
    18
100
AcDbLine
 10
10.1349314142
 20
6.3877773821
 30
0.0
 11
10.1342243074
 21
6.387369178
 31
0.0
  0
LINE
  5
2B4
330
1F
100
AcDbEntity
  8
0
  6
Continuous
 62
     7
370
    18
100
AcDbLine
 10
10.1615159095
 20
6.3239491867
 30
0.0
 11
10.1608088027
 21
6.3235409827
 31
0.0
  0
LINE
  5
2B5
330
1F
100
AcDbEntity
  8
0
  6
Continuous
 62
     7
370
    18
100
AcDbLine
 10
10.1264551983
 20
6.3312730094
 30
0.0
 11
10.1257480915
 21
6.3308648054
 31
0.0
  0
LINE
  5
2B6
330
1F
100
AcDbEntity
  8
0
  6
Continuous
 62
     7
370
    18
100
AcDbLine
 10
10.0324462583
 20
6.3855432153
 30
0.0
 11
10.0324462583
 21
6.4541327762
 31
0.0
  0
SPLINE
  5
2B7
330
1F
100
AcDbEntity
  8
0
  6
Continuous
 62
     7
370
    18
100
AcDbSpline
210
0.0
220
0.0
230
1.0
 70
     8
 71
     3
 72
    15
 73
    11
 74
     0
 42
0.000000001
 43
0.00000001
 40
0.0
 40
0.0
 40
0.0
 40
0.0
 40
0.0892047702332417
 40
0.1898334556643487
 40
0.2992325919749821
 40
0.4192609378429098
 40
0.5492073901909378
 40
0.689074363684346
 40
0.8395791979483163
 40
1.0
 40
1.0
 40
1.0
 40
1.0
 10
10.06134244883172
 20
6.379372799670257
 30
0.0
 10
10.06142635527081
 20
6.379653539160321
 30
0.0
 10
10.06160491353898
 20
6.38025097074835
 30
0.0
 10
10.06189438503506
 20
6.381185296006206
 30
0.0
 10
10.06220239094855
 20
6.382226348189969
 30
0.0
 10
10.06257097961644
 20
6.383328903092032
 30
0.0
 10
10.06295518968034
 20
6.384539549854871
 30
0.0
 10
10.06335846814563
 20
6.385855108964079
 30
0.0
 10
10.06382364200214
 20
6.387235398338991
 30
0.0
 10
10.06413277327755
 20
6.388198449983589
 30
0.0
 10
10.06429226828649
 20
6.38869533251497
 30
0.0
  0
LINE
  5
2B8
330
1F
100
AcDbEntity
  8
0
  6
Continuous
 62
     7
370
    18
100
AcDbLine
 10
10.0642922683
 20
6.3886953325
 30
0.0
 11
10.0773696533
 21
6.4281990522
 31
0.0
  0
LINE
  5
2B9
330
1F
100
AcDbEntity
  8
0
  6
Continuous
 62
     7
370
    18
100
AcDbLine
 10
10.0895315326
 20
6.3525885879
 30
0.0
 11
10.0817624235
 21
6.3570735991
 31
0.0
  0
LINE
  5
2BA
330
1F
100
AcDbEntity
  8
0
  6
Continuous
 62
     7
370
    18
100
AcDbLine
 10
10.0817624235
 20
6.3570735991
 30
0.0
 11
10.0817624235
 21
6.4158017267
 31
0.0
  0
LINE
  5
2BB
330
1F
100
AcDbEntity
  8
0
  6
Continuous
 62
     7
370
    18
100
AcDbLine
 10
10.0652408744
 20
6.3666112864
 30
0.0
 11
10.0568635393
 21
6.371447419
 31
0.0
  0
LINE
  5
2BC
330
1F
100
AcDbEntity
  8
0
  6
Continuous
 62
     7
370
    18
100
AcDbLine
 10
10.0568635393
 20
6.371447419
 30
0.0
 11
10.0409224742
 21
6.4393781276
 31
0.0
  0
LINE
  5
2BD
330
1F
100
AcDbEntity
  8
0
  6
Continuous
 62
     7
370
    18
100
AcDbLine
 10
10.0402153674
 20
6.3810582041
 30
0.0
 11
10.0324462583
 21
6.3855432153
 31
0.0
  0
LINE
  5
2BE
330
1F
100
AcDbEntity
  8
0
  6
Continuous
 62
     7
370
    18
100
AcDbLine
 10
10.0642922683
 20
6.3886953325
 30
0.0
 11
10.0635851615
 21
6.3882871285
 31
0.0
  0
LINE
  5
2BF
330
1F
100
AcDbEntity
  8
0
  6
Continuous
 62
     7
370
    18
100
AcDbLine
 10
10.0817624235
 20
6.4158017267
 30
0.0
 11
10.0810553167
 21
6.4153935227
 31
0.0
  0
LINE
  5
2C0
330
1F
100
AcDbEntity
  8
0
  6
Continuous
 62
     7
370
    18
100
AcDbLine
 10
10.0817624235
 20
6.3570735991
 30
0.0
 11
10.0810553167
 21
6.356665395
 31
0.0
  0
LINE
  5
2C1
330
1F
100
AcDbEntity
  8
0
  6
Continuous
 62
     7
370
    18
100
AcDbLine
 10
10.0409224742
 20
6.4393781276
 30
0.0
 11
10.0402153674
 21
6.4389699236
 31
0.0
  0
LINE
  5
2C2
330
1F
100
AcDbEntity
  8
0
  6
Continuous
 62
     7
370
    18
100
AcDbLine
 10
10.0568635393
 20
6.371447419
 30
0.0
 11
10.0561564325
 21
6.3710392149
 31
0.0
  0
LINE
  5
2C3
330
1F
100
AcDbEntity
  8
0
  6
Continuous
 62
     7
370
    18
100
AcDbLine
 10
10.0324462583
 20
6.3855432153
 30
0.0
 11
10.0317391515
 21
6.3851350112
 31
0.0
  0
LINE
  5
2C4
330
1F
100
AcDbEntity
  8
0
  6
Continuous
 62
     7
370
    18
100
AcDbLine
 10
9.9702833283
 20
6.4214291109
 30
0.0
 11
9.993866065
 21
6.4764046477
 31
0.0
  0
LINE
  5
2C5
330
1F
100
AcDbEntity
  8
0
  6
Continuous
 62
     7
370
    18
100
AcDbLine
 10
10.0265822186
 20
6.3889284533
 30
0.0
 11
10.0185760868
 21
6.3935502949
 31
0.0
  0
LINE
  5
2C6
330
1F
100
AcDbEntity
  8
0
  6
Continuous
 62
     7
370
    18
100
AcDbLine
 10
10.0185760868
 20
6.3935502949
 30
0.0
 11
10.0117373217
 21
6.4188539127
 31
0.0
  0
LINE
  5
2C7
330
1F
100
AcDbEntity
  8
0
  6
Continuous
 62
     7
370
    18
100
AcDbLine
 10
10.0117373217
 20
6.4188539127
 30
0.0
 11
9.9861160327
 21
6.433644768
 31
0.0
  0
LINE
  5
2C8
330
1F
100
AcDbEntity
  8
0
  6
Continuous
 62
     7
370
    18
100
AcDbLine
 10
9.9788316005
 20
6.4164942984
 30
0.0
 11
9.9702833283
 21
6.4214291109
 31
0.0
  0
LINE
  5
2C9
330
1F
100
AcDbEntity
  8
0
  6
Continuous
 62
     7
370
    18
100
AcDbLine
 10
10.0091848248
 20
6.4283358188
 30
0.0
 11
10.0033453863
 21
6.4499481673
 31
0.0
  0
SPLINE
  5
2CA
330
1F
100
AcDbEntity
  8
0
  6
Continuous
 62
     7
370
    18
100
AcDbSpline
210
0.0
220
0.0
230
1.0
 70
     8
 71
     3
 72
    15
 73
    11
 74
     0
 42
0.000000001
 43
0.00000001
 40
0.0
 40
0.0
 40
0.0
 40
0.0
 40
0.1531481085926328
 40
0.2994334688329074
 40
0.436426351456749
 40
0.5656705729563586
 40
0.6865083102878738
 40
0.7992685160630044
 40
0.9033947408013441
 40
1.0
 40
1.0
 40
1.0
 40
1.0
 10
10.00334538632712
 20
6.449948167256811
 30
0.0
 10
10.00312152310303
 20
6.450782220196338
 30
0.0
 10
10.00268382823136
 20
6.452412951174134
 30
0.0
 10
10.00203109331159
 20
6.454791964760979
 30
0.0
 10
10.00143476520729
 20
6.457037586799187
 30
0.0
 10
10.00085001653184
 20
6.45914843267805
 30
0.0
 10
10.00032215345795
 20
6.461124106341066
 30
0.0
 10
9.999835608532505
 20
6.462962308212355
 30
0.0
 10
9.999354419706567
 20
6.464672974583449
 30
0.0
 10
9.999065651523203
 20
6.465765466304454
 30
0.0
 10
9.998926677184674
 20
6.466291245538533
 30
0.0
  0
LINE
  5
2CB
330
1F
100
AcDbEntity
  8
0
  6
Continuous
 62
     7
370
    18
100
AcDbLine
 10
10.0613424488
 20
6.3793727997
 30
0.0
 11
10.0606353421
 21
6.3789645956
 31
0.0
  0
SPLINE
  5
2CC
330
1F
100
AcDbEntity
  8
0
  6
Continuous
 62
     7
370
    18
100
AcDbSpline
210
0.0
220
0.0
230
1.0
 70
     8
 71
     3
 72
    15
 73
    11
 74
     0
 42
0.000000001
 43
0.00000001
 40
0.0
 40
0.0
 40
0.0
 40
0.0
 40
0.1531481085926328
 40
0.2994334688329074
 40
0.436426351456749
 40
0.5656705729563586
 40
0.6865083102878738
 40
0.7992685160630044
 40
0.9033947408013441
 40
1.0
 40
1.0
 40
1.0
 40
1.0
 10
10.00263827954594
 20
6.449539963200899
 30
0.0
 10
10.00241441632184
 20
6.450374016140427
 30
0.0
 10
10.00197672145017
 20
6.452004747118222
 30
0.0
 10
10.0013239865304
 20
6.454383760705067
 30
0.0
 10
10.00072765842611
 20
6.456629382743275
 30
0.0
 10
10.00014290975066
 20
6.458740228622139
 30
0.0
 10
9.999615046676762
 20
6.460715902285155
 30
0.0
 10
9.999128501751319
 20
6.462554104156445
 30
0.0
 10
9.99864731292538
 20
6.464264770527538
 30
0.0
 10
9.998358544742016
 20
6.465357262248543
 30
0.0
 10
9.998219570403489
 20
6.465883041482622
 30
0.0
  0
LINE
  5
2CD
330
1F
100
AcDbEntity
  8
0
  6
Continuous
 62
     7
370
    18
100
AcDbLine
 10
10.0084777181
 20
6.4279276147
 30
0.0
 11
10.0026382795
 21
6.4495399632
 31
0.0
  0
LINE
  5
2CE
330
1F
100
AcDbEntity
  8
0
  6
Continuous
 62
     7
370
    18
100
AcDbLine
 10
9.9879614227
 20
6.4397714199
 30
0.0
 11
10.0084777181
 21
6.4279276147
 31
0.0
  0
LINE
  5
2CF
330
1F
100
AcDbEntity
  8
0
  6
Continuous
 62
     7
370
    18
100
AcDbLine
 10
9.9941139033
 20
6.4554342216
 30
0.0
 11
9.9879614227
 21
6.4397714199
 31
0.0
  0
SPLINE
  5
2D0
330
1F
100
AcDbEntity
  8
0
  6
Continuous
 62
     7
370
    18
100
AcDbSpline
210
0.0
220
0.0
230
1.0
 70
     8
 71
     3
 72
    11
 73
     7
 74
     0
 42
0.000000001
 43
0.00000001
 40
0.0
 40
0.0
 40
0.0
 40
0.0
 40
0.2472885692344847
 40
0.4965585959218939
 40
0.7463647942382585
 40
1.0
 40
1.0
 40
1.0
 40
1.0
 10
9.998219570403489
 20
6.465883041482622
 30
0.0
 10
9.99798911544132
 20
6.464917618565196
 30
0.0
 10
9.99752635894274
 20
6.462979037053597
 30
0.0
 10
9.996569712080838
 20
6.460301826964608
 30
0.0
 10
9.995457412753716
 20
6.457751245129194
 30
0.0
 10
9.994564004789344
 20
6.456210468984543
 30
0.0
 10
9.994113903325625
 20
6.455434221597427
 30
0.0
  0
LINE
  5
2D1
330
1F
100
AcDbEntity
  8
0
  6
Continuous
 62
     7
370
    18
100
AcDbLine
 10
9.9989266772
 20
6.4662912455
 30
0.0
 11
9.9982195704
 21
6.4658830415
 31
0.0
  0
LINE
  5
2D2
330
1F
100
AcDbEntity
  8
0
  6
Continuous
 62
     7
370
    18
100
AcDbLine
 10
10.0033453863
 20
6.4499481673
 30
0.0
 11
10.0026382795
 21
6.4495399632
 31
0.0
  0
LINE
  5
2D3
330
1F
100
AcDbEntity
  8
0
  6
Continuous
 62
     7
370
    18
100
AcDbLine
 10
9.9702833283
 20
6.4214291109
 30
0.0
 11
9.9695762215
 21
6.4210209069
 31
0.0
  0
LINE
  5
2D4
330
1F
100
AcDbEntity
  8
0
  6
Continuous
 62
     7
370
    18
100
AcDbLine
 10
10.0091848248
 20
6.4283358188
 30
0.0
 11
10.0084777181
 21
6.4279276147
 31
0.0
  0
LINE
  5
2D5
330
1F
100
AcDbEntity
  8
0
  6
Continuous
 62
     7
370
    18
100
AcDbLine
 10
10.0117373217
 20
6.4188539127
 30
0.0
 11
10.0110302149
 21
6.4184457086
 31
0.0
  0
LINE
  5
2D6
330
1F
100
AcDbEntity
  8
0
  6
Continuous
 62
     7
370
    18
100
AcDbLine
 10
10.0185760868
 20
6.3935502949
 30
0.0
 11
10.01786898
 21
6.3931420908
 31
0.0
  0
LINE
  5
2D7
330
1F
100
AcDbEntity
  8
0
  6
Continuous
 62
     7
370
    18
100
AcDbLine
 10
9.9861160327
 20
6.433644768
 30
0.0
 11
9.9854089259
 21
6.4332365639
 31
0.0
  0
LINE
  5
2D8
330
1F
100
AcDbEntity
  8
0
  6
Continuous
 62
     7
370
    18
100
AcDbLine
 10
9.9230260166
 20
6.4487101763
 30
0.0
 11
9.9230260166
 21
6.5172997372
 31
0.0
  0
LINE
  5
2D9
330
1F
100
AcDbEntity
  8
0
  6
Continuous
 62
     7
370
    18
100
AcDbLine
 10
9.9646999893
 20
6.4860498919
 30
0.0
 11
9.9315022325
 21
6.5052145489
 31
0.0
  0
LINE
  5
2DA
330
1F
100
AcDbEntity
  8
0
  6
Continuous
 62
     7
370
    18
100
AcDbLine
 10
9.9623882941
 20
6.4580203413
 30
0.0
 11
9.9315022325
 21
6.4758504851
 31
0.0
  0
LINE
  5
2DB
330
1F
100
AcDbEntity
  8
0
  6
Continuous
 62
     7
370
    18
100
AcDbLine
 10
9.9662411195
 20
6.4237626284
 30
0.0
 11
9.9230260166
 21
6.4487101763
 31
0.0
  0
LINE
  5
2DC
330
1F
100
AcDbEntity
  8
0
  6
Continuous
 62
     7
370
    18
100
AcDbLine
 10
9.9315022325
 20
6.5052145489
 30
0.0
 11
9.9307951257
 21
6.5048063449
 31
0.0
  0
LINE
  5
2DD
330
1F
100
AcDbEntity
  8
0
  6
Continuous
 62
     7
370
    18
100
AcDbLine
 10
9.9315022325
 20
6.4758504851
 30
0.0
 11
9.9307951257
 21
6.4754422811
 31
0.0
  0
LINE
  5
2DE
330
1F
100
AcDbEntity
  8
0
  6
Continuous
 62
     7
370
    18
100
AcDbLine
 10
9.9230260166
 20
6.4487101763
 30
0.0
 11
9.9223189098
 21
6.4483019722
 31
0.0
  0
LINE
  5
2DF
330
1F
100
AcDbEntity
  8
0
  6
Continuous
 62
     7
370
    18
100
AcDbLine
 10
9.8675453307
 20
6.4807384945
 30
0.0
 11
9.8675453307
 21
6.5493280554
 31
0.0
  0
SPLINE
  5
2E0
330
1F
100
AcDbEntity
  8
0
  6
Continuous
 62
     7
370
    18
100
AcDbSpline
210
0.0
220
0.0
230
1.0
 70
     8
 71
     3
 72
     9
 73
     5
 74
     0
 42
0.000000001
 43
0.00000001
 40
0.0
 40
0.0
 40
0.0
 40
0.0
 40
0.4038165270957694
 40
1.0
 40
1.0
 40
1.0
 40
1.0
 10
9.905902080351165
 20
6.499150725689378
 30
0.0
 10
9.905315184105284
 20
6.498807953625445
 30
0.0
 10
9.903861810589088
 20
6.497959122433719
 30
0.0
 10
9.902011509600042
 20
6.49796032041633
 30
0.0
 10
9.900908390730471
 20
6.497961034633763
 30
0.0
  0
SPLINE
  5
2E1
330
1F
100
AcDbEntity
  8
0
  6
Continuous
 62
     7
370
    18
100
AcDbSpline
210
0.0
220
0.0
230
1.0
 70
     8
 71
     3
 72
    10
 73
     6
 74
     0
 42
0.000000001
 43
0.00000001
 40
0.0
 40
0.0
 40
0.0
 40
0.0
 40
0.2411943785815163
 40
0.6200734639607062
 40
0.9999999999999999
 40
0.9999999999999999
 40
0.9999999999999999
 40
0.9999999999999999
 10
9.907283772746977
 20
6.463874328419127
 30
0.0
 10
9.906173003325945
 20
6.463350054288729
 30
0.0
 10
9.903317386845112
 20
6.46200222654078
 30
0.0
 10
9.897070541750479
 20
6.463994905336444
 30
0.0
 10
9.892431274923517
 20
6.466472554423439
 30
0.0
 10
9.890108439502194
 20
6.467713089032794
 30
0.0
  0
LINE
  5
2E2
330
1F
100
AcDbEntity
  8
0
  6
Continuous
 62
     7
370
    18
100
AcDbLine
 10
9.8901084395
 20
6.467713089
 30
0.0
 11
9.8675453307
 21
6.4807384945
 31
0.0
  0
SPLINE
  5
2E3
330
1F
100
AcDbEntity
  8
0
  6
Continuous
 62
     7
370
    18
100
AcDbSpline
210
0.0
220
0.0
230
1.0
 70
     8
 71
     3
 72
     9
 73
     5
 74
     0
 42
0.000000001
 43
0.00000001
 40
0.0
 40
0.0
 40
0.0
 40
0.0
 40
0.2972916703249268
 40
1.0
 40
1.0
 40
1.0
 40
1.0
 10
9.89906246711041
 20
6.505901405705579
 30
0.0
 10
9.899549707704418
 20
6.5061872018202
 30
0.0
 10
9.901188638904465
 20
6.507148534219148
 30
0.0
 10
9.901342250298017
 20
6.509832496214475
 30
0.0
 10
9.901450194303797
 20
6.511718538665123
 30
0.0
  0
SPLINE
  5
2E4
330
1F
100
AcDbEntity
  8
0
  6
Continuous
 62
     7
370
    18
100
AcDbSpline
210
0.0
220
0.0
230
1.0
 70
     8
 71
     3
 72
    23
 73
    19
 74
     0
 42
0.000000001
 43
0.00000001
 40
0.0
 40
0.0
 40
0.0
 40
0.0
 40
0.0759917916873446
 40
0.1480992384688295
 40
0.2183194139888902
 40
0.2870085041191562
 40
0.3537649922415742
 40
0.4187540830454841
 40
0.4837636608299581
 40
0.5503403773656034
 40
0.5870295842959881
 40
0.6292491933521548
 40
0.6773177465342536
 40
0.7301091520056675
 40
0.7889145862889017
 40
0.8537864845156152
 40
0.9241284644212688
 40
1.0
 40
1.0
 40
1.0
 40
1.0
 10
9.901450194303797
 20
6.511718538665123
 30
0.0
 10
9.901434672810272
 20
6.512298731488649
 30
0.0
 10
9.901404423209357
 20
6.513429460392671
 30
0.0
 10
9.901148658020277
 20
6.515198210972104
 30
0.0
 10
9.900708666002135
 20
6.516957893333289
 30
0.0
 10
9.900130092526132
 20
6.518692103981178
 30
0.0
 10
9.89936490352271
 20
6.520362004535341
 30
0.0
 10
9.89845661877877
 20
6.52194046328891
 30
0.0
 10
9.897376248447218
 20
6.523373049079672
 30
0.0
 10
9.89636625287597
 20
6.524457150394252
 30
0.0
 10
9.895458377845685
 20
6.525295243885386
 30
0.0
 10
9.894647135691688
 20
6.525949250238588
 30
0.0
 10
9.893726973120769
 20
6.526644088263748
 30
0.0
 10
9.892694828552171
 20
6.527379043678923
 30
0.0
 10
9.891550322241335
 20
6.528147718959826
 30
0.0
 10
9.890289924426334
 20
6.528961101935892
 30
0.0
 10
9.888916636436589
 20
6.529790300603181
 30
0.0
 10
9.887965312721779
 20
6.530345011574462
 30
0.0
 10
9.887471662112013
 20
6.530632856190291
 30
0.0
  0
LINE
  5
2E5
330
1F
100
AcDbEntity
  8
0
  6
Continuous
 62
     7
370
    18
100
AcDbLine
 10
9.8874716621
 20
6.5306328562
 30
0.0
 11
9.8760215466
 21
6.5372428672
 31
0.0
  0
SPLINE
  5
2E6
330
1F
100
AcDbEntity
  8
0
  6
Continuous
 62
     7
370
    18
100
AcDbSpline
210
0.0
220
0.0
230
1.0
 70
     8
 71
     3
 72
    10
 73
     6
 74
     0
 42
0.000000001
 43
0.00000001
 40
0.0
 40
0.0
 40
0.0
 40
0.0
 40
0.2327047756779574
 40
0.6161010935288482
 40
1.0
 40
1.0
 40
1.0
 40
1.0
 10
9.900701670239659
 20
6.473107736709109
 30
0.0
 10
9.90119778348475
 20
6.473301114459763
 30
0.0
 10
9.902511275706496
 20
6.473813094685757
 30
0.0
 10
9.903525529571699
 20
6.476349340257025
 30
0.0
 10
9.903683068493857
 20
6.478683985472244
 30
0.0
 10
9.903761889549983
 20
6.479852072691752
 30
0.0
  0
SPLINE
  5
2E7
330
1F
100
AcDbEntity
  8
0
  6
Continuous
 62
     7
370
    18
100
AcDbSpline
210
0.0
220
0.0
230
1.0
 70
     8
 71
     3
 72
    19
 73
    15
 74
     0
 42
0.000000001
 43
0.00000001
 40
0.0
 40
0.0
 40
0.0
 40
0.0
 40
0.0801171945698666
 40
0.1562367079050306
 40
0.2293410460817586
 40
0.3019517190328914
 40
0.3732332809350858
 40
0.4427388184259717
 40
0.5128783538514354
 40
0.5860843325765315
 40
0.667835977289547
 40
0.763743588503143
 40
0.8741164363352616
 40
1.0
 40
1.0
 40
1.0
 40
1.0
 10
9.903761889549983
 20
6.479852072691752
 30
0.0
 10
9.903745153354613
 20
6.480493609911589
 30
0.0
 10
9.90371251606518
 20
6.481744672979434
 30
0.0
 10
9.903407196113157
 20
6.4837031515628
 30
0.0
 10
9.902891255778846
 20
6.485649784376833
 30
0.0
 10
9.902201828013961
 20
6.487569095081947
 30
0.0
 10
9.901308074266781
 20
6.489424146656401
 30
0.0
 10
9.90024324364465
 20
6.491168714111927
 30
0.0
 10
9.8990189540687
 20
6.492792996548146
 30
0.0
 10
9.897602929926308
 20
6.494317371582142
 30
0.0
 10
9.895943860714121
 20
6.495785257921387
 30
0.0
 10
9.893998251455834
 20
6.497248838524501
 30
0.0
 10
9.89173773353425
 20
6.498777699688615
 30
0.0
 10
9.890124961075566
 20
6.499727223493322
 30
0.0
 10
9.889265633943689
 20
6.500233154483992
 30
0.0
  0
LINE
  5
2E8
330
1F
100
AcDbEntity
  8
0
  6
Continuous
 62
     7
370
    18
100
AcDbLine
 10
9.8892656339
 20
6.5002331545
 30
0.0
 11
9.8760215466
 21
6.5078788034
 31
0.0
  0
SPLINE
  5
2E9
330
1F
100
AcDbEntity
  8
0
  6
Continuous
 62
     7
370
    18
100
AcDbSpline
210
0.0
220
0.0
230
1.0
 70
     8
 71
     3
 72
    23
 73
    19
 74
     0
 42
0.000000001
 43
0.00000001
 40
0.0
 40
0.0
 40
0.0
 40
0.0
 40
0.0759917916873446
 40
0.1480992384688295
 40
0.2183194139888902
 40
0.2870085041191562
 40
0.3537649922415742
 40
0.4187540830454841
 40
0.4837636608299581
 40
0.5503403773656034
 40
0.5870295842959881
 40
0.6292491933521548
 40
0.6773177465342536
 40
0.7301091520056675
 40
0.7889145862889017
 40
0.8537864845156152
 40
0.9241284644212688
 40
1.0
 40
1.0
 40
1.0
 40
1.0
 10
9.900743087522612
 20
6.511310334609211
 30
0.0
 10
9.900727566029085
 20
6.511890527432739
 30
0.0
 10
9.90069731642817
 20
6.51302125633676
 30
0.0
 10
9.900441551239092
 20
6.514790006916193
 30
0.0
 10
9.900001559220948
 20
6.516549689277377
 30
0.0
 10
9.899422985744943
 20
6.518283899925267
 30
0.0
 10
9.898657796741524
 20
6.51995380047943
 30
0.0
 10
9.897749511997585
 20
6.521532259232999
 30
0.0
 10
9.896669141666033
 20
6.52296484502376
 30
0.0
 10
9.895659146094783
 20
6.524048946338341
 30
0.0
 10
9.8947512710645
 20
6.524887039829474
 30
0.0
 10
9.893940028910503
 20
6.525541046182677
 30
0.0
 10
9.893019866339582
 20
6.526235884207836
 30
0.0
 10
9.891987721770985
 20
6.526970839623011
 30
0.0
 10
9.890843215460146
 20
6.527739514903915
 30
0.0
 10
9.889582817645149
 20
6.52855289787998
 30
0.0
 10
9.888209529655404
 20
6.529382096547269
 30
0.0
 10
9.887258205940594
 20
6.529936807518551
 30
0.0
 10
9.886764555330826
 20
6.530224652134379
 30
0.0
  0
SPLINE
  5
2EA
330
1F
100
AcDbEntity
  8
0
  6
Continuous
 62
     7
370
    18
100
AcDbSpline
210
0.0
220
0.0
230
1.0
 70
     8
 71
     3
 72
    15
 73
    11
 74
     0
 42
0.000000001
 43
0.00000001
 40
0.0
 40
0.0
 40
0.0
 40
0.0
 40
0.1323094633054704
 40
0.255064957497921
 40
0.3743679525391908
 40
0.4905979041316623
 40
0.6083390179302173
 40
0.730174617772944
 40
0.8600686764279902
 40
1.0
 40
1.0
 40
1.0
 40
1.0
 10
9.894927729168923
 20
6.504976772332624
 30
0.0
 10
9.895388188036648
 20
6.504896880398056
 30
0.0
 10
9.896275856375647
 20
6.504742865466807
 30
0.0
 10
9.897465002192668
 20
6.504876876913256
 30
0.0
 10
9.898488985314144
 20
6.505254241120203
 30
0.0
 10
9.899321762904135
 20
6.505937971210498
 30
0.0
 10
9.899963548079073
 20
6.50689270442972
 30
0.0
 10
9.900426929888365
 20
6.508107921232892
 30
0.0
 10
9.90068608525351
 20
6.509602643836753
 30
0.0
 10
9.900723621329993
 20
6.510727160675362
 30
0.0
 10
9.900743087522612
 20
6.511310334609211
 30
0.0
  0
SPLINE
  5
2EB
330
1F
100
AcDbEntity
  8
0
  6
Continuous
 62
     7
370
    18
100
AcDbSpline
210
0.0
220
0.0
230
1.0
 70
     8
 71
     3
 72
    15
 73
    11
 74
     0
 42
0.000000001
 43
0.00000001
 40
0.0
 40
0.0
 40
0.0
 40
0.0
 40
0.1669801744060323
 40
0.320806632884817
 40
0.4631345048703167
 40
0.5942480539785205
 40
0.712367152539743
 40
0.8194549510427513
 40
0.915752266581354
 40
1.0
 40
1.0
 40
1.0
 40
1.0
 10
9.887703681524588
 20
6.508326823350226
 30
0.0
 10
9.88810908836121
 20
6.508094639138786
 30
0.0
 10
9.888887966468552
 20
6.507648560822325
 30
0.0
 10
9.890011479581808
 20
6.507049585837405
 30
0.0
 10
9.891048428331704
 20
6.506493297046144
 30
0.0
 10
9.891994801661882
 20
6.506053209820899
 30
0.0
 10
9.892855287982297
 20
6.505660521420873
 30
0.0
 10
9.893626443731105
 20
6.505355423366713
 30
0.0
 10
9.894312046071539
 20
6.505117472718847
 30
0.0
 10
9.894731840500835
 20
6.505021538237964
 30
0.0
 10
9.894927729168923
 20
6.504976772332624
 30
0.0
  0
LINE
  5
2EC
330
1F
100
AcDbEntity
  8
0
  6
Continuous
 62
     7
370
    18
100
AcDbLine
 10
9.8753144398
 20
6.5154789804
 30
0.0
 11
9.8877036815
 21
6.5083268234
 31
0.0
  0
LINE
  5
2ED
330
1F
100
AcDbEntity
  8
0
  6
Continuous
 62
     7
370
    18
100
AcDbLine
 10
9.8753144398
 20
6.5368346631
 30
0.0
 11
9.8753144398
 21
6.5154789804
 31
0.0
  0
LINE
  5
2EE
330
1F
100
AcDbEntity
  8
0
  6
Continuous
 62
     7
370
    18
100
AcDbLine
 10
9.8867645553
 20
6.5302246521
 30
0.0
 11
9.8753144398
 21
6.5368346631
 31
0.0
  0
LINE
  5
2EF
330
1F
100
AcDbEntity
  8
0
  6
Continuous
 62
     7
370
    18
100
AcDbLine
 10
9.8874716621
 20
6.5306328562
 30
0.0
 11
9.8867645553
 21
6.5302246521
 31
0.0
  0
LINE
  5
2F0
330
1F
100
AcDbEntity
  8
0
  6
Continuous
 62
     7
370
    18
100
AcDbLine
 10
9.9014501943
 20
6.5117185387
 30
0.0
 11
9.9007430875
 21
6.5113103346
 31
0.0
  0
LINE
  5
2F1
330
1F
100
AcDbEntity
  8
0
  6
Continuous
 62
     7
370
    18
100
AcDbLine
 10
9.9009083907
 20
6.4979610346
 30
0.0
 11
9.9002012839
 21
6.4975528306
 31
0.0
  0
LINE
  5
2F2
330
1F
100
AcDbEntity
  8
0
  6
Continuous
 62
     7
370
    18
100
AcDbLine
 10
9.8760215466
 20
6.5372428672
 30
0.0
 11
9.8753144398
 21
6.5368346631
 31
0.0
  0
SPLINE
  5
2F3
330
1F
100
AcDbEntity
  8
0
  6
Continuous
 62
     7
370
    18
100
AcDbSpline
210
0.0
220
0.0
230
1.0
 70
     8
 71
     3
 72
    19
 73
    15
 74
     0
 42
0.000000001
 43
0.00000001
 40
0.0
 40
0.0
 40
0.0
 40
0.0
 40
0.0801171945698666
 40
0.1562367079050306
 40
0.2293410460817586
 40
0.3019517190328914
 40
0.3732332809350858
 40
0.4427388184259717
 40
0.5128783538514354
 40
0.5860843325765315
 40
0.667835977289547
 40
0.763743588503143
 40
0.8741164363352616
 40
1.0
 40
1.0
 40
1.0
 40
1.0
 10
9.903054782768798
 20
6.479443868635841
 30
0.0
 10
9.903038046573426
 20
6.480085405855677
 30
0.0
 10
9.903005409283994
 20
6.481336468923523
 30
0.0
 10
9.902700089331972
 20
6.483294947506889
 30
0.0
 10
9.90218414899766
 20
6.485241580320922
 30
0.0
 10
9.901494721232776
 20
6.487160891026035
 30
0.0
 10
9.900600967485593
 20
6.489015942600489
 30
0.0
 10
9.899536136863464
 20
6.490760510056015
 30
0.0
 10
9.898311847287514
 20
6.492384792492236
 30
0.0
 10
9.89689582314512
 20
6.49390916752623
 30
0.0
 10
9.895236753932934
 20
6.495377053865475
 30
0.0
 10
9.893291144674647
 20
6.49684063446859
 30
0.0
 10
9.89103062675306
 20
6.498369495632703
 30
0.0
 10
9.889417854294381
 20
6.49931901943741
 30
0.0
 10
9.888558527162502
 20
6.499824950428081
 30
0.0
  0
SPLINE
  5
2F4
330
1F
100
AcDbEntity
  8
0
  6
Continuous
 62
     7
370
    18
100
AcDbSpline
210
0.0
220
0.0
230
1.0
 70
     8
 71
     3
 72
    19
 73
    15
 74
     0
 42
0.000000001
 43
0.00000001
 40
0.0
 40
0.0
 40
0.0
 40
0.0
 40
0.0889746355187116
 40
0.1722778979832331
 40
0.2510888193166931
 40
0.3254350616209111
 40
0.3979644757227705
 40
0.4734240254266163
 40
0.5519522794648651
 40
0.6356010187551772
 40
0.7218551388160774
 40
0.8102538553165373
 40
0.9031712343244956
 40
1.0
 40
1.0
 40
1.0
 40
1.0
 10
9.89467488750137
 20
6.472602590186137
 30
0.0
 10
9.895094486034395
 20
6.472462016453496
 30
0.0
 10
9.895906937277887
 20
6.472189829362985
 30
0.0
 10
9.89705484270489
 20
6.471970943787556
 30
0.0
 10
9.898110918869238
 20
6.471859184788512
 30
0.0
 10
9.89904926506016
 20
6.471957107786793
 30
0.0
 10
9.899906428590423
 20
6.472209554485163
 30
0.0
 10
9.900659083685069
 20
6.472692085543495
 30
0.0
 10
9.901357684122434
 20
6.47333889255917
 30
0.0
 10
9.901946767056744
 20
6.474204838992475
 30
0.0
 10
9.902449031088304
 20
6.475232586581857
 30
0.0
 10
9.902792168502016
 20
6.476472263629805
 30
0.0
 10
9.903016223299545
 20
6.47787179252062
 30
0.0
 10
9.903041754182981
 20
6.478912690977636
 30
0.0
 10
9.903054782768798
 20
6.479443868635841
 30
0.0
  0
SPLINE
  5
2F5
330
1F
100
AcDbEntity
  8
0
  6
Continuous
 62
     7
370
    18
100
AcDbSpline
210
0.0
220
0.0
230
1.0
 70
     8
 71
     3
 72
    11
 73
     7
 74
     0
 42
0.000000001
 43
0.00000001
 40
0.0
 40
0.0
 40
0.0
 40
0.0
 40
0.3293005127679522
 40
0.6051256922032391
 40
0.8275907258822829
 40
1.0
 40
1.0
 40
1.0
 40
1.0
 10
9.889533773594486
 20
6.475236809527694
 30
0.0
 10
9.890099829257002
 20
6.474908504512046
 30
0.0
 10
9.891140018419557
 20
6.474305208154632
 30
0.0
 10
9.89256023487631
 20
6.473566874344403
 30
0.0
 10
9.893712744374534
 20
6.47297184148588
 30
0.0
 10
9.894382472202595
 20
6.472714813332699
 30
0.0
 10
9.89467488750137
 20
6.472602590186136
 30
0.0
  0
LINE
  5
2F6
330
1F
100
AcDbEntity
  8
0
  6
Continuous
 62
     7
370
    18
100
AcDbLine
 10
9.8753144398
 20
6.4834454562
 30
0.0
 11
9.8895337736
 21
6.4752368095
 31
0.0
  0
LINE
  5
2F7
330
1F
100
AcDbEntity
  8
0
  6
Continuous
 62
     7
370
    18
100
AcDbLine
 10
9.8753144398
 20
6.5074705993
 30
0.0
 11
9.8753144398
 21
6.4834454562
 31
0.0
  0
LINE
  5
2F8
330
1F
100
AcDbEntity
  8
0
  6
Continuous
 62
     7
370
    18
100
AcDbLine
 10
9.8885585272
 20
6.4998249504
 30
0.0
 11
9.8753144398
 21
6.5074705993
 31
0.0
  0
LINE
  5
2F9
330
1F
100
AcDbEntity
  8
0
  6
Continuous
 62
     7
370
    18
100
AcDbLine
 10
9.8892656339
 20
6.5002331545
 30
0.0
 11
9.8885585272
 21
6.4998249504
 31
0.0
  0
LINE
  5
2FA
330
1F
100
AcDbEntity
  8
0
  6
Continuous
 62
     7
370
    18
100
AcDbLine
 10
9.9037618895
 20
6.4798520727
 30
0.0
 11
9.9030547828
 21
6.4794438686
 31
0.0
  0
LINE
  5
2FB
330
1F
100
AcDbEntity
  8
0
  6
Continuous
 62
     7
370
    18
100
AcDbLine
 10
9.8901084395
 20
6.467713089
 30
0.0
 11
9.8894013327
 21
6.467304885
 31
0.0
  0
LINE
  5
2FC
330
1F
100
AcDbEntity
  8
0
  6
Continuous
 62
     7
370
    18
100
AcDbLine
 10
9.8675453307
 20
6.4807384945
 30
0.0
 11
9.8668382239
 21
6.4803302904
 31
0.0
  0
LINE
  5
2FD
330
1F
100
AcDbEntity
  8
0
  6
Continuous
 62
     7
370
    18
100
AcDbLine
 10
9.8760215466
 20
6.5078788034
 30
0.0
 11
9.8753144398
 21
6.5074705993
 31
0.0
  0
LINE
  5
2FE
330
1F
100
AcDbEntity
  8
0
  6
Continuous
 62
     7
370
    18
100
AcDbLine
 10
9.7736327113
 20
6.5349530957
 30
0.0
 11
9.7736327113
 21
6.5848564341
 31
0.0
  0
SPLINE
  5
2FF
330
1F
100
AcDbEntity
  8
0
  6
Continuous
 62
     7
370
    18
100
AcDbSpline
210
0.0
220
0.0
230
1.0
 70
     8
 71
     3
 72
     9
 73
     5
 74
     0
 42
0.000000001
 43
0.00000001
 40
0.0
 40
0.0
 40
0.0
 40
0.0
 40
0.9884647936362536
 40
0.9999999999999999
 40
0.9999999999999999
 40
0.9999999999999999
 40
0.9999999999999999
 10
9.781338362137342
 20
6.573313407758044
 30
0.0
 10
9.782067756981437
 20
6.574370209333922
 30
0.0
 10
9.782805663732178
 20
6.57543934359412
 30
0.0
 10
9.783963989678002
 20
6.575779966516836
 30
0.0
 10
9.783977351206822
 20
6.575783895672541
 30
0.0
  0
SPLINE
  5
300
330
1F
100
AcDbEntity
  8
0
  6
Continuous
 62
     7
370
    18
100
AcDbSpline
210
0.0
220
0.0
230
1.0
 70
     8
 71
     3
 72
     9
 73
     5
 74
     0
 42
0.000000001
 43
0.00000001
 40
0.0
 40
0.0
 40
0.0
 40
0.0
 40
0.9496622280632021
 40
1.0
 40
1.0
 40
1.0
 40
1.0
 10
9.805563001904675
 20
6.558717069561247
 30
0.0
 10
9.806366578096746
 20
6.559794572562066
 30
0.0
 10
9.807212748628041
 20
6.560929189659576
 30
0.0
 10
9.80848811342269
 20
6.561321322699757
 30
0.0
 10
9.80855231244486
 20
6.561341061803303
 30
0.0
  0
LINE
  5
301
330
1F
100
AcDbEntity
  8
0
  6
Continuous
 62
     7
370
    18
100
AcDbLine
 10
9.8314885508
 20
6.5015536305
 30
0.0
 11
9.8244900067
 21
6.505593804
 31
0.0
  0
LINE
  5
302
330
1F
100
AcDbEntity
  8
0
  6
Continuous
 62
     7
370
    18
100
AcDbLine
 10
9.8244900067
 20
6.505593804
 30
0.0
 11
9.8244900067
 21
6.536959963
 31
0.0
  0
SPLINE
  5
303
330
1F
100
AcDbEntity
  8
0
  6
Continuous
 62
     7
370
    18
100
AcDbSpline
210
0.0
220
0.0
230
1.0
 70
     8
 71
     3
 72
    19
 73
    15
 74
     0
 42
0.000000001
 43
0.00000001
 40
0.0
 40
0.0
 40
0.0
 40
0.0
 40
0.1364148811765276
 40
0.2528973605082379
 40
0.3492204458013853
 40
0.4269322474132385
 40
0.494452408614837
 40
0.5607020268402115
 40
0.6286260433619814
 40
0.698836431094078
 40
0.7714182240964005
 40
0.8441568540005472
 40
0.91996411208531
 40
1.0
 40
1.0
 40
1.0
 40
1.0
 10
9.82449000673283
 20
6.536959963028817
 30
0.0
 10
9.824479442324295
 20
6.537749385516919
 30
0.0
 10
9.824459857136738
 20
6.539212883207528
 30
0.0
 10
9.824354660868696
 20
6.541277534286138
 30
0.0
 10
9.82414347186683
 20
6.54305129425606
 30
0.0
 10
9.823853611786571
 20
6.544570691296807
 30
0.0
 10
9.823408307916276
 20
6.545935260997747
 30
0.0
 10
9.822845643417521
 20
6.547224968480917
 30
0.0
 10
9.822139023773012
 20
6.548484268809967
 30
0.0
 10
9.821304665610532
 20
6.549705013083853
 30
0.0
 10
9.820359656015055
 20
6.550848039570242
 30
0.0
 10
9.81931615120155
 20
6.551862736549305
 30
0.0
 10
9.818200123643312
 20
6.552786824498119
 30
0.0
 10
9.81742383413117
 20
6.553260890648511
 30
0.0
 10
9.817025157500352
 20
6.553504355351651
 30
0.0
  0
SPLINE
  5
304
330
1F
100
AcDbEntity
  8
0
  6
Continuous
 62
     7
370
    18
100
AcDbSpline
210
0.0
220
0.0
230
1.0
 70
     8
 71
     3
 72
     9
 73
     5
 74
     0
 42
0.000000001
 43
0.00000001
 40
0.0
 40
0.0
 40
0.0
 40
0.0
 40
0.6579658467864459
 40
1.0
 40
1.0
 40
1.0
 40
1.0
 10
9.817025157500352
 20
6.553504355351651
 30
0.0
 10
9.81521662265934
 20
6.554386734605075
 30
0.0
 10
9.812467946797451
 20
6.555727806117731
 30
0.0
 10
9.810731786802146
 20
6.554383404347688
 30
0.0
 10
9.810137960788309
 20
6.553923573026693
 30
0.0
  0
LINE
  5
305
330
1F
100
AcDbEntity
  8
0
  6
Continuous
 62
     7
370
    18
100
AcDbLine
 10
9.8060599031
 20
6.5162332763
 30
0.0
 11
9.799061359
 21
6.5202734498
 31
0.0
  0
LINE
  5
306
330
1F
100
AcDbEntity
  8
0
  6
Continuous
 62
     7
370
    18
100
AcDbLine
 10
9.799061359
 20
6.5202734498
 30
0.0
 11
9.799061359
 21
6.5526267531
 31
0.0
  0
SPLINE
  5
307
330
1F
100
AcDbEntity
  8
0
  6
Continuous
 62
     7
370
    18
100
AcDbSpline
210
0.0
220
0.0
230
1.0
 70
     8
 71
     3
 72
    23
 73
    19
 74
     0
 42
0.000000001
 43
0.00000001
 40
0.0
 40
0.0
 40
0.0
 40
0.0
 40
0.0840520374929028
 40
0.1623146334137115
 40
0.2366600199015783
 40
0.3057775454542922
 40
0.3698548822538674
 40
0.4308818052540333
 40
0.4880260023390452
 40
0.5427446849665447
 40
0.5951151179188185
 40
0.646686171351649
 40
0.6997262587744748
 40
0.7534139566544653
 40
0.8093158108836114
 40
0.8690272915375985
 40
0.9322090442192221
 40
1.0
 40
1.0
 40
1.0
 40
1.0
 10
9.799061359024774
 20
6.552626753076281
 30
0.0
 10
9.799058435094791
 20
6.553082866312539
 30
0.0
 10
9.799052788632938
 20
6.55396367604597
 30
0.0
 10
9.798961319179895
 20
6.55529195969428
 30
0.0
 10
9.798838018168267
 20
6.556553618406368
 30
0.0
 10
9.798644208028392
 20
6.557766045343411
 30
0.0
 10
9.798400100328106
 20
6.558918549499154
 30
0.0
 10
9.798120221231953
 20
6.560012225014773
 30
0.0
 10
9.797766361175961
 20
6.561058903310226
 30
0.0
 10
9.797360419670312
 20
6.562049697516398
 30
0.0
 10
9.79688320272867
 20
6.562985368105163
 30
0.0
 10
9.79634717621713
 20
6.563878581594778
 30
0.0
 10
9.795732610822832
 20
6.564718605610613
 30
0.0
 10
9.795046518301488
 20
6.565497752784984
 30
0.0
 10
9.794307520096684
 20
6.566263556319255
 30
0.0
 10
9.793483546574777
 20
6.566923787342145
 30
0.0
 10
9.79260020194032
 20
6.567589081124507
 30
0.0
 10
9.791986434083439
 20
6.567953615907497
 30
0.0
 10
9.79166875026874
 20
6.568142297669096
 30
0.0
  0
SPLINE
  5
308
330
1F
100
AcDbEntity
  8
0
  6
Continuous
 62
     7
370
    18
100
AcDbSpline
210
0.0
220
0.0
230
1.0
 70
     8
 71
     3
 72
     9
 73
     5
 74
     0
 42
0.000000001
 43
0.00000001
 40
0.0
 40
0.0
 40
0.0
 40
0.0
 40
0.6809082185157164
 40
1.0
 40
1.0
 40
1.0
 40
1.0
 10
9.79166875026874
 20
6.568142297669096
 30
0.0
 10
9.789886509230795
 20
6.568900834547128
 30
0.0
 10
9.787269062430362
 20
6.570014842070321
 30
0.0
 10
9.785322127077064
 20
6.569171779522918
 30
0.0
 10
9.784700876006745
 20
6.568902765192764
 30
0.0
  0
LINE
  5
309
330
1F
100
AcDbEntity
  8
0
  6
Continuous
 62
     7
370
    18
100
AcDbLine
 10
9.7806312554
 20
6.5309129222
 30
0.0
 11
9.7736327113
 21
6.5349530957
 31
0.0
  0
LINE
  5
30A
330
1F
100
AcDbEntity
  8
0
  6
Continuous
 62
     7
370
    18
100
AcDbLine
 10
9.8055630019
 20
6.5587170696
 30
0.0
 11
9.8048558951
 21
6.5583088655
 31
0.0
  0
LINE
  5
30B
330
1F
100
AcDbEntity
  8
0
  6
Continuous
 62
     7
370
    18
100
AcDbLine
 10
9.8170251575
 20
6.5535043554
 30
0.0
 11
9.8163180507
 21
6.5530961513
 31
0.0
  0
LINE
  5
30C
330
1F
100
AcDbEntity
  8
0
  6
Continuous
 62
     7
370
    18
100
AcDbLine
 10
9.8244900067
 20
6.536959963
 30
0.0
 11
9.8237829
 21
6.536551759
 31
0.0
  0
LINE
  5
30D
330
1F
100
AcDbEntity
  8
0
  6
Continuous
 62
     7
370
    18
100
AcDbLine
 10
9.8244900067
 20
6.505593804
 30
0.0
 11
9.8237829
 21
6.5051855999
 31
0.0
  0
LINE
  5
30E
330
1F
100
AcDbEntity
  8
0
  6
Continuous
 62
     7
370
    18
100
AcDbLine
 10
9.7813383621
 20
6.5733134078
 30
0.0
 11
9.7806312554
 21
6.5729052037
 31
0.0
  0
LINE
  5
30F
330
1F
100
AcDbEntity
  8
0
  6
Continuous
 62
     7
370
    18
100
AcDbLine
 10
9.7916687503
 20
6.5681422977
 30
0.0
 11
9.7909616435
 21
6.5677340936
 31
0.0
  0
LINE
  5
310
330
1F
100
AcDbEntity
  8
0
  6
Continuous
 62
     7
370
    18
100
AcDbLine
 10
9.799061359
 20
6.5526267531
 30
0.0
 11
9.7983542522
 21
6.552218549
 31
0.0
  0
LINE
  5
311
330
1F
100
AcDbEntity
  8
0
  6
Continuous
 62
     7
370
    18
100
AcDbLine
 10
9.799061359
 20
6.5202734498
 30
0.0
 11
9.7983542522
 21
6.5198652458
 31
0.0
  0
LINE
  5
312
330
1F
100
AcDbEntity
  8
0
  6
Continuous
 62
     7
370
    18
100
AcDbLine
 10
9.7736327113
 20
6.5349530957
 30
0.0
 11
9.7729256045
 21
6.5345448916
 31
0.0
  0
LINE
  5
313
330
1F
100
AcDbEntity
  8
0
  6
Continuous
 62
     7
370
    18
100
AcDbLine
 10
9.7042818539
 20
6.5749884935
 30
0.0
 11
9.7042818539
 21
6.6248918319
 31
0.0
  0
SPLINE
  5
314
330
1F
100
AcDbEntity
  8
0
  6
Continuous
 62
     7
370
    18
100
AcDbSpline
210
0.0
220
0.0
230
1.0
 70
     8
 71
     3
 72
     9
 73
     5
 74
     0
 42
0.000000001
 43
0.00000001
 40
0.0
 40
0.0
 40
0.0
 40
0.0
 40
0.9884647936363896
 40
1.0
 40
1.0
 40
1.0
 40
1.0
 10
9.71198750475174
 20
6.613348805549351
 30
0.0
 10
9.712716899595833
 20
6.614405607125229
 30
0.0
 10
9.713454806346574
 20
6.615474741385429
 30
0.0
 10
9.714613132292397
 20
6.615815364308141
 30
0.0
 10
9.714626493821218
 20
6.615819293463847
 30
0.0
  0
SPLINE
  5
315
330
1F
100
AcDbEntity
  8
0
  6
Continuous
 62
     7
370
    18
100
AcDbSpline
210
0.0
220
0.0
230
1.0
 70
     8
 71
     3
 72
     9
 73
     5
 74
     0
 42
0.000000001
 43
0.00000001
 40
0.0
 40
0.0
 40
0.0
 40
0.0
 40
0.949662228063062
 40
1.0
 40
1.0
 40
1.0
 40
1.0
 10
9.73621214451907
 20
6.598752467352553
 30
0.0
 10
9.737015720711144
 20
6.599829970353373
 30
0.0
 10
9.737861891242439
 20
6.600964587450882
 30
0.0
 10
9.739137256037088
 20
6.601356720491063
 30
0.0
 10
9.739201455059256
 20
6.60137645959461
 30
0.0
  0
LINE
  5
316
330
1F
100
AcDbEntity
  8
0
  6
Continuous
 62
     7
370
    18
100
AcDbLine
 10
9.7621376934
 20
6.5415890283
 30
0.0
 11
9.7551391493
 21
6.5456292017
 31
0.0
  0
LINE
  5
317
330
1F
100
AcDbEntity
  8
0
  6
Continuous
 62
     7
370
    18
100
AcDbLine
 10
9.7551391493
 20
6.5456292017
 30
0.0
 11
9.7551391493
 21
6.5769953608
 31
0.0
  0
SPLINE
  5
318
330
1F
100
AcDbEntity
  8
0
  6
Continuous
 62
     7
370
    18
100
AcDbSpline
210
0.0
220
0.0
230
1.0
 70
     8
 71
     3
 72
    19
 73
    15
 74
     0
 42
0.000000001
 43
0.00000001
 40
0.0
 40
0.0
 40
0.0
 40
0.0
 40
0.1364148811765273
 40
0.2528973605082374
 40
0.3492204458013846
 40
0.4269322474132377
 40
0.4944524086148355
 40
0.5607020268402109
 40
0.6286260433619806
 40
0.698836431094077
 40
0.7714182240963994
 40
0.844156854000546
 40
0.9199641120853087
 40
1.0
 40
1.0
 40
1.0
 40
1.0
 10
9.755139149347226
 20
6.576995360820123
 30
0.0
 10
9.755128584938692
 20
6.577784783308224
 30
0.0
 10
9.755108999751133
 20
6.579248280998835
 30
0.0
 10
9.755003803483092
 20
6.581312932077444
 30
0.0
 10
9.754792614481225
 20
6.583086692047367
 30
0.0
 10
9.754502754400969
 20
6.584606089088114
 30
0.0
 10
9.754057450530672
 20
6.585970658789053
 30
0.0
 10
9.753494786031919
 20
6.587260366272223
 30
0.0
 10
9.752788166387408
 20
6.588519666601274
 30
0.0
 10
9.751953808224927
 20
6.58974041087516
 30
0.0
 10
9.751008798629453
 20
6.590883437361548
 30
0.0
 10
9.749965293815945
 20
6.591898134340611
 30
0.0
 10
9.748849266257709
 20
6.592822222289425
 30
0.0
 10
9.748072976745567
 20
6.593296288439817
 30
0.0
 10
9.747674300114747
 20
6.593539753142957
 30
0.0
  0
SPLINE
  5
319
330
1F
100
AcDbEntity
  8
0
  6
Continuous
 62
     7
370
    18
100
AcDbSpline
210
0.0
220
0.0
230
1.0
 70
     8
 71
     3
 72
     9
 73
     5
 74
     0
 42
0.000000001
 43
0.00000001
 40
0.0
 40
0.0
 40
0.0
 40
0.0
 40
0.6579658467864528
 40
1.0
 40
1.0
 40
1.0
 40
1.0
 10
9.747674300114747
 20
6.593539753142957
 30
0.0
 10
9.745865765273738
 20
6.594422132396382
 30
0.0
 10
9.743117089411847
 20
6.595763203909038
 30
0.0
 10
9.741380929416541
 20
6.594418802138995
 30
0.0
 10
9.740787103402704
 20
6.593958970817999
 30
0.0
  0
LINE
  5
31A
330
1F
100
AcDbEntity
  8
0
  6
Continuous
 62
     7
370
    18
100
AcDbLine
 10
9.7367090457
 20
6.5562686741
 30
0.0
 11
9.7297105016
 21
6.5603088476
 31
0.0
  0
LINE
  5
31B
330
1F
100
AcDbEntity
  8
0
  6
Continuous
 62
     7
370
    18
100
AcDbLine
 10
9.7297105016
 20
6.5603088476
 30
0.0
 11
9.7297105016
 21
6.5926621509
 31
0.0
  0
SPLINE
  5
31C
330
1F
100
AcDbEntity
  8
0
  6
Continuous
 62
     7
370
    18
100
AcDbSpline
210
0.0
220
0.0
230
1.0
 70
     8
 71
     3
 72
    23
 73
    19
 74
     0
 42
0.000000001
 43
0.00000001
 40
0.0
 40
0.0
 40
0.0
 40
0.0
 40
0.0840520374929027
 40
0.1623146334137115
 40
0.2366600199015785
 40
0.3057775454542916
 40
0.3698548822538668
 40
0.4308818052540332
 40
0.4880260023390452
 40
0.5427446849665438
 40
0.5951151179188187
 40
0.6466861713516503
 40
0.6997262587744747
 40
0.7534139566544636
 40
0.8093158108836097
 40
0.8690272915375968
 40
0.9322090442192221
 40
1.0
 40
1.0
 40
1.0
 40
1.0
 10
9.72971050163917
 20
6.592662150867587
 30
0.0
 10
9.729707577709188
 20
6.593118264103845
 30
0.0
 10
9.729701931247336
 20
6.593999073837276
 30
0.0
 10
9.729610461794291
 20
6.595327357485586
 30
0.0
 10
9.729487160782663
 20
6.596589016197675
 30
0.0
 10
9.72929335064279
 20
6.597801443134718
 30
0.0
 10
9.729049242942503
 20
6.598953947290461
 30
0.0
 10
9.72876936384635
 20
6.600047622806079
 30
0.0
 10
9.728415503790357
 20
6.601094301101533
 30
0.0
 10
9.728009562284708
 20
6.602085095307705
 30
0.0
 10
9.727532345343066
 20
6.603020765896469
 30
0.0
 10
9.726996318831526
 20
6.603913979386083
 30
0.0
 10
9.726381753437229
 20
6.604754003401919
 30
0.0
 10
9.725695660915886
 20
6.60553315057629
 30
0.0
 10
9.72495666271108
 20
6.606298954110561
 30
0.0
 10
9.724132689189172
 20
6.606959185133452
 30
0.0
 10
9.723249344554716
 20
6.607624478915813
 30
0.0
 10
9.722635576697835
 20
6.607989013698803
 30
0.0
 10
9.722317892883137
 20
6.608177695460403
 30
0.0
  0
SPLINE
  5
31D
330
1F
100
AcDbEntity
  8
0
  6
Continuous
 62
     7
370
    18
100
AcDbSpline
210
0.0
220
0.0
230
1.0
 70
     8
 71
     3
 72
     9
 73
     5
 74
     0
 42
0.000000001
 43
0.00000001
 40
0.0
 40
0.0
 40
0.0
 40
0.0
 40
0.680908218515719
 40
1.0
 40
1.0
 40
1.0
 40
1.0
 10
9.722317892883137
 20
6.608177695460403
 30
0.0
 10
9.720535651845193
 20
6.608936232338434
 30
0.0
 10
9.717918205044757
 20
6.610050239861628
 30
0.0
 10
9.71597126969146
 20
6.609207177314224
 30
0.0
 10
9.715350018621143
 20
6.608938162984071
 30
0.0
  0
LINE
  5
31E
330
1F
100
AcDbEntity
  8
0
  6
Continuous
 62
     7
370
    18
100
AcDbLine
 10
9.711280398
 20
6.57094832
 30
0.0
 11
9.7042818539
 21
6.5749884935
 31
0.0
  0
LINE
  5
31F
330
1F
100
AcDbEntity
  8
0
  6
Continuous
 62
     7
370
    18
100
AcDbLine
 10
9.7362121445
 20
6.5987524674
 30
0.0
 11
9.7355050377
 21
6.5983442633
 31
0.0
  0
LINE
  5
320
330
1F
100
AcDbEntity
  8
0
  6
Continuous
 62
     7
370
    18
100
AcDbLine
 10
9.7476743001
 20
6.5935397531
 30
0.0
 11
9.7469671933
 21
6.5931315491
 31
0.0
  0
LINE
  5
321
330
1F
100
AcDbEntity
  8
0
  6
Continuous
 62
     7
370
    18
100
AcDbLine
 10
9.7551391493
 20
6.5769953608
 30
0.0
 11
9.7544320426
 21
6.5765871568
 31
0.0
  0
LINE
  5
322
330
1F
100
AcDbEntity
  8
0
  6
Continuous
 62
     7
370
    18
100
AcDbLine
 10
9.7551391493
 20
6.5456292017
 30
0.0
 11
9.7544320426
 21
6.5452209977
 31
0.0
  0
LINE
  5
323
330
1F
100
AcDbEntity
  8
0
  6
Continuous
 62
     7
370
    18
100
AcDbLine
 10
9.7119875048
 20
6.6133488055
 30
0.0
 11
9.711280398
 21
6.6129406015
 31
0.0
  0
LINE
  5
324
330
1F
100
AcDbEntity
  8
0
  6
Continuous
 62
     7
370
    18
100
AcDbLine
 10
9.7223178929
 20
6.6081776955
 30
0.0
 11
9.7216107861
 21
6.6077694914
 31
0.0
  0
LINE
  5
325
330
1F
100
AcDbEntity
  8
0
  6
Continuous
 62
     7
370
    18
100
AcDbLine
 10
9.7297105016
 20
6.5926621509
 30
0.0
 11
9.7290033949
 21
6.5922539468
 31
0.0
  0
LINE
  5
326
330
1F
100
AcDbEntity
  8
0
  6
Continuous
 62
     7
370
    18
100
AcDbLine
 10
9.7297105016
 20
6.5603088476
 30
0.0
 11
9.7290033949
 21
6.5599006435
 31
0.0
  0
SPLINE
  5
327
330
1F
100
AcDbEntity
  8
0
  6
Continuous
 62
     7
370
    18
100
AcDbSpline
210
0.0
220
0.0
230
1.0
 70
     8
 71
     3
 72
    12
 73
     8
 74
     0
 42
0.000000001
 43
0.00000001
 40
0.0
 40
0.0
 40
0.0
 40
0.0
 40
0.247185770991862
 40
0.49428280862066
 40
0.7410846441047786
 40
0.9260925042386523
 40
1.0
 40
1.0
 40
1.0
 40
1.0
 10
9.656410498207999
 20
6.636854306450399
 30
0.0
 10
9.656452191246693
 20
6.63944867033665
 30
0.0
 10
9.656535562357346
 20
6.644636466798939
 30
0.0
 10
9.657415029647142
 20
6.651958002747548
 30
0.0
 10
9.659244676404562
 20
6.657766287119601
 30
0.0
 10
9.661393079031289
 20
6.661441502264325
 30
0.0
 10
9.663201375424462
 20
6.66219591423441
 30
0.0
 10
9.663717554380133
 20
6.662411261444268
 30
0.0
  0
SPLINE
  5
328
330
1F
100
AcDbEntity
  8
0
  6
Continuous
 62
     7
370
    18
100
AcDbSpline
210
0.0
220
0.0
230
1.0
 70
     8
 71
     3
 72
    10
 73
     6
 74
     0
 42
0.000000001
 43
0.00000001
 40
0.0
 40
0.0
 40
0.0
 40
0.0
 40
0.2344019857846557
 40
0.6168516049504387
 40
1.0
 40
1.0
 40
1.0
 40
1.0
 10
9.687676172991527
 20
6.589117720991507
 30
0.0
 10
9.686951045385824
 20
6.588668784374407
 30
0.0
 10
9.68504280162298
 20
6.587487364038514
 30
0.0
 10
9.68074730971653
 20
6.588060693365578
 30
0.0
 10
9.677366548640213
 20
6.589761896838385
 30
0.0
 10
9.675674625259555
 20
6.590613274935188
 30
0.0
  0
SPLINE
  5
329
330
1F
100
AcDbEntity
  8
0
  6
Continuous
 62
     7
370
    18
100
AcDbSpline
210
0.0
220
0.0
230
1.0
 70
     8
 71
     3
 72
    15
 73
    11
 74
     0
 42
0.000000001
 43
0.00000001
 40
0.0
 40
0.0
 40
0.0
 40
0.0
 40
0.1379032299933924
 40
0.2688733426002906
 40
0.3951781273461124
 40
0.5170892381308858
 40
0.6367430265135461
 40
0.7562218164637954
 40
0.8766283594636799
 40
1.0
 40
1.0
 40
1.0
 40
1.0
 10
9.675674625259555
 20
6.590613274935188
 30
0.0
 10
9.674979559718562
 20
6.591037422966356
 30
0.0
 10
9.673624373220449
 20
6.591864394886469
 30
0.0
 10
9.67164522326563
 20
6.593310231111663
 30
0.0
 10
9.669787685466371
 20
6.594916382303844
 30
0.0
 10
9.668036092555088
 20
6.596643479834739
 30
0.0
 10
9.666410132915033
 20
6.598539716556276
 30
0.0
 10
9.664902043235456
 20
6.600575413664896
 30
0.0
 10
9.663481519541444
 20
6.602740958096317
 30
0.0
 10
9.66266377974347
 20
6.604274592765378
 30
0.0
 10
9.662249936720501
 20
6.605050736973038
 30
0.0
  0
SPLINE
  5
32A
330
1F
100
AcDbEntity
  8
0
  6
Continuous
 62
     7
370
    18
100
AcDbSpline
210
0.0
220
0.0
230
1.0
 70
     8
 71
     3
 72
    15
 73
    11
 74
     0
 42
0.000000001
 43
0.00000001
 40
0.0
 40
0.0
 40
0.0
 40
0.0
 40
0.0974206681772141
 40
0.2008855880393194
 40
0.3111719701726499
 40
0.4297979458253718
 40
0.5577399263645887
 40
0.6947152693641601
 40
0.8421299102060559
 40
1.0
 40
1.0
 40
1.0
 40
1.0
 10
9.662249936720501
 20
6.605050736973038
 30
0.0
 10
9.66177359388205
 20
6.606119197972643
 30
0.0
 10
9.660791354558492
 20
6.608322410291127
 30
0.0
 10
9.65964172859529
 20
6.611775909861582
 30
0.0
 10
9.658616241882255
 20
6.615439126964816
 30
0.0
 10
9.657811422830166
 20
6.619316593833672
 30
0.0
 10
9.657181048887656
 20
6.623407831713561
 30
0.0
 10
9.65672576151621
 20
6.62771978411355
 30
0.0
 10
9.65646811368656
 20
6.632237682127091
 30
0.0
 10
9.656430136912753
 20
6.635280692478749
 30
0.0
 10
9.656410498207999
 20
6.636854306450399
 30
0.0
  0
SPLINE
  5
32B
330
1F
100
AcDbEntity
  8
0
  6
Continuous
 62
     7
370
    18
100
AcDbSpline
210
0.0
220
0.0
230
1.0
 70
     8
 71
     3
 72
    11
 73
     7
 74
     0
 42
0.000000001
 43
0.00000001
 40
0.0
 40
0.0
 40
0.0
 40
0.0
 40
0.1493949139837409
 40
0.3193908560959244
 40
0.6595300268431944
 40
1.0
 40
1.0
 40
1.0
 40
1.0
 10
9.682558957973173
 20
6.598147220830428
 30
0.0
 10
9.683285085050862
 20
6.598654178903331
 30
0.0
 10
9.684837469551736
 20
6.599738002767151
 30
0.0
 10
9.68628937778603
 20
6.604208952676567
 30
0.0
 10
9.687124778285183
 20
6.610692415879195
 30
0.0
 10
9.687196982057444
 20
6.616288967379148
 30
0.0
 10
9.68723310149049
 20
6.61908860319954
 30
0.0
  0
SPLINE
  5
32C
330
1F
100
AcDbEntity
  8
0
  6
Continuous
 62
     7
370
    18
100
AcDbSpline
210
0.0
220
0.0
230
1.0
 70
     8
 71
     3
 72
    23
 73
    19
 74
     0
 42
0.000000001
 43
0.00000001
 40
0.0
 40
0.0
 40
0.0
 40
0.0
 40
0.1156341026995446
 40
0.2215505648509135
 40
0.3170614885131583
 40
0.4031682101561656
 40
0.4802018633519436
 40
0.5476729137517633
 40
0.6070619439212038
 40
0.6586807285305007
 40
0.7057532347379953
 40
0.7501195176610335
 40
0.792590568079876
 40
0.8338794889926727
 40
0.8747756796479279
 40
0.9156225135228682
 40
0.9568788497046059
 40
1.0
 40
1.0
 40
1.0
 40
1.0
 10
9.68723310149049
 20
6.61908860319954
 30
0.0
 10
9.687225804467904
 20
6.620399975358557
 30
0.0
 10
9.68721182364877
 20
6.622912514789203
 30
0.0
 10
9.68705381151489
 20
6.6265841579832
 30
0.0
 10
9.686806198217072
 20
6.629965309092817
 30
0.0
 10
9.686467484309453
 20
6.633059793624934
 30
0.0
 10
9.686017390836724
 20
6.635876251833899
 30
0.0
 10
9.685471315752062
 20
6.638410985860401
 30
0.0
 10
9.684821115679565
 20
6.640664738139955
 30
0.0
 10
9.684046397582017
 20
6.642665757410959
 30
0.0
 10
9.683187415104438
 20
6.644444234798498
 30
0.0
 10
9.682274768195434
 20
6.646059643619554
 30
0.0
 10
9.681326118573077
 20
6.647561219359347
 30
0.0
 10
9.680287254775592
 20
6.648907891065646
 30
0.0
 10
9.679202340516023
 20
6.650146804169464
 30
0.0
 10
9.678048118655862
 20
6.65122322025009
 30
0.0
 10
9.676839492652258
 20
6.652184142935149
 30
0.0
 10
9.676012817428076
 20
6.652690541797139
 30
0.0
 10
9.675590344703703
 20
6.652949337150605
 30
0.0
  0
SPLINE
  5
32D
330
1F
100
AcDbEntity
  8
0
  6
Continuous
 62
     7
370
    18
100
AcDbSpline
210
0.0
220
0.0
230
1.0
 70
     8
 71
     3
 72
     9
 73
     5
 74
     0
 42
0.000000001
 43
0.00000001
 40
0.0
 40
0.0
 40
0.0
 40
0.0
 40
0.6920350322427383
 40
1.0
 40
1.0
 40
1.0
 40
1.0
 10
9.675590344703703
 20
6.652949337150605
 30
0.0
 10
9.673788539550863
 20
6.653761210760432
 30
0.0
 10
9.671184906687072
 20
6.654934379129082
 30
0.0
 10
9.66944506313301
 20
6.653801855056196
 30
0.0
 10
9.66890925226898
 20
6.653453077316605
 30
0.0
  0
LINE
  5
32E
330
1F
100
AcDbEntity
  8
0
  6
Continuous
 62
     7
370
    18
100
AcDbLine
 10
9.7042818539
 20
6.5749884935
 30
0.0
 11
9.7035747471
 21
6.5745802894
 31
0.0
  0
SPLINE
  5
32F
330
1F
100
AcDbEntity
  8
0
  6
Continuous
 62
     7
370
    18
100
AcDbSpline
210
0.0
220
0.0
230
1.0
 70
     8
 71
     3
 72
    23
 73
    19
 74
     0
 42
0.000000001
 43
0.00000001
 40
0.0
 40
0.0
 40
0.0
 40
0.0
 40
0.1156341026995446
 40
0.2215505648509135
 40
0.3170614885131583
 40
0.4031682101561656
 40
0.4802018633519436
 40
0.5476729137517633
 40
0.6070619439212038
 40
0.6586807285305007
 40
0.7057532347379953
 40
0.7501195176610335
 40
0.792590568079876
 40
0.8338794889926727
 40
0.8747756796479279
 40
0.9156225135228682
 40
0.9568788497046059
 40
1.0
 40
1.0
 40
1.0
 40
1.0
 10
9.686525994709303
 20
6.618680399143628
 30
0.0
 10
9.686518697686717
 20
6.619991771302645
 30
0.0
 10
9.686504716867583
 20
6.622504310733293
 30
0.0
 10
9.686346704733703
 20
6.626175953927289
 30
0.0
 10
9.686099091435885
 20
6.629557105036906
 30
0.0
 10
9.685760377528267
 20
6.632651589569023
 30
0.0
 10
9.685310284055538
 20
6.635468047777989
 30
0.0
 10
9.684764208970876
 20
6.638002781804489
 30
0.0
 10
9.684114008898378
 20
6.640256534084044
 30
0.0
 10
9.68333929080083
 20
6.642257553355047
 30
0.0
 10
9.682480308323251
 20
6.644036030742586
 30
0.0
 10
9.681567661414249
 20
6.645651439563643
 30
0.0
 10
9.680619011791892
 20
6.647153015303436
 30
0.0
 10
9.679580147994406
 20
6.648499687009734
 30
0.0
 10
9.678495233734836
 20
6.649738600113553
 30
0.0
 10
9.677341011874676
 20
6.650815016194178
 30
0.0
 10
9.676132385871071
 20
6.651775938879237
 30
0.0
 10
9.675305710646889
 20
6.652282337741229
 30
0.0
 10
9.674883237922518
 20
6.652541133094693
 30
0.0
  0
SPLINE
  5
330
330
1F
100
AcDbEntity
  8
0
  6
Continuous
 62
     7
370
    18
100
AcDbSpline
210
0.0
220
0.0
230
1.0
 70
     8
 71
     3
 72
    23
 73
    19
 74
     0
 42
0.000000001
 43
0.00000001
 40
0.0
 40
0.0
 40
0.0
 40
0.0
 40
0.0407861577516997
 40
0.0808781390926995
 40
0.1202808817853034
 40
0.1602037870694768
 40
0.2004809323198157
 40
0.2425508656877319
 40
0.2867496219958774
 40
0.3332473598987213
 40
0.3843802392510082
 40
0.4437238495442145
 40
0.5116298421176319
 40
0.5889765724864078
 40
0.6762109599366941
 40
0.7736812652401788
 40
0.8815552458988715
 40
1.0
 40
1.0
 40
1.0
 40
1.0
 10
9.674967518478368
 20
6.598213451918926
 30
0.0
 10
9.675365523365445
 20
6.598001230279752
 30
0.0
 10
9.676154759135397
 20
6.597580398992921
 30
0.0
 10
9.677316530425767
 20
6.5971415445139
 30
0.0
 10
9.67842357998184
 20
6.596935205496195
 30
0.0
 10
9.679484823934505
 20
6.596889636149309
 30
0.0
 10
9.68050099509193
 20
6.597034291058365
 30
0.0
 10
9.681448250196816
 20
6.597407317497241
 30
0.0
 10
9.682368852565505
 20
6.597931468463385
 30
0.0
 10
9.683241250547018
 20
6.598673043079624
 30
0.0
 10
9.684051944657972
 20
6.599714830511417
 30
0.0
 10
9.684701535612533
 20
6.601212452858557
 30
0.0
 10
9.685279414736943
 20
6.603087788052053
 30
0.0
 10
9.685737731084563
 20
6.605392702637722
 30
0.0
 10
9.686088449589558
 20
6.608116806455094
 30
0.0
 10
9.686349935989742
 20
6.61125034051066
 30
0.0
 10
9.686504074676101
 20
6.614807376168997
 30
0.0
 10
9.686518464001944
 20
6.617349807974088
 30
0.0
 10
9.686525994709303
 20
6.618680399143628
 30
0.0
  0
SPLINE
  5
331
330
1F
100
AcDbEntity
  8
0
  6
Continuous
 62
     7
370
    18
100
AcDbSpline
210
0.0
220
0.0
230
1.0
 70
     8
 71
     3
 72
    23
 73
    19
 74
     0
 42
0.000000001
 43
0.00000001
 40
0.0
 40
0.0
 40
0.0
 40
0.0
 40
0.1184055081537719
 40
0.226654332816702
 40
0.324092341928604
 40
0.4117048030053215
 40
0.4890259050064171
 40
0.5569093973430758
 40
0.6162333444927071
 40
0.6673492812770764
 40
0.7135123932013491
 40
0.7576965045209799
 40
0.7994925114422922
 40
0.8399760647439396
 40
0.8798857418167766
 40
0.9191486593857426
 40
0.9592273564930835
 40
1.0
 40
1.0
 40
1.0
 40
1.0
 10
9.663409042247435
 20
6.63202553174073
 30
0.0
 10
9.663416693345946
 20
6.630686185626404
 30
0.0
 10
9.663431339240846
 20
6.628122380912528
 30
0.0
 10
9.663584353291633
 20
6.624383289692418
 30
0.0
 10
9.663847760681923
 20
6.620937745715509
 30
0.0
 10
9.664196002456803
 20
6.617805063893612
 30
0.0
 10
9.66465582259686
 20
6.614965839624243
 30
0.0
 10
9.665233181167196
 20
6.61242319100802
 30
0.0
 10
9.66588400159878
 20
6.610176045738663
 30
0.0
 10
9.666689379550206
 20
6.608200783280936
 30
0.0
 10
9.667571179452407
 20
6.606460593663457
 30
0.0
 10
9.668481577587674
 20
6.604876214054389
 30
0.0
 10
9.669441992477124
 20
6.603421807324831
 30
0.0
 10
9.670446157529671
 20
6.602091722889215
 30
0.0
 10
9.671509653088718
 20
6.600909632230409
 30
0.0
 10
9.672620850007108
 20
6.599856357156112
 30
0.0
 10
9.673779990071797
 20
6.598950218285623
 30
0.0
 10
9.67456941712751
 20
6.598460441956576
 30
0.0
 10
9.674967518478368
 20
6.598213451918926
 30
0.0
  0
SPLINE
  5
332
330
1F
100
AcDbEntity
  8
0
  6
Continuous
 62
     7
370
    18
100
AcDbSpline
210
0.0
220
0.0
230
1.0
 70
     8
 71
     3
 72
    15
 73
    11
 74
     0
 42
0.000000001
 43
0.00000001
 40
0.0
 40
0.0
 40
0.0
 40
0.0
 40
0.0838887288335153
 40
0.1771553326743518
 40
0.2825157085895131
 40
0.3999935157252225
 40
0.5294873536901311
 40
0.672799776764538
 40
0.8295345107876441
 40
1.0
 40
1.0
 40
1.0
 40
1.0
 10
9.666888625196123
 20
6.652401348542233
 30
0.0
 10
9.666602217063964
 20
6.652013762181907
 30
0.0
 10
9.665997383391568
 20
6.651195261394514
 30
0.0
 10
9.6653208617522
 20
6.649556298220527
 30
0.0
 10
9.66472092181894
 20
6.647579246385171
 30
0.0
 10
9.664233652182011
 20
6.645214611627784
 30
0.0
 10
9.663873094507457
 20
6.642457921612545
 30
0.0
 10
9.663593844599832
 20
6.639340116078778
 30
0.0
 10
9.663447381640289
 20
6.635819341737175
 30
0.0
 10
9.663422174643731
 20
6.633325025880767
 30
0.0
 10
9.663409042247435
 20
6.63202553174073
 30
0.0
  0
SPLINE
  5
333
330
1F
100
AcDbEntity
  8
0
  6
Continuous
 62
     7
370
    18
100
AcDbSpline
210
0.0
220
0.0
230
1.0
 70
     8
 71
     3
 72
    15
 73
    11
 74
     0
 42
0.000000001
 43
0.00000001
 40
0.0
 40
0.0
 40
0.0
 40
0.0
 40
0.1276828691364362
 40
0.2517742563342023
 40
0.3728062010709587
 40
0.4927364553926362
 40
0.6140149012905313
 40
0.7371600623355257
 40
0.8655879353818473
 40
1.0
 40
1.0
 40
1.0
 40
1.0
 10
9.674883237922518
 20
6.652541133094693
 30
0.0
 10
9.6744851103103
 20
6.652759027992552
 30
0.0
 10
9.67370005367608
 20
6.65318868880953
 30
0.0
 10
9.672551511727187
 20
6.653622845953431
 30
0.0
 10
9.671458096386717
 20
6.653880420079958
 30
0.0
 10
9.670427084343242
 20
6.653936622701704
 30
0.0
 10
9.669448270255176
 20
6.653833012512444
 30
0.0
 10
9.66852046637457
 20
6.65355532144177
 30
0.0
 10
9.667665917790242
 20
6.653065680157588
 30
0.0
 10
9.667151625764497
 20
6.652626128237484
 30
0.0
 10
9.666888625196123
 20
6.652401348542233
 30
0.0
  0
LINE
  5
334
330
1F
100
AcDbEntity
  8
0
  6
Continuous
 62
     7
370
    18
100
AcDbLine
 10
9.6755903447
 20
6.6529493372
 30
0.0
 11
9.6748832379
 21
6.6525411331
 31
0.0
  0
LINE
  5
335
330
1F
100
AcDbEntity
  8
0
  6
Continuous
 62
     7
370
    18
100
AcDbLine
 10
9.6872331015
 20
6.6190886032
 30
0.0
 11
9.6865259947
 21
6.6186803991
 31
0.0
  0
LINE
  5
336
330
1F
100
AcDbEntity
  8
0
  6
Continuous
 62
     7
370
    18
100
AcDbLine
 10
9.6564104982
 20
6.6368543065
 30
0.0
 11
9.6557033914
 21
6.6364461024
 31
0.0
  0
LINE
  5
337
330
1F
100
AcDbEntity
  8
0
  6
Continuous
 62
     7
370
    18
100
AcDbLine
 10
9.6756746253
 20
6.5906132749
 30
0.0
 11
9.6749675185
 21
6.5902050709
 31
0.0
  0
LINE
  5
338
330
1F
100
AcDbEntity
  8
0
  6
Continuous
 62
     7
370
    18
100
AcDbLine
 10
9.6622499367
 20
6.605050737
 30
0.0
 11
9.6615428299
 21
6.6046425329
 31
0.0
  0
SPLINE
  5
339
330
1F
100
AcDbEntity
  8
0
  6
Continuous
 62
     7
370
    18
100
AcDbSpline
210
0.0
220
0.0
230
1.0
 70
     8
 71
     3
 72
    12
 73
     8
 74
     0
 42
0.000000001
 43
0.00000001
 40
0.0
 40
0.0
 40
0.0
 40
0.0
 40
0.2471857709918659
 40
0.4942828086206678
 40
0.7410846441047901
 40
0.9260925042386686
 40
1.0
 40
1.0
 40
1.0
 40
1.0
 10
9.587059640822394
 20
6.676889704241706
 30
0.0
 10
9.587101333861089
 20
6.679484068127955
 30
0.0
 10
9.587184704971742
 20
6.684671864590245
 30
0.0
 10
9.588064172261538
 20
6.691993400538854
 30
0.0
 10
9.589893819018958
 20
6.697801684910907
 30
0.0
 10
9.592042221645686
 20
6.701476900055632
 30
0.0
 10
9.593850518038858
 20
6.702231312025717
 30
0.0
 10
9.594366696994529
 20
6.702446659235574
 30
0.0
  0
SPLINE
  5
33A
330
1F
100
AcDbEntity
  8
0
  6
Continuous
 62
     7
370
    18
100
AcDbSpline
210
0.0
220
0.0
230
1.0
 70
     8
 71
     3
 72
    10
 73
     6
 74
     0
 42
0.000000001
 43
0.00000001
 40
0.0
 40
0.0
 40
0.0
 40
0.0
 40
0.2344019857847908
 40
0.6168516049505115
 40
1.0
 40
1.0
 40
1.0
 40
1.0
 10
9.618325315605924
 20
6.629153118782813
 30
0.0
 10
9.617600188000221
 20
6.628704182165713
 30
0.0
 10
9.615691944237378
 20
6.62752276182982
 30
0.0
 10
9.611396452330927
 20
6.628096091156885
 30
0.0
 10
9.60801569125461
 20
6.629797294629691
 30
0.0
 10
9.60632376787395
 20
6.630648672726495
 30
0.0
  0
SPLINE
  5
33B
330
1F
100
AcDbEntity
  8
0
  6
Continuous
 62
     7
370
    18
100
AcDbSpline
210
0.0
220
0.0
230
1.0
 70
     8
 71
     3
 72
    15
 73
    11
 74
     0
 42
0.000000001
 43
0.00000001
 40
0.0
 40
0.0
 40
0.0
 40
0.0
 40
0.1379032299933924
 40
0.2688733426002906
 40
0.3951781273461124
 40
0.5170892381308858
 40
0.6367430265135461
 40
0.7562218164637954
 40
0.8766283594636799
 40
1.0
 40
1.0
 40
1.0
 40
1.0
 10
9.60632376787395
 20
6.630648672726495
 30
0.0
 10
9.605628702332957
 20
6.631072820757661
 30
0.0
 10
9.604273515834846
 20
6.631899792677775
 30
0.0
 10
9.602294365880027
 20
6.633345628902969
 30
0.0
 10
9.600436828080767
 20
6.63495178009515
 30
0.0
 10
9.598685235169485
 20
6.636678877626046
 30
0.0
 10
9.59705927552943
 20
6.638575114347582
 30
0.0
 10
9.595551185849851
 20
6.640610811456202
 30
0.0
 10
9.594130662155841
 20
6.642776355887623
 30
0.0
 10
9.593312922357866
 20
6.644309990556684
 30
0.0
 10
9.592899079334897
 20
6.645086134764345
 30
0.0
  0
SPLINE
  5
33C
330
1F
100
AcDbEntity
  8
0
  6
Continuous
 62
     7
370
    18
100
AcDbSpline
210
0.0
220
0.0
230
1.0
 70
     8
 71
     3
 72
    15
 73
    11
 74
     0
 42
0.000000001
 43
0.00000001
 40
0.0
 40
0.0
 40
0.0
 40
0.0
 40
0.0974206681772141
 40
0.2008855880393194
 40
0.3111719701726499
 40
0.4297979458253718
 40
0.5577399263645887
 40
0.6947152693641601
 40
0.8421299102060559
 40
1.0
 40
1.0
 40
1.0
 40
1.0
 10
9.592899079334897
 20
6.645086134764345
 30
0.0
 10
9.592422736496445
 20
6.646154595763949
 30
0.0
 10
9.591440497172888
 20
6.648357808082433
 30
0.0
 10
9.590290871209685
 20
6.651811307652888
 30
0.0
 10
9.589265384496652
 20
6.655474524756123
 30
0.0
 10
9.588460565444562
 20
6.659351991624978
 30
0.0
 10
9.587830191502054
 20
6.663443229504868
 30
0.0
 10
9.587374904130607
 20
6.667755181904856
 30
0.0
 10
9.587117256300957
 20
6.672273079918397
 30
0.0
 10
9.587079279527149
 20
6.675316090270054
 30
0.0
 10
9.587059640822394
 20
6.676889704241706
 30
0.0
  0
SPLINE
  5
33D
330
1F
100
AcDbEntity
  8
0
  6
Continuous
 62
     7
370
    18
100
AcDbSpline
210
0.0
220
0.0
230
1.0
 70
     8
 71
     3
 72
    11
 73
     7
 74
     0
 42
0.000000001
 43
0.00000001
 40
0.0
 40
0.0
 40
0.0
 40
0.0
 40
0.1493949139837248
 40
0.3193908560959122
 40
0.659530026843188
 40
1.0
 40
1.0
 40
1.0
 40
1.0
 10
9.613208100587569
 20
6.638182618621735
 30
0.0
 10
9.61393422766526
 20
6.638689576694637
 30
0.0
 10
9.615486612166132
 20
6.639773400558458
 30
0.0
 10
9.616938520400428
 20
6.644244350467873
 30
0.0
 10
9.617773920899578
 20
6.650727813670501
 30
0.0
 10
9.617846124671841
 20
6.656324365170454
 30
0.0
 10
9.617882244104885
 20
6.659124000990846
 30
0.0
  0
SPLINE
  5
33E
330
1F
100
AcDbEntity
  8
0
  6
Continuous
 62
     7
370
    18
100
AcDbSpline
210
0.0
220
0.0
230
1.0
 70
     8
 71
     3
 72
    23
 73
    19
 74
     0
 42
0.000000001
 43
0.00000001
 40
0.0
 40
0.0
 40
0.0
 40
0.0
 40
0.1156341026995446
 40
0.2215505648509135
 40
0.3170614885131583
 40
0.4031682101561656
 40
0.4802018633519436
 40
0.5476729137517633
 40
0.6070619439212038
 40
0.6586807285305007
 40
0.7057532347379953
 40
0.7501195176610335
 40
0.792590568079876
 40
0.8338794889926727
 40
0.8747756796479279
 40
0.9156225135228682
 40
0.9568788497046059
 40
1.0
 40
1.0
 40
1.0
 40
1.0
 10
9.617882244104885
 20
6.659124000990846
 30
0.0
 10
9.6178749470823
 20
6.660435373149863
 30
0.0
 10
9.617860966263166
 20
6.662947912580509
 30
0.0
 10
9.617702954129285
 20
6.666619555774506
 30
0.0
 10
9.617455340831468
 20
6.670000706884124
 30
0.0
 10
9.617116626923849
 20
6.673095191416239
 30
0.0
 10
9.61666653345112
 20
6.675911649625205
 30
0.0
 10
9.616120458366458
 20
6.678446383651707
 30
0.0
 10
9.61547025829396
 20
6.680700135931262
 30
0.0
 10
9.614695540196415
 20
6.682701155202265
 30
0.0
 10
9.613836557718834
 20
6.684479632589804
 30
0.0
 10
9.612923910809831
 20
6.686095041410861
 30
0.0
 10
9.611975261187474
 20
6.687596617150653
 30
0.0
 10
9.61093639738999
 20
6.688943288856951
 30
0.0
 10
9.609851483130418
 20
6.690182201960771
 30
0.0
 10
9.608697261270258
 20
6.691258618041396
 30
0.0
 10
9.607488635266655
 20
6.692219540726455
 30
0.0
 10
9.606661960042471
 20
6.692725939588446
 30
0.0
 10
9.606239487318101
 20
6.692984734941911
 30
0.0
  0
SPLINE
  5
33F
330
1F
100
AcDbEntity
  8
0
  6
Continuous
 62
     7
370
    18
100
AcDbSpline
210
0.0
220
0.0
230
1.0
 70
     8
 71
     3
 72
     9
 73
     5
 74
     0
 42
0.000000001
 43
0.00000001
 40
0.0
 40
0.0
 40
0.0
 40
0.0
 40
0.6920350322428048
 40
0.9999999999999999
 40
0.9999999999999999
 40
0.9999999999999999
 40
0.9999999999999999
 10
9.606239487318101
 20
6.692984734941911
 30
0.0
 10
9.604437682165258
 20
6.693796608551737
 30
0.0
 10
9.601834049301468
 20
6.694969776920389
 30
0.0
 10
9.600094205747405
 20
6.693837252847502
 30
0.0
 10
9.599558394883376
 20
6.693488475107912
 30
0.0
  0
SPLINE
  5
340
330
1F
100
AcDbEntity
  8
0
  6
Continuous
 62
     7
370
    18
100
AcDbSpline
210
0.0
220
0.0
230
1.0
 70
     8
 71
     3
 72
    23
 73
    19
 74
     0
 42
0.000000001
 43
0.00000001
 40
0.0
 40
0.0
 40
0.0
 40
0.0
 40
0.1156341026995446
 40
0.2215505648509135
 40
0.3170614885131583
 40
0.4031682101561656
 40
0.4802018633519436
 40
0.5476729137517633
 40
0.6070619439212038
 40
0.6586807285305007
 40
0.7057532347379953
 40
0.7501195176610335
 40
0.792590568079876
 40
0.8338794889926727
 40
0.8747756796479279
 40
0.9156225135228682
 40
0.9568788497046059
 40
1.0
 40
1.0
 40
1.0
 40
1.0
 10
9.617175137323699
 20
6.658715796934934
 30
0.0
 10
9.617167840301114
 20
6.660027169093952
 30
0.0
 10
9.617153859481979
 20
6.662539708524599
 30
0.0
 10
9.616995847348099
 20
6.666211351718595
 30
0.0
 10
9.616748234050283
 20
6.669592502828212
 30
0.0
 10
9.616409520142662
 20
6.672686987360329
 30
0.0
 10
9.615959426669933
 20
6.675503445569294
 30
0.0
 10
9.615413351585271
 20
6.678038179595795
 30
0.0
 10
9.614763151512776
 20
6.68029193187535
 30
0.0
 10
9.613988433415228
 20
6.682292951146353
 30
0.0
 10
9.613129450937647
 20
6.684071428533892
 30
0.0
 10
9.612216804028645
 20
6.685686837354949
 30
0.0
 10
9.611268154406288
 20
6.687188413094742
 30
0.0
 10
9.610229290608803
 20
6.688535084801041
 30
0.0
 10
9.609144376349233
 20
6.689773997904859
 30
0.0
 10
9.607990154489071
 20
6.690850413985484
 30
0.0
 10
9.606781528485469
 20
6.691811336670543
 30
0.0
 10
9.605954853261284
 20
6.692317735532535
 30
0.0
 10
9.605532380536914
 20
6.692576530885999
 30
0.0
  0
SPLINE
  5
341
330
1F
100
AcDbEntity
  8
0
  6
Continuous
 62
     7
370
    18
100
AcDbSpline
210
0.0
220
0.0
230
1.0
 70
     8
 71
     3
 72
    23
 73
    19
 74
     0
 42
0.000000001
 43
0.00000001
 40
0.0
 40
0.0
 40
0.0
 40
0.0
 40
0.0407861577516997
 40
0.0808781390926995
 40
0.1202808817853034
 40
0.1602037870694768
 40
0.2004809323198157
 40
0.2425508656877319
 40
0.2867496219958774
 40
0.3332473598987213
 40
0.3843802392510082
 40
0.4437238495442145
 40
0.5116298421176319
 40
0.5889765724864078
 40
0.6762109599366941
 40
0.7736812652401788
 40
0.8815552458988715
 40
1.0
 40
1.0
 40
1.0
 40
1.0
 10
9.605616661092764
 20
6.638248849710232
 30
0.0
 10
9.606014665979842
 20
6.638036628071058
 30
0.0
 10
9.606803901749792
 20
6.637615796784227
 30
0.0
 10
9.607965673040164
 20
6.637176942305206
 30
0.0
 10
9.609072722596236
 20
6.636970603287502
 30
0.0
 10
9.6101339665489
 20
6.636925033940615
 30
0.0
 10
9.611150137706325
 20
6.637069688849672
 30
0.0
 10
9.612097392811211
 20
6.637442715288548
 30
0.0
 10
9.6130179951799
 20
6.637966866254692
 30
0.0
 10
9.613890393161416
 20
6.63870844087093
 30
0.0
 10
9.614701087272369
 20
6.639750228302723
 30
0.0
 10
9.615350678226928
 20
6.641247850649863
 30
0.0
 10
9.615928557351339
 20
6.64312318584336
 30
0.0
 10
9.616386873698959
 20
6.645428100429029
 30
0.0
 10
9.616737592203956
 20
6.6481522042464
 30
0.0
 10
9.616999078604138
 20
6.651285738301966
 30
0.0
 10
9.617153217290497
 20
6.654842773960303
 30
0.0
 10
9.61716760661634
 20
6.657385205765395
 30
0.0
 10
9.617175137323699
 20
6.658715796934934
 30
0.0
  0
SPLINE
  5
342
330
1F
100
AcDbEntity
  8
0
  6
Continuous
 62
     7
370
    18
100
AcDbSpline
210
0.0
220
0.0
230
1.0
 70
     8
 71
     3
 72
    23
 73
    19
 74
     0
 42
0.000000001
 43
0.00000001
 40
0.0
 40
0.0
 40
0.0
 40
0.0
 40
0.1184055081537719
 40
0.226654332816702
 40
0.324092341928604
 40
0.4117048030053215
 40
0.4890259050064171
 40
0.5569093973430758
 40
0.6162333444927071
 40
0.6673492812770764
 40
0.7135123932013491
 40
0.7576965045209799
 40
0.7994925114422922
 40
0.8399760647439396
 40
0.8798857418167766
 40
0.9191486593857426
 40
0.9592273564930835
 40
1.0
 40
1.0
 40
1.0
 40
1.0
 10
9.594058184861831
 20
6.672060929532037
 30
0.0
 10
9.594065835960341
 20
6.67072158341771
 30
0.0
 10
9.594080481855244
 20
6.668157778703835
 30
0.0
 10
9.594233495906028
 20
6.664418687483724
 30
0.0
 10
9.59449690329632
 20
6.660973143506816
 30
0.0
 10
9.594845145071199
 20
6.657840461684918
 30
0.0
 10
9.595304965211257
 20
6.65500123741555
 30
0.0
 10
9.595882323781593
 20
6.652458588799327
 30
0.0
 10
9.596533144213176
 20
6.650211443529969
 30
0.0
 10
9.597338522164604
 20
6.648236181072243
 30
0.0
 10
9.598220322066803
 20
6.646495991454763
 30
0.0
 10
9.59913072020207
 20
6.644911611845695
 30
0.0
 10
9.60009113509152
 20
6.643457205116138
 30
0.0
 10
9.601095300144067
 20
6.642127120680522
 30
0.0
 10
9.602158795703115
 20
6.640945030021715
 30
0.0
 10
9.603269992621504
 20
6.639891754947418
 30
0.0
 10
9.604429132686194
 20
6.638985616076929
 30
0.0
 10
9.605218559741907
 20
6.638495839747882
 30
0.0
 10
9.605616661092764
 20
6.638248849710232
 30
0.0
  0
SPLINE
  5
343
330
1F
100
AcDbEntity
  8
0
  6
Continuous
 62
     7
370
    18
100
AcDbSpline
210
0.0
220
0.0
230
1.0
 70
     8
 71
     3
 72
    15
 73
    11
 74
     0
 42
0.000000001
 43
0.00000001
 40
0.0
 40
0.0
 40
0.0
 40
0.0
 40
0.0838887288335153
 40
0.1771553326743518
 40
0.2825157085895131
 40
0.3999935157252225
 40
0.5294873536901311
 40
0.672799776764538
 40
0.8295345107876441
 40
1.0
 40
1.0
 40
1.0
 40
1.0
 10
9.597537767810518
 20
6.69243674633354
 30
0.0
 10
9.59725135967836
 20
6.692049159973213
 30
0.0
 10
9.596646526005966
 20
6.691230659185821
 30
0.0
 10
9.595970004366595
 20
6.689591696011833
 30
0.0
 10
9.595370064433336
 20
6.687614644176477
 30
0.0
 10
9.594882794796407
 20
6.68525000941909
 30
0.0
 10
9.594522237121854
 20
6.682493319403851
 30
0.0
 10
9.59424298721423
 20
6.679375513870085
 30
0.0
 10
9.594096524254685
 20
6.675854739528482
 30
0.0
 10
9.594071317258127
 20
6.673360423672072
 30
0.0
 10
9.594058184861831
 20
6.672060929532037
 30
0.0
  0
SPLINE
  5
344
330
1F
100
AcDbEntity
  8
0
  6
Continuous
 62
     7
370
    18
100
AcDbSpline
210
0.0
220
0.0
230
1.0
 70
     8
 71
     3
 72
    15
 73
    11
 74
     0
 42
0.000000001
 43
0.00000001
 40
0.0
 40
0.0
 40
0.0
 40
0.0
 40
0.1276828691364362
 40
0.2517742563342023
 40
0.3728062010709587
 40
0.4927364553926362
 40
0.6140149012905313
 40
0.7371600623355257
 40
0.8655879353818473
 40
1.0
 40
1.0
 40
1.0
 40
1.0
 10
9.605532380536914
 20
6.692576530885999
 30
0.0
 10
9.605134252924698
 20
6.692794425783858
 30
0.0
 10
9.604349196290476
 20
6.693224086600836
 30
0.0
 10
9.603200654341585
 20
6.693658243744737
 30
0.0
 10
9.602107239001112
 20
6.693915817871264
 30
0.0
 10
9.601076226957638
 20
6.69397202049301
 30
0.0
 10
9.600097412869571
 20
6.69386841030375
 30
0.0
 10
9.599169608988966
 20
6.693590719233076
 30
0.0
 10
9.598315060404637
 20
6.693101077948895
 30
0.0
 10
9.597800768378892
 20
6.692661526028791
 30
0.0
 10
9.597537767810518
 20
6.69243674633354
 30
0.0
  0
LINE
  5
345
330
1F
100
AcDbEntity
  8
0
  6
Continuous
 62
     7
370
    18
100
AcDbLine
 10
9.6062394873
 20
6.6929847349
 30
0.0
 11
9.6055323805
 21
6.6925765309
 31
0.0
  0
LINE
  5
346
330
1F
100
AcDbEntity
  8
0
  6
Continuous
 62
     7
370
    18
100
AcDbLine
 10
9.6178822441
 20
6.659124001
 30
0.0
 11
9.6171751373
 21
6.6587157969
 31
0.0
  0
LINE
  5
347
330
1F
100
AcDbEntity
  8
0
  6
Continuous
 62
     7
370
    18
100
AcDbLine
 10
9.5870596408
 20
6.6768897042
 30
0.0
 11
9.586352534
 21
6.6764815002
 31
0.0
  0
LINE
  5
348
330
1F
100
AcDbEntity
  8
0
  6
Continuous
 62
     7
370
    18
100
AcDbLine
 10
9.6063237679
 20
6.6306486727
 30
0.0
 11
9.6056166611
 21
6.6302404687
 31
0.0
  0
LINE
  5
349
330
1F
100
AcDbEntity
  8
0
  6
Continuous
 62
     7
370
    18
100
AcDbLine
 10
9.6371463712
 20
6.6137449827
 30
0.0
 11
9.6371463712
 21
6.6218267758
 31
0.0
  0
LINE
  5
34A
330
1F
100
AcDbEntity
  8
0
  6
Continuous
 62
     7
370
    18
100
AcDbLine
 10
9.6441449152
 20
6.6097048092
 30
0.0
 11
9.6371463712
 21
6.6137449827
 31
0.0
  0
LINE
  5
34B
330
1F
100
AcDbEntity
  8
0
  6
Continuous
 62
     7
370
    18
100
AcDbLine
 10
9.6371463712
 20
6.6137449827
 30
0.0
 11
9.6364392644
 21
6.6133367787
 31
0.0
  0
LINE
  5
34C
330
1F
100
AcDbEntity
  8
0
  6
Continuous
 62
     7
370
    18
100
AcDbLine
 10
9.567088407
 20
6.6541885846
 30
0.0
 11
9.560089863
 21
6.658228758
 31
0.0
  0
LINE
  5
34D
330
1F
100
AcDbEntity
  8
0
  6
Continuous
 62
     7
370
    18
100
AcDbLine
 10
9.560089863
 20
6.658228758
 30
0.0
 11
9.560089863
 21
6.7123131369
 31
0.0
  0
SPLINE
  5
34E
330
1F
100
AcDbEntity
  8
0
  6
Continuous
 62
     7
370
    18
100
AcDbSpline
210
0.0
220
0.0
230
1.0
 70
     8
 71
     3
 72
    15
 73
    11
 74
     0
 42
0.000000001
 43
0.00000001
 40
0.0
 40
0.0
 40
0.0
 40
0.0
 40
0.1116746448344054
 40
0.2321035109070463
 40
0.3623296061453155
 40
0.5015403706238744
 40
0.6415111562240621
 40
0.7710895894770902
 40
0.8901574839199068
 40
1.0
 40
1.0
 40
1.0
 40
1.0
 10
9.560089862950216
 20
6.712313136932453
 30
0.0
 10
9.559646015645763
 20
6.71207550598951
 30
0.0
 10
9.55872352766451
 20
6.711581616116488
 30
0.0
 10
9.557169180636786
 20
6.711023020739051
 30
0.0
 10
9.555422821243644
 20
6.710579853657628
 30
0.0
 10
9.553532761407462
 20
6.710241077239548
 30
0.0
 10
9.551597108380184
 20
6.710020948256164
 30
0.0
 10
9.549722142632069
 20
6.709901593244288
 30
0.0
 10
9.547948590631812
 20
6.709910417175891
 30
0.0
 10
9.546780296618405
 20
6.710029934736307
 30
0.0
 10
9.546219691473096
 20
6.710087285162275
 30
0.0
  0
LINE
  5
34F
330
1F
100
AcDbEntity
  8
0
  6
Continuous
 62
     7
370
    18
100
AcDbLine
 10
9.5462196915
 20
6.7100872852
 30
0.0
 11
9.5462196915
 21
6.7182903144
 31
0.0
  0
SPLINE
  5
350
330
1F
100
AcDbEntity
  8
0
  6
Continuous
 62
     7
370
    18
100
AcDbSpline
210
0.0
220
0.0
230
1.0
 70
     8
 71
     3
 72
     9
 73
     5
 74
     0
 42
0.000000001
 43
0.00000001
 40
0.0
 40
0.0
 40
0.0
 40
0.0
 40
0.4652018929809331
 40
1.0
 40
1.0
 40
1.0
 40
1.0
 10
9.557656904420686
 20
6.721133954871927
 30
0.0
 10
9.55852103935726
 20
6.721615787737864
 30
0.0
 10
9.560378587552165
 20
6.722651537749218
 30
0.0
 10
9.561682671465135
 20
6.724504979882496
 30
0.0
 10
9.562380093073186
 20
6.725496197226843
 30
0.0
  0
LINE
  5
351
330
1F
100
AcDbEntity
  8
0
  6
Continuous
 62
     7
370
    18
100
AcDbLine
 10
9.5928990793
 20
6.6450861348
 30
0.0
 11
9.5921919726
 21
6.6446779307
 31
0.0
  0
LINE
  5
352
330
1F
100
AcDbEntity
  8
0
  6
Continuous
 62
     7
370
    18
100
AcDbLine
 10
9.5462196915
 20
6.7100872852
 30
0.0
 11
9.5455125847
 21
6.7096790811
 31
0.0
  0
LINE
  5
353
330
1F
100
AcDbEntity
  8
0
  6
Continuous
 62
     7
370
    18
100
AcDbLine
 10
9.560089863
 20
6.7123131369
 30
0.0
 11
9.5593827562
 21
6.7119049329
 31
0.0
  0
LINE
  5
354
330
1F
100
AcDbEntity
  8
0
  6
Continuous
 62
     7
370
    18
100
AcDbLine
 10
9.560089863
 20
6.658228758
 30
0.0
 11
9.5593827562
 21
6.657820554
 31
0.0
  0
SPLINE
  5
355
330
1F
100
AcDbEntity
  8
0
  6
Continuous
 62
     7
370
    18
100
AcDbSpline
210
0.0
220
0.0
230
1.0
 70
     8
 71
     3
 72
    12
 73
     8
 74
     0
 42
0.000000001
 43
0.00000001
 40
0.0
 40
0.0
 40
0.0
 40
0.0
 40
0.2471857709918824
 40
0.4942828086206967
 40
0.7410846441048276
 40
0.9260925042387187
 40
1.0
 40
1.0
 40
1.0
 40
1.0
 10
9.466851488020684
 20
6.746284393746636
 30
0.0
 10
9.466893181059376
 20
6.748878757632887
 30
0.0
 10
9.46697655217003
 20
6.754066554095176
 30
0.0
 10
9.467856019459825
 20
6.761388090043784
 30
0.0
 10
9.469685666217245
 20
6.767196374415837
 30
0.0
 10
9.471834068843972
 20
6.770871589560563
 30
0.0
 10
9.473642365237144
 20
6.771626001530647
 30
0.0
 10
9.474158544192816
 20
6.771841348740503
 30
0.0
  0
SPLINE
  5
356
330
1F
100
AcDbEntity
  8
0
  6
Continuous
 62
     7
370
    18
100
AcDbSpline
210
0.0
220
0.0
230
1.0
 70
     8
 71
     3
 72
    10
 73
     6
 74
     0
 42
0.000000001
 43
0.00000001
 40
0.0
 40
0.0
 40
0.0
 40
0.0
 40
0.2344019857848205
 40
0.6168516049505235
 40
1.0
 40
1.0
 40
1.0
 40
1.0
 10
9.498117162804213
 20
6.698547808287745
 30
0.0
 10
9.497392035198509
 20
6.698098871670645
 30
0.0
 10
9.495483791435666
 20
6.696917451334752
 30
0.0
 10
9.491188299529213
 20
6.697490780661814
 30
0.0
 10
9.487807538452897
 20
6.699191984134622
 30
0.0
 10
9.486115615072238
 20
6.700043362231425
 30
0.0
  0
SPLINE
  5
357
330
1F
100
AcDbEntity
  8
0
  6
Continuous
 62
     7
370
    18
100
AcDbSpline
210
0.0
220
0.0
230
1.0
 70
     8
 71
     3
 72
    15
 73
    11
 74
     0
 42
0.000000001
 43
0.00000001
 40
0.0
 40
0.0
 40
0.0
 40
0.0
 40
0.1379032299933958
 40
0.2688733426002942
 40
0.3951781273461131
 40
0.5170892381308898
 40
0.6367430265135503
 40
0.756221816463797
 40
0.8766283594636818
 40
1.0
 40
1.0
 40
1.0
 40
1.0
 10
9.486115615072238
 20
6.700043362231425
 30
0.0
 10
9.485420549531247
 20
6.700467510262593
 30
0.0
 10
9.484065363033134
 20
6.701294482182705
 30
0.0
 10
9.482086213078313
 20
6.7027403184079
 30
0.0
 10
9.480228675279054
 20
6.704346469600082
 30
0.0
 10
9.478477082367773
 20
6.706073567130976
 30
0.0
 10
9.476851122727716
 20
6.707969803852513
 30
0.0
 10
9.475343033048139
 20
6.710005500961134
 30
0.0
 10
9.473922509354127
 20
6.712171045392553
 30
0.0
 10
9.473104769556151
 20
6.713704680061615
 30
0.0
 10
9.472690926533186
 20
6.714480824269275
 30
0.0
  0
SPLINE
  5
358
330
1F
100
AcDbEntity
  8
0
  6
Continuous
 62
     7
370
    18
100
AcDbSpline
210
0.0
220
0.0
230
1.0
 70
     8
 71
     3
 72
    15
 73
    11
 74
     0
 42
0.000000001
 43
0.00000001
 40
0.0
 40
0.0
 40
0.0
 40
0.0
 40
0.097420668177216
 40
0.2008855880393196
 40
0.3111719701726499
 40
0.4297979458253723
 40
0.557739926364589
 40
0.6947152693641601
 40
0.8421299102060559
 40
0.9999999999999999
 40
0.9999999999999999
 40
0.9999999999999999
 40
0.9999999999999999
 10
9.472690926533186
 20
6.714480824269275
 30
0.0
 10
9.472214583694733
 20
6.715549285268881
 30
0.0
 10
9.471232344371177
 20
6.717752497587363
 30
0.0
 10
9.470082718407973
 20
6.721205997157819
 30
0.0
 10
9.469057231694938
 20
6.724869214261054
 30
0.0
 10
9.46825241264285
 20
6.728746681129908
 30
0.0
 10
9.46762203870034
 20
6.732837919009798
 30
0.0
 10
9.467166751328893
 20
6.737149871409787
 30
0.0
 10
9.466909103499244
 20
6.741667769423327
 30
0.0
 10
9.466871126725437
 20
6.744710779774985
 30
0.0
 10
9.466851488020684
 20
6.746284393746636
 30
0.0
  0
SPLINE
  5
359
330
1F
100
AcDbEntity
  8
0
  6
Continuous
 62
     7
370
    18
100
AcDbSpline
210
0.0
220
0.0
230
1.0
 70
     8
 71
     3
 72
    11
 73
     7
 74
     0
 42
0.000000001
 43
0.00000001
 40
0.0
 40
0.0
 40
0.0
 40
0.0
 40
0.1493949139838061
 40
0.3193908560959807
 40
0.6595300268432203
 40
1.0
 40
1.0
 40
1.0
 40
1.0
 10
9.492999947785856
 20
6.707577308126665
 30
0.0
 10
9.493726074863545
 20
6.708084266199567
 30
0.0
 10
9.49527845936442
 20
6.709168090063388
 30
0.0
 10
9.496730367598715
 20
6.713639039972803
 30
0.0
 10
9.497565768097868
 20
6.720122503175432
 30
0.0
 10
9.497637971870127
 20
6.725719054675386
 30
0.0
 10
9.497674091303173
 20
6.728518690495776
 30
0.0
  0
SPLINE
  5
35A
330
1F
100
AcDbEntity
  8
0
  6
Continuous
 62
     7
370
    18
100
AcDbSpline
210
0.0
220
0.0
230
1.0
 70
     8
 71
     3
 72
    23
 73
    19
 74
     0
 42
0.000000001
 43
0.00000001
 40
0.0
 40
0.0
 40
0.0
 40
0.0
 40
0.1156341026995447
 40
0.2215505648509137
 40
0.3170614885131584
 40
0.4031682101561657
 40
0.4802018633519437
 40
0.5476729137517635
 40
0.607061943921204
 40
0.6586807285305017
 40
0.7057532347379962
 40
0.7501195176610321
 40
0.7925905680798762
 40
0.8338794889926728
 40
0.874775679647928
 40
0.9156225135228683
 40
0.9568788497046059
 40
1.0
 40
1.0
 40
1.0
 40
1.0
 10
9.497674091303173
 20
6.728518690495776
 30
0.0
 10
9.497666794280587
 20
6.729830062654793
 30
0.0
 10
9.497652813461453
 20
6.73234260208544
 30
0.0
 10
9.497494801327573
 20
6.736014245279437
 30
0.0
 10
9.497247188029755
 20
6.739395396389054
 30
0.0
 10
9.496908474122137
 20
6.742489880921172
 30
0.0
 10
9.496458380649408
 20
6.745306339130136
 30
0.0
 10
9.495912305564746
 20
6.747841073156637
 30
0.0
 10
9.49526210549225
 20
6.750094825436192
 30
0.0
 10
9.4944873873947
 20
6.752095844707195
 30
0.0
 10
9.493628404917121
 20
6.753874322094735
 30
0.0
 10
9.492715758008117
 20
6.755489730915793
 30
0.0
 10
9.491767108385762
 20
6.756991306655584
 30
0.0
 10
9.490728244588276
 20
6.758337978361882
 30
0.0
 10
9.489643330328706
 20
6.759576891465701
 30
0.0
 10
9.488489108468546
 20
6.760653307546327
 30
0.0
 10
9.487280482464943
 20
6.761614230231386
 30
0.0
 10
9.486453807240759
 20
6.762120629093377
 30
0.0
 10
9.486031334516388
 20
6.762379424446841
 30
0.0
  0
SPLINE
  5
35B
330
1F
100
AcDbEntity
  8
0
  6
Continuous
 62
     7
370
    18
100
AcDbSpline
210
0.0
220
0.0
230
1.0
 70
     8
 71
     3
 72
     9
 73
     5
 74
     0
 42
0.000000001
 43
0.00000001
 40
0.0
 40
0.0
 40
0.0
 40
0.0
 40
0.6920350322428693
 40
1.0
 40
1.0
 40
1.0
 40
1.0
 10
9.486031334516388
 20
6.762379424446841
 30
0.0
 10
9.484229529363548
 20
6.763191298056668
 30
0.0
 10
9.481625896499756
 20
6.764364466425319
 30
0.0
 10
9.479886052945693
 20
6.763231942352433
 30
0.0
 10
9.479350242081663
 20
6.762883164612842
 30
0.0
  0
LINE
  5
35C
330
1F
100
AcDbEntity
  8
0
  6
Continuous
 62
     7
370
    18
100
AcDbLine
 10
9.5115442628
 20
6.7067193991
 30
0.0
 11
9.5115442628
 21
6.7139113721
 31
0.0
  0
LINE
  5
35D
330
1F
100
AcDbEntity
  8
0
  6
Continuous
 62
     7
370
    18
100
AcDbLine
 10
9.5331835434
 20
6.6942273084
 30
0.0
 11
9.5115442628
 21
6.7067193991
 31
0.0
  0
LINE
  5
35E
330
1F
100
AcDbEntity
  8
0
  6
Continuous
 62
     7
370
    18
100
AcDbLine
 10
9.5115442628
 20
6.7067193991
 30
0.0
 11
9.510837156
 21
6.7063111951
 31
0.0
  0
LINE
  5
35F
330
1F
100
AcDbEntity
  8
0
  6
Continuous
 62
     7
370
    18
100
AcDbLine
 10
9.4860313345
 20
6.7623794244
 30
0.0
 11
9.4853242277
 21
6.7619712204
 31
0.0
  0
LINE
  5
360
330
1F
100
AcDbEntity
  8
0
  6
Continuous
 62
     7
370
    18
100
AcDbLine
 10
9.4976740913
 20
6.7285186905
 30
0.0
 11
9.4969669845
 21
6.7281104864
 31
0.0
  0
SPLINE
  5
361
330
1F
100
AcDbEntity
  8
0
  6
Continuous
 62
     7
370
    18
100
AcDbSpline
210
0.0
220
0.0
230
1.0
 70
     8
 71
     3
 72
    23
 73
    19
 74
     0
 42
0.000000001
 43
0.00000001
 40
0.0
 40
0.0
 40
0.0
 40
0.0
 40
0.1156341026995447
 40
0.2215505648509137
 40
0.3170614885131584
 40
0.4031682101561657
 40
0.4802018633519437
 40
0.5476729137517635
 40
0.607061943921204
 40
0.6586807285305017
 40
0.7057532347379962
 40
0.7501195176610321
 40
0.7925905680798762
 40
0.8338794889926728
 40
0.874775679647928
 40
0.9156225135228683
 40
0.9568788497046059
 40
1.0
 40
1.0
 40
1.0
 40
1.0
 10
9.496966984521986
 20
6.728110486439864
 30
0.0
 10
9.4969596874994
 20
6.729421858598883
 30
0.0
 10
9.496945706680266
 20
6.731934398029529
 30
0.0
 10
9.496787694546386
 20
6.735606041223527
 30
0.0
 10
9.496540081248568
 20
6.738987192333142
 30
0.0
 10
9.496201367340952
 20
6.74208167686526
 30
0.0
 10
9.49575127386822
 20
6.744898135074226
 30
0.0
 10
9.495205198783559
 20
6.747432869100725
 30
0.0
 10
9.494554998711063
 20
6.74968662138028
 30
0.0
 10
9.493780280613514
 20
6.751687640651285
 30
0.0
 10
9.492921298135935
 20
6.753466118038823
 30
0.0
 10
9.492008651226932
 20
6.755081526859881
 30
0.0
 10
9.491060001604575
 20
6.756583102599673
 30
0.0
 10
9.49002113780709
 20
6.757929774305971
 30
0.0
 10
9.488936223547519
 20
6.759168687409789
 30
0.0
 10
9.487782001687359
 20
6.760245103490417
 30
0.0
 10
9.486573375683756
 20
6.761206026175474
 30
0.0
 10
9.485746700459572
 20
6.761712425037466
 30
0.0
 10
9.485324227735202
 20
6.761971220390931
 30
0.0
  0
SPLINE
  5
362
330
1F
100
AcDbEntity
  8
0
  6
Continuous
 62
     7
370
    18
100
AcDbSpline
210
0.0
220
0.0
230
1.0
 70
     8
 71
     3
 72
    23
 73
    19
 74
     0
 42
0.000000001
 43
0.00000001
 40
0.0
 40
0.0
 40
0.0
 40
0.0
 40
0.0407861577516981
 40
0.0808781390926979
 40
0.1202808817853033
 40
0.1602037870694768
 40
0.2004809323198157
 40
0.2425508656877319
 40
0.2867496219958774
 40
0.3332473598987214
 40
0.3843802392510082
 40
0.4437238495442138
 40
0.5116298421176317
 40
0.5889765724864072
 40
0.6762109599366939
 40
0.7736812652401784
 40
0.8815552458988714
 40
1.0
 40
1.0
 40
1.0
 40
1.0
 10
9.485408508291053
 20
6.707643539215162
 30
0.0
 10
9.485806513178128
 20
6.707431317575989
 30
0.0
 10
9.48659574894808
 20
6.707010486289158
 30
0.0
 10
9.487757520238452
 20
6.706571631810138
 30
0.0
 10
9.488864569794524
 20
6.706365292792433
 30
0.0
 10
9.48992581374719
 20
6.706319723445546
 30
0.0
 10
9.490941984904612
 20
6.706464378354602
 30
0.0
 10
9.491889240009497
 20
6.706837404793478
 30
0.0
 10
9.492809842378188
 20
6.707361555759622
 30
0.0
 10
9.493682240359702
 20
6.708103130375862
 30
0.0
 10
9.494492934470657
 20
6.709144917807653
 30
0.0
 10
9.495142525425216
 20
6.710642540154795
 30
0.0
 10
9.495720404549626
 20
6.712517875348291
 30
0.0
 10
9.496178720897246
 20
6.71482278993396
 30
0.0
 10
9.496529439402241
 20
6.71754689375133
 30
0.0
 10
9.496790925802426
 20
6.720680427806896
 30
0.0
 10
9.496945064488784
 20
6.724237463465234
 30
0.0
 10
9.496959453814629
 20
6.726779895270325
 30
0.0
 10
9.496966984521986
 20
6.728110486439864
 30
0.0
  0
SPLINE
  5
363
330
1F
100
AcDbEntity
  8
0
  6
Continuous
 62
     7
370
    18
100
AcDbSpline
210
0.0
220
0.0
230
1.0
 70
     8
 71
     3
 72
    23
 73
    19
 74
     0
 42
0.000000001
 43
0.00000001
 40
0.0
 40
0.0
 40
0.0
 40
0.0
 40
0.1184055081537718
 40
0.2266543328167021
 40
0.3240923419286043
 40
0.4117048030053215
 40
0.4890259050064168
 40
0.5569093973430759
 40
0.6162333444927071
 40
0.6673492812770774
 40
0.7135123932013491
 40
0.7576965045209787
 40
0.7994925114422934
 40
0.8399760647439394
 40
0.8798857418167779
 40
0.9191486593857424
 40
0.9592273564930834
 40
1.0
 40
1.0
 40
1.0
 40
1.0
 10
9.473850032060119
 20
6.741455619036967
 30
0.0
 10
9.473857683158629
 20
6.74011627292264
 30
0.0
 10
9.473872329053531
 20
6.737552468208765
 30
0.0
 10
9.474025343104316
 20
6.733813376988655
 30
0.0
 10
9.474288750494608
 20
6.730367833011746
 30
0.0
 10
9.474636992269486
 20
6.727235151189848
 30
0.0
 10
9.475096812409545
 20
6.724395926920479
 30
0.0
 10
9.47567417097988
 20
6.721853278304256
 30
0.0
 10
9.476324991411465
 20
6.719606133034899
 30
0.0
 10
9.477130369362891
 20
6.717630870577175
 30
0.0
 10
9.47801216926509
 20
6.715890680959695
 30
0.0
 10
9.478922567400357
 20
6.714306301350626
 30
0.0
 10
9.479882982289807
 20
6.712851894621068
 30
0.0
 10
9.480887147342353
 20
6.711521810185452
 30
0.0
 10
9.4819506429014
 20
6.710339719526647
 30
0.0
 10
9.483061839819792
 20
6.709286444452348
 30
0.0
 10
9.484220979884482
 20
6.708380305581861
 30
0.0
 10
9.485010406940194
 20
6.707890529252812
 30
0.0
 10
9.485408508291053
 20
6.707643539215162
 30
0.0
  0
SPLINE
  5
364
330
1F
100
AcDbEntity
  8
0
  6
Continuous
 62
     7
370
    18
100
AcDbSpline
210
0.0
220
0.0
230
1.0
 70
     8
 71
     3
 72
    15
 73
    11
 74
     0
 42
0.000000001
 43
0.00000001
 40
0.0
 40
0.0
 40
0.0
 40
0.0
 40
0.0838887288335164
 40
0.1771553326743529
 40
0.2825157085895134
 40
0.3999935157252228
 40
0.5294873536901313
 40
0.6727997767645384
 40
0.8295345107876443
 40
1.0
 40
1.0
 40
1.0
 40
1.0
 10
9.477329615008806
 20
6.76183143583847
 30
0.0
 10
9.47704320687665
 20
6.761443849478144
 30
0.0
 10
9.476438373204253
 20
6.760625348690751
 30
0.0
 10
9.475761851564883
 20
6.758986385516764
 30
0.0
 10
9.475161911631623
 20
6.757009333681408
 30
0.0
 10
9.474674641994694
 20
6.754644698924021
 30
0.0
 10
9.47431408432014
 20
6.751888008908781
 30
0.0
 10
9.474034834412516
 20
6.748770203375015
 30
0.0
 10
9.473888371452974
 20
6.745249429033413
 30
0.0
 10
9.473863164456416
 20
6.742755113177004
 30
0.0
 10
9.473850032060119
 20
6.741455619036967
 30
0.0
  0
SPLINE
  5
365
330
1F
100
AcDbEntity
  8
0
  6
Continuous
 62
     7
370
    18
100
AcDbSpline
210
0.0
220
0.0
230
1.0
 70
     8
 71
     3
 72
    15
 73
    11
 74
     0
 42
0.000000001
 43
0.00000001
 40
0.0
 40
0.0
 40
0.0
 40
0.0
 40
0.127682869136431
 40
0.2517742563342023
 40
0.3728062010709587
 40
0.4927364553926316
 40
0.6140149012905266
 40
0.7371600623355292
 40
0.8655879353818473
 40
1.0
 40
1.0
 40
1.0
 40
1.0
 10
9.485324227735202
 20
6.761971220390931
 30
0.0
 10
9.484926100122985
 20
6.762189115288789
 30
0.0
 10
9.484141043488764
 20
6.762618776105766
 30
0.0
 10
9.48299250153987
 20
6.763052933249668
 30
0.0
 10
9.4818990861994
 20
6.763310507376194
 30
0.0
 10
9.480868074155927
 20
6.763366709997941
 30
0.0
 10
9.479889260067859
 20
6.763263099808681
 30
0.0
 10
9.478961456187255
 20
6.762985408738007
 30
0.0
 10
9.478106907602925
 20
6.762495767453825
 30
0.0
 10
9.47759261557718
 20
6.762056215533722
 30
0.0
 10
9.477329615008806
 20
6.76183143583847
 30
0.0
  0
LINE
  5
366
330
1F
100
AcDbEntity
  8
0
  6
Continuous
 62
     7
370
    18
100
AcDbLine
 10
9.466851488
 20
6.7462843937
 30
0.0
 11
9.4661443812
 21
6.7458761897
 31
0.0
  0
LINE
  5
367
330
1F
100
AcDbEntity
  8
0
  6
Continuous
 62
     7
370
    18
100
AcDbLine
 10
9.4861156151
 20
6.7000433622
 30
0.0
 11
9.4854085083
 21
6.6996351582
 31
0.0
  0
LINE
  5
368
330
1F
100
AcDbEntity
  8
0
  6
Continuous
 62
     7
370
    18
100
AcDbLine
 10
9.4726909265
 20
6.7144808243
 30
0.0
 11
9.4719838198
 21
6.7140726202
 31
0.0
  0
SPLINE
  5
369
330
1F
100
AcDbEntity
  8
0
  6
Continuous
 62
     7
370
    18
100
AcDbSpline
210
0.0
220
0.0
230
1.0
 70
     8
 71
     3
 72
    10
 73
     6
 74
     0
 42
0.000000001
 43
0.00000001
 40
0.0
 40
0.0
 40
0.0
 40
0.0
 40
0.2256238419937511
 40
0.6123885177070099
 40
1.0
 40
1.0
 40
1.0
 40
1.0
 10
9.424323221285949
 20
6.747425062800944
 30
0.0
 10
9.424953501135962
 20
6.74779535662457
 30
0.0
 10
9.426664207503157
 20
6.748800408589661
 30
0.0
 10
9.428053603649698
 20
6.752449224329531
 30
0.0
 10
9.4282332916633
 20
6.755862078243478
 30
0.0
 10
9.428323233917569
 20
6.757570371236175
 30
0.0
  0
SPLINE
  5
36A
330
1F
100
AcDbEntity
  8
0
  6
Continuous
 62
     7
370
    18
100
AcDbSpline
210
0.0
220
0.0
230
1.0
 70
     8
 71
     3
 72
    23
 73
    19
 74
     0
 42
0.000000001
 43
0.00000001
 40
0.0
 40
0.0
 40
0.0
 40
0.0
 40
0.0728659334565347
 40
0.141886871964127
 40
0.2074526264147116
 40
0.2704376800000976
 40
0.3316408722476732
 40
0.3901075774931603
 40
0.4480692869488377
 40
0.5055029519245372
 40
0.5624881528337253
 40
0.6190843288847314
 40
0.6764155306922396
 40
0.7354523604507925
 40
0.7962407694486813
 40
0.8604056780892053
 40
0.9283049272851076
 40
1.0
 40
1.0
 40
1.0
 40
1.0
 10
9.428323233917569
 20
6.757570371236175
 30
0.0
 10
9.428314388195254
 20
6.7581412772903
 30
0.0
 10
9.428297163522352
 20
6.759252963785791
 30
0.0
 10
9.428152103674917
 20
6.760941025904379
 30
0.0
 10
9.427907370634568
 20
6.762590854394149
 30
0.0
 10
9.427590708995398
 20
6.764203059464107
 30
0.0
 10
9.427154230866279
 20
6.765782950066859
 30
0.0
 10
9.426636543227943
 20
6.767327492367055
 30
0.0
 10
9.426002354113354
 20
6.768830622825601
 30
0.0
 10
9.425296776874807
 20
6.770301700770943
 30
0.0
 10
9.424490918589509
 20
6.771720528032383
 30
0.0
 10
9.423573892247438
 20
6.773055123302909
 30
0.0
 10
9.42258167225055
 20
6.774332638655621
 30
0.0
 10
9.42149427427164
 20
6.775531863245106
 30
0.0
 10
9.420311057998024
 20
6.776639509927817
 30
0.0
 10
9.419043781339074
 20
6.777697777330198
 30
0.0
 10
9.41767929442229
 20
6.778657301351405
 30
0.0
 10
9.41674098581436
 20
6.779229097644071
 30
0.0
 10
9.416259074351533
 20
6.77952276988102
 30
0.0
  0
SPLINE
  5
36B
330
1F
100
AcDbEntity
  8
0
  6
Continuous
 62
     7
370
    18
100
AcDbSpline
210
0.0
220
0.0
230
1.0
 70
     8
 71
     3
 72
    10
 73
     6
 74
     0
 42
0.000000001
 43
0.00000001
 40
0.0
 40
0.0
 40
0.0
 40
0.0
 40
0.3541859796744397
 40
0.7075920715655744
 40
1.0
 40
1.0
 40
1.0
 40
1.0
 10
9.416259074351533
 20
6.77952276988102
 30
0.0
 10
9.415129198899931
 20
6.780102592426649
 30
0.0
 10
9.41287193588759
 20
6.781260960797359
 30
0.0
 10
9.409744571879932
 20
6.78173869122096
 30
0.0
 10
9.408375459609099
 20
6.780705149694852
 30
0.0
 10
9.407755560891651
 20
6.78023718875395
 30
0.0
  0
LINE
  5
36C
330
1F
100
AcDbEntity
  8
0
  6
Continuous
 62
     7
370
    18
100
AcDbLine
 10
9.4059768465
 20
6.7792298328
 30
0.0
 11
9.3982711957
 21
6.7845680305
 31
0.0
  0
LINE
  5
36D
330
1F
100
AcDbEntity
  8
0
  6
Continuous
 62
     7
370
    18
100
AcDbLine
 10
9.3982711957
 20
6.7845680305
 30
0.0
 11
9.404294318
 21
6.8158673525
 31
0.0
  0
LINE
  5
36E
330
1F
100
AcDbEntity
  8
0
  6
Continuous
 62
     7
370
    18
100
AcDbLine
 10
9.4322395176
 20
6.7916531391
 30
0.0
 11
9.4107326779
 21
6.8040687734
 31
0.0
  0
SPLINE
  5
36F
330
1F
100
AcDbEntity
  8
0
  6
Continuous
 62
     7
370
    18
100
AcDbSpline
210
0.0
220
0.0
230
1.0
 70
     8
 71
     3
 72
    11
 73
     7
 74
     0
 42
0.000000001
 43
0.00000001
 40
0.0
 40
0.0
 40
0.0
 40
0.0
 40
0.1467193155845203
 40
0.478207359705378
 40
0.7390992104112349
 40
1.0
 40
1.0
 40
1.0
 40
1.0
 10
9.429513144143508
 20
6.738889707728622
 30
0.0
 10
9.42902357386693
 20
6.73855311921891
 30
0.0
 10
9.427427900465508
 20
6.737456064602105
 30
0.0
 10
9.424110119360927
 20
6.737374881554236
 30
0.0
 10
9.420046286566128
 20
6.738373418253102
 30
0.0
 10
9.417465306124177
 20
6.739737357580807
 30
0.0
 10
9.416174793795681
 20
6.740419338927554
 30
0.0
  0
SPLINE
  5
370
330
1F
100
AcDbEntity
  8
0
  6
Continuous
 62
     7
370
    18
100
AcDbSpline
210
0.0
220
0.0
230
1.0
 70
     8
 71
     3
 72
    12
 73
     8
 74
     0
 42
0.000000001
 43
0.00000001
 40
0.0
 40
0.0
 40
0.0
 40
0.0
 40
0.1913151682268218
 40
0.3823626264911389
 40
0.573423858559002
 40
0.7982171789553013
 40
1.0
 40
1.0
 40
1.0
 40
1.0
 10
9.416174793795681
 20
6.740419338927554
 30
0.0
 10
9.414431504407185
 20
6.741535192227881
 30
0.0
 10
9.41094736503916
 20
6.743765337399573
 30
0.0
 10
9.406002645885048
 20
6.748882711477437
 30
0.0
 10
9.401695305541867
 20
6.755456677634776
 30
0.0
 10
9.398582832220685
 20
6.762881867480197
 30
0.0
 10
9.397946048570768
 20
6.767696797799623
 30
0.0
 10
9.397644831534015
 20
6.769974398744921
 30
0.0
  0
LINE
  5
371
330
1F
100
AcDbEntity
  8
0
  6
Continuous
 62
     7
370
    18
100
AcDbLine
 10
9.4107326779
 20
6.8040687734
 30
0.0
 11
9.4100255711
 21
6.8036605694
 31
0.0
  0
LINE
  5
372
330
1F
100
AcDbEntity
  8
0
  6
Continuous
 62
     7
370
    18
100
AcDbLine
 10
9.3982711957
 20
6.7845680305
 30
0.0
 11
9.3975640889
 21
6.7841598264
 31
0.0
  0
LINE
  5
373
330
1F
100
AcDbEntity
  8
0
  6
Continuous
 62
     7
370
    18
100
AcDbLine
 10
9.447587361
 20
6.72317507
 30
0.0
 11
9.447587361
 21
6.7312568631
 31
0.0
  0
LINE
  5
374
330
1F
100
AcDbEntity
  8
0
  6
Continuous
 62
     7
370
    18
100
AcDbLine
 10
9.454585905
 20
6.7191348965
 30
0.0
 11
9.447587361
 21
6.72317507
 31
0.0
  0
LINE
  5
375
330
1F
100
AcDbEntity
  8
0
  6
Continuous
 62
     7
370
    18
100
AcDbLine
 10
9.4162590744
 20
6.7795227699
 30
0.0
 11
9.4155519676
 21
6.7791145658
 31
0.0
  0
LINE
  5
376
330
1F
100
AcDbEntity
  8
0
  6
Continuous
 62
     7
370
    18
100
AcDbLine
 10
9.4283232339
 20
6.7575703712
 30
0.0
 11
9.4276161271
 21
6.7571621672
 31
0.0
  0
LINE
  5
377
330
1F
100
AcDbEntity
  8
0
  6
Continuous
 62
     7
370
    18
100
AcDbLine
 10
9.447587361
 20
6.72317507
 30
0.0
 11
9.4468802542
 21
6.722766866
 31
0.0
  0
LINE
  5
378
330
1F
100
AcDbEntity
  8
0
  6
Continuous
 62
     7
370
    18
100
AcDbLine
 10
9.4161747938
 20
6.7404193389
 30
0.0
 11
9.415467687
 21
6.7400111349
 31
0.0
  0
OLE2FRAME
  5
379
330
1F
100
AcDbEntity
  8
0
100
AcDbOle2Frame
 70
     2
  3
Paintbrush Picture
 10
9.0178120406
 20
1.3267570784
 30
0.0
 11
10.4397105087
 21
1.1242314806
 31
0.0
 71
     2
 72
     0
 73
     1
 90
     7296
310
8055C64EE7A81E092240C05F59A1653AF53F0000000000000000FD155DBC21E1
310
2440C05F59A1653AF53F0000000000000000FD155DBC21E12440A1732426DAFC
310
F13F0000000000000000C64EE7A81E092240A1732426DAFCF13F000000000000
310
00000000000001000000000100000100000001000000000001000000001C0000
310
D0CF11E0A1B11AE1000000000000000000000000000000003E000300FEFF0900
310
0600000000000000000000000100000001000000000000000010000002000000
310
01000000FEFFFFFF0000000000000000FFFFFFFFFFFFFFFFFFFFFFFFFFFFFFFF
310
FFFFFFFFFFFFFFFFFFFFFFFFFFFFFFFFFFFFFFFFFFFFFFFFFFFFFFFFFFFFFFFF
310
FFFFFFFFFFFFFFFFFFFFFFFFFFFFFFFFFFFFFFFFFFFFFFFFFFFFFFFFFFFFFFFF
310
FFFFFFFFFFFFFFFFFFFFFFFFFFFFFFFFFFFFFFFFFFFFFFFFFFFFFFFFFFFFFFFF
310
FFFFFFFFFFFFFFFFFFFFFFFFFFFFFFFFFFFFFFFFFFFFFFFFFFFFFFFFFFFFFFFF
310
FFFFFFFFFFFFFFFFFFFFFFFFFFFFFFFFFFFFFFFFFFFFFFFFFFFFFFFFFFFFFFFF
310
FFFFFFFFFFFFFFFFFFFFFFFFFFFFFFFFFFFFFFFFFFFFFFFFFFFFFFFFFFFFFFFF
310
FFFFFFFFFFFFFFFFFFFFFFFFFFFFFFFFFFFFFFFFFFFFFFFFFFFFFFFFFFFFFFFF
310
FFFFFFFFFFFFFFFFFFFFFFFFFFFFFFFFFFFFFFFFFFFFFFFFFFFFFFFFFFFFFFFF
310
FFFFFFFFFFFFFFFFFFFFFFFFFFFFFFFFFFFFFFFFFFFFFFFFFFFFFFFFFFFFFFFF
310
FFFFFFFFFFFFFFFFFFFFFFFFFFFFFFFFFFFFFFFFFFFFFFFFFFFFFFFFFFFFFFFF
310
FFFFFFFFFFFFFFFFFFFFFFFFFFFFFFFFFFFFFFFFFFFFFFFFFFFFFFFFFFFFFFFF
310
FFFFFFFFFFFFFFFFFFFFFFFFFFFFFFFFFFFFFFFFFFFFFFFFFFFFFFFFFFFFFFFF
310
FFFFFFFFFFFFFFFFFFFFFFFFFFFFFFFFFFFFFFFFFFFFFFFFFFFFFFFFFFFFFFFF
310
FDFFFFFFFEFFFFFFFEFFFFFFFEFFFFFF05000000060000000700000008000000
310
090000000A0000000B0000000C000000FEFFFFFFFFFFFFFFFFFFFFFFFFFFFFFF
310
FFFFFFFFFFFFFFFFFFFFFFFFFFFFFFFFFFFFFFFFFFFFFFFFFFFFFFFFFFFFFFFF
310
FFFFFFFFFFFFFFFFFFFFFFFFFFFFFFFFFFFFFFFFFFFFFFFFFFFFFFFFFFFFFFFF
310
FFFFFFFFFFFFFFFFFFFFFFFFFFFFFFFFFFFFFFFFFFFFFFFFFFFFFFFFFFFFFFFF
310
FFFFFFFFFFFFFFFFFFFFFFFFFFFFFFFFFFFFFFFFFFFFFFFFFFFFFFFFFFFFFFFF
310
FFFFFFFFFFFFFFFFFFFFFFFFFFFFFFFFFFFFFFFFFFFFFFFFFFFFFFFFFFFFFFFF
310
FFFFFFFFFFFFFFFFFFFFFFFFFFFFFFFFFFFFFFFFFFFFFFFFFFFFFFFFFFFFFFFF
310
FFFFFFFFFFFFFFFFFFFFFFFFFFFFFFFFFFFFFFFFFFFFFFFFFFFFFFFFFFFFFFFF
310
FFFFFFFFFFFFFFFFFFFFFFFFFFFFFFFFFFFFFFFFFFFFFFFFFFFFFFFFFFFFFFFF
310
FFFFFFFFFFFFFFFFFFFFFFFFFFFFFFFFFFFFFFFFFFFFFFFFFFFFFFFFFFFFFFFF
310
FFFFFFFFFFFFFFFFFFFFFFFFFFFFFFFFFFFFFFFFFFFFFFFFFFFFFFFFFFFFFFFF
310
FFFFFFFFFFFFFFFFFFFFFFFFFFFFFFFFFFFFFFFFFFFFFFFFFFFFFFFFFFFFFFFF
310
FFFFFFFFFFFFFFFFFFFFFFFFFFFFFFFFFFFFFFFFFFFFFFFFFFFFFFFFFFFFFFFF
310
FFFFFFFFFFFFFFFFFFFFFFFFFFFFFFFFFFFFFFFFFFFFFFFFFFFFFFFFFFFFFFFF
310
FFFFFFFFFFFFFFFFFFFFFFFFFFFFFFFFFFFFFFFFFFFFFFFFFFFFFFFFFFFFFFFF
310
52006F006F007400200045006E00740072007900000000000000000000000000
310
0000000000000000000000000000000000000000000000000000000000000000
310
16000500FFFFFFFFFFFFFFFF020000000A00030000000000C000000000000046
310
000000000000000000000000E08ED2B1CFB1D40103000000C000000000000000
310
01004F006C006500000000000000000000000000000000000000000000000000
310
0000000000000000000000000000000000000000000000000000000000000000
310
0A000200FFFFFFFFFFFFFFFFFFFFFFFF00000000000000000000000000000000
310
0000000000000000000000000000000000000000000000001400000000000000
310
010043006F006D0070004F0062006A0000000000000000000000000000000000
310
0000000000000000000000000000000000000000000000000000000000000000
310
120002010100000003000000FFFFFFFF00000000000000000000000000000000
310
0000000000000000000000000000000000000000010000004D00000000000000
310
01004F006C006500310030004E00610074006900760065000000000000000000
310
0000000000000000000000000000000000000000000000000000000000000000
310
1A000200FFFFFFFFFFFFFFFFFFFFFFFF00000000000000000000000000000000
310
000000000000000000000000000000000000000004000000E411000000000000
310
FEFFFFFF02000000FEFFFFFFFFFFFFFFFFFFFFFFFFFFFFFFFFFFFFFFFFFFFFFF
310
FFFFFFFFFFFFFFFFFFFFFFFFFFFFFFFFFFFFFFFFFFFFFFFFFFFFFFFFFFFFFFFF
310
FFFFFFFFFFFFFFFFFFFFFFFFFFFFFFFFFFFFFFFFFFFFFFFFFFFFFFFFFFFFFFFF
310
FFFFFFFFFFFFFFFFFFFFFFFFFFFFFFFFFFFFFFFFFFFFFFFFFFFFFFFFFFFFFFFF
310
FFFFFFFFFFFFFFFFFFFFFFFFFFFFFFFFFFFFFFFFFFFFFFFFFFFFFFFFFFFFFFFF
310
FFFFFFFFFFFFFFFFFFFFFFFFFFFFFFFFFFFFFFFFFFFFFFFFFFFFFFFFFFFFFFFF
310
FFFFFFFFFFFFFFFFFFFFFFFFFFFFFFFFFFFFFFFFFFFFFFFFFFFFFFFFFFFFFFFF
310
FFFFFFFFFFFFFFFFFFFFFFFFFFFFFFFFFFFFFFFFFFFFFFFFFFFFFFFFFFFFFFFF
310
FFFFFFFFFFFFFFFFFFFFFFFFFFFFFFFFFFFFFFFFFFFFFFFFFFFFFFFFFFFFFFFF
310
FFFFFFFFFFFFFFFFFFFFFFFFFFFFFFFFFFFFFFFFFFFFFFFFFFFFFFFFFFFFFFFF
310
FFFFFFFFFFFFFFFFFFFFFFFFFFFFFFFFFFFFFFFFFFFFFFFFFFFFFFFFFFFFFFFF
310
FFFFFFFFFFFFFFFFFFFFFFFFFFFFFFFFFFFFFFFFFFFFFFFFFFFFFFFFFFFFFFFF
310
FFFFFFFFFFFFFFFFFFFFFFFFFFFFFFFFFFFFFFFFFFFFFFFFFFFFFFFFFFFFFFFF
310
FFFFFFFFFFFFFFFFFFFFFFFFFFFFFFFFFFFFFFFFFFFFFFFFFFFFFFFFFFFFFFFF
310
FFFFFFFFFFFFFFFFFFFFFFFFFFFFFFFFFFFFFFFFFFFFFFFFFFFFFFFFFFFFFFFF
310
FFFFFFFFFFFFFFFFFFFFFFFFFFFFFFFFFFFFFFFFFFFFFFFFFFFFFFFFFFFFFFFF
310
0100000200000000000000000000000000000000000000000000000000000000
310
0000000000000000000000000000000000000000000000000000000000000000
310
0100FEFF030A0000FFFFFFFF0A00030000000000C00000000000004607000000
310
5042727573680007000000504272757368000700000050427275736800F439B2
310
7100000000000000000000000000000000000000000000000000000000000000
310
0000000000000000000000000000000000000000000000000000000000000000
310
0000000000000000000000000000000000000000000000000000000000000000
310
0000000000000000000000000000000000000000000000000000000000000000
310
0000000000000000000000000000000000000000000000000000000000000000
310
0000000000000000000000000000000000000000000000000000000000000000
310
0000000000000000000000000000000000000000000000000000000000000000
310
0000000000000000000000000000000000000000000000000000000000000000
310
0000000000000000000000000000000000000000000000000000000000000000
310
0000000000000000000000000000000000000000000000000000000000000000
310
0000000000000000000000000000000000000000000000000000000000000000
310
0000000000000000000000000000000000000000000000000000000000000000
310
E0110000424DDE11000000000000360400002800000096000000170000000100
310
08000000000000000000E7240000E72400000001000000010000000000FF0101
310
01FF020202FF030303FF040404FF050505FF060606FF070707FF080808FF0909
310
09FF0A0A0AFF0B0B0BFF0C0C0CFF0D0D0DFF0E0E0EFF0F0F0FFF101010FF1111
310
11FF121212FF131313FF141414FF151515FF161616FF171717FF181818FF1919
310
19FF1A1A1AFF1B1B1BFF1C1C1CFF1D1D1DFF1E1E1EFF1F1F1FFF202020FF2121
310
21FF222222FF232323FF242424FF252525FF262626FF272727FF282828FF2929
310
29FF2A2A2AFF2B2B2BFF2C2C2CFF2D2D2DFF2E2E2EFF2F2F2FFF303030FF3131
310
31FF323232FF333333FF343434FF353535FF363636FF373737FF383838FF3939
310
39FF3A3A3AFF3B3B3BFF3C3C3CFF3D3D3DFF3E3E3EFF3F3F3FFF404040FF4141
310
41FF424242FF434343FF444444FF454545FF464646FF474747FF484848FF4949
310
49FF4A4A4AFF4B4B4BFF4C4C4CFF4D4D4DFF4E4E4EFF4F4F4FFF505050FF5151
310
51FF525252FF535353FF545454FF555555FF565656FF575757FF585858FF5959
310
59FF5A5A5AFF5B5B5BFF5C5C5CFF5D5D5DFF5E5E5EFF5F5F5FFF606060FF6161
310
61FF626262FF636363FF646464FF656565FF666666FF676767FF686868FF6969
310
69FF6A6A6AFF6B6B6BFF6C6C6CFF6D6D6DFF6E6E6EFF6F6F6FFF707070FF7171
310
71FF727272FF737373FF747474FF757575FF767676FF777777FF787878FF7979
310
79FF7A7A7AFF7B7B7BFF7C7C7CFF7D7D7DFF7E7E7EFF7F7F7FFF808080FF8181
310
81FF828282FF838383FF848484FF858585FF868686FF878787FF888888FF8989
310
89FF8A8A8AFF8B8B8BFF8C8C8CFF8D8D8DFF8E8E8EFF8F8F8FFF909090FF9191
310
91FF929292FF939393FF949494FF959595FF969696FF979797FF989898FF9999
310
99FF9A9A9AFF9B9B9BFF9C9C9CFF9D9D9DFF9E9E9EFF9F9F9FFFA0A0A0FFA1A1
310
A1FFA2A2A2FFA3A3A3FFA4A4A4FFA5A5A5FFA6A6A6FFA7A7A7FFA8A8A8FFA9A9
310
A9FFAAAAAAFFABABABFFACACACFFADADADFFAEAEAEFFAFAFAFFFB0B0B0FFB1B1
310
B1FFB2B2B2FFB3B3B3FFB4B4B4FFB5B5B5FFB6B6B6FFB7B7B7FFB8B8B8FFB9B9
310
B9FFBABABAFFBBBBBBFFBCBCBCFFBDBDBDFFBEBEBEFFBFBFBFFFC0C0C0FFC1C1
310
C1FFC2C2C2FFC3C3C3FFC4C4C4FFC5C5C5FFC6C6C6FFC7C7C7FFC8C8C8FFC9C9
310
C9FFCACACAFFCBCBCBFFCCCCCCFFCDCDCDFFCECECEFFCFCFCFFFD0D0D0FFD1D1
310
D1FFD2D2D2FFD3D3D3FFD4D4D4FFD5D5D5FFD6D6D6FFD7D7D7FFD8D8D8FFD9D9
310
D9FFDADADAFFDBDBDBFFDCDCDCFFDDDDDDFFDEDEDEFFDFDFDFFFE0E0E0FFE1E1
310
E1FFE2E2E2FFE3E3E3FFE4E4E4FFE5E5E5FFE6E6E6FFE7E7E7FFE8E8E8FFE9E9
310
E9FFEAEAEAFFEBEBEBFFECECECFFEDEDEDFFEEEEEEFFEFEFEFFFF0F0F0FFF1F1
310
F1FFF2F2F2FFF3F3F3FFF4F4F4FFF5F5F5FFF6F6F6FFF7F7F7FFF8F8F8FFF9F9
310
F9FFFAFAFAFFFBFBFBFFFCFCFCFFFDFDFDFFFEFEFEFFFFFFFFFFFFFFFFFFFFFF
310
C94E4E4E4F4E4EFFFFFFFFFFC94E4E4E4E4E72FFFFFFFFFFFFFF734E4D4E4E4E
310
C9FFFFFFFFFFAA683516171616265B9BE9FFFFFFFFFF4E4E4E4D4E4EFFFFFFFF
310
FFFFFFFF4E4E4F4E4D4E4E4E4F4E4E4F4D4E4E4E4E4E4D4E4F4E4D4E4E4EAAFF
310
FFFFFFFFFFEA4E4F4F4E4E4E4E4E4D4D4F4F4E4E4E4E4E5B7FAAFFFFFFFFFFFF
310
C9744E1716171616164D8DEAFFFFFFFF0000FFFFFFFFFFFFBA161617161716FF
310
FFFFFFFFB917171616174FFFFFFFFFFFFFFF4E1716161616B9FFFFFFB9341717
310
1716171617171616268CFFFFFFFF161617161617FFFFFFFFFFFFFFB917161717
310
1617167F807F7F7F7F7F7F807F7F807F7F807F7F7F414EFFFFFFFFFFFF8C167F
310
7F807F7F7F7E7F7F807F807F7F807F4E3417258EFFFFEA4E162674AABAEAEBBA
310
AA74341680FFFFFF0000FFFFFFFFFFFFB9171717171617FFFFFFFFFFBB161616
310
16164EFFFFFFFFFFFFFF4E1717171717B9FFFF9C171617171716161616171616
310
171766FFFFFF161717161617FFFFFFFFFFFFFF8E16171717161616FFFFFFFFFF
310
FFFFFFFFFFFFFFFFFFFFFFFFFFAA16D9FFFFFFFFFF3467FFFFFFFFEAFFFFFFFF
310
FFFFFFFFFFFFFFFFFFCA671667EB26278DFFFFFFFFFFFFFFFFFFFF8C2541EAFF
310
0000FFFFFFFFFFFFB9171717171716FFFFFFFFFFBA16171617174EFFFFFFFFFF
310
FFFF4E1717161616BAFF9B1617161616171716171617161616161667FFFF1616
310
16161716FFFFFFFFFFFFFF7F16161617174017FFFFFFFFFFFFFFFFFFFFFFFFFF
310
FFFFFFFFFFFF344E7F7F7F7E7417DAFFFFFFFF80FFFFFFFFFFFFFFFFFFFFFFFF
310
FFFFFF9B163425CAFFFFFFFFFFFFFFFFFFFFFFFFCA2667FF0000FFFFFFFFFFFF
310
BA171717171617FFFFFFFFFFB916171716164EFFFFFFFFFFFFFF4F1716161717
310
B9C91716171616161716161617171616161617168DFF161716161717FFFFFFFF
310
FFFFFF7F17171716164F16FFFFFFFFFFFFFFFFFFFFFFFFFFFFFFFFFFFFFF9B16
310
17161617174EFFFFFFFFFF34FFFFFFFFD9BABABABABADAFFFFFFFFFF7F16AAFF
310
FFFFFFFFFFFFFFFFFFFFFFFFFF9C16BA0000FFFFFFFFFFFFB9161717161717FF
310
FFFFFFFFB917161716174DFFFFFFFFFFFFFF4E1616161616BA4E161617171716
310
419BEAEAAA4E16161617161726E9171717161616FFFFFFFFFFFFFF4F16161717
310
164E16FFFFFFFFFFBAB9B9B9B9B9BABABACAFFFFFFFFFFFFFFFFFFFFFFFFFFFF
310
FFFFBA16FFFFFFFF7F1617161617174DEAFFFFFFEA41FFFFFFFFFFAA4D16174E
310
9BFFFFFFFFFF34730000FFFFFFFFFFFFB9161617171617FFFFFFFFFFBA161616
310
16164EFFFFFFFFFFFFFF4F16161717169B1617161716175BFFFFFFFFFFFF7417
310
16171616168D171717161617FFFFFFFFFFFFEA2616171717167416FFFFFFFFFF
310
16171616171717171717EAFFFFFFFFFFFFFFFFFFFFFFFFFFFFFF6716FFFFFFFF
310
7F4EFFFFFFFFBA2573FFFFFFFFBAFFFFFFFFAA167FB9BB9B269BFFFFFFFF664F
310
0000FFFFFFFFFFFFB9171616161616FFFFFFFFFFBA16161717164EFFFFFFFFFF
310
FFFF4E16161616174E161617171626EAFFFFFFFFFFFFFF4E16161616164E1716
310
16161617FFFFFFFFFFFF671616161716347F16FFFFFFFFFF16B9FFFFFFFFFFFF
310
D9168DFFFFFFFFFFFFFFFFFFFFFFFFFFFFEA1716FFFFFFFF7F4EFFFFFFFFFF7F
310
4EFFFFFFFFFFFFFFFFFF5B66FFFFFFEA347FFFFFFFFF7F4D0000FFFFFFFFFFFF
310
B9171616171617FFFFFFFFFFBA17161716174EFFFFFFFFFFFFFF4D1716161617
310
17161716161673FFFFFFFFFFFFFFFF9B1617161717161616171616174F4E4E4E
310
4E341616171616167E7F16FFFFFFFFFF16BAFFFFFFFFFFFFFF5B41FFFFFFFF34
310
1616171616BAFFFFFF9B1716FFFFFFFF7F4EFFFFFFFFFF4E4EFFFFFFFF734E4E
310
4E4E267EDA9B67164EEAFFFFFFFF744D0000FFFFFFFFFFFFBA171717161617FF
310
FFFFFFFFBA1616171616347F7F7F7F80807F331616161717161717161716B9FF
310
FFFFFFFFFFFFFFE9161616161616171716161716171616161616171616171734
310
EA7F16FFFFFFFFFF16BAFFFFFFFFFFFFFFAA17C9FFFFFF7326BABA5B25FFFFFF
310
FF401716FFFFFFFF7F264F4E4E4E4217AAFFFFFFEA16677F73261616164173CA
310
FFFFFFFFFFFF417F0000FFFFFFFFFFFFBA171616171617FFFFFFFFFFBA161616
310
17171616161616161616161717161616161616161617EAFFFFFFFFFFFFFFFFFF
310
261717161716161617161616161617161617161616174EEAFF8016FFFFFFFFFF
310
17BAFFFFFFFFFFFFFFFF3467FFFFFFC916C9FF3467FFFFFFDA166716FFFFFFFF
310
9C4D4E4E4E4E67AAFFFFFFFF6834FF7F262567AAEAFFFFFFFFFFFFFFFF9B17D9
310
0000FFFFFFFFFFFFB9161616161616FFFFFFFFFFBA1617161717171616161616
310
1716171716161716161617171716FFFFFFFFFFFFFFFFFFFF4E17161716171616
310
1617171616161716171717161616169BFF7F17FFFFFFFFFF17B9FFFFFFFFFFFF
310
FFFF7326FFFFFFFF3473DA16AAFFFFFF7317AA16FFFFFFFFFFFFFFFFFFFFFFFF
310
FFFFEA6725BA4E167FEAFFFFFFFFFFFFFFFFFFFF9C167FFF0000FFFFFFFFFFFF
310
B9161717171716FFFFFFFFFFBA16161716171616171717161617161716161616
310
171617171617EAFFFFFFFFFFFFFFFFFF26161717161616161616161617171616
310
1616161616171616AA8016FFFFFFFFFF16BAFFFFFFFFFFFFFFFFDA179BFFFFFF
310
74348D26FFFFFFFF2566B917FFFFFFFFD8BAB9BAB9BADAFFFFEA41169B7425C9
310
FFFFFFFFFFFFFFFFFFFFAB4F1680FFFF0000FFFFFFFFFFFFBA161717171617FF
310
FFFFFFFFBA17161717161617171617161616161617171616171716171617BBFF
310
FFFFFFFFFFFFFFE9171616161617161617161716FFFFFFFFFFD9671616161617
310
348017FFFFFFFFFF16BAFFFFFFFFFFFFFFFFFF4E5AFFFFFFC916265AFFFFFFAA
310
16AABA16FFFFFFFF7F1617161616179BFFFFEB4127168DFFFFFFFFFFFFFFD99B
310
6734175AC9FFFFFF0000FFFFFFFFFFFFB9161617171617FFFFFFFFFFBB161616
310
1616347F807F7F7F7F8033171716171617171616161672FFFFFFFFFFFFFFFF9C
310
171617171617161716161617FFFFFFFFFFFFFF4117161616174E17FFFFFFFFFF
310
16BAFFFFFFFFFFFFFFFFFF9B16DAFFFFFF34169BFFFFFF5A26FFB917FFFFFFFF
310
7F4EFFFFFFEA5B26FFFFFFEA2616EAFFFFFFFFDA743416331617414E4E4E4ECA
310
0000FFFFFFFFFFFFBA161716161616FFFFFFFFFFBA17171616164EFFFFFFFFFF
310
FFFF4E16161717174E161717171626EBFFFFFFFFFFFFFF4E16161617165B1616
310
16171617FFFFFFFFFFFFFF6716161616161617FFFFFFFFFF16BAFFFFFFFFFFFF
310
FFFFFFEA268CFFFFFF7316EAFFFFEB1774FFB916FFFFFFFF7F4EFFFFFFFF7316
310
FFFFFFFF6826FFFFFFFFEB264D9CEABA257F807F7F6616BA0000FFFFFFFFFFFF
310
BA161716161616FFFFFFFFFFBA16171616164DFFFFFFFFFFFFFF4E1617161617
310
9B1617171717165BEBFFFFFFFFFF671616161617179B171616161616FFFFFFFF
310
FFFFFF3417161617171617FFFFFFFFFF17BAFFFFFFFFFFFFFFFFFFFF6734FFFF
310
FFEBCAFFFFFF8D17C9FFBA17FFFFFFFF7F357F808066174FFFFFFFFF7F16FFFF
310
FFFFD91673B99B415BFFFFFFFFBA16DA00009B7F7F7F807F671617161616167F
310
80807F7E6617161616164EFFFFFFFFFFFFFF4E1616161617B94E171716161616
310
349BC9D9AA4E16171616161634FF161617161717B9B9BAB9BA9B411716171716
310
163416FFFFFFFFFF16B9FFFFFFFFFFFFFFFFFFFFC917CAFFFFFFFFFFFFFF3342
310
FFFFBA17FFFFFFFF9B4E4E4F4E4E66EAFFFFFFFF5B16C9FFFFFFFFAA4E164E73
310
EAFFFFFFFF8D26FF00004E161716161616171617171616171717171617161616
310
17174EFFFFFFFFFFFFFF4E1717171616B9D92616171716171716171717171716
310
16171716AAFF161717171617161617171616161617161716166717FFFFFFFFFF
310
17B9FFFFFFFFFFFFFFFFFFFFFF3467FFFFFFFFFFFFCA168CFFFFBB17FFFFFFFF
310
FFFFFFFFFFFFFFFFFFFFFFEA26265BFFFFFFFFFFFFFFFFFFFFFFFFFFEA3467FF
310
00004D16161616161617161717161617161616171617171616164EFFFFFFFFFF
310
FFFF4D1617161616BAFF9B1616161616161716161616171717161766FFFF1616
310
16171617161617161716171616171717667F16FFFFFFFFFF17BAFFFFFFFFFFFF
310
FFFFFFFFFF8C26EAFFFFFFFFFF6617EAFFFFBA17FFFFFFFFFFFFFFFFFFFFFFFF
310
FFFFEA5A25BA269BFFFFFFFFFFFFFFFFFFFFFFFF6616DAFF00004E1616171616
310
1616161616161716161617171616171616174EFFFFFFFFFFFFFF4D1717171716
310
B9FFFF9C161616161616161716161717171667FFFFFF17161717171716161617
310
1716161616161641E97E16FFFFFFFFFF16B9FFFFFFFFFFFFFFFFFFFFFFEA169B
310
FFFFFFFFEA265BFFFFFFB916FFFFFFFFFFFFFFFFFFFFFFFFFF9B3416AAFF9B17
310
67EAFFFFFFFFFFFFFFFFEA5B169BFFFF00004D17161716161616161717171616
310
161717161716171716174EFFFFFFFFFFFFFF4D1616161616BAFFFFFFBB411616
310
161716161616171634ABFFFFFFFF161716161617171716171617171617267FFF
310
FF7F164E4E4E4E4F17BAFFFFFFFFFFFFFFFFFFFFFFFF66344D4E4E4F4117AAFF
310
FFFFBA174E4E4E4D4E4D4D4E4E4E4E4116174EBBFFFFFFCA342666ABEAFFFFEA
310
AA6725269CFFFFFF0000724F4E4D4D4D4E4D4D4E4E4E4D4E4E4E4E4E4E4E4E4D
310
4E4E74FFFFFFFFFFFFFF734E4E4E4D4ECAFFFFFFFFFFAA663416171717265B9B
310
FFFFFFFFFFFF7F8080807F80807F7F7F7F7F807FBAFFFFFFFF9B4E4E4F4D4D4E
310
4DC9FFFFFFFFFFFFFFFFFFFFFFFFBA4E4E4E4E4D4E4EFFFFFFFFC94E4E4E4F4E
310
4E4E4D4E4E5A807F9CD9FFFFFFFFFFFFFF9B5B2617171716174E8DEAFFFFFFFF
310
0000000000000000000000000000000000000000000000000000000000000000
  1
OLE
  0
ENDSEC
  0
SECTION
  2
OBJECTS
  0
DICTIONARY
  5
C
330
0
100
AcDbDictionary
281
     1
  3
ACAD_GROUP
350
D
  3
ACAD_LAYOUT
350
1A
  3
ACAD_MLINESTYLE
350
17
  3
ACAD_PLOTSETTINGS
350
19
  3
ACAD_PLOTSTYLENAME
350
E
  3
ACAD_SCALELIST
350
47
  0
DICTIONARY
  5
D
102
{ACAD_REACTORS
330
C
102
}
330
C
100
AcDbDictionary
281
     1
  0
DICTIONARY
  5
1A
102
{ACAD_REACTORS
330
C
102
}
330
C
100
AcDbDictionary
281
     1
  3
Layout1
350
1E
  3
Layout2
350
26
  3
Model
350
22
  0
DICTIONARY
  5
17
102
{ACAD_REACTORS
330
C
102
}
330
C
100
AcDbDictionary
281
     1
  3
Standard
350
18
  0
DICTIONARY
  5
19
102
{ACAD_REACTORS
330
C
102
}
330
C
100
AcDbDictionary
281
     1
  0
ACDBDICTIONARYWDFLT
  5
E
102
{ACAD_REACTORS
330
C
102
}
330
C
100
AcDbDictionary
281
     1
  3
Normal
350
F
100
AcDbDictionaryWithDefault
340
F
  0
DICTIONARY
  5
47
102
{ACAD_REACTORS
330
C
102
}
330
C
100
AcDbDictionary
281
     1
  3
A0
350
48
  3
A1
350
49
  3
A2
350
4A
  3
A3
350
4B
  3
A4
350
4C
  3
A5
350
4D
  3
A6
350
4E
  3
A7
350
4F
  3
A8
350
50
  3
A9
350
51
  3
B0
350
52
  3
B1
350
53
  3
B2
350
54
  3
B3
350
55
  3
B4
350
56
  3
B5
350
57
  3
B6
350
58
  3
B7
350
59
  3
B8
350
5A
  3
B9
350
5B
  3
C0
350
5C
  3
C1
350
5D
  3
C2
350
5E
  3
C3
350
5F
  3
C4
350
60
  3
C5
350
61
  3
C6
350
62
  3
C7
350
63
  3
C8
350
64
  3
C9
350
65
  3
D0
350
66
  3
D1
350
67
  3
D2
350
68
  0
LAYOUT
  5
1E
102
{ACAD_REACTORS
330
1A
102
}
330
1A
100
AcDbPlotSettings
  1

  2
none_device
  4

  6

 40
0.0
 41
0.0
 42
0.0
 43
0.0
 44
0.0
 45
0.0
 46
0.0
 47
0.0
 48
0.0
 49
0.0
140
0.0
141
0.0
142
1.0
143
1.0
 70
   688
 72
     0
 73
     0
 74
     5
  7

 75
    16
147
1.0
148
0.0
149
0.0
100
AcDbLayout
  1
Layout1
 70
     1
 71
     1
 10
0.0
 20
0.0
 11
12.0
 21
9.0
 12
0.0
 22
0.0
 32
0.0
 14
1.0000000000E+20
 24
1.0000000000E+20
 34
1.0000000000E+20
 15
-1.0000000000E+20
 25
-1.0000000000E+20
 35
-1.0000000000E+20
146
0.0
 13
0.0
 23
0.0
 33
0.0
 16
1.0
 26
0.0
 36
0.0
 17
0.0
 27
1.0
 37
0.0
 76
     0
330
1B
  0
LAYOUT
  5
26
102
{ACAD_REACTORS
330
1A
102
}
330
1A
100
AcDbPlotSettings
  1

  2
none_device
  4

  6

 40
0.0
 41
0.0
 42
0.0
 43
0.0
 44
0.0
 45
0.0
 46
0.0
 47
0.0
 48
0.0
 49
0.0
140
0.0
141
0.0
142
1.0
143
1.0
 70
   688
 72
     0
 73
     0
 74
     5
  7

 75
    16
147
1.0
148
0.0
149
0.0
100
AcDbLayout
  1
Layout2
 70
     1
 71
     2
 10
0.0
 20
0.0
 11
0.0
 21
0.0
 12
0.0
 22
0.0
 32
0.0
 14
0.0
 24
0.0
 34
0.0
 15
0.0
 25
0.0
 35
0.0
146
0.0
 13
0.0
 23
0.0
 33
0.0
 16
1.0
 26
0.0
 36
0.0
 17
0.0
 27
1.0
 37
0.0
 76
     0
330
23
  0
LAYOUT
  5
22
102
{ACAD_REACTORS
330
1A
102
}
330
1A
100
AcDbPlotSettings
  1

  2
none_device
  4
Letter_(8.50_x_11.00_Inches)
  6

 40
6.35
 41
6.35
 42
6.35000508
 43
6.35000508
 44
215.9
 45
279.4
 46
0.0
 47
0.0
 48
0.0
 49
0.0
140
0.0
141
0.0
142
1.0
143
1.0
 70
  1712
 72
     0
 73
     0
 74
     0
  7

 75
     0
147
1.0
148
0.0
149
0.0
100
AcDbLayout
  1
Model
 70
     1
 71
     0
 10
0.0
 20
0.0
 11
11.0
 21
8.5
 12
0.0
 22
0.0
 32
0.0
 14
0.0
 24
0.0
 34
0.0
 15
11.0
 25
8.5
 35
0.0
146
0.0
 13
0.0
 23
0.0
 33
0.0
 16
1.0
 26
0.0
 36
0.0
 17
0.0
 27
1.0
 37
0.0
 76
     0
330
1F
331
29
  0
MLINESTYLE
  5
18
102
{ACAD_REACTORS
330
17
102
}
330
17
100
AcDbMlineStyle
  2
Standard
 70
     0
  3

 62
   256
 51
90.0
 52
90.0
 71
     2
 49
0.5
 62
   256
  6
BYLAYER
 49
-0.5
 62
   256
  6
BYLAYER
  0
ACDBPLACEHOLDER
  5
F
102
{ACAD_REACTORS
330
E
102
}
330
E
  0
SCALE
  5
48
102
{ACAD_REACTORS
330
47
102
}
330
47
100
AcDbScale
 70
     0
300
1:1
140
1.0
141
1.0
290
     1
  0
SCALE
  5
49
102
{ACAD_REACTORS
330
47
102
}
330
47
100
AcDbScale
 70
     0
300
1:2
140
1.0
141
2.0
290
     0
  0
SCALE
  5
4A
102
{ACAD_REACTORS
330
47
102
}
330
47
100
AcDbScale
 70
     0
300
1:4
140
1.0
141
4.0
290
     0
  0
SCALE
  5
4B
102
{ACAD_REACTORS
330
47
102
}
330
47
100
AcDbScale
 70
     0
300
1:5
140
1.0
141
5.0
290
     0
  0
SCALE
  5
4C
102
{ACAD_REACTORS
330
47
102
}
330
47
100
AcDbScale
 70
     0
300
1:8
140
1.0
141
8.0
290
     0
  0
SCALE
  5
4D
102
{ACAD_REACTORS
330
47
102
}
330
47
100
AcDbScale
 70
     0
300
1:10
140
1.0
141
10.0
290
     0
  0
SCALE
  5
4E
102
{ACAD_REACTORS
330
47
102
}
330
47
100
AcDbScale
 70
     0
300
1:16
140
1.0
141
16.0
290
     0
  0
SCALE
  5
4F
102
{ACAD_REACTORS
330
47
102
}
330
47
100
AcDbScale
 70
     0
300
1:20
140
1.0
141
20.0
290
     0
  0
SCALE
  5
50
102
{ACAD_REACTORS
330
47
102
}
330
47
100
AcDbScale
 70
     0
300
1:30
140
1.0
141
30.0
290
     0
  0
SCALE
  5
51
102
{ACAD_REACTORS
330
47
102
}
330
47
100
AcDbScale
 70
     0
300
1:40
140
1.0
141
40.0
290
     0
  0
SCALE
  5
52
102
{ACAD_REACTORS
330
47
102
}
330
47
100
AcDbScale
 70
     0
300
1:50
140
1.0
141
50.0
290
     0
  0
SCALE
  5
53
102
{ACAD_REACTORS
330
47
102
}
330
47
100
AcDbScale
 70
     0
300
1:100
140
1.0
141
100.0
290
     0
  0
SCALE
  5
54
102
{ACAD_REACTORS
330
47
102
}
330
47
100
AcDbScale
 70
     0
300
2:1
140
2.0
141
1.0
290
     0
  0
SCALE
  5
55
102
{ACAD_REACTORS
330
47
102
}
330
47
100
AcDbScale
 70
     0
300
4:1
140
4.0
141
1.0
290
     0
  0
SCALE
  5
56
102
{ACAD_REACTORS
330
47
102
}
330
47
100
AcDbScale
 70
     0
300
8:1
140
8.0
141
1.0
290
     0
  0
SCALE
  5
57
102
{ACAD_REACTORS
330
47
102
}
330
47
100
AcDbScale
 70
     0
300
10:1
140
10.0
141
1.0
290
     0
  0
SCALE
  5
58
102
{ACAD_REACTORS
330
47
102
}
330
47
100
AcDbScale
 70
     0
300
100:1
140
100.0
141
1.0
290
     0
  0
SCALE
  5
59
102
{ACAD_REACTORS
330
47
102
}
330
47
100
AcDbScale
 70
     0
300
1/128" = 1'-0"
140
0.0078125
141
12.0
290
     0
  0
SCALE
  5
5A
102
{ACAD_REACTORS
330
47
102
}
330
47
100
AcDbScale
 70
     0
300
1/64" = 1'-0"
140
0.015625
141
12.0
290
     0
  0
SCALE
  5
5B
102
{ACAD_REACTORS
330
47
102
}
330
47
100
AcDbScale
 70
     0
300
1/32" = 1'-0"
140
0.03125
141
12.0
290
     0
  0
SCALE
  5
5C
102
{ACAD_REACTORS
330
47
102
}
330
47
100
AcDbScale
 70
     0
300
1/16" = 1'-0"
140
0.0625
141
12.0
290
     0
  0
SCALE
  5
5D
102
{ACAD_REACTORS
330
47
102
}
330
47
100
AcDbScale
 70
     0
300
3/32" = 1'-0"
140
0.09375
141
12.0
290
     0
  0
SCALE
  5
5E
102
{ACAD_REACTORS
330
47
102
}
330
47
100
AcDbScale
 70
     0
300
1/8" = 1'-0"
140
0.125
141
12.0
290
     0
  0
SCALE
  5
5F
102
{ACAD_REACTORS
330
47
102
}
330
47
100
AcDbScale
 70
     0
300
3/16" = 1'-0"
140
0.1875
141
12.0
290
     0
  0
SCALE
  5
60
102
{ACAD_REACTORS
330
47
102
}
330
47
100
AcDbScale
 70
     0
300
1/4" = 1'-0"
140
0.25
141
12.0
290
     0
  0
SCALE
  5
61
102
{ACAD_REACTORS
330
47
102
}
330
47
100
AcDbScale
 70
     0
300
3/8" = 1'-0"
140
0.375
141
12.0
290
     0
  0
SCALE
  5
62
102
{ACAD_REACTORS
330
47
102
}
330
47
100
AcDbScale
 70
     0
300
1/2" = 1'-0"
140
0.5
141
12.0
290
     0
  0
SCALE
  5
63
102
{ACAD_REACTORS
330
47
102
}
330
47
100
AcDbScale
 70
     0
300
3/4" = 1'-0"
140
0.75
141
12.0
290
     0
  0
SCALE
  5
64
102
{ACAD_REACTORS
330
47
102
}
330
47
100
AcDbScale
 70
     0
300
1" = 1'-0"
140
1.0
141
12.0
290
     0
  0
SCALE
  5
65
102
{ACAD_REACTORS
330
47
102
}
330
47
100
AcDbScale
 70
     0
300
1-1/2" = 1'-0"
140
1.5
141
12.0
290
     0
  0
SCALE
  5
66
102
{ACAD_REACTORS
330
47
102
}
330
47
100
AcDbScale
 70
     0
300
3" = 1'-0"
140
3.0
141
12.0
290
     0
  0
SCALE
  5
67
102
{ACAD_REACTORS
330
47
102
}
330
47
100
AcDbScale
 70
     0
300
6" = 1'-0"
140
6.0
141
12.0
290
     0
  0
SCALE
  5
68
102
{ACAD_REACTORS
330
47
102
}
330
47
100
AcDbScale
 70
     0
300
1'-0" = 1'-0"
140
12.0
141
12.0
290
     0
  0
ENDSEC
  0
EOF
