  0
SECTION
  2
HEADER
  9
$ACADVER
  1
AC1015
  9
$ACADMAINTVER
 70
     6
  9
$DWGCODEPAGE
  3
ANSI_1252
  9
$INSBASE
 10
0.0
 20
0.0
 30
0.0
  9
$EXTMIN
 10
0.0
 20
0.0
 30
0.0
  9
$EXTMAX
 10
279.4
 20
215.9
 30
0.0
  9
$LIMMIN
 10
0.0
 20
0.0
  9
$LIMMAX
 10
279.4
 20
215.9
  9
$ORTHOMODE
 70
     0
  9
$REGENMODE
 70
     1
  9
$FILLMODE
 70
     1
  9
$QTEXTMODE
 70
     0
  9
$MIRRTEXT
 70
     1
  9
$LTSCALE
 40
1.0
  9
$ATTMODE
 70
     1
  9
$TEXTSIZE
 40
2.8222222222
  9
$TRACEWID
 40
1.0
  9
$TEXTSTYLE
  7
Standard
  9
$CLAYER
  8
0
  9
$CELTYPE
  6
ByLayer
  9
$CECOLOR
 62
   256
  9
$CELTSCALE
 40
1.0
  9
$DISPSILH
 70
     0
  9
$DIMSCALE
 40
1.0
  9
$DIMASZ
 40
3.175
  9
$DIMEXO
 40
1.27
  9
$DIMDLI
 40
3.75
  9
$DIMRND
 40
0.0
  9
$DIMDLE
 40
0.0
  9
$DIMEXE
 40
1.778
  9
$DIMTP
 40
0.0
  9
$DIMTM
 40
0.0
  9
$DIMTXT
 40
2.8222222222
  9
$DIMCEN
 40
2.5
  9
$DIMTSZ
 40
0.0
  9
$DIMTOL
 70
     0
  9
$DIMLIM
 70
     0
  9
$DIMTIH
 70
     1
  9
$DIMTOH
 70
     1
  9
$DIMSE1
 70
     0
  9
$DIMSE2
 70
     0
  9
$DIMTAD
 70
     0
  9
$DIMZIN
 70
     1
  9
$DIMBLK
  1

  9
$DIMASO
 70
     1
  9
$DIMSHO
 70
     1
  9
$DIMPOST
  1

  9
$DIMAPOST
  1

  9
$DIMALT
 70
     0
  9
$DIMALTD
 70
     3
  9
$DIMALTF
 40
0.0393700787
  9
$DIMLFAC
 40
1.0
  9
$DIMTOFL
 70
     1
  9
$DIMTVP
 40
0.0
  9
$DIMTIX
 70
     0
  9
$DIMSOXD
 70
     0
  9
$DIMSAH
 70
     0
  9
$DIMBLK1
  1

  9
$DIMBLK2
  1

  9
$DIMSTYLE
  2
ISO-25
  9
$DIMCLRD
 70
     0
  9
$DIMCLRE
 70
     0
  9
$DIMCLRT
 70
     0
  9
$DIMTFAC
 40
1.0
  9
$DIMGAP
 40
2.54
  9
$DIMJUST
 70
     0
  9
$DIMSD1
 70
     0
  9
$DIMSD2
 70
     0
  9
$DIMTOLJ
 70
     0
  9
$DIMTZIN
 70
     1
  9
$DIMALTZ
 70
     0
  9
$DIMALTTZ
 70
     0
  9
$DIMUPT
 70
     0
  9
$DIMDEC
 70
     1
  9
$DIMTDEC
 70
     1
  9
$DIMALTU
 70
     2
  9
$DIMALTTD
 70
     3
  9
$DIMTXSTY
  7
Standard
  9
$DIMAUNIT
 70
     0
  9
$DIMADEC
 70
     0
  9
$DIMALTRND
 40
0.0
  9
$DIMAZIN
 70
     0
  9
$DIMDSEP
 70
    44
  9
$DIMATFIT
 70
     3
  9
$DIMFRAC
 70
     0
  9
$DIMLDRBLK
  1

  9
$DIMLUNIT
 70
     2
  9
$DIMLWD
 70
    -2
  9
$DIMLWE
 70
    -2
  9
$DIMTMOVE
 70
     0
  9
$LUNITS
 70
     2
  9
$LUPREC
 70
     1
  9
$SKETCHINC
 40
1.0
  9
$FILLETRAD
 40
10.0
  9
$AUNITS
 70
     0
  9
$AUPREC
 70
     0
  9
$MENU
  1
.
  9
$ELEVATION
 40
0.0
  9
$PELEVATION
 40
0.0
  9
$THICKNESS
 40
0.0
  9
$LIMCHECK
 70
     0
  9
$CHAMFERA
 40
0.0
  9
$CHAMFERB
 40
0.0
  9
$CHAMFERC
 40
0.0
  9
$CHAMFERD
 40
0.0
  9
$SKPOLY
 70
     0
  9
$TDCREATE
 40
2457085.717769514
  9
$TDUCREATE
 40
2457085.38443618
  9
$TDUPDATE
 40
2457085.71777441
  9
$TDUUPDATE
 40
2457085.384441076
  9
$TDINDWG
 40
0.0000000116
  9
$TDUSRTIMER
 40
0.0000000116
  9
$USRTIMER
 70
     1
  9
$ANGBASE
 50
0.0
  9
$ANGDIR
 70
     0
  9
$PDMODE
 70
     0
  9
$PDSIZE
 40
-1.0
  9
$PLINEWID
 40
0.0
  9
$SPLFRAME
 70
     0
  9
$SPLINETYPE
 70
     6
  9
$SPLINESEGS
 70
     8
  9
$HANDSEED
  5
44D
  9
$SURFTAB1
 70
     6
  9
$SURFTAB2
 70
     6
  9
$SURFTYPE
 70
     6
  9
$SURFU
 70
     6
  9
$SURFV
 70
     6
  9
$UCSBASE
  2

  9
$UCSNAME
  2

  9
$UCSORG
 10
0.0
 20
0.0
 30
0.0
  9
$UCSXDIR
 10
1.0
 20
0.0
 30
0.0
  9
$UCSYDIR
 10
0.0
 20
1.0
 30
0.0
  9
$UCSORTHOREF
  2

  9
$UCSORTHOVIEW
 70
     0
  9
$UCSORGTOP
 10
0.0
 20
0.0
 30
0.0
  9
$UCSORGBOTTOM
 10
0.0
 20
0.0
 30
0.0
  9
$UCSORGLEFT
 10
0.0
 20
0.0
 30
0.0
  9
$UCSORGRIGHT
 10
0.0
 20
0.0
 30
0.0
  9
$UCSORGFRONT
 10
0.0
 20
0.0
 30
0.0
  9
$UCSORGBACK
 10
0.0
 20
0.0
 30
0.0
  9
$PUCSBASE
  2

  9
$PUCSNAME
  2

  9
$PUCSORG
 10
0.0
 20
0.0
 30
0.0
  9
$PUCSXDIR
 10
1.0
 20
0.0
 30
0.0
  9
$PUCSYDIR
 10
0.0
 20
1.0
 30
0.0
  9
$PUCSORTHOREF
  2

  9
$PUCSORTHOVIEW
 70
     0
  9
$PUCSORGTOP
 10
0.0
 20
0.0
 30
0.0
  9
$PUCSORGBOTTOM
 10
0.0
 20
0.0
 30
0.0
  9
$PUCSORGLEFT
 10
0.0
 20
0.0
 30
0.0
  9
$PUCSORGRIGHT
 10
0.0
 20
0.0
 30
0.0
  9
$PUCSORGFRONT
 10
0.0
 20
0.0
 30
0.0
  9
$PUCSORGBACK
 10
0.0
 20
0.0
 30
0.0
  9
$USERI1
 70
     0
  9
$USERI2
 70
     0
  9
$USERI3
 70
     0
  9
$USERI4
 70
     0
  9
$USERI5
 70
     0
  9
$USERR1
 40
0.0
  9
$USERR2
 40
0.0
  9
$USERR3
 40
0.0
  9
$USERR4
 40
0.0
  9
$USERR5
 40
0.0
  9
$WORLDVIEW
 70
     1
  9
$SHADEDGE
 70
     3
  9
$SHADEDIF
 70
    70
  9
$TILEMODE
 70
     1
  9
$MAXACTVP
 70
    64
  9
$PINSBASE
 10
0.0
 20
0.0
 30
0.0
  9
$PLIMCHECK
 70
     0
  9
$PEXTMIN
 10
1.0000000000E+20
 20
1.0000000000E+20
 30
1.0000000000E+20
  9
$PEXTMAX
 10
-1.0000000000E+20
 20
-1.0000000000E+20
 30
-1.0000000000E+20
  9
$PLIMMIN
 10
0.0
 20
0.0
  9
$PLIMMAX
 10
420.0
 20
297.0
  9
$UNITMODE
 70
     0
  9
$VISRETAIN
 70
     1
  9
$PLINEGEN
 70
     0
  9
$PSLTSCALE
 70
     1
  9
$TREEDEPTH
 70
  3020
  9
$CMLSTYLE
  2
Standard
  9
$CMLJUST
 70
     0
  9
$CMLSCALE
 40
20.0
  9
$PROXYGRAPHICS
 70
     1
  9
$MEASUREMENT
 70
     1
  9
$CELWEIGHT
370
    -1
  9
$ENDCAPS
280
     0
  9
$JOINSTYLE
280
     0
  9
$LWDISPLAY
290
     1
  9
$INSUNITS
 70
     4
  9
$HYPERLINKBASE
  1

  9
$STYLESHEET
  1

  9
$XEDIT
290
     1
  9
$CEPSNTYPE
380
     0
  9
$PSTYLEMODE
290
     1
  9
$FINGERPRINTGUID
  2
{07F3CEB6-6654-4D07-AB24-51F8220B8EE8}
  9
$VERSIONGUID
  2
{FAEB1C32-E019-11D5-929B-00C0DF256EC4}
  9
$EXTNAMES
290
     1
  9
$PSVPSCALE
 40
0.0
  9
$OLESTARTUP
290
     0
  0
ENDSEC
  0
SECTION
  2
CLASSES
  0
CLASS
  1
ACDBDICTIONARYWDFLT
  2
AcDbDictionaryWithDefault
  3
ObjectDBX Classes
 90
        0
280
     0
281
     0
  0
CLASS
  1
VISUALSTYLE
  2
AcDbVisualStyle
  3
ObjectDBX Classes
 90
     4095
280
     0
281
     0
  0
CLASS
  1
MATERIAL
  2
AcDbMaterial
  3
ObjectDBX Classes
 90
     1153
280
     0
281
     0
  0
CLASS
  1
SCALE
  2
AcDbScale
  3
ObjectDBX Classes
 90
     1153
280
     0
281
     0
  0
CLASS
  1
SUN
  2
AcDbSun
  3
SCENEOE
 90
     1153
280
     0
281
     0
  0
CLASS
  1
ACDBPLACEHOLDER
  2
AcDbPlaceHolder
  3
ObjectDBX Classes
 90
        0
280
     0
281
     0
  0
CLASS
  1
LAYOUT
  2
AcDbLayout
  3
ObjectDBX Classes
 90
        0
280
     0
281
     0
  0
ENDSEC
  0
SECTION
  2
TABLES
  0
TABLE
  2
VPORT
  5
8
330
0
100
AcDbSymbolTable
 70
     1
  0
VPORT
  5
29
330
8
100
AcDbSymbolTableRecord
100
AcDbViewportTableRecord
  2
*Active
 70
     0
 10
0.0
 20
0.0
 11
1.0
 21
1.0
 12
139.7
 22
107.95
 13
0.0
 23
0.0
 14
10.0
 24
10.0
 15
10.0
 25
10.0
 16
0.0
 26
0.0
 36
1.0
 17
0.0
 27
0.0
 37
0.0
 40
215.9
 41
1.2941176471
 42
50.0
 43
0.0
 44
0.0
 50
0.0
 51
0.0
 71
     0
 72
  2000
 73
     1
 74
     3
 75
     0
 76
     0
 77
     0
 78
     0
281
     0
 65
     1
110
0.0
120
0.0
130
0.0
111
1.0
121
0.0
131
0.0
112
0.0
122
1.0
132
0.0
 79
     0
146
0.0
  0
ENDTAB
  0
TABLE
  2
LTYPE
  5
5
330
0
100
AcDbSymbolTable
 70
     6
  0
LTYPE
  5
14
330
5
100
AcDbSymbolTableRecord
100
AcDbLinetypeTableRecord
  2
ByBlock
 70
     0
  3

 72
    65
 73
     0
 40
0.0
  0
LTYPE
  5
15
330
5
100
AcDbSymbolTableRecord
100
AcDbLinetypeTableRecord
  2
ByLayer
 70
     0
  3

 72
    65
 73
     0
 40
0.0
  0
LTYPE
  5
16
330
5
100
AcDbSymbolTableRecord
100
AcDbLinetypeTableRecord
  2
Continuous
 70
     0
  3
Solid line
 72
    65
 73
     0
 40
0.0
  0
LTYPE
  5
6A
330
5
100
AcDbSymbolTableRecord
100
AcDbLinetypeTableRecord
  2
HIDDEN
 70
     0
  3
Hidden __ __ __ __ __ __ __ __ __ __ __ __ __ __
 72
    65
 73
     2
 40
1.905
 49
1.27
 74
     0
 49
-0.635
 74
     0
  0
LTYPE
  5
6B
330
5
100
AcDbSymbolTableRecord
100
AcDbLinetypeTableRecord
  2
PHANTOM
 70
     0
  3
Phantom ______  __  __  ______  __  __  ______
 72
    65
 73
     6
 40
12.7
 49
6.35
 74
     0
 49
-1.27
 74
     0
 49
1.27
 74
     0
 49
-1.27
 74
     0
 49
1.27
 74
     0
 49
-1.27
 74
     0
  0
LTYPE
  5
6C
330
5
100
AcDbSymbolTableRecord
100
AcDbLinetypeTableRecord
  2
CENTER
 70
     0
  3
Center ____ _ ____ _ ____ _ ____ _ ____ _ ____
 72
    65
 73
     4
 40
10.16
 49
6.35
 74
     0
 49
-1.27
 74
     0
 49
1.27
 74
     0
 49
-1.27
 74
     0
  0
LTYPE
  5
6D
330
5
100
AcDbSymbolTableRecord
100
AcDbLinetypeTableRecord
  2
CENTERX2
 70
     0
  3
Center (2x) ________  __  ________  __  _____
 72
    65
 73
     4
 40
20.32
 49
12.7
 74
     0
 49
-2.54
 74
     0
 49
2.54
 74
     0
 49
-2.54
 74
     0
  0
LTYPE
  5
6E
330
5
100
AcDbSymbolTableRecord
100
AcDbLinetypeTableRecord
  2
DOT2
 70
     0
  3
Dot (.5x) ........................................
 72
    65
 73
     2
 40
0.635
 49
0.0
 74
     0
 49
-0.635
 74
     0
  0
ENDTAB
  0
TABLE
  2
LAYER
  5
2
330
0
100
AcDbSymbolTable
 70
     2
  0
LAYER
  5
10
330
2
100
AcDbSymbolTableRecord
100
AcDbLayerTableRecord
  2
0
 70
     0
 62
     7
  6
Continuous
370
    -3
390
F
  0
LAYER
  5
6F
330
2
100
AcDbSymbolTableRecord
100
AcDbLayerTableRecord
  2
FORMAT
 70
     0
 62
     7
  6
Continuous
370
    -3
390
F
  0
ENDTAB
  0
TABLE
  2
STYLE
  5
3
330
0
100
AcDbSymbolTable
 70
     4
  0
STYLE
  5
11
330
3
100
AcDbSymbolTableRecord
100
AcDbTextStyleTableRecord
  2
Standard
 70
     0
 40
0.0
 41
1.0
 50
0.0
 71
     0
 42
2.8222222222
  3
txt
  4

  0
STYLE
  5
96
330
3
100
AcDbSymbolTableRecord
100
AcDbTextStyleTableRecord
  2
SLDTEXTSTYLE0
 70
     0
 40
0.0
 41
0.75
 50
0.0
 71
     0
 42
2.8222222222
  3
TXT
  4

  0
STYLE
  5
A2
330
3
100
AcDbSymbolTableRecord
100
AcDbTextStyleTableRecord
  2
SLDTEXTSTYLE1
 70
     0
 40
0.0
 41
0.5525
 50
0.0
 71
     0
 42
2.8222222222
  3
TXT
  4

  0
STYLE
  5
448
330
3
100
AcDbSymbolTableRecord
100
AcDbTextStyleTableRecord
  2
SLDTEXTSTYLE2
 70
     0
 40
0.0
 41
0.7
 50
0.0
 71
     0
 42
2.8222222222
  3
TXT
  4

  0
ENDTAB
  0
TABLE
  2
VIEW
  5
6
330
0
100
AcDbSymbolTable
 70
     0
  0
ENDTAB
  0
TABLE
  2
UCS
  5
7
330
0
100
AcDbSymbolTable
 70
     0
  0
ENDTAB
  0
TABLE
  2
APPID
  5
9
330
0
100
AcDbSymbolTable
 70
     1
  0
APPID
  5
12
330
9
100
AcDbSymbolTableRecord
100
AcDbRegAppTableRecord
  2
ACAD
 70
     0
  0
ENDTAB
  0
TABLE
  2
DIMSTYLE
  5
A
330
0
100
AcDbSymbolTable
 70
     7
100
AcDbDimStyleTable
  0
DIMSTYLE
105
27
330
A
100
AcDbSymbolTableRecord
100
AcDbDimStyleTableRecord
  2
ISO-25
 70
     0
 41
2.5
 42
0.625
 43
3.75
 44
1.25
 73
     0
 74
     0
 77
     1
 78
     8
140
2.5
141
2.5
143
0.0393700787
147
0.625
171
     3
172
     1
178
     0
271
     2
272
     2
274
     3
278
    44
283
     0
284
     8
340
11
  0
DIMSTYLE
105
E2
102
{ACAD_REACTORS
330
E1
330
2A2
102
}
330
A
100
AcDbSymbolTableRecord
100
AcDbDimStyleTableRecord
  2
SLDDIMSTYLE0
 70
     0
 41
3.175
 44
0.0
 45
0.000000001
 78
     4
 79
     1
140
2.1166666667
143
0.0393700787
147
0.5291666667
148
0.000000001
170
     1
172
     1
173
     1
178
     0
271
     1
272
     1
276
     2
284
    12
289
     0
340
96
  0
DIMSTYLE
105
F8
102
{ACAD_REACTORS
330
F7
330
10D
330
2B7
102
}
330
A
100
AcDbSymbolTableRecord
100
AcDbDimStyleTableRecord
  2
SLDDIMSTYLE1
 70
     0
 41
3.175
 44
0.0
 45
0.000000001
 78
    12
 79
     3
140
2.1166666667
143
0.0393700787
147
0.5291666667
148
0.000000001
170
     1
172
     1
173
     1
178
     0
271
     1
272
     1
276
     2
284
    12
289
     0
340
96
  0
DIMSTYLE
105
11A
102
{ACAD_REACTORS
330
119
102
}
330
A
100
AcDbSymbolTableRecord
100
AcDbDimStyleTableRecord
  2
SLDDIMSTYLE2
 70
     0
 41
3.175
 44
0.0
 45
0.000000001
 78
     4
 79
     1
140
2.1166666667
143
0.0393700787
147
0.5291666667
148
0.000000001
170
     1
173
     1
178
     0
271
     1
272
     1
276
     2
284
    12
340
96
  0
DIMSTYLE
105
12F
330
A
100
AcDbSymbolTableRecord
100
AcDbDimStyleTableRecord
  2
SLDDIMSTYLE3
 70
     0
 41
3.175
 44
0.0
 45
0.000000001
146
3.175
147
0.0
173
     1
178
     0
271
     0
272
     0
276
     2
340
11
  0
DIMSTYLE
105
233
102
{ACAD_REACTORS
330
232
102
}
330
A
100
AcDbSymbolTableRecord
100
AcDbDimStyleTableRecord
  2
SLDDIMSTYLE4
 70
     0
 41
3.175
 44
0.0
 45
0.000000001
 78
    12
 79
     3
140
2.1166666667
141
0.0
143
0.0393700787
147
0.5291666667
148
0.000000001
170
     1
173
     1
178
     0
271
     1
272
     1
276
     2
284
    12
340
96
  0
DIMSTYLE
105
244
102
{ACAD_REACTORS
330
243
330
258
102
}
330
A
100
AcDbSymbolTableRecord
100
AcDbDimStyleTableRecord
  2
SLDDIMSTYLE5
 70
     0
 41
3.175
 44
0.0
 45
0.000000001
 78
    12
 79
     3
140
2.1166666667
143
0.0393700787
147
0.5291666667
148
0.000000001
170
     1
173
     1
178
     0
271
     1
272
     1
276
     2
284
    12
340
96
  0
ENDTAB
  0
TABLE
  2
BLOCK_RECORD
  5
1
330
0
100
AcDbSymbolTable
 70
    18
  0
BLOCK_RECORD
  5
1F
330
1
100
AcDbSymbolTableRecord
100
AcDbBlockTableRecord
  2
*Model_Space
340
22
  0
BLOCK_RECORD
  5
1B
330
1
100
AcDbSymbolTableRecord
100
AcDbBlockTableRecord
  2
*Paper_Space
340
1E
  0
BLOCK_RECORD
  5
23
330
1
100
AcDbSymbolTableRecord
100
AcDbBlockTableRecord
  2
*Paper_Space0
340
26
  0
BLOCK_RECORD
  5
70
330
1
100
AcDbSymbolTableRecord
100
AcDbBlockTableRecord
  2
Third Angle Projection Block
340
0
102
{BLKREFS
331
95
102
}
  0
BLOCK_RECORD
  5
A8
330
1
100
AcDbSymbolTableRecord
100
AcDbBlockTableRecord
  2
SW_NOTE_0
340
0
102
{BLKREFS
331
AD
102
}
  0
BLOCK_RECORD
  5
AE
330
1
100
AcDbSymbolTableRecord
100
AcDbBlockTableRecord
  2
SW_NOTE_1
340
0
102
{BLKREFS
331
B3
102
}
  0
BLOCK_RECORD
  5
B5
330
1
100
AcDbSymbolTableRecord
100
AcDbBlockTableRecord
  2
SW_NOTE_2
340
0
102
{BLKREFS
331
BA
102
}
  0
BLOCK_RECORD
  5
E3
330
1
100
AcDbSymbolTableRecord
100
AcDbBlockTableRecord
  2
_D
340
0
  0
BLOCK_RECORD
  5
F9
330
1
100
AcDbSymbolTableRecord
100
AcDbBlockTableRecord
  2
_D_1
340
0
  0
BLOCK_RECORD
  5
10E
330
1
100
AcDbSymbolTableRecord
100
AcDbBlockTableRecord
  2
_D_2
340
0
  0
BLOCK_RECORD
  5
11B
330
1
100
AcDbSymbolTableRecord
100
AcDbBlockTableRecord
  2
_D_3
340
0
  0
BLOCK_RECORD
  5
137
330
1
100
AcDbSymbolTableRecord
100
AcDbBlockTableRecord
  2
SW_CENTERMARKSYMBOL_0
340
0
102
{BLKREFS
331
13E
102
}
  0
BLOCK_RECORD
  5
13F
330
1
100
AcDbSymbolTableRecord
100
AcDbBlockTableRecord
  2
SW_CENTERMARKSYMBOL_1
340
0
102
{BLKREFS
331
146
102
}
  0
BLOCK_RECORD
  5
147
330
1
100
AcDbSymbolTableRecord
100
AcDbBlockTableRecord
  2
SW_CENTERMARKSYMBOL_2
340
0
102
{BLKREFS
331
14E
102
}
  0
BLOCK_RECORD
  5
234
330
1
100
AcDbSymbolTableRecord
100
AcDbBlockTableRecord
  2
_D_4
340
0
  0
BLOCK_RECORD
  5
245
330
1
100
AcDbSymbolTableRecord
100
AcDbBlockTableRecord
  2
_D_5
340
0
  0
BLOCK_RECORD
  5
259
330
1
100
AcDbSymbolTableRecord
100
AcDbBlockTableRecord
  2
_D_6
340
0
  0
BLOCK_RECORD
  5
2A3
330
1
100
AcDbSymbolTableRecord
100
AcDbBlockTableRecord
  2
_D_7
340
0
  0
BLOCK_RECORD
  5
2B8
330
1
100
AcDbSymbolTableRecord
100
AcDbBlockTableRecord
  2
_D_8
340
0
  0
BLOCK_RECORD
  5
445
330
1
100
AcDbSymbolTableRecord
100
AcDbBlockTableRecord
  2
SW_NOTE_3
340
0
102
{BLKREFS
331
44B
102
}
  0
ENDTAB
  0
ENDSEC
  0
SECTION
  2
BLOCKS
  0
BLOCK
  5
20
330
1F
100
AcDbEntity
  8
0
100
AcDbBlockBegin
  2
*Model_Space
 70
     0
 10
0.0
 20
0.0
 30
0.0
  3
*Model_Space
  1
*Model_Space
  0
ENDBLK
  5
21
330
1F
100
AcDbEntity
  8
0
100
AcDbBlockEnd
  0
BLOCK
  5
1C
330
1B
100
AcDbEntity
 67
     1
  8
0
100
AcDbBlockBegin
  2
*Paper_Space
 70
     0
 10
0.0
 20
0.0
 30
0.0
  3
*Paper_Space
  1
*Paper_Space
  0
ENDBLK
  5
1D
330
1B
100
AcDbEntity
 67
     1
  8
0
100
AcDbBlockEnd
  0
BLOCK
  5
24
330
23
100
AcDbEntity
  8
0
100
AcDbBlockBegin
  2
*Paper_Space0
 70
     0
 10
0.0
 20
0.0
 30
0.0
  3
*Paper_Space0
  1
*Paper_Space0
  0
ENDBLK
  5
25
330
23
100
AcDbEntity
  8
0
100
AcDbBlockEnd
  0
BLOCK
  5
71
330
70
100
AcDbEntity
  8
0
100
AcDbBlockBegin
  2
Third Angle Projection Block
 70
     0
 10
0.0
 20
0.0
 30
0.0
  3
Third Angle Projection Block
  1
Third Angle Projection Block
  0
CIRCLE
  5
73
330
70
100
AcDbEntity
  8
0
  6
Continuous
 62
     7
370
    30
100
AcDbCircle
 10
101.4766388944
 20
18.9404083667
 30
0.0
 40
1.768227153674871
  0
CIRCLE
  5
74
330
70
100
AcDbEntity
  8
0
  6
Continuous
 62
     7
370
    30
100
AcDbCircle
 10
101.4766388944
 20
18.9404083667
 30
0.0
 40
3.901228248531818
  0
LINE
  5
75
330
70
100
AcDbEntity
  8
0
  6
CENTERX2
 62
     7
370
     0
100
AcDbLine
 10
110.1367822585
 20
18.9404083667
 30
0.0
 11
119.4527334874
 21
18.9404083667
 31
0.0
  0
LINE
  5
76
330
70
100
AcDbEntity
  8
0
  6
Continuous
 62
     7
370
    30
100
AcDbLine
 10
111.0016388944
 20
20.7086355204
 30
0.0
 11
111.0016388944
 21
17.172181213
 31
0.0
  0
LINE
  5
77
330
70
100
AcDbEntity
  8
0
  6
Continuous
 62
     7
370
    30
100
AcDbLine
 10
111.0016388944
 20
17.172181213
 30
0.0
 11
118.6216388944
 21
15.1304083667
 31
0.0
  0
LINE
  5
78
330
70
100
AcDbEntity
  8
0
  6
Continuous
 62
     7
370
    30
100
AcDbLine
 10
118.6216388944
 20
15.1304083667
 30
0.0
 11
118.6216388944
 21
22.7504083667
 31
0.0
  0
LINE
  5
79
330
70
100
AcDbEntity
  8
0
  6
Continuous
 62
     7
370
    30
100
AcDbLine
 10
118.6216388944
 20
22.7504083667
 30
0.0
 11
111.0016388944
 21
20.7086355204
 31
0.0
  0
LINE
  5
7A
330
70
100
AcDbEntity
  8
0
  6
CENTERX2
 62
     7
370
     0
100
AcDbLine
 10
96.6025854619
 20
18.9404083667
 30
0.0
 11
106.3506923269
 21
18.9404083667
 31
0.0
  0
LINE
  5
7B
330
70
100
AcDbEntity
  8
0
  6
CENTERX2
 62
     7
370
     0
100
AcDbLine
 10
101.4766388944
 20
23.8144617992
 30
0.0
 11
101.4766388944
 21
14.0663549342
 31
0.0
  0
POINT
  5
7C
330
70
100
AcDbEntity
  8
0
  6
Continuous
 62
     7
370
     0
100
AcDbPoint
 10
101.4766388944
 20
18.9404083667
 30
0.0
  0
ENDBLK
  5
72
330
70
100
AcDbEntity
  8
0
100
AcDbBlockEnd
  0
BLOCK
  5
A9
330
A8
100
AcDbEntity
  8
0
100
AcDbBlockBegin
  2
SW_NOTE_0
 70
     0
 10
0.0
 20
0.0
 30
0.0
  3
SW_NOTE_0
  1
SW_NOTE_0
  0
MTEXT
  5
AB
330
A8
100
AcDbEntity
  8
0
  6
Continuous
 62
     0
370
     0
100
AcDbMText
 10
19.90725
 20
1.9645392354
 30
0.0
 40
1.524
 41
0.0
 71
     2
 72
     1
  1
VALUES IN PARENTHESIS ARE CALCULATED
  7
SLDTEXTSTYLE0
 73
     1
 44
1.0
  0
MTEXT
  5
AC
330
A8
100
AcDbEntity
  8
0
  6
Continuous
 62
     0
370
     0
100
AcDbMText
 10
19.8778795174
 20
-0.5594606586
 30
0.0
 40
1.524
 41
0.0
 71
     2
 72
     1
  1
AND MAY CONTAIN ROUNDOFF ERRORS
  7
SLDTEXTSTYLE0
 73
     1
 44
1.0
  0
ENDBLK
  5
AA
330
A8
100
AcDbEntity
  8
0
100
AcDbBlockEnd
  0
BLOCK
  5
AF
330
AE
100
AcDbEntity
  8
0
100
AcDbBlockBegin
  2
SW_NOTE_1
 70
     0
 10
0.0
 20
0.0
 30
0.0
  3
SW_NOTE_1
  1
SW_NOTE_1
  0
MTEXT
  5
B1
330
AE
100
AcDbEntity
  8
0
  6
Continuous
 62
     0
370
     0
100
AcDbMText
 10
0.0
 20
2.7285267159
 30
0.0
 40
2.1166666667
 41
0.0
 71
     1
 72
     1
  1
DRAWING
  7
SLDTEXTSTYLE0
 73
     1
 44
1.0
  0
MTEXT
  5
B2
330
AE
100
AcDbEntity
  8
0
  6
Continuous
 62
     0
370
     0
100
AcDbMText
 10
0.0
 20
-0.0936954723
 30
0.0
 40
2.1166666667
 41
0.0
 71
     1
 72
     1
  1
PROJECTION
  7
SLDTEXTSTYLE0
 73
     1
 44
1.0
  0
ENDBLK
  5
B0
330
AE
100
AcDbEntity
  8
0
100
AcDbBlockEnd
  0
BLOCK
  5
B6
330
B5
100
AcDbEntity
  8
0
100
AcDbBlockBegin
  2
SW_NOTE_2
 70
     0
 10
0.0
 20
0.0
 30
0.0
  3
SW_NOTE_2
  1
SW_NOTE_2
  0
MTEXT
  5
B8
330
B5
100
AcDbEntity
  8
0
  6
Continuous
 62
     0
370
     0
100
AcDbMText
 10
25.052734375
 20
4.0927900738
 30
0.0
 40
3.175
 41
0.0
 71
     2
 72
     1
  1
FOR INFORMATION ONLY
  7
SLDTEXTSTYLE0
 73
     1
 44
1.0
  0
MTEXT
  5
B9
330
B5
100
AcDbEntity
  8
0
  6
Continuous
 62
     0
370
     0
100
AcDbMText
 10
25.3768468589
 20
-0.1405432084
 30
0.0
 40
3.175
 41
0.0
 71
     2
 72
     1
  1
NOT FOR MANUFACTURING PURPOSES
  7
SLDTEXTSTYLE0
 73
     1
 44
1.0
  0
ENDBLK
  5
B7
330
B5
100
AcDbEntity
  8
0
100
AcDbBlockEnd
  0
BLOCK
  5
E4
330
E3
100
AcDbEntity
  8
0
100
AcDbBlockBegin
  2
_D
 70
     0
 10
0.0
 20
0.0
 30
0.0
  3
_D
  1
_D
  0
SOLID
  5
E6
330
E3
100
AcDbEntity
  8
0
  6
Continuous
 62
     7
370
     0
100
AcDbTrace
 10
130.1161508686
 20
78.6744540095
 30
0.0
 11
130.6241508686
 21
81.8494540095
 31
0.0
 12
129.6081508686
 22
81.8494540095
 32
0.0
 13
129.6081508686
 23
81.8494540095
 33
0.0
  0
SOLID
  5
E7
330
E3
100
AcDbEntity
  8
0
  6
Continuous
 62
     7
370
     0
100
AcDbTrace
 10
130.1161508686
 20
67.6744540095
 30
0.0
 11
129.6081508686
 21
64.4994540095
 31
0.0
 12
130.6241508686
 22
64.4994540095
 32
0.0
 13
130.6241508686
 23
64.4994540095
 33
0.0
  0
LINE
  5
E8
330
E3
100
AcDbEntity
  8
0
  6
Continuous
 62
     7
370
     0
100
AcDbLine
 10
137.7416579336
 20
59.5941838678
 30
0.0
 11
137.3124449739
 21
59.5941838678
 31
0.0
  0
LINE
  5
E9
330
E3
100
AcDbEntity
  8
0
  6
Continuous
 62
     7
370
     0
100
AcDbLine
 10
137.3124449739
 20
59.5941838678
 30
0.0
 11
137.3124449739
 21
56.2310357913
 31
0.0
  0
LINE
  5
EA
330
E3
100
AcDbEntity
  8
0
  6
Continuous
 62
     7
370
     0
100
AcDbLine
 10
137.3124449739
 20
56.2310357913
 30
0.0
 11
137.7416579336
 21
56.2310357913
 31
0.0
  0
LINE
  5
EB
330
E3
100
AcDbEntity
  8
0
  6
Continuous
 62
     7
370
     0
100
AcDbLine
 10
146.5718819228
 20
59.5941838678
 30
0.0
 11
147.0010948825
 21
59.5941838678
 31
0.0
  0
LINE
  5
EC
330
E3
100
AcDbEntity
  8
0
  6
Continuous
 62
     7
370
     0
100
AcDbLine
 10
147.0010948825
 20
59.5941838678
 30
0.0
 11
147.0010948825
 21
56.2310357913
 31
0.0
  0
LINE
  5
ED
330
E3
100
AcDbEntity
  8
0
  6
Continuous
 62
     7
370
     0
100
AcDbLine
 10
147.0010948825
 20
56.2310357913
 30
0.0
 11
146.5718819228
 21
56.2310357913
 31
0.0
  0
LINE
  5
EE
330
E3
100
AcDbEntity
  8
0
  6
Continuous
 62
     7
370
     0
100
AcDbLine
 10
124.9253732861
 20
78.6744540095
 30
0.0
 11
131.8941508686
 21
78.6744540095
 31
0.0
  0
LINE
  5
EF
330
E3
100
AcDbEntity
  8
0
  6
Continuous
 62
     7
370
     0
100
AcDbLine
 10
124.9253732861
 20
67.6744540095
 30
0.0
 11
131.8941508686
 21
67.6744540095
 31
0.0
  0
LINE
  5
F0
330
E3
100
AcDbEntity
  8
0
  6
Continuous
 62
     7
370
     0
100
AcDbLine
 10
133.9261508686
 20
59.5941841006
 30
0.0
 11
130.1161508686
 21
59.5941841006
 31
0.0
  0
LINE
  5
F1
330
E3
100
AcDbEntity
  8
0
  6
Continuous
 62
     7
370
     0
100
AcDbLine
 10
130.1161508686
 20
59.5941841006
 30
0.0
 11
130.1161508686
 21
67.6744540095
 31
0.0
  0
LINE
  5
F2
330
E3
100
AcDbEntity
  8
0
  6
Continuous
 62
     7
370
     0
100
AcDbLine
 10
130.1161508686
 20
78.6744540095
 30
0.0
 11
130.1161508686
 21
85.0244540095
 31
0.0
  0
MTEXT
  5
F3
330
E3
100
AcDbEntity
  8
0
  6
Continuous
 62
     7
370
     0
100
AcDbMText
 10
136.8023868019
 20
62.7519235142
 30
0.0
 40
2.1166666667
 41
0.0
 71
     1
 72
     1
  1

  7
SLDTEXTSTYLE0
 73
     1
 44
1.0
  0
MTEXT
  5
F4
330
E3
100
AcDbEntity
  8
0
  6
Continuous
 62
     7
370
     0
100
AcDbMText
 10
136.7749485063
 20
62.7519235142
 30
0.0
 40
2.1166666667
 41
0.0
 71
     1
 72
     1
  1
11.0mm
  7
SLDTEXTSTYLE0
 73
     1
 44
1.0
  0
MTEXT
  5
F5
330
E3
100
AcDbEntity
  8
0
  6
Continuous
 62
     7
370
     0
100
AcDbMText
 10
138.2781741551
 20
58.9595623907
 30
0.0
 40
2.1166666667
 41
0.0
 71
     1
 72
     1
  1
0.43in
  7
SLDTEXTSTYLE0
 73
     1
 44
1.0
  0
MTEXT
  5
F6
330
E3
100
AcDbEntity
  8
0
  6
Continuous
 62
     7
370
     0
100
AcDbMText
 10
149.1260904188
 20
62.7519235142
 30
0.0
 40
2.1166666667
 41
0.0
 71
     1
 72
     1
  1

  7
SLDTEXTSTYLE0
 73
     1
 44
1.0
  0
ENDBLK
  5
E5
330
E3
100
AcDbEntity
  8
0
100
AcDbBlockEnd
  0
BLOCK
  5
FA
330
F9
100
AcDbEntity
  8
0
100
AcDbBlockBegin
  2
_D_1
 70
     0
 10
0.0
 20
0.0
 30
0.0
  3
_D_1
  1
_D_1
  0
SOLID
  5
FC
330
F9
100
AcDbEntity
  8
0
  6
Continuous
 62
     7
370
     0
100
AcDbTrace
 10
151.8554763637
 20
67.6744540095
 30
0.0
 11
151.3474763637
 21
64.4994540095
 31
0.0
 12
152.3634763637
 22
64.4994540095
 32
0.0
 13
152.3634763637
 23
64.4994540095
 33
0.0
  0
SOLID
  5
FD
330
F9
100
AcDbEntity
  8
0
  6
Continuous
 62
     7
370
     0
100
AcDbTrace
 10
151.8554763637
 20
73.1744540095
 30
0.0
 11
152.3634763637
 21
76.3494540095
 31
0.0
 12
151.3474763637
 22
76.3494540095
 32
0.0
 13
151.3474763637
 23
76.3494540095
 33
0.0
  0
LINE
  5
FE
330
F9
100
AcDbEntity
  8
0
  6
Continuous
 62
     7
370
     0
100
AcDbLine
 10
159.2653966882
 20
59.5941838678
 30
0.0
 11
158.8361837285
 21
59.5941838678
 31
0.0
  0
LINE
  5
FF
330
F9
100
AcDbEntity
  8
0
  6
Continuous
 62
     7
370
     0
100
AcDbLine
 10
158.8361837285
 20
59.5941838678
 30
0.0
 11
158.8361837285
 21
56.2310357913
 31
0.0
  0
LINE
  5
100
330
F9
100
AcDbEntity
  8
0
  6
Continuous
 62
     7
370
     0
100
AcDbLine
 10
158.8361837285
 20
56.2310357913
 30
0.0
 11
159.2653966882
 21
56.2310357913
 31
0.0
  0
LINE
  5
101
330
F9
100
AcDbEntity
  8
0
  6
Continuous
 62
     7
370
     0
100
AcDbLine
 10
168.0956206774
 20
59.5941838678
 30
0.0
 11
168.5248336372
 21
59.5941838678
 31
0.0
  0
LINE
  5
102
330
F9
100
AcDbEntity
  8
0
  6
Continuous
 62
     7
370
     0
100
AcDbLine
 10
168.5248336372
 20
59.5941838678
 30
0.0
 11
168.5248336372
 21
56.2310357913
 31
0.0
  0
LINE
  5
103
330
F9
100
AcDbEntity
  8
0
  6
Continuous
 62
     7
370
     0
100
AcDbLine
 10
168.5248336372
 20
56.2310357913
 30
0.0
 11
168.0956206774
 21
56.2310357913
 31
0.0
  0
LINE
  5
104
330
F9
100
AcDbEntity
  8
0
  6
Continuous
 62
     7
370
     0
100
AcDbLine
 10
124.9253732861
 20
67.6744540095
 30
0.0
 11
153.6334763637
 21
67.6744540095
 31
0.0
  0
LINE
  5
105
330
F9
100
AcDbEntity
  8
0
  6
Continuous
 62
     7
370
     0
100
AcDbLine
 10
125.6104907067
 20
73.1744540095
 30
0.0
 11
153.6334763637
 21
73.1744540095
 31
0.0
  0
LINE
  5
106
330
F9
100
AcDbEntity
  8
0
  6
Continuous
 62
     7
370
     0
100
AcDbLine
 10
155.6654763637
 20
59.5941841006
 30
0.0
 11
151.8554763637
 21
59.5941841006
 31
0.0
  0
LINE
  5
107
330
F9
100
AcDbEntity
  8
0
  6
Continuous
 62
     7
370
     0
100
AcDbLine
 10
151.8554763637
 20
59.5941841006
 30
0.0
 11
151.8554763637
 21
67.6744540095
 31
0.0
  0
LINE
  5
108
330
F9
100
AcDbEntity
  8
0
  6
Continuous
 62
     7
370
     0
100
AcDbLine
 10
151.8554763637
 20
73.1744540095
 30
0.0
 11
151.8554763637
 21
79.5244540095
 31
0.0
  0
MTEXT
  5
109
330
F9
100
AcDbEntity
  8
0
  6
Continuous
 62
     7
370
     0
100
AcDbMText
 10
158.5417122971
 20
62.7519235142
 30
0.0
 40
2.1166666667
 41
0.0
 71
     1
 72
     1
  1

  7
SLDTEXTSTYLE0
 73
     1
 44
1.0
  0
MTEXT
  5
10A
330
F9
100
AcDbEntity
  8
0
  6
Continuous
 62
     7
370
     0
100
AcDbMText
 10
159.0806783143
 20
62.7519235142
 30
0.0
 40
2.1166666667
 41
0.0
 71
     1
 72
     1
  1
5.5mm
  7
SLDTEXTSTYLE0
 73
     1
 44
1.0
  0
MTEXT
  5
10B
330
F9
100
AcDbEntity
  8
0
  6
Continuous
 62
     7
370
     0
100
AcDbMText
 10
159.8019129097
 20
58.9595623907
 30
0.0
 40
2.1166666667
 41
0.0
 71
     1
 72
     1
  1
0.22in
  7
SLDTEXTSTYLE0
 73
     1
 44
1.0
  0
MTEXT
  5
10C
330
F9
100
AcDbEntity
  8
0
  6
Continuous
 62
     7
370
     0
100
AcDbMText
 10
170.4342433642
 20
62.7519235142
 30
0.0
 40
2.1166666667
 41
0.0
 71
     1
 72
     1
  1

  7
SLDTEXTSTYLE0
 73
     1
 44
1.0
  0
ENDBLK
  5
FB
330
F9
100
AcDbEntity
  8
0
100
AcDbBlockEnd
  0
BLOCK
  5
10F
330
10E
100
AcDbEntity
  8
0
100
AcDbBlockBegin
  2
_D_2
 70
     0
 10
0.0
 20
0.0
 30
0.0
  3
_D_2
  1
_D_2
  0
SOLID
  5
111
330
10E
100
AcDbEntity
  8
0
  6
Continuous
 62
     7
370
     0
100
AcDbTrace
 10
70.4553732861
 20
59.5941841006
 30
0.0
 11
67.2803732861
 21
60.1021841006
 31
0.0
 12
67.2803732861
 22
59.0861841006
 32
0.0
 13
67.2803732861
 23
59.0861841006
 33
0.0
  0
SOLID
  5
112
330
10E
100
AcDbEntity
  8
0
  6
Continuous
 62
     7
370
     0
100
AcDbTrace
 10
77.1553732861
 20
59.5941841006
 30
0.0
 11
80.3303732861
 21
59.0861841006
 31
0.0
 12
80.3303732861
 22
60.1021841006
 32
0.0
 13
80.3303732861
 23
60.1021841006
 33
0.0
  0
LINE
  5
113
330
10E
100
AcDbEntity
  8
0
  6
Continuous
 62
     7
370
     0
100
AcDbLine
 10
70.4553732861
 20
66.6044540095
 30
0.0
 11
70.4553732861
 21
57.8161841006
 31
0.0
  0
LINE
  5
114
330
10E
100
AcDbEntity
  8
0
  6
Continuous
 62
     7
370
     0
100
AcDbLine
 10
77.1553732861
 20
65.1005844787
 30
0.0
 11
77.1553732861
 21
57.8161841006
 31
0.0
  0
LINE
  5
115
330
10E
100
AcDbEntity
  8
0
  6
Continuous
 62
     7
370
     0
100
AcDbLine
 10
70.4553732861
 20
59.5941841006
 30
0.0
 11
65.1103183165
 21
59.5941841006
 31
0.0
  0
LINE
  5
116
330
10E
100
AcDbEntity
  8
0
  6
Continuous
 62
     7
370
     0
100
AcDbLine
 10
77.1553732861
 20
59.5941841006
 30
0.0
 11
83.5053732861
 21
59.5941841006
 31
0.0
  0
MTEXT
  5
117
330
10E
100
AcDbEntity
  8
0
  6
Continuous
 62
     7
370
     0
100
AcDbMText
 10
50.158054934
 20
62.3227107
 30
0.0
 40
2.1166666667
 41
0.0
 71
     1
 72
     1
  1
6.7mm TYP
  7
SLDTEXTSTYLE0
 73
     1
 44
1.0
  0
MTEXT
  5
118
330
10E
100
AcDbEntity
  8
0
  6
Continuous
 62
     7
370
     0
100
AcDbMText
 10
52.5491041067
 20
58.9595626236
 30
0.0
 40
2.1166666667
 41
0.0
 71
     1
 72
     1
  1
[0.26in]
  7
SLDTEXTSTYLE0
 73
     1
 44
1.0
  0
ENDBLK
  5
110
330
10E
100
AcDbEntity
  8
0
100
AcDbBlockEnd
  0
BLOCK
  5
11C
330
11B
100
AcDbEntity
  8
0
100
AcDbBlockBegin
  2
_D_3
 70
     0
 10
0.0
 20
0.0
 30
0.0
  3
_D_3
  1
_D_3
  0
SOLID
  5
11E
330
11B
100
AcDbEntity
  8
0
  6
Continuous
 62
     7
370
     0
100
AcDbTrace
 10
77.1553732861
 20
59.5941841006
 30
0.0
 11
80.3303732861
 21
59.0861841006
 31
0.0
 12
80.3303732861
 22
60.1021841006
 32
0.0
 13
80.3303732861
 23
60.1021841006
 33
0.0
  0
SOLID
  5
11F
330
11B
100
AcDbEntity
  8
0
  6
Continuous
 62
     7
370
     0
100
AcDbTrace
 10
97.1553732861
 20
59.5941841006
 30
0.0
 11
93.9803732861
 21
60.1021841006
 31
0.0
 12
93.9803732861
 22
59.0861841006
 32
0.0
 13
93.9803732861
 23
59.0861841006
 33
0.0
  0
LINE
  5
120
330
11B
100
AcDbEntity
  8
0
  6
Continuous
 62
     7
370
     0
100
AcDbLine
 10
83.0788006907
 20
59.5941838678
 30
0.0
 11
82.6495877309
 21
59.5941838678
 31
0.0
  0
LINE
  5
121
330
11B
100
AcDbEntity
  8
0
  6
Continuous
 62
     7
370
     0
100
AcDbLine
 10
82.6495877309
 20
59.5941838678
 30
0.0
 11
82.6495877309
 21
56.2310357913
 31
0.0
  0
LINE
  5
122
330
11B
100
AcDbEntity
  8
0
  6
Continuous
 62
     7
370
     0
100
AcDbLine
 10
82.6495877309
 20
56.2310357913
 30
0.0
 11
83.0788006907
 21
56.2310357913
 31
0.0
  0
LINE
  5
123
330
11B
100
AcDbEntity
  8
0
  6
Continuous
 62
     7
370
     0
100
AcDbLine
 10
91.9090246799
 20
59.5941838678
 30
0.0
 11
92.3382376396
 21
59.5941838678
 31
0.0
  0
LINE
  5
124
330
11B
100
AcDbEntity
  8
0
  6
Continuous
 62
     7
370
     0
100
AcDbLine
 10
92.3382376396
 20
59.5941838678
 30
0.0
 11
92.3382376396
 21
56.2310357913
 31
0.0
  0
LINE
  5
125
330
11B
100
AcDbEntity
  8
0
  6
Continuous
 62
     7
370
     0
100
AcDbLine
 10
92.3382376396
 20
56.2310357913
 30
0.0
 11
91.9090246799
 21
56.2310357913
 31
0.0
  0
LINE
  5
126
330
11B
100
AcDbEntity
  8
0
  6
Continuous
 62
     7
370
     0
100
AcDbLine
 10
77.1553732861
 20
66.7199856414
 30
0.0
 11
77.1553732861
 21
57.8161841006
 31
0.0
  0
LINE
  5
127
330
11B
100
AcDbEntity
  8
0
  6
Continuous
 62
     7
370
     0
100
AcDbLine
 10
97.1553732861
 20
67.0724121491
 30
0.0
 11
97.1553732861
 21
57.8161841006
 31
0.0
  0
LINE
  5
128
330
11B
100
AcDbEntity
  8
0
  6
Continuous
 62
     7
370
     0
100
AcDbLine
 10
77.1553732861
 20
59.5941841006
 30
0.0
 11
80.1224509145
 21
59.5941841006
 31
0.0
  0
LINE
  5
129
330
11B
100
AcDbEntity
  8
0
  6
Continuous
 62
     7
370
     0
100
AcDbLine
 10
97.1553732861
 20
59.5941841006
 30
0.0
 11
94.8653739903
 21
59.5941841006
 31
0.0
  0
MTEXT
  5
12A
330
11B
100
AcDbEntity
  8
0
  6
Continuous
 62
     7
370
     0
100
AcDbMText
 10
82.139529559
 20
62.7519235142
 30
0.0
 40
2.1166666667
 41
0.0
 71
     1
 72
     1
  1

  7
SLDTEXTSTYLE0
 73
     1
 44
1.0
  0
MTEXT
  5
12B
330
11B
100
AcDbEntity
  8
0
  6
Continuous
 62
     7
370
     0
100
AcDbMText
 10
82.1120912633
 20
62.7519235142
 30
0.0
 40
2.1166666667
 41
0.0
 71
     1
 72
     1
  1
20.0mm
  7
SLDTEXTSTYLE0
 73
     1
 44
1.0
  0
MTEXT
  5
12C
330
11B
100
AcDbEntity
  8
0
  6
Continuous
 62
     7
370
     0
100
AcDbMText
 10
83.6153169121
 20
58.9595623908
 30
0.0
 40
2.1166666667
 41
0.0
 71
     1
 72
     1
  1
0.79in
  7
SLDTEXTSTYLE0
 73
     1
 44
1.0
  0
MTEXT
  5
12D
330
11B
100
AcDbEntity
  8
0
  6
Continuous
 62
     7
370
     0
100
AcDbMText
 10
94.4632331758
 20
62.7519235142
 30
0.0
 40
2.1166666667
 41
0.0
 71
     1
 72
     1
  1

  7
SLDTEXTSTYLE0
 73
     1
 44
1.0
  0
ENDBLK
  5
11D
330
11B
100
AcDbEntity
  8
0
100
AcDbBlockEnd
  0
BLOCK
  5
138
330
137
100
AcDbEntity
  8
0
100
AcDbBlockBegin
  2
SW_CENTERMARKSYMBOL_0
 70
     0
 10
0.0
 20
0.0
 30
0.0
  3
SW_CENTERMARKSYMBOL_0
  1
SW_CENTERMARKSYMBOL_0
  0
LINE
  5
13A
330
137
100
AcDbEntity
  8
0
  6
Continuous
 62
     0
370
     0
100
AcDbLine
 10
0.0
 20
0.0
 30
0.0
 11
0.0
 21
1.27
 31
0.0
  0
LINE
  5
13B
330
137
100
AcDbEntity
  8
0
  6
Continuous
 62
     0
370
     0
100
AcDbLine
 10
0.0
 20
0.0
 30
0.0
 11
-1.27
 21
0.0
 31
0.0
  0
LINE
  5
13C
330
137
100
AcDbEntity
  8
0
  6
Continuous
 62
     0
370
     0
100
AcDbLine
 10
0.0
 20
0.0
 30
0.0
 11
0.0
 21
-1.27
 31
0.0
  0
LINE
  5
13D
330
137
100
AcDbEntity
  8
0
  6
Continuous
 62
     0
370
     0
100
AcDbLine
 10
0.0
 20
0.0
 30
0.0
 11
1.27
 21
0.0
 31
0.0
  0
ENDBLK
  5
139
330
137
100
AcDbEntity
  8
0
100
AcDbBlockEnd
  0
BLOCK
  5
140
330
13F
100
AcDbEntity
  8
0
100
AcDbBlockBegin
  2
SW_CENTERMARKSYMBOL_1
 70
     0
 10
0.0
 20
0.0
 30
0.0
  3
SW_CENTERMARKSYMBOL_1
  1
SW_CENTERMARKSYMBOL_1
  0
LINE
  5
142
330
13F
100
AcDbEntity
  8
0
  6
Continuous
 62
     0
370
     0
100
AcDbLine
 10
0.0
 20
0.0
 30
0.0
 11
0.0
 21
1.27
 31
0.0
  0
LINE
  5
143
330
13F
100
AcDbEntity
  8
0
  6
Continuous
 62
     0
370
     0
100
AcDbLine
 10
0.0
 20
0.0
 30
0.0
 11
-1.27
 21
0.0
 31
0.0
  0
LINE
  5
144
330
13F
100
AcDbEntity
  8
0
  6
Continuous
 62
     0
370
     0
100
AcDbLine
 10
0.0
 20
0.0
 30
0.0
 11
0.0
 21
-1.27
 31
0.0
  0
LINE
  5
145
330
13F
100
AcDbEntity
  8
0
  6
Continuous
 62
     0
370
     0
100
AcDbLine
 10
0.0
 20
0.0
 30
0.0
 11
1.27
 21
0.0
 31
0.0
  0
ENDBLK
  5
141
330
13F
100
AcDbEntity
  8
0
100
AcDbBlockEnd
  0
BLOCK
  5
148
330
147
100
AcDbEntity
  8
0
100
AcDbBlockBegin
  2
SW_CENTERMARKSYMBOL_2
 70
     0
 10
0.0
 20
0.0
 30
0.0
  3
SW_CENTERMARKSYMBOL_2
  1
SW_CENTERMARKSYMBOL_2
  0
LINE
  5
14A
330
147
100
AcDbEntity
  8
0
  6
Continuous
 62
     0
370
     0
100
AcDbLine
 10
0.0
 20
0.0
 30
0.0
 11
0.0
 21
1.27
 31
0.0
  0
LINE
  5
14B
330
147
100
AcDbEntity
  8
0
  6
Continuous
 62
     0
370
     0
100
AcDbLine
 10
0.0
 20
0.0
 30
0.0
 11
-1.27
 21
0.0
 31
0.0
  0
LINE
  5
14C
330
147
100
AcDbEntity
  8
0
  6
Continuous
 62
     0
370
     0
100
AcDbLine
 10
0.0
 20
0.0
 30
0.0
 11
0.0
 21
-1.27
 31
0.0
  0
LINE
  5
14D
330
147
100
AcDbEntity
  8
0
  6
Continuous
 62
     0
370
     0
100
AcDbLine
 10
0.0
 20
0.0
 30
0.0
 11
1.27
 21
0.0
 31
0.0
  0
ENDBLK
  5
149
330
147
100
AcDbEntity
  8
0
100
AcDbBlockEnd
  0
BLOCK
  5
235
330
234
100
AcDbEntity
  8
0
100
AcDbBlockBegin
  2
_D_4
 70
     0
 10
0.0
 20
0.0
 30
0.0
  3
_D_4
  1
_D_4
  0
SOLID
  5
237
330
234
100
AcDbEntity
  8
0
  6
Continuous
 62
     7
370
     0
100
AcDbTrace
 10
98.3320655591
 20
172.6422608395
 30
0.0
 11
101.0258392198
 21
174.397901026
 31
0.0
 12
100.3435790101
 22
175.1507469639
 32
0.0
 13
100.3435790101
 23
175.1507469639
 33
0.0
  0
LINE
  5
238
330
234
100
AcDbEntity
  8
0
  6
Continuous
 62
     7
370
     0
100
AcDbLine
 10
128.4092731652
 20
185.2609054294
 30
0.0
 11
127.9800602055
 21
185.2609054294
 31
0.0
  0
LINE
  5
239
330
234
100
AcDbEntity
  8
0
  6
Continuous
 62
     7
370
     0
100
AcDbLine
 10
127.9800602055
 20
185.2609054294
 30
0.0
 11
127.9800602055
 21
181.897757353
 31
0.0
  0
LINE
  5
23A
330
234
100
AcDbEntity
  8
0
  6
Continuous
 62
     7
370
     0
100
AcDbLine
 10
127.9800602055
 20
181.897757353
 30
0.0
 11
128.4092731652
 21
181.897757353
 31
0.0
  0
LINE
  5
23B
330
234
100
AcDbEntity
  8
0
  6
Continuous
 62
     7
370
     0
100
AcDbLine
 10
137.2394971544
 20
185.2609054294
 30
0.0
 11
137.6687101141
 21
185.2609054294
 31
0.0
  0
LINE
  5
23C
330
234
100
AcDbEntity
  8
0
  6
Continuous
 62
     7
370
     0
100
AcDbLine
 10
137.6687101141
 20
185.2609054294
 30
0.0
 11
137.6687101141
 21
181.897757353
 31
0.0
  0
LINE
  5
23D
330
234
100
AcDbEntity
  8
0
  6
Continuous
 62
     7
370
     0
100
AcDbLine
 10
137.6687101141
 20
181.897757353
 30
0.0
 11
137.2394971544
 21
181.897757353
 31
0.0
  0
LINE
  5
23E
330
234
100
AcDbEntity
  8
0
  6
Continuous
 62
     7
370
     0
100
AcDbLine
 10
98.3320655591
 20
172.6422608395
 30
0.0
 11
114.1608653101
 21
186.9869756012
 31
0.0
  0
LINE
  5
23F
330
234
100
AcDbEntity
  8
0
  6
Continuous
 62
     7
370
     0
100
AcDbLine
 10
114.1608653101
 20
186.9869756012
 30
0.0
 11
127.6581504784
 21
186.9869756012
 31
0.0
  0
MTEXT
  5
240
330
234
100
AcDbEntity
  8
0
  6
Continuous
 62
     7
370
     0
100
AcDbMText
 10
127.6581504784
 20
188.4186450759
 30
0.0
 40
2.1166666667
 41
0.0
 71
     1
 72
     1
  1
%%c
  7
SLDTEXTSTYLE0
 73
     1
 44
1.0
  0
MTEXT
  5
241
330
234
100
AcDbEntity
  8
0
  6
Continuous
 62
     7
370
     0
100
AcDbMText
 10
130.8531412791
 20
188.4186450759
 30
0.0
 40
2.1166666667
 41
0.0
 71
     1
 72
     1
  1
3.2mm
  7
SLDTEXTSTYLE0
 73
     1
 44
1.0
  0
MTEXT
  5
242
330
234
100
AcDbEntity
  8
0
  6
Continuous
 62
     7
370
     0
100
AcDbMText
 10
128.9457893867
 20
184.6262839524
 30
0.0
 40
2.1166666667
 41
0.0
 71
     1
 72
     1
  1
0.13in
  7
SLDTEXTSTYLE0
 73
     1
 44
1.0
  0
ENDBLK
  5
236
330
234
100
AcDbEntity
  8
0
100
AcDbBlockEnd
  0
BLOCK
  5
246
330
245
100
AcDbEntity
  8
0
100
AcDbBlockBegin
  2
_D_5
 70
     0
 10
0.0
 20
0.0
 30
0.0
  3
_D_5
  1
_D_5
  0
SOLID
  5
248
330
245
100
AcDbEntity
  8
0
  6
Continuous
 62
     7
370
     0
100
AcDbTrace
 10
70.4553732861
 20
139.5780694894
 30
0.0
 11
73.6303732861
 21
139.0700694894
 31
0.0
 12
73.6303732861
 22
140.0860694894
 32
0.0
 13
73.6303732861
 23
140.0860694894
 33
0.0
  0
SOLID
  5
249
330
245
100
AcDbEntity
  8
0
  6
Continuous
 62
     7
370
     0
100
AcDbTrace
 10
123.8553732861
 20
139.5780694894
 30
0.0
 11
120.6803732861
 21
140.0860694894
 31
0.0
 12
120.6803732861
 22
139.0700694894
 32
0.0
 13
120.6803732861
 23
139.0700694894
 33
0.0
  0
LINE
  5
24A
330
245
100
AcDbEntity
  8
0
  6
Continuous
 62
     7
370
     0
100
AcDbLine
 10
91.7147539612
 20
139.5780692565
 30
0.0
 11
91.2855410015
 21
139.5780692565
 31
0.0
  0
LINE
  5
24B
330
245
100
AcDbEntity
  8
0
  6
Continuous
 62
     7
370
     0
100
AcDbLine
 10
91.2855410015
 20
139.5780692565
 30
0.0
 11
91.2855410015
 21
136.2149211801
 31
0.0
  0
LINE
  5
24C
330
245
100
AcDbEntity
  8
0
  6
Continuous
 62
     7
370
     0
100
AcDbLine
 10
91.2855410015
 20
136.2149211801
 30
0.0
 11
91.7147539612
 21
136.2149211801
 31
0.0
  0
LINE
  5
24D
330
245
100
AcDbEntity
  8
0
  6
Continuous
 62
     7
370
     0
100
AcDbLine
 10
100.5449779504
 20
139.5780692565
 30
0.0
 11
100.9741909102
 21
139.5780692565
 31
0.0
  0
LINE
  5
24E
330
245
100
AcDbEntity
  8
0
  6
Continuous
 62
     7
370
     0
100
AcDbLine
 10
100.9741909102
 20
139.5780692565
 30
0.0
 11
100.9741909102
 21
136.2149211801
 31
0.0
  0
LINE
  5
24F
330
245
100
AcDbEntity
  8
0
  6
Continuous
 62
     7
370
     0
100
AcDbLine
 10
100.9741909102
 20
136.2149211801
 30
0.0
 11
100.5449779504
 21
136.2149211801
 31
0.0
  0
LINE
  5
250
330
245
100
AcDbEntity
  8
0
  6
Continuous
 62
     7
370
     0
100
AcDbLine
 10
70.4553732861
 20
147.3824381345
 30
0.0
 11
70.4553732861
 21
137.8000694894
 31
0.0
  0
LINE
  5
251
330
245
100
AcDbEntity
  8
0
  6
Continuous
 62
     7
370
     0
100
AcDbLine
 10
123.8553732861
 20
146.4108816111
 30
0.0
 11
123.8553732861
 21
137.8000694894
 31
0.0
  0
LINE
  5
252
330
245
100
AcDbEntity
  8
0
  6
Continuous
 62
     7
370
     0
100
AcDbLine
 10
70.4553732861
 20
139.5780694894
 30
0.0
 11
88.7584041851
 21
139.5780694894
 31
0.0
  0
LINE
  5
253
330
245
100
AcDbEntity
  8
0
  6
Continuous
 62
     7
370
     0
100
AcDbLine
 10
123.8553732861
 20
139.5780694894
 30
0.0
 11
103.5013272609
 21
139.5780694894
 31
0.0
  0
MTEXT
  5
254
330
245
100
AcDbEntity
  8
0
  6
Continuous
 62
     7
370
     0
100
AcDbMText
 10
90.7754828296
 20
142.735808903
 30
0.0
 40
2.1166666667
 41
0.0
 71
     1
 72
     1
  1

  7
SLDTEXTSTYLE0
 73
     1
 44
1.0
  0
MTEXT
  5
255
330
245
100
AcDbEntity
  8
0
  6
Continuous
 62
     7
370
     0
100
AcDbMText
 10
90.7480445339
 20
142.735808903
 30
0.0
 40
2.1166666667
 41
0.0
 71
     1
 72
     1
  1
53.4mm
  7
SLDTEXTSTYLE0
 73
     1
 44
1.0
  0
MTEXT
  5
256
330
245
100
AcDbEntity
  8
0
  6
Continuous
 62
     7
370
     0
100
AcDbMText
 10
92.2512701827
 20
138.9434477795
 30
0.0
 40
2.1166666667
 41
0.0
 71
     1
 72
     1
  1
2.10in
  7
SLDTEXTSTYLE0
 73
     1
 44
1.0
  0
MTEXT
  5
257
330
245
100
AcDbEntity
  8
0
  6
Continuous
 62
     7
370
     0
100
AcDbMText
 10
103.0991864464
 20
142.735808903
 30
0.0
 40
2.1166666667
 41
0.0
 71
     1
 72
     1
  1

  7
SLDTEXTSTYLE0
 73
     1
 44
1.0
  0
ENDBLK
  5
247
330
245
100
AcDbEntity
  8
0
100
AcDbBlockEnd
  0
BLOCK
  5
25A
330
259
100
AcDbEntity
  8
0
100
AcDbBlockBegin
  2
_D_6
 70
     0
 10
0.0
 20
0.0
 30
0.0
  3
_D_6
  1
_D_6
  0
SOLID
  5
25C
330
259
100
AcDbEntity
  8
0
  6
Continuous
 62
     7
370
     0
100
AcDbTrace
 10
133.8554763637
 20
171.994410187
 30
0.0
 11
133.3474763637
 21
168.819410187
 31
0.0
 12
134.3634763637
 22
168.819410187
 32
0.0
 13
134.3634763637
 23
168.819410187
 33
0.0
  0
SOLID
  5
25D
330
259
100
AcDbEntity
  8
0
  6
Continuous
 62
     7
370
     0
100
AcDbTrace
 10
133.8554763637
 20
149.697010187
 30
0.0
 11
134.3634763637
 21
152.872010187
 31
0.0
 12
133.3474763637
 22
152.872010187
 32
0.0
 13
133.3474763637
 23
152.872010187
 33
0.0
  0
LINE
  5
25E
330
259
100
AcDbEntity
  8
0
  6
Continuous
 62
     7
370
     0
100
AcDbLine
 10
129.440364602
 20
161.4786783494
 30
0.0
 11
129.0111516422
 21
161.4786783494
 31
0.0
  0
LINE
  5
25F
330
259
100
AcDbEntity
  8
0
  6
Continuous
 62
     7
370
     0
100
AcDbLine
 10
129.0111516422
 20
161.4786783494
 30
0.0
 11
129.0111516422
 21
158.115530273
 31
0.0
  0
LINE
  5
260
330
259
100
AcDbEntity
  8
0
  6
Continuous
 62
     7
370
     0
100
AcDbLine
 10
129.0111516422
 20
158.115530273
 30
0.0
 11
129.440364602
 21
158.115530273
 31
0.0
  0
LINE
  5
261
330
259
100
AcDbEntity
  8
0
  6
Continuous
 62
     7
370
     0
100
AcDbLine
 10
138.2705885912
 20
161.4786783494
 30
0.0
 11
138.6998015509
 21
161.4786783494
 31
0.0
  0
LINE
  5
262
330
259
100
AcDbEntity
  8
0
  6
Continuous
 62
     7
370
     0
100
AcDbLine
 10
138.6998015509
 20
161.4786783494
 30
0.0
 11
138.6998015509
 21
158.115530273
 31
0.0
  0
LINE
  5
263
330
259
100
AcDbEntity
  8
0
  6
Continuous
 62
     7
370
     0
100
AcDbLine
 10
138.6998015509
 20
158.115530273
 30
0.0
 11
138.2705885912
 21
158.115530273
 31
0.0
  0
LINE
  5
264
330
259
100
AcDbEntity
  8
0
  6
Continuous
 62
     7
370
     0
100
AcDbLine
 10
125.0953732861
 20
171.994410187
 30
0.0
 11
135.6334763637
 21
171.994410187
 31
0.0
  0
LINE
  5
265
330
259
100
AcDbEntity
  8
0
  6
Continuous
 62
     7
370
     0
100
AcDbLine
 10
124.9253732861
 20
149.697010187
 30
0.0
 11
135.6334763637
 21
149.697010187
 31
0.0
  0
LINE
  5
266
330
259
100
AcDbEntity
  8
0
  6
Continuous
 62
     7
370
     0
100
AcDbLine
 10
133.8554763637
 20
171.994410187
 30
0.0
 11
133.8554763637
 21
165.2710394729
 31
0.0
  0
LINE
  5
267
330
259
100
AcDbEntity
  8
0
  6
Continuous
 62
     7
370
     0
100
AcDbLine
 10
133.8554763637
 20
149.697010187
 30
0.0
 11
133.8554763637
 21
157.6863176916
 31
0.0
  0
MTEXT
  5
268
330
259
100
AcDbEntity
  8
0
  6
Continuous
 62
     7
370
     0
100
AcDbMText
 10
128.5010934703
 20
164.6364179959
 30
0.0
 40
2.1166666667
 41
0.0
 71
     1
 72
     1
  1

  7
SLDTEXTSTYLE0
 73
     1
 44
1.0
  0
MTEXT
  5
269
330
259
100
AcDbEntity
  8
0
  6
Continuous
 62
     7
370
     0
100
AcDbMText
 10
128.4736551747
 20
164.6364179959
 30
0.0
 40
2.1166666667
 41
0.0
 71
     1
 72
     1
  1
22.3mm
  7
SLDTEXTSTYLE0
 73
     1
 44
1.0
  0
MTEXT
  5
26A
330
259
100
AcDbEntity
  8
0
  6
Continuous
 62
     7
370
     0
100
AcDbMText
 10
129.9768808234
 20
160.8440568724
 30
0.0
 40
2.1166666667
 41
0.0
 71
     1
 72
     1
  1
0.88in
  7
SLDTEXTSTYLE0
 73
     1
 44
1.0
  0
MTEXT
  5
26B
330
259
100
AcDbEntity
  8
0
  6
Continuous
 62
     7
370
     0
100
AcDbMText
 10
140.8247970871
 20
164.6364179959
 30
0.0
 40
2.1166666667
 41
0.0
 71
     1
 72
     1
  1

  7
SLDTEXTSTYLE0
 73
     1
 44
1.0
  0
ENDBLK
  5
25B
330
259
100
AcDbEntity
  8
0
100
AcDbBlockEnd
  0
BLOCK
  5
2A4
330
2A3
100
AcDbEntity
  8
0
100
AcDbBlockBegin
  2
_D_7
 70
     0
 10
0.0
 20
0.0
 30
0.0
  3
_D_7
  1
_D_7
  0
SOLID
  5
2A6
330
2A3
100
AcDbEntity
  8
0
  6
Continuous
 62
     7
370
     0
100
AcDbTrace
 10
227.4964540624
 20
67.6744540095
 30
0.0
 11
226.9884540624
 21
64.4994540095
 31
0.0
 12
228.0044540624
 22
64.4994540095
 32
0.0
 13
228.0044540624
 23
64.4994540095
 33
0.0
  0
SOLID
  5
2A7
330
2A3
100
AcDbEntity
  8
0
  6
Continuous
 62
     7
370
     0
100
AcDbTrace
 10
227.4964540624
 20
77.6744540095
 30
0.0
 11
228.0044540624
 21
80.8494540095
 31
0.0
 12
226.9884540624
 22
80.8494540095
 32
0.0
 13
226.9884540624
 23
80.8494540095
 33
0.0
  0
LINE
  5
2A8
330
2A3
100
AcDbEntity
  8
0
  6
Continuous
 62
     7
370
     0
100
AcDbLine
 10
235.1219611275
 20
88.6744537767
 30
0.0
 11
234.6927481677
 21
88.6744537767
 31
0.0
  0
LINE
  5
2A9
330
2A3
100
AcDbEntity
  8
0
  6
Continuous
 62
     7
370
     0
100
AcDbLine
 10
234.6927481677
 20
88.6744537767
 30
0.0
 11
234.6927481677
 21
85.3113057002
 31
0.0
  0
LINE
  5
2AA
330
2A3
100
AcDbEntity
  8
0
  6
Continuous
 62
     7
370
     0
100
AcDbLine
 10
234.6927481677
 20
85.3113057002
 30
0.0
 11
235.1219611275
 21
85.3113057002
 31
0.0
  0
LINE
  5
2AB
330
2A3
100
AcDbEntity
  8
0
  6
Continuous
 62
     7
370
     0
100
AcDbLine
 10
243.9521851167
 20
88.6744537767
 30
0.0
 11
244.3813980764
 21
88.6744537767
 31
0.0
  0
LINE
  5
2AC
330
2A3
100
AcDbEntity
  8
0
  6
Continuous
 62
     7
370
     0
100
AcDbLine
 10
244.3813980764
 20
88.6744537767
 30
0.0
 11
244.3813980764
 21
85.3113057002
 31
0.0
  0
LINE
  5
2AD
330
2A3
100
AcDbEntity
  8
0
  6
Continuous
 62
     7
370
     0
100
AcDbLine
 10
244.3813980764
 20
85.3113057002
 30
0.0
 11
243.9521851167
 21
85.3113057002
 31
0.0
  0
LINE
  5
2AE
330
2A3
100
AcDbEntity
  8
0
  6
Continuous
 62
     7
370
     0
100
AcDbLine
 10
219.0551510476
 20
67.6744540095
 30
0.0
 11
229.2744540624
 21
67.6744540095
 31
0.0
  0
LINE
  5
2AF
330
2A3
100
AcDbEntity
  8
0
  6
Continuous
 62
     7
370
     0
100
AcDbLine
 10
219.5551510476
 20
77.6744540095
 30
0.0
 11
229.2744540624
 21
77.6744540095
 31
0.0
  0
LINE
  5
2B0
330
2A3
100
AcDbEntity
  8
0
  6
Continuous
 62
     7
370
     0
100
AcDbLine
 10
231.3064540624
 20
88.6744540095
 30
0.0
 11
227.4964540624
 21
88.6744540095
 31
0.0
  0
LINE
  5
2B1
330
2A3
100
AcDbEntity
  8
0
  6
Continuous
 62
     7
370
     0
100
AcDbLine
 10
227.4964540624
 20
88.6744540095
 30
0.0
 11
227.4964540624
 21
77.6744540095
 31
0.0
  0
LINE
  5
2B2
330
2A3
100
AcDbEntity
  8
0
  6
Continuous
 62
     7
370
     0
100
AcDbLine
 10
227.4964540624
 20
67.6744540095
 30
0.0
 11
227.4964540624
 21
61.3244540095
 31
0.0
  0
MTEXT
  5
2B3
330
2A3
100
AcDbEntity
  8
0
  6
Continuous
 62
     7
370
     0
100
AcDbMText
 10
234.1826899958
 20
91.8321934231
 30
0.0
 40
2.1166666667
 41
0.0
 71
     1
 72
     1
  1

  7
SLDTEXTSTYLE0
 73
     1
 44
1.0
  0
MTEXT
  5
2B4
330
2A3
100
AcDbEntity
  8
0
  6
Continuous
 62
     7
370
     0
100
AcDbMText
 10
234.1552517001
 20
91.8321934231
 30
0.0
 40
2.1166666667
 41
0.0
 71
     1
 72
     1
  1
10.0mm
  7
SLDTEXTSTYLE0
 73
     1
 44
1.0
  0
MTEXT
  5
2B5
330
2A3
100
AcDbEntity
  8
0
  6
Continuous
 62
     7
370
     0
100
AcDbMText
 10
235.6584773489
 20
88.0398322996
 30
0.0
 40
2.1166666667
 41
0.0
 71
     1
 72
     1
  1
0.39in
  7
SLDTEXTSTYLE0
 73
     1
 44
1.0
  0
MTEXT
  5
2B6
330
2A3
100
AcDbEntity
  8
0
  6
Continuous
 62
     7
370
     0
100
AcDbMText
 10
246.5063936126
 20
91.8321934231
 30
0.0
 40
2.1166666667
 41
0.0
 71
     1
 72
     1
  1

  7
SLDTEXTSTYLE0
 73
     1
 44
1.0
  0
ENDBLK
  5
2A5
330
2A3
100
AcDbEntity
  8
0
100
AcDbBlockEnd
  0
BLOCK
  5
2B9
330
2B8
100
AcDbEntity
  8
0
100
AcDbBlockBegin
  2
_D_8
 70
     0
 10
0.0
 20
0.0
 30
0.0
  3
_D_8
  1
_D_8
  0
SOLID
  5
2BB
330
2B8
100
AcDbEntity
  8
0
  6
Continuous
 62
     7
370
     0
100
AcDbTrace
 10
247.9520343643
 20
76.2542040095
 30
0.0
 11
248.4600343643
 21
79.4292040095
 31
0.0
 12
247.4440343643
 22
79.4292040095
 32
0.0
 13
247.4440343643
 23
79.4292040095
 33
0.0
  0
SOLID
  5
2BC
330
2B8
100
AcDbEntity
  8
0
  6
Continuous
 62
     7
370
     0
100
AcDbTrace
 10
247.9520343643
 20
70.0947040095
 30
0.0
 11
247.4440343643
 21
66.9197040095
 31
0.0
 12
248.4600343643
 22
66.9197040095
 32
0.0
 13
248.4600343643
 23
66.9197040095
 33
0.0
  0
LINE
  5
2BD
330
2B8
100
AcDbEntity
  8
0
  6
Continuous
 62
     7
370
     0
100
AcDbLine
 10
255.3619546888
 20
88.6744537767
 30
0.0
 11
254.9327417291
 21
88.6744537767
 31
0.0
  0
LINE
  5
2BE
330
2B8
100
AcDbEntity
  8
0
  6
Continuous
 62
     7
370
     0
100
AcDbLine
 10
254.9327417291
 20
88.6744537767
 30
0.0
 11
254.9327417291
 21
85.3113057002
 31
0.0
  0
LINE
  5
2BF
330
2B8
100
AcDbEntity
  8
0
  6
Continuous
 62
     7
370
     0
100
AcDbLine
 10
254.9327417291
 20
85.3113057002
 30
0.0
 11
255.3619546888
 21
85.3113057002
 31
0.0
  0
LINE
  5
2C0
330
2B8
100
AcDbEntity
  8
0
  6
Continuous
 62
     7
370
     0
100
AcDbLine
 10
264.192178678
 20
88.6744537767
 30
0.0
 11
264.6213916377
 21
88.6744537767
 31
0.0
  0
LINE
  5
2C1
330
2B8
100
AcDbEntity
  8
0
  6
Continuous
 62
     7
370
     0
100
AcDbLine
 10
264.6213916377
 20
88.6744537767
 30
0.0
 11
264.6213916377
 21
85.3113057002
 31
0.0
  0
LINE
  5
2C2
330
2B8
100
AcDbEntity
  8
0
  6
Continuous
 62
     7
370
     0
100
AcDbLine
 10
264.6213916377
 20
85.3113057002
 30
0.0
 11
264.192178678
 21
85.3113057002
 31
0.0
  0
LINE
  5
2C3
330
2B8
100
AcDbEntity
  8
0
  6
Continuous
 62
     7
370
     0
100
AcDbLine
 10
220.0525510476
 20
76.2542040095
 30
0.0
 11
249.7300343643
 21
76.2542040095
 31
0.0
  0
LINE
  5
2C4
330
2B8
100
AcDbEntity
  8
0
  6
Continuous
 62
     7
370
     0
100
AcDbLine
 10
220.0525510476
 20
70.0947040095
 30
0.0
 11
249.7300343643
 21
70.0947040095
 31
0.0
  0
LINE
  5
2C5
330
2B8
100
AcDbEntity
  8
0
  6
Continuous
 62
     7
370
     0
100
AcDbLine
 10
251.7620343643
 20
88.6744540095
 30
0.0
 11
247.9520343643
 21
88.6744540095
 31
0.0
  0
LINE
  5
2C6
330
2B8
100
AcDbEntity
  8
0
  6
Continuous
 62
     7
370
     0
100
AcDbLine
 10
247.9520343643
 20
88.6744540095
 30
0.0
 11
247.9520343643
 21
76.2542040095
 31
0.0
  0
LINE
  5
2C7
330
2B8
100
AcDbEntity
  8
0
  6
Continuous
 62
     7
370
     0
100
AcDbLine
 10
247.9520343643
 20
70.0947040095
 30
0.0
 11
247.9520343643
 21
63.7447040095
 31
0.0
  0
MTEXT
  5
2C8
330
2B8
100
AcDbEntity
  8
0
  6
Continuous
 62
     7
370
     0
100
AcDbMText
 10
254.6382702976
 20
91.8321934231
 30
0.0
 40
2.1166666667
 41
0.0
 71
     1
 72
     1
  1

  7
SLDTEXTSTYLE0
 73
     1
 44
1.0
  0
MTEXT
  5
2C9
330
2B8
100
AcDbEntity
  8
0
  6
Continuous
 62
     7
370
     0
100
AcDbMText
 10
255.1772363149
 20
91.8321934231
 30
0.0
 40
2.1166666667
 41
0.0
 71
     1
 72
     1
  1
6.2mm
  7
SLDTEXTSTYLE0
 73
     1
 44
1.0
  0
MTEXT
  5
2CA
330
2B8
100
AcDbEntity
  8
0
  6
Continuous
 62
     7
370
     0
100
AcDbMText
 10
255.8984709103
 20
88.0398322996
 30
0.0
 40
2.1166666667
 41
0.0
 71
     1
 72
     1
  1
0.24in
  7
SLDTEXTSTYLE0
 73
     1
 44
1.0
  0
MTEXT
  5
2CB
330
2B8
100
AcDbEntity
  8
0
  6
Continuous
 62
     7
370
     0
100
AcDbMText
 10
266.5308013648
 20
91.8321934231
 30
0.0
 40
2.1166666667
 41
0.0
 71
     1
 72
     1
  1

  7
SLDTEXTSTYLE0
 73
     1
 44
1.0
  0
ENDBLK
  5
2BA
330
2B8
100
AcDbEntity
  8
0
100
AcDbBlockEnd
  0
BLOCK
  5
446
330
445
100
AcDbEntity
  8
0
100
AcDbBlockBegin
  2
SW_NOTE_3
 70
     0
 10
0.0
 20
0.0
 30
0.0
  3
SW_NOTE_3
  1
SW_NOTE_3
  0
MTEXT
  5
449
330
445
100
AcDbEntity
  8
0
  6
Continuous
 62
     0
370
     0
100
AcDbMText
 10
20.3150390625
 20
3.0695925553
 30
0.0
 40
2.38125
 41
0.0
 71
     2
 72
     1
  1
1:1 ISOMETRIC VIEW FOR
  7
SLDTEXTSTYLE2
 73
     1
 44
1.0
  0
MTEXT
  5
44A
330
445
100
AcDbEntity
  8
0
  6
Continuous
 62
     0
370
     0
100
AcDbMText
 10
20.1234882563
 20
-0.1054074063
 30
0.0
 40
2.38125
 41
0.0
 71
     2
 72
     1
  1
REFERENCE ONLY
  7
SLDTEXTSTYLE2
 73
     1
 44
1.0
  0
ENDBLK
  5
447
330
445
100
AcDbEntity
  8
0
100
AcDbBlockEnd
  0
ENDSEC
  0
SECTION
  2
ENTITIES
  0
LINE
  5
7D
330
1F
100
AcDbEntity
  8
0
  6
Continuous
 62
     7
370
     0
100
AcDbLine
 10
1.5793501011
 20
214.6453799966
 30
0.0
 11
277.9892068491
 21
214.6453799966
 31
0.0
  0
LINE
  5
7E
330
1F
100
AcDbEntity
  8
0
  6
Continuous
 62
     7
370
     0
100
AcDbLine
 10
1.5793501011
 20
214.6453799966
 30
0.0
 11
1.5793501011
 21
0.9031642596
 31
0.0
  0
LINE
  5
7F
330
1F
100
AcDbEntity
  8
0
  6
Continuous
 62
     7
370
     0
100
AcDbLine
 10
277.9892068491
 20
0.9031642596
 30
0.0
 11
1.5793501011
 21
0.9031642596
 31
0.0
  0
LINE
  5
80
330
1F
100
AcDbEntity
  8
0
  6
Continuous
 62
     7
370
     0
100
AcDbLine
 10
277.9892068491
 20
0.9031642596
 30
0.0
 11
277.9892068491
 21
214.6453799966
 31
0.0
  0
LINE
  5
81
330
1F
100
AcDbEntity
  8
0
  6
Continuous
 62
     7
370
     0
100
AcDbLine
 10
215.7427640041
 20
12.2958890132
 30
0.0
 11
171.6327596684
 21
12.2958890132
 31
0.0
  0
LINE
  5
82
330
1F
100
AcDbEntity
  8
0
  6
Continuous
 62
     7
370
     0
100
AcDbLine
 10
171.6327596684
 20
12.2958890132
 30
0.0
 11
171.6327596684
 21
26.1661402506
 31
0.0
  0
LINE
  5
83
330
1F
100
AcDbEntity
  8
0
  6
Continuous
 62
     7
370
     0
100
AcDbLine
 10
171.6327596684
 20
0.9031642596
 30
0.0
 11
171.6327596684
 21
26.1661402506
 31
0.0
  0
LINE
  5
84
330
1F
100
AcDbEntity
  8
0
  6
Continuous
 62
     7
370
     0
100
AcDbLine
 10
215.7427640041
 20
17.1604579552
 30
0.0
 11
277.9892068491
 21
17.1604579552
 31
0.0
  0
LINE
  5
85
330
1F
100
AcDbEntity
  8
0
  6
Continuous
 62
     7
370
     0
100
AcDbLine
 10
215.7427640041
 20
35.2394508358
 30
0.0
 11
215.7427640041
 21
0.9031642596
 31
0.0
  0
LINE
  5
86
330
1F
100
AcDbEntity
  8
0
  6
Continuous
 62
     7
370
     0
100
AcDbLine
 10
215.7427640041
 20
26.1661402506
 30
0.0
 11
171.6327596684
 21
26.1661402506
 31
0.0
  0
LINE
  5
87
330
1F
100
AcDbEntity
  8
0
  6
Continuous
 62
     7
370
     0
100
AcDbLine
 10
215.7427640041
 20
9.1409200612
 30
0.0
 11
277.9892068491
 21
9.1409200612
 31
0.0
  0
LINE
  5
88
330
1F
100
AcDbEntity
  8
0
  6
Continuous
 62
     7
370
     0
100
AcDbLine
 10
215.7427640041
 20
16.9216824031
 30
0.0
 11
171.6327596684
 21
16.9216824031
 31
0.0
  0
LINE
  5
89
330
1F
100
AcDbEntity
  8
0
  6
Continuous
 62
     7
370
     0
100
AcDbLine
 10
215.7427640041
 20
21.4874005542
 30
0.0
 11
171.6327596684
 21
21.4874005542
 31
0.0
  0
LINE
  5
8A
330
1F
100
AcDbEntity
  8
0
  6
Continuous
 62
     7
370
     0
100
AcDbLine
 10
186.1338100705
 20
26.1661402506
 30
0.0
 11
186.1338100705
 21
12.2958890132
 31
0.0
  0
LINE
  5
8B
330
1F
100
AcDbEntity
  8
0
  6
Continuous
 62
     7
370
     0
100
AcDbLine
 10
198.2145906188
 20
26.1661402506
 30
0.0
 11
198.2145906188
 21
12.2958890132
 31
0.0
  0
LINE
  5
8C
330
1F
100
AcDbEntity
  8
0
  6
Continuous
 62
     7
370
     0
100
AcDbLine
 10
253.7490408369
 20
9.1409200612
 30
0.0
 11
253.7490408369
 21
0.9031642596
 31
0.0
  0
LINE
  5
8D
330
1F
100
AcDbEntity
  8
0
  6
Continuous
 62
     7
370
     0
100
AcDbLine
 10
171.6327596684
 20
12.2958890132
 30
0.0
 11
171.6327596684
 21
7.5627342528
 31
0.0
  0
LINE
  5
8E
330
1F
100
AcDbEntity
  8
0
  6
Continuous
 62
     7
370
     0
100
AcDbLine
 10
171.6327596684
 20
7.5627342528
 30
0.0
 11
215.7427640041
 21
7.5627342528
 31
0.0
  0
LINE
  5
8F
330
1F
100
AcDbEntity
  8
0
  6
Continuous
 62
     7
370
     0
100
AcDbLine
 10
171.6327596684
 20
7.5627342528
 30
0.0
 11
171.6327596684
 21
35.2394508358
 31
0.0
  0
LINE
  5
90
330
1F
100
AcDbEntity
  8
0
  6
Continuous
 62
     7
370
     0
100
AcDbLine
 10
171.6327596684
 20
35.2394508358
 30
0.0
 11
215.7427640041
 21
35.2394508358
 31
0.0
  0
LINE
  5
91
330
1F
100
AcDbEntity
  8
0
  6
Continuous
 62
     7
370
     0
100
AcDbLine
 10
270.1683598194
 20
17.1604579552
 30
0.0
 11
270.1683598194
 21
9.1409200612
 31
0.0
  0
LINE
  5
92
330
1F
100
AcDbEntity
  8
0
  6
Continuous
 62
     7
370
     0
100
AcDbLine
 10
215.7427640041
 20
35.2394508358
 30
0.0
 11
277.9892068491
 21
35.2394508358
 31
0.0
  0
LINE
  5
93
330
1F
100
AcDbEntity
  8
0
  6
Continuous
 62
     7
370
     0
100
AcDbLine
 10
277.9892068491
 20
35.2394508358
 30
0.0
 11
277.9892068491
 21
50.0331356147
 31
0.0
  0
LINE
  5
94
330
1F
100
AcDbEntity
  8
0
  6
Continuous
 62
     7
370
     0
100
AcDbLine
 10
215.7427640041
 20
24.8927335446
 30
0.0
 11
277.9892068491
 21
24.8927335446
 31
0.0
  0
INSERT
  5
95
330
1F
100
AcDbEntity
  8
0
  6
Continuous
 62
     7
100
AcDbBlockReference
  2
Third Angle Projection Block
 10
117.7262204235
 20
15.5162339489
 30
0.0
 41
0.8
 42
0.8
 43
0.8
  0
MTEXT
  5
97
330
1F
100
AcDbEntity
  8
0
  6
Continuous
 62
     7
370
     0
100
AcDbMText
 10
274.1458225539
 20
13.2559386876
 30
0.0
 40
3.175
 41
0.0
 71
     2
 72
     1
  1
A
  7
SLDTEXTSTYLE0
 73
     1
 44
1.0
  0
MTEXT
  5
98
330
1F
100
AcDbEntity
  8
0
  6
Continuous
 62
     7
370
     0
100
AcDbMText
 10
234.7560510731
 20
5.1306563898
 30
0.0
 40
3.175
 41
0.0
 71
     2
 72
     1
  1
PK2FSF1
  7
SLDTEXTSTYLE0
 73
     1
 44
1.0
  0
MTEXT
  5
99
330
1F
100
AcDbEntity
  8
0
  6
Continuous
 62
     7
370
     0
100
AcDbMText
 10
216.4199766059
 20
16.8243178599
 30
0.0
 40
2.1166666667
 41
0.0
 71
     1
 72
     1
  1
MATERIAL
  7
SLDTEXTSTYLE0
 73
     1
 44
1.0
  0
MTEXT
  5
9A
330
1F
100
AcDbEntity
  8
0
  6
Continuous
 62
     7
370
     0
100
AcDbMText
 10
174.230946566
 20
20.054553926
 30
0.0
 40
1.8520833333
 41
0.0
 71
     1
 72
     1
  1
DRAWN
  7
SLDTEXTSTYLE0
 73
     1
 44
1.0
  0
MTEXT
  5
9B
330
1F
100
AcDbEntity
  8
0
  6
Continuous
 62
     7
370
     0
100
AcDbMText
 10
172.3960124543
 20
15.5787169747
 30
0.0
 40
1.8520833333
 41
0.0
 71
     1
 72
     1
  1
APPROVAL
  7
SLDTEXTSTYLE0
 73
     1
 44
1.0
  0
MTEXT
  5
9C
330
1F
100
AcDbEntity
  8
0
  6
Continuous
 62
     7
370
     0
100
AcDbMText
 10
271.7160653675
 20
16.1671746307
 30
0.0
 40
2.1166666667
 41
0.0
 71
     1
 72
     1
  1
REV
  7
SLDTEXTSTYLE0
 73
     1
 44
1.0
  0
MTEXT
  5
9D
330
1F
100
AcDbEntity
  8
0
  6
Continuous
 62
     7
370
     0
100
AcDbMText
 10
188.5647772477
 20
20.204393719
 30
0.0
 40
2.1166666667
 41
0.0
 71
     1
 72
     1
  1
YWA
  7
SLDTEXTSTYLE0
 73
     1
 44
1.0
  0
MTEXT
  5
9E
330
1F
100
AcDbEntity
  8
0
  6
Continuous
 62
     7
370
     0
100
AcDbMText
 10
190.2958696448
 20
15.841877739
 30
0.0
 40
2.1166666667
 41
0.0
 71
     1
 72
     1
  1
SS
  7
SLDTEXTSTYLE0
 73
     1
 44
1.0
  0
MTEXT
  5
9F
330
1F
100
AcDbEntity
  8
0
  6
Continuous
 62
     7
370
     0
100
AcDbMText
 10
199.8662436873
 20
20.3177146903
 30
0.0
 40
2.1166666667
 41
0.0
 71
     1
 72
     1
  1
16/FEB/15
  7
SLDTEXTSTYLE0
 73
     1
 44
1.0
  0
MTEXT
  5
A0
330
1F
100
AcDbEntity
  8
0
  6
Continuous
 62
     7
370
     0
100
AcDbMText
 10
203.6145073853
 20
24.8221395769
 30
0.0
 40
2.1166666667
 41
0.0
 71
     1
 72
     1
  1
DATE
  7
SLDTEXTSTYLE0
 73
     1
 44
1.0
  0
MTEXT
  5
A1
330
1F
100
AcDbEntity
  8
0
  6
Continuous
 62
     7
370
     0
100
AcDbMText
 10
199.8662436873
 20
15.841877739
 30
0.0
 40
2.1166666667
 41
0.0
 71
     1
 72
     1
  1
16/FEB/15
  7
SLDTEXTSTYLE0
 73
     1
 44
1.0
  0
MTEXT
  5
A3
330
1F
100
AcDbEntity
  8
0
  6
Continuous
 62
     7
370
     0
100
AcDbMText
 10
229.402906477
 20
27.7957480569
 30
0.0
 40
2.1166666667
 41
0.0
 71
     1
 72
     1
  1
w w w . t h o r  l a b s . c o m
  7
SLDTEXTSTYLE1
 73
     1
 44
1.0
  0
MTEXT
  5
A4
330
1F
100
AcDbEntity
  8
0
  6
Continuous
 62
     7
370
     0
100
AcDbMText
 10
216.7004035316
 20
8.3494791871
 30
0.0
 40
2.1166666667
 41
0.0
 71
     1
 72
     1
  1
ITEM #
  7
SLDTEXTSTYLE0
 73
     1
 44
1.0
  0
MTEXT
  5
A5
330
1F
100
AcDbEntity
  8
0
  6
Continuous
 62
     7
370
     0
100
AcDbMText
 10
254.5318000914
 20
8.3494791871
 30
0.0
 40
2.1166666667
 41
0.0
 71
     1
 72
     1
  1
APPROX WEIGHT
  7
SLDTEXTSTYLE0
 73
     1
 44
1.0
  0
MTEXT
  5
A6
330
1F
100
AcDbEntity
  8
0
  6
Continuous
 62
     7
370
     0
100
AcDbMText
 10
243.4273448343
 20
13.8247651814
 30
0.0
 40
3.175
 41
0.0
 71
     2
 72
     1
  1
N/A
  7
SLDTEXTSTYLE0
 73
     1
 44
1.0
  0
MTEXT
  5
A7
330
1F
100
AcDbEntity
  8
0
  6
Continuous
 62
     7
370
     0
100
AcDbMText
 10
266.1873244978
 20
5.1306563898
 30
0.0
 40
3.175
 41
0.0
 71
     2
 72
     1
  1
70.0 g
  7
SLDTEXTSTYLE0
 73
     1
 44
1.0
  0
INSERT
  5
AD
330
1F
100
AcDbEntity
  8
0
  6
Continuous
 62
     7
370
     0
100
AcDbBlockReference
  2
SW_NOTE_0
 10
174.8430140051
 20
4.4558554801
 30
0.0
  0
INSERT
  5
B3
330
1F
100
AcDbEntity
  8
0
  6
Continuous
 62
     7
370
     0
100
AcDbBlockReference
  2
SW_NOTE_1
 10
174.5483650337
 20
30.4835322715
 30
0.0
  0
MTEXT
  5
B4
330
1F
100
AcDbEntity
  8
0
  6
Continuous
 62
     7
370
     0
100
AcDbMText
 10
187.9273588276
 20
24.8221395769
 30
0.0
 40
2.1166666667
 41
0.0
 71
     1
 72
     1
  1
NAME
  7
SLDTEXTSTYLE0
 73
     1
 44
1.0
  0
INSERT
  5
BA
330
1F
100
AcDbEntity
  8
0
  6
Continuous
 62
     7
370
     0
100
AcDbBlockReference
  2
SW_NOTE_2
 10
58.6204667508
 20
8.1776609732
 30
0.0
  0
MTEXT
  5
BB
330
1F
100
AcDbEntity
  8
0
  6
Continuous
 62
     7
370
     0
100
AcDbMText
 10
247.2497025996
 20
22.4815957924
 30
0.0
 40
2.6458333333
 41
0.0
 71
     2
 72
     1
  1
AMPLIFIED PIEZO ACTUATOR STACK
  7
SLDTEXTSTYLE0
 73
     1
 44
1.0
  0
MTEXT
  5
BC
330
1F
100
AcDbEntity
  8
0
  6
Continuous
 62
     7
370
     0
100
AcDbMText
 10
177.6925831922
 20
10.7142101515
 30
0.0
 40
1.5875
 41
0.0
 71
     1
 72
     1
  1
COPYRIGHT © 2015 BY THORLABS
  7
SLDTEXTSTYLE0
 73
     1
 44
1.0
  0
LINE
  5
BD
330
1F
100
AcDbEntity
  8
0
  6
Continuous
 62
     7
370
     0
100
AcDbLine
 10
31.582085811
 20
77.4094058179
 30
0.0
 11
70.4553745914
 21
76.8610989653
 31
0.0
  0
LINE
  5
BE
330
1F
100
AcDbEntity
  8
0
  6
Continuous
 62
     7
370
     0
100
AcDbLine
 10
70.4553745914
 20
77.5611704194
 30
0.0
 11
31.5919652809
 21
78.1093357109
 31
0.0
  0
LINE
  5
BF
330
1F
100
AcDbEntity
  8
0
  6
Continuous
 62
     7
370
     0
100
AcDbLine
 10
31.5919652809
 20
68.2395702206
 30
0.0
 11
70.4553745914
 21
68.7877392374
 31
0.0
  0
LINE
  5
C0
330
1F
100
AcDbEntity
  8
0
  6
Continuous
 62
     7
370
     0
100
AcDbLine
 10
70.4553745914
 20
69.4878069662
 30
0.0
 11
31.582085811
 21
68.9395001136
 31
0.0
  0
LWPOLYLINE
  5
C1
330
1F
100
AcDbEntity
  8
0
  6
Continuous
 62
     7
370
     0
100
AcDbPolyline
 90
       12
 70
   128
 43
0.0
 10
31.582085811
 20
77.4094058179
 10
31.5823316801
 20
77.4265347027
 10
31.5830320347
 20
77.4762449764
 10
31.5841272701
 20
77.5536676847
 10
31.5854981769
 20
77.651225587
 10
31.5870255459
 20
77.7593707644
 10
31.5885529149
 20
77.8675159418
 10
31.5899238218
 20
77.9650775694
 10
31.5910190571
 20
78.0425002777
 10
31.5917194117
 20
78.0922105514
 10
31.5919652809
 20
78.1093357109
 10
31.5919652809
 20
78.1093357109
  0
LWPOLYLINE
  5
C2
330
1F
100
AcDbEntity
  8
0
  6
Continuous
 62
     7
370
     0
100
AcDbPolyline
 90
       12
 70
   128
 43
0.0
 10
31.582085811
 20
68.9395001136
 10
31.5823316801
 20
68.9223712288
 10
31.5830320347
 20
68.8726646804
 10
31.5841272701
 20
68.7952419721
 10
31.5854981769
 20
68.6976803445
 10
31.5870255459
 20
68.5895351671
 10
31.5885529149
 20
68.4813899897
 10
31.5899238218
 20
68.3838320874
 10
31.5910190571
 20
68.3064093791
 10
31.5917194117
 20
68.2566991054
 10
31.5919652809
 20
68.2395702206
 10
31.5919652809
 20
68.2395702206
  0
CIRCLE
  5
C3
330
1F
100
AcDbEntity
  8
0
  6
Continuous
 62
     7
370
     0
100
AcDbCircle
 10
97.1553732861
 20
73.1744540095
 30
0.0
 40
1.800000000000007
  0
LINE
  5
C4
330
1F
100
AcDbEntity
  8
0
  6
Continuous
 62
     7
370
     0
100
AcDbLine
 10
123.6553732911
 20
68.6744531595
 30
0.0
 11
123.6553732911
 21
77.674452772
 31
0.0
  0
LINE
  5
C5
330
1F
100
AcDbEntity
  8
0
  6
Continuous
 62
     7
370
     0
100
AcDbLine
 10
123.6553732911
 20
77.674452772
 30
0.0
 11
123.8553732861
 21
77.674452772
 31
0.0
  0
LINE
  5
C6
330
1F
100
AcDbEntity
  8
0
  6
Continuous
 62
     7
370
     0
100
AcDbLine
 10
123.8553732861
 20
77.674452772
 30
0.0
 11
123.8553732861
 21
68.6744531595
 31
0.0
  0
LINE
  5
C7
330
1F
100
AcDbEntity
  8
0
  6
Continuous
 62
     7
370
     0
100
AcDbLine
 10
123.8553732861
 20
68.6744531595
 30
0.0
 11
123.6553732911
 21
68.6744531595
 31
0.0
  0
LINE
  5
C8
330
1F
100
AcDbEntity
  8
0
  6
Continuous
 62
     7
370
     0
100
AcDbLine
 10
123.6553732911
 20
77.674452772
 30
0.0
 11
123.6553732911
 21
78.6744547986
 31
0.0
  0
LINE
  5
C9
330
1F
100
AcDbEntity
  8
0
  6
Continuous
 62
     7
370
     0
100
AcDbLine
 10
123.6553732911
 20
78.6744547986
 30
0.0
 11
123.8553732861
 21
78.4744551383
 31
0.0
  0
LINE
  5
CA
330
1F
100
AcDbEntity
  8
0
  6
Continuous
 62
     7
370
     0
100
AcDbLine
 10
123.8553732861
 20
78.4744551383
 30
0.0
 11
123.8553732861
 21
77.674452772
 31
0.0
  0
LINE
  5
CB
330
1F
100
AcDbEntity
  8
0
  6
Continuous
 62
     7
370
     0
100
AcDbLine
 10
123.8553732861
 20
68.6744531595
 30
0.0
 11
123.8553732861
 21
67.8744545185
 31
0.0
  0
LINE
  5
CC
330
1F
100
AcDbEntity
  8
0
  6
Continuous
 62
     7
370
     0
100
AcDbLine
 10
123.8553732861
 20
67.8744545185
 30
0.0
 11
123.6553732911
 21
67.6744548582
 31
0.0
  0
LINE
  5
CD
330
1F
100
AcDbEntity
  8
0
  6
Continuous
 62
     7
370
     0
100
AcDbLine
 10
123.6553732911
 20
67.6744548582
 30
0.0
 11
123.6553732911
 21
68.6744531595
 31
0.0
  0
LINE
  5
CE
330
1F
100
AcDbEntity
  8
0
  6
Continuous
 62
     7
370
     0
100
AcDbLine
 10
70.6553742517
 20
77.674452772
 30
0.0
 11
123.6553732911
 21
77.674452772
 31
0.0
  0
LINE
  5
CF
330
1F
100
AcDbEntity
  8
0
  6
Continuous
 62
     7
370
     0
100
AcDbLine
 10
70.6553742517
 20
78.6744547986
 30
0.0
 11
70.6553742517
 21
77.674452772
 31
0.0
  0
LINE
  5
D0
330
1F
100
AcDbEntity
  8
0
  6
Continuous
 62
     7
370
     0
100
AcDbLine
 10
70.6553742517
 20
78.6744547986
 30
0.0
 11
123.6553732911
 21
78.6744547986
 31
0.0
  0
LINE
  5
D1
330
1F
100
AcDbEntity
  8
0
  6
Continuous
 62
     7
370
     0
100
AcDbLine
 10
70.6553742517
 20
77.674452772
 30
0.0
 11
70.4553745914
 21
77.674452772
 31
0.0
  0
LINE
  5
D2
330
1F
100
AcDbEntity
  8
0
  6
Continuous
 62
     7
370
     0
100
AcDbLine
 10
70.4553745914
 20
77.674452772
 30
0.0
 11
70.4553745914
 21
78.4744551383
 31
0.0
  0
LINE
  5
D3
330
1F
100
AcDbEntity
  8
0
  6
Continuous
 62
     7
370
     0
100
AcDbLine
 10
70.6553742517
 20
78.6744547986
 30
0.0
 11
70.4553745914
 21
78.4744551383
 31
0.0
  0
LINE
  5
D4
330
1F
100
AcDbEntity
  8
0
  6
Continuous
 62
     7
370
     0
100
AcDbLine
 10
70.4553745914
 20
67.8744545185
 30
0.0
 11
70.4553745914
 21
68.6744531595
 31
0.0
  0
LINE
  5
D5
330
1F
100
AcDbEntity
  8
0
  6
Continuous
 62
     7
370
     0
100
AcDbLine
 10
70.4553745914
 20
68.6744531595
 30
0.0
 11
70.6553742517
 21
68.6744531595
 31
0.0
  0
LINE
  5
D6
330
1F
100
AcDbEntity
  8
0
  6
Continuous
 62
     7
370
     0
100
AcDbLine
 10
70.6553742517
 20
68.6744531595
 30
0.0
 11
70.6553742517
 21
67.6744548582
 31
0.0
  0
LINE
  5
D7
330
1F
100
AcDbEntity
  8
0
  6
Continuous
 62
     7
370
     0
100
AcDbLine
 10
70.4553745914
 20
67.8744545185
 30
0.0
 11
70.6553742517
 21
67.6744548582
 31
0.0
  0
LINE
  5
D8
330
1F
100
AcDbEntity
  8
0
  6
Continuous
 62
     7
370
     0
100
AcDbLine
 10
70.6553742517
 20
77.674452772
 30
0.0
 11
70.6553742517
 21
68.6744531595
 31
0.0
  0
LINE
  5
D9
330
1F
100
AcDbEntity
  8
0
  6
Continuous
 62
     7
370
     0
100
AcDbLine
 10
70.4553745914
 20
68.6744531595
 30
0.0
 11
70.4553745914
 21
77.674452772
 31
0.0
  0
LINE
  5
DA
330
1F
100
AcDbEntity
  8
0
  6
Continuous
 62
     7
370
     0
100
AcDbLine
 10
70.6553742517
 20
67.6744548582
 30
0.0
 11
123.6553732911
 21
67.6744548582
 31
0.0
  0
LINE
  5
DB
330
1F
100
AcDbEntity
  8
0
  6
Continuous
 62
     7
370
     0
100
AcDbLine
 10
123.6553732911
 20
68.6744531595
 30
0.0
 11
70.6553742517
 21
68.6744531595
 31
0.0
  0
CIRCLE
  5
DC
330
1F
100
AcDbEntity
  8
0
  6
Continuous
 62
     7
370
     0
100
AcDbCircle
 10
77.1553732861
 20
73.1744540095
 30
0.0
 40
1.025000000000006
  0
CIRCLE
  5
DD
330
1F
100
AcDbEntity
  8
0
  6
Continuous
 62
     7
370
     0
100
AcDbCircle
 10
77.1553732861
 20
73.1744540095
 30
0.0
 40
1.225000000000009
  0
CIRCLE
  5
DE
330
1F
100
AcDbEntity
  8
0
  6
Continuous
 62
     7
370
     0
100
AcDbCircle
 10
117.1553732861
 20
73.1744540095
 30
0.0
 40
1.22499999999998
  0
CIRCLE
  5
DF
330
1F
100
AcDbEntity
  8
0
  6
Continuous
 62
     7
370
     0
100
AcDbCircle
 10
97.1553732861
 20
73.1744540095
 30
0.0
 40
2.000000000000014
  0
CIRCLE
  5
E0
330
1F
100
AcDbEntity
  8
0
  6
Continuous
 62
     7
370
     0
100
AcDbCircle
 10
117.1553732861
 20
73.1744540095
 30
0.0
 40
1.024999999999991
  0
DIMENSION
  5
E1
330
1F
100
AcDbEntity
  8
0
  6
Continuous
 62
     7
370
     0
100
AcDbDimension
  2
_D
 10
130.1161508686
 20
67.6744540095
 30
0.0
 11
130.1161508686
 21
59.5941841006
 31
0.0
 70
   160
  1
<>
 71
     2
 42
-1.0
  3
SLDDIMSTYLE0
100
AcDbAlignedDimension
 13
123.6553732861
 23
78.6744540095
 33
0.0
 14
123.6553732861
 24
67.6744540095
 34
0.0
 50
90.0
100
AcDbRotatedDimension
  0
DIMENSION
  5
F7
330
1F
100
AcDbEntity
  8
0
  6
Continuous
 62
     7
370
     0
100
AcDbDimension
  2
_D_1
 10
151.8554763637
 20
73.1744540095
 30
0.0
 11
151.8554763637
 21
59.5941841006
 31
0.0
 70
   160
  1
<>
 71
     2
 42
-1.0
  3
SLDDIMSTYLE1
100
AcDbAlignedDimension
 13
123.6553732861
 23
67.6744540095
 33
0.0
 14
117.1553732861
 24
73.1744540095
 34
0.0
 50
90.0
100
AcDbRotatedDimension
  0
DIMENSION
  5
10D
330
1F
100
AcDbEntity
  8
0
  6
Continuous
 62
     7
370
     0
100
AcDbDimension
  2
_D_2
 10
77.1553732861
 20
59.5941841006
 30
0.0
 11
57.419397303
 21
59.5941841006
 31
0.0
 70
   160
  1
6.7mm TYP\P[0.26in]
 71
     2
 42
-1.0
  3
SLDDIMSTYLE1
100
AcDbAlignedDimension
 13
70.4553732861
 23
67.8744540095
 33
0.0
 14
77.1553732861
 24
71.9044540095
 34
0.0
100
AcDbRotatedDimension
  0
DIMENSION
  5
119
330
1F
100
AcDbEntity
  8
0
  6
Continuous
 62
     7
370
     0
100
AcDbDimension
  2
_D_3
 10
97.1553732861
 20
59.5941841006
 30
0.0
 11
87.4939124524
 21
59.5941841006
 31
0.0
 70
   160
  1
<>
 71
     2
 42
-1.0
  3
SLDDIMSTYLE2
100
AcDbAlignedDimension
 13
77.1553732861
 23
73.1744540095
 33
0.0
 14
97.1553732861
 24
71.9044540095
 34
0.0
100
AcDbRotatedDimension
  0
MTEXT
  5
12E
330
1F
100
AcDbEntity
  8
0
  6
Continuous
 62
     7
370
     0
100
AcDbMText
 10
52.1385490373
 20
95.4227127881
 30
0.0
 40
2.1166666667
 41
0.0
 71
     1
 72
     1
  1
NEGATIVE WIRE(~75mm LONG)
  7
SLDTEXTSTYLE0
 73
     1
 44
1.0
  0
LEADER
  5
130
330
1F
100
AcDbEntity
  8
0
  6
Continuous
 62
     7
370
     0
100
AcDbLeader
  3
SLDDIMSTYLE3
 76
     3
 10
40.4922870181
 20
78.1722465446
 30
0.0
 10
45.2587680355
 20
94.4609975529
 30
0.0
 10
51.6087680355
 20
94.4609975529
 30
0.0
  0
MTEXT
  5
131
330
1F
100
AcDbEntity
  8
0
  6
Continuous
 62
     7
370
     0
100
AcDbMText
 10
53.1302473918
 20
48.526306965
 30
0.0
 40
2.1166666667
 41
0.0
 71
     1
 72
     1
  1
POSITIVE WIRE(~75mm LONG)
  7
SLDTEXTSTYLE0
 73
     1
 44
1.0
  0
LEADER
  5
132
330
1F
100
AcDbEntity
  8
0
  6
Continuous
 62
     7
370
     0
100
AcDbLeader
  3
SLDDIMSTYLE3
 76
     3
 10
40.5253593732
 20
68.3655760952
 30
0.0
 10
46.2576581576
 20
47.6241496061
 30
0.0
 10
52.6076581576
 20
47.6241496061
 30
0.0
  0
MTEXT
  5
133
330
1F
100
AcDbEntity
  8
0
  6
Continuous
 62
     7
370
     0
100
AcDbMText
 10
128.2289176463
 20
90.2762104222
 30
0.0
 40
2.1166666667
 41
0.0
 71
     1
 72
     1
  1
M2.50 x 0.45, 3.0mm DEEP (2x)
  7
SLDTEXTSTYLE0
 73
     1
 44
1.0
  0
LEADER
  5
134
330
1F
100
AcDbEntity
  8
0
  6
Continuous
 62
     7
370
     0
100
AcDbLeader
  3
SLDDIMSTYLE3
 76
     3
 10
116.8311124454
 20
74.355758334
 30
0.0
 10
121.2854051054
 20
89.3555591511
 30
0.0
 10
127.6354051054
 20
89.3555591511
 30
0.0
  0
MTEXT
  5
135
330
1F
100
AcDbEntity
  8
0
  6
Continuous
 62
     7
370
     0
100
AcDbMText
 10
111.1151475138
 20
95.4227127881
 30
0.0
 40
2.1166666667
 41
0.0
 71
     1
 72
     1
  1
M2.0 CAP SCREW, 2MM HEX
  7
SLDTEXTSTYLE0
 73
     1
 44
1.0
  0
LEADER
  5
136
330
1F
100
AcDbEntity
  8
0
  6
Continuous
 62
     7
370
     0
100
AcDbLeader
  3
SLDDIMSTYLE3
 76
     3
 10
97.5630248929
 20
75.1324683525
 30
0.0
 10
104.1932852386
 20
94.4609975529
 30
0.0
 10
110.5432852386
 20
94.4609975529
 30
0.0
  0
INSERT
  5
13E
330
1F
100
AcDbEntity
  8
0
  6
Continuous
 62
     7
370
     0
100
AcDbBlockReference
  2
SW_CENTERMARKSYMBOL_0
 10
77.1553732861
 20
73.1744540095
 30
0.0
  0
INSERT
  5
146
330
1F
100
AcDbEntity
  8
0
  6
Continuous
 62
     7
370
     0
100
AcDbBlockReference
  2
SW_CENTERMARKSYMBOL_1
 10
97.1553732861
 20
73.1744540095
 30
0.0
  0
INSERT
  5
14E
330
1F
100
AcDbEntity
  8
0
  6
Continuous
 62
     7
370
     0
100
AcDbBlockReference
  2
SW_CENTERMARKSYMBOL_2
 10
117.1553732861
 20
73.1744540095
 30
0.0
  0
ARC
  5
14F
330
1F
100
AcDbEntity
  8
0
  6
Continuous
 62
     7
370
     0
100
AcDbCircle
 10
97.1553732861
 20
171.5758935037
 30
0.0
 40
1.588000000000022
100
AcDbArc
 50
90.0
 51
164.7192154538
  0
ARC
  5
150
330
1F
100
AcDbEntity
  8
0
  6
Continuous
 62
     7
370
     0
100
AcDbCircle
 10
97.1553732861
 20
171.5758935037
 30
0.0
 40
1.588000000000022
100
AcDbArc
 50
15.2807845462
 51
90.0
  0
LINE
  5
151
330
1F
100
AcDbEntity
  8
0
  6
Continuous
 62
     7
370
     0
100
AcDbLine
 10
31.5870255459
 20
164.5457114727
 30
0.0
 11
70.4553745914
 21
164.5457114727
 31
0.0
  0
LINE
  5
152
330
1F
100
AcDbEntity
  8
0
  6
Continuous
 62
     7
370
     0
100
AcDbLine
 10
70.4553745914
 20
165.245708421
 30
0.0
 11
31.5870255459
 21
165.245708421
 31
0.0
  0
LINE
  5
153
330
1F
100
AcDbEntity
  8
0
  6
Continuous
 62
     7
370
     0
100
AcDbLine
 10
70.4853743542
 20
171.1675937922
 30
0.0
 11
70.4853743542
 21
171.9944145233
 31
0.0
  0
LINE
  5
154
330
1F
100
AcDbEntity
  8
0
  6
Continuous
 62
     7
370
     0
100
AcDbLine
 10
70.4853743542
 20
171.9944145233
 30
0.0
 11
75.6529666711
 21
171.9944145233
 31
0.0
  0
LINE
  5
155
330
1F
100
AcDbEntity
  8
0
  6
Continuous
 62
     7
370
     0
100
AcDbLine
 10
75.6529666711
 20
171.9944145233
 30
0.0
 11
75.8710637916
 21
171.4970137627
 31
0.0
  0
LINE
  5
156
330
1F
100
AcDbEntity
  8
0
  6
Continuous
 62
     7
370
     0
100
AcDbLine
 10
76.2688949931
 20
171.4970137627
 30
0.0
 11
75.985780381
 21
171.9944145233
 31
0.0
  0
LINE
  5
157
330
1F
100
AcDbEntity
  8
0
  6
Continuous
 62
     7
370
     0
100
AcDbLine
 10
75.985780381
 20
171.9944145233
 30
0.0
 11
92.696220078
 21
171.9944145233
 31
0.0
  0
LINE
  5
158
330
1F
100
AcDbEntity
  8
0
  6
Continuous
 62
     7
370
     0
100
AcDbLine
 10
92.696220078
 20
171.9944145233
 30
0.0
 11
92.9154999781
 21
171.4970137627
 31
0.0
  0
LINE
  5
159
330
1F
100
AcDbEntity
  8
0
  6
Continuous
 62
     7
370
     0
100
AcDbLine
 10
93.2486061234
 20
171.4970137627
 30
0.0
 11
93.0293262232
 21
171.9944145233
 31
0.0
  0
LINE
  5
15A
330
1F
100
AcDbEntity
  8
0
  6
Continuous
 62
     7
370
     0
100
AcDbLine
 10
93.0293262232
 20
171.9944145233
 30
0.0
 11
101.2814216543
 21
171.9944145233
 31
0.0
  0
LINE
  5
15B
330
1F
100
AcDbEntity
  8
0
  6
Continuous
 62
     7
370
     0
100
AcDbLine
 10
101.0621417541
 20
171.4970137627
 30
0.0
 11
101.2814216543
 21
171.9944145233
 31
0.0
  0
LINE
  5
15C
330
1F
100
AcDbEntity
  8
0
  6
Continuous
 62
     7
370
     0
100
AcDbLine
 10
101.6145259369
 20
171.9944145233
 30
0.0
 11
101.3952460367
 21
171.4970137627
 31
0.0
  0
LINE
  5
15D
330
1F
100
AcDbEntity
  8
0
  6
Continuous
 62
     7
370
     0
100
AcDbLine
 10
101.6145259369
 20
171.9944145233
 30
0.0
 11
118.3249665652
 21
171.9944145233
 31
0.0
  0
LINE
  5
15E
330
1F
100
AcDbEntity
  8
0
  6
Continuous
 62
     7
370
     0
100
AcDbLine
 10
118.0418500904
 20
171.4970137627
 30
0.0
 11
118.3249665652
 21
171.9944145233
 31
0.0
  0
LINE
  5
15F
330
1F
100
AcDbEntity
  8
0
  6
Continuous
 62
     7
370
     0
100
AcDbLine
 10
118.6577798095
 20
171.9944145233
 30
0.0
 11
118.4396826889
 21
171.4970137627
 31
0.0
  0
LINE
  5
160
330
1F
100
AcDbEntity
  8
0
  6
Continuous
 62
     7
370
     0
100
AcDbLine
 10
118.6577798095
 20
171.9944145233
 30
0.0
 11
123.8253732868
 21
171.9944145233
 31
0.0
  0
LINE
  5
161
330
1F
100
AcDbEntity
  8
0
  6
Continuous
 62
     7
370
     0
100
AcDbLine
 10
123.8253732868
 20
171.9944145233
 30
0.0
 11
123.8253732868
 21
171.1675937922
 31
0.0
  0
LWPOLYLINE
  5
162
330
1F
100
AcDbEntity
  8
0
  6
Continuous
 62
     7
370
     0
100
AcDbPolyline
 90
       21
 70
   128
 43
0.0
 10
31.582085811
 20
164.8957099468
 10
31.5823316801
 20
164.7875573189
 10
31.5830320347
 20
164.6899845154
 10
31.5841272701
 20
164.6125580818
 10
31.5854981769
 20
164.5628478081
 10
31.5870255459
 20
164.5457114727
 10
31.5885529149
 20
164.5628478081
 10
31.5899238218
 20
164.6125580818
 10
31.5910190571
 20
164.6899845154
 10
31.5917194117
 20
164.7875573189
 10
31.5919652809
 20
164.8957099468
 10
31.5917194117
 20
165.0038625748
 10
31.5910190571
 20
165.1014353783
 10
31.5899238218
 20
165.1788618118
 10
31.5885529149
 20
165.2285869867
 10
31.5870255459
 20
165.245708421
 10
31.5854981769
 20
165.2285869867
 10
31.5841272701
 20
165.1788618118
 10
31.5830320347
 20
165.1014353783
 10
31.5823316801
 20
165.0038625748
 10
31.582085811
 20
164.8957099468
  0
SPLINE
  5
163
330
1F
100
AcDbEntity
  8
0
  6
Continuous
 62
     7
370
     0
100
AcDbSpline
210
0.0
220
0.0
230
1.0
 70
     8
 71
     3
 72
    11
 73
     7
 74
     0
 42
0.000000001
 43
0.00000001
 40
0.0
 40
0.0
 40
0.0
 40
0.0
 40
0.2798521958339336
 40
0.5590672719565564
 40
0.779434283519099
 40
1.0
 40
1.0
 40
1.0
 40
1.0
 10
76.7887071002338
 20
156.070407822807
 30
0.0
 10
76.78552054915886
 20
156.1079816299008
 30
0.0
 10
76.77915470160458
 20
156.1830437024581
 30
0.0
 10
76.71668150776826
 20
156.2707290189024
 30
0.0
 10
76.63814793735051
 20
156.3280473471201
 30
0.0
 10
76.580944558767
 20
156.3424506744887
 30
0.0
 10
76.55232998021579
 20
156.3496555835797
 30
0.0
  0
SPLINE
  5
164
330
1F
100
AcDbEntity
  8
0
  6
Continuous
 62
     7
370
     0
100
AcDbSpline
210
0.0
220
0.0
230
1.0
 70
     8
 71
     3
 72
    13
 73
     9
 74
     0
 42
0.000000001
 43
0.00000001
 40
0.0
 40
0.0
 40
0.0
 40
0.0
 40
0.2505182665608694
 40
0.5003221368683445
 40
0.6253125640338891
 40
0.750160816154652
 40
0.8750511421666055
 40
1.0
 40
1.0
 40
1.0
 40
1.0
 10
76.27588736303782
 20
155.7739343196942
 30
0.0
 10
76.33202406248576
 20
155.7748078188095
 30
0.0
 10
76.44413737785432
 20
155.7765523261061
 30
0.0
 10
76.58746707557772
 20
155.7892913054027
 30
0.0
 10
76.68723859407602
 20
155.8453843904276
 30
0.0
 10
76.74579478482508
 20
155.9076349340272
 30
0.0
 10
76.78271739061783
 20
155.9857098595164
 30
0.0
 10
76.78671021855122
 20
156.0421707591948
 30
0.0
 10
76.7887071002338
 20
156.070407822807
 30
0.0
  0
LINE
  5
165
330
1F
100
AcDbEntity
  8
0
  6
Continuous
 62
     7
370
     0
100
AcDbLine
 10
76.0451168049
 20
155.7739343197
 30
0.0
 11
76.275887363
 21
155.7739343197
 31
0.0
  0
LINE
  5
166
330
1F
100
AcDbEntity
  8
0
  6
Continuous
 62
     7
370
     0
100
AcDbLine
 10
76.2486443151
 20
156.3636775763
 30
0.0
 11
76.0451168049
 21
156.3636775763
 31
0.0
  0
SPLINE
  5
167
330
1F
100
AcDbEntity
  8
0
  6
Continuous
 62
     7
370
     0
100
AcDbSpline
210
0.0
220
0.0
230
1.0
 70
     8
 71
     3
 72
     9
 73
     5
 74
     0
 42
0.000000001
 43
0.00000001
 40
0.0
 40
0.0
 40
0.0
 40
0.0
 40
0.5598400382542649
 40
1.0
 40
1.0
 40
1.0
 40
1.0
 10
76.55232998021579
 20
156.3496555835797
 30
0.0
 10
76.49576617453303
 20
156.3548172152886
 30
0.0
 10
76.39473051824245
 20
156.3640370483771
 30
0.0
 10
76.29329303418672
 20
156.363787442692
 30
0.0
 10
76.24864431508517
 20
156.3636775762631
 30
0.0
  0
LINE
  5
168
330
1F
100
AcDbEntity
  8
0
  6
Continuous
 62
     7
370
     0
100
AcDbLine
 10
76.0451168049
 20
156.3636775763
 30
0.0
 11
76.0451168049
 21
155.7739343197
 31
0.0
  0
SPLINE
  5
169
330
1F
100
AcDbEntity
  8
0
  6
Continuous
 62
     7
370
     0
100
AcDbSpline
210
0.0
220
0.0
230
1.0
 70
     8
 71
     3
 72
    11
 73
     7
 74
     0
 42
0.000000001
 43
0.00000001
 40
0.0
 40
0.0
 40
0.0
 40
0.0
 40
0.2799464083569972
 40
0.5602082350822214
 40
0.7801652173036049
 40
1.0
 40
1.0
 40
1.0
 40
1.0
 10
86.27588527687526
 20
156.1841930896832
 30
0.0
 10
86.34283388836037
 20
156.2141259345672
 30
0.0
 10
86.47680654298885
 20
156.2740253499654
 30
0.0
 10
86.63917531249264
 20
156.3992200749875
 30
0.0
 10
86.76892755880928
 20
156.538503604037
 30
0.0
 10
86.81577114015668
 20
156.6441886912635
 30
0.0
 10
86.83918642290568
 20
156.6970165521695
 30
0.0
  0
LINE
  5
16A
330
1F
100
AcDbEntity
  8
0
  6
Continuous
 62
     7
370
     0
100
AcDbLine
 10
86.2758852769
 20
155.7995792181
 30
0.0
 11
86.2758852769
 21
156.1841930897
 31
0.0
  0
SPLINE
  5
16B
330
1F
100
AcDbEntity
  8
0
  6
Continuous
 62
     7
370
     0
100
AcDbSpline
210
0.0
220
0.0
230
1.0
 70
     8
 71
     3
 72
     9
 73
     5
 74
     0
 42
0.000000001
 43
0.00000001
 40
0.0
 40
0.0
 40
0.0
 40
0.0
 40
0.5597503375394541
 40
1.0
 40
1.0
 40
1.0
 40
1.0
 10
86.76306384094691
 20
156.1208929569318
 30
0.0
 10
86.68188338181996
 20
156.0457552176148
 30
0.0
 10
86.53685361822248
 20
155.9115208379675
 30
0.0
 10
86.35565701866808
 20
155.8337970774443
 30
0.0
 10
86.27588527687526
 20
155.7995792181088
 30
0.0
  0
LINE
  5
16C
330
1F
100
AcDbEntity
  8
0
  6
Continuous
 62
     7
370
     0
100
AcDbLine
 10
86.7630638409
 20
154.6970124991
 30
0.0
 11
86.7630638409
 21
156.1208929569
 31
0.0
  0
LINE
  5
16D
330
1F
100
AcDbEntity
  8
0
  6
Continuous
 62
     7
370
     0
100
AcDbLine
 10
87.1476814378
 20
154.6970124991
 30
0.0
 11
86.7630638409
 21
154.6970124991
 31
0.0
  0
LINE
  5
16E
330
1F
100
AcDbEntity
  8
0
  6
Continuous
 62
     7
370
     0
100
AcDbLine
 10
87.1476814378
 20
156.6970165522
 30
0.0
 11
87.1476814378
 21
154.6970124991
 31
0.0
  0
LINE
  5
16F
330
1F
100
AcDbEntity
  8
0
  6
Continuous
 62
     7
370
     0
100
AcDbLine
 10
86.8391864229
 20
156.6970165522
 30
0.0
 11
87.1476814378
 21
156.6970165522
 31
0.0
  0
SPLINE
  5
170
330
1F
100
AcDbEntity
  8
0
  6
Continuous
 62
     7
370
     0
100
AcDbSpline
210
0.0
220
0.0
230
1.0
 70
     8
 71
     3
 72
    15
 73
    11
 74
     0
 42
0.000000001
 43
0.00000001
 40
0.0
 40
0.0
 40
0.0
 40
0.0
 40
0.1247166944516179
 40
0.2499882641941298
 40
0.3752754823253244
 40
0.5005281168994529
 40
0.6255597080531264
 40
0.7503742355280301
 40
0.875033548012309
 40
1.0
 40
1.0
 40
1.0
 40
1.0
 10
83.15569388159251
 20
156.0780223161771
 30
0.0
 10
83.21045067493914
 20
156.0499810961315
 30
0.0
 10
83.32020787931141
 20
155.9937738982425
 30
0.0
 10
83.50067821430511
 20
155.9514088456799
 30
0.0
 10
83.67981907696426
 20
155.907174277711
 30
0.0
 10
83.85549112438125
 20
155.8506134170839
 30
0.0
 10
84.02434013369135
 20
155.7719545682944
 30
0.0
 10
84.15814544713744
 20
155.6402557840125
 30
0.0
 10
84.24011688893344
 20
155.4699516515062
 30
0.0
 10
84.24686537914762
 20
155.3465305688369
 30
0.0
 10
84.2502437759254
 20
155.2847440988614
 30
0.0
  0
SPLINE
  5
171
330
1F
100
AcDbEntity
  8
0
  6
Continuous
 62
     7
370
     0
100
AcDbSpline
210
0.0
220
0.0
230
1.0
 70
     8
 71
     3
 72
     9
 73
     5
 74
     0
 42
0.000000001
 43
0.00000001
 40
0.0
 40
0.0
 40
0.0
 40
0.0
 40
0.5584355754026199
 40
1.0
 40
1.0
 40
1.0
 40
1.0
 10
83.0963984359119
 20
156.1970080883099
 30
0.0
 10
83.10015992225983
 20
156.1709847548624
 30
0.0
 10
83.10689567928108
 20
156.124384332909
 30
0.0
 10
83.1407465439936
 20
156.0922234277556
 30
0.0
 10
83.15569388159251
 20
156.0780223161771
 30
0.0
  0
SPLINE
  5
172
330
1F
100
AcDbEntity
  8
0
  6
Continuous
 62
     7
370
     0
100
AcDbSpline
210
0.0
220
0.0
230
1.0
 70
     8
 71
     3
 72
     9
 73
     5
 74
     0
 42
0.000000001
 43
0.00000001
 40
0.0
 40
0.0
 40
0.0
 40
0.0
 40
0.5587861078576303
 40
1.0
 40
1.0
 40
1.0
 40
1.0
 10
83.15929996260142
 20
156.3184078485562
 30
0.0
 10
83.13906398202445
 20
156.2998878117798
 30
0.0
 10
83.1028498022293
 20
156.2667444738979
 30
0.0
 10
83.09837346020083
 20
156.2183572178715
 30
0.0
 10
83.0963984359119
 20
156.1970080883099
 30
0.0
  0
SPLINE
  5
173
330
1F
100
AcDbEntity
  8
0
  6
Continuous
 62
     7
370
     0
100
AcDbSpline
210
0.0
220
0.0
230
1.0
 70
     8
 71
     3
 72
     9
 73
     5
 74
     0
 42
0.000000001
 43
0.00000001
 40
0.0
 40
0.0
 40
0.0
 40
0.0
 40
0.5605388139411931
 40
1.0
 40
1.0
 40
1.0
 40
1.0
 10
83.42933135517573
 20
156.3893224746777
 30
0.0
 10
83.3755991014637
 20
156.3876368449331
 30
0.0
 10
83.27974088009589
 20
156.3846296852098
 30
0.0
 10
83.19607004641107
 20
156.3386250848115
 30
0.0
 10
83.15929996260142
 20
156.3184078485562
 30
0.0
  0
SPLINE
  5
174
330
1F
100
AcDbEntity
  8
0
  6
Continuous
 62
     7
370
     0
100
AcDbSpline
210
0.0
220
0.0
230
1.0
 70
     8
 71
     3
 72
    11
 73
     7
 74
     0
 42
0.000000001
 43
0.00000001
 40
0.0
 40
0.0
 40
0.0
 40
0.0
 40
0.2805929945425624
 40
0.5584635054532051
 40
0.778899305732375
 40
1.0
 40
1.0
 40
1.0
 40
1.0
 10
83.78870638497806
 20
156.1072732956006
 30
0.0
 10
83.7783969564225
 20
156.1542481440639
 30
0.0
 10
83.75787812764798
 20
156.2477420624838
 30
0.0
 10
83.66109845280066
 20
156.3499603365371
 30
0.0
 10
83.54153180310362
 20
156.3850611762957
 30
0.0
 10
83.4667690320112
 20
156.3879006166133
 30
0.0
 10
83.42933135517573
 20
156.3893224746777
 30
0.0
  0
LINE
  5
175
330
1F
100
AcDbEntity
  8
0
  6
Continuous
 62
     7
370
     0
100
AcDbLine
 10
84.1733202566
 20
156.1329032929
 30
0.0
 11
83.788706385
 21
156.1072732956
 31
0.0
  0
SPLINE
  5
176
330
1F
100
AcDbEntity
  8
0
  6
Continuous
 62
     7
370
     0
100
AcDbSpline
210
0.0
220
0.0
230
1.0
 70
     8
 71
     3
 72
    12
 73
     8
 74
     0
 42
0.000000001
 43
0.00000001
 40
0.0
 40
0.0
 40
0.0
 40
0.0
 40
0.1873076612734696
 40
0.3743518684293117
 40
0.5609122099589748
 40
0.7802304707050491
 40
1.0
 40
1.0
 40
1.0
 40
1.0
 10
83.42452573069072
 20
156.7226465494229
 30
0.0
 10
83.49137088243151
 20
156.7204264982042
 30
0.0
 10
83.62496716610447
 20
156.7159895183385
 30
0.0
 10
83.82142236803482
 20
156.6670644401684
 30
0.0
 10
84.00579351163724
 20
156.5572167707326
 30
0.0
 10
84.14482435766814
 20
156.3692826265892
 30
0.0
 10
84.16381511772975
 20
156.2117503715544
 30
0.0
 10
84.17332025655246
 20
156.132903292854
 30
0.0
  0
SPLINE
  5
177
330
1F
100
AcDbEntity
  8
0
  6
Continuous
 62
     7
370
     0
100
AcDbSpline
210
0.0
220
0.0
230
1.0
 70
     8
 71
     3
 72
    12
 73
     8
 74
     0
 42
0.000000001
 43
0.00000001
 40
0.0
 40
0.0
 40
0.0
 40
0.0
 40
0.1864209062464767
 40
0.3728987697500094
 40
0.5593363693378324
 40
0.7794385823929374
 40
1.0
 40
1.0
 40
1.0
 40
1.0
 10
82.71178456433749
 20
156.1701710969998
 30
0.0
 10
82.71873444759474
 20
156.2331236479245
 30
0.0
 10
82.73263633750994
 20
156.3590479836931
 30
0.0
 10
82.83570426958714
 20
156.5242289057911
 30
0.0
 10
82.9972780610891
 20
156.6466472434223
 30
0.0
 10
83.20181663890374
 20
156.7131047323278
 30
0.0
 10
83.3502378114307
 20
156.719463734872
 30
0.0
 10
83.42452573069072
 20
156.7226465494229
 30
0.0
  0
SPLINE
  5
178
330
1F
100
AcDbEntity
  8
0
  6
Continuous
 62
     7
370
     0
100
AcDbSpline
210
0.0
220
0.0
230
1.0
 70
     8
 71
     3
 72
    10
 73
     6
 74
     0
 42
0.000000001
 43
0.00000001
 40
0.0
 40
0.0
 40
0.0
 40
0.0
 40
0.2805783577935111
 40
0.5609717702156577
 40
1.0
 40
1.0
 40
1.0
 40
1.0
 10
82.89648073204494
 20
155.771535232742
 30
0.0
 10
82.86631832143306
 20
155.8012640036789
 30
0.0
 10
82.80601338199304
 20
155.860701949606
 30
0.0
 10
82.72949077405784
 20
155.9943504944651
 30
0.0
 10
82.71849484684317
 20
156.1035387724109
 30
0.0
 10
82.71178456433749
 20
156.1701710969998
 30
0.0
  0
SPLINE
  5
179
330
1F
100
AcDbEntity
  8
0
  6
Continuous
 62
     7
370
     0
100
AcDbSpline
210
0.0
220
0.0
230
1.0
 70
     8
 71
     3
 72
     9
 73
     5
 74
     0
 42
0.000000001
 43
0.00000001
 40
0.0
 40
0.0
 40
0.0
 40
0.0
 40
0.5607594030183612
 40
1.0
 40
1.0
 40
1.0
 40
1.0
 10
83.3536111045692
 20
155.5752124340131
 30
0.0
 10
83.2621054602901
 20
155.5983109730319
 30
0.0
 10
83.09892381092932
 20
155.639502505255
 30
0.0
 10
82.9582641607576
 20
155.7312402784696
 30
0.0
 10
82.89648073204494
 20
155.771535232742
 30
0.0
  0
SPLINE
  5
17A
330
1F
100
AcDbEntity
  8
0
  6
Continuous
 62
     7
370
     0
100
AcDbSpline
210
0.0
220
0.0
230
1.0
 70
     8
 71
     3
 72
     9
 73
     5
 74
     0
 42
0.000000001
 43
0.00000001
 40
0.0
 40
0.0
 40
0.0
 40
0.0
 40
0.5599491580111999
 40
1.0
 40
1.0
 40
1.0
 40
1.0
 10
83.67812859304881
 20
155.4882790596081
 30
0.0
 10
83.61785879466586
 20
155.5056369233964
 30
0.0
 10
83.51022438264711
 20
155.5366359231088
 30
0.0
 10
83.40146900157902
 20
155.5634242209796
 30
0.0
 10
83.3536111045692
 20
155.5752124340131
 30
0.0
  0
SPLINE
  5
17B
330
1F
100
AcDbEntity
  8
0
  6
Continuous
 62
     7
370
     0
100
AcDbSpline
210
0.0
220
0.0
230
1.0
 70
     8
 71
     3
 72
    10
 73
     6
 74
     0
 42
0.000000001
 43
0.00000001
 40
0.0
 40
0.0
 40
0.0
 40
0.0
 40
0.2797835281396562
 40
0.5590610102460916
 40
1.0
 40
1.0
 40
1.0
 40
1.0
 10
83.865629904351
 20
155.2807505876614
 30
0.0
 10
83.86274723691281
 20
155.3091829063317
 30
0.0
 10
83.8569871159332
 20
155.3659961179783
 30
0.0
 10
83.78720496844366
 20
155.4454633688376
 30
0.0
 10
83.71954942631584
 20
155.4720201622787
 30
0.0
 10
83.67812859304881
 20
155.4882790596081
 30
0.0
  0
SPLINE
  5
17C
330
1F
100
AcDbEntity
  8
0
  6
Continuous
 62
     7
370
     0
100
AcDbSpline
210
0.0
220
0.0
230
1.0
 70
     8
 71
     3
 72
    11
 73
     7
 74
     0
 42
0.000000001
 43
0.00000001
 40
0.0
 40
0.0
 40
0.0
 40
0.0
 40
0.2812206943018761
 40
0.5610016417192969
 40
0.7810882346346012
 40
1.0
 40
1.0
 40
1.0
 40
1.0
 10
83.46498983391261
 20
155.0047065765454
 30
0.0
 10
83.51579495282941
 20
155.0067587822535
 30
0.0
 10
83.61714508707475
 20
155.0108526871286
 30
0.0
 10
83.75002664384166
 20
155.0651692573653
 30
0.0
 10
83.84611105421628
 20
155.1613781033922
 30
0.0
 10
83.8591352392177
 20
155.2410308138987
 30
0.0
 10
83.865629904351
 20
155.2807505876614
 30
0.0
  0
SPLINE
  5
17D
330
1F
100
AcDbEntity
  8
0
  6
Continuous
 62
     7
370
     0
100
AcDbSpline
210
0.0
220
0.0
230
1.0
 70
     8
 71
     3
 72
    11
 73
     7
 74
     0
 42
0.000000001
 43
0.00000001
 40
0.0
 40
0.0
 40
0.0
 40
0.0
 40
0.2805769813446234
 40
0.5591481367185465
 40
0.7792527684677246
 40
0.9999999999999999
 40
0.9999999999999999
 40
0.9999999999999999
 40
0.9999999999999999
 10
83.01947491653895
 20
155.3893204481198
 30
0.0
 10
83.03362745301699
 20
155.3298376213388
 30
0.0
 10
83.06183135044154
 20
155.2112972065052
 30
0.0
 10
83.1739807418876
 20
155.0744222275633
 30
0.0
 10
83.32149519855626
 20
155.0124429322786
 30
0.0
 10
83.41711183083953
 20
155.0072878665194
 30
0.0
 10
83.46498983391261
 20
155.0047065765454
 30
0.0
  0
LINE
  5
17E
330
1F
100
AcDbEntity
  8
0
  6
Continuous
 62
     7
370
     0
100
AcDbLine
 10
82.634861045
 20
155.3636755497
 30
0.0
 11
83.0194749165
 21
155.3893204481
 31
0.0
  0
SPLINE
  5
17F
330
1F
100
AcDbEntity
  8
0
  6
Continuous
 62
     7
370
     0
100
AcDbSpline
210
0.0
220
0.0
230
1.0
 70
     8
 71
     3
 72
    12
 73
     8
 74
     0
 42
0.000000001
 43
0.00000001
 40
0.0
 40
0.0
 40
0.0
 40
0.0
 40
0.1871398154754686
 40
0.3739541529348132
 40
0.5603575182831768
 40
0.779812782741471
 40
1.0
 40
1.0
 40
1.0
 40
1.0
 10
83.45457019694781
 20
154.6713676006391
 30
0.0
 10
83.37986485223472
 20
154.6743856917494
 30
0.0
 10
83.23058409212007
 20
154.6804166248341
 30
0.0
 10
83.01274734736126
 20
154.7439643881471
 30
0.0
 10
82.8158713091049
 20
154.8834255374402
 30
0.0
 10
82.68059547451075
 20
155.1030896893301
 30
0.0
 10
82.65012276596669
 20
155.2767172397928
 30
0.0
 10
82.63486104496455
 20
155.3636755497052
 30
0.0
  0
SPLINE
  5
180
330
1F
100
AcDbEntity
  8
0
  6
Continuous
 62
     7
370
     0
100
AcDbSpline
210
0.0
220
0.0
230
1.0
 70
     8
 71
     3
 72
    12
 73
     8
 74
     0
 42
0.000000001
 43
0.00000001
 40
0.0
 40
0.0
 40
0.0
 40
0.0
 40
0.1863946753800919
 40
0.372869398928834
 40
0.5592618667791459
 40
0.7793663645276661
 40
1.0
 40
1.0
 40
1.0
 40
1.0
 10
84.2502437759254
 20
155.2847440988614
 30
0.0
 10
84.24258053166248
 20
155.2144034632814
 30
0.0
 10
84.2272507521163
 20
155.0736919839675
 30
0.0
 10
84.11399769829613
 20
154.8881700994497
 30
0.0
 10
83.93391338707272
 20
154.749684566434
 30
0.0
 10
83.70338134989807
 20
154.6806199344299
 30
0.0
 10
83.53757360262681
 20
154.6744541793796
 30
0.0
 10
83.45457019694781
 20
154.6713676006391
 30
0.0
  0
SPLINE
  5
181
330
1F
100
AcDbEntity
  8
0
  6
Continuous
 62
     7
370
     0
100
AcDbSpline
210
0.0
220
0.0
230
1.0
 70
     8
 71
     3
 72
    10
 73
     6
 74
     0
 42
0.000000001
 43
0.00000001
 40
0.0
 40
0.0
 40
0.0
 40
0.0
 40
0.2800417905943465
 40
0.5600662086178338
 40
1.0
 40
1.0
 40
1.0
 40
1.0
 10
80.71178423651195
 20
156.1529453546597
 30
0.0
 10
80.70870022132058
 20
156.1017407710175
 30
0.0
 10
80.7025323822567
 20
155.9993347802419
 30
0.0
 10
80.64077380472186
 20
155.8247725693913
 30
0.0
 10
80.56448706530882
 20
155.7171225242043
 30
0.0
 10
80.51787170060611
 20
155.6513424665524
 30
0.0
  0
SPLINE
  5
182
330
1F
100
AcDbEntity
  8
0
  6
Continuous
 62
     7
370
     0
100
AcDbSpline
210
0.0
220
0.0
230
1.0
 70
     8
 71
     3
 72
    11
 73
     7
 74
     0
 42
0.000000001
 43
0.00000001
 40
0.0
 40
0.0
 40
0.0
 40
0.0
 40
0.2805727152620505
 40
0.5597230927922031
 40
0.7797511523364199
 40
1.0
 40
1.0
 40
1.0
 40
1.0
 10
80.09800168164706
 20
156.6970165521695
 30
0.0
 10
80.18464420460484
 20
156.6914032405609
 30
0.0
 10
80.35749002417052
 20
156.6802050735138
 30
0.0
 10
80.56612859611491
 20
156.5453179389712
 30
0.0
 10
80.69302032213447
 20
156.3566342339995
 30
0.0
 10
80.7055275077034
 20
156.2208643428682
 30
0.0
 10
80.71178423651195
 20
156.1529453546597
 30
0.0
  0
SPLINE
  5
183
330
1F
100
AcDbEntity
  8
0
  6
Continuous
 62
     7
370
     0
100
AcDbSpline
210
0.0
220
0.0
230
1.0
 70
     8
 71
     3
 72
    12
 73
     8
 74
     0
 42
0.000000001
 43
0.00000001
 40
0.0
 40
0.0
 40
0.0
 40
0.0
 40
0.1871387142826257
 40
0.3738909260608133
 40
0.5601638301816568
 40
0.779873016193157
 40
1.0
 40
1.0
 40
1.0
 40
1.0
 10
79.45537420400119
 20
156.0936387331082
 30
0.0
 10
79.46403691824615
 20
156.1544628923432
 30
0.0
 10
79.48134445540468
 20
156.2759855890788
 30
0.0
 10
79.55218570016824
 20
156.4493604414295
 30
0.0
 10
79.6898279227878
 20
156.5923802695714
 30
0.0
 10
79.8806748298122
 20
156.6829154973478
 30
0.0
 10
80.02551353722284
 20
156.6923132249468
 30
0.0
 10
80.09800168164706
 20
156.6970165521695
 30
0.0
  0
LINE
  5
184
330
1F
100
AcDbEntity
  8
0
  6
Continuous
 62
     7
370
     0
100
AcDbLine
 10
79.8399880756
 20
156.0559834988
 30
0.0
 11
79.455374204
 21
156.0936387331
 31
0.0
  0
SPLINE
  5
185
330
1F
100
AcDbEntity
  8
0
  6
Continuous
 62
     7
370
     0
100
AcDbSpline
210
0.0
220
0.0
230
1.0
 70
     8
 71
     3
 72
    12
 73
     8
 74
     0
 42
0.000000001
 43
0.00000001
 40
0.0
 40
0.0
 40
0.0
 40
0.0
 40
0.1868229055384797
 40
0.3732538941431786
 40
0.5594572410810695
 40
0.7795154590591614
 40
0.9999999999999999
 40
0.9999999999999999
 40
0.9999999999999999
 40
0.9999999999999999
 10
80.08998858221507
 20
156.3636775762631
 30
0.0
 10
80.0620332153714
 20
156.3618309279543
 30
0.0
 10
80.00618112642903
 20
156.3581415052341
 30
0.0
 10
79.9308831066982
 20
156.316039570148
 30
0.0
 10
79.876388360481
 20
156.2443634398785
 30
0.0
 10
79.8489190822436
 20
156.1538265809699
 30
0.0
 10
79.84296699778614
 20
156.0886188938108
 30
0.0
 10
79.83998807557559
 20
156.0559834987714
 30
0.0
  0
SPLINE
  5
186
330
1F
100
AcDbEntity
  8
0
  6
Continuous
 62
     7
370
     0
100
AcDbSpline
210
0.0
220
0.0
230
1.0
 70
     8
 71
     3
 72
    11
 73
     7
 74
     0
 42
0.000000001
 43
0.00000001
 40
0.0
 40
0.0
 40
0.0
 40
0.0
 40
0.2806185397904887
 40
0.559490464908322
 40
0.7793811496879204
 40
1.0
 40
1.0
 40
1.0
 40
1.0
 10
80.32716663964725
 20
156.1012532264783
 30
0.0
 10
80.32512589482748
 20
156.138931946697
 30
0.0
 10
80.32105710711006
 20
156.2140548687535
 30
0.0
 10
80.26428027111244
 20
156.3071729613233
 30
0.0
 10
80.17874298629397
 20
156.3579267198918
 30
0.0
 10
80.11960596821802
 20
156.361758512812
 30
0.0
 10
80.08998858221507
 20
156.3636775762631
 30
0.0
  0
SPLINE
  5
187
330
1F
100
AcDbEntity
  8
0
  6
Continuous
 62
     7
370
     0
100
AcDbSpline
210
0.0
220
0.0
230
1.0
 70
     8
 71
     3
 72
     9
 73
     5
 74
     0
 42
0.000000001
 43
0.00000001
 40
0.0
 40
0.0
 40
0.0
 40
0.0
 40
0.5600614595553693
 40
1.0
 40
1.0
 40
1.0
 40
1.0
 10
80.25104778297877
 20
155.8700915128781
 30
0.0
 10
80.27464331047517
 20
155.9103425937168
 30
0.0
 10
80.3167735572433
 20
155.9822116362153
 30
0.0
 10
80.3239912836337
 20
156.0648829356628
 30
0.0
 10
80.32716663964725
 20
156.1012532264783
 30
0.0
  0
SPLINE
  5
188
330
1F
100
AcDbEntity
  8
0
  6
Continuous
 62
     7
370
     0
100
AcDbSpline
210
0.0
220
0.0
230
1.0
 70
     8
 71
     3
 72
     9
 73
     5
 74
     0
 42
0.000000001
 43
0.00000001
 40
0.0
 40
0.0
 40
0.0
 40
0.0
 40
0.5602237847926257
 40
1.0
 40
1.0
 40
1.0
 40
1.0
 10
79.94495558031535
 20
155.5471684486463
 30
0.0
 10
80.00546276601024
 20
155.6043280717834
 30
0.0
 10
80.11346815124627
 20
155.7063580546022
 30
0.0
 10
80.20902441219803
 20
155.8200795180814
 30
0.0
 10
80.25104778297877
 20
155.8700915128781
 30
0.0
  0
SPLINE
  5
189
330
1F
100
AcDbEntity
  8
0
  6
Continuous
 62
     7
370
     0
100
AcDbSpline
210
0.0
220
0.0
230
1.0
 70
     8
 71
     3
 72
    10
 73
     6
 74
     0
 42
0.000000001
 43
0.00000001
 40
0.0
 40
0.0
 40
0.0
 40
0.0
 40
0.2795785826320937
 40
0.5593393597808448
 40
1.0
 40
1.0
 40
1.0
 40
1.0
 10
79.40409185775256
 20
154.6970124990536
 30
0.0
 10
79.42276103005373
 20
154.7921121261473
 30
0.0
 10
79.46011154089855
 20
154.9823733544331
 30
0.0
 10
79.65955381534155
 20
155.2699483005271
 30
0.0
 10
79.8366382364625
 20
155.4419562397816
 30
0.0
 10
79.94495558031535
 20
155.5471684486463
 30
0.0
  0
LINE
  5
18A
330
1F
100
AcDbEntity
  8
0
  6
Continuous
 62
     7
370
     0
100
AcDbLine
 10
80.7117842365
 20
154.6970124991
 30
0.0
 11
79.4040918578
 21
154.6970124991
 31
0.0
  0
LINE
  5
18B
330
1F
100
AcDbEntity
  8
0
  6
Continuous
 62
     7
370
     0
100
AcDbLine
 10
80.7117842365
 20
155.0816263706
 30
0.0
 11
80.7117842365
 21
154.6970124991
 31
0.0
  0
LINE
  5
18C
330
1F
100
AcDbEntity
  8
0
  6
Continuous
 62
     7
370
     0
100
AcDbLine
 10
79.9685962725
 20
155.0816263706
 30
0.0
 11
80.7117842365
 21
155.0816263706
 31
0.0
  0
SPLINE
  5
18D
330
1F
100
AcDbEntity
  8
0
  6
Continuous
 62
     7
370
     0
100
AcDbSpline
210
0.0
220
0.0
230
1.0
 70
     8
 71
     3
 72
    11
 73
     7
 74
     0
 42
0.000000001
 43
0.00000001
 40
0.0
 40
0.0
 40
0.0
 40
0.0
 40
0.2800183039645334
 40
0.5602451174776109
 40
0.780412900702745
 40
0.9999999999999999
 40
0.9999999999999999
 40
0.9999999999999999
 40
0.9999999999999999
 10
80.51787170060611
 20
155.6513424665524
 30
0.0
 10
80.46812336321157
 20
155.5964321274756
 30
0.0
 10
80.36858964440353
 20
155.4865705615306
 30
0.0
 10
80.21429175292909
 20
155.3497303057599
 30
0.0
 10
80.07045748846078
 20
155.223798685141
 30
0.0
 10
80.00252010805451
 20
155.1289754049761
 30
0.0
 10
79.96859627254939
 20
155.081626370628
 30
0.0
  0
LINE
  5
18E
330
1F
100
AcDbEntity
  8
0
  6
Continuous
 62
     7
370
     0
100
AcDbLine
 10
76.3083383668
 20
155.4405953438
 30
0.0
 11
76.0451168049
 21
155.4405953438
 31
0.0
  0
SPLINE
  5
18F
330
1F
100
AcDbEntity
  8
0
  6
Continuous
 62
     7
370
     0
100
AcDbSpline
210
0.0
220
0.0
230
1.0
 70
     8
 71
     3
 72
     9
 73
     5
 74
     0
 42
0.000000001
 43
0.00000001
 40
0.0
 40
0.0
 40
0.0
 40
0.0
 40
0.5598076911672444
 40
1.0
 40
1.0
 40
1.0
 40
1.0
 10
76.7274074483726
 20
155.4694439918591
 30
0.0
 10
76.6495136945982
 20
155.459265025328
 30
0.0
 10
76.51036992254325
 20
155.4410820551906
 30
0.0
 10
76.37008896528742
 20
155.4407441062932
 30
0.0
 10
76.30833836682773
 20
155.4405953437878
 30
0.0
  0
SPLINE
  5
190
330
1F
100
AcDbEntity
  8
0
  6
Continuous
 62
     7
370
     0
100
AcDbSpline
210
0.0
220
0.0
230
1.0
 70
     8
 71
     3
 72
    11
 73
     7
 74
     0
 42
0.000000001
 43
0.00000001
 40
0.0
 40
0.0
 40
0.0
 40
0.0
 40
0.2802818374837632
 40
0.5598667591875564
 40
0.7799138485944207
 40
1.0
 40
1.0
 40
1.0
 40
1.0
 10
77.1733209718082
 20
156.0764129907681
 30
0.0
 10
77.16865889659573
 20
155.9996812520582
 30
0.0
 10
77.1593463383375
 20
155.8464085667353
 30
0.0
 10
77.05088463928409
 20
155.6558484694241
 30
0.0
 10
76.89847134686968
 20
155.527216775794
 30
0.0
 10
76.78443212154706
 20
155.4887027258831
 30
0.0
 10
76.7274074483726
 20
155.4694439918591
 30
0.0
  0
SPLINE
  5
191
330
1F
100
AcDbEntity
  8
0
  6
Continuous
 62
     7
370
     0
100
AcDbSpline
210
0.0
220
0.0
230
1.0
 70
     8
 71
     3
 72
    11
 73
     7
 74
     0
 42
0.000000001
 43
0.00000001
 40
0.0
 40
0.0
 40
0.0
 40
0.0
 40
0.2791455718356219
 40
0.5589183449125907
 40
0.7792701866798751
 40
1.0
 40
1.0
 40
1.0
 40
1.0
 10
76.77468510755038
 20
156.6665585786893
 30
0.0
 10
76.84139225018258
 20
156.6389509806513
 30
0.0
 10
76.97495641711043
 20
156.5836737541458
 30
0.0
 10
77.10319341447604
 20
156.4212429328671
 30
0.0
 10
77.16560460735393
 20
156.2458714412521
 30
0.0
 10
77.17074738134201
 20
156.1329314011107
 30
0.0
 10
77.1733209718082
 20
156.0764129907681
 30
0.0
  0
SPLINE
  5
192
330
1F
100
AcDbEntity
  8
0
  6
Continuous
 62
     7
370
     0
100
AcDbSpline
210
0.0
220
0.0
230
1.0
 70
     8
 71
     3
 72
     9
 73
     5
 74
     0
 42
0.000000001
 43
0.00000001
 40
0.0
 40
0.0
 40
0.0
 40
0.0
 40
0.5603450124447923
 40
0.9999999999999999
 40
0.9999999999999999
 40
0.9999999999999999
 40
0.9999999999999999
 10
76.30032526739573
 20
156.6970165521695
 30
0.0
 10
76.38936098892842
 20
156.6975190755932
 30
0.0
 10
76.54825545493647
 20
156.6984158863305
 30
0.0
 10
76.70553595239677
 20
156.6762874542293
 30
0.0
 10
76.77468510755038
 20
156.6665585786893
 30
0.0
  0
LINE
  5
193
330
1F
100
AcDbEntity
  8
0
  6
Continuous
 62
     7
370
     0
100
AcDbLine
 10
75.6605029333
 20
156.6970165522
 30
0.0
 11
76.3003252674
 21
156.6970165522
 31
0.0
  0
LINE
  5
194
330
1F
100
AcDbEntity
  8
0
  6
Continuous
 62
     7
370
     0
100
AcDbLine
 10
75.6605029333
 20
154.6970124991
 30
0.0
 11
75.6605029333
 21
156.6970165522
 31
0.0
  0
LINE
  5
195
330
1F
100
AcDbEntity
  8
0
  6
Continuous
 62
     7
370
     0
100
AcDbLine
 10
76.0451168049
 20
154.6970124991
 30
0.0
 11
75.6605029333
 21
154.6970124991
 31
0.0
  0
LINE
  5
196
330
1F
100
AcDbEntity
  8
0
  6
Continuous
 62
     7
370
     0
100
AcDbLine
 10
76.0451168049
 20
155.4405953438
 30
0.0
 11
76.0451168049
 21
154.6970124991
 31
0.0
  0
SPLINE
  5
197
330
1F
100
AcDbEntity
  8
0
  6
Continuous
 62
     7
370
     0
100
AcDbSpline
210
0.0
220
0.0
230
1.0
 70
     8
 71
     3
 72
    14
 73
    10
 74
     0
 42
0.000000001
 43
0.00000001
 40
0.0
 40
0.0
 40
0.0
 40
0.0
 40
0.1401601054120759
 40
0.2802310340983301
 40
0.4201659202489214
 40
0.5600478233691137
 40
0.7065609873651658
 40
0.8532102579314227
 40
1.0
 40
1.0
 40
1.0
 40
1.0
 10
82.24669697173572
 20
160.8986522705151
 30
0.0
 10
82.34950878279992
 20
160.8950197240744
 30
0.0
 10
82.55506699101713
 20
160.8877569423968
 30
0.0
 10
82.8569751929542
 20
160.8154503163508
 30
0.0
 10
83.13545460233763
 20
160.6772172555939
 30
0.0
 10
83.36942419505553
 20
160.4634611000123
 30
0.0
 10
83.53400160089834
 20
160.1873137925832
 30
0.0
 10
83.62296815218221
 20
159.8735710806794
 30
0.0
 10
83.63197699506159
 20
159.6582442638562
 30
0.0
 10
83.6364835728023
 20
159.5505293161465
 30
0.0
  0
SPLINE
  5
198
330
1F
100
AcDbEntity
  8
0
  6
Continuous
 62
     7
370
     0
100
AcDbSpline
210
0.0
220
0.0
230
1.0
 70
     8
 71
     3
 72
    14
 73
    10
 74
     0
 42
0.000000001
 43
0.00000001
 40
0.0
 40
0.0
 40
0.0
 40
0.0
 40
0.1401549603410465
 40
0.2802061589165793
 40
0.4201147171501876
 40
0.5599996731205312
 40
0.7065222070728935
 40
0.853201845677836
 40
1.0
 40
1.0
 40
1.0
 40
1.0
 10
80.86557167061305
 20
159.5288928300931
 30
0.0
 10
80.86951042068483
 20
159.6320467997859
 30
0.0
 10
80.87738500482988
 20
159.8382783705721
 30
0.0
 10
80.95690493647058
 20
160.1397459084471
 30
0.0
 10
81.10456591878632
 20
160.4145412595446
 30
0.0
 10
81.32678768251618
 20
160.6416421896593
 30
0.0
 10
81.60730158618921
 20
160.7998956189823
 30
0.0
 10
81.92266411995426
 20
160.8856649775723
 30
0.0
 10
82.13865694620524
 20
160.894322007539
 30
0.0
 10
82.24669697173572
 20
160.8986522705151
 30
0.0
  0
SPLINE
  5
199
330
1F
100
AcDbEntity
  8
0
  6
Continuous
 62
     7
370
     0
100
AcDbSpline
210
0.0
220
0.0
230
1.0
 70
     8
 71
     3
 72
    14
 73
    10
 74
     0
 42
0.000000001
 43
0.00000001
 40
0.0
 40
0.0
 40
0.0
 40
0.0
 40
0.1401845432506692
 40
0.2802669642587382
 40
0.4201118714389822
 40
0.559993804340558
 40
0.7065492154959454
 40
0.8532046919923507
 40
1.0
 40
1.0
 40
1.0
 40
1.0
 10
82.27917032726741
 20
158.1623669416501
 30
0.0
 10
82.17455584219609
 20
158.1656641029502
 30
0.0
 10
81.96540308206612
 20
158.1722560236202
 30
0.0
 10
81.65703879440902
 20
158.2394725098439
 30
0.0
 10
81.37167374333816
 20
158.3783864386624
 30
0.0
 10
81.13922813986309
 20
158.6016677353663
 30
0.0
 10
80.96898915445571
 20
158.8803442555108
 30
0.0
 10
80.87890513722749
 20
159.2002277403244
 30
0.0
 10
80.87001757114862
 20
159.4193030031653
 30
0.0
 10
80.86557167061305
 20
159.5288928300931
 30
0.0
  0
SPLINE
  5
19A
330
1F
100
AcDbEntity
  8
0
  6
Continuous
 62
     7
370
     0
100
AcDbSpline
210
0.0
220
0.0
230
1.0
 70
     8
 71
     3
 72
    14
 73
    10
 74
     0
 42
0.000000001
 43
0.00000001
 40
0.0
 40
0.0
 40
0.0
 40
0.0
 40
0.1401904984645695
 40
0.2802654347350292
 40
0.4201645357406307
 40
0.5600109510926741
 40
0.7065307801589094
 40
0.853175861716108
 40
1.0
 40
1.0
 40
1.0
 40
1.0
 10
83.6364835728023
 20
159.5505293161465
 30
0.0
 10
83.63311433544217
 20
159.4472654449824
 30
0.0
 10
83.62637863806037
 20
159.2408228253952
 30
0.0
 10
83.55709164234544
 20
158.9365775746347
 30
0.0
 10
83.41482916565442
 20
158.6581244872858
 30
0.0
 10
83.19760838602767
 20
158.4258408659694
 30
0.0
 10
82.91957216374621
 20
158.2617349888445
 30
0.0
 10
82.60370135238475
 20
158.1747884114794
 30
0.0
 10
82.38739132862922
 20
158.1665091154309
 30
0.0
 10
82.27917032726741
 20
158.1623669416501
 30
0.0
  0
LINE
  5
19B
330
1F
100
AcDbEntity
  8
0
  6
Continuous
 62
     7
370
     0
100
AcDbLine
 10
76.3905555237
 20
158.1970121414
 30
0.0
 11
76.3905555237
 21
160.2405573876
 31
0.0
  0
LINE
  5
19C
330
1F
100
AcDbEntity
  8
0
  6
Continuous
 62
     7
370
     0
100
AcDbLine
 10
77.2218279768
 20
158.1970121414
 30
0.0
 11
76.3905555237
 21
158.1970121414
 31
0.0
  0
LINE
  5
19D
330
1F
100
AcDbEntity
  8
0
  6
Continuous
 62
     7
370
     0
100
AcDbLine
 10
77.2218279768
 20
160.2405573876
 30
0.0
 11
77.2218279768
 21
158.1970121414
 31
0.0
  0
LINE
  5
19E
330
1F
100
AcDbEntity
  8
0
  6
Continuous
 62
     7
370
     0
100
AcDbLine
 10
78.0531004299
 20
160.2405573876
 30
0.0
 11
77.2218279768
 21
160.2405573876
 31
0.0
  0
LINE
  5
19F
330
1F
100
AcDbEntity
  8
0
  6
Continuous
 62
     7
370
     0
100
AcDbLine
 10
78.0531004299
 20
160.8640070707
 30
0.0
 11
78.0531004299
 21
160.2405573876
 31
0.0
  0
LINE
  5
1A0
330
1F
100
AcDbEntity
  8
0
  6
Continuous
 62
     7
370
     0
100
AcDbLine
 10
75.5592830706
 20
160.8640070707
 30
0.0
 11
78.0531004299
 21
160.8640070707
 31
0.0
  0
LINE
  5
1A1
330
1F
100
AcDbEntity
  8
0
  6
Continuous
 62
     7
370
     0
100
AcDbLine
 10
75.5592830706
 20
160.2405573876
 30
0.0
 11
75.5592830706
 21
160.8640070707
 31
0.0
  0
LINE
  5
1A2
330
1F
100
AcDbEntity
  8
0
  6
Continuous
 62
     7
370
     0
100
AcDbLine
 10
76.3905555237
 20
160.2405573876
 30
0.0
 11
75.5592830706
 21
160.2405573876
 31
0.0
  0
LINE
  5
1A3
330
1F
100
AcDbEntity
  8
0
  6
Continuous
 62
     7
370
     0
100
AcDbLine
 10
123.3553732623
 20
171.2970103771
 30
0.0
 11
70.9553718794
 21
171.2970103771
 31
0.0
  0
ARC
  5
1A4
330
1F
100
AcDbEntity
  8
0
  6
Continuous
 62
     7
370
     0
100
AcDbCircle
 10
123.3553732861
 20
170.997010187
 30
0.0
 40
0.3000000000000114
100
AcDbArc
 50
0.0
 51
90.0
  0
LINE
  5
1A5
330
1F
100
AcDbEntity
  8
0
  6
Continuous
 62
     7
370
     0
100
AcDbLine
 10
123.6553732911
 20
150.6970043928
 30
0.0
 11
123.6553732911
 21
170.9970052988
 31
0.0
  0
LINE
  5
1A6
330
1F
100
AcDbEntity
  8
0
  6
Continuous
 62
     7
370
     0
100
AcDbLine
 10
70.6553742517
 20
150.6970043928
 30
0.0
 11
123.6553732911
 21
150.6970043928
 31
0.0
  0
LINE
  5
1A7
330
1F
100
AcDbEntity
  8
0
  6
Continuous
 62
     7
370
     0
100
AcDbLine
 10
70.6553742517
 20
170.9970052988
 30
0.0
 11
70.6553742517
 21
150.6970043928
 31
0.0
  0
ARC
  5
1A8
330
1F
100
AcDbEntity
  8
0
  6
Continuous
 62
     7
370
     0
100
AcDbCircle
 10
70.9553732861
 20
170.997010187
 30
0.0
 40
0.3000000000000114
100
AcDbArc
 50
90.0
 51
180.0
  0
LINE
  5
1A9
330
1F
100
AcDbEntity
  8
0
  6
Continuous
 62
     7
370
     0
100
AcDbLine
 10
78.9744280506
 20
159.2707302124
 30
0.0
 11
78.9744280506
 21
158.1970121414
 31
0.0
  0
LINE
  5
1AA
330
1F
100
AcDbEntity
  8
0
  6
Continuous
 62
     7
370
     0
100
AcDbLine
 10
79.8749722768
 20
159.2707302124
 30
0.0
 11
78.9744280506
 21
159.2707302124
 31
0.0
  0
LINE
  5
1AB
330
1F
100
AcDbEntity
  8
0
  6
Continuous
 62
     7
370
     0
100
AcDbLine
 10
79.8749722768
 20
158.1970121414
 30
0.0
 11
79.8749722768
 21
159.2707302124
 31
0.0
  0
LINE
  5
1AC
330
1F
100
AcDbEntity
  8
0
  6
Continuous
 62
     7
370
     0
100
AcDbLine
 10
80.7062447298
 20
158.1970121414
 30
0.0
 11
79.8749722768
 21
158.1970121414
 31
0.0
  0
LINE
  5
1AD
330
1F
100
AcDbEntity
  8
0
  6
Continuous
 62
     7
370
     0
100
AcDbLine
 10
80.7062447298
 20
160.8640070707
 30
0.0
 11
80.7062447298
 21
158.1970121414
 31
0.0
  0
LINE
  5
1AE
330
1F
100
AcDbEntity
  8
0
  6
Continuous
 62
     7
370
     0
100
AcDbLine
 10
79.8749722768
 20
160.8640070707
 30
0.0
 11
80.7062447298
 21
160.8640070707
 31
0.0
  0
LINE
  5
1AF
330
1F
100
AcDbEntity
  8
0
  6
Continuous
 62
     7
370
     0
100
AcDbLine
 10
79.8749722768
 20
159.9288250954
 30
0.0
 11
79.8749722768
 21
160.8640070707
 31
0.0
  0
LINE
  5
1B0
330
1F
100
AcDbEntity
  8
0
  6
Continuous
 62
     7
370
     0
100
AcDbLine
 10
78.9744280506
 20
159.9288250954
 30
0.0
 11
79.8749722768
 21
159.9288250954
 31
0.0
  0
LINE
  5
1B1
330
1F
100
AcDbEntity
  8
0
  6
Continuous
 62
     7
370
     0
100
AcDbLine
 10
78.9744280506
 20
160.8640070707
 30
0.0
 11
78.9744280506
 21
159.9288250954
 31
0.0
  0
LINE
  5
1B2
330
1F
100
AcDbEntity
  8
0
  6
Continuous
 62
     7
370
     0
100
AcDbLine
 10
78.1431555975
 20
160.8640070707
 30
0.0
 11
78.9744280506
 21
160.8640070707
 31
0.0
  0
LINE
  5
1B3
330
1F
100
AcDbEntity
  8
0
  6
Continuous
 62
     7
370
     0
100
AcDbLine
 10
78.1431555975
 20
158.1970121414
 30
0.0
 11
78.1431555975
 21
160.8640070707
 31
0.0
  0
LINE
  5
1B4
330
1F
100
AcDbEntity
  8
0
  6
Continuous
 62
     7
370
     0
100
AcDbLine
 10
78.9744280506
 20
158.1970121414
 30
0.0
 11
78.1431555975
 21
158.1970121414
 31
0.0
  0
LINE
  5
1B5
330
1F
100
AcDbEntity
  8
0
  6
Continuous
 62
     7
370
     0
100
AcDbLine
 10
84.70014336
 20
159.2707302124
 30
0.0
 11
84.6270829666
 21
159.2707302124
 31
0.0
  0
SPLINE
  5
1B6
330
1F
100
AcDbEntity
  8
0
  6
Continuous
 62
     7
370
     0
100
AcDbSpline
210
0.0
220
0.0
230
1.0
 70
     8
 71
     3
 72
     9
 73
     5
 74
     0
 42
0.000000001
 43
0.00000001
 40
0.0
 40
0.0
 40
0.0
 40
0.0
 40
0.559546654065117
 40
1.0
 40
1.0
 40
1.0
 40
1.0
 10
84.90254955776668
 20
159.2095758468701
 30
0.0
 10
84.8671994563132
 20
159.2294990842363
 30
0.0
 10
84.80402313098506
 20
159.2651051185525
 30
0.0
 10
84.73190710494515
 20
159.2690102043181
 30
0.0
 10
84.70014335998034
 20
159.2707302124097
 30
0.0
  0
SPLINE
  5
1B7
330
1F
100
AcDbEntity
  8
0
  6
Continuous
 62
     7
370
     0
100
AcDbSpline
210
0.0
220
0.0
230
1.0
 70
     8
 71
     3
 72
     9
 73
     5
 74
     0
 42
0.000000001
 43
0.00000001
 40
0.0
 40
0.0
 40
0.0
 40
0.0
 40
0.5606933541209218
 40
1.0
 40
1.0
 40
1.0
 40
1.0
 10
85.0519187975738
 20
159.0055491478039
 30
0.0
 10
85.029473131787
 20
159.0477902681744
 30
0.0
 10
84.98944115063038
 20
159.1231275627222
 30
0.0
 10
84.92907069857105
 20
159.1831900132051
 30
0.0
 10
84.90254955776668
 20
159.2095758468701
 30
0.0
  0
LINE
  5
1B8
330
1F
100
AcDbEntity
  8
0
  6
Continuous
 62
     7
370
     0
100
AcDbLine
 10
85.4902848829
 20
158.1970121414
 30
0.0
 11
85.0519187976
 21
159.0055491478
 31
0.0
  0
LINE
  5
1B9
330
1F
100
AcDbEntity
  8
0
  6
Continuous
 62
     7
370
     0
100
AcDbLine
 10
86.4281751443
 20
158.1970121414
 30
0.0
 11
85.4902848829
 21
158.1970121414
 31
0.0
  0
LINE
  5
1BA
330
1F
100
AcDbEntity
  8
0
  6
Continuous
 62
     7
370
     0
100
AcDbLine
 10
86.0163256753
 20
158.9573885948
 30
0.0
 11
86.4281751443
 21
158.1970121414
 31
0.0
  0
SPLINE
  5
1BB
330
1F
100
AcDbEntity
  8
0
  6
Continuous
 62
     7
370
     0
100
AcDbSpline
210
0.0
220
0.0
230
1.0
 70
     8
 71
     3
 72
     9
 73
     5
 74
     0
 42
0.000000001
 43
0.00000001
 40
0.0
 40
0.0
 40
0.0
 40
0.0
 40
0.5597644137659398
 40
1.0
 40
1.0
 40
1.0
 40
1.0
 10
85.77116432078815
 20
159.2680331022336
 30
0.0
 10
85.82295933482716
 20
159.2147619019418
 30
0.0
 10
85.91548935775333
 20
159.1195947227113
 30
0.0
 10
85.98550312393186
 20
159.0069700039248
 30
0.0
 10
86.01632567532992
 20
158.9573885948254
 30
0.0
  0
SPLINE
  5
1BC
330
1F
100
AcDbEntity
  8
0
  6
Continuous
 62
     7
370
     0
100
AcDbSpline
210
0.0
220
0.0
230
1.0
 70
     8
 71
     3
 72
     9
 73
     5
 74
     0
 42
0.000000001
 43
0.00000001
 40
0.0
 40
0.0
 40
0.0
 40
0.0
 40
0.5601674119984243
 40
1.0
 40
1.0
 40
1.0
 40
1.0
 10
85.55847632177806
 20
159.368154004295
 30
0.0
 10
85.60024149234535
 20
159.3537174188046
 30
0.0
 10
85.67479986484743
 20
159.3279455063707
 30
0.0
 10
85.74172740680177
 20
159.2863348325768
 30
0.0
 10
85.77116432078815
 20
159.2680331022336
 30
0.0
  0
SPLINE
  5
1BD
330
1F
100
AcDbEntity
  8
0
  6
Continuous
 62
     7
370
     0
100
AcDbSpline
210
0.0
220
0.0
230
1.0
 70
     8
 71
     3
 72
     9
 73
     5
 74
     0
 42
0.000000001
 43
0.00000001
 40
0.0
 40
0.0
 40
0.0
 40
0.0
 40
0.5596336146370321
 40
1.0
 40
1.0
 40
1.0
 40
1.0
 10
85.85559057482219
 20
159.4742204696728
 30
0.0
 10
85.80217021715946
 20
159.4486625822921
 30
0.0
 10
85.70671426836448
 20
159.4029936183266
 30
0.0
 10
85.60379743547195
 20
159.3788055961778
 30
0.0
 10
85.55847632177806
 20
159.368154004295
 30
0.0
  0
SPLINE
  5
1BE
330
1F
100
AcDbEntity
  8
0
  6
Continuous
 62
     7
370
     0
100
AcDbSpline
210
0.0
220
0.0
230
1.0
 70
     8
 71
     3
 72
    11
 73
     7
 74
     0
 42
0.000000001
 43
0.00000001
 40
0.0
 40
0.0
 40
0.0
 40
0.0
 40
0.2800181445501244
 40
0.5596043141208559
 40
0.7797792821320306
 40
1.0
 40
1.0
 40
1.0
 40
1.0
 10
86.22035609968638
 20
160.120409324844
 30
0.0
 10
86.21600592945357
 20
160.0474365901873
 30
0.0
 10
86.20731229985557
 20
159.9016036935629
 30
0.0
 10
86.11953105777269
 20
159.714510390965
 30
0.0
 10
85.99841202016829
 20
159.5699574038455
 30
0.0
 10
85.90320102022235
 20
159.5061349910962
 30
0.0
 10
85.85559057482219
 20
159.4742204696728
 30
0.0
  0
SPLINE
  5
1BF
330
1F
100
AcDbEntity
  8
0
  6
Continuous
 62
     7
370
     0
100
AcDbSpline
210
0.0
220
0.0
230
1.0
 70
     8
 71
     3
 72
    14
 73
    10
 74
     0
 42
0.000000001
 43
0.00000001
 40
0.0
 40
0.0
 40
0.0
 40
0.0
 40
0.1403277277923499
 40
0.280610627984658
 40
0.4207534817218537
 40
0.5604872009421502
 40
0.7069071156873771
 40
0.8533399372830361
 40
1.0
 40
1.0
 40
1.0
 40
1.0
 10
85.17964037545657
 20
160.8640070707394
 30
0.0
 10
85.24819248364334
 20
160.8630787335875
 30
0.0
 10
85.38527480109117
 20
160.8612223558403
 30
0.0
 10
85.58991543926528
 20
160.8417225248258
 30
0.0
 10
85.79226743837732
 20
160.8003857151606
 30
0.0
 10
85.97888855465672
 20
160.6989952171321
 30
0.0
 10
86.12044229411457
 20
160.5371636069825
 30
0.0
 10
86.20789094345862
 20
160.3361300880713
 30
0.0
 10
86.21619890049877
 20
160.1923534036227
 30
0.0
 10
86.22035609968638
 20
160.120409324844
 30
0.0
  0
LINE
  5
1C0
330
1F
100
AcDbEntity
  8
0
  6
Continuous
 62
     7
370
     0
100
AcDbLine
 10
83.7958105136
 20
160.8640070707
 30
0.0
 11
85.1796403755
 21
160.8640070707
 31
0.0
  0
LINE
  5
1C1
330
1F
100
AcDbEntity
  8
0
  6
Continuous
 62
     7
370
     0
100
AcDbLine
 10
83.7958105136
 20
158.1970121414
 30
0.0
 11
83.7958105136
 21
160.8640070707
 31
0.0
  0
LINE
  5
1C2
330
1F
100
AcDbEntity
  8
0
  6
Continuous
 62
     7
370
     0
100
AcDbLine
 10
84.6270829666
 20
158.1970121414
 30
0.0
 11
83.7958105136
 21
158.1970121414
 31
0.0
  0
LINE
  5
1C3
330
1F
100
AcDbEntity
  8
0
  6
Continuous
 62
     7
370
     0
100
AcDbLine
 10
84.6270829666
 20
159.2707302124
 30
0.0
 11
84.6270829666
 21
158.1970121414
 31
0.0
  0
LINE
  5
1C4
330
1F
100
AcDbEntity
  8
0
  6
Continuous
 62
     7
370
     0
100
AcDbLine
 10
78.2117828954
 20
155.6260998995
 30
0.0
 11
77.891270094
 21
155.2999730856
 31
0.0
  0
LINE
  5
1C5
330
1F
100
AcDbEntity
  8
0
  6
Continuous
 62
     7
370
     0
100
AcDbLine
 10
78.7762873102
 20
154.6970124991
 30
0.0
 11
78.2117828954
 21
155.6260998995
 31
0.0
  0
LINE
  5
1C6
330
1F
100
AcDbEntity
  8
0
  6
Continuous
 62
     7
370
     0
100
AcDbLine
 10
79.2887084413
 20
154.6970124991
 30
0.0
 11
78.7762873102
 21
154.6970124991
 31
0.0
  0
LINE
  5
1C7
330
1F
100
AcDbEntity
  8
0
  6
Continuous
 62
     7
370
     0
100
AcDbLine
 10
78.503450774
 20
155.9237803967
 30
0.0
 11
79.2887084413
 21
154.6970124991
 31
0.0
  0
LINE
  5
1C8
330
1F
100
AcDbEntity
  8
0
  6
Continuous
 62
     7
370
     0
100
AcDbLine
 10
79.2630672682
 20
156.6970165522
 30
0.0
 11
78.503450774
 21
155.9237803967
 31
0.0
  0
LINE
  5
1C9
330
1F
100
AcDbEntity
  8
0
  6
Continuous
 62
     7
370
     0
100
AcDbLine
 10
78.7346199382
 20
156.6970165522
 30
0.0
 11
79.2630672682
 21
156.6970165522
 31
0.0
  0
LINE
  5
1CA
330
1F
100
AcDbEntity
  8
0
  6
Continuous
 62
     7
370
     0
100
AcDbLine
 10
77.891270094
 20
155.8015759737
 30
0.0
 11
78.7346199382
 21
156.6970165522
 31
0.0
  0
LINE
  5
1CB
330
1F
100
AcDbEntity
  8
0
  6
Continuous
 62
     7
370
     0
100
AcDbLine
 10
77.891270094
 20
156.6970165522
 30
0.0
 11
77.891270094
 21
155.8015759737
 31
0.0
  0
LINE
  5
1CC
330
1F
100
AcDbEntity
  8
0
  6
Continuous
 62
     7
370
     0
100
AcDbLine
 10
77.5066562224
 20
156.6970165522
 30
0.0
 11
77.891270094
 21
156.6970165522
 31
0.0
  0
LINE
  5
1CD
330
1F
100
AcDbEntity
  8
0
  6
Continuous
 62
     7
370
     0
100
AcDbLine
 10
77.5066562224
 20
154.6970124991
 30
0.0
 11
77.5066562224
 21
156.6970165522
 31
0.0
  0
LINE
  5
1CE
330
1F
100
AcDbEntity
  8
0
  6
Continuous
 62
     7
370
     0
100
AcDbLine
 10
77.891270094
 20
154.6970124991
 30
0.0
 11
77.5066562224
 21
154.6970124991
 31
0.0
  0
LINE
  5
1CF
330
1F
100
AcDbEntity
  8
0
  6
Continuous
 62
     7
370
     0
100
AcDbLine
 10
77.891270094
 20
155.2999730856
 30
0.0
 11
77.891270094
 21
154.6970124991
 31
0.0
  0
LINE
  5
1D0
330
1F
100
AcDbEntity
  8
0
  6
Continuous
 62
     7
370
     0
100
AcDbLine
 10
82.2758846212
 20
155.5431600363
 30
0.0
 11
81.4297333587
 21
155.5431600363
 31
0.0
  0
LINE
  5
1D1
330
1F
100
AcDbEntity
  8
0
  6
Continuous
 62
     7
370
     0
100
AcDbLine
 10
82.2758846212
 20
155.8764990122
 30
0.0
 11
82.2758846212
 21
155.5431600363
 31
0.0
  0
LINE
  5
1D2
330
1F
100
AcDbEntity
  8
0
  6
Continuous
 62
     7
370
     0
100
AcDbLine
 10
81.4297333587
 20
155.8764990122
 30
0.0
 11
82.2758846212
 21
155.8764990122
 31
0.0
  0
LINE
  5
1D3
330
1F
100
AcDbEntity
  8
0
  6
Continuous
 62
     7
370
     0
100
AcDbLine
 10
81.4297333587
 20
156.3636775763
 30
0.0
 11
81.4297333587
 21
155.8764990122
 31
0.0
  0
LINE
  5
1D4
330
1F
100
AcDbEntity
  8
0
  6
Continuous
 62
     7
370
     0
100
AcDbLine
 10
82.4040904868
 20
156.3636775763
 30
0.0
 11
81.4297333587
 21
156.3636775763
 31
0.0
  0
LINE
  5
1D5
330
1F
100
AcDbEntity
  8
0
  6
Continuous
 62
     7
370
     0
100
AcDbLine
 10
82.4040904868
 20
156.6970165522
 30
0.0
 11
82.4040904868
 21
156.3636775763
 31
0.0
  0
LINE
  5
1D6
330
1F
100
AcDbEntity
  8
0
  6
Continuous
 62
     7
370
     0
100
AcDbLine
 10
81.0451157618
 20
156.6970165522
 30
0.0
 11
82.4040904868
 21
156.6970165522
 31
0.0
  0
LINE
  5
1D7
330
1F
100
AcDbEntity
  8
0
  6
Continuous
 62
     7
370
     0
100
AcDbLine
 10
81.0451157618
 20
154.6970124991
 30
0.0
 11
81.0451157618
 21
156.6970165522
 31
0.0
  0
LINE
  5
1D8
330
1F
100
AcDbEntity
  8
0
  6
Continuous
 62
     7
370
     0
100
AcDbLine
 10
81.4297333587
 20
154.6970124991
 30
0.0
 11
81.0451157618
 21
154.6970124991
 31
0.0
  0
LINE
  5
1D9
330
1F
100
AcDbEntity
  8
0
  6
Continuous
 62
     7
370
     0
100
AcDbLine
 10
81.4297333587
 20
155.5431600363
 30
0.0
 11
81.4297333587
 21
154.6970124991
 31
0.0
  0
LINE
  5
1DA
330
1F
100
AcDbEntity
  8
0
  6
Continuous
 62
     7
370
     0
100
AcDbLine
 10
85.8143478859
 20
155.5431600363
 30
0.0
 11
84.9681928981
 21
155.5431600363
 31
0.0
  0
LINE
  5
1DB
330
1F
100
AcDbEntity
  8
0
  6
Continuous
 62
     7
370
     0
100
AcDbLine
 10
85.8143478859
 20
155.8764990122
 30
0.0
 11
85.8143478859
 21
155.5431600363
 31
0.0
  0
LINE
  5
1DC
330
1F
100
AcDbEntity
  8
0
  6
Continuous
 62
     7
370
     0
100
AcDbLine
 10
84.9681928981
 20
155.8764990122
 30
0.0
 11
85.8143478859
 21
155.8764990122
 31
0.0
  0
LINE
  5
1DD
330
1F
100
AcDbEntity
  8
0
  6
Continuous
 62
     7
370
     0
100
AcDbLine
 10
84.9681928981
 20
156.3636775763
 30
0.0
 11
84.9681928981
 21
155.8764990122
 31
0.0
  0
LINE
  5
1DE
330
1F
100
AcDbEntity
  8
0
  6
Continuous
 62
     7
370
     0
100
AcDbLine
 10
85.9425537515
 20
156.3636775763
 30
0.0
 11
84.9681928981
 21
156.3636775763
 31
0.0
  0
LINE
  5
1DF
330
1F
100
AcDbEntity
  8
0
  6
Continuous
 62
     7
370
     0
100
AcDbLine
 10
85.9425537515
 20
156.6970165522
 30
0.0
 11
85.9425537515
 21
156.3636775763
 31
0.0
  0
LINE
  5
1E0
330
1F
100
AcDbEntity
  8
0
  6
Continuous
 62
     7
370
     0
100
AcDbLine
 10
84.5835790265
 20
156.6970165522
 30
0.0
 11
85.9425537515
 21
156.6970165522
 31
0.0
  0
LINE
  5
1E1
330
1F
100
AcDbEntity
  8
0
  6
Continuous
 62
     7
370
     0
100
AcDbLine
 10
84.5835790265
 20
154.6970124991
 30
0.0
 11
84.5835790265
 21
156.6970165522
 31
0.0
  0
LINE
  5
1E2
330
1F
100
AcDbEntity
  8
0
  6
Continuous
 62
     7
370
     0
100
AcDbLine
 10
84.9681928981
 20
154.6970124991
 30
0.0
 11
84.5835790265
 21
154.6970124991
 31
0.0
  0
LINE
  5
1E3
330
1F
100
AcDbEntity
  8
0
  6
Continuous
 62
     7
370
     0
100
AcDbLine
 10
84.9681928981
 20
155.5431600363
 30
0.0
 11
84.9681928981
 21
154.6970124991
 31
0.0
  0
LINE
  5
1E4
330
1F
100
AcDbEntity
  8
0
  6
Continuous
 62
     7
370
     0
100
AcDbLine
 10
88.2059097517
 20
158.3093519957
 30
0.0
 11
88.2059097517
 21
158.6343612225
 31
0.0
  0
LINE
  5
1E5
330
1F
100
AcDbEntity
  8
0
  6
Continuous
 62
     7
370
     0
100
AcDbLine
 10
88.2059097517
 20
158.6343612225
 30
0.0
 11
86.9774542976
 21
158.6343612225
 31
0.0
  0
LINE
  5
1E6
330
1F
100
AcDbEntity
  8
0
  6
Continuous
 62
     7
370
     0
100
AcDbLine
 10
86.9774542976
 20
158.6343612225
 30
0.0
 11
86.9774542976
 21
160.9401520044
 31
0.0
  0
LINE
  5
1E7
330
1F
100
AcDbEntity
  8
0
  6
Continuous
 62
     7
370
     0
100
AcDbLine
 10
86.9774542976
 20
160.9401520044
 30
0.0
 11
86.5183569718
 21
160.9401520044
 31
0.0
  0
LINE
  5
1E8
330
1F
100
AcDbEntity
  8
0
  6
Continuous
 62
     7
370
     0
100
AcDbLine
 10
86.5183569718
 20
160.9401520044
 30
0.0
 11
86.5183569718
 21
158.273142174
 31
0.0
  0
LINE
  5
1E9
330
1F
100
AcDbEntity
  8
0
  6
Continuous
 62
     7
370
     0
100
AcDbLine
 10
86.5183569718
 20
158.273142174
 30
0.0
 11
88.1956093241
 21
158.273142174
 31
0.0
  0
LINE
  5
1EA
330
1F
100
AcDbEntity
  8
0
  6
Continuous
 62
     7
370
     0
100
AcDbLine
 10
88.1956093241
 20
158.273142174
 30
0.0
 11
88.6592850316
 21
158.273142174
 31
0.0
  0
LINE
  5
1EB
330
1F
100
AcDbEntity
  8
0
  6
Continuous
 62
     7
370
     0
100
AcDbLine
 10
88.6592850316
 20
158.273142174
 30
0.0
 11
88.8716601063
 21
159.0768512041
 31
0.0
  0
LINE
  5
1EC
330
1F
100
AcDbEntity
  8
0
  6
Continuous
 62
     7
370
     0
100
AcDbLine
 10
88.8716601063
 20
159.0768512041
 30
0.0
 11
89.4475341071
 21
159.0768512041
 31
0.0
  0
LINE
  5
1ED
330
1F
100
AcDbEntity
  8
0
  6
Continuous
 62
     7
370
     0
100
AcDbLine
 10
89.4475341071
 20
159.0768512041
 30
0.0
 11
89.6599091817
 21
158.273142174
 31
0.0
  0
LINE
  5
1EE
330
1F
100
AcDbEntity
  8
0
  6
Continuous
 62
     7
370
     0
100
AcDbLine
 10
89.6599091817
 20
158.273142174
 30
0.0
 11
90.1258759428
 21
158.273142174
 31
0.0
  0
LINE
  5
1EF
330
1F
100
AcDbEntity
  8
0
  6
Continuous
 62
     7
370
     0
100
AcDbLine
 10
90.1258759428
 20
158.273142174
 30
0.0
 11
89.3559441198
 21
160.9704907686
 31
0.0
  0
LINE
  5
1F0
330
1F
100
AcDbEntity
  8
0
  6
Continuous
 62
     7
370
     0
100
AcDbLine
 10
89.3559441198
 20
160.9704907686
 30
0.0
 11
88.9632500935
 21
160.9704907686
 31
0.0
  0
LINE
  5
1F1
330
1F
100
AcDbEntity
  8
0
  6
Continuous
 62
     7
370
     0
100
AcDbLine
 10
88.9632500935
 20
160.9704907686
 30
0.0
 11
88.2059097517
 21
158.3093519957
 31
0.0
  0
SPLINE
  5
1F2
330
1F
100
AcDbEntity
  8
0
  6
Continuous
 62
     7
370
     0
100
AcDbSpline
210
0.0
220
0.0
230
1.0
 70
     8
 71
     3
 72
    12
 73
     8
 74
     0
 42
0.000000001
 43
0.00000001
 40
0.0
 40
0.0
 40
0.0
 40
0.0
 40
0.1861675899792584
 40
0.373211724309085
 40
0.5597433254242667
 40
0.7796029590991801
 40
1.0
 40
1.0
 40
1.0
 40
1.0
 10
91.39326068051791
 20
159.664180472572
 30
0.0
 10
91.43805430928217
 20
159.6787705139269
 30
0.0
 10
91.52785247141678
 20
159.7080192918287
 30
0.0
 10
91.63613489903258
 20
159.8010734540673
 30
0.0
 10
91.73142068645907
 20
159.9170602669701
 30
0.0
 10
91.78088169417315
 20
160.0704018876723
 30
0.0
 10
91.78540676723863
 20
160.1807839397508
 30
0.0
 10
91.78767206557727
 20
160.2360423357083
 30
0.0
  0
SPLINE
  5
1F3
330
1F
100
AcDbEntity
  8
0
  6
Continuous
 62
     7
370
     0
100
AcDbSpline
210
0.0
220
0.0
230
1.0
 70
     8
 71
     3
 72
    12
 73
     8
 74
     0
 42
0.000000001
 43
0.00000001
 40
0.0
 40
0.0
 40
0.0
 40
0.0
 40
0.1865611081471634
 40
0.3731843890054509
 40
0.5597597493181362
 40
0.7795349117841205
 40
1.0
 40
1.0
 40
1.0
 40
1.0
 10
91.78767206557727
 20
160.2360423357083
 30
0.0
 10
91.7806922341332
 20
160.3125060584728
 30
0.0
 10
91.76673024517055
 20
160.4654589860382
 30
0.0
 10
91.64745295029847
 20
160.6664252795947
 30
0.0
 10
91.47185264426204
 20
160.8372147174153
 30
0.0
 10
91.22489964007075
 20
160.9275514446372
 30
0.0
 10
91.04567039001567
 20
160.9359474318946
 30
0.0
 10
90.95591532476878
 20
160.94015200444
 30
0.0
  0
LINE
  5
1F4
330
1F
100
AcDbEntity
  8
0
  6
Continuous
 62
     7
370
     0
100
AcDbLine
 10
90.9559153248
 20
160.9401520044
 30
0.0
 11
90.1304580499
 21
160.9401520044
 31
0.0
  0
LINE
  5
1F5
330
1F
100
AcDbEntity
  8
0
  6
Continuous
 62
     7
370
     0
100
AcDbLine
 10
90.1304580499
 20
160.9401520044
 30
0.0
 11
90.1304580499
 21
158.273142174
 31
0.0
  0
LINE
  5
1F6
330
1F
100
AcDbEntity
  8
0
  6
Continuous
 62
     7
370
     0
100
AcDbLine
 10
90.1304580499
 20
158.273142174
 30
0.0
 11
90.9255765606
 21
158.273142174
 31
0.0
  0
SPLINE
  5
1F7
330
1F
100
AcDbEntity
  8
0
  6
Continuous
 62
     7
370
     0
100
AcDbSpline
210
0.0
220
0.0
230
1.0
 70
     8
 71
     3
 72
    13
 73
     9
 74
     0
 42
0.000000001
 43
0.00000001
 40
0.0
 40
0.0
 40
0.0
 40
0.0
 40
0.1869795017958393
 40
0.3737207554753612
 40
0.5600326267076785
 40
0.7063913490057115
 40
0.8530900324788481
 40
1.0
 40
1.0
 40
1.0
 40
1.0
 10
90.92557656057811
 20
158.2731421739651
 30
0.0
 10
91.0140518496335
 20
158.2765026578838
 30
0.0
 10
91.19088969308216
 20
158.2832193438132
 30
0.0
 10
91.44632598757256
 20
158.357998372446
 30
0.0
 10
91.66468414084021
 20
158.4822115059202
 30
0.0
 10
91.79711144974803
 20
158.6727278708292
 30
0.0
 10
91.85489022939463
 20
158.8750597337767
 30
0.0
 10
91.86045016193577
 20
159.0137562389445
 30
0.0
 10
91.86323212870097
 20
159.0831543953015
 30
0.0
  0
SPLINE
  5
1F8
330
1F
100
AcDbEntity
  8
0
  6
Continuous
 62
     7
370
     0
100
AcDbSpline
210
0.0
220
0.0
230
1.0
 70
     8
 71
     3
 72
    11
 73
     7
 74
     0
 42
0.000000001
 43
0.00000001
 40
0.0
 40
0.0
 40
0.0
 40
0.0
 40
0.2799280426989957
 40
0.5591756936373112
 40
0.7799483465286523
 40
1.0
 40
1.0
 40
1.0
 40
1.0
 10
91.86323212870097
 20
159.0831543953015
 30
0.0
 10
91.85708563616622
 20
159.1595877645843
 30
0.0
 10
91.84480759073209
 20
159.3122687245684
 30
0.0
 10
91.71641978476067
 20
159.4875722973387
 30
0.0
 10
91.56607556387948
 20
159.6146010866016
 30
0.0
 10
91.45080279604247
 20
159.6476720405455
 30
0.0
 10
91.39326068051791
 20
159.664180472572
 30
0.0
  0
SPLINE
  5
1F9
330
1F
100
AcDbEntity
  8
0
  6
Continuous
 62
     7
370
     0
100
AcDbSpline
210
0.0
220
0.0
230
1.0
 70
     8
 71
     3
 72
    12
 73
     8
 74
     0
 42
0.000000001
 43
0.00000001
 40
0.0
 40
0.0
 40
0.0
 40
0.0
 40
0.2507146494374061
 40
0.5013045391122416
 40
0.6264905672199527
 40
0.7514918248565875
 40
1.0
 40
1.0
 40
1.0
 40
1.0
 10
92.90221373029685
 20
159.8301794082715
 30
0.0
 10
92.8487997011221
 20
159.8518163139842
 30
0.0
 10
92.74199822247829
 20
159.8950793585267
 30
0.0
 10
92.61306143195301
 20
159.9596375265053
 30
0.0
 10
92.51770387910781
 20
160.0255305882371
 30
0.0
 10
92.44881318555868
 20
160.1212320638346
 30
0.0
 10
92.43920381850444
 20
160.2083912269167
 30
0.0
 10
92.4328103888843
 20
160.266381099899
 30
0.0
  0
SPLINE
  5
1FA
330
1F
100
AcDbEntity
  8
0
  6
Continuous
 62
     7
370
     0
100
AcDbSpline
210
0.0
220
0.0
230
1.0
 70
     8
 71
     3
 72
    11
 73
     7
 74
     0
 42
0.000000001
 43
0.00000001
 40
0.0
 40
0.0
 40
0.0
 40
0.0
 40
0.2805537036807697
 40
0.5589700159764753
 40
0.7792525791134597
 40
1.0
 40
1.0
 40
1.0
 40
1.0
 10
92.4328103888843
 20
160.266381099899
 30
0.0
 10
92.43584473375883
 20
160.315375281601
 30
0.0
 10
92.4418903064272
 20
160.4129903840555
 30
0.0
 10
92.52505843220813
 20
160.528802470715
 30
0.0
 10
92.6393094730272
 20
160.585956066011
 30
0.0
 10
92.7157102493072
 20
160.5911963248597
 30
0.0
 10
92.75395090170836
 20
160.5938192159726
 30
0.0
  0
SPLINE
  5
1FB
330
1F
100
AcDbEntity
  8
0
  6
Continuous
 62
     7
370
     0
100
AcDbSpline
210
0.0
220
0.0
230
1.0
 70
     8
 71
     3
 72
    12
 73
     8
 74
     0
 42
0.000000001
 43
0.00000001
 40
0.0
 40
0.0
 40
0.0
 40
0.0
 40
0.1867205129766594
 40
0.3729856316754406
 40
0.5596428028108614
 40
0.7795368372133646
 40
1.0
 40
1.0
 40
1.0
 40
1.0
 10
92.75395090170836
 20
160.5938192159726
 30
0.0
 10
92.7943129938274
 20
160.5910382891699
 30
0.0
 10
92.87493873860909
 20
160.585483217991
 30
0.0
 10
92.98524385944214
 20
160.5276225071314
 30
0.0
 10
93.06747842418314
 20
160.4271808426867
 30
0.0
 10
93.11502376348012
 20
160.2971773593153
 30
0.0
 10
93.11282614746256
 20
160.2018936736054
 30
0.0
 10
93.1117259193275
 20
160.1541902572705
 30
0.0
  0
LINE
  5
1FC
330
1F
100
AcDbEntity
  8
0
  6
Continuous
 62
     7
370
     0
100
AcDbLine
 10
93.1117259193
 20
160.1541902573
 30
0.0
 11
93.5708232451
 21
160.1541902573
 31
0.0
  0
SPLINE
  5
1FD
330
1F
100
AcDbEntity
  8
0
  6
Continuous
 62
     7
370
     0
100
AcDbSpline
210
0.0
220
0.0
230
1.0
 70
     8
 71
     3
 72
    13
 73
     9
 74
     0
 42
0.000000001
 43
0.00000001
 40
0.0
 40
0.0
 40
0.0
 40
0.0
 40
0.1866772788532691
 40
0.3733344892806695
 40
0.5596775718755357
 40
0.7062192516782761
 40
0.8530420195922266
 40
0.9999999999999999
 40
0.9999999999999999
 40
0.9999999999999999
 40
0.9999999999999999
 10
93.57082324512935
 20
160.1541902572705
 30
0.0
 10
93.56520841755591
 20
160.2357932350162
 30
0.0
 10
93.55397936602157
 20
160.3989904179171
 30
0.0
 10
93.4552749512002
 20
160.6251634041558
 30
0.0
 10
93.31879162495137
 20
160.8113306036668
 30
0.0
 10
93.1334354645957
 20
160.9165434128582
 30
0.0
 10
92.94590237187515
 20
160.9632347864791
 30
0.0
 10
92.81795435444177
 20
160.9680713659021
 30
0.0
 10
92.75395090170836
 20
160.9704907686307
 30
0.0
  0
SPLINE
  5
1FE
330
1F
100
AcDbEntity
  8
0
  6
Continuous
 62
     7
370
     0
100
AcDbSpline
210
0.0
220
0.0
230
1.0
 70
     8
 71
     3
 72
    12
 73
     8
 74
     0
 42
0.000000001
 43
0.00000001
 40
0.0
 40
0.0
 40
0.0
 40
0.0
 40
0.186952935322186
 40
0.3737915148772853
 40
0.560676177319223
 40
0.780118090542927
 40
1.0
 40
1.0
 40
1.0
 40
1.0
 10
92.75395090170836
 20
160.9704907686307
 30
0.0
 10
92.6786477384899
 20
160.9654103403711
 30
0.0
 10
92.52808747365118
 20
160.9552525914589
 30
0.0
 10
92.31870582024415
 20
160.8611041526563
 30
0.0
 10
92.13334082720519
 20
160.7091993854932
 30
0.0
 10
91.99537981292688
 20
160.487869709804
 30
0.0
 10
91.98132246912104
 20
160.3101199609869
 30
0.0
 10
91.97428675778842
 20
160.2211560756757
 30
0.0
  0
SPLINE
  5
1FF
330
1F
100
AcDbEntity
  8
0
  6
Continuous
 62
     7
370
     0
100
AcDbSpline
210
0.0
220
0.0
230
1.0
 70
     8
 71
     3
 72
    12
 73
     8
 74
     0
 42
0.000000001
 43
0.00000001
 40
0.0
 40
0.0
 40
0.0
 40
0.0
 40
0.1863554986937971
 40
0.3726236738748229
 40
0.5592777349817786
 40
0.7795595534578812
 40
1.0
 40
1.0
 40
1.0
 40
1.0
 10
91.97428675778842
 20
160.2211560756757
 30
0.0
 10
91.97990539712818
 20
160.1541618463472
 30
0.0
 10
91.99114004299395
 20
160.0202047802248
 30
0.0
 10
92.09365026153803
 20
159.8415654719115
 30
0.0
 10
92.25120377607661
 20
159.6975632359556
 30
0.0
 10
92.44532766237921
 20
159.5827076196981
 30
0.0
 10
92.59152508418109
 20
159.5240691541894
 30
0.0
 10
92.66465010531878
 20
159.4947393686368
 30
0.0
  0
SPLINE
  5
200
330
1F
100
AcDbEntity
  8
0
  6
Continuous
 62
     7
370
     0
100
AcDbSpline
210
0.0
220
0.0
230
1.0
 70
     8
 71
     3
 72
    11
 73
     7
 74
     0
 42
0.000000001
 43
0.00000001
 40
0.0
 40
0.0
 40
0.0
 40
0.0
 40
0.28090136137631
 40
0.5615419835115686
 40
0.7815825745220191
 40
1.0
 40
1.0
 40
1.0
 40
1.0
 10
92.66465010531878
 20
159.4947393686368
 30
0.0
 10
92.72934830681588
 20
159.4665227641145
 30
0.0
 10
92.85868465541992
 20
159.4101157463849
 30
0.0
 10
93.02273866683076
 20
159.3043163533557
 30
0.0
 10
93.15682384512502
 20
159.1731592516831
 30
0.0
 10
93.17754120670553
 20
159.062643779568
 30
0.0
 10
93.18786153980231
 20
159.0075906068875
 30
0.0
  0
SPLINE
  5
201
330
1F
100
AcDbEntity
  8
0
  6
Continuous
 62
     7
370
     0
100
AcDbSpline
210
0.0
220
0.0
230
1.0
 70
     8
 71
     3
 72
    11
 73
     7
 74
     0
 42
0.000000001
 43
0.00000001
 40
0.0
 40
0.0
 40
0.0
 40
0.0
 40
0.2799077829063322
 40
0.5590897364850539
 40
0.7790576286897544
 40
1.0
 40
1.0
 40
1.0
 40
1.0
 10
93.18786153980231
 20
159.0075906068875
 30
0.0
 10
93.18117562604033
 20
158.94481302847
 30
0.0
 10
93.16782113577024
 20
158.8194206602758
 30
0.0
 10
93.05458218894046
 20
158.6730084531251
 30
0.0
 10
92.90172322418135
 20
158.6109469290859
 30
0.0
 10
92.80328086675388
 20
158.6063340136278
 30
0.0
 10
92.75395090170836
 20
158.6040224582745
 30
0.0
  0
SPLINE
  5
202
330
1F
100
AcDbEntity
  8
0
  6
Continuous
 62
     7
370
     0
100
AcDbSpline
210
0.0
220
0.0
230
1.0
 70
     8
 71
     3
 72
    11
 73
     7
 74
     0
 42
0.000000001
 43
0.00000001
 40
0.0
 40
0.0
 40
0.0
 40
0.0
 40
0.2793347959214019
 40
0.5587470823766423
 40
0.7790242422825894
 40
1.0
 40
1.0
 40
1.0
 40
1.0
 10
92.75395090170836
 20
158.6040224582745
 30
0.0
 10
92.69363030287649
 20
158.6131334722036
 30
0.0
 10
92.57297237161751
 20
158.6313580275566
 30
0.0
 10
92.43754142523709
 20
158.7471842310384
 30
0.0
 10
92.37855998829235
 20
158.8948539174427
 30
0.0
 10
92.37427749646648
 20
158.9901872421805
 30
0.0
 10
92.37213286050296
 20
159.0379293710782
 30
0.0
  0
LINE
  5
203
330
1F
100
AcDbEntity
  8
0
  6
Continuous
 62
     7
370
     0
100
AcDbLine
 10
92.3721328605
 20
159.0379293711
 30
0.0
 11
92.3721328605
 21
159.1655727179
 31
0.0
  0
LINE
  5
204
330
1F
100
AcDbEntity
  8
0
  6
Continuous
 62
     7
370
     0
100
AcDbLine
 10
92.3721328605
 20
159.1655727179
 30
0.0
 11
91.9136092294
 21
159.1655727179
 31
0.0
  0
LINE
  5
205
330
1F
100
AcDbEntity
  8
0
  6
Continuous
 62
     7
370
     0
100
AcDbLine
 10
91.9136092294
 20
159.1655727179
 30
0.0
 11
91.9136092294
 21
159.0224619658
 31
0.0
  0
SPLINE
  5
206
330
1F
100
AcDbEntity
  8
0
  6
Continuous
 62
     7
370
     0
100
AcDbSpline
210
0.0
220
0.0
230
1.0
 70
     8
 71
     3
 72
    12
 73
     8
 74
     0
 42
0.000000001
 43
0.00000001
 40
0.0
 40
0.0
 40
0.0
 40
0.0
 40
0.1868111138843588
 40
0.3734075475317367
 40
0.5600757315242678
 40
0.7797031100265267
 40
1.0
 40
1.0
 40
1.0
 40
1.0
 10
91.91360922940707
 20
159.022461965759
 30
0.0
 10
91.91920686954502
 20
158.941966999847
 30
0.0
 10
91.93039571710564
 20
158.7810695715042
 30
0.0
 10
92.03989629434705
 20
158.5607933292049
 30
0.0
 10
92.21831903541404
 20
158.3748874510624
 30
0.0
 10
92.46990791433136
 20
158.2589177514293
 30
0.0
 10
92.65917389261507
 20
158.2481803040243
 30
0.0
 10
92.75395090170836
 20
158.2428034097745
 30
0.0
  0
SPLINE
  5
207
330
1F
100
AcDbEntity
  8
0
  6
Continuous
 62
     7
370
     0
100
AcDbSpline
210
0.0
220
0.0
230
1.0
 70
     8
 71
     3
 72
    12
 73
     8
 74
     0
 42
0.000000001
 43
0.00000001
 40
0.0
 40
0.0
 40
0.0
 40
0.0
 40
0.1871777607041504
 40
0.3740227587595618
 40
0.5606675928372834
 40
0.7801284675580791
 40
1.0
 40
1.0
 40
1.0
 40
1.0
 10
92.75395090170836
 20
158.2428034097745
 30
0.0
 10
92.83791414030814
 20
158.2465087527798
 30
0.0
 10
93.00569134854773
 20
158.2539128514707
 30
0.0
 10
93.24827084494304
 20
158.3343136238505
 30
0.0
 10
93.4644492780759
 20
158.4946747599952
 30
0.0
 10
93.62252182729226
 20
158.7400621974483
 30
0.0
 10
93.63842576772629
 20
158.9385784600848
 30
0.0
 10
93.6463851708982
 20
159.0379293710782
 30
0.0
  0
SPLINE
  5
208
330
1F
100
AcDbEntity
  8
0
  6
Continuous
 62
     7
370
     0
100
AcDbSpline
210
0.0
220
0.0
230
1.0
 70
     8
 71
     3
 72
    12
 73
     8
 74
     0
 42
0.000000001
 43
0.00000001
 40
0.0
 40
0.0
 40
0.0
 40
0.0
 40
0.1861595189131174
 40
0.3725050714062018
 40
0.5592887395704137
 40
0.7795859523978845
 40
1.0
 40
1.0
 40
1.0
 40
1.0
 10
93.6463851708982
 20
159.0379293710782
 30
0.0
 10
93.63903827523397
 20
159.109912007447
 30
0.0
 10
93.6243371419801
 20
159.253949214124
 30
0.0
 10
93.5050127067738
 20
159.4401989367439
 30
0.0
 10
93.33846848305666
 20
159.5963829008791
 30
0.0
 10
93.13469141601954
 20
159.7279023261746
 30
0.0
 10
92.97971998677319
 20
159.7960810227339
 30
0.0
 10
92.90221373029685
 20
159.8301794082715
 30
0.0
  0
LINE
  5
209
330
1F
100
AcDbEntity
  8
0
  6
Continuous
 62
     7
370
     0
100
AcDbLine
 10
70.9553718794
 20
171.2970103771
 30
0.0
 11
70.9553718794
 21
171.4970137627
 31
0.0
  0
LINE
  5
20A
330
1F
100
AcDbEntity
  8
0
  6
Continuous
 62
     7
370
     0
100
AcDbLine
 10
70.9553718794
 20
171.4970137627
 30
0.0
 11
123.3553732623
 21
171.4970137627
 31
0.0
  0
LINE
  5
20B
330
1F
100
AcDbEntity
  8
0
  6
Continuous
 62
     7
370
     0
100
AcDbLine
 10
123.3553732623
 20
171.2970103771
 30
0.0
 11
123.3553732623
 21
171.4970137627
 31
0.0
  0
LINE
  5
20C
330
1F
100
AcDbEntity
  8
0
  6
Continuous
 62
     7
370
     0
100
AcDbLine
 10
70.6553742517
 20
170.9970052988
 30
0.0
 11
70.4553745914
 21
170.9970052988
 31
0.0
  0
ARC
  5
20D
330
1F
100
AcDbEntity
  8
0
  6
Continuous
 62
     7
370
     0
100
AcDbCircle
 10
70.9553732861
 20
170.997010187
 30
0.0
 40
0.5
100
AcDbArc
 50
90.0
 51
180.0
  0
LINE
  5
20E
330
1F
100
AcDbEntity
  8
0
  6
Continuous
 62
     7
370
     0
100
AcDbLine
 10
70.6553742517
 20
150.6970043928
 30
0.0
 11
70.4553745914
 21
150.6970043928
 31
0.0
  0
LINE
  5
20F
330
1F
100
AcDbEntity
  8
0
  6
Continuous
 62
     7
370
     0
100
AcDbLine
 10
70.4553745914
 20
150.6970043928
 30
0.0
 11
70.4553745914
 21
170.9970052988
 31
0.0
  0
LINE
  5
210
330
1F
100
AcDbEntity
  8
0
  6
Continuous
 62
     7
370
     0
100
AcDbLine
 10
123.6553732911
 20
149.6970172674
 30
0.0
 11
123.6553732911
 21
150.6970043928
 31
0.0
  0
LINE
  5
211
330
1F
100
AcDbEntity
  8
0
  6
Continuous
 62
     7
370
     0
100
AcDbLine
 10
70.6553742517
 20
149.6970172674
 30
0.0
 11
123.6553732911
 21
149.6970172674
 31
0.0
  0
LINE
  5
212
330
1F
100
AcDbEntity
  8
0
  6
Continuous
 62
     7
370
     0
100
AcDbLine
 10
70.6553742517
 20
150.6970043928
 30
0.0
 11
70.6553742517
 21
149.6970172674
 31
0.0
  0
LINE
  5
213
330
1F
100
AcDbEntity
  8
0
  6
Continuous
 62
     7
370
     0
100
AcDbLine
 10
70.6553742517
 20
149.6970172674
 30
0.0
 11
70.4553745914
 21
149.8970057518
 31
0.0
  0
LINE
  5
214
330
1F
100
AcDbEntity
  8
0
  6
Continuous
 62
     7
370
     0
100
AcDbLine
 10
70.4553745914
 20
149.8970057518
 30
0.0
 11
70.4553745914
 21
150.6970043928
 31
0.0
  0
ARC
  5
215
330
1F
100
AcDbEntity
  8
0
  6
Continuous
 62
     7
370
     0
100
AcDbCircle
 10
123.3553732861
 20
170.997010187
 30
0.0
 40
0.5
100
AcDbArc
 50
0.0
 51
90.0
  0
LINE
  5
216
330
1F
100
AcDbEntity
  8
0
  6
Continuous
 62
     7
370
     0
100
AcDbLine
 10
123.6553732911
 20
170.9970052988
 30
0.0
 11
123.8553732861
 21
170.9970052988
 31
0.0
  0
LINE
  5
217
330
1F
100
AcDbEntity
  8
0
  6
Continuous
 62
     7
370
     0
100
AcDbLine
 10
123.8553732861
 20
170.9970052988
 30
0.0
 11
123.8553732861
 21
150.6970043928
 31
0.0
  0
LINE
  5
218
330
1F
100
AcDbEntity
  8
0
  6
Continuous
 62
     7
370
     0
100
AcDbLine
 10
123.6553732911
 20
150.6970043928
 30
0.0
 11
123.8553732861
 21
150.6970043928
 31
0.0
  0
LINE
  5
219
330
1F
100
AcDbEntity
  8
0
  6
Continuous
 62
     7
370
     0
100
AcDbLine
 10
88.9575243224
 20
159.4386364967
 30
0.0
 11
89.3633872498
 21
159.4386364967
 31
0.0
  0
LINE
  5
21A
330
1F
100
AcDbEntity
  8
0
  6
Continuous
 62
     7
370
     0
100
AcDbLine
 10
89.3633872498
 20
159.4386364967
 30
0.0
 11
89.1594611336
 21
160.1787324698
 31
0.0
  0
LINE
  5
21B
330
1F
100
AcDbEntity
  8
0
  6
Continuous
 62
     7
370
     0
100
AcDbLine
 10
89.1594611336
 20
160.1787324698
 30
0.0
 11
88.9575243224
 21
159.4386364967
 31
0.0
  0
SPLINE
  5
21C
330
1F
100
AcDbEntity
  8
0
  6
Continuous
 62
     7
370
     0
100
AcDbSpline
210
0.0
220
0.0
230
1.0
 70
     8
 71
     3
 72
    12
 73
     8
 74
     0
 42
0.000000001
 43
0.00000001
 40
0.0
 40
0.0
 40
0.0
 40
0.0
 40
0.2485398128209489
 40
0.3738931560443435
 40
0.4988849683683677
 40
0.749127546366816
 40
1.0
 40
1.0
 40
1.0
 40
1.0
 10
85.3890836466167
 20
160.0533093959882
 30
0.0
 10
85.38415279865998
 20
160.0988271519891
 30
0.0
 10
85.37673503213159
 20
160.1673022073698
 30
0.0
 10
85.31772237298736
 20
160.23788303221
 30
0.0
 10
85.24066354139765
 20
160.2855354974153
 30
0.0
 10
85.12812621210625
 20
160.3063050504863
 30
0.0
 10
85.03875477257499
 20
160.3086559558002
 30
0.0
 10
84.99401288517451
 20
160.3098328859402
 30
0.0
  0
SPLINE
  5
21D
330
1F
100
AcDbEntity
  8
0
  6
Continuous
 62
     7
370
     0
100
AcDbSpline
210
0.0
220
0.0
230
1.0
 70
     8
 71
     3
 72
    11
 73
     7
 74
     0
 42
0.000000001
 43
0.00000001
 40
0.0
 40
0.0
 40
0.0
 40
0.0
 40
0.2797155411713797
 40
0.5592701645131385
 40
0.7796220353407219
 40
1.0
 40
1.0
 40
1.0
 40
1.0
 10
85.20074787028766
 20
159.82491929837
 30
0.0
 10
85.22977384257068
 20
159.8335703443401
 30
0.0
 10
85.28780908875646
 20
159.8508674594114
 30
0.0
 10
85.34749732716908
 20
159.9129554742316
 30
0.0
 10
85.38365122984116
 20
159.982304312934
 30
0.0
 10
85.3872727695526
 20
160.0296401007832
 30
0.0
 10
85.3890836466167
 20
160.0533093959882
 30
0.0
  0
SPLINE
  5
21E
330
1F
100
AcDbEntity
  8
0
  6
Continuous
 62
     7
370
     0
100
AcDbSpline
210
0.0
220
0.0
230
1.0
 70
     8
 71
     3
 72
     9
 73
     5
 74
     0
 42
0.000000001
 43
0.00000001
 40
0.0
 40
0.0
 40
0.0
 40
0.0
 40
0.5598094936018652
 40
1.0
 40
1.0
 40
1.0
 40
1.0
 10
84.97939857133365
 20
159.7902889997555
 30
0.0
 10
85.02104277561025
 20
159.7946385248405
 30
0.0
 10
85.09543273282348
 20
159.8024081770787
 30
0.0
 10
85.16855857068752
 20
159.8180388323228
 30
0.0
 10
85.20074787028766
 20
159.82491929837
 30
0.0
  0
LINE
  5
21F
330
1F
100
AcDbEntity
  8
0
  6
Continuous
 62
     7
370
     0
100
AcDbLine
 10
84.6270829666
 20
159.7902889998
 30
0.0
 11
84.9793985713
 21
159.7902889998
 31
0.0
  0
LINE
  5
220
330
1F
100
AcDbEntity
  8
0
  6
Continuous
 62
     7
370
     0
100
AcDbLine
 10
84.6270829666
 20
160.3098328859
 30
0.0
 11
84.6270829666
 21
159.7902889998
 31
0.0
  0
LINE
  5
221
330
1F
100
AcDbEntity
  8
0
  6
Continuous
 62
     7
370
     0
100
AcDbLine
 10
84.9940128852
 20
160.3098328859
 30
0.0
 11
84.6270829666
 21
160.3098328859
 31
0.0
  0
SPLINE
  5
222
330
1F
100
AcDbEntity
  8
0
  6
Continuous
 62
     7
370
     0
100
AcDbSpline
210
0.0
220
0.0
230
1.0
 70
     8
 71
     3
 72
    13
 73
     9
 74
     0
 42
0.000000001
 43
0.00000001
 40
0.0
 40
0.0
 40
0.0
 40
0.0
 40
0.1251666790417108
 40
0.2501741238243235
 40
0.3750833100084793
 40
0.4999353023208944
 40
0.7495258993918533
 40
1.0
 40
1.0
 40
1.0
 40
1.0
 10
82.25210981853938
 20
158.7858315260007
 30
0.0
 10
82.2977365583833
 20
158.7881324847036
 30
0.0
 10
82.38893199274972
 20
158.7927314748811
 30
0.0
 10
82.52047250043024
 20
158.8363762832373
 30
0.0
 10
82.63351993768592
 20
158.9163548746259
 30
0.0
 10
82.74380850992054
 20
159.0645993560071
 30
0.0
 10
82.79672267525308
 20
159.2922536413047
 30
0.0
 10
82.80237830748969
 20
159.4737182868089
 30
0.0
 10
82.80521111973262
 20
159.5646109134747
 30
0.0
  0
SPLINE
  5
223
330
1F
100
AcDbEntity
  8
0
  6
Continuous
 62
     7
370
     0
100
AcDbSpline
210
0.0
220
0.0
230
1.0
 70
     8
 71
     3
 72
    12
 73
     8
 74
     0
 42
0.000000001
 43
0.00000001
 40
0.0
 40
0.0
 40
0.0
 40
0.0
 40
0.1874480103176405
 40
0.3747769642410813
 40
0.5613907021915314
 40
0.7803388359443275
 40
1.0
 40
1.0
 40
1.0
 40
1.0
 10
81.69684784897304
 20
159.5288928300931
 30
0.0
 10
81.69860032474283
 20
159.4631267045525
 30
0.0
 10
81.70210416320873
 20
159.3316362244014
 30
0.0
 10
81.73964662717044
 20
159.1368557023392
 30
0.0
 10
81.83339166267206
 20
158.9470391216809
 30
0.0
 10
82.01872764695696
 20
158.8067442049626
 30
0.0
 10
82.17423149579882
 20
158.7928099697718
 30
0.0
 10
82.25210981853938
 20
158.7858315260007
 30
0.0
  0
SPLINE
  5
224
330
1F
100
AcDbEntity
  8
0
  6
Continuous
 62
     7
370
     0
100
AcDbSpline
210
0.0
220
0.0
230
1.0
 70
     8
 71
     3
 72
    12
 73
     8
 74
     0
 42
0.000000001
 43
0.00000001
 40
0.0
 40
0.0
 40
0.0
 40
0.0
 40
0.1865757727830294
 40
0.372804961325189
 40
0.559032173315997
 40
0.7792943385076185
 40
1.0
 40
1.0
 40
1.0
 40
1.0
 10
82.24453257807231
 20
160.2751876861645
 30
0.0
 10
82.17882803967713
 20
160.2698513314497
 30
0.0
 10
82.04754101601952
 20
160.2591885348637
 30
0.0
 10
81.87514518174292
 20
160.1514304192268
 30
0.0
 10
81.75524438022529
 20
159.9768751138431
 30
0.0
 10
81.70412246958907
 20
159.7599352857672
 30
0.0
 10
81.69927434781856
 20
159.6059586018424
 30
0.0
 10
81.69684784897304
 20
159.5288928300931
 30
0.0
  0
SPLINE
  5
225
330
1F
100
AcDbEntity
  8
0
  6
Continuous
 62
     7
370
     0
100
AcDbSpline
210
0.0
220
0.0
230
1.0
 70
     8
 71
     3
 72
    12
 73
     8
 74
     0
 42
0.000000001
 43
0.00000001
 40
0.0
 40
0.0
 40
0.0
 40
0.0
 40
0.1874158758431398
 40
0.3746214190946394
 40
0.5611325820529223
 40
0.7802199582015321
 40
1.0
 40
1.0
 40
1.0
 40
1.0
 10
82.80521111973262
 20
159.5646109134747
 30
0.0
 10
82.803390803786
 20
159.6287490148715
 30
0.0
 10
82.79975221479212
 20
159.7569532369268
 30
0.0
 10
82.75724601778397
 20
159.9460692949588
 30
0.0
 10
82.65640314337409
 20
160.1262718151156
 30
0.0
 10
82.47194426906825
 20
160.2559782312533
 30
0.0
 10
82.32041619412976
 20
160.2687778006623
 30
0.0
 10
82.24453257807231
 20
160.2751876861645
 30
0.0
  0
SPLINE
  5
226
330
1F
100
AcDbEntity
  8
0
  6
Continuous
 62
     7
370
     0
100
AcDbSpline
210
0.0
220
0.0
230
1.0
 70
     8
 71
     3
 72
    11
 73
     7
 74
     0
 42
0.000000001
 43
0.00000001
 40
0.0
 40
0.0
 40
0.0
 40
0.0
 40
0.2804294065484449
 40
0.5581353588264659
 40
0.7788519506240054
 40
0.9999999999999999
 40
0.9999999999999999
 40
0.9999999999999999
 40
0.9999999999999999
 10
91.32857473977542
 20
160.2360423357083
 30
0.0
 10
91.32546686177574
 20
160.2893410210158
 30
0.0
 10
91.31928128864384
 20
160.3954207692678
 30
0.0
 10
91.22049173497236
 20
160.5153255987532
 30
0.0
 10
91.09491377923084
 20
160.5707927143311
 30
0.0
 10
91.01219675569179
 20
160.5762177763077
 30
0.0
 10
90.97079785951114
 20
160.5789329559399
 30
0.0
  0
LINE
  5
227
330
1F
100
AcDbEntity
  8
0
  6
Continuous
 62
     7
370
     0
100
AcDbLine
 10
90.9707978595
 20
160.5789329559
 30
0.0
 11
90.588981681
 21
160.5789329559
 31
0.0
  0
LINE
  5
228
330
1F
100
AcDbEntity
  8
0
  6
Continuous
 62
     7
370
     0
100
AcDbLine
 10
90.588981681
 20
160.5789329559
 30
0.0
 11
90.588981681
 21
159.8479266913
 31
0.0
  0
LINE
  5
229
330
1F
100
AcDbEntity
  8
0
  6
Continuous
 62
     7
370
     0
100
AcDbLine
 10
90.588981681
 20
159.8479266913
 30
0.0
 11
90.9559153248
 21
159.8479266913
 31
0.0
  0
SPLINE
  5
22A
330
1F
100
AcDbEntity
  8
0
  6
Continuous
 62
     7
370
     0
100
AcDbSpline
210
0.0
220
0.0
230
1.0
 70
     8
 71
     3
 72
    11
 73
     7
 74
     0
 42
0.000000001
 43
0.00000001
 40
0.0
 40
0.0
 40
0.0
 40
0.0
 40
0.2802396411016042
 40
0.5591348591547259
 40
0.7790745776692595
 40
1.0
 40
1.0
 40
1.0
 40
1.0
 10
90.95591532476878
 20
159.8479266912533
 30
0.0
 10
91.01301604045128
 20
159.8536208855502
 30
0.0
 10
91.12694353655877
 20
159.8649819567878
 30
0.0
 10
91.26521693433314
 20
159.9616964331509
 30
0.0
 10
91.32267788965767
 20
160.1014581272732
 30
0.0
 10
91.32660619538211
 20
160.1911141140895
 30
0.0
 10
91.32857473977542
 20
160.2360423357083
 30
0.0
  0
SPLINE
  5
22B
330
1F
100
AcDbEntity
  8
0
  6
Continuous
 62
     7
370
     0
100
AcDbSpline
210
0.0
220
0.0
230
1.0
 70
     8
 71
     3
 72
    12
 73
     8
 74
     0
 42
0.000000001
 43
0.00000001
 40
0.0
 40
0.0
 40
0.0
 40
0.0
 40
0.1868731985148863
 40
0.3729809623471002
 40
0.5592150913656274
 40
0.7795523554398811
 40
1.0
 40
1.0
 40
1.0
 40
1.0
 10
91.38925226815677
 20
159.0831543953015
 30
0.0
 10
91.38689805223909
 20
159.1273935507795
 30
0.0
 10
91.38219926329813
 20
159.2156906576668
 30
0.0
 10
91.3235978653324
 20
159.340375464109
 30
0.0
 10
91.20690860634353
 20
159.4238242589021
 30
0.0
 10
91.0667043143067
 20
159.4768700062656
 30
0.0
 10
90.9623237051174
 20
159.4834378164655
 30
0.0
 10
90.91012033112979
 20
159.4867225439145
 30
0.0
  0
LINE
  5
22C
330
1F
100
AcDbEntity
  8
0
  6
Continuous
 62
     7
370
     0
100
AcDbLine
 10
90.9101203311
 20
159.4867225439
 30
0.0
 11
90.588981681
 21
159.4867225439
 31
0.0
  0
LINE
  5
22D
330
1F
100
AcDbEntity
  8
0
  6
Continuous
 62
     7
370
     0
100
AcDbLine
 10
90.588981681
 20
159.4867225439
 30
0.0
 11
90.588981681
 21
158.6343612225
 31
0.0
  0
LINE
  5
22E
330
1F
100
AcDbEntity
  8
0
  6
Continuous
 62
     7
370
     0
100
AcDbLine
 10
90.588981681
 20
158.6343612225
 30
0.0
 11
90.8648990322
 21
158.6343612225
 31
0.0
  0
SPLINE
  5
22F
330
1F
100
AcDbEntity
  8
0
  6
Continuous
 62
     7
370
     0
100
AcDbSpline
210
0.0
220
0.0
230
1.0
 70
     8
 71
     3
 72
    12
 73
     8
 74
     0
 42
0.000000001
 43
0.00000001
 40
0.0
 40
0.0
 40
0.0
 40
0.0
 40
0.1874477721975672
 40
0.374620878302716
 40
0.5609235152175378
 40
0.7794581113928978
 40
1.0
 40
1.0
 40
1.0
 40
1.0
 10
90.86489903219676
 20
158.6343612224652
 30
0.0
 10
90.91477671063353
 20
158.6359501534961
 30
0.0
 10
91.01445898204506
 20
158.6391256873067
 30
0.0
 10
91.16053251841568
 20
158.6717831603304
 30
0.0
 10
91.30390171179435
 20
158.749346076356
 30
0.0
 10
91.38213149338266
 20
158.9075723097841
 30
0.0
 10
91.3868714534609
 20
159.024448928159
 30
0.0
 10
91.38925226815677
 20
159.0831543953015
 30
0.0
  0
LINE
  5
230
330
1F
100
AcDbEntity
  8
0
  6
Continuous
 62
     7
370
     0
100
AcDbLine
 10
123.8553732861
 20
150.6970043928
 30
0.0
 11
123.8553732861
 21
149.8970057518
 31
0.0
  0
LINE
  5
231
330
1F
100
AcDbEntity
  8
0
  6
Continuous
 62
     7
370
     0
100
AcDbLine
 10
123.6553732911
 20
149.6970172674
 30
0.0
 11
123.8553732861
 21
149.8970057518
 31
0.0
  0
DIMENSION
  5
232
330
1F
100
AcDbEntity
  8
0
  6
Continuous
 62
     7
370
     0
100
AcDbDimension
  2
_D_4
 10
95.9786810131
 20
170.509526168
 30
0.0
 11
133.8554763637
 21
186.8311654508
 31
0.0
 70
   163
  1
<>
 71
     1
 42
-1.0
  3
SLDDIMSTYLE4
100
AcDbDiametricDimension
 15
98.3320655591
 25
172.6422608395
 35
0.0
 40
0.0
  0
DIMENSION
  5
243
330
1F
100
AcDbEntity
  8
0
  6
Continuous
 62
     7
370
     0
100
AcDbDimension
  2
_D_5
 10
123.8553732861
 20
139.5780694894
 30
0.0
 11
96.129865723
 21
139.5780694894
 31
0.0
 70
   160
  1
<>
 71
     2
 42
-1.0
  3
SLDDIMSTYLE5
100
AcDbAlignedDimension
 13
70.4553732861
 23
150.697010187
 33
0.0
 14
123.8553732861
 24
150.697010187
 34
0.0
100
AcDbRotatedDimension
  0
DIMENSION
  5
258
330
1F
100
AcDbEntity
  8
0
  6
Continuous
 62
     7
370
     0
100
AcDbDimension
  2
_D_6
 10
133.8554763637
 20
149.697010187
 30
0.0
 11
133.8554763637
 21
161.4786785823
 31
0.0
 70
   160
  1
<>
 71
     2
 42
-1.0
  3
SLDDIMSTYLE5
100
AcDbAlignedDimension
 13
123.8253732861
 23
171.994410187
 33
0.0
 14
123.6553732861
 24
149.697010187
 34
0.0
 50
90.0
100
AcDbRotatedDimension
  0
ARC
  5
26C
330
1F
100
AcDbEntity
  8
0
  6
Continuous
 62
     7
370
     0
100
AcDbCircle
 10
218.3640343643
 20
73.1744540095
 30
0.0
 40
1.588000000000024
100
AcDbArc
 50
285.2807845462
 51
74.7192154538
  0
SPLINE
  5
26D
330
1F
100
AcDbEntity
  8
0
  6
Continuous
 62
     7
370
     0
100
AcDbSpline
210
0.0
220
0.0
230
1.0
 70
    24
 71
     3
 72
    12
 73
     8
 74
     0
 42
0.000000001
 43
0.00000001
 40
0.0
 40
0.0
 40
0.0
 40
0.0
 40
0.2270234291245038
 40
0.4473520594031306
 40
0.6715028268018355
 40
0.8407347428363947
 40
1.0
 40
1.0
 40
1.0
 40
1.0
 10
211.3338523332605
 20
77.0109971963324
 30
0.0
 10
211.3338523332605
 20
76.9939933170216
 30
0.0
 10
211.3338523332606
 20
76.96048699365727
 30
0.0
 10
211.3338523332605
 20
76.83906799772053
 30
0.0
 10
211.3338523332606
 20
76.67483173785635
 30
0.0
 10
211.3338523332605
 20
76.47854534304005
 30
0.0
 10
211.3338523332605
 20
76.32745674474609
 30
0.0
 10
211.3338523332605
 20
76.25420447219986
 30
0.0
  0
SPLINE
  5
26E
330
1F
100
AcDbEntity
  8
0
  6
Continuous
 62
     7
370
     0
100
AcDbSpline
210
0.0
220
0.0
230
1.0
 70
    24
 71
     3
 72
    12
 73
     8
 74
     0
 42
0.000000001
 43
0.00000001
 40
0.0
 40
0.0
 40
0.0
 40
0.0
 40
0.0988428408721411
 40
0.3238673194672285
 40
0.5492238023570372
 40
0.7753249319620661
 40
1.0
 40
1.0
 40
1.0
 40
1.0
 10
212.0338492815027
 20
76.25420447219986
 30
0.0
 10
212.0338492815027
 20
76.30335768970097
 30
0.0
 10
212.0338492815027
 20
76.46441255877205
 30
0.0
 10
212.0338492815027
 20
76.65740646129643
 30
0.0
 10
212.0338492815027
 20
76.840954931039
 30
0.0
 10
212.0338492815027
 20
76.9595113983583
 30
0.0
 10
212.0338492815027
 20
76.99387149718791
 30
0.0
 10
212.0338492815027
 20
77.0109971963324
 30
0.0
  0
SPLINE
  5
26F
330
1F
100
AcDbEntity
  8
0
  6
Continuous
 62
     7
370
     0
100
AcDbSpline
210
0.0
220
0.0
230
1.0
 70
    24
 71
     3
 72
    12
 73
     8
 74
     0
 42
0.000000001
 43
0.00000001
 40
0.0
 40
0.0
 40
0.0
 40
0.0
 40
0.2246750515041382
 40
0.4507761644704279
 40
0.6761326307762957
 40
0.9011568454068623
 40
1.0
 40
1.0
 40
1.0
 40
1.0
 10
212.0338492815027
 20
69.33791246046204
 30
0.0
 10
212.0338492815027
 20
69.35503820662787
 30
0.0
 10
212.0338492815027
 20
69.38939839979861
 30
0.0
 10
212.0338492815028
 20
69.50795415689797
 30
0.0
 10
212.0338492815027
 20
69.69150525197237
 30
0.0
 10
212.0338492815027
 20
69.88449099234533
 30
0.0
 10
212.0338492815027
 20
70.04555042564856
 30
0.0
 10
212.0338492815027
 20
70.09470518459457
 30
0.0
  0
SPLINE
  5
270
330
1F
100
AcDbEntity
  8
0
  6
Continuous
 62
     7
370
     0
100
AcDbSpline
210
0.0
220
0.0
230
1.0
 70
    24
 71
     3
 72
    12
 73
     8
 74
     0
 42
0.000000001
 43
0.00000001
 40
0.0
 40
0.0
 40
0.0
 40
0.0
 40
0.1592655207720526
 40
0.328497407281186
 40
0.5526481355729242
 40
0.7729766104836482
 40
1.0
 40
1.0
 40
1.0
 40
1.0
 10
211.3338523332605
 20
70.09470518459457
 30
0.0
 10
211.3338523332605
 20
70.02145135822924
 30
0.0
 10
211.3338523332605
 20
69.87035969747436
 30
0.0
 10
211.3338523332606
 20
69.67407481223947
 30
0.0
 10
211.3338523332605
 20
69.50983651167306
 30
0.0
 10
211.3338523332606
 20
69.3884239649483
 30
0.0
 10
211.3338523332606
 20
69.35491678096608
 30
0.0
 10
211.3338523332605
 20
69.33791246046204
 30
0.0
  0
LINE
  5
271
330
1F
100
AcDbEntity
  8
0
  6
Continuous
 62
     7
370
     0
100
AcDbLine
 10
211.3338523333
 20
77.674452772
 30
0.0
 11
211.3338523333
 21
77.0108630859
 31
0.0
  0
LINE
  5
272
330
1F
100
AcDbEntity
  8
0
  6
Continuous
 62
     7
370
     0
100
AcDbLine
 10
212.0338492815
 20
77.0108630859
 30
0.0
 11
212.0338492815
 21
77.674452772
 31
0.0
  0
LINE
  5
273
330
1F
100
AcDbEntity
  8
0
  6
Continuous
 62
     7
370
     0
100
AcDbLine
 10
212.0338492815
 20
68.6744531595
 30
0.0
 11
212.0338492815
 21
69.3379124605
 31
0.0
  0
LINE
  5
274
330
1F
100
AcDbEntity
  8
0
  6
Continuous
 62
     7
370
     0
100
AcDbLine
 10
211.3338523333
 20
69.3379124605
 30
0.0
 11
211.3338523333
 21
68.6744531595
 31
0.0
  0
LINE
  5
275
330
1F
100
AcDbEntity
  8
0
  6
Continuous
 62
     7
370
     0
100
AcDbLine
 10
218.7825553839
 20
70.0947051846
 30
0.0
 11
218.7825553839
 21
76.2542044722
 31
0.0
  0
LINE
  5
276
330
1F
100
AcDbEntity
  8
0
  6
Continuous
 62
     7
370
     0
100
AcDbLine
 10
218.7825553839
 20
70.0947051846
 30
0.0
 11
201.4851533596
 21
70.0947051846
 31
0.0
  0
LINE
  5
277
330
1F
100
AcDbEntity
  8
0
  6
Continuous
 62
     7
370
     0
100
AcDbLine
 10
201.4851533596
 20
70.0947051846
 30
0.0
 11
201.4851533596
 21
76.2542044722
 31
0.0
  0
LINE
  5
278
330
1F
100
AcDbEntity
  8
0
  6
Continuous
 62
     7
370
     0
100
AcDbLine
 10
218.7825553839
 20
76.2542044722
 30
0.0
 11
201.4851533596
 21
76.2542044722
 31
0.0
  0
CIRCLE
  5
279
330
1F
100
AcDbEntity
  8
0
  6
Continuous
 62
     7
370
     0
100
AcDbCircle
 10
210.1338510476
 20
73.1744540095
 30
0.0
 40
1.727200000000011
  0
CIRCLE
  5
27A
330
1F
100
AcDbEntity
  8
0
  6
Continuous
 62
     7
370
     0
100
AcDbCircle
 10
210.1338510476
 20
73.1744540095
 30
0.0
 40
1.700000000000002
  0
ARC
  5
27B
330
1F
100
AcDbEntity
  8
0
  6
Continuous
 62
     7
370
     0
100
AcDbCircle
 10
211.6838508074
 20
77.0109228862
 30
0.0
 40
0.3499984820096914
100
AcDbArc
 50
0.0121647854
 51
179.9878352146
  0
ELLIPSE
  5
27C
330
1F
100
AcDbEntity
  8
0
  6
Continuous
 62
     7
370
     0
100
AcDbEllipse
 10
211.6838510476
 20
69.3379120152
 30
0.0
 11
0.3499999999999943
 21
0.0
 31
0.0
210
0.0
220
0.0
230
1.0
 40
0.9997148104
 41
3.141592653589793
 42
6.283185307179586
  0
LINE
  5
27D
330
1F
100
AcDbEntity
  8
0
  6
Continuous
 62
     7
370
     0
100
AcDbLine
 10
196.6851466124
 20
77.674452772
 30
0.0
 11
196.6851466124
 21
68.6744531595
 31
0.0
  0
ARC
  5
27E
330
1F
100
AcDbEntity
  8
0
  6
Continuous
 62
     7
370
     0
100
AcDbCircle
 10
197.4851510476
 20
77.6744540095
 30
0.0
 40
0.8000000000000824
100
AcDbArc
 50
90.0
 51
180.0
  0
LINE
  5
27F
330
1F
100
AcDbEntity
  8
0
  6
Continuous
 62
     7
370
     0
100
AcDbLine
 10
217.7851461594
 20
78.4744551383
 30
0.0
 11
197.4851452534
 21
78.4744551383
 31
0.0
  0
LINE
  5
280
330
1F
100
AcDbEntity
  8
0
  6
Continuous
 62
     7
370
     0
100
AcDbLine
 10
217.7851461594
 20
78.4744551383
 30
0.0
 11
217.7851461594
 21
77.674452772
 31
0.0
  0
LINE
  5
281
330
1F
100
AcDbEntity
  8
0
  6
Continuous
 62
     7
370
     0
100
AcDbLine
 10
217.7851461594
 20
77.674452772
 30
0.0
 11
200.9851448957
 21
77.674452772
 31
0.0
  0
LINE
  5
282
330
1F
100
AcDbEntity
  8
0
  6
Continuous
 62
     7
370
     0
100
AcDbLine
 10
200.9851448957
 20
77.674452772
 30
0.0
 11
200.9851448957
 21
68.6744531595
 31
0.0
  0
LINE
  5
283
330
1F
100
AcDbEntity
  8
0
  6
Continuous
 62
     7
370
     0
100
AcDbLine
 10
217.7851461594
 20
68.6744531595
 30
0.0
 11
217.7851461594
 21
67.8744545185
 31
0.0
  0
LINE
  5
284
330
1F
100
AcDbEntity
  8
0
  6
Continuous
 62
     7
370
     0
100
AcDbLine
 10
197.4851452534
 20
67.8744545185
 30
0.0
 11
217.7851461594
 21
67.8744545185
 31
0.0
  0
ARC
  5
285
330
1F
100
AcDbEntity
  8
0
  6
Continuous
 62
     7
370
     0
100
AcDbCircle
 10
197.4851510476
 20
68.6744540095
 30
0.0
 40
0.8000000000000114
100
AcDbArc
 50
180.0
 51
270.0
  0
LINE
  5
286
330
1F
100
AcDbEntity
  8
0
  6
Continuous
 62
     7
370
     0
100
AcDbLine
 10
200.9851448957
 20
68.6744531595
 30
0.0
 11
217.7851461594
 21
68.6744531595
 31
0.0
  0
LINE
  5
287
330
1F
100
AcDbEntity
  8
0
  6
Continuous
 62
     7
370
     0
100
AcDbLine
 10
218.2851546232
 20
67.8744545185
 30
0.0
 11
218.2851546232
 21
68.6744531595
 31
0.0
  0
LINE
  5
288
330
1F
100
AcDbEntity
  8
0
  6
Continuous
 62
     7
370
     0
100
AcDbLine
 10
217.7851461594
 20
67.8744545185
 30
0.0
 11
218.2851546232
 21
67.8744545185
 31
0.0
  0
LINE
  5
289
330
1F
100
AcDbEntity
  8
0
  6
Continuous
 62
     7
370
     0
100
AcDbLine
 10
218.2851546232
 20
68.6744531595
 30
0.0
 11
217.7851461594
 21
68.6744531595
 31
0.0
  0
LINE
  5
28A
330
1F
100
AcDbEntity
  8
0
  6
Continuous
 62
     7
370
     0
100
AcDbLine
 10
218.2851546232
 20
67.8744545185
 30
0.0
 11
218.0851512377
 21
67.6744548582
 31
0.0
  0
LINE
  5
28B
330
1F
100
AcDbEntity
  8
0
  6
Continuous
 62
     7
370
     0
100
AcDbLine
 10
218.0851512377
 20
67.6744548582
 30
0.0
 11
217.7851461594
 21
67.6744548582
 31
0.0
  0
LINE
  5
28C
330
1F
100
AcDbEntity
  8
0
  6
Continuous
 62
     7
370
     0
100
AcDbLine
 10
217.7851461594
 20
67.8744545185
 30
0.0
 11
217.7851461594
 21
67.6744548582
 31
0.0
  0
LINE
  5
28D
330
1F
100
AcDbEntity
  8
0
  6
Continuous
 62
     7
370
     0
100
AcDbLine
 10
217.7851461594
 20
67.6744548582
 30
0.0
 11
197.4851452534
 21
67.6744548582
 31
0.0
  0
LINE
  5
28E
330
1F
100
AcDbEntity
  8
0
  6
Continuous
 62
     7
370
     0
100
AcDbLine
 10
197.4851452534
 20
67.8744545185
 30
0.0
 11
197.4851452534
 21
67.6744548582
 31
0.0
  0
LINE
  5
28F
330
1F
100
AcDbEntity
  8
0
  6
Continuous
 62
     7
370
     0
100
AcDbLine
 10
218.2851546232
 20
78.4744551383
 30
0.0
 11
217.7851461594
 21
78.4744551383
 31
0.0
  0
LINE
  5
290
330
1F
100
AcDbEntity
  8
0
  6
Continuous
 62
     7
370
     0
100
AcDbLine
 10
218.2851546232
 20
77.674452772
 30
0.0
 11
218.2851546232
 21
78.4744551383
 31
0.0
  0
LINE
  5
291
330
1F
100
AcDbEntity
  8
0
  6
Continuous
 62
     7
370
     0
100
AcDbLine
 10
217.7851461594
 20
77.674452772
 30
0.0
 11
218.2851546232
 21
77.674452772
 31
0.0
  0
LINE
  5
292
330
1F
100
AcDbEntity
  8
0
  6
Continuous
 62
     7
370
     0
100
AcDbLine
 10
217.7851461594
 20
78.6744547986
 30
0.0
 11
218.0851512377
 21
78.6744547986
 31
0.0
  0
LINE
  5
293
330
1F
100
AcDbEntity
  8
0
  6
Continuous
 62
     7
370
     0
100
AcDbLine
 10
218.0851512377
 20
78.6744547986
 30
0.0
 11
218.2851546232
 21
78.4744551383
 31
0.0
  0
LINE
  5
294
330
1F
100
AcDbEntity
  8
0
  6
Continuous
 62
     7
370
     0
100
AcDbLine
 10
217.7851461594
 20
78.6744547986
 30
0.0
 11
217.7851461594
 21
78.4744551383
 31
0.0
  0
LINE
  5
295
330
1F
100
AcDbEntity
  8
0
  6
Continuous
 62
     7
370
     0
100
AcDbLine
 10
197.4851452534
 20
78.6744547986
 30
0.0
 11
217.7851461594
 21
78.6744547986
 31
0.0
  0
LINE
  5
296
330
1F
100
AcDbEntity
  8
0
  6
Continuous
 62
     7
370
     0
100
AcDbLine
 10
197.4851452534
 20
78.6744547986
 30
0.0
 11
197.4851452534
 21
78.4744551383
 31
0.0
  0
ARC
  5
297
330
1F
100
AcDbEntity
  8
0
  6
Continuous
 62
     7
370
     0
100
AcDbCircle
 10
197.4851510476
 20
68.6744540095
 30
0.0
 40
1.000000000000014
100
AcDbArc
 50
180.0
 51
270.0
  0
LINE
  5
298
330
1F
100
AcDbEntity
  8
0
  6
Continuous
 62
     7
370
     0
100
AcDbLine
 10
196.6851466124
 20
68.6744531595
 30
0.0
 11
196.485158128
 21
68.6744531595
 31
0.0
  0
LINE
  5
299
330
1F
100
AcDbEntity
  8
0
  6
Continuous
 62
     7
370
     0
100
AcDbLine
 10
196.485158128
 20
68.6744531595
 30
0.0
 11
196.485158128
 21
77.674452772
 31
0.0
  0
LINE
  5
29A
330
1F
100
AcDbEntity
  8
0
  6
Continuous
 62
     7
370
     0
100
AcDbLine
 10
196.485158128
 20
77.674452772
 30
0.0
 11
196.6851466124
 21
77.674452772
 31
0.0
  0
ARC
  5
29B
330
1F
100
AcDbEntity
  8
0
  6
Continuous
 62
     7
370
     0
100
AcDbCircle
 10
197.4851510476
 20
77.6744540095
 30
0.0
 40
1.000000000000099
100
AcDbArc
 50
90.0
 51
180.0
  0
LINE
  5
29C
330
1F
100
AcDbEntity
  8
0
  6
Continuous
 62
     7
370
     0
100
AcDbLine
 10
201.4851533596
 20
76.3744531177
 30
0.0
 11
201.4851533596
 21
76.2542044722
 31
0.0
  0
LINE
  5
29D
330
1F
100
AcDbEntity
  8
0
  6
Continuous
 62
     7
370
     0
100
AcDbLine
 10
201.4851533596
 20
70.0947051846
 30
0.0
 11
201.4851533596
 21
69.9744528138
 31
0.0
  0
LINE
  5
29E
330
1F
100
AcDbEntity
  8
0
  6
Continuous
 62
     7
370
     0
100
AcDbLine
 10
201.4851533596
 20
69.9744528138
 30
0.0
 11
201.9851469223
 21
69.9744528138
 31
0.0
  0
LINE
  5
29F
330
1F
100
AcDbEntity
  8
0
  6
Continuous
 62
     7
370
     0
100
AcDbLine
 10
201.9851469223
 20
69.9744528138
 30
0.0
 11
201.9851469223
 21
68.6744531595
 31
0.0
  0
LINE
  5
2A0
330
1F
100
AcDbEntity
  8
0
  6
Continuous
 62
     7
370
     0
100
AcDbLine
 10
201.9851469223
 20
77.674452772
 30
0.0
 11
201.9851469223
 21
76.3744531177
 31
0.0
  0
LINE
  5
2A1
330
1F
100
AcDbEntity
  8
0
  6
Continuous
 62
     7
370
     0
100
AcDbLine
 10
201.9851469223
 20
76.3744531177
 30
0.0
 11
201.4851533596
 21
76.3744531177
 31
0.0
  0
DIMENSION
  5
2A2
330
1F
100
AcDbEntity
  8
0
  6
Continuous
 62
     7
370
     0
100
AcDbDimension
  2
_D_7
 10
227.4964540624
 20
77.6744540095
 30
0.0
 11
227.4964540624
 21
88.6744540095
 31
0.0
 70
   160
  1
<>
 71
     2
 42
-1.0
  3
SLDDIMSTYLE0
100
AcDbAlignedDimension
 13
217.7851510476
 23
67.6744540095
 33
0.0
 14
218.2851510476
 24
77.6744540095
 34
0.0
 50
90.0
100
AcDbRotatedDimension
  0
DIMENSION
  5
2B7
330
1F
100
AcDbEntity
  8
0
  6
Continuous
 62
     7
370
     0
100
AcDbDimension
  2
_D_8
 10
247.9520343643
 20
70.0947040095
 30
0.0
 11
247.9520343643
 21
88.6744540095
 31
0.0
 70
   160
  1
<>
 71
     2
 42
-1.0
  3
SLDDIMSTYLE1
100
AcDbAlignedDimension
 13
218.7825510476
 23
76.2542040095
 33
0.0
 14
218.7825510476
 24
70.0947040095
 34
0.0
 50
90.0
100
AcDbRotatedDimension
  0
LINE
  5
2CC
330
1F
100
AcDbEntity
  8
0
  6
Continuous
 62
     7
370
     0
100
AcDbLine
 10
259.9198337143
 20
151.9089957341
 30
0.0
 11
260.0725057409
 21
151.8208600491
 31
0.0
  0
LINE
  5
2CD
330
1F
100
AcDbEntity
  8
0
  6
Continuous
 62
     7
370
     0
100
AcDbLine
 10
261.7723675864
 20
154.7654261812
 30
0.0
 11
261.6196955598
 21
154.8535618661
 31
0.0
  0
LINE
  5
2CE
330
1F
100
AcDbEntity
  8
0
  6
Continuous
 62
     7
370
     0
100
AcDbLine
 10
196.6174413933
 20
195.0207276381
 30
0.0
 11
223.0515033487
 21
179.3301124382
 31
0.0
  0
LINE
  5
2CF
330
1F
100
AcDbEntity
  8
0
  6
Continuous
 62
     7
370
     0
100
AcDbLine
 10
223.7467413404
 20
179.7314647878
 30
0.0
 11
196.974740919
 21
195.6226720283
 31
0.0
  0
LINE
  5
2D0
330
1F
100
AcDbEntity
  8
0
  6
Continuous
 62
     7
370
     0
100
AcDbLine
 10
196.6248477019
 20
187.5289071932
 30
0.0
 11
217.2299921623
 21
175.9694255645
 31
0.0
  0
LINE
  5
2D1
330
1F
100
AcDbEntity
  8
0
  6
Continuous
 62
     7
370
     0
100
AcDbLine
 10
217.9351118396
 20
176.3764824898
 30
0.0
 11
196.9673346103
 21
188.1394010242
 31
0.0
  0
LINE
  5
2D2
330
1F
100
AcDbEntity
  8
0
  6
Continuous
 62
     7
370
     0
100
AcDbLine
 10
231.9488089408
 20
160.4190328685
 30
0.0
 11
231.6825892532
 21
160.2653475141
 31
0.0
  0
LINE
  5
2D3
330
1F
100
AcDbEntity
  8
0
  6
Continuous
 62
     7
370
     0
100
AcDbLine
 10
233.4824429719
 20
157.1475716095
 30
0.0
 11
233.7486626595
 21
157.3012569639
 31
0.0
  0
LINE
  5
2D4
330
1F
100
AcDbEntity
  8
0
  6
Continuous
 62
     7
370
     0
100
AcDbLine
 10
213.8816281985
 20
165.2936196101
 30
0.0
 11
251.3582876014
 21
143.6588046468
 31
0.0
  0
LINE
  5
2D5
330
1F
100
AcDbEntity
  8
0
  6
Continuous
 62
     7
370
     0
100
AcDbLine
 10
266.5003825914
 20
160.2827243679
 30
0.0
 11
266.5003825914
 21
160.9359570174
 31
0.0
  0
LINE
  5
2D6
330
1F
100
AcDbEntity
  8
0
  6
Continuous
 62
     7
370
     0
100
AcDbLine
 10
266.5003825914
 20
152.2806244114
 30
0.0
 11
266.5003825914
 21
152.9338570609
 31
0.0
  0
LINE
  5
2D7
330
1F
100
AcDbEntity
  8
0
  6
Continuous
 62
     7
370
     0
100
AcDbLine
 10
227.0201321057
 20
170.7858745191
 30
0.0
 11
227.0201321057
 21
170.8879421206
 31
0.0
  0
LINE
  5
2D8
330
1F
100
AcDbEntity
  8
0
  6
Continuous
 62
     7
370
     0
100
AcDbLine
 10
226.3384875784
 20
171.0408266669
 30
0.0
 11
226.3384875784
 21
170.9387590654
 31
0.0
  0
LINE
  5
2D9
330
1F
100
AcDbEntity
  8
0
  6
Continuous
 62
     7
370
     0
100
AcDbLine
 10
227.5712261624
 20
171.1975794026
 30
0.0
 11
227.5712261624
 21
171.2996470041
 31
0.0
  0
LINE
  5
2DA
330
1F
100
AcDbEntity
  8
0
  6
Continuous
 62
     7
370
     0
100
AcDbLine
 10
227.0249471452
 20
171.4312453142
 30
0.0
 11
227.0249471452
 21
171.349591233
 31
0.0
  0
LINE
  5
2DB
330
1F
100
AcDbEntity
  8
0
  6
Continuous
 62
     7
370
     0
100
AcDbLine
 10
230.4778453027
 20
171.8670247691
 30
0.0
 11
230.4778453027
 21
171.9690923706
 31
0.0
  0
LINE
  5
2DC
330
1F
100
AcDbEntity
  8
0
  6
Continuous
 62
     7
370
     0
100
AcDbLine
 10
231.4925095796
 20
172.1358398802
 30
0.0
 11
231.4925095796
 21
172.2379074817
 31
0.0
  0
LINE
  5
2DD
330
1F
100
AcDbEntity
  8
0
  6
Continuous
 62
     7
370
     0
100
AcDbLine
 10
225.1347382722
 20
172.6006537794
 30
0.0
 11
225.1347382722
 21
172.7027213808
 31
0.0
  0
LINE
  5
2DE
330
1F
100
AcDbEntity
  8
0
  6
Continuous
 62
     7
370
     0
100
AcDbLine
 10
228.1349621568
 20
173.1181291824
 30
0.0
 11
228.1349621568
 21
173.016061581
 31
0.0
  0
LINE
  5
2DF
330
1F
100
AcDbEntity
  8
0
  6
Continuous
 62
     7
370
     0
100
AcDbLine
 10
229.5193155464
 20
173.1935231265
 30
0.0
 11
229.5193155464
 21
173.295590728
 31
0.0
  0
LINE
  5
2E0
330
1F
100
AcDbEntity
  8
0
  6
Continuous
 62
     7
370
     0
100
AcDbLine
 10
222.6034009853
 20
174.0346504814
 30
0.0
 11
222.6034009853
 21
174.1367180829
 31
0.0
  0
LINE
  5
2E1
330
1F
100
AcDbEntity
  8
0
  6
Continuous
 62
     7
370
     0
100
AcDbLine
 10
266.0547726444
 20
159.9059190213
 30
0.0
 11
267.0379910821
 21
159.3383190989
 31
0.0
  0
LINE
  5
2E2
330
1F
100
AcDbEntity
  8
0
  6
Continuous
 62
     7
370
     0
100
AcDbLine
 10
267.0379910821
 20
159.3383190989
 30
0.0
 11
254.8068822452
 21
152.2774502622
 31
0.0
  0
LINE
  5
2E3
330
1F
100
AcDbEntity
  8
0
  6
Continuous
 62
     7
370
     0
100
AcDbLine
 10
254.8068822452
 20
152.2774502622
 30
0.0
 11
254.4745420581
 21
152.4693061685
 31
0.0
  0
LINE
  5
2E4
330
1F
100
AcDbEntity
  8
0
  6
Continuous
 62
     7
370
     0
100
AcDbLine
 10
254.8068822452
 20
147.2479671314
 30
0.0
 11
254.8068822452
 21
152.2774502622
 31
0.0
  0
LINE
  5
2E5
330
1F
100
AcDbEntity
  8
0
  6
Continuous
 62
     7
370
     0
100
AcDbLine
 10
254.8068822452
 20
147.2479671314
 30
0.0
 11
254.4745420581
 21
147.4398230377
 31
0.0
  0
LINE
  5
2E6
330
1F
100
AcDbEntity
  8
0
  6
Continuous
 62
     7
370
     0
100
AcDbLine
 10
267.0379910821
 20
154.3088359681
 30
0.0
 11
267.0379910821
 21
159.3383190989
 31
0.0
  0
LINE
  5
2E7
330
1F
100
AcDbEntity
  8
0
  6
Continuous
 62
     7
370
     0
100
AcDbLine
 10
267.0379910821
 20
154.3088359681
 30
0.0
 11
254.8068822452
 21
147.2479671314
 31
0.0
  0
LWPOLYLINE
  5
2E8
330
1F
100
AcDbEntity
  8
0
  6
Continuous
 62
     7
370
     0
100
AcDbPolyline
 90
       40
 70
   128
 43
0.0
 10
260.9224366637
 20
151.8828138249
 10
261.1183493403
 20
152.0141751996
 10
261.3091879815
 20
152.1786611716
 10
261.4900099667
 20
152.3720116404
 10
261.6561321015
 20
152.5892189307
 10
261.8032519098
 20
152.8246574875
 10
261.927559066
 20
153.072229576
 10
262.0258340799
 20
153.3255232092
 10
262.0955316803
 20
153.5779782149
 10
262.1348467359
 20
153.8230561412
 10
262.1427610076
 20
154.0544095984
 10
262.1190695197
 20
154.2660466536
 10
262.0643858695
 20
154.4524860182
 10
261.9801263346
 20
154.6088990105
 10
261.8684731928
 20
154.7312346163
 10
261.7323182019
 20
154.8163244077
 10
261.5751877046
 20
154.8619646036
 10
261.4011512981
 20
154.8669731471
 10
261.2147164341
 20
154.8312203194
 10
261.0207116776
 20
154.7556321001
 10
260.8241616498
 20
154.6421661842
 10
260.6301568932
 20
154.4937612795
 10
260.4437220292
 20
154.3142609949
 10
260.2696856228
 20
154.1083142937
 10
260.1125551254
 20
153.8812550871
 10
259.9764001345
 20
153.6389640894
 10
259.8647469927
 20
153.3877165101
 10
259.7804874579
 20
153.1340195295
 10
259.7258038076
 20
152.8844437662
 10
259.7021123198
 20
152.6454531014
 10
259.7100265914
 20
152.4232372677
 10
259.7493416471
 20
152.2235515385
 10
259.8190392475
 20
152.0515676694
 10
259.9173142614
 20
151.9117399521
 10
260.0416214175
 20
151.8076898511
 10
260.1887412259
 20
151.7421122094
 10
260.3548633607
 20
151.7167054534
 10
260.5356853459
 20
151.7321276048
 10
260.7265239871
 20
151.7879792379
 10
260.9224366637
 20
151.8828138249
  0
LWPOLYLINE
  5
2E9
330
1F
100
AcDbEntity
  8
0
  6
Continuous
 62
     7
370
     0
100
AcDbPolyline
 90
       40
 70
   128
 43
0.0
 10
260.9924215308
 20
151.947779677
 10
260.7990148828
 20
151.8411098977
 10
260.6088047942
 20
151.7720470161
 10
260.4267176062
 20
151.7423797245
 10
260.2574692814
 20
151.7528763901
 10
260.1054432625
 20
151.8032651548
 10
259.9745769436
 20
151.8922409761
 10
259.8682596935
 20
152.0174994269
 10
259.7892450733
 20
152.1757963792
 10
259.73957952
 20
152.3630320251
 10
259.7205493453
 20
152.5743570596
 10
259.7326474209
 20
152.8042982754
 10
259.775560413
 20
153.0469003157
 10
259.8481768974
 20
153.2958799152
 10
259.9486161456
 20
153.5447886331
 10
260.0742768336
 20
153.7871798642
 10
260.2219044158
 20
154.016775803
 10
260.3876754151
 20
154.2276300353
 10
260.5672964499
 20
154.4142815472
 10
260.7561154297
 20
154.5718961627
 10
260.9492420421
 20
154.6963917459
 10
261.1416744093
 20
154.7845439267
 10
261.328428634
 20
154.8340696098
 10
261.50466788
 20
154.8436861062
 10
261.6658276433
 20
154.8131443535
 10
261.8077339706
 20
154.7432353672
 10
261.9267115628
 20
154.6357697533
 10
262.0196789626
 20
154.4935308147
 10
262.0842283632
 20
154.3202024652
 10
262.1186879691
 20
154.120273818
 10
262.1221652945
 20
153.8989229201
 10
262.0945702785
 20
153.6618826434
 10
262.0366176177
 20
153.4152922067
 10
261.9498082553
 20
153.1655381726
 10
261.8363905084
 20
152.9190890396
 10
261.699301837
 20
152.6823277106
 10
261.5420927657
 20
152.4613861797
 10
261.3688349268
 20
152.2619867166
 10
261.1840156074
 20
152.0892936625
 10
260.9924215308
 20
151.947779677
  0
LWPOLYLINE
  5
2EA
330
1F
100
AcDbEntity
  8
0
  6
Continuous
 62
     7
370
     0
100
AcDbPolyline
 90
       10
 70
   128
 43
0.0
 10
196.6174413933
 20
195.0207276381
 10
196.5729937122
 20
195.0673301702
 10
196.5493374611
 20
195.1532571129
 10
196.5590066639
 20
195.2619331784
 10
196.6006954411
 20
195.3786810618
 10
196.6687734923
 20
195.4877333145
 10
196.7540464996
 20
195.5743618256
 10
196.8449978706
 20
195.6268669345
 10
196.9293441189
 20
195.6381575354
 10
196.974740919
 20
195.6226720283
  0
LWPOLYLINE
  5
2EB
330
1F
100
AcDbEntity
  8
0
  6
Continuous
 62
     7
370
     0
100
AcDbPolyline
 90
        8
 70
   128
 43
0.0
 10
196.7926006954
 20
188.1219299682
 10
196.7034336473
 20
188.0508859963
 10
196.6267805092
 20
187.950571182
 10
196.5729937122
 20
187.8345335969
 10
196.5493374611
 20
187.7184447599
 10
196.5590066639
 20
187.6179831115
 10
196.6006954411
 20
187.5467165542
 10
196.6248477019
 20
187.5289071932
  0
ARC
  5
2EC
330
1F
100
AcDbEntity
  8
0
  6
Continuous
 62
     7
370
     0
100
AcDbCircle
 10
196.8940084455
 20
187.9902388007
 30
0.0
 40
0.1662109965276348
100
AcDbArc
 50
63.8218825043
 51
127.5977873118
  0
LWPOLYLINE
  5
2ED
330
1F
100
AcDbEntity
  8
0
  6
Continuous
 62
     7
370
     0
100
AcDbPolyline
 90
       24
 70
   128
 43
0.0
 10
233.3578736356
 20
157.0932760238
 10
233.1904279909
 20
157.0642262875
 10
233.0080135382
 20
157.0756137848
 10
232.8151219268
 20
157.1271581176
 10
232.6165027883
 20
157.2175900933
 10
232.417046785
 20
157.3446829766
 10
232.2216651857
 20
157.5053073189
 10
232.0351689338
 20
157.6955080158
 10
231.8621501861
 20
157.910601695
 10
231.7068692381
 20
158.1452920361
 10
231.5731496224
 20
158.3938001841
 10
231.4642839595
 20
158.6500070437
 10
231.3829528834
 20
158.9076039516
 10
231.3311590351
 20
159.1602480171
 10
231.3101777511
 20
159.4017183047
 10
231.3205256602
 20
159.6260690147
 10
231.3619479626
 20
159.8277758879
 10
231.4334247036
 20
160.0018722318
 10
231.5331958888
 20
160.1440712165
 10
231.6588048203
 20
160.2508714311
 10
231.8071585895
 20
160.3196430999
 10
231.9746042342
 20
160.3486928361
 10
232.1570186868
 20
160.3373053388
 10
232.2931636534
 20
160.3047883919
  0
ARC
  5
2EE
330
1F
100
AcDbEntity
  8
0
  6
Continuous
 62
     7
370
     0
100
AcDbCircle
 10
233.1067554937
 20
157.7729530466
 30
0.0
 40
0.7245834503554593
100
AcDbArc
 50
290.2776011356
 51
350.7588509474
  0
ARC
  5
2EF
330
1F
100
AcDbEntity
  8
0
  6
Continuous
 62
     7
370
     0
100
AcDbCircle
 10
252.6863562879
 20
151.395655908
 30
0.0
 40
1.536804807572261
100
AcDbArc
 50
122.60547834
 51
177.3945215143
  0
LINE
  5
2F0
330
1F
100
AcDbEntity
  8
0
  6
Continuous
 62
     7
370
     0
100
AcDbLine
 10
251.8582469677
 20
152.690261628
 30
0.0
 11
251.9996683239
 21
152.4453126545
 31
0.0
  0
ARC
  5
2F1
330
1F
100
AcDbEntity
  8
0
  6
Continuous
 62
     7
370
     0
100
AcDbCircle
 10
252.6621557801
 20
151.4096280784
 30
0.0
 40
1.229443846057472
100
AcDbArc
 50
122.60547834
 51
177.3945215144
  0
LINE
  5
2F2
330
1F
100
AcDbEntity
  8
0
  6
Continuous
 62
     7
370
     0
100
AcDbLine
 10
251.1511401865
 20
151.4655167602
 30
0.0
 11
251.433982899
 21
151.4655167602
 31
0.0
  0
LINE
  5
2F3
330
1F
100
AcDbEntity
  8
0
  6
Continuous
 62
     7
370
     0
100
AcDbLine
 10
213.6744807836
 20
173.1003317235
 30
0.0
 11
251.1511401865
 21
151.4655167602
 31
0.0
  0
ARC
  5
2F4
330
1F
100
AcDbEntity
  8
0
  6
Continuous
 62
     7
370
     0
100
AcDbCircle
 10
215.209696885
 20
173.0304708713
 30
0.0
 40
1.536804807571805
100
AcDbArc
 50
122.60547834
 51
177.3945215144
  0
LINE
  5
2F5
330
1F
100
AcDbEntity
  8
0
  6
Continuous
 62
     7
370
     0
100
AcDbLine
 10
214.3815875648
 20
174.3250765913
 30
0.0
 11
251.8582469677
 21
152.690261628
 31
0.0
  0
LINE
  5
2F6
330
1F
100
AcDbEntity
  8
0
  6
Continuous
 62
     7
370
     0
100
AcDbLine
 10
251.433982899
 20
151.4655167602
 30
0.0
 11
251.433982899
 21
144.1166494533
 31
0.0
  0
LINE
  5
2F7
330
1F
100
AcDbEntity
  8
0
  6
Continuous
 62
     7
370
     0
100
AcDbLine
 10
266.353935982
 20
160.7318549895
 30
0.0
 11
251.9996683239
 21
152.4453126545
 31
0.0
  0
LINE
  5
2F8
330
1F
100
AcDbEntity
  8
0
  6
Continuous
 62
     7
370
     0
100
AcDbLine
 10
266.353935982
 20
160.7318549895
 30
0.0
 11
266.353935982
 21
160.07862234
 31
0.0
  0
LINE
  5
2F9
330
1F
100
AcDbEntity
  8
0
  6
Continuous
 62
     7
370
     0
100
AcDbLine
 10
266.353935982
 20
160.07862234
 30
0.0
 11
254.4745420581
 21
153.2207942006
 31
0.0
  0
LINE
  5
2FA
330
1F
100
AcDbEntity
  8
0
  6
Continuous
 62
     7
370
     0
100
AcDbLine
 10
254.4745420581
 20
153.2207942006
 30
0.0
 11
254.4745420581
 21
145.8719268937
 31
0.0
  0
LINE
  5
2FB
330
1F
100
AcDbEntity
  8
0
  6
Continuous
 62
     7
370
     0
100
AcDbLine
 10
254.4745420581
 20
145.8719268937
 30
0.0
 11
266.353935982
 21
152.729755033
 31
0.0
  0
LINE
  5
2FC
330
1F
100
AcDbEntity
  8
0
  6
Continuous
 62
     7
370
     0
100
AcDbLine
 10
266.353935982
 20
152.729755033
 30
0.0
 11
266.353935982
 21
152.0765223835
 31
0.0
  0
LINE
  5
2FD
330
1F
100
AcDbEntity
  8
0
  6
Continuous
 62
     7
370
     0
100
AcDbLine
 10
251.9996683239
 20
143.7899800485
 30
0.0
 11
266.353935982
 21
152.0765223835
 31
0.0
  0
ARC
  5
2FE
330
1F
100
AcDbEntity
  8
0
  6
Continuous
 62
     7
370
     0
100
AcDbCircle
 10
251.7788423929
 20
144.0607076957
 30
0.0
 40
0.3493673579427961
100
AcDbArc
 50
170.7859630095
 51
309.2032852357
  0
LINE
  5
2FF
330
1F
100
AcDbEntity
  8
0
  6
Continuous
 62
     7
370
     0
100
AcDbLine
 10
251.1511401865
 20
144.1166494533
 30
0.0
 11
251.1511401865
 21
151.4655167602
 31
0.0
  0
LINE
  5
300
330
1F
100
AcDbEntity
  8
0
  6
Continuous
 62
     7
370
     0
100
AcDbLine
 10
251.433982899
 20
144.1166494533
 30
0.0
 11
251.1511401865
 21
144.1166494533
 31
0.0
  0
LINE
  5
301
330
1F
100
AcDbEntity
  8
0
  6
Continuous
 62
     7
370
     0
100
AcDbLine
 10
251.8582469677
 20
152.690261628
 30
0.0
 11
266.2125146258
 21
160.976803963
 31
0.0
  0
LINE
  5
302
330
1F
100
AcDbEntity
  8
0
  6
Continuous
 62
     7
370
     0
100
AcDbLine
 10
266.2125146258
 20
160.976803963
 30
0.0
 11
266.353935982
 21
160.7318549895
 31
0.0
  0
LINE
  5
303
330
1F
100
AcDbEntity
  8
0
  6
Continuous
 62
     7
370
     0
100
AcDbLine
 10
251.1511401865
 20
144.1166494533
 30
0.0
 11
213.6744807836
 21
165.7514644166
 31
0.0
  0
LINE
  5
304
330
1F
100
AcDbEntity
  8
0
  6
Continuous
 62
     7
370
     0
100
AcDbLine
 10
213.6744807836
 20
173.1003317235
 30
0.0
 11
213.6744807836
 21
165.7514644166
 31
0.0
  0
LWPOLYLINE
  5
305
330
1F
100
AcDbEntity
  8
0
  6
Continuous
 62
     7
370
     0
100
AcDbPolyline
 90
       34
 70
   128
 43
0.0
 10
217.4044690544
 20
167.2726216751
 10
217.4201225217
 20
167.4528860425
 10
217.4665171667
 20
167.6085620773
 10
217.5419761661
 20
167.7340232419
 10
217.6437722348
 20
167.824735043
 10
217.7682261979
 20
167.8774189198
 10
217.9108399648
 20
167.8901707396
 10
218.0664591023
 20
167.8625296185
 10
218.2294591295
 20
167.7954945786
 10
218.3939488006
 20
167.6914884409
 10
218.5539830304
 20
167.5542702582
 10
218.7037777648
 20
167.3887994531
 10
218.8379190318
 20
167.2010565718
 10
218.9515586165
 20
166.997827131
 10
219.0405892884
 20
166.7864563722
 10
219.1017932468
 20
166.5745837855
 10
219.1329584213
 20
166.3698669981
 10
219.1329584213
 20
166.1797050081
 10
219.1017932468
 20
166.0109707653
 10
219.0405892884
 20
165.8697627648
 10
218.9515586165
 20
165.7611846318
 10
218.8379190318
 20
165.6891606627
 10
218.7037777648
 20
165.6562939916
 10
218.5539830304
 20
165.6637725056
 10
218.3939488006
 20
165.7113259116
 10
218.2294591295
 20
165.7972355057
 10
218.0664591023
 20
165.9183962913
 10
217.9108399648
 20
166.070429202
 10
217.7682261979
 20
166.2478393722
 10
217.6437722348
 20
166.4442147361
 10
217.5419761661
 20
166.6524577765
 10
217.4665171667
 20
166.8650420472
 10
217.4201225217
 20
167.074284199
 10
217.4044690544
 20
167.2726216751
  0
LWPOLYLINE
  5
306
330
1F
100
AcDbEntity
  8
0
  6
Continuous
 62
     7
370
     0
100
AcDbPolyline
 90
       34
 70
   128
 43
0.0
 10
245.6887403018
 20
150.9444594387
 10
245.7043937692
 20
151.1247238061
 10
245.7507884142
 20
151.2803998409
 10
245.8262474135
 20
151.4058610055
 10
245.9280434823
 20
151.4965728066
 10
246.0524974453
 20
151.5492566833
 10
246.1951112122
 20
151.5620085031
 10
246.3507303498
 20
151.534367382
 10
246.513730377
 20
151.4673323421
 10
246.6782200481
 20
151.3633262044
 10
246.8382542779
 20
151.2261080217
 10
246.9880490122
 20
151.0606372167
 10
247.1221902793
 20
150.8728943353
 10
247.235829864
 20
150.6696648945
 10
247.3248605358
 20
150.4582941358
 10
247.3860644942
 20
150.246421549
 10
247.4172296688
 20
150.0417047616
 10
247.4172296688
 20
149.8515427717
 10
247.3860644942
 20
149.6828085288
 10
247.3248605358
 20
149.5416005284
 10
247.235829864
 20
149.4330223953
 10
247.1221902793
 20
149.3609984263
 10
246.9880490122
 20
149.3281317552
 10
246.8382542779
 20
149.3356102691
 10
246.6782200481
 20
149.3831636751
 10
246.513730377
 20
149.4690732693
 10
246.3507303498
 20
149.5902340549
 10
246.1951112122
 20
149.7422669655
 10
246.0524974453
 20
149.9196771357
 10
245.9280434823
 20
150.1160524996
 10
245.8262474135
 20
150.32429554
 10
245.7507884142
 20
150.5368798108
 10
245.7043937692
 20
150.7461219625
 10
245.6887403018
 20
150.9444594387
  0
LWPOLYLINE
  5
307
330
1F
100
AcDbEntity
  8
0
  6
Continuous
 62
     7
370
     0
100
AcDbPolyline
 90
       43
 70
   128
 43
0.0
 10
233.8270240474
 20
157.7920824766
 10
233.8112284504
 20
158.0445992667
 10
233.7641945068
 20
158.3097124572
 10
233.6869728773
 20
158.5814998573
 10
233.5812885654
 20
158.8538901859
 10
233.4495023841
 20
159.1207986929
 10
233.2945582188
 20
159.3762630834
 10
233.1199172662
 20
159.6145767051
 10
232.9294807166
 20
159.8304160255
 10
232.7275026078
 20
160.0189595507
 10
232.5184947969
 20
160.1759955301
 10
232.3071261732
 20
160.2980160393
 10
232.0981183623
 20
160.3822953418
 10
231.8961402535
 20
160.4269507772
 10
231.7057037039
 20
160.4309848169
 10
231.5310627513
 20
160.3943073472
 10
231.376118586
 20
160.317737682
 10
231.2443324046
 20
160.2029862612
 10
231.1386480928
 20
160.0526164419
 10
231.0614264633
 20
159.8699872373
 10
231.0143925197
 20
159.6591782822
 10
230.9985969227
 20
159.4248987002
 10
231.0143925197
 20
159.1723819101
 10
231.0614264633
 20
158.9072687196
 10
231.1386480928
 20
158.6354813194
 10
231.2443324046
 20
158.3630909909
 10
231.376118586
 20
158.0961824839
 10
231.5310627513
 20
157.8407180934
 10
231.7057037039
 20
157.6024044717
 10
231.8961402535
 20
157.3865651513
 10
232.0981183623
 20
157.198021626
 10
232.3071261732
 20
157.0409856467
 10
232.5184947969
 20
156.9189651375
 10
232.7275026078
 20
156.834685835
 10
232.9294807166
 20
156.7900303996
 10
233.1199172662
 20
156.7859963598
 10
233.2945582188
 20
156.8226738296
 10
233.4495023841
 20
156.8992434948
 10
233.5812885654
 20
157.0139949156
 10
233.6869728773
 20
157.1643647349
 10
233.7641945068
 20
157.3469939395
 10
233.8112284504
 20
157.5578028946
 10
233.8270240474
 20
157.7920824766
  0
SPLINE
  5
308
330
1F
100
AcDbEntity
  8
0
  6
Continuous
 62
     7
370
     0
100
AcDbSpline
210
0.0
220
0.0
230
1.0
 70
     8
 71
     3
 72
    11
 73
     7
 74
     0
 42
0.000000001
 43
0.00000001
 40
0.0
 40
0.0
 40
0.0
 40
0.0
 40
0.2799471824924077
 40
0.5602109593750819
 40
0.780164223259912
 40
1.0
 40
1.0
 40
1.0
 40
1.0
 10
229.3069799307522
 20
170.1886088247601
 30
0.0
 10
229.3754853739856
 20
170.1734986520499
 30
0.0
 10
229.5125737337773
 20
170.1432612184207
 30
0.0
 10
229.7159112217591
 20
170.1280886777353
 30
0.0
 10
229.9061474173831
 20
170.1319771887671
 30
0.0
 10
230.0140007094517
 20
170.1559961151053
 30
0.0
 10
230.0679129492887
 20
170.1680023700145
 30
0.0
  0
LINE
  5
309
330
1F
100
AcDbEntity
  8
0
  6
Continuous
 62
     7
370
     0
100
AcDbLine
 10
229.0350157841
 20
170.0316072648
 30
0.0
 11
229.3069799308
 21
170.1886088248
 31
0.0
  0
SPLINE
  5
30A
330
1F
100
AcDbEntity
  8
0
  6
Continuous
 62
     7
370
     0
100
AcDbSpline
210
0.0
220
0.0
230
1.0
 70
     8
 71
     3
 72
     9
 73
     5
 74
     0
 42
0.000000001
 43
0.00000001
 40
0.0
 40
0.0
 40
0.0
 40
0.0
 40
0.5597477606564042
 40
1.0
 40
1.0
 40
1.0
 40
1.0
 10
229.6067070839956
 20
169.9639003420588
 30
0.0
 10
229.4961745354605
 20
169.9663689241295
 30
0.0
 10
229.2987060392838
 20
169.9707790928592
 30
0.0
 10
229.1156198770558
 20
170.0130134808875
 30
0.0
 10
229.035015784142
 20
170.0316072647942
 30
0.0
  0
LINE
  5
30B
330
1F
100
AcDbEntity
  8
0
  6
Continuous
 62
     7
370
     0
100
AcDbLine
 10
228.5998731496
 20
169.3826674836
 30
0.0
 11
229.606707084
 21
169.9639003421
 31
0.0
  0
LINE
  5
30C
330
1F
100
AcDbEntity
  8
0
  6
Continuous
 62
     7
370
     0
100
AcDbLine
 10
228.8718372962
 20
169.2256659236
 30
0.0
 11
228.5998731496
 21
169.3826674836
 31
0.0
  0
LINE
  5
30D
330
1F
100
AcDbEntity
  8
0
  6
Continuous
 62
     7
370
     0
100
AcDbLine
 10
230.2860508585
 20
170.0420740355
 30
0.0
 11
228.8718372962
 21
169.2256659236
 31
0.0
  0
LINE
  5
30E
330
1F
100
AcDbEntity
  8
0
  6
Continuous
 62
     7
370
     0
100
AcDbLine
 10
230.0679129493
 20
170.16800237
 30
0.0
 11
230.2860508585
 21
170.0420740355
 31
0.0
  0
SPLINE
  5
30F
330
1F
100
AcDbEntity
  8
0
  6
Continuous
 62
     7
370
     0
100
AcDbSpline
210
0.0
220
0.0
230
1.0
 70
     8
 71
     3
 72
    14
 73
    10
 74
     0
 42
0.000000001
 43
0.00000001
 40
0.0
 40
0.0
 40
0.0
 40
0.0
 40
0.1662491439552858
 40
0.3333474780324872
 40
0.5003779908205753
 40
0.625446683592185
 40
0.7503048286263967
 40
0.8749995129293057
 40
1.0
 40
1.0
 40
1.0
 40
1.0
 10
227.025597355073
 20
171.4189450077012
 30
0.0
 10
227.0533325291907
 20
171.3744017110976
 30
0.0
 10
227.1089445469428
 20
171.2850875935461
 30
0.0
 10
227.2471038702966
 20
171.1667624037971
 30
0.0
 10
227.3522128270825
 20
171.0516021947913
 30
0.0
 10
227.4234820737828
 20
170.9394455304489
 30
0.0
 10
227.4248679847217
 20
170.8310371859333
 30
0.0
 10
227.3624387684041
 20
170.7280644090152
 30
0.0
 10
227.2799372271903
 20
170.6749291730138
 30
0.0
 10
227.2386359365844
 20
170.6483290175352
 30
0.0
  0
SPLINE
  5
310
330
1F
100
AcDbEntity
  8
0
  6
Continuous
 62
     7
370
     0
100
AcDbSpline
210
0.0
220
0.0
230
1.0
 70
     8
 71
     3
 72
     9
 73
     5
 74
     0
 42
0.000000001
 43
0.00000001
 40
0.0
 40
0.0
 40
0.0
 40
0.0
 40
0.5584796045888927
 40
1.0
 40
1.0
 40
1.0
 40
1.0
 10
227.0678084569948
 20
171.4917217724771
 30
0.0
 10
227.05206439565
 20
171.4795623185058
 30
0.0
 10
227.0238734622383
 20
171.4577898958938
 30
0.0
 10
227.0250693473886
 20
171.4308427307228
 30
0.0
 10
227.025597355073
 20
171.4189450077012
 30
0.0
  0
SPLINE
  5
311
330
1F
100
AcDbEntity
  8
0
  6
Continuous
 62
     7
370
     0
100
AcDbSpline
210
0.0
220
0.0
230
1.0
 70
     8
 71
     3
 72
     9
 73
     5
 74
     0
 42
0.000000001
 43
0.00000001
 40
0.0
 40
0.0
 40
0.0
 40
0.0
 40
0.558757943319406
 40
0.9999999999999999
 40
0.9999999999999999
 40
0.9999999999999999
 40
0.9999999999999999
 10
227.1981246105789
 20
171.5155990930552
 30
0.0
 10
227.1707215849161
 20
171.5163011845037
 30
0.0
 10
227.121678835743
 20
171.5175577061457
 30
0.0
 10
227.0843010902779
 20
171.4996315475599
 30
0.0
 10
227.0678084569948
 20
171.4917217724771
 30
0.0
  0
SPLINE
  5
312
330
1F
100
AcDbEntity
  8
0
  6
Continuous
 62
     7
370
     0
100
AcDbSpline
210
0.0
220
0.0
230
1.0
 70
     8
 71
     3
 72
     9
 73
     5
 74
     0
 42
0.000000001
 43
0.00000001
 40
0.0
 40
0.0
 40
0.0
 40
0.0
 40
0.5605438071914925
 40
1.0
 40
1.0
 40
1.0
 40
1.0
 10
227.4392094947094
 20
171.4343180771145
 30
0.0
 10
227.4000231532469
 20
171.4555643312823
 30
0.0
 10
227.3301154297829
 20
171.4934672639258
 30
0.0
 10
227.2384205106437
 20
171.5088423960347
 30
0.0
 10
227.1981246105789
 20
171.5155990930552
 30
0.0
  0
SPLINE
  5
313
330
1F
100
AcDbEntity
  8
0
  6
Continuous
 62
     7
370
     0
100
AcDbSpline
210
0.0
220
0.0
230
1.0
 70
     8
 71
     3
 72
    11
 73
     7
 74
     0
 42
0.000000001
 43
0.00000001
 40
0.0
 40
0.0
 40
0.0
 40
0.0
 40
0.2805966849418548
 40
0.558464063735803
 40
0.7788984614813667
 40
1.0
 40
1.0
 40
1.0
 40
1.0
 10
227.4938856200175
 20
171.1724852672131
 30
0.0
 10
227.5198127179021
 20
171.1958692638095
 30
0.0
 10
227.5714147261316
 20
171.242409805685
 30
0.0
 10
227.5752559920541
 20
171.3236411702416
 30
0.0
 10
227.515534160634
 20
171.3867777382355
 30
0.0
 10
227.4646766644742
 20
171.4184553430135
 30
0.0
 10
227.4392094947094
 20
171.4343180771146
 30
0.0
  0
LINE
  5
314
330
1F
100
AcDbEntity
  8
0
  6
Continuous
 62
     7
370
     0
100
AcDbLine
 10
227.7839807097
 20
171.0259504779
 30
0.0
 11
227.49388562
 21
171.1724852672
 31
0.0
  0
SPLINE
  5
315
330
1F
100
AcDbEntity
  8
0
  6
Continuous
 62
     7
370
     0
100
AcDbSpline
210
0.0
220
0.0
230
1.0
 70
     8
 71
     3
 72
    12
 73
     8
 74
     0
 42
0.000000001
 43
0.00000001
 40
0.0
 40
0.0
 40
0.0
 40
0.0
 40
0.187310578722572
 40
0.3743552756003742
 40
0.5609137064185818
 40
0.780227969288449
 40
1.0
 40
1.0
 40
1.0
 40
1.0
 10
227.6715122032723
 20
171.5723486152513
 30
0.0
 10
227.7172088263121
 20
171.5441549916556
 30
0.0
 10
227.8085372073824
 20
171.4878077644817
 30
0.0
 10
227.9128489380471
 20
171.3876401043417
 30
0.0
 10
227.9655512300995
 20
171.2675418708852
 30
0.0
 10
227.9309787051297
 20
171.1340730513214
 30
0.0
 10
227.8330140857542
 20
171.0620163765242
 30
0.0
 10
227.783980709735
 20
171.0259504779116
 30
0.0
  0
SPLINE
  5
316
330
1F
100
AcDbEntity
  8
0
  6
Continuous
 62
     7
370
     0
100
AcDbSpline
210
0.0
220
0.0
230
1.0
 70
     8
 71
     3
 72
    11
 73
     7
 74
     0
 42
0.000000001
 43
0.00000001
 40
0.0
 40
0.0
 40
0.0
 40
0.0
 40
0.2788488445841533
 40
0.5575640589645459
 40
0.7785528720471642
 40
1.0
 40
1.0
 40
1.0
 40
1.0
 10
226.7768634793191
 20
171.6377659319037
 30
0.0
 10
226.8546969807161
 20
171.6701490659892
 30
0.0
 10
227.0103266840667
 20
171.7348998154843
 30
0.0
 10
227.2896792403763
 20
171.7237069181371
 30
0.0
 10
227.5068608145725
 20
171.6594130305986
 30
0.0
 10
227.6165905177463
 20
171.6013901221463
 30
0.0
 10
227.6715122032723
 20
171.5723486152513
 30
0.0
  0
SPLINE
  5
317
330
1F
100
AcDbEntity
  8
0
  6
Continuous
 62
     7
370
     0
100
AcDbSpline
210
0.0
220
0.0
230
1.0
 70
     8
 71
     3
 72
     9
 73
     5
 74
     0
 42
0.000000001
 43
0.00000001
 40
0.0
 40
0.0
 40
0.0
 40
0.0
 40
0.5592664843430489
 40
1.0
 40
1.0
 40
1.0
 40
1.0
 10
226.6255834227672
 20
171.3996468992887
 30
0.0
 10
226.6290498333868
 20
171.4497122939879
 30
0.0
 10
226.6352479709772
 20
171.5392320419091
 30
0.0
 10
226.7335420044004
 20
171.6076235167543
 30
0.0
 10
226.7768634793191
 20
171.6377659319037
 30
0.0
  0
SPLINE
  5
318
330
1F
100
AcDbEntity
  8
0
  6
Continuous
 62
     7
370
     0
100
AcDbSpline
210
0.0
220
0.0
230
1.0
 70
     8
 71
     3
 72
     9
 73
     5
 74
     0
 42
0.000000001
 43
0.00000001
 40
0.0
 40
0.0
 40
0.0
 40
0.0
 40
0.5607683750552325
 40
1.0
 40
1.0
 40
1.0
 40
1.0
 10
226.8100091096872
 20
171.1329077906383
 30
0.0
 10
226.7616401585
 20
171.1796906127807
 30
0.0
 10
226.6753853814141
 20
171.2631168975418
 30
0.0
 10
226.6407822238794
 20
171.3579800171263
 30
0.0
 10
226.6255834227672
 20
171.3996468992887
 30
0.0
  0
SPLINE
  5
319
330
1F
100
AcDbEntity
  8
0
  6
Continuous
 62
     7
370
     0
100
AcDbSpline
210
0.0
220
0.0
230
1.0
 70
     8
 71
     3
 72
     9
 73
     5
 74
     0
 42
0.000000001
 43
0.00000001
 40
0.0
 40
0.0
 40
0.0
 40
0.0
 40
0.5599559721723169
 40
1.0
 40
1.0
 40
1.0
 40
1.0
 10
226.9780036294163
 20
170.9649488301331
 30
0.0
 10
226.947661604255
 20
170.9966380818441
 30
0.0
 10
226.893475156268
 20
171.0532304806859
 30
0.0
 10
226.8355143960635
 20
171.1085602542294
 30
0.0
 10
226.8100091096872
 20
171.1329077906383
 30
0.0
  0
SPLINE
  5
31A
330
1F
100
AcDbEntity
  8
0
  6
Continuous
 62
     7
370
     0
100
AcDbSpline
210
0.0
220
0.0
230
1.0
 70
     8
 71
     3
 72
    10
 73
     6
 74
     0
 42
0.000000001
 43
0.00000001
 40
0.0
 40
0.0
 40
0.0
 40
0.0
 40
0.279778702158419
 40
0.5590879204539618
 40
1.0
 40
1.0
 40
1.0
 40
1.0
 10
226.9638388301136
 20
170.8036951445848
 30
0.0
 10
226.9819034904377
 20
170.8164782201315
 30
0.0
 10
227.0180024976044
 20
170.8420229205296
 30
0.0
 10
227.0248690946567
 20
170.9029474164446
 30
0.0
 10
226.9957996467735
 20
170.9414053055247
 30
0.0
 10
226.9780036294163
 20
170.9649488301332
 30
0.0
  0
SPLINE
  5
31B
330
1F
100
AcDbEntity
  8
0
  6
Continuous
 62
     7
370
     0
100
AcDbSpline
210
0.0
220
0.0
230
1.0
 70
     8
 71
     3
 72
    11
 73
     7
 74
     0
 42
0.000000001
 43
0.00000001
 40
0.0
 40
0.0
 40
0.0
 40
0.0
 40
0.2812281480362479
 40
0.5610076324407435
 40
0.7810985321386322
 40
1.0
 40
1.0
 40
1.0
 40
1.0
 10
226.4853519096713
 20
170.8545571082821
 30
0.0
 10
226.5227305623429
 20
170.8346574625964
 30
0.0
 10
226.5972953226115
 20
170.7949606783646
 30
0.0
 10
226.7296606469473
 20
170.7628855737978
 30
0.0
 10
226.8656300996264
 20
170.7629378329258
 30
0.0
 10
226.9311617717449
 20
170.7901339362745
 30
0.0
 10
226.9638388301136
 20
170.8036951445848
 30
0.0
  0
SPLINE
  5
31C
330
1F
100
AcDbEntity
  8
0
  6
Continuous
 62
     7
370
     0
100
AcDbSpline
210
0.0
220
0.0
230
1.0
 70
     8
 71
     3
 72
    11
 73
     7
 74
     0
 42
0.000000001
 43
0.00000001
 40
0.0
 40
0.0
 40
0.0
 40
0.0
 40
0.2805819428287893
 40
0.5591524813202847
 40
0.7792506229685404
 40
1.0
 40
1.0
 40
1.0
 40
1.0
 10
226.4422909197913
 20
171.1934188085418
 30
0.0
 10
226.4102361677046
 20
171.1633604916923
 30
0.0
 10
226.3463564540397
 20
171.103459336681
 30
0.0
 10
226.3288745571618
 20
171.0018058582129
 30
0.0
 10
226.389366037355
 20
170.9162936766714
 30
0.0
 10
226.4533251246985
 20
170.875156220975
 30
0.0
 10
226.4853519096713
 20
170.8545571082821
 30
0.0
  0
LINE
  5
31D
330
1F
100
AcDbEntity
  8
0
  6
Continuous
 62
     7
370
     0
100
AcDbLine
 10
226.1521958301
 20
171.3399535978
 30
0.0
 11
226.4422909198
 21
171.1934188085
 31
0.0
  0
SPLINE
  5
31E
330
1F
100
AcDbEntity
  8
0
  6
Continuous
 62
     7
370
     0
100
AcDbSpline
210
0.0
220
0.0
230
1.0
 70
     8
 71
     3
 72
    12
 73
     8
 74
     0
 42
0.000000001
 43
0.00000001
 40
0.0
 40
0.0
 40
0.0
 40
0.0
 40
0.1871397936618306
 40
0.3739538554583752
 40
0.5603569471284832
 40
0.7798178949334312
 40
1.0
 40
1.0
 40
1.0
 40
1.0
 10
226.2422839536384
 20
170.7227412152274
 30
0.0
 10
226.1915952607241
 20
170.7544691299849
 30
0.0
 10
226.0903061026431
 20
170.817869734512
 30
0.0
 10
225.9811924234856
 20
170.932727323055
 30
0.0
 10
225.9405963923238
 20
171.070024977209
 30
0.0
 10
226.0002803621369
 20
171.2149109805206
 30
0.0
 10
226.1015019953206
 20
171.2982271702073
 30
0.0
 10
226.1521958300738
 20
171.3399535978434
 30
0.0
  0
SPLINE
  5
31F
330
1F
100
AcDbEntity
  8
0
  6
Continuous
 62
     7
370
     0
100
AcDbSpline
210
0.0
220
0.0
230
1.0
 70
     8
 71
     3
 72
    12
 73
     8
 74
     0
 42
0.000000001
 43
0.00000001
 40
0.0
 40
0.0
 40
0.0
 40
0.0
 40
0.1863990684874211
 40
0.3728710844871742
 40
0.5592650687482195
 40
0.7793668443460752
 40
0.9999999999999999
 40
0.9999999999999999
 40
0.9999999999999999
 40
0.9999999999999999
 10
227.2386359365844
 20
170.6483290175353
 30
0.0
 10
227.1834776258884
 20
170.6227429199955
 30
0.0
 10
227.0731394182213
 20
170.5715607117642
 30
0.0
 10
226.861871401431
 20
170.5420624297199
 30
0.0
 10
226.6366091861776
 20
170.5590410605031
 30
0.0
 10
226.4247633998439
 20
170.6249539539255
 30
0.0
 10
226.3031593070995
 20
170.6901192722111
 30
0.0
 10
226.2422839536384
 20
170.7227412152274
 30
0.0
  0
SPLINE
  5
320
330
1F
100
AcDbEntity
  8
0
  6
Continuous
 62
     7
370
     0
100
AcDbSpline
210
0.0
220
0.0
230
1.0
 70
     8
 71
     3
 72
     9
 73
     5
 74
     0
 42
0.000000001
 43
0.00000001
 40
0.0
 40
0.0
 40
0.0
 40
0.0
 40
0.5585193265375517
 40
1.0
 40
1.0
 40
1.0
 40
1.0
 10
225.3504681895458
 20
172.4471416821863
 30
0.0
 10
225.2685234278753
 20
172.4104927184866
 30
0.0
 10
225.1218055655258
 20
172.3448746423373
 30
0.0
 10
224.9392577085817
 20
172.3286869760346
 30
0.0
 10
224.858666357759
 20
172.3215404342136
 30
0.0
  0
SPLINE
  5
321
330
1F
100
AcDbEntity
  8
0
  6
Continuous
 62
     7
370
     0
100
AcDbSpline
210
0.0
220
0.0
230
1.0
 70
     8
 71
     3
 72
    11
 73
     7
 74
     0
 42
0.000000001
 43
0.00000001
 40
0.0
 40
0.0
 40
0.0
 40
0.0
 40
0.2805720451626125
 40
0.5597203159884615
 40
0.7797519723102098
 40
1.0
 40
1.0
 40
1.0
 40
1.0
 10
225.3011746879727
 20
172.9197817950003
 30
0.0
 10
225.3584705301341
 20
172.882122703099
 30
0.0
 10
225.4727714643589
 20
172.8069956219011
 30
0.0
 10
225.5249318370652
 20
172.6667672393031
 30
0.0
 10
225.4812281722848
 20
172.5379485615354
 30
0.0
 10
225.3940691282934
 20
172.4774205572781
 30
0.0
 10
225.3504681895458
 20
172.4471416821863
 30
0.0
  0
SPLINE
  5
322
330
1F
100
AcDbEntity
  8
0
  6
Continuous
 62
     7
370
     0
100
AcDbSpline
210
0.0
220
0.0
230
1.0
 70
     8
 71
     3
 72
    11
 73
     7
 74
     0
 42
0.000000001
 43
0.00000001
 40
0.0
 40
0.0
 40
0.0
 40
0.0
 40
0.2807518703124704
 40
0.5589701483430534
 40
0.7792745188477121
 40
1.0
 40
1.0
 40
1.0
 40
1.0
 10
224.42012417135
 20
172.9358090375802
 30
0.0
 10
224.4947994434513
 20
172.9677063863341
 30
0.0
 10
224.6434760947506
 20
173.0312132322366
 30
0.0
 10
224.9101930834637
 20
173.0503712429383
 30
0.0
 10
225.1374015473496
 20
173.00258108664
 30
0.0
 10
225.2465489018677
 20
172.9473991221001
 30
0.0
 10
225.3011746879727
 20
172.9197817950003
 30
0.0
  0
LINE
  5
323
330
1F
100
AcDbEntity
  8
0
  6
Continuous
 62
     7
370
     0
100
AcDbLine
 10
224.6654584953
 20
172.7634344082
 30
0.0
 11
224.4201241713
 21
172.9358090376
 31
0.0
  0
SPLINE
  5
324
330
1F
100
AcDbEntity
  8
0
  6
Continuous
 62
     7
370
     0
100
AcDbSpline
210
0.0
220
0.0
230
1.0
 70
     8
 71
     3
 72
    11
 73
     7
 74
     0
 42
0.000000001
 43
0.00000001
 40
0.0
 40
0.0
 40
0.0
 40
0.0
 40
0.1872361441692253
 40
0.3740838555424262
 40
0.560696413690876
 40
0.9999999999999999
 40
0.9999999999999999
 40
0.9999999999999999
 40
0.9999999999999999
 10
225.0598065078561
 20
172.7869846421958
 30
0.0
 10
225.038726612595
 20
172.7976426500355
 30
0.0
 10
224.9966105536005
 20
172.8189365550279
 30
0.0
 10
224.9137114084467
 20
172.8324975457324
 30
0.0
 10
224.7909723859483
 20
172.8227990520809
 30
0.0
 10
224.7172212449777
 20
172.787916775738
 30
0.0
 10
224.6654584952713
 20
172.7634344082009
 30
0.0
  0
SPLINE
  5
325
330
1F
100
AcDbEntity
  8
0
  6
Continuous
 62
     7
370
     0
100
AcDbSpline
210
0.0
220
0.0
230
1.0
 70
     8
 71
     3
 72
    11
 73
     7
 74
     0
 42
0.000000001
 43
0.00000001
 40
0.0
 40
0.0
 40
0.0
 40
0.0
 40
0.2806195771643618
 40
0.5594955134837388
 40
0.7793820380229962
 40
1.0
 40
1.0
 40
1.0
 40
1.0
 10
225.0419588607348
 20
172.5830461575318
 30
0.0
 10
225.067157085932
 20
172.5992601767247
 30
0.0
 10
225.1173969661571
 20
172.6315874686608
 30
0.0
 10
225.1431027004278
 20
172.6927746397517
 30
0.0
 10
225.1184946404122
 20
172.7484070602355
 30
0.0
 10
225.0793908620499
 20
172.7741112213499
 30
0.0
 10
225.0598065078561
 20
172.7869846421958
 30
0.0
  0
SPLINE
  5
326
330
1F
100
AcDbEntity
  8
0
  6
Continuous
 62
     7
370
     0
100
AcDbSpline
210
0.0
220
0.0
230
1.0
 70
     8
 71
     3
 72
     9
 73
     5
 74
     0
 42
0.000000001
 43
0.00000001
 40
0.0
 40
0.0
 40
0.0
 40
0.0
 40
0.5600606606765884
 40
1.0
 40
1.0
 40
1.0
 40
1.0
 10
224.8246708394327
 20
172.5197549036705
 30
0.0
 10
224.8698189387304
 20
172.5265537890747
 30
0.0
 10
224.9504318124202
 20
172.5386933408796
 30
0.0
 10
225.0139949402653
 20
172.5694952055422
 30
0.0
 10
225.0419588607348
 20
172.5830461575318
 30
0.0
  0
SPLINE
  5
327
330
1F
100
AcDbEntity
  8
0
  6
Continuous
 62
     7
370
     0
100
AcDbSpline
210
0.0
220
0.0
230
1.0
 70
     8
 71
     3
 72
     9
 73
     5
 74
     0
 42
0.000000001
 43
0.00000001
 40
0.0
 40
0.0
 40
0.0
 40
0.0
 40
0.5602366122649474
 40
0.9999999999999999
 40
0.9999999999999999
 40
0.9999999999999999
 40
0.9999999999999999
 10
224.3798961413306
 20
172.512886085422
 30
0.0
 10
224.4630997557812
 20
172.5115208298391
 30
0.0
 10
224.6116148878327
 20
172.509083903096
 30
0.0
 10
224.7595947249469
 20
172.5164955379975
 30
0.0
 10
224.8246708394327
 20
172.5197549036705
 30
0.0
  0
SPLINE
  5
328
330
1F
100
AcDbEntity
  8
0
  6
Continuous
 62
     7
370
     0
100
AcDbSpline
210
0.0
220
0.0
230
1.0
 70
     8
 71
     3
 72
    10
 73
     6
 74
     0
 42
0.000000001
 43
0.00000001
 40
0.0
 40
0.0
 40
0.0
 40
0.0
 40
0.2795770624031244
 40
0.5593377342540231
 40
1.0
 40
1.0
 40
1.0
 40
1.0
 10
223.396292477757
 20
172.3866306642828
 30
0.0
 10
223.4767394274621
 20
172.4178293771724
 30
0.0
 10
223.6376861596044
 20
172.4802472923951
 30
0.0
 10
223.982059782798
 20
172.5162246417298
 30
0.0
 10
224.2289068163074
 20
172.5141531550416
 30
0.0
 10
224.3798961413306
 20
172.512886085422
 30
0.0
  0
LINE
  5
329
330
1F
100
AcDbEntity
  8
0
  6
Continuous
 62
     7
370
     0
100
AcDbLine
 10
224.3209705762
 20
171.8528253604
 30
0.0
 11
223.3962924778
 21
172.3866306643
 31
0.0
  0
LINE
  5
32A
330
1F
100
AcDbEntity
  8
0
  6
Continuous
 62
     7
370
     0
100
AcDbLine
 10
224.5929347228
 20
172.0098269204
 30
0.0
 11
224.3209705762
 21
171.8528253604
 31
0.0
  0
LINE
  5
32B
330
1F
100
AcDbEntity
  8
0
  6
Continuous
 62
     7
370
     0
100
AcDbLine
 10
224.0674206687
 20
172.3131997263
 30
0.0
 11
224.5929347228
 21
172.0098269204
 31
0.0
  0
SPLINE
  5
32C
330
1F
100
AcDbEntity
  8
0
  6
Continuous
 62
     7
370
     0
100
AcDbSpline
210
0.0
220
0.0
230
1.0
 70
     8
 71
     3
 72
    11
 73
     7
 74
     0
 42
0.000000001
 43
0.00000001
 40
0.0
 40
0.0
 40
0.0
 40
0.0
 40
0.2800132048533903
 40
0.5602374371752773
 40
0.7804025336054307
 40
1.0
 40
1.0
 40
1.0
 40
1.0
 10
224.858666357759
 20
172.3215404342135
 30
0.0
 10
224.7846627766182
 20
172.3194352701038
 30
0.0
 10
224.6365998427225
 20
172.3152233553611
 30
0.0
 10
224.4307372654287
 20
172.3223501300947
 30
0.0
 10
224.2399825633431
 20
172.3296571271625
 30
0.0
 10
224.1248917818812
 20
172.3186808039972
 30
0.0
 10
224.0674206687149
 20
172.3131997263403
 30
0.0
  0
LINE
  5
32D
330
1F
100
AcDbEntity
  8
0
  6
Continuous
 62
     7
370
     0
100
AcDbLine
 10
221.7330617436
 20
173.953866028
 30
0.0
 11
221.5469362808
 21
174.0613139706
 31
0.0
  0
SPLINE
  5
32E
330
1F
100
AcDbEntity
  8
0
  6
Continuous
 62
     7
370
     0
100
AcDbSpline
210
0.0
220
0.0
230
1.0
 70
     8
 71
     3
 72
     9
 73
     5
 74
     0
 42
0.000000001
 43
0.00000001
 40
0.0
 40
0.0
 40
0.0
 40
0.0
 40
0.5598111354059786
 40
1.0
 40
1.0
 40
1.0
 40
1.0
 10
222.0497866560503
 20
173.7945748619354
 30
0.0
 10
221.9875067641081
 20
173.822214970777
 30
0.0
 10
221.8762551508348
 20
173.8715889597772
 30
0.0
 10
221.7768283251516
 20
173.9287183198421
 30
0.0
 10
221.7330617436439
 20
173.9538660279841
 30
0.0
  0
SPLINE
  5
32F
330
1F
100
AcDbEntity
  8
0
  6
Continuous
 62
     7
370
     0
100
AcDbSpline
210
0.0
220
0.0
230
1.0
 70
     8
 71
     3
 72
    11
 73
     7
 74
     0
 42
0.000000001
 43
0.00000001
 40
0.0
 40
0.0
 40
0.0
 40
0.0
 40
0.2802850968755692
 40
0.5598733130822654
 40
0.779918079731113
 40
1.0
 40
1.0
 40
1.0
 40
1.0
 10
222.7942885073959
 20
173.8603192651711
 30
0.0
 10
222.7367335865281
 20
173.8308996643055
 30
0.0
 10
222.6217668452007
 20
173.7721336093502
 30
0.0
 10
222.4103244030203
 20
173.7386208395839
 30
0.0
 10
222.2115959128683
 20
173.7483288822975
 30
0.0
 10
222.1037261102927
 20
173.779158667883
 30
0.0
 10
222.0497866560504
 20
173.7945748619354
 30
0.0
  0
SPLINE
  5
330
330
1F
100
AcDbEntity
  8
0
  6
Continuous
 62
     7
370
     0
100
AcDbSpline
210
0.0
220
0.0
230
1.0
 70
     8
 71
     3
 72
    11
 73
     7
 74
     0
 42
0.000000001
 43
0.00000001
 40
0.0
 40
0.0
 40
0.0
 40
0.0
 40
0.2791485284745776
 40
0.5589174620030103
 40
0.7792799871995947
 40
1.0
 40
1.0
 40
1.0
 40
1.0
 10
222.9297039887288
 20
174.2639441089168
 30
0.0
 10
222.9573515797343
 20
174.2254441407981
 30
0.0
 10
223.0127082082636
 20
174.1483586387334
 30
0.0
 10
222.9885330823908
 20
174.0297049022557
 30
0.0
 10
222.9086509531195
 20
173.932643647495
 30
0.0
 10
222.8324299144569
 20
173.8844404151622
 30
0.0
 10
222.7942885073959
 20
173.8603192651711
 30
0.0
  0
SPLINE
  5
331
330
1F
100
AcDbEntity
  8
0
  6
Continuous
 62
     7
370
     0
100
AcDbSpline
210
0.0
220
0.0
230
1.0
 70
     8
 71
     3
 72
     9
 73
     5
 74
     0
 42
0.000000001
 43
0.00000001
 40
0.0
 40
0.0
 40
0.0
 40
0.0
 40
0.5603451063412799
 40
1.0
 40
1.0
 40
1.0
 40
1.0
 10
222.6158120361829
 20
174.470008656372
 30
0.0
 10
222.679128695491
 20
174.4338711124491
 30
0.0
 10
222.7921245235827
 20
174.3693795276846
 30
0.0
 10
222.8876887214694
 20
174.2961429351983
 30
0.0
 10
222.9297039887288
 20
174.2639441089168
 30
0.0
  0
LINE
  5
332
330
1F
100
AcDbEntity
  8
0
  6
Continuous
 62
     7
370
     0
100
AcDbLine
 10
222.1633883465
 20
174.7311872931
 30
0.0
 11
222.6158120362
 21
174.4700086564
 31
0.0
  0
LINE
  5
333
330
1F
100
AcDbEntity
  8
0
  6
Continuous
 62
     7
370
     0
100
AcDbLine
 10
220.7491747841
 20
173.9147791813
 30
0.0
 11
222.1633883465
 21
174.7311872931
 31
0.0
  0
LINE
  5
334
330
1F
100
AcDbEntity
  8
0
  6
Continuous
 62
     7
370
     0
100
AcDbLine
 10
221.0211389307
 20
173.7577776213
 30
0.0
 11
220.7491747841
 21
173.9147791813
 31
0.0
  0
LINE
  5
335
330
1F
100
AcDbEntity
  8
0
  6
Continuous
 62
     7
370
     0
100
AcDbLine
 10
221.5469362808
 20
174.0613139706
 30
0.0
 11
221.0211389307
 21
173.7577776213
 31
0.0
  0
SPLINE
  5
336
330
1F
100
AcDbEntity
  8
0
  6
Continuous
 62
     7
370
     0
100
AcDbSpline
210
0.0
220
0.0
230
1.0
 70
     8
 71
     3
 72
    13
 73
     9
 74
     0
 42
0.000000001
 43
0.00000001
 40
0.0
 40
0.0
 40
0.0
 40
0.0
 40
0.186902460798011
 40
0.3734162044334516
 40
0.5596383556830401
 40
0.7062905957045378
 40
0.853078609679202
 40
1.0
 40
1.0
 40
1.0
 40
1.0
 10
229.7915383271475
 20
173.7578000535109
 30
0.0
 10
229.8840663704862
 20
173.6992468313507
 30
0.0
 10
230.0689300186138
 20
173.582262165215
 30
0.0
 10
230.249224130898
 20
173.3648198253857
 30
0.0
 10
230.2864179155474
 20
173.1409869509417
 30
0.0
 10
230.1987353839247
 20
172.9419595478537
 30
0.0
 10
230.0398874155653
 20
172.7775577740678
 30
0.0
 10
229.8939877517119
 20
172.685986236805
 30
0.0
 10
229.8210047925448
 20
172.640179676403
 30
0.0
  0
SPLINE
  5
337
330
1F
100
AcDbEntity
  8
0
  6
Continuous
 62
     7
370
     0
100
AcDbSpline
210
0.0
220
0.0
230
1.0
 70
     8
 71
     3
 72
    13
 73
     9
 74
     0
 42
0.000000001
 43
0.00000001
 40
0.0
 40
0.0
 40
0.0
 40
0.0
 40
0.1868623312436854
 40
0.3733269870469057
 40
0.5595660014170586
 40
0.7062341830061508
 40
0.8530571115958895
 40
1.0
 40
1.0
 40
1.0
 40
1.0
 10
227.8463689295597
 20
173.7624393157997
 30
0.0
 10
227.9486068139796
 20
173.8157602037478
 30
0.0
 10
228.1528650028744
 20
173.9222885035491
 30
0.0
 10
228.5366987744264
 20
174.0204230761349
 30
0.0
 10
228.9263536709402
 20
174.0338974614753
 30
0.0
 10
229.2695705178942
 20
173.9784553431246
 30
0.0
 10
229.5532372871529
 20
173.8847814844783
 30
0.0
 10
229.7120830254991
 20
173.80013871851
 30
0.0
 10
229.7915383271475
 20
173.7578000535109
 30
0.0
  0
SPLINE
  5
338
330
1F
100
AcDbEntity
  8
0
  6
Continuous
 62
     7
370
     0
100
AcDbSpline
210
0.0
220
0.0
230
1.0
 70
     8
 71
     3
 72
    13
 73
     9
 74
     0
 42
0.000000001
 43
0.00000001
 40
0.0
 40
0.0
 40
0.0
 40
0.0
 40
0.1869573371327998
 40
0.3733995429144031
 40
0.5595591170587075
 40
0.706260750736296
 40
0.8530582488030161
 40
1.0
 40
1.0
 40
1.0
 40
1.0
 10
227.879662208645
 20
172.6275873930476
 30
0.0
 10
227.7850811788986
 20
172.6868077834137
 30
0.0
 10
227.5961797224631
 20
172.8050853917335
 30
0.0
 10
227.4031134016721
 20
173.0244118862507
 30
0.0
 10
227.375436272283
 20
173.2529052760195
 30
0.0
 10
227.4610620631034
 20
173.4554463103848
 30
0.0
 10
227.6233592930973
 20
173.6228460593329
 30
0.0
 10
227.7720080506444
 20
173.7158929987607
 30
0.0
 10
227.8463689295597
 20
173.7624393157997
 30
0.0
  0
SPLINE
  5
339
330
1F
100
AcDbEntity
  8
0
  6
Continuous
 62
     7
370
     0
100
AcDbSpline
210
0.0
220
0.0
230
1.0
 70
     8
 71
     3
 72
    13
 73
     9
 74
     0
 42
0.000000001
 43
0.00000001
 40
0.0
 40
0.0
 40
0.0
 40
0.0
 40
0.18695720859888
 40
0.373382480215993
 40
0.5595792600912226
 40
0.7062446886611854
 40
0.8530310670954853
 40
1.0
 40
1.0
 40
1.0
 40
1.0
 10
229.8210047925448
 20
172.640179676403
 30
0.0
 10
229.719613849325
 20
172.5862062785465
 30
0.0
 10
229.5171204438309
 20
172.4784130497731
 30
0.0
 10
229.1385377405198
 20
172.3732546817267
 30
0.0
 10
228.7485240392018
 20
172.3552022049985
 30
0.0
 10
228.4028001322621
 20
172.4067434647676
 30
0.0
 10
228.117909405096
 20
172.5001787480453
 30
0.0
 10
227.9591108359607
 20
172.5851002532013
 30
0.0
 10
227.879662208645
 20
172.6275873930476
 30
0.0
  0
LINE
  5
33A
330
1F
100
AcDbEntity
  8
0
  6
Continuous
 62
     7
370
     0
100
AcDbLine
 10
223.7402743787
 20
175.0454825311
 30
0.0
 11
225.1852792272
 21
175.8796660741
 31
0.0
  0
LINE
  5
33B
330
1F
100
AcDbEntity
  8
0
  6
Continuous
 62
     7
370
     0
100
AcDbLine
 10
224.3280729611
 20
174.7061536323
 30
0.0
 11
223.7402743787
 21
175.0454825311
 31
0.0
  0
LINE
  5
33C
330
1F
100
AcDbEntity
  8
0
  6
Continuous
 62
     7
370
     0
100
AcDbLine
 10
225.7730778097
 20
175.5403371752
 30
0.0
 11
224.3280729611
 21
174.7061536323
 31
0.0
  0
LINE
  5
33D
330
1F
100
AcDbEntity
  8
0
  6
Continuous
 62
     7
370
     0
100
AcDbLine
 10
226.3608763922
 20
175.2010082764
 30
0.0
 11
225.7730778097
 21
175.5403371752
 31
0.0
  0
LINE
  5
33E
330
1F
100
AcDbEntity
  8
0
  6
Continuous
 62
     7
370
     0
100
AcDbLine
 10
226.801725329
 20
175.4555049505
 30
0.0
 11
226.3608763922
 21
175.2010082764
 31
0.0
  0
LINE
  5
33F
330
1F
100
AcDbEntity
  8
0
  6
Continuous
 62
     7
370
     0
100
AcDbLine
 10
225.0383295816
 20
176.473491647
 30
0.0
 11
226.801725329
 21
175.4555049505
 31
0.0
  0
LINE
  5
340
330
1F
100
AcDbEntity
  8
0
  6
Continuous
 62
     7
370
     0
100
AcDbLine
 10
224.5974806448
 20
176.2189949729
 30
0.0
 11
225.0383295816
 21
176.473491647
 31
0.0
  0
LINE
  5
341
330
1F
100
AcDbEntity
  8
0
  6
Continuous
 62
     7
370
     0
100
AcDbLine
 10
225.1852792272
 20
175.8796660741
 30
0.0
 11
224.5974806448
 21
176.2189949729
 31
0.0
  0
LINE
  5
342
330
1F
100
AcDbEntity
  8
0
  6
Continuous
 62
     7
370
     0
100
AcDbLine
 10
266.2125146258
 20
161.2217263966
 30
0.0
 11
229.1601192916
 21
182.6116189263
 31
0.0
  0
ARC
  5
343
330
1F
100
AcDbEntity
  8
0
  6
Continuous
 62
     7
370
     0
100
AcDbCircle
 10
266.1660365177
 20
161.0992651798
 30
0.0
 40
0.1309845950503095
100
AcDbArc
 50
290.7834207995
 51
69.2165792005
  0
LINE
  5
344
330
1F
100
AcDbEntity
  8
0
  6
Continuous
 62
     7
370
     0
100
AcDbLine
 10
228.7358552229
 20
182.6116189263
 30
0.0
 11
214.3815875648
 21
174.3250765913
 31
0.0
  0
ARC
  5
345
330
1F
100
AcDbEntity
  8
0
  6
Continuous
 62
     7
370
     0
100
AcDbCircle
 10
228.9479872572
 20
182.2022056008
 30
0.0
 40
0.4611065723737033
100
AcDbArc
 50
62.6096722366
 51
117.3903277634
  0
LINE
  5
346
330
1F
100
AcDbEntity
  8
0
  6
Continuous
 62
     7
370
     0
100
AcDbLine
 10
226.3265881415
 20
174.4290350315
 30
0.0
 11
225.5673483058
 21
173.9907352039
 31
0.0
  0
LINE
  5
347
330
1F
100
AcDbEntity
  8
0
  6
Continuous
 62
     7
370
     0
100
AcDbLine
 10
226.9633699392
 20
174.0614287245
 30
0.0
 11
226.3265881415
 21
174.4290350315
 31
0.0
  0
LINE
  5
348
330
1F
100
AcDbEntity
  8
0
  6
Continuous
 62
     7
370
     0
100
AcDbLine
 10
226.2041301035
 20
173.6231288968
 30
0.0
 11
226.9633699392
 21
174.0614287245
 31
0.0
  0
LINE
  5
349
330
1F
100
AcDbEntity
  8
0
  6
Continuous
 62
     7
370
     0
100
AcDbLine
 10
226.791928686
 20
173.2837999979
 30
0.0
 11
226.2041301035
 21
173.6231288968
 31
0.0
  0
LINE
  5
34A
330
1F
100
AcDbEntity
  8
0
  6
Continuous
 62
     7
370
     0
100
AcDbLine
 10
228.6777824714
 20
174.3724802151
 30
0.0
 11
226.791928686
 21
173.2837999979
 31
0.0
  0
LINE
  5
34B
330
1F
100
AcDbEntity
  8
0
  6
Continuous
 62
     7
370
     0
100
AcDbLine
 10
228.0899838889
 20
174.7118091139
 30
0.0
 11
228.6777824714
 21
174.3724802151
 31
0.0
  0
LINE
  5
34C
330
1F
100
AcDbEntity
  8
0
  6
Continuous
 62
     7
370
     0
100
AcDbLine
 10
227.4287104837
 20
174.3300641027
 30
0.0
 11
228.0899838889
 21
174.7118091139
 31
0.0
  0
LINE
  5
34D
330
1F
100
AcDbEntity
  8
0
  6
Continuous
 62
     7
370
     0
100
AcDbLine
 10
226.791928686
 20
174.6976704098
 30
0.0
 11
227.4287104837
 21
174.3300641027
 31
0.0
  0
LINE
  5
34E
330
1F
100
AcDbEntity
  8
0
  6
Continuous
 62
     7
370
     0
100
AcDbLine
 10
227.4532020913
 20
175.079415421
 30
0.0
 11
226.791928686
 21
174.6976704098
 31
0.0
  0
LINE
  5
34F
330
1F
100
AcDbEntity
  8
0
  6
Continuous
 62
     7
370
     0
100
AcDbLine
 10
226.8654035088
 20
175.4187443198
 30
0.0
 11
227.4532020913
 21
175.079415421
 31
0.0
  0
LINE
  5
350
330
1F
100
AcDbEntity
  8
0
  6
Continuous
 62
     7
370
     0
100
AcDbLine
 10
224.9795497234
 20
174.3300641027
 30
0.0
 11
226.8654035088
 21
175.4187443198
 31
0.0
  0
LINE
  5
351
330
1F
100
AcDbEntity
  8
0
  6
Continuous
 62
     7
370
     0
100
AcDbLine
 10
225.5673483058
 20
173.9907352039
 30
0.0
 11
224.9795497234
 21
174.3300641027
 31
0.0
  0
LINE
  5
352
330
1F
100
AcDbEntity
  8
0
  6
Continuous
 62
     7
370
     0
100
AcDbLine
 10
230.3752804871
 20
172.0917746904
 30
0.0
 11
230.3236185023
 21
172.1215985194
 31
0.0
  0
SPLINE
  5
353
330
1F
100
AcDbEntity
  8
0
  6
Continuous
 62
     7
370
     0
100
AcDbSpline
210
0.0
220
0.0
230
1.0
 70
     8
 71
     3
 72
     9
 73
     5
 74
     0
 42
0.000000001
 43
0.00000001
 40
0.0
 40
0.0
 40
0.0
 40
0.0
 40
0.5595454497439447
 40
1.0
 40
1.0
 40
1.0
 40
1.0
 10
230.4751603243639
 20
171.9841879887604
 30
0.0
 10
230.4642513964608
 20
172.0067505753083
 30
0.0
 10
230.4447553431765
 20
172.0470736385346
 30
0.0
 10
230.3965241400082
 20
172.0781062399232
 30
0.0
 10
230.3752804871083
 20
172.0917746904112
 30
0.0
  0
SPLINE
  5
354
330
1F
100
AcDbEntity
  8
0
  6
Continuous
 62
     7
370
     0
100
AcDbSpline
210
0.0
220
0.0
230
1.0
 70
     8
 71
     3
 72
     9
 73
     5
 74
     0
 42
0.000000001
 43
0.00000001
 40
0.0
 40
0.0
 40
0.0
 40
0.0
 40
0.5606896493157825
 40
1.0
 40
1.0
 40
1.0
 40
1.0
 10
230.4365095061156
 20
171.8399290233024
 30
0.0
 10
230.4505079586948
 20
171.866334422336
 30
0.0
 10
230.4754744487955
 20
171.9134289229492
 30
0.0
 10
230.4752562023058
 20
171.962590707812
 30
0.0
 10
230.4751603243639
 20
171.9841879887604
 30
0.0
  0
LINE
  5
355
330
1F
100
AcDbEntity
  8
0
  6
Continuous
 62
     7
370
     0
100
AcDbLine
 10
230.1747554499
 20
171.330935675
 30
0.0
 11
230.4365095061
 21
171.8399290233
 31
0.0
  0
LINE
  5
356
330
1F
100
AcDbEntity
  8
0
  6
Continuous
 62
     7
370
     0
100
AcDbLine
 10
230.837942262
 20
170.9480860776
 30
0.0
 11
230.1747554499
 21
171.330935675
 31
0.0
  0
LINE
  5
357
330
1F
100
AcDbEntity
  8
0
  6
Continuous
 62
     7
370
     0
100
AcDbLine
 10
231.0843890635
 20
171.4265928451
 30
0.0
 11
230.837942262
 21
170.9480860776
 31
0.0
  0
SPLINE
  5
358
330
1F
100
AcDbEntity
  8
0
  6
Continuous
 62
     7
370
     0
100
AcDbSpline
210
0.0
220
0.0
230
1.0
 70
     8
 71
     3
 72
     9
 73
     5
 74
     0
 42
0.000000001
 43
0.00000001
 40
0.0
 40
0.0
 40
0.0
 40
0.0
 40
0.5597699036669529
 40
1.0
 40
1.0
 40
1.0
 40
1.0
 10
231.1306935091108
 20
171.6534748627413
 30
0.0
 10
231.1296477396273
 20
171.6105861476195
 30
0.0
 10
231.1277795264979
 20
171.5339676748491
 30
0.0
 10
231.0976520745568
 20
171.4594137337595
 30
0.0
 10
231.0843890634865
 20
171.4265928450916
 30
0.0
  0
SPLINE
  5
359
330
1F
100
AcDbEntity
  8
0
  6
Continuous
 62
     7
370
     0
100
AcDbSpline
210
0.0
220
0.0
230
1.0
 70
     8
 71
     3
 72
     9
 73
     5
 74
     0
 42
0.000000001
 43
0.00000001
 40
0.0
 40
0.0
 40
0.0
 40
0.0
 40
0.5601696408922157
 40
1.0
 40
1.0
 40
1.0
 40
1.0
 10
231.0510957844013
 20
171.7811650343104
 30
0.0
 10
231.0704177444053
 20
171.758222618335
 30
0.0
 10
231.1049107954268
 20
171.7172664252453
 30
0.0
 10
231.1228175672356
 20
171.6729615096693
 30
0.0
 10
231.1306935091108
 20
171.6534748627413
 30
0.0
  0
SPLINE
  5
35A
330
1F
100
AcDbEntity
  8
0
  6
Continuous
 62
     7
370
     0
100
AcDbSpline
210
0.0
220
0.0
230
1.0
 70
     8
 71
     3
 72
     9
 73
     5
 74
     0
 42
0.000000001
 43
0.00000001
 40
0.0
 40
0.0
 40
0.0
 40
0.0
 40
0.559644919650231
 40
1.0
 40
1.0
 40
1.0
 40
1.0
 10
231.336193404154
 20
171.7031812444075
 30
0.0
 10
231.2803440915099
 20
171.7145531650566
 30
0.0
 10
231.1805498993658
 20
171.7348730504874
 30
0.0
 10
231.0906733704942
 20
171.7670123364555
 30
0.0
 10
231.0510957844013
 20
171.7811650343104
 30
0.0
  0
SPLINE
  5
35B
330
1F
100
AcDbEntity
  8
0
  6
Continuous
 62
     7
370
     0
100
AcDbSpline
210
0.0
220
0.0
230
1.0
 70
     8
 71
     3
 72
    11
 73
     7
 74
     0
 42
0.000000001
 43
0.00000001
 40
0.0
 40
0.0
 40
0.0
 40
0.0
 40
0.2800228899473977
 40
0.5596118807903429
 40
0.7797875303814845
 40
1.0
 40
1.0
 40
1.0
 40
1.0
 10
232.0510422010641
 20
171.8180582153693
 30
0.0
 10
231.9963657624677
 20
171.7900458565874
 30
0.0
 10
231.8870976071266
 20
171.7340645445371
 30
0.0
 10
231.6927318437939
 20
171.6935223581369
 30
0.0
 10
231.5048739364915
 20
171.6839566583554
 30
0.0
 10
231.3924233821934
 20
171.6967726918819
 30
0.0
 10
231.336193404154
 20
171.7031812444075
 30
0.0
  0
SPLINE
  5
35C
330
1F
100
AcDbEntity
  8
0
  6
Continuous
 62
     7
370
     0
100
AcDbSpline
210
0.0
220
0.0
230
1.0
 70
     8
 71
     3
 72
    12
 73
     8
 74
     0
 42
0.000000001
 43
0.00000001
 40
0.0
 40
0.0
 40
0.0
 40
0.0
 40
0.1875852658663892
 40
0.3749963299722575
 40
0.5612881976150963
 40
0.7803241467922668
 40
1.0
 40
1.0
 40
1.0
 40
1.0
 10
231.8409501295953
 20
172.546422394718
 30
0.0
 10
231.904286054718
 20
172.5084404873724
 30
0.0
 10
232.030899087819
 20
172.4325119447219
 30
0.0
 10
232.1999521328036
 20
172.307196656527
 30
0.0
 10
232.3032331293906
 20
172.1473588485035
 30
0.0
 10
232.2591496955186
 20
171.9623709196441
 30
0.0
 10
232.1204787875719
 20
171.8662092038804
 30
0.0
 10
232.0510422010641
 20
171.8180582153693
 30
0.0
  0
LINE
  5
35D
330
1F
100
AcDbEntity
  8
0
  6
Continuous
 62
     7
370
     0
100
AcDbLine
 10
230.8624338696
 20
173.1113078077
 30
0.0
 11
231.8409501296
 21
172.5464223947
 31
0.0
  0
LINE
  5
35E
330
1F
100
AcDbEntity
  8
0
  6
Continuous
 62
     7
370
     0
100
AcDbLine
 10
228.9765800842
 20
172.0226275906
 30
0.0
 11
230.8624338696
 21
173.1113078077
 31
0.0
  0
LINE
  5
35F
330
1F
100
AcDbEntity
  8
0
  6
Continuous
 62
     7
370
     0
100
AcDbLine
 10
229.5643786666
 20
171.6832986917
 30
0.0
 11
228.9765800842
 21
172.0226275906
 31
0.0
  0
LINE
  5
360
330
1F
100
AcDbEntity
  8
0
  6
Continuous
 62
     7
370
     0
100
AcDbLine
 10
230.3236185023
 20
172.1215985194
 30
0.0
 11
229.5643786666
 21
171.6832986917
 31
0.0
  0
LINE
  5
361
330
1F
100
AcDbEntity
  8
0
  6
Continuous
 62
     7
370
     0
100
AcDbLine
 10
223.2101670149
 20
173.2525923935
 30
0.0
 11
222.7529272934
 21
173.2503027874
 31
0.0
  0
LINE
  5
362
330
1F
100
AcDbEntity
  8
0
  6
Continuous
 62
     7
370
     0
100
AcDbLine
 10
222.9523676676
 20
172.6429030023
 30
0.0
 11
223.2101670149
 21
173.2525923935
 31
0.0
  0
LINE
  5
363
330
1F
100
AcDbEntity
  8
0
  6
Continuous
 62
     7
370
     0
100
AcDbLine
 10
223.3147032338
 20
172.4337311323
 30
0.0
 11
222.9523676676
 21
172.6429030023
 31
0.0
  0
LINE
  5
364
330
1F
100
AcDbEntity
  8
0
  6
Continuous
 62
     7
370
     0
100
AcDbLine
 10
223.6268954104
 20
173.2550455428
 30
0.0
 11
223.3147032338
 21
172.4337311323
 31
0.0
  0
LINE
  5
365
330
1F
100
AcDbEntity
  8
0
  6
Continuous
 62
     7
370
     0
100
AcDbLine
 10
224.710785853
 20
173.2606060148
 30
0.0
 11
223.6268954104
 21
173.2550455428
 31
0.0
  0
LINE
  5
366
330
1F
100
AcDbEntity
  8
0
  6
Continuous
 62
     7
370
     0
100
AcDbLine
 10
224.3371184474
 20
173.4763196164
 30
0.0
 11
224.710785853
 21
173.2606060148
 31
0.0
  0
LINE
  5
367
330
1F
100
AcDbEntity
  8
0
  6
Continuous
 62
     7
370
     0
100
AcDbLine
 10
223.107613868
 20
173.4550589885
 30
0.0
 11
224.3371184474
 21
173.4763196164
 31
0.0
  0
LINE
  5
368
330
1F
100
AcDbEntity
  8
0
  6
Continuous
 62
     7
370
     0
100
AcDbLine
 10
223.7407803968
 20
173.8205782453
 30
0.0
 11
223.107613868
 21
173.4550589885
 31
0.0
  0
LINE
  5
369
330
1F
100
AcDbEntity
  8
0
  6
Continuous
 62
     7
370
     0
100
AcDbLine
 10
223.4688162502
 20
173.9775798053
 30
0.0
 11
223.7407803968
 21
173.8205782453
 31
0.0
  0
LINE
  5
36A
330
1F
100
AcDbEntity
  8
0
  6
Continuous
 62
     7
370
     0
100
AcDbLine
 10
222.0546026878
 20
173.1611716934
 30
0.0
 11
223.4688162502
 21
173.9775798053
 31
0.0
  0
LINE
  5
36B
330
1F
100
AcDbEntity
  8
0
  6
Continuous
 62
     7
370
     0
100
AcDbLine
 10
222.3265668344
 20
173.0041701335
 30
0.0
 11
222.0546026878
 21
173.1611716934
 31
0.0
  0
LINE
  5
36C
330
1F
100
AcDbEntity
  8
0
  6
Continuous
 62
     7
370
     0
100
AcDbLine
 10
222.7529272934
 20
173.2503027874
 30
0.0
 11
222.3265668344
 21
173.0041701335
 31
0.0
  0
LINE
  5
36D
330
1F
100
AcDbEntity
  8
0
  6
Continuous
 62
     7
370
     0
100
AcDbLine
 10
226.0252792283
 20
171.5597557818
 30
0.0
 11
225.4269581058
 21
171.9051592137
 31
0.0
  0
LINE
  5
36E
330
1F
100
AcDbEntity
  8
0
  6
Continuous
 62
     7
370
     0
100
AcDbLine
 10
226.2609814887
 20
171.6958238004
 30
0.0
 11
226.0252792283
 21
171.5597557818
 31
0.0
  0
LINE
  5
36F
330
1F
100
AcDbEntity
  8
0
  6
Continuous
 62
     7
370
     0
100
AcDbLine
 10
225.6626603662
 20
172.0412272324
 30
0.0
 11
226.2609814887
 21
171.6958238004
 31
0.0
  0
LINE
  5
370
330
1F
100
AcDbEntity
  8
0
  6
Continuous
 62
     7
370
     0
100
AcDbLine
 10
226.0071482852
 20
172.240095875
 30
0.0
 11
225.6626603662
 21
172.0412272324
 31
0.0
  0
LINE
  5
371
330
1F
100
AcDbEntity
  8
0
  6
Continuous
 62
     7
370
     0
100
AcDbLine
 10
226.6961241233
 20
171.8423585897
 30
0.0
 11
226.0071482852
 21
172.240095875
 31
0.0
  0
LINE
  5
372
330
1F
100
AcDbEntity
  8
0
  6
Continuous
 62
     7
370
     0
100
AcDbLine
 10
226.9318263837
 20
171.9784266084
 30
0.0
 11
226.6961241233
 21
171.8423585897
 31
0.0
  0
LINE
  5
373
330
1F
100
AcDbEntity
  8
0
  6
Continuous
 62
     7
370
     0
100
AcDbLine
 10
225.970886399
 20
172.5331654536
 30
0.0
 11
226.9318263837
 21
171.9784266084
 31
0.0
  0
LINE
  5
374
330
1F
100
AcDbEntity
  8
0
  6
Continuous
 62
     7
370
     0
100
AcDbLine
 10
224.5566728366
 20
171.7167573418
 30
0.0
 11
225.970886399
 21
172.5331654536
 31
0.0
  0
LINE
  5
375
330
1F
100
AcDbEntity
  8
0
  6
Continuous
 62
     7
370
     0
100
AcDbLine
 10
224.8286369832
 20
171.5597557818
 30
0.0
 11
224.5566728366
 21
171.7167573418
 31
0.0
  0
LINE
  5
376
330
1F
100
AcDbEntity
  8
0
  6
Continuous
 62
     7
370
     0
100
AcDbLine
 10
225.4269581058
 20
171.9051592137
 30
0.0
 11
224.8286369832
 21
171.5597557818
 31
0.0
  0
LINE
  5
377
330
1F
100
AcDbEntity
  8
0
  6
Continuous
 62
     7
370
     0
100
AcDbLine
 10
228.5273493771
 20
170.1153414301
 30
0.0
 11
227.9290282546
 21
170.460744862
 31
0.0
  0
LINE
  5
378
330
1F
100
AcDbEntity
  8
0
  6
Continuous
 62
     7
370
     0
100
AcDbLine
 10
228.7630516375
 20
170.2514094487
 30
0.0
 11
228.5273493771
 21
170.1153414301
 31
0.0
  0
LINE
  5
379
330
1F
100
AcDbEntity
  8
0
  6
Continuous
 62
     7
370
     0
100
AcDbLine
 10
228.164730515
 20
170.5968128807
 30
0.0
 11
228.7630516375
 21
170.2514094487
 31
0.0
  0
LINE
  5
37A
330
1F
100
AcDbEntity
  8
0
  6
Continuous
 62
     7
370
     0
100
AcDbLine
 10
228.509218434
 20
170.7956815233
 30
0.0
 11
228.164730515
 21
170.5968128807
 31
0.0
  0
LINE
  5
37B
330
1F
100
AcDbEntity
  8
0
  6
Continuous
 62
     7
370
     0
100
AcDbLine
 10
229.1981942721
 20
170.397944238
 30
0.0
 11
228.509218434
 21
170.7956815233
 31
0.0
  0
LINE
  5
37C
330
1F
100
AcDbEntity
  8
0
  6
Continuous
 62
     7
370
     0
100
AcDbLine
 10
229.4338965325
 20
170.5340122567
 30
0.0
 11
229.1981942721
 21
170.397944238
 31
0.0
  0
LINE
  5
37D
330
1F
100
AcDbEntity
  8
0
  6
Continuous
 62
     7
370
     0
100
AcDbLine
 10
228.4729565478
 20
171.0887511019
 30
0.0
 11
229.4338965325
 21
170.5340122567
 31
0.0
  0
LINE
  5
37E
330
1F
100
AcDbEntity
  8
0
  6
Continuous
 62
     7
370
     0
100
AcDbLine
 10
227.0587429854
 20
170.2723429901
 30
0.0
 11
228.4729565478
 21
171.0887511019
 31
0.0
  0
LINE
  5
37F
330
1F
100
AcDbEntity
  8
0
  6
Continuous
 62
     7
370
     0
100
AcDbLine
 10
227.3307071321
 20
170.1153414301
 30
0.0
 11
227.0587429854
 21
170.2723429901
 31
0.0
  0
LINE
  5
380
330
1F
100
AcDbEntity
  8
0
  6
Continuous
 62
     7
370
     0
100
AcDbLine
 10
227.9290282546
 20
170.460744862
 30
0.0
 11
227.3307071321
 21
170.1153414301
 31
0.0
  0
LINE
  5
381
330
1F
100
AcDbEntity
  8
0
  6
Continuous
 62
     7
370
     0
100
AcDbLine
 10
232.1744297902
 20
170.2682639256
 30
0.0
 11
232.404242336
 21
170.4009318844
 31
0.0
  0
LINE
  5
382
330
1F
100
AcDbEntity
  8
0
  6
Continuous
 62
     7
370
     0
100
AcDbLine
 10
232.404242336
 20
170.4009318844
 30
0.0
 11
231.5355919339
 21
170.9023930876
 31
0.0
  0
LINE
  5
383
330
1F
100
AcDbEntity
  8
0
  6
Continuous
 62
     7
370
     0
100
AcDbLine
 10
231.5355919339
 20
170.9023930876
 30
0.0
 11
233.1660317381
 21
171.8436259519
 31
0.0
  0
LINE
  5
384
330
1F
100
AcDbEntity
  8
0
  6
Continuous
 62
     7
370
     0
100
AcDbLine
 10
233.1660317381
 20
171.8436259519
 30
0.0
 11
232.8414009727
 21
172.0310313037
 31
0.0
  0
LINE
  5
385
330
1F
100
AcDbEntity
  8
0
  6
Continuous
 62
     7
370
     0
100
AcDbLine
 10
232.8414009727
 20
172.0310313037
 30
0.0
 11
230.9555471873
 21
170.9423510866
 31
0.0
  0
LINE
  5
386
330
1F
100
AcDbEntity
  8
0
  6
Continuous
 62
     7
370
     0
100
AcDbLine
 10
230.9555471873
 20
170.9423510866
 30
0.0
 11
232.1415423775
 21
170.2576906367
 31
0.0
  0
LINE
  5
387
330
1F
100
AcDbEntity
  8
0
  6
Continuous
 62
     7
370
     0
100
AcDbLine
 10
232.1415423775
 20
170.2576906367
 30
0.0
 11
232.469411355
 21
170.0684159048
 31
0.0
  0
LINE
  5
388
330
1F
100
AcDbEntity
  8
0
  6
Continuous
 62
     7
370
     0
100
AcDbLine
 10
232.469411355
 20
170.0684159048
 30
0.0
 11
233.1878896699
 21
170.3097996061
 31
0.0
  0
LINE
  5
389
330
1F
100
AcDbEntity
  8
0
  6
Continuous
 62
     7
370
     0
100
AcDbLine
 10
233.1878896699
 20
170.3097996061
 30
0.0
 11
233.5950948445
 21
170.0747250625
 31
0.0
  0
LINE
  5
38A
330
1F
100
AcDbEntity
  8
0
  6
Continuous
 62
     7
370
     0
100
AcDbLine
 10
233.5950948445
 20
170.0747250625
 30
0.0
 11
233.176960704
 21
169.6599563599
 31
0.0
  0
LINE
  5
38B
330
1F
100
AcDbEntity
  8
0
  6
Continuous
 62
     7
370
     0
100
AcDbLine
 10
233.176960704
 20
169.6599563599
 30
0.0
 11
233.5064487876
 21
169.469746938
 31
0.0
  0
LINE
  5
38C
330
1F
100
AcDbEntity
  8
0
  6
Continuous
 62
     7
370
     0
100
AcDbLine
 10
233.5064487876
 20
169.469746938
 30
0.0
 11
234.869331315
 21
170.885101322
 31
0.0
  0
LINE
  5
38D
330
1F
100
AcDbEntity
  8
0
  6
Continuous
 62
     7
370
     0
100
AcDbLine
 10
234.869331315
 20
170.885101322
 30
0.0
 11
234.5916546255
 21
171.0454006628
 31
0.0
  0
LINE
  5
38E
330
1F
100
AcDbEntity
  8
0
  6
Continuous
 62
     7
370
     0
100
AcDbLine
 10
234.5916546255
 20
171.0454006628
 30
0.0
 11
232.1744297902
 21
170.2682639256
 31
0.0
  0
SPLINE
  5
38F
330
1F
100
AcDbEntity
  8
0
  6
Continuous
 62
     7
370
     0
100
AcDbSpline
210
0.0
220
0.0
230
1.0
 70
     8
 71
     3
 72
    11
 73
     7
 74
     0
 42
0.000000001
 43
0.00000001
 40
0.0
 40
0.0
 40
0.0
 40
0.0
 40
0.2786856029939987
 40
0.5585093893307828
 40
0.7789953674249944
 40
1.0
 40
1.0
 40
1.0
 40
1.0
 10
235.3862309252635
 20
169.5202201998412
 30
0.0
 10
235.4509901934852
 20
169.5043603213393
 30
0.0
 10
235.5807732140627
 20
169.472575790808
 30
0.0
 10
235.7835312510321
 20
169.480166040155
 30
0.0
 10
235.9474477404777
 20
169.527586410849
 30
0.0
 10
236.0287798532524
 20
169.570950940669
 30
0.0
 10
236.0694936833224
 20
169.5926586774771
 30
0.0
  0
SPLINE
  5
390
330
1F
100
AcDbEntity
  8
0
  6
Continuous
 62
     7
370
     0
100
AcDbSpline
210
0.0
220
0.0
230
1.0
 70
     8
 71
     3
 72
    12
 73
     8
 74
     0
 42
0.000000001
 43
0.00000001
 40
0.0
 40
0.0
 40
0.0
 40
0.0
 40
0.1865623225422312
 40
0.3731876683782059
 40
0.5597585113633196
 40
0.7795356426662743
 40
0.9999999999999999
 40
0.9999999999999999
 40
0.9999999999999999
 40
0.9999999999999999
 10
236.0694936833224
 20
169.5926586774771
 30
0.0
 10
236.1186270788431
 20
169.6267205032257
 30
0.0
 10
236.2169104678147
 20
169.6948556612716
 30
0.0
 10
236.2746757891177
 20
169.8255809221447
 30
0.0
 10
236.2712565130437
 20
169.9669766869888
 30
0.0
 10
236.160535637765
 20
170.104664589168
 30
0.0
 10
236.0397270877198
 20
170.1812496912759
 30
0.0
 10
235.9792285203798
 20
170.2196020177907
 30
0.0
  0
LINE
  5
391
330
1F
100
AcDbEntity
  8
0
  6
Continuous
 62
     7
370
     0
100
AcDbLine
 10
235.9792285204
 20
170.2196020178
 30
0.0
 11
235.3955407851
 21
170.5565577751
 31
0.0
  0
LINE
  5
392
330
1F
100
AcDbEntity
  8
0
  6
Continuous
 62
     7
370
     0
100
AcDbLine
 10
235.3955407851
 20
170.5565577751
 30
0.0
 11
233.5096869997
 21
169.4678775579
 31
0.0
  0
LINE
  5
393
330
1F
100
AcDbEntity
  8
0
  6
Continuous
 62
     7
370
     0
100
AcDbLine
 10
233.5096869997
 20
169.4678775579
 30
0.0
 11
234.0719215796
 21
169.1433064436
 31
0.0
  0
SPLINE
  5
394
330
1F
100
AcDbEntity
  8
0
  6
Continuous
 62
     7
370
     0
100
AcDbSpline
210
0.0
220
0.0
230
1.0
 70
     8
 71
     3
 72
    13
 73
     9
 74
     0
 42
0.000000001
 43
0.00000001
 40
0.0
 40
0.0
 40
0.0
 40
0.0
 40
0.1869813960432617
 40
0.3737245465270332
 40
0.560036308288509
 40
0.706392265049357
 40
0.8530951528835833
 40
1.0
 40
1.0
 40
1.0
 40
1.0
 10
234.0719215796371
 20
169.1433064436258
 30
0.0
 10
234.1368591149842
 20
169.1085618459744
 30
0.0
 10
234.2666514444018
 20
169.039116921098
 30
0.0
 10
234.5001510757154
 20
168.9653731063441
 30
0.0
 10
234.7423831918294
 20
168.926945847444
 30
0.0
 10
234.970739422297
 20
168.9506525822448
 30
0.0
 10
235.154661965319
 20
169.0096605901472
 30
0.0
 10
235.2566667878071
 20
169.064006052286
 30
0.0
 10
235.3077042812686
 20
169.0911974742296
 30
0.0
  0
SPLINE
  5
395
330
1F
100
AcDbEntity
  8
0
  6
Continuous
 62
     7
370
     0
100
AcDbSpline
210
0.0
220
0.0
230
1.0
 70
     8
 71
     3
 72
    11
 73
     7
 74
     0
 42
0.000000001
 43
0.00000001
 40
0.0
 40
0.0
 40
0.0
 40
0.0
 40
0.279928309980419
 40
0.5591761656877902
 40
0.7799541342269253
 40
1.0
 40
1.0
 40
1.0
 40
1.0
 10
235.3077042812686
 20
169.0911974742296
 30
0.0
 10
235.3574051938732
 20
169.1249073832158
 30
0.0
 10
235.4566862052986
 20
169.1922452585949
 30
0.0
 10
235.4898531797639
 20
169.3162143018523
 30
0.0
 10
235.4733884113374
 20
169.4294421688122
 30
0.0
 10
235.415251236649
 20
169.489994377068
 30
0.0
 10
235.3862309252635
 20
169.5202201998412
 30
0.0
  0
SPLINE
  5
396
330
1F
100
AcDbEntity
  8
0
  6
Continuous
 62
     7
370
     0
100
AcDbSpline
210
0.0
220
0.0
230
1.0
 70
     8
 71
     3
 72
    11
 73
     7
 74
     0
 42
0.000000001
 43
0.00000001
 40
0.0
 40
0.0
 40
0.0
 40
0.0
 40
0.5010809129318987
 40
0.6263148260377895
 40
0.7513756289335094
 40
1.0
 40
1.0
 40
1.0
 40
1.0
 10
236.5706070094344
 20
168.9720244948931
 30
0.0
 10
236.5251219346616
 20
169.0333502922284
 30
0.0
 10
236.4682688876619
 20
169.1100030943974
 30
0.0
 10
236.4368267136641
 20
169.2087238025269
 30
0.0
 10
236.455814976732
 20
169.2759111523662
 30
0.0
 10
236.510647913158
 20
169.315412756965
 30
0.0
 10
236.547129971539
 20
169.3416944033449
 30
0.0
  0
SPLINE
  5
397
330
1F
100
AcDbEntity
  8
0
  6
Continuous
 62
     7
370
     0
100
AcDbSpline
210
0.0
220
0.0
230
1.0
 70
     8
 71
     3
 72
    11
 73
     7
 74
     0
 42
0.000000001
 43
0.00000001
 40
0.0
 40
0.0
 40
0.0
 40
0.0
 40
0.2805514694372312
 40
0.5589620117629169
 40
0.7792543216260289
 40
1.0
 40
1.0
 40
1.0
 40
1.0
 10
236.547129971539
 20
169.3416944033449
 30
0.0
 10
236.5839191665705
 20
169.3604559383425
 30
0.0
 10
236.6572168131921
 20
169.3978358364663
 30
0.0
 10
236.7979155973314
 20
169.4111552178762
 30
0.0
 10
236.9191243694268
 20
169.3878590273981
 30
0.0
 10
236.9768495191532
 20
169.3588061647988
 30
0.0
 10
237.00574176353
 20
169.3442648009384
 30
0.0
  0
SPLINE
  5
398
330
1F
100
AcDbEntity
  8
0
  6
Continuous
 62
     7
370
     0
100
AcDbSpline
210
0.0
220
0.0
230
1.0
 70
     8
 71
     3
 72
    12
 73
     8
 74
     0
 42
0.000000001
 43
0.00000001
 40
0.0
 40
0.0
 40
0.0
 40
0.0
 40
0.1867170237301579
 40
0.3729820038852835
 40
0.5596412962309264
 40
0.7795263698665906
 40
1.0
 40
1.0
 40
1.0
 40
1.0
 10
237.00574176353
 20
169.3442648009384
 30
0.0
 10
237.0323163700958
 20
169.3266542350561
 30
0.0
 10
237.0854012458687
 20
169.291475738628
 30
0.0
 10
237.1224854272367
 20
169.222828728793
 30
0.0
 10
237.1096059573394
 20
169.1482600385541
 30
0.0
 10
237.0513012080662
 20
169.0757823859084
 30
0.0
 10
236.9823702601993
 20
169.0377837219283
 30
0.0
 10
236.9478587218223
 20
169.0187589965937
 30
0.0
  0
LINE
  5
399
330
1F
100
AcDbEntity
  8
0
  6
Continuous
 62
     7
370
     0
100
AcDbLine
 10
236.9478587218
 20
169.0187589966
 30
0.0
 11
237.2724894872
 21
168.8313536448
 31
0.0
  0
SPLINE
  5
39A
330
1F
100
AcDbEntity
  8
0
  6
Continuous
 62
     7
370
     0
100
AcDbSpline
210
0.0
220
0.0
230
1.0
 70
     8
 71
     3
 72
    12
 73
     8
 74
     0
 42
0.000000001
 43
0.00000001
 40
0.0
 40
0.0
 40
0.0
 40
0.0
 40
0.1869315506986091
 40
0.3738403711573556
 40
0.5604416470942146
 40
0.7796108489997506
 40
1.0
 40
1.0
 40
1.0
 40
1.0
 10
237.2724894872034
 20
168.8313536447743
 30
0.0
 10
237.3262194294407
 20
168.8669549077007
 30
0.0
 10
237.4336727805373
 20
168.9381531045614
 30
0.0
 10
237.523837853046
 20
169.0707968163898
 30
0.0
 10
237.563736654723
 20
169.2207374379319
 30
0.0
 10
237.465231093009
 20
169.3749550215318
 30
0.0
 10
237.336585852016
 20
169.4569233832745
 30
0.0
 10
237.272084710688
 20
169.4980213115334
 30
0.0
  0
SPLINE
  5
39B
330
1F
100
AcDbEntity
  8
0
  6
Continuous
 62
     7
370
     0
100
AcDbSpline
210
0.0
220
0.0
230
1.0
 70
     8
 71
     3
 72
    11
 73
     7
 74
     0
 42
0.000000001
 43
0.00000001
 40
0.0
 40
0.0
 40
0.0
 40
0.0
 40
0.2798819004322224
 40
0.5596403787790426
 40
0.7796065064277031
 40
1.0
 40
1.0
 40
1.0
 40
1.0
 10
237.272084710688
 20
169.4980213115334
 30
0.0
 10
237.183415195092
 20
169.5390997149946
 30
0.0
 10
237.0061152653083
 20
169.621238407197
 30
0.0
 10
236.6842426162424
 20
169.6490852771692
 30
0.0
 10
236.3948105005181
 20
169.6108073014981
 30
0.0
 10
236.2589318818906
 20
169.5438947162203
 30
0.0
 10
236.1909266379538
 20
169.5104059544841
 30
0.0
  0
SPLINE
  5
39C
330
1F
100
AcDbEntity
  8
0
  6
Continuous
 62
     7
370
     0
100
AcDbSpline
210
0.0
220
0.0
230
1.0
 70
     8
 71
     3
 72
    12
 73
     8
 74
     0
 42
0.000000001
 43
0.00000001
 40
0.0
 40
0.0
 40
0.0
 40
0.0
 40
0.1863566720397958
 40
0.3726264440024492
 40
0.5592752586740098
 40
0.77955595510575
 40
1.0
 40
1.0
 40
1.0
 40
1.0
 10
236.1909266379538
 20
169.5104059544841
 30
0.0
 10
236.1475272447274
 20
169.4807647714385
 30
0.0
 10
236.0607486958686
 20
169.421496227343
 30
0.0
 10
236.0069115292245
 20
169.3067304418852
 30
0.0
 10
236.016500306313
 20
169.1836341555056
 30
0.0
 10
236.0725557059712
 20
169.0575086134246
 30
0.0
 10
236.134461398818
 20
168.9738908656839
 30
0.0
 10
236.1654257174812
 20
168.9320664959391
 30
0.0
  0
SPLINE
  5
39D
330
1F
100
AcDbEntity
  8
0
  6
Continuous
 62
     7
370
     0
100
AcDbSpline
210
0.0
220
0.0
230
1.0
 70
     8
 71
     3
 72
    11
 73
     7
 74
     0
 42
0.000000001
 43
0.00000001
 40
0.0
 40
0.0
 40
0.0
 40
0.0
 40
0.280898368714262
 40
0.5615339703650368
 40
0.7815792298219225
 40
1.0
 40
1.0
 40
1.0
 40
1.0
 10
236.1654257174812
 20
168.9320664959391
 30
0.0
 10
236.1912231653841
 20
168.8941389736891
 30
0.0
 10
236.2427939289046
 20
168.8183194085822
 30
0.0
 10
236.2839957855267
 20
168.7081649059832
 30
0.0
 10
236.2860555263592
 20
168.5998912321764
 30
0.0
 10
236.2225578491116
 20
168.5463205977271
 30
0.0
 10
236.1909266379538
 20
168.5196345184313
 30
0.0
  0
SPLINE
  5
39E
330
1F
100
AcDbEntity
  8
0
  6
Continuous
 62
     7
370
     0
100
AcDbSpline
210
0.0
220
0.0
230
1.0
 70
     8
 71
     3
 72
    11
 73
     7
 74
     0
 42
0.000000001
 43
0.00000001
 40
0.0
 40
0.0
 40
0.0
 40
0.0
 40
0.279908120025554
 40
0.5590921822550255
 40
0.7790551543368889
 40
1.0
 40
1.0
 40
1.0
 40
1.0
 10
236.1909266379538
 20
168.5196345184313
 30
0.0
 10
236.1418086457839
 20
168.4967380628209
 30
0.0
 10
236.0436997183699
 20
168.4510043794539
 30
0.0
 10
235.8600977292604
 20
168.4374582528786
 30
0.0
 10
235.7081326673183
 20
168.4745303377072
 30
0.0
 10
235.635257382555
 20
168.5128277914949
 30
0.0
 10
235.5987385958683
 20
168.532019161382
 30
0.0
  0
SPLINE
  5
39F
330
1F
100
AcDbEntity
  8
0
  6
Continuous
 62
     7
370
     0
100
AcDbSpline
210
0.0
220
0.0
230
1.0
 70
     8
 71
     3
 72
    11
 73
     7
 74
     0
 42
0.000000001
 43
0.00000001
 40
0.0
 40
0.0
 40
0.0
 40
0.0
 40
0.2793427197537672
 40
0.5587533701810748
 40
0.7790294428240165
 40
1.0
 40
1.0
 40
1.0
 40
1.0
 10
235.5987385958683
 20
168.5320191613819
 30
0.0
 10
235.5625309739747
 20
168.5603633274918
 30
0.0
 10
235.4901069252038
 20
168.6170585524571
 30
0.0
 10
235.4762411022141
 20
168.7196214174708
 30
0.0
 10
235.5389517260394
 20
168.803976065168
 30
0.0
 10
235.6033323046833
 20
168.8446390123858
 30
0.0
 10
235.6355732587731
 20
168.8650024859987
 30
0.0
  0
LINE
  5
3A0
330
1F
100
AcDbEntity
  8
0
  6
Continuous
 62
     7
370
     0
100
AcDbLine
 10
235.6355732588
 20
168.865002486
 30
0.0
 11
235.7258384217
 21
168.9171114554
 31
0.0
  0
LINE
  5
3A1
330
1F
100
AcDbEntity
  8
0
  6
Continuous
 62
     7
370
     0
100
AcDbLine
 10
235.7258384217
 20
168.9171114554
 30
0.0
 11
235.4016124329
 21
169.1042831347
 31
0.0
  0
LINE
  5
3A2
330
1F
100
AcDbEntity
  8
0
  6
Continuous
 62
     7
370
     0
100
AcDbLine
 10
235.4016124329
 20
169.1042831347
 30
0.0
 11
235.300418304
 21
169.0458650076
 31
0.0
  0
SPLINE
  5
3A3
330
1F
100
AcDbEntity
  8
0
  6
Continuous
 62
     7
370
     0
100
AcDbSpline
210
0.0
220
0.0
230
1.0
 70
     8
 71
     3
 72
    12
 73
     8
 74
     0
 42
0.000000001
 43
0.00000001
 40
0.0
 40
0.0
 40
0.0
 40
0.0
 40
0.1868203161342476
 40
0.3734128875087657
 40
0.5600809420418787
 40
0.7797036431039049
 40
1.0
 40
1.0
 40
1.0
 40
1.0
 10
235.3004183039907
 20
169.0458650075801
 30
0.0
 10
235.2474553717436
 20
169.0107196167345
 30
0.0
 10
235.1415940721239
 20
168.9404716793055
 30
0.0
 10
235.0632587645251
 20
168.8058544192776
 30
0.0
 10
235.0579715618074
 20
168.6571346624859
 30
0.0
 10
235.1538743485004
 20
168.5070981615742
 30
0.0
 10
235.2801100902435
 20
168.4254555997687
 30
0.0
 10
235.3433246146271
 20
168.3845718085165
 30
0.0
  0
SPLINE
  5
3A4
330
1F
100
AcDbEntity
  8
0
  6
Continuous
 62
     7
370
     0
100
AcDbSpline
210
0.0
220
0.0
230
1.0
 70
     8
 71
     3
 72
    12
 73
     8
 74
     0
 42
0.000000001
 43
0.00000001
 40
0.0
 40
0.0
 40
0.0
 40
0.0
 40
0.187178705216765
 40
0.3740252258526398
 40
0.5606670166878654
 40
0.7801258791375612
 40
1.0
 40
1.0
 40
1.0
 40
1.0
 10
235.3433246146271
 20
168.3845718085165
 30
0.0
 10
235.405315921586
 20
168.3518101442442
 30
0.0
 10
235.5291885200172
 20
168.2863449575684
 30
0.0
 10
235.7575713658441
 20
168.2201473056557
 30
0.0
 10
236.0238198450921
 20
168.1973551564093
 30
0.0
 10
236.3091083511734
 20
168.2329977528776
 30
0.0
 10
236.4607255355277
 20
168.3075407529423
 30
0.0
 10
236.5366057821376
 20
168.3448474820709
 30
0.0
  0
SPLINE
  5
3A5
330
1F
100
AcDbEntity
  8
0
  6
Continuous
 62
     7
370
     0
100
AcDbSpline
210
0.0
220
0.0
230
1.0
 70
     8
 71
     3
 72
    12
 73
     8
 74
     0
 42
0.000000001
 43
0.00000001
 40
0.0
 40
0.0
 40
0.0
 40
0.0
 40
0.1861599336048516
 40
0.3725088255059648
 40
0.5592891599376151
 40
0.7795833160649239
 40
1.0
 40
1.0
 40
1.0
 40
1.0
 10
236.5366057821376
 20
168.344847482071
 30
0.0
 10
236.5823102866246
 20
168.37723038774
 30
0.0
 10
236.6737656871347
 20
168.4420290687647
 30
0.0
 10
236.7210925705696
 20
168.5667659468085
 30
0.0
 10
236.7137664349607
 20
168.6985052883807
 30
0.0
 10
236.6626652294316
 20
168.8353734118438
 30
0.0
 10
236.6012987698652
 20
168.9264656919563
 30
0.0
 10
236.5706070094344
 20
168.9720244948931
 30
0.0
  0
LWPOLYLINE
  5
3A6
330
1F
100
AcDbEntity
  8
0
  6
Continuous
 62
     7
370
     0
100
AcDbPolyline
 90
       16
 70
   128
 43
0.0
 10
245.9715830143
 20
150.9444594387
 10
245.9874212935
 20
150.7613036044
 10
246.0342439223
 20
150.567866071
 10
246.1100045271
 20
150.3726009869
 10
246.211392006
 20
150.1840423734
 10
246.3339752397
 20
150.0104311465
 10
246.4723967525
 20
149.8593549501
 10
246.6206068602
 20
149.7374165388
 10
246.7721280698
 20
149.6499452063
 10
246.9203381775
 20
149.6007638697
 10
247.0587596904
 20
149.5920219892
 10
247.181342924
 20
149.6241016271
 10
247.2827304029
 20
149.6956007492
 10
247.3584910077
 20
149.8033945008
 10
247.4053136365
 20
149.9427717777
 10
247.4179984028
 20
150.0314720037
  0
ARC
  5
3A7
330
1F
100
AcDbEntity
  8
0
  6
Continuous
 62
     7
370
     0
100
AcDbCircle
 10
246.4045894189
 20
151.0202686349
 30
0.0
 40
0.4395925166270558
100
AcDbArc
 50
59.3110150478
 51
189.9304919693
  0
LINE
  5
3A8
330
1F
100
AcDbEntity
  8
0
  6
Continuous
 62
     7
370
     0
100
AcDbLine
 10
251.9996683239
 20
143.7899800485
 30
0.0
 11
251.8582469677
 21
143.7083126973
 31
0.0
  0
ARC
  5
3A9
330
1F
100
AcDbEntity
  8
0
  6
Continuous
 62
     7
370
     0
100
AcDbCircle
 10
251.5822145539
 20
144.0467222564
 30
0.0
 40
0.4367091974285027
100
AcDbArc
 50
170.7859630095
 51
309.2032852357
  0
ARC
  5
3AA
330
1F
100
AcDbEntity
  8
0
  6
Continuous
 62
     7
370
     0
100
AcDbCircle
 10
214.1501663396
 20
165.690900388
 30
0.0
 40
0.479525546481696
100
AcDbArc
 50
172.7441704431
 51
235.9436491635
  0
LINE
  5
3AB
330
1F
100
AcDbEntity
  8
0
  6
Continuous
 62
     7
370
     0
100
AcDbLine
 10
266.353935982
 20
152.0765223835
 30
0.0
 11
266.2125146258
 21
151.9948550323
 31
0.0
  0
LINE
  5
3AC
330
1F
100
AcDbEntity
  8
0
  6
Continuous
 62
     7
370
     0
100
AcDbLine
 10
266.2125146258
 20
151.9948550323
 30
0.0
 11
251.8582469677
 21
143.7083126973
 31
0.0
  0
LINE
  5
3AD
330
1F
100
AcDbEntity
  8
0
  6
Continuous
 62
     7
370
     0
100
AcDbLine
 10
266.353935982
 20
153.1379590889
 30
0.0
 11
265.681844528
 21
153.5259492267
 31
0.0
  0
ARC
  5
3AE
330
1F
100
AcDbEntity
  8
0
  6
Continuous
 62
     7
370
     0
100
AcDbCircle
 10
266.2764724686
 20
152.9338570609
 30
0.0
 40
0.2183076584172164
100
AcDbArc
 50
290.7834207995
 51
69.2165792005
  0
LINE
  5
3AF
330
1F
100
AcDbEntity
  8
0
  6
Continuous
 62
     7
370
     0
100
AcDbLine
 10
266.2125146258
 20
161.2217263966
 30
0.0
 11
266.353935982
 21
161.1400590454
 31
0.0
  0
ARC
  5
3B0
330
1F
100
AcDbEntity
  8
0
  6
Continuous
 62
     7
370
     0
100
AcDbCircle
 10
266.2764724686
 20
160.9359570174
 30
0.0
 40
0.2183076584172164
100
AcDbArc
 50
290.7834207995
 51
69.2165792005
  0
ARC
  5
3B1
330
1F
100
AcDbEntity
  8
0
  6
Continuous
 62
     7
370
     0
100
AcDbCircle
 10
266.2501540602
 20
160.3076775564
 30
0.0
 40
0.2514696392467565
100
AcDbArc
 50
294.3746582936
 51
354.3052007488
  0
ARC
  5
3B2
330
1F
100
AcDbEntity
  8
0
  6
Continuous
 62
     7
370
     0
100
AcDbCircle
 10
266.2501540602
 20
152.3055775999
 30
0.0
 40
0.2514696392467565
100
AcDbArc
 50
294.3746582936
 51
354.3052007488
  0
SPLINE
  5
3B3
330
1F
100
AcDbEntity
  8
0
  6
Continuous
 62
     7
370
     0
100
AcDbSpline
210
0.0
220
0.0
230
1.0
 70
     8
 71
     3
 72
    11
 73
     7
 74
     0
 42
0.000000001
 43
0.00000001
 40
0.0
 40
0.0
 40
0.0
 40
0.0
 40
0.2804256065571081
 40
0.5581440721672348
 40
0.7788558718586491
 40
1.0
 40
1.0
 40
1.0
 40
1.0
 10
235.7448629179413
 20
169.7800640292966
 30
0.0
 10
235.7803524891889
 20
169.8030888522244
 30
0.0
 10
235.8509890264822
 20
169.8489162236533
 30
0.0
 10
235.8659274571432
 20
169.9381897713762
 30
0.0
 10
235.8163380243024
 20
170.0120904175522
 30
0.0
 10
235.7616896504685
 20
170.0480711906732
 30
0.0
 10
235.73433872854
 20
170.0660791797043
 30
0.0
  0
LINE
  5
3B4
330
1F
100
AcDbEntity
  8
0
  6
Continuous
 62
     7
370
     0
100
AcDbLine
 10
235.7343387285
 20
170.0660791797
 30
0.0
 11
235.4643527927
 21
170.2219387429
 31
0.0
  0
LINE
  5
3B5
330
1F
100
AcDbEntity
  8
0
  6
Continuous
 62
     7
370
     0
100
AcDbLine
 10
235.4643527927
 20
170.2219387429
 30
0.0
 11
234.9474531825
 21
169.9235389495
 31
0.0
  0
LINE
  5
3B6
330
1F
100
AcDbEntity
  8
0
  6
Continuous
 62
     7
370
     0
100
AcDbLine
 10
234.9474531825
 20
169.9235389495
 30
0.0
 11
235.2069149289
 21
169.7737548716
 31
0.0
  0
SPLINE
  5
3B7
330
1F
100
AcDbEntity
  8
0
  6
Continuous
 62
     7
370
     0
100
AcDbSpline
210
0.0
220
0.0
230
1.0
 70
     8
 71
     3
 72
    11
 73
     7
 74
     0
 42
0.000000001
 43
0.00000001
 40
0.0
 40
0.0
 40
0.0
 40
0.0
 40
0.2802422949783195
 40
0.5591336900081596
 40
0.7790654040455055
 40
1.0
 40
1.0
 40
1.0
 40
1.0
 10
235.2069149289246
 20
169.773754871567
 30
0.0
 10
235.251318454014
 20
169.7527706154074
 30
0.0
 10
235.3399114582734
 20
169.7109032570934
 30
0.0
 10
235.5060692438454
 20
169.6939388760471
 30
0.0
 10
235.6455292599562
 20
169.7275301471353
 30
0.0
 10
235.7117015224303
 20
169.7625261989235
 30
0.0
 10
235.7448629179413
 20
169.7800640292966
 30
0.0
  0
SPLINE
  5
3B8
330
1F
100
AcDbEntity
  8
0
  6
Continuous
 62
     7
370
     0
100
AcDbSpline
210
0.0
220
0.0
230
1.0
 70
     8
 71
     3
 72
    12
 73
     8
 74
     0
 42
0.000000001
 43
0.00000001
 40
0.0
 40
0.0
 40
0.0
 40
0.0
 40
0.1868870835274181
 40
0.3729957273126906
 40
0.5592231659237924
 40
0.7795587779389731
 40
1.0
 40
1.0
 40
1.0
 40
1.0
 10
234.9725493264861
 20
169.2846783112701
 30
0.0
 10
235.0021690764525
 20
169.3036995633055
 30
0.0
 10
235.0612852014035
 20
169.3416628382595
 30
0.0
 10
235.1080154023873
 20
169.4164829454348
 30
0.0
 10
235.0845103764267
 20
169.4981801914796
 30
0.0
 10
235.0228784187865
 20
169.5770645844466
 30
0.0
 10
234.953710881404
 20
169.6223521241081
 30
0.0
 10
234.9191188264483
 20
169.6450013193818
 30
0.0
  0
LINE
  5
3B9
330
1F
100
AcDbEntity
  8
0
  6
Continuous
 62
     7
370
     0
100
AcDbLine
 10
234.9191188264
 20
169.6450013194
 30
0.0
 11
234.6920392013
 21
169.7760915967
 31
0.0
  0
LINE
  5
3BA
330
1F
100
AcDbEntity
  8
0
  6
Continuous
 62
     7
370
     0
100
AcDbLine
 10
234.6920392013
 20
169.7760915967
 30
0.0
 11
234.0893269698
 21
169.4281532315
 31
0.0
  0
LINE
  5
3BB
330
1F
100
AcDbEntity
  8
0
  6
Continuous
 62
     7
370
     0
100
AcDbLine
 10
234.0893269698
 20
169.4281532315
 30
0.0
 11
234.2844292502
 21
169.3155230824
 31
0.0
  0
SPLINE
  5
3BC
330
1F
100
AcDbEntity
  8
0
  6
Continuous
 62
     7
370
     0
100
AcDbSpline
210
0.0
220
0.0
230
1.0
 70
     8
 71
     3
 72
    12
 73
     8
 74
     0
 42
0.000000001
 43
0.00000001
 40
0.0
 40
0.0
 40
0.0
 40
0.0
 40
0.1874533910393944
 40
0.3746252282082822
 40
0.5609240977304827
 40
0.7794695001736593
 40
1.0
 40
1.0
 40
1.0
 40
1.0
 10
234.2844292502419
 20
169.3155230823926
 30
0.0
 10
234.3208258207437
 20
169.2958130914507
 30
0.0
 10
234.3935642943164
 20
169.2564227138553
 30
0.0
 10
234.5199436294615
 20
169.2101266476967
 30
0.0
 10
234.6761637958712
 20
169.1832562481058
 30
0.0
 10
234.8433610937042
 20
169.2159154020581
 30
0.0
 10
234.9293569841187
 20
169.2616883604603
 30
0.0
 10
234.9725493264861
 20
169.2846783112702
 30
0.0
  0
LINE
  5
3BD
330
1F
100
AcDbEntity
  8
0
  6
Continuous
 62
     7
370
     0
100
AcDbLine
 10
228.6705953211
 20
169.341840443
 30
0.0
 11
229.606707084
 21
169.8822462609
 31
0.0
  0
LINE
  5
3BE
330
1F
100
AcDbEntity
  8
0
  6
Continuous
 62
     7
370
     0
100
AcDbLine
 10
229.1403260127
 20
170.0107474845
 30
0.0
 11
229.3069799308
 21
170.1069547436
 31
0.0
  0
SPLINE
  5
3BF
330
1F
100
AcDbEntity
  8
0
  6
Continuous
 62
     7
370
     0
100
AcDbSpline
210
0.0
220
0.0
230
1.0
 70
     8
 71
     3
 72
    11
 73
     7
 74
     0
 42
0.000000001
 43
0.00000001
 40
0.0
 40
0.0
 40
0.0
 40
0.0
 40
0.2799471824924077
 40
0.5602109593750819
 40
0.780164223259912
 40
1.0
 40
1.0
 40
1.0
 40
1.0
 10
229.3069799307522
 20
170.1069547435715
 30
0.0
 10
229.3754853739856
 20
170.0918445708613
 30
0.0
 10
229.5125737337773
 20
170.0616071372322
 30
0.0
 10
229.7159112217591
 20
170.0464345965467
 30
0.0
 10
229.9061474173831
 20
170.0503231075785
 30
0.0
 10
230.0140007094517
 20
170.0743420339167
 30
0.0
 10
230.0679129492887
 20
170.086348288826
 30
0.0
  0
LINE
  5
3C0
330
1F
100
AcDbEntity
  8
0
  6
Continuous
 62
     7
370
     0
100
AcDbLine
 10
230.0679129493
 20
170.0863482888
 30
0.0
 11
230.215328687
 21
170.0012469949
 31
0.0
  0
LINE
  5
3C1
330
1F
100
AcDbEntity
  8
0
  6
Continuous
 62
     7
370
     0
100
AcDbLine
 10
229.606707084
 20
169.8822462609
 30
0.0
 11
229.606707084
 21
169.9639003421
 31
0.0
  0
LINE
  5
3C2
330
1F
100
AcDbEntity
  8
0
  6
Continuous
 62
     7
370
     0
100
AcDbLine
 10
233.504424905
 20
170.4224297552
 30
0.0
 11
233.7914114544
 21
170.2567559466
 31
0.0
  0
LINE
  5
3C3
330
1F
100
AcDbEntity
  8
0
  6
Continuous
 62
     7
370
     0
100
AcDbLine
 10
233.7914114544
 20
170.2567559466
 30
0.0
 11
234.170543195
 21
170.6421099768
 31
0.0
  0
LINE
  5
3C4
330
1F
100
AcDbEntity
  8
0
  6
Continuous
 62
     7
370
     0
100
AcDbLine
 10
234.170543195
 20
170.6421099768
 30
0.0
 11
233.504424905
 21
170.4224297552
 31
0.0
  0
LINE
  5
3C5
330
1F
100
AcDbEntity
  8
0
  6
Continuous
 62
     7
370
     0
100
AcDbLine
 10
227.129465157
 20
170.2315159495
 30
0.0
 11
228.4729565478
 21
171.0070970207
 31
0.0
  0
LINE
  5
3C6
330
1F
100
AcDbEntity
  8
0
  6
Continuous
 62
     7
370
     0
100
AcDbLine
 10
228.4729565478
 20
171.0070970207
 30
0.0
 11
229.363174361
 21
170.4931852161
 31
0.0
  0
LINE
  5
3C7
330
1F
100
AcDbEntity
  8
0
  6
Continuous
 62
     7
370
     0
100
AcDbLine
 10
228.164730515
 20
170.5151587995
 30
0.0
 11
228.692329466
 21
170.2105824082
 31
0.0
  0
LINE
  5
3C8
330
1F
100
AcDbEntity
  8
0
  6
Continuous
 62
     7
370
     0
100
AcDbLine
 10
230.0679129493
 20
170.0863482888
 30
0.0
 11
230.0679129493
 21
170.16800237
 31
0.0
  0
LINE
  5
3C9
330
1F
100
AcDbEntity
  8
0
  6
Continuous
 62
     7
370
     0
100
AcDbLine
 10
229.3069799308
 20
170.1069547436
 30
0.0
 11
229.3069799308
 21
170.1886088248
 31
0.0
  0
LINE
  5
3CA
330
1F
100
AcDbEntity
  8
0
  6
Continuous
 62
     7
370
     0
100
AcDbLine
 10
228.164730515
 20
170.5151587995
 30
0.0
 11
228.164730515
 21
170.5968128807
 31
0.0
  0
LINE
  5
3CB
330
1F
100
AcDbEntity
  8
0
  6
Continuous
 62
     7
370
     0
100
AcDbLine
 10
228.4729565478
 20
171.0070970207
 30
0.0
 11
228.4729565478
 21
171.0887511019
 31
0.0
  0
LINE
  5
3CC
330
1F
100
AcDbEntity
  8
0
  6
Continuous
 62
     7
370
     0
100
AcDbLine
 10
226.1521958301
 20
171.2582995167
 30
0.0
 11
226.3921322535
 21
171.1371012114
 31
0.0
  0
SPLINE
  5
3CD
330
1F
100
AcDbEntity
  8
0
  6
Continuous
 62
     7
370
     0
100
AcDbSpline
210
0.0
220
0.0
230
1.0
 70
     8
 71
     3
 72
    10
 73
     6
 74
     0
 42
0.000000001
 43
0.00000001
 40
0.0
 40
0.0
 40
0.0
 40
0.0
 40
0.1718019868002439
 40
0.5852892718550963
 40
1.0
 40
1.0
 40
1.0
 40
1.0
 10
226.3490349186185
 20
170.9484616496942
 30
0.0
 10
226.3461907775967
 20
170.9370330728852
 30
0.0
 10
226.3365014529343
 20
170.8980985790331
 30
0.0
 10
226.3920542858416
 20
170.8345770754934
 30
0.0
 10
226.4542220895763
 20
170.7934812792763
 30
0.0
 10
226.4853519096713
 20
170.7729030270935
 30
0.0
  0
SPLINE
  5
3CE
330
1F
100
AcDbEntity
  8
0
  6
Continuous
 62
     7
370
     0
100
AcDbSpline
210
0.0
220
0.0
230
1.0
 70
     8
 71
     3
 72
    11
 73
     7
 74
     0
 42
0.000000001
 43
0.00000001
 40
0.0
 40
0.0
 40
0.0
 40
0.0
 40
0.2812281480362479
 40
0.5610076324407435
 40
0.7810985321386322
 40
1.0
 40
1.0
 40
1.0
 40
1.0
 10
226.4853519096713
 20
170.7729030270935
 30
0.0
 10
226.5227305623429
 20
170.7530033814079
 30
0.0
 10
226.5972953226115
 20
170.713306597176
 30
0.0
 10
226.7296606469473
 20
170.6812314926092
 30
0.0
 10
226.8656300996264
 20
170.6812837517373
 30
0.0
 10
226.9311617717449
 20
170.7084798550859
 30
0.0
 10
226.9638388301136
 20
170.7220410633963
 30
0.0
  0
SPLINE
  5
3CF
330
1F
100
AcDbEntity
  8
0
  6
Continuous
 62
     7
370
     0
100
AcDbSpline
210
0.0
220
0.0
230
1.0
 70
     8
 71
     3
 72
     9
 73
     5
 74
     0
 42
0.000000001
 43
0.00000001
 40
0.0
 40
0.0
 40
0.0
 40
0.0
 40
0.5877321429788109
 40
1.0
 40
1.0
 40
1.0
 40
1.0
 10
226.9638388301136
 20
170.7220410633963
 30
0.0
 10
226.9828752892625
 20
170.7347800892958
 30
0.0
 10
227.0152649745576
 20
170.7564549730872
 30
0.0
 10
227.0158277470547
 20
170.7846871768767
 30
0.0
 10
227.0160597600661
 20
170.796326407032
 30
0.0
  0
SPLINE
  5
3D0
330
1F
100
AcDbEntity
  8
0
  6
Continuous
 62
     7
370
     0
100
AcDbSpline
210
0.0
220
0.0
230
1.0
 70
     8
 71
     3
 72
     9
 73
     5
 74
     0
 42
0.000000001
 43
0.00000001
 40
0.0
 40
0.0
 40
0.0
 40
0.0
 40
0.0448447512304074
 40
1.0
 40
1.0
 40
1.0
 40
1.0
 10
226.6633377584642
 20
171.4562678600464
 30
0.0
 10
226.6637927910885
 20
171.4580452827237
 30
0.0
 10
226.673939633512
 20
171.4976803041823
 30
0.0
 10
226.7265819215716
 20
171.5275661900062
 30
0.0
 10
226.7768634793191
 20
171.5561118507152
 30
0.0
  0
SPLINE
  5
3D1
330
1F
100
AcDbEntity
  8
0
  6
Continuous
 62
     7
370
     0
100
AcDbSpline
210
0.0
220
0.0
230
1.0
 70
     8
 71
     3
 72
    11
 73
     7
 74
     0
 42
0.000000001
 43
0.00000001
 40
0.0
 40
0.0
 40
0.0
 40
0.0
 40
0.2788488445841533
 40
0.5575640589645459
 40
0.7785528720471642
 40
1.0
 40
1.0
 40
1.0
 40
1.0
 10
226.7768634793191
 20
171.5561118507151
 30
0.0
 10
226.8546969807161
 20
171.5884949848006
 30
0.0
 10
227.0103266840667
 20
171.6532457342958
 30
0.0
 10
227.2896792403763
 20
171.6420528369486
 30
0.0
 10
227.5068608145725
 20
171.57775894941
 30
0.0
 10
227.6165905177463
 20
171.5197360409578
 30
0.0
 10
227.6715122032723
 20
171.4906945340627
 30
0.0
  0
SPLINE
  5
3D2
330
1F
100
AcDbEntity
  8
0
  6
Continuous
 62
     7
370
     0
100
AcDbSpline
210
0.0
220
0.0
230
1.0
 70
     8
 71
     3
 72
    10
 73
     6
 74
     0
 42
0.000000001
 43
0.00000001
 40
0.0
 40
0.0
 40
0.0
 40
0.0
 40
0.3702561156321522
 40
0.7399866636229414
 40
1.0
 40
1.0
 40
1.0
 40
1.0
 10
227.6715122032723
 20
171.4906945340627
 30
0.0
 10
227.7167394787364
 20
171.4624414595092
 30
0.0
 10
227.8071298308804
 20
171.4059754148086
 30
0.0
 10
227.9075425488458
 20
171.3164351837229
 30
0.0
 10
227.9280985546456
 20
171.2514692152907
 30
0.0
 10
227.9365858711298
 20
171.2246455832994
 30
0.0
  0
SPLINE
  5
3D3
330
1F
100
AcDbEntity
  8
0
  6
Continuous
 62
     7
370
     0
100
AcDbSpline
210
0.0
220
0.0
230
1.0
 70
     8
 71
     3
 72
     9
 73
     5
 74
     0
 42
0.000000001
 43
0.00000001
 40
0.0
 40
0.0
 40
0.0
 40
0.0
 40
0.3017485316874668
 40
1.0
 40
1.0
 40
1.0
 40
1.0
 10
227.5442238624942
 20
171.147058074487
 30
0.0
 10
227.549990768124
 20
171.1525779605384
 30
0.0
 10
227.569102395934
 20
171.1708709610728
 30
0.0
 10
227.5641697456632
 20
171.1926733104907
 30
0.0
 10
227.5607255153689
 20
171.2078968329844
 30
0.0
  0
SPLINE
  5
3D4
330
1F
100
AcDbEntity
  8
0
  6
Continuous
 62
     7
370
     0
100
AcDbSpline
210
0.0
220
0.0
230
1.0
 70
     8
 71
     3
 72
    12
 73
     8
 74
     0
 42
0.000000001
 43
0.00000001
 40
0.0
 40
0.0
 40
0.0
 40
0.0
 40
0.2403758063218581
 40
0.4819794370728809
 40
0.7234850065847989
 40
0.9043189474722313
 40
1.0
 40
1.0
 40
1.0
 40
1.0
 10
227.025597355073
 20
171.3372909265127
 30
0.0
 10
227.0532664163344
 20
171.2927466844953
 30
0.0
 10
227.1087458706735
 20
171.2034306712872
 30
0.0
 10
227.2479031782609
 20
171.085119752711
 30
0.0
 10
227.3495350298779
 20
170.9699098211075
 30
0.0
 10
227.4192973140129
 20
170.8736600981638
 30
0.0
 10
227.4151193768161
 20
170.8190562533899
 30
0.0
 10
227.4136737068239
 20
170.8001619674942
 30
0.0
  0
SPLINE
  5
3D5
330
1F
100
AcDbEntity
  8
0
  6
Continuous
 62
     7
370
     0
100
AcDbSpline
210
0.0
220
0.0
230
1.0
 70
     8
 71
     3
 72
    10
 73
     6
 74
     0
 42
0.000000001
 43
0.00000001
 40
0.0
 40
0.0
 40
0.0
 40
0.0
 40
0.0245207460348096
 40
0.5114603217679167
 40
1.0
 40
1.0
 40
1.0
 40
1.0
 10
225.9590223981778
 20
170.9731615515949
 30
0.0
 10
225.958273429273
 20
170.9756708990543
 30
0.0
 10
225.9426512342346
 20
171.0280115438756
 30
0.0
 10
226.006367969831
 20
171.1336476095149
 30
0.0
 10
226.1035334157064
 20
171.2167034680888
 30
0.0
 10
226.1521958300738
 20
171.2582995166548
 30
0.0
  0
LINE
  5
3D6
330
1F
100
AcDbEntity
  8
0
  6
Continuous
 62
     7
370
     0
100
AcDbLine
 10
227.0255973551
 20
171.3372909265
 30
0.0
 11
227.0255973551
 21
171.4189450077
 31
0.0
  0
LINE
  5
3D7
330
1F
100
AcDbEntity
  8
0
  6
Continuous
 62
     7
370
     0
100
AcDbLine
 10
226.9638388301
 20
170.7220410634
 30
0.0
 11
226.9638388301
 21
170.8036951446
 31
0.0
  0
LINE
  5
3D8
330
1F
100
AcDbEntity
  8
0
  6
Continuous
 62
     7
370
     0
100
AcDbLine
 10
226.4853519097
 20
170.7729030271
 30
0.0
 11
226.4853519097
 21
170.8545571083
 31
0.0
  0
LINE
  5
3D9
330
1F
100
AcDbEntity
  8
0
  6
Continuous
 62
     7
370
     0
100
AcDbLine
 10
226.1521958301
 20
171.2582995167
 30
0.0
 11
226.1521958301
 21
171.3399535978
 31
0.0
  0
LINE
  5
3DA
330
1F
100
AcDbEntity
  8
0
  6
Continuous
 62
     7
370
     0
100
AcDbLine
 10
229.0473022557
 20
171.98180055
 30
0.0
 11
230.8624338696
 21
173.0296537265
 31
0.0
  0
LINE
  5
3DB
330
1F
100
AcDbEntity
  8
0
  6
Continuous
 62
     7
370
     0
100
AcDbLine
 10
230.8624338696
 20
173.0296537265
 30
0.0
 11
231.8409501296
 21
172.4647683135
 31
0.0
  0
SPLINE
  5
3DC
330
1F
100
AcDbEntity
  8
0
  6
Continuous
 62
     7
370
     0
100
AcDbSpline
210
0.0
220
0.0
230
1.0
 70
     8
 71
     3
 72
    10
 73
     6
 74
     0
 42
0.000000001
 43
0.00000001
 40
0.0
 40
0.0
 40
0.0
 40
0.0
 40
0.3528224616548227
 40
0.7053172734076781
 40
1.0
 40
1.0
 40
1.0
 40
1.0
 10
231.8409501295953
 20
172.4647683135294
 30
0.0
 10
231.9036799523503
 20
172.4266975141809
 30
0.0
 10
232.0290813435753
 20
172.3505912700747
 30
0.0
 10
232.1977984341723
 20
172.2331475824453
 30
0.0
 10
232.2422877054975
 20
172.1388510156788
 30
0.0
 10
232.2625452376297
 20
172.0959144677354
 30
0.0
  0
SPLINE
  5
3DD
330
1F
100
AcDbEntity
  8
0
  6
Continuous
 62
     7
370
     0
100
AcDbSpline
210
0.0
220
0.0
230
1.0
 70
     8
 71
     3
 72
     9
 73
     5
 74
     0
 42
0.000000001
 43
0.00000001
 40
0.0
 40
0.0
 40
0.0
 40
0.0
 40
0.5601696408922157
 40
1.0
 40
1.0
 40
1.0
 40
1.0
 10
231.0510957844013
 20
171.6995109531218
 30
0.0
 10
231.0704177444053
 20
171.6765685371465
 30
0.0
 10
231.1049107954268
 20
171.6356123440567
 30
0.0
 10
231.1228175672356
 20
171.5913074284807
 30
0.0
 10
231.1306935091108
 20
171.5718207815527
 30
0.0
  0
LINE
  5
3DE
330
1F
100
AcDbEntity
  8
0
  6
Continuous
 62
     7
370
     0
100
AcDbLine
 10
230.2071342754
 20
171.3122437769
 30
0.0
 11
230.4365095061
 21
171.7582749421
 31
0.0
  0
SPLINE
  5
3DF
330
1F
100
AcDbEntity
  8
0
  6
Continuous
 62
     7
370
     0
100
AcDbSpline
210
0.0
220
0.0
230
1.0
 70
     8
 71
     3
 72
     9
 73
     5
 74
     0
 42
0.000000001
 43
0.00000001
 40
0.0
 40
0.0
 40
0.0
 40
0.0
 40
0.677078917409346
 40
1.0
 40
1.0
 40
1.0
 40
1.0
 10
230.4365095061156
 20
171.7582749421139
 30
0.0
 10
230.4510557960401
 20
171.7846353720245
 30
0.0
 10
230.4725396874307
 20
171.8235679531946
 30
0.0
 10
230.4731680762146
 20
171.8642124542771
 30
0.0
 10
230.473370996201
 20
171.877337420568
 30
0.0
  0
LINE
  5
3E0
330
1F
100
AcDbEntity
  8
0
  6
Continuous
 62
     7
370
     0
100
AcDbLine
 10
230.6909926164
 20
172.252025
 30
0.0
 11
230.9401181875
 21
172.108207869
 31
0.0
  0
SPLINE
  5
3E1
330
1F
100
AcDbEntity
  8
0
  6
Continuous
 62
     7
370
     0
100
AcDbSpline
210
0.0
220
0.0
230
1.0
 70
     8
 71
     3
 72
     9
 73
     5
 74
     0
 42
0.000000001
 43
0.00000001
 40
0.0
 40
0.0
 40
0.0
 40
0.0
 40
0.5598127168888478
 40
1.0
 40
1.0
 40
1.0
 40
1.0
 10
230.9401181874506
 20
172.1082078690439
 30
0.0
 10
230.9726446022432
 20
172.0929869563492
 30
0.0
 10
231.0307469171984
 20
172.0657976620808
 30
0.0
 10
231.0935023371027
 20
172.0423241560156
 30
0.0
 10
231.1211264748909
 20
172.0319914171558
 30
0.0
  0
SPLINE
  5
3E2
330
1F
100
AcDbEntity
  8
0
  6
Continuous
 62
     7
370
     0
100
AcDbSpline
210
0.0
220
0.0
230
1.0
 70
     8
 71
     3
 72
    11
 73
     7
 74
     0
 42
0.000000001
 43
0.00000001
 40
0.0
 40
0.0
 40
0.0
 40
0.0
 40
0.2797326981239747
 40
0.5592718802498043
 40
0.77965894558221
 40
1.0
 40
1.0
 40
1.0
 40
1.0
 10
231.1211264748909
 20
172.0319914171557
 30
0.0
 10
231.1477696289208
 20
172.0236749360544
 30
0.0
 10
231.2010375055402
 20
172.0070477271018
 30
0.0
 10
231.2871481155852
 20
172.0080224344275
 30
0.0
 10
231.3617444788796
 20
172.0215764019767
 30
0.0
 10
231.3977768327647
 20
172.0394189507598
 30
0.0
 10
231.4157911288634
 20
172.0483392937926
 30
0.0
  0
SPLINE
  5
3E3
330
1F
100
AcDbEntity
  8
0
  6
Continuous
 62
     7
370
     0
100
AcDbSpline
210
0.0
220
0.0
230
1.0
 70
     8
 71
     3
 72
     9
 73
     5
 74
     0
 42
0.000000001
 43
0.00000001
 40
0.0
 40
0.0
 40
0.0
 40
0.0
 40
0.704151470455836
 40
1.0
 40
1.0
 40
1.0
 40
1.0
 10
231.4157911288634
 20
172.0483392937926
 30
0.0
 10
231.445660073949
 20
172.0689201005698
 30
0.0
 10
231.4880784261626
 20
172.0981479125402
 30
0.0
 10
231.4904094899153
 20
172.1351739989587
 30
0.0
 10
231.4910991316988
 20
172.1461281121804
 30
0.0
  0
LINE
  5
3E4
330
1F
100
AcDbEntity
  8
0
  6
Continuous
 62
     7
370
     0
100
AcDbLine
 10
227.6715122033
 20
171.4906945341
 30
0.0
 11
227.6715122033
 21
171.5723486153
 31
0.0
  0
LINE
  5
3E5
330
1F
100
AcDbEntity
  8
0
  6
Continuous
 62
     7
370
     0
100
AcDbLine
 10
224.6273950082
 20
171.6759303012
 30
0.0
 11
225.970886399
 21
172.4515113724
 31
0.0
  0
LINE
  5
3E6
330
1F
100
AcDbEntity
  8
0
  6
Continuous
 62
     7
370
     0
100
AcDbLine
 10
225.970886399
 20
172.4515113724
 30
0.0
 11
226.8611042122
 21
171.9375995678
 31
0.0
  0
LINE
  5
3E7
330
1F
100
AcDbEntity
  8
0
  6
Continuous
 62
     7
370
     0
100
AcDbLine
 10
225.6626603662
 20
171.9595731512
 30
0.0
 11
226.1902593172
 21
171.6549967598
 31
0.0
  0
LINE
  5
3E8
330
1F
100
AcDbEntity
  8
0
  6
Continuous
 62
     7
370
     0
100
AcDbLine
 10
230.4365095061
 20
171.7582749421
 30
0.0
 11
230.4365095061
 21
171.8399290233
 31
0.0
  0
LINE
  5
3E9
330
1F
100
AcDbEntity
  8
0
  6
Continuous
 62
     7
370
     0
100
AcDbLine
 10
226.7768634793
 20
171.5561118507
 30
0.0
 11
226.7768634793
 21
171.6377659319
 31
0.0
  0
LINE
  5
3EA
330
1F
100
AcDbEntity
  8
0
  6
Continuous
 62
     7
370
     0
100
AcDbLine
 10
231.1306935091
 20
171.5718207816
 30
0.0
 11
231.1306935091
 21
171.6534748627
 31
0.0
  0
LINE
  5
3EB
330
1F
100
AcDbEntity
  8
0
  6
Continuous
 62
     7
370
     0
100
AcDbLine
 10
231.0510957844
 20
171.6995109531
 30
0.0
 11
231.0510957844
 21
171.7811650343
 31
0.0
  0
LINE
  5
3EC
330
1F
100
AcDbEntity
  8
0
  6
Continuous
 62
     7
370
     0
100
AcDbLine
 10
225.6626603662
 20
171.9595731512
 30
0.0
 11
225.6626603662
 21
172.0412272324
 31
0.0
  0
LINE
  5
3ED
330
1F
100
AcDbEntity
  8
0
  6
Continuous
 62
     7
370
     0
100
AcDbLine
 10
225.970886399
 20
172.4515113724
 30
0.0
 11
225.970886399
 21
172.5331654536
 31
0.0
  0
LINE
  5
3EE
330
1F
100
AcDbEntity
  8
0
  6
Continuous
 62
     7
370
     0
100
AcDbLine
 10
231.8409501296
 20
172.4647683135
 30
0.0
 11
231.8409501296
 21
172.5464223947
 31
0.0
  0
SPLINE
  5
3EF
330
1F
100
AcDbEntity
  8
0
  6
Continuous
 62
     7
370
     0
100
AcDbSpline
210
0.0
220
0.0
230
1.0
 70
     8
 71
     3
 72
    10
 73
     6
 74
     0
 42
0.000000001
 43
0.00000001
 40
0.0
 40
0.0
 40
0.0
 40
0.0
 40
0.1989946292482969
 40
0.5100477467755844
 40
1.0
 40
1.0
 40
1.0
 40
1.0
 10
223.4859828855377
 20
172.334853493979
 30
0.0
 10
223.5378378501773
 20
172.3543509318625
 30
0.0
 10
223.6707485120053
 20
172.404325266838
 30
0.0
 10
223.9828412768854
 20
172.4335270423473
 30
0.0
 10
224.2292034137959
 20
172.4321030313486
 30
0.0
 10
224.3798961413306
 20
172.4312320042334
 30
0.0
  0
SPLINE
  5
3F0
330
1F
100
AcDbEntity
  8
0
  6
Continuous
 62
     7
370
     0
100
AcDbSpline
210
0.0
220
0.0
230
1.0
 70
     8
 71
     3
 72
     9
 73
     5
 74
     0
 42
0.000000001
 43
0.00000001
 40
0.0
 40
0.0
 40
0.0
 40
0.0
 40
0.5602366122649474
 40
0.9999999999999999
 40
0.9999999999999999
 40
0.9999999999999999
 40
0.9999999999999999
 10
224.3798961413306
 20
172.4312320042334
 30
0.0
 10
224.4630997557812
 20
172.4298667486505
 30
0.0
 10
224.6116148878327
 20
172.4274298219074
 30
0.0
 10
224.7595947249469
 20
172.434841456809
 30
0.0
 10
224.8246708394327
 20
172.4381008224819
 30
0.0
  0
SPLINE
  5
3F1
330
1F
100
AcDbEntity
  8
0
  6
Continuous
 62
     7
370
     0
100
AcDbSpline
210
0.0
220
0.0
230
1.0
 70
     8
 71
     3
 72
     9
 73
     5
 74
     0
 42
0.000000001
 43
0.00000001
 40
0.0
 40
0.0
 40
0.0
 40
0.0
 40
0.5600606606765884
 40
1.0
 40
1.0
 40
1.0
 40
1.0
 10
224.8246708394327
 20
172.4381008224819
 30
0.0
 10
224.8698189387304
 20
172.4448997078861
 30
0.0
 10
224.9504318124202
 20
172.457039259691
 30
0.0
 10
225.0139949402653
 20
172.4878411243536
 30
0.0
 10
225.0419588607348
 20
172.5013920763432
 30
0.0
  0
SPLINE
  5
3F2
330
1F
100
AcDbEntity
  8
0
  6
Continuous
 62
     7
370
     0
100
AcDbSpline
210
0.0
220
0.0
230
1.0
 70
     8
 71
     3
 72
     9
 73
     5
 74
     0
 42
0.000000001
 43
0.00000001
 40
0.0
 40
0.0
 40
0.0
 40
0.0
 40
0.5199742164733434
 40
1.0
 40
1.0
 40
1.0
 40
1.0
 10
225.0419588607348
 20
172.5013920763432
 30
0.0
 10
225.0681685766262
 20
172.5175863457899
 30
0.0
 10
225.1185743757235
 20
172.5487307159023
 30
0.0
 10
225.1281821142402
 20
172.5908844783284
 30
0.0
 10
225.1327940764496
 20
172.6111193711655
 30
0.0
  0
SPLINE
  5
3F3
330
1F
100
AcDbEntity
  8
0
  6
Continuous
 62
     7
370
     0
100
AcDbSpline
210
0.0
220
0.0
230
1.0
 70
     8
 71
     3
 72
    11
 73
     7
 74
     0
 42
0.000000001
 43
0.00000001
 40
0.0
 40
0.0
 40
0.0
 40
0.0
 40
0.2075265432159806
 40
0.5140697116037513
 40
0.756802864228425
 40
1.0
 40
1.0
 40
1.0
 40
1.0
 10
224.4973956393714
 20
172.8815172432283
 30
0.0
 10
224.5479350243575
 20
172.9024015791811
 30
0.0
 10
224.6731275258169
 20
172.9541347425341
 30
0.0
 10
224.9106644062812
 20
172.9681670612376
 30
0.0
 10
225.1372951100977
 20
172.921051232806
 30
0.0
 10
225.2465134002065
 20
172.8657864763806
 30
0.0
 10
225.3011746879727
 20
172.8381277138117
 30
0.0
  0
SPLINE
  5
3F4
330
1F
100
AcDbEntity
  8
0
  6
Continuous
 62
     7
370
     0
100
AcDbSpline
210
0.0
220
0.0
230
1.0
 70
     8
 71
     3
 72
     9
 73
     5
 74
     0
 42
0.000000001
 43
0.00000001
 40
0.0
 40
0.0
 40
0.0
 40
0.0
 40
0.5123609358708808
 40
1.0
 40
1.0
 40
1.0
 40
1.0
 10
225.3011746879727
 20
172.8381277138117
 30
0.0
 10
225.3603231074575
 20
172.80050547704
 30
0.0
 10
225.4757659824776
 20
172.7270763099476
 30
0.0
 10
225.4964693346732
 20
172.6287877294988
 30
0.0
 10
225.5065650979621
 20
172.5808583781141
 30
0.0
  0
LINE
  5
3F5
330
1F
100
AcDbEntity
  8
0
  6
Continuous
 62
     7
370
     0
100
AcDbLine
 10
224.0674206687
 20
172.2315456452
 30
0.0
 11
224.5222125513
 21
171.9689998798
 31
0.0
  0
LINE
  5
3F6
330
1F
100
AcDbEntity
  8
0
  6
Continuous
 62
     7
370
     0
100
AcDbLine
 10
224.0674206687
 20
172.2315456452
 30
0.0
 11
224.0674206687
 21
172.3131997263
 31
0.0
  0
SPLINE
  5
3F7
330
1F
100
AcDbEntity
  8
0
  6
Continuous
 62
     7
370
     0
100
AcDbSpline
210
0.0
220
0.0
230
1.0
 70
     8
 71
     3
 72
    12
 73
     8
 74
     0
 42
0.000000001
 43
0.00000001
 40
0.0
 40
0.0
 40
0.0
 40
0.0
 40
0.2485360011483735
 40
0.3738894783368422
 40
0.4988874025415298
 40
0.7491286269499386
 40
1.0
 40
1.0
 40
1.0
 40
1.0
 10
231.4157911288634
 20
172.1299933749812
 30
0.0
 10
231.444490469901
 20
172.1505864946998
 30
0.0
 10
231.4876648253245
 20
172.1815661143658
 30
0.0
 10
231.4958473928715
 20
172.2344673302408
 30
0.0
 10
231.4750582481147
 20
172.2853765824372
 30
0.0
 10
231.410174472864
 20
172.3397973817924
 30
0.0
 10
231.3486337523894
 20
172.377235265368
 30
0.0
 10
231.3178246984518
 20
172.3959777462083
 30
0.0
  0
SPLINE
  5
3F8
330
1F
100
AcDbEntity
  8
0
  6
Continuous
 62
     7
370
     0
100
AcDbSpline
210
0.0
220
0.0
230
1.0
 70
     8
 71
     3
 72
    11
 73
     7
 74
     0
 42
0.000000001
 43
0.00000001
 40
0.0
 40
0.0
 40
0.0
 40
0.0
 40
0.2797326981239747
 40
0.5592718802498043
 40
0.77965894558221
 40
1.0
 40
1.0
 40
1.0
 40
1.0
 10
231.1211264748909
 20
172.1136454983443
 30
0.0
 10
231.1477696289208
 20
172.105329017243
 30
0.0
 10
231.2010375055402
 20
172.0887018082904
 30
0.0
 10
231.2871481155852
 20
172.0896765156161
 30
0.0
 10
231.3617444788796
 20
172.1032304831653
 30
0.0
 10
231.3977768327647
 20
172.1210730319484
 30
0.0
 10
231.4157911288634
 20
172.1299933749812
 30
0.0
  0
SPLINE
  5
3F9
330
1F
100
AcDbEntity
  8
0
  6
Continuous
 62
     7
370
     0
100
AcDbSpline
210
0.0
220
0.0
230
1.0
 70
     8
 71
     3
 72
     9
 73
     5
 74
     0
 42
0.000000001
 43
0.00000001
 40
0.0
 40
0.0
 40
0.0
 40
0.0
 40
0.5598127168888478
 40
1.0
 40
1.0
 40
1.0
 40
1.0
 10
230.9401181874506
 20
172.1898619502325
 30
0.0
 10
230.9726446022432
 20
172.1746410375378
 30
0.0
 10
231.0307469171984
 20
172.1474517432694
 30
0.0
 10
231.0935023371027
 20
172.1239782372042
 30
0.0
 10
231.1211264748909
 20
172.1136454983443
 30
0.0
  0
LINE
  5
3FA
330
1F
100
AcDbEntity
  8
0
  6
Continuous
 62
     7
370
     0
100
AcDbLine
 10
230.6909926164
 20
172.3336790812
 30
0.0
 11
230.9401181875
 21
172.1898619502
 31
0.0
  0
LINE
  5
3FB
330
1F
100
AcDbEntity
  8
0
  6
Continuous
 62
     7
370
     0
100
AcDbLine
 10
231.0583667304
 20
172.545759643
 30
0.0
 11
230.6909926164
 21
172.3336790812
 31
0.0
  0
LINE
  5
3FC
330
1F
100
AcDbEntity
  8
0
  6
Continuous
 62
     7
370
     0
100
AcDbLine
 10
231.3178246985
 20
172.3959777462
 30
0.0
 11
231.0583667304
 21
172.545759643
 31
0.0
  0
LINE
  5
3FD
330
1F
100
AcDbEntity
  8
0
  6
Continuous
 62
     7
370
     0
100
AcDbLine
 10
230.8624338696
 20
173.0296537265
 30
0.0
 11
230.8624338696
 21
173.1113078077
 31
0.0
  0
LINE
  5
3FE
330
1F
100
AcDbEntity
  8
0
  6
Continuous
 62
     7
370
     0
100
AcDbLine
 10
231.4157911289
 20
172.0483392938
 30
0.0
 11
231.4157911289
 21
172.129993375
 31
0.0
  0
LINE
  5
3FF
330
1F
100
AcDbEntity
  8
0
  6
Continuous
 62
     7
370
     0
100
AcDbLine
 10
231.1211264749
 20
172.0319914172
 30
0.0
 11
231.1211264749
 21
172.1136454983
 31
0.0
  0
LINE
  5
400
330
1F
100
AcDbEntity
  8
0
  6
Continuous
 62
     7
370
     0
100
AcDbLine
 10
230.9401181875
 20
172.108207869
 30
0.0
 11
230.9401181875
 21
172.1898619502
 31
0.0
  0
SPLINE
  5
401
330
1F
100
AcDbEntity
  8
0
  6
Continuous
 62
     7
370
     0
100
AcDbSpline
210
0.0
220
0.0
230
1.0
 70
     8
 71
     3
 72
    13
 73
     9
 74
     0
 42
0.000000001
 43
0.00000001
 40
0.0
 40
0.0
 40
0.0
 40
0.0
 40
0.1868623312436854
 40
0.3733269870469057
 40
0.5595660014170586
 40
0.7062341830061508
 40
0.8530571115958895
 40
1.0
 40
1.0
 40
1.0
 40
1.0
 10
227.8463689295597
 20
173.6807852346112
 30
0.0
 10
227.9486068139796
 20
173.7341061225592
 30
0.0
 10
228.1528650028744
 20
173.8406344223605
 30
0.0
 10
228.5366987744264
 20
173.9387689949463
 30
0.0
 10
228.9263536709402
 20
173.9522433802867
 30
0.0
 10
229.2695705178942
 20
173.896801261936
 30
0.0
 10
229.5532372871529
 20
173.8031274032897
 30
0.0
 10
229.7120830254991
 20
173.7184846373214
 30
0.0
 10
229.7915383271475
 20
173.6761459723223
 30
0.0
  0
SPLINE
  5
402
330
1F
100
AcDbEntity
  8
0
  6
Continuous
 62
     7
370
     0
100
AcDbSpline
210
0.0
220
0.0
230
1.0
 70
     8
 71
     3
 72
    10
 73
     6
 74
     0
 42
0.000000001
 43
0.00000001
 40
0.0
 40
0.0
 40
0.0
 40
0.0
 40
0.364745310126401
 40
0.7287320279827603
 40
1.0
 40
1.0
 40
1.0
 40
1.0
 10
229.7915383271475
 20
173.6761459723223
 30
0.0
 10
229.8830762317001
 20
173.6175841740291
 30
0.0
 10
230.0659616615326
 20
173.5005823734639
 30
0.0
 10
230.2445996085676
 20
173.3016040609977
 30
0.0
 10
230.2507754472032
 20
173.162832208631
 30
0.0
 10
230.2534126685397
 20
173.1035735214231
 30
0.0
  0
SPLINE
  5
403
330
1F
100
AcDbEntity
  8
0
  6
Continuous
 62
     7
370
     0
100
AcDbSpline
210
0.0
220
0.0
230
1.0
 70
     8
 71
     3
 72
    11
 73
     7
 74
     0
 42
0.000000001
 43
0.00000001
 40
0.0
 40
0.0
 40
0.0
 40
0.0
 40
0.1114100387855011
 40
0.4073807445681605
 40
0.7035448568603413
 40
1.0
 40
1.0
 40
1.0
 40
1.0
 10
227.4071871165818
 20
173.1157462478954
 30
0.0
 10
227.402325032143
 20
173.139445612229
 30
0.0
 10
227.384546386696
 20
173.2261044518927
 30
0.0
 10
227.4662286936542
 20
173.3739503793776
 30
0.0
 10
227.6220658026175
 20
173.5411523844958
 30
0.0
 10
227.7715767460134
 20
173.6342257153691
 30
0.0
 10
227.8463689295597
 20
173.6807852346112
 30
0.0
  0
SPLINE
  5
404
330
1F
100
AcDbEntity
  8
0
  6
Continuous
 62
     7
370
     0
100
AcDbSpline
210
0.0
220
0.0
230
1.0
 70
     8
 71
     3
 72
     9
 73
     5
 74
     0
 42
0.000000001
 43
0.00000001
 40
0.0
 40
0.0
 40
0.0
 40
0.0
 40
0.4443552090789459
 40
1.0
 40
1.0
 40
1.0
 40
1.0
 10
228.1437894783595
 20
173.0270120781762
 30
0.0
 10
228.146911173555
 20
172.9905126006931
 30
0.0
 10
228.1539363982665
 20
172.9083722842585
 30
0.0
 10
228.2487142547873
 20
172.8460852915969
 30
0.0
 10
228.3013770770577
 20
172.8114758485824
 30
0.0
  0
SPLINE
  5
405
330
1F
100
AcDbEntity
  8
0
  6
Continuous
 62
     7
370
     0
100
AcDbSpline
210
0.0
220
0.0
230
1.0
 70
     8
 71
     3
 72
    12
 73
     8
 74
     0
 42
0.000000001
 43
0.00000001
 40
0.0
 40
0.0
 40
0.0
 40
0.0
 40
0.2489364512809165
 40
0.3740610104865805
 40
0.4991087764774166
 40
0.749122849780275
 40
1.0
 40
1.0
 40
1.0
 40
1.0
 10
228.3013770770577
 20
172.8114758485824
 30
0.0
 10
228.3727873037945
 20
172.7773931898878
 30
0.0
 10
228.4800909205803
 20
172.7261793411897
 30
0.0
 10
228.6637019129108
 20
172.7092211837463
 30
0.0
 10
228.8459920316142
 20
172.7244665602782
 30
0.0
 10
229.0446322096657
 20
172.7959158731963
 30
0.0
 10
229.1769053811339
 20
172.8676629774073
 30
0.0
 10
229.2431559256635
 20
172.9035983426037
 30
0.0
  0
SPLINE
  5
406
330
1F
100
AcDbEntity
  8
0
  6
Continuous
 62
     7
370
     0
100
AcDbSpline
210
0.0
220
0.0
230
1.0
 70
     8
 71
     3
 72
    11
 73
     7
 74
     0
 42
0.000000001
 43
0.00000001
 40
0.0
 40
0.0
 40
0.0
 40
0.0
 40
0.3194670326087691
 40
0.6385807664798157
 40
0.9565112625289823
 40
1.0
 40
1.0
 40
1.0
 40
1.0
 10
229.2431559256635
 20
172.9035983426037
 30
0.0
 10
229.2877003898249
 20
172.930553413135
 30
0.0
 10
229.3767400564044
 20
172.9844337445727
 30
0.0
 10
229.4732486405505
 20
173.0785150015452
 30
0.0
 10
229.5303548668402
 20
173.1570412383733
 30
0.0
 10
229.5157006697337
 20
173.1982163167701
 30
0.0
 10
229.5139373642101
 20
173.2031708183812
 30
0.0
  0
LINE
  5
407
330
1F
100
AcDbEntity
  8
0
  6
Continuous
 62
     7
370
     0
100
AcDbLine
 10
224.3798961413
 20
172.4312320042
 30
0.0
 11
224.3798961413
 21
172.5128860854
 31
0.0
  0
LINE
  5
408
330
1F
100
AcDbEntity
  8
0
  6
Continuous
 62
     7
370
     0
100
AcDbLine
 10
230.6909926164
 20
172.252025
 30
0.0
 11
230.6909926164
 21
172.3336790812
 31
0.0
  0
LINE
  5
409
330
1F
100
AcDbEntity
  8
0
  6
Continuous
 62
     7
370
     0
100
AcDbLine
 10
224.8246708394
 20
172.4381008225
 30
0.0
 11
224.8246708394
 21
172.5197549037
 31
0.0
  0
LINE
  5
40A
330
1F
100
AcDbEntity
  8
0
  6
Continuous
 62
     7
370
     0
100
AcDbLine
 10
225.301174688
 20
172.8381277138
 30
0.0
 11
225.301174688
 21
172.919781795
 31
0.0
  0
LINE
  5
40B
330
1F
100
AcDbEntity
  8
0
  6
Continuous
 62
     7
370
     0
100
AcDbLine
 10
222.1253248593
 20
173.1203446529
 30
0.0
 11
223.4688162502
 21
173.8959257241
 31
0.0
  0
LINE
  5
40C
330
1F
100
AcDbEntity
  8
0
  6
Continuous
 62
     7
370
     0
100
AcDbLine
 10
223.4688162502
 20
173.8959257241
 30
0.0
 11
223.6700582253
 21
173.7797512047
 31
0.0
  0
LINE
  5
40D
330
1F
100
AcDbEntity
  8
0
  6
Continuous
 62
     7
370
     0
100
AcDbLine
 10
223.107613868
 20
173.3734049073
 30
0.0
 11
224.3371184474
 21
173.3946655352
 31
0.0
  0
LINE
  5
40E
330
1F
100
AcDbEntity
  8
0
  6
Continuous
 62
     7
370
     0
100
AcDbLine
 10
224.3371184474
 20
173.3946655352
 30
0.0
 11
224.5705873928
 21
173.2598867819
 31
0.0
  0
LINE
  5
40F
330
1F
100
AcDbEntity
  8
0
  6
Continuous
 62
     7
370
     0
100
AcDbLine
 10
222.9801197918
 20
172.626882042
 30
0.0
 11
223.2101670149
 21
173.1709383123
 31
0.0
  0
LINE
  5
410
330
1F
100
AcDbEntity
  8
0
  6
Continuous
 62
     7
370
     0
100
AcDbLine
 10
225.0419588607
 20
172.5013920763
 30
0.0
 11
225.0419588607
 21
172.5830461575
 31
0.0
  0
LWPOLYLINE
  5
411
330
1F
100
AcDbEntity
  8
0
  6
Continuous
 62
     7
370
     0
100
AcDbPolyline
 90
       16
 70
   128
 43
0.0
 10
217.6873117668
 20
167.2726216751
 10
217.703150046
 20
167.0894658408
 10
217.7499726748
 20
166.8960283074
 10
217.8257332797
 20
166.7007632234
 10
217.9271207586
 20
166.5122046098
 10
218.0497039922
 20
166.338593383
 10
218.188125505
 20
166.1875171866
 10
218.3363356127
 20
166.0655787753
 10
218.4878568224
 20
165.9781074428
 10
218.6360669301
 20
165.9289261061
 10
218.7744884429
 20
165.9201842257
 10
218.8970716765
 20
165.9522638635
 10
218.9984591554
 20
166.0237629856
 10
219.0742197603
 20
166.1315567372
 10
219.1210423891
 20
166.2709340141
 10
219.1337270456
 20
166.3596329498
  0
ARC
  5
412
330
1F
100
AcDbEntity
  8
0
  6
Continuous
 62
     7
370
     0
100
AcDbCircle
 10
218.1203180111
 20
167.3484309779
 30
0.0
 40
0.4395923771052688
100
AcDbArc
 50
59.3111641366
 51
189.9305092571
  0
LINE
  5
413
330
1F
100
AcDbEntity
  8
0
  6
Continuous
 62
     7
370
     0
100
AcDbLine
 10
227.8463689296
 20
173.6807852346
 30
0.0
 11
227.8463689296
 21
173.7624393158
 31
0.0
  0
LINE
  5
414
330
1F
100
AcDbEntity
  8
0
  6
Continuous
 62
     7
370
     0
100
AcDbLine
 10
229.7915383271
 20
173.6761459723
 30
0.0
 11
229.7915383271
 21
173.7578000535
 31
0.0
  0
LINE
  5
415
330
1F
100
AcDbEntity
  8
0
  6
Continuous
 62
     7
370
     0
100
AcDbLine
 10
223.2101670149
 20
173.1709383123
 30
0.0
 11
223.2101670149
 21
173.2525923935
 31
0.0
  0
SPLINE
  5
416
330
1F
100
AcDbEntity
  8
0
  6
Continuous
 62
     7
370
     0
100
AcDbSpline
210
0.0
220
0.0
230
1.0
 70
     8
 71
     3
 72
    12
 73
     8
 74
     0
 42
0.000000001
 43
0.00000001
 40
0.0
 40
0.0
 40
0.0
 40
0.0
 40
0.2489364512809165
 40
0.3740610104865805
 40
0.4991087764774166
 40
0.749122849780275
 40
1.0
 40
1.0
 40
1.0
 40
1.0
 10
228.3013770770577
 20
172.893129929771
 30
0.0
 10
228.3727873037945
 20
172.8590472710764
 30
0.0
 10
228.4800909205803
 20
172.8078334223782
 30
0.0
 10
228.6637019129108
 20
172.7908752649349
 30
0.0
 10
228.8459920316142
 20
172.8061206414667
 30
0.0
 10
229.0446322096657
 20
172.8775699543849
 30
0.0
 10
229.1769053811339
 20
172.9493170585959
 30
0.0
 10
229.2431559256635
 20
172.9852524237923
 30
0.0
  0
SPLINE
  5
417
330
1F
100
AcDbEntity
  8
0
  6
Continuous
 62
     7
370
     0
100
AcDbSpline
210
0.0
220
0.0
230
1.0
 70
     8
 71
     3
 72
    12
 73
     8
 74
     0
 42
0.000000001
 43
0.00000001
 40
0.0
 40
0.0
 40
0.0
 40
0.0
 40
0.1874486281656716
 40
0.3747667307711007
 40
0.5613828605335813
 40
0.7803377222112697
 40
1.0
 40
1.0
 40
1.0
 40
1.0
 10
228.4341675120297
 20
173.4231104169585
 30
0.0
 10
228.3889041226928
 20
173.3955486264038
 30
0.0
 10
228.2984088621437
 20
173.3404442373163
 30
0.0
 10
228.1872255750243
 20
173.2456114969734
 30
0.0
 10
228.1192949727982
 20
173.1298613808956
 30
0.0
 10
228.1511386545174
 20
172.9969358193389
 30
0.0
 10
228.2512437852647
 20
172.9277690777569
 30
0.0
 10
228.3013770770577
 20
172.893129929771
 30
0.0
  0
SPLINE
  5
418
330
1F
100
AcDbEntity
  8
0
  6
Continuous
 62
     7
370
     0
100
AcDbSpline
210
0.0
220
0.0
230
1.0
 70
     8
 71
     3
 72
    12
 73
     8
 74
     0
 42
0.000000001
 43
0.00000001
 40
0.0
 40
0.0
 40
0.0
 40
0.0
 40
0.1865776882289737
 40
0.3728057319333256
 40
0.5590293167300655
 40
0.7792871014192951
 40
1.0
 40
1.0
 40
1.0
 40
1.0
 10
229.3491586648199
 20
173.5041870483874
 30
0.0
 10
229.298922419421
 20
173.5288285766938
 30
0.0
 10
229.1985440707916
 20
173.578065455355
 30
0.0
 10
229.0004466295354
 20
173.6044476749109
 30
0.0
 10
228.7922346932574
 20
173.5821447868455
 30
0.0
 10
228.6026884867291
 20
173.514453261548
 30
0.0
 10
228.4903798071777
 20
173.4535789740558
 30
0.0
 10
228.4341675120297
 20
173.4231104169585
 30
0.0
  0
SPLINE
  5
419
330
1F
100
AcDbEntity
  8
0
  6
Continuous
 62
     7
370
     0
100
AcDbSpline
210
0.0
220
0.0
230
1.0
 70
     8
 71
     3
 72
    12
 73
     8
 74
     0
 42
0.000000001
 43
0.00000001
 40
0.0
 40
0.0
 40
0.0
 40
0.0
 40
0.1874136991406027
 40
0.3746201373854642
 40
0.561132435219809
 40
0.7802198633462321
 40
1.0
 40
1.0
 40
1.0
 40
1.0
 10
229.2431559256635
 20
172.9852524237923
 30
0.0
 10
229.2872217718249
 20
173.012176183559
 30
0.0
 10
229.3753047317081
 20
173.0659939280942
 30
0.0
 10
229.4789736749798
 20
173.1605436094023
 30
0.0
 10
229.5350870416475
 20
173.2752684696707
 30
0.0
 10
229.4963743644613
 20
173.4035122419747
 30
0.0
 10
229.3982821742687
 20
173.4705934859066
 30
0.0
 10
229.3491586648199
 20
173.5041870483874
 30
0.0
  0
LINE
  5
41A
330
1F
100
AcDbEntity
  8
0
  6
Continuous
 62
     7
370
     0
100
AcDbLine
 10
229.2431559257
 20
172.9035983426
 30
0.0
 11
229.2431559257
 21
172.9852524238
 31
0.0
  0
LINE
  5
41B
330
1F
100
AcDbEntity
  8
0
  6
Continuous
 62
     7
370
     0
100
AcDbLine
 10
228.3013770771
 20
172.8114758486
 30
0.0
 11
228.3013770771
 21
172.8931299298
 31
0.0
  0
LINE
  5
41C
330
1F
100
AcDbEntity
  8
0
  6
Continuous
 62
     7
370
     0
100
AcDbLine
 10
224.3371184474
 20
173.3946655352
 30
0.0
 11
224.3371184474
 21
173.4763196164
 31
0.0
  0
LINE
  5
41D
330
1F
100
AcDbEntity
  8
0
  6
Continuous
 62
     7
370
     0
100
AcDbLine
 10
223.107613868
 20
173.3734049073
 30
0.0
 11
223.107613868
 21
173.4550589885
 31
0.0
  0
LINE
  5
41E
330
1F
100
AcDbEntity
  8
0
  6
Continuous
 62
     7
370
     0
100
AcDbLine
 10
223.4688162502
 20
173.8959257241
 30
0.0
 11
223.4688162502
 21
173.9775798053
 31
0.0
  0
LINE
  5
41F
330
1F
100
AcDbEntity
  8
0
  6
Continuous
 62
     7
370
     0
100
AcDbLine
 10
226.8654035088
 20
175.3370902386
 30
0.0
 11
227.3824799197
 21
175.0385883804
 31
0.0
  0
LINE
  5
420
330
1F
100
AcDbEntity
  8
0
  6
Continuous
 62
     7
370
     0
100
AcDbLine
 10
226.791928686
 20
174.6160163286
 30
0.0
 11
227.4287104837
 21
174.2484100215
 31
0.0
  0
LINE
  5
421
330
1F
100
AcDbEntity
  8
0
  6
Continuous
 62
     7
370
     0
100
AcDbLine
 10
227.4287104837
 20
174.2484100215
 30
0.0
 11
228.0899838889
 21
174.6301550327
 31
0.0
  0
LINE
  5
422
330
1F
100
AcDbEntity
  8
0
  6
Continuous
 62
     7
370
     0
100
AcDbLine
 10
228.0899838889
 20
174.6301550327
 30
0.0
 11
228.6070602999
 21
174.3316531745
 31
0.0
  0
LINE
  5
423
330
1F
100
AcDbEntity
  8
0
  6
Continuous
 62
     7
370
     0
100
AcDbLine
 10
226.274852275
 20
173.5823018562
 30
0.0
 11
226.9633699392
 21
173.9797746433
 31
0.0
  0
LINE
  5
424
330
1F
100
AcDbEntity
  8
0
  6
Continuous
 62
     7
370
     0
100
AcDbLine
 10
225.0502718949
 20
174.2892370621
 30
0.0
 11
226.8654035088
 21
175.3370902386
 31
0.0
  0
LINE
  5
425
330
1F
100
AcDbEntity
  8
0
  6
Continuous
 62
     7
370
     0
100
AcDbLine
 10
220.8198969556
 20
173.8739521407
 30
0.0
 11
222.1633883465
 21
174.6495332119
 31
0.0
  0
LINE
  5
426
330
1F
100
AcDbEntity
  8
0
  6
Continuous
 62
     7
370
     0
100
AcDbLine
 10
222.1633883465
 20
174.6495332119
 30
0.0
 11
222.6158120362
 21
174.3883545752
 31
0.0
  0
SPLINE
  5
427
330
1F
100
AcDbEntity
  8
0
  6
Continuous
 62
     7
370
     0
100
AcDbSpline
210
0.0
220
0.0
230
1.0
 70
     8
 71
     3
 72
     9
 73
     5
 74
     0
 42
0.000000001
 43
0.00000001
 40
0.0
 40
0.0
 40
0.0
 40
0.0
 40
0.5603451063412799
 40
1.0
 40
1.0
 40
1.0
 40
1.0
 10
222.6158120361829
 20
174.3883545751835
 30
0.0
 10
222.679128695491
 20
174.3522170312605
 30
0.0
 10
222.7921245235827
 20
174.2877254464961
 30
0.0
 10
222.8876887214694
 20
174.2144888540097
 30
0.0
 10
222.9297039887288
 20
174.1822900277282
 30
0.0
  0
LINE
  5
428
330
1F
100
AcDbEntity
  8
0
  6
Continuous
 62
     7
370
     0
100
AcDbLine
 10
222.9297039887
 20
174.1822900277
 30
0.0
 11
222.9841382364
 21
174.0836004889
 31
0.0
  0
LINE
  5
429
330
1F
100
AcDbEntity
  8
0
  6
Continuous
 62
     7
370
     0
100
AcDbLine
 10
221.7826385412
 20
174.115727908
 30
0.0
 11
221.9458170292
 21
174.0215269721
 31
0.0
  0
SPLINE
  5
42A
330
1F
100
AcDbEntity
  8
0
  6
Continuous
 62
     7
370
     0
100
AcDbSpline
210
0.0
220
0.0
230
1.0
 70
     8
 71
     3
 72
    13
 73
     9
 74
     0
 42
0.000000001
 43
0.00000001
 40
0.0
 40
0.0
 40
0.0
 40
0.0
 40
0.2505185233579063
 40
0.500318565256887
 40
0.6253135153119289
 40
0.7501537595633504
 40
0.875054649302544
 40
1.0
 40
1.0
 40
1.0
 40
1.0
 10
221.9458170291691
 20
174.0215269720547
 30
0.0
 10
221.9861325819111
 20
173.9989705041588
 30
0.0
 10
222.0666480633014
 20
173.9539222598067
 30
0.0
 10
222.1769920720546
 20
173.9006010972728
 30
0.0
 10
222.2872083788683
 20
173.8827804876842
 30
0.0
 10
222.3726329405546
 20
173.8842832870017
 30
0.0
 10
222.4539474582473
 20
173.9010853372141
 30
0.0
 10
222.4966965642978
 20
173.9225029050118
 30
0.0
 10
222.5180749209948
 20
173.9332135945739
 30
0.0
  0
SPLINE
  5
42B
330
1F
100
AcDbEntity
  8
0
  6
Continuous
 62
     7
370
     0
100
AcDbSpline
210
0.0
220
0.0
230
1.0
 70
     8
 71
     3
 72
     9
 73
     5
 74
     0
 42
0.000000001
 43
0.00000001
 40
0.0
 40
0.0
 40
0.0
 40
0.0
 40
0.5159416790231585
 40
1.0
 40
1.0
 40
1.0
 40
1.0
 10
222.5180749209948
 20
173.9332135945739
 30
0.0
 10
222.5430707404756
 20
173.9498473302815
 30
0.0
 10
222.5915177268253
 20
173.982086896077
 30
0.0
 10
222.5986177878953
 20
174.02448546221
 30
0.0
 10
222.6020546315357
 20
174.0450088409441
 30
0.0
  0
LINE
  5
42C
330
1F
100
AcDbEntity
  8
0
  6
Continuous
 62
     7
370
     0
100
AcDbLine
 10
226.9633699392
 20
173.9797746433
 30
0.0
 11
226.9633699392
 21
174.0614287245
 31
0.0
  0
LINE
  5
42D
330
1F
100
AcDbEntity
  8
0
  6
Continuous
 62
     7
370
     0
100
AcDbLine
 10
222.9297039887
 20
174.1822900277
 30
0.0
 11
222.9297039887
 21
174.2639441089
 31
0.0
  0
SPLINE
  5
42E
330
1F
100
AcDbEntity
  8
0
  6
Continuous
 62
     7
370
     0
100
AcDbSpline
210
0.0
220
0.0
230
1.0
 70
     8
 71
     3
 72
    11
 73
     7
 74
     0
 42
0.000000001
 43
0.00000001
 40
0.0
 40
0.0
 40
0.0
 40
0.0
 40
0.2798618622093341
 40
0.5590693323041811
 40
0.7794267111733365
 40
1.0
 40
1.0
 40
1.0
 40
1.0
 10
222.5180749209948
 20
174.0148676757625
 30
0.0
 10
222.542391066743
 20
174.0315068953784
 30
0.0
 10
222.590966500567
 20
174.0647464276506
 30
0.0
 10
222.6087974436816
 20
174.1260412717328
 30
0.0
 10
222.593791103735
 20
174.1814956530801
 30
0.0
 10
222.5635270353692
 20
174.2107257080733
 30
0.0
 10
222.5483875915024
 20
174.2253478920918
 30
0.0
  0
SPLINE
  5
42F
330
1F
100
AcDbEntity
  8
0
  6
Continuous
 62
     7
370
     0
100
AcDbSpline
210
0.0
220
0.0
230
1.0
 70
     8
 71
     3
 72
    13
 73
     9
 74
     0
 42
0.000000001
 43
0.00000001
 40
0.0
 40
0.0
 40
0.0
 40
0.0
 40
0.2505185233579063
 40
0.500318565256887
 40
0.6253135153119289
 40
0.7501537595633504
 40
0.875054649302544
 40
1.0
 40
1.0
 40
1.0
 40
1.0
 10
221.9458170291691
 20
174.1031810532434
 30
0.0
 10
221.9861325819111
 20
174.0806245853474
 30
0.0
 10
222.0666480633014
 20
174.0355763409953
 30
0.0
 10
222.1769920720546
 20
173.9822551784614
 30
0.0
 10
222.2872083788683
 20
173.9644345688728
 30
0.0
 10
222.3726329405546
 20
173.9659373681903
 30
0.0
 10
222.4539474582473
 20
173.9827394184027
 30
0.0
 10
222.4966965642978
 20
174.0041569862004
 30
0.0
 10
222.5180749209948
 20
174.0148676757625
 30
0.0
  0
LINE
  5
430
330
1F
100
AcDbEntity
  8
0
  6
Continuous
 62
     7
370
     0
100
AcDbLine
 10
221.7826385412
 20
174.1973819892
 30
0.0
 11
221.9458170292
 21
174.1031810532
 31
0.0
  0
LINE
  5
431
330
1F
100
AcDbEntity
  8
0
  6
Continuous
 62
     7
370
     0
100
AcDbLine
 10
222.1996502327
 20
174.4381177145
 30
0.0
 11
221.7826385412
 21
174.1973819892
 31
0.0
  0
LINE
  5
432
330
1F
100
AcDbEntity
  8
0
  6
Continuous
 62
     7
370
     0
100
AcDbLine
 10
222.3435645936
 20
174.3550377224
 30
0.0
 11
222.1996502327
 21
174.4381177145
 31
0.0
  0
SPLINE
  5
433
330
1F
100
AcDbEntity
  8
0
  6
Continuous
 62
     7
370
     0
100
AcDbSpline
210
0.0
220
0.0
230
1.0
 70
     8
 71
     3
 72
     9
 73
     5
 74
     0
 42
0.000000001
 43
0.00000001
 40
0.0
 40
0.0
 40
0.0
 40
0.0
 40
0.5598334042150819
 40
1.0
 40
1.0
 40
1.0
 40
1.0
 10
222.5483875915024
 20
174.2253478920918
 30
0.0
 10
222.5120423266905
 20
174.2505448041559
 30
0.0
 10
222.4471207544187
 20
174.2955526794886
 30
0.0
 10
222.3752150727183
 20
174.3368569584802
 30
0.0
 10
222.3435645935866
 20
174.3550377223553
 30
0.0
  0
LINE
  5
434
330
1F
100
AcDbEntity
  8
0
  6
Continuous
 62
     7
370
     0
100
AcDbLine
 10
222.518074921
 20
173.9332135946
 30
0.0
 11
222.518074921
 21
174.0148676758
 31
0.0
  0
LINE
  5
435
330
1F
100
AcDbEntity
  8
0
  6
Continuous
 62
     7
370
     0
100
AcDbLine
 10
221.9458170292
 20
174.0215269721
 30
0.0
 11
221.9458170292
 21
174.1031810532
 31
0.0
  0
LINE
  5
436
330
1F
100
AcDbEntity
  8
0
  6
Continuous
 62
     7
370
     0
100
AcDbLine
 10
222.1633883465
 20
174.6495332119
 30
0.0
 11
222.1633883465
 21
174.7311872931
 31
0.0
  0
LINE
  5
437
330
1F
100
AcDbEntity
  8
0
  6
Continuous
 62
     7
370
     0
100
AcDbLine
 10
213.6744807836
 20
173.1003317235
 30
0.0
 11
213.6744807836
 21
173.2636133459
 31
0.0
  0
ARC
  5
438
330
1F
100
AcDbEntity
  8
0
  6
Continuous
 62
     7
370
     0
100
AcDbCircle
 10
214.9026536647
 20
173.2077246641
 30
0.0
 40
1.229443846057907
100
AcDbArc
 50
122.60547834
 51
177.3945215143
  0
LINE
  5
439
330
1F
100
AcDbEntity
  8
0
  6
Continuous
 62
     7
370
     0
100
AcDbLine
 10
214.3815875648
 20
174.3250765913
 30
0.0
 11
214.2401662085
 21
174.2434092401
 31
0.0
  0
LINE
  5
43A
330
1F
100
AcDbEntity
  8
0
  6
Continuous
 62
     7
370
     0
100
AcDbLine
 10
221.7826385412
 20
174.115727908
 30
0.0
 11
221.7826385412
 21
174.1973819892
 31
0.0
  0
LINE
  5
43B
330
1F
100
AcDbEntity
  8
0
  6
Continuous
 62
     7
370
     0
100
AcDbLine
 10
222.6158120362
 20
174.3883545752
 30
0.0
 11
222.6158120362
 21
174.4700086564
 31
0.0
  0
LINE
  5
43C
330
1F
100
AcDbEntity
  8
0
  6
Continuous
 62
     7
370
     0
100
AcDbLine
 10
228.0899838889
 20
174.6301550327
 30
0.0
 11
228.0899838889
 21
174.7118091139
 31
0.0
  0
LINE
  5
43D
330
1F
100
AcDbEntity
  8
0
  6
Continuous
 62
     7
370
     0
100
AcDbLine
 10
227.4287104837
 20
174.2484100215
 30
0.0
 11
227.4287104837
 21
174.3300641027
 31
0.0
  0
LINE
  5
43E
330
1F
100
AcDbEntity
  8
0
  6
Continuous
 62
     7
370
     0
100
AcDbLine
 10
226.791928686
 20
174.6160163286
 30
0.0
 11
226.791928686
 21
174.6976704098
 31
0.0
  0
LINE
  5
43F
330
1F
100
AcDbEntity
  8
0
  6
Continuous
 62
     7
370
     0
100
AcDbLine
 10
226.8654035088
 20
175.3370902386
 30
0.0
 11
226.8654035088
 21
175.4187443198
 31
0.0
  0
LINE
  5
440
330
1F
100
AcDbEntity
  8
0
  6
Continuous
 62
     7
370
     0
100
AcDbLine
 10
225.0383295816
 20
176.3918375659
 30
0.0
 11
226.7310031575
 21
175.4146779099
 31
0.0
  0
LINE
  5
441
330
1F
100
AcDbEntity
  8
0
  6
Continuous
 62
     7
370
     0
100
AcDbLine
 10
223.8109965502
 20
175.0046554905
 30
0.0
 11
225.1852792272
 21
175.7980119929
 31
0.0
  0
LINE
  5
442
330
1F
100
AcDbEntity
  8
0
  6
Continuous
 62
     7
370
     0
100
AcDbLine
 10
224.6682028163
 20
176.1781679323
 30
0.0
 11
225.0383295816
 21
176.3918375659
 31
0.0
  0
LINE
  5
443
330
1F
100
AcDbEntity
  8
0
  6
Continuous
 62
     7
370
     0
100
AcDbLine
 10
225.1852792272
 20
175.7980119929
 30
0.0
 11
225.1852792272
 21
175.8796660741
 31
0.0
  0
LINE
  5
444
330
1F
100
AcDbEntity
  8
0
  6
Continuous
 62
     7
370
     0
100
AcDbLine
 10
225.0383295816
 20
176.3918375659
 30
0.0
 11
225.0383295816
 21
176.473491647
 31
0.0
  0
INSERT
  5
44B
330
1F
100
AcDbEntity
  8
0
  6
Continuous
 62
     7
370
     0
100
AcDbBlockReference
  2
SW_NOTE_3
 10
215.930377409
 20
135.2289595447
 30
0.0
  0
OLE2FRAME
  5
44C
330
1F
100
AcDbEntity
  8
0
100
AcDbOle2Frame
 70
     2
  3
Paintbrush Picture
 10
229.0524259344
 20
33.6996298005
 30
0.0
 11
265.1686468101
 21
28.5554797105
 31
0.0
 71
     2
 72
     0
 73
     1
 90
     7296
310
8055E6312779ADA16C40BC4424788DD940400000000000000000235EFFC6B292
310
7040BC4424788DD940400000000000000000235EFFC6B29270406E0516EB338E
310
3C400000000000000000E6312779ADA16C406E0516EB338E3C40000000000000
310
00000000000001000000000100000100000001000000000001000000001C0000
310
D0CF11E0A1B11AE1000000000000000000000000000000003E000300FEFF0900
310
0600000000000000000000000100000001000000000000000010000002000000
310
01000000FEFFFFFF0000000000000000FFFFFFFFFFFFFFFFFFFFFFFFFFFFFFFF
310
FFFFFFFFFFFFFFFFFFFFFFFFFFFFFFFFFFFFFFFFFFFFFFFFFFFFFFFFFFFFFFFF
310
FFFFFFFFFFFFFFFFFFFFFFFFFFFFFFFFFFFFFFFFFFFFFFFFFFFFFFFFFFFFFFFF
310
FFFFFFFFFFFFFFFFFFFFFFFFFFFFFFFFFFFFFFFFFFFFFFFFFFFFFFFFFFFFFFFF
310
FFFFFFFFFFFFFFFFFFFFFFFFFFFFFFFFFFFFFFFFFFFFFFFFFFFFFFFFFFFFFFFF
310
FFFFFFFFFFFFFFFFFFFFFFFFFFFFFFFFFFFFFFFFFFFFFFFFFFFFFFFFFFFFFFFF
310
FFFFFFFFFFFFFFFFFFFFFFFFFFFFFFFFFFFFFFFFFFFFFFFFFFFFFFFFFFFFFFFF
310
FFFFFFFFFFFFFFFFFFFFFFFFFFFFFFFFFFFFFFFFFFFFFFFFFFFFFFFFFFFFFFFF
310
FFFFFFFFFFFFFFFFFFFFFFFFFFFFFFFFFFFFFFFFFFFFFFFFFFFFFFFFFFFFFFFF
310
FFFFFFFFFFFFFFFFFFFFFFFFFFFFFFFFFFFFFFFFFFFFFFFFFFFFFFFFFFFFFFFF
310
FFFFFFFFFFFFFFFFFFFFFFFFFFFFFFFFFFFFFFFFFFFFFFFFFFFFFFFFFFFFFFFF
310
FFFFFFFFFFFFFFFFFFFFFFFFFFFFFFFFFFFFFFFFFFFFFFFFFFFFFFFFFFFFFFFF
310
FFFFFFFFFFFFFFFFFFFFFFFFFFFFFFFFFFFFFFFFFFFFFFFFFFFFFFFFFFFFFFFF
310
FFFFFFFFFFFFFFFFFFFFFFFFFFFFFFFFFFFFFFFFFFFFFFFFFFFFFFFFFFFFFFFF
310
FDFFFFFFFEFFFFFFFEFFFFFFFEFFFFFF05000000060000000700000008000000
310
090000000A0000000B0000000C000000FEFFFFFFFFFFFFFFFFFFFFFFFFFFFFFF
310
FFFFFFFFFFFFFFFFFFFFFFFFFFFFFFFFFFFFFFFFFFFFFFFFFFFFFFFFFFFFFFFF
310
FFFFFFFFFFFFFFFFFFFFFFFFFFFFFFFFFFFFFFFFFFFFFFFFFFFFFFFFFFFFFFFF
310
FFFFFFFFFFFFFFFFFFFFFFFFFFFFFFFFFFFFFFFFFFFFFFFFFFFFFFFFFFFFFFFF
310
FFFFFFFFFFFFFFFFFFFFFFFFFFFFFFFFFFFFFFFFFFFFFFFFFFFFFFFFFFFFFFFF
310
FFFFFFFFFFFFFFFFFFFFFFFFFFFFFFFFFFFFFFFFFFFFFFFFFFFFFFFFFFFFFFFF
310
FFFFFFFFFFFFFFFFFFFFFFFFFFFFFFFFFFFFFFFFFFFFFFFFFFFFFFFFFFFFFFFF
310
FFFFFFFFFFFFFFFFFFFFFFFFFFFFFFFFFFFFFFFFFFFFFFFFFFFFFFFFFFFFFFFF
310
FFFFFFFFFFFFFFFFFFFFFFFFFFFFFFFFFFFFFFFFFFFFFFFFFFFFFFFFFFFFFFFF
310
FFFFFFFFFFFFFFFFFFFFFFFFFFFFFFFFFFFFFFFFFFFFFFFFFFFFFFFFFFFFFFFF
310
FFFFFFFFFFFFFFFFFFFFFFFFFFFFFFFFFFFFFFFFFFFFFFFFFFFFFFFFFFFFFFFF
310
FFFFFFFFFFFFFFFFFFFFFFFFFFFFFFFFFFFFFFFFFFFFFFFFFFFFFFFFFFFFFFFF
310
FFFFFFFFFFFFFFFFFFFFFFFFFFFFFFFFFFFFFFFFFFFFFFFFFFFFFFFFFFFFFFFF
310
FFFFFFFFFFFFFFFFFFFFFFFFFFFFFFFFFFFFFFFFFFFFFFFFFFFFFFFFFFFFFFFF
310
FFFFFFFFFFFFFFFFFFFFFFFFFFFFFFFFFFFFFFFFFFFFFFFFFFFFFFFFFFFFFFFF
310
52006F006F007400200045006E00740072007900000000000000000000000000
310
0000000000000000000000000000000000000000000000000000000000000000
310
16000500FFFFFFFFFFFFFFFF020000000A00030000000000C000000000000046
310
000000000000000000000000D03807549255D00103000000C000000000000000
310
01004F006C006500000000000000000000000000000000000000000000000000
310
0000000000000000000000000000000000000000000000000000000000000000
310
0A000200FFFFFFFFFFFFFFFFFFFFFFFF00000000000000000000000000000000
310
0000000000000000000000000000000000000000000000001400000000000000
310
010043006F006D0070004F0062006A0000000000000000000000000000000000
310
0000000000000000000000000000000000000000000000000000000000000000
310
120002010100000003000000FFFFFFFF00000000000000000000000000000000
310
0000000000000000000000000000000000000000010000004D00000000000000
310
01004F006C006500310030004E00610074006900760065000000000000000000
310
0000000000000000000000000000000000000000000000000000000000000000
310
1A000200FFFFFFFFFFFFFFFFFFFFFFFF00000000000000000000000000000000
310
000000000000000000000000000000000000000004000000E411000000000000
310
FEFFFFFF02000000FEFFFFFFFFFFFFFFFFFFFFFFFFFFFFFFFFFFFFFFFFFFFFFF
310
FFFFFFFFFFFFFFFFFFFFFFFFFFFFFFFFFFFFFFFFFFFFFFFFFFFFFFFFFFFFFFFF
310
FFFFFFFFFFFFFFFFFFFFFFFFFFFFFFFFFFFFFFFFFFFFFFFFFFFFFFFFFFFFFFFF
310
FFFFFFFFFFFFFFFFFFFFFFFFFFFFFFFFFFFFFFFFFFFFFFFFFFFFFFFFFFFFFFFF
310
FFFFFFFFFFFFFFFFFFFFFFFFFFFFFFFFFFFFFFFFFFFFFFFFFFFFFFFFFFFFFFFF
310
FFFFFFFFFFFFFFFFFFFFFFFFFFFFFFFFFFFFFFFFFFFFFFFFFFFFFFFFFFFFFFFF
310
FFFFFFFFFFFFFFFFFFFFFFFFFFFFFFFFFFFFFFFFFFFFFFFFFFFFFFFFFFFFFFFF
310
FFFFFFFFFFFFFFFFFFFFFFFFFFFFFFFFFFFFFFFFFFFFFFFFFFFFFFFFFFFFFFFF
310
FFFFFFFFFFFFFFFFFFFFFFFFFFFFFFFFFFFFFFFFFFFFFFFFFFFFFFFFFFFFFFFF
310
FFFFFFFFFFFFFFFFFFFFFFFFFFFFFFFFFFFFFFFFFFFFFFFFFFFFFFFFFFFFFFFF
310
FFFFFFFFFFFFFFFFFFFFFFFFFFFFFFFFFFFFFFFFFFFFFFFFFFFFFFFFFFFFFFFF
310
FFFFFFFFFFFFFFFFFFFFFFFFFFFFFFFFFFFFFFFFFFFFFFFFFFFFFFFFFFFFFFFF
310
FFFFFFFFFFFFFFFFFFFFFFFFFFFFFFFFFFFFFFFFFFFFFFFFFFFFFFFFFFFFFFFF
310
FFFFFFFFFFFFFFFFFFFFFFFFFFFFFFFFFFFFFFFFFFFFFFFFFFFFFFFFFFFFFFFF
310
FFFFFFFFFFFFFFFFFFFFFFFFFFFFFFFFFFFFFFFFFFFFFFFFFFFFFFFFFFFFFFFF
310
FFFFFFFFFFFFFFFFFFFFFFFFFFFFFFFFFFFFFFFFFFFFFFFFFFFFFFFFFFFFFFFF
310
0100000200000000000000000000000000000000000000000000000000000000
310
0000000000000000000000000000000000000000000000000000000000000000
310
0100FEFF030A0000FFFFFFFF0A00030000000000C00000000000004607000000
310
5042727573680007000000504272757368000700000050427275736800F439B2
310
7100000000000000000000000000000000000000000000000000000000000000
310
0000000000000000000000000000000000000000000000000000000000000000
310
0000000000000000000000000000000000000000000000000000000000000000
310
0000000000000000000000000000000000000000000000000000000000000000
310
0000000000000000000000000000000000000000000000000000000000000000
310
0000000000000000000000000000000000000000000000000000000000000000
310
0000000000000000000000000000000000000000000000000000000000000000
310
0000000000000000000000000000000000000000000000000000000000000000
310
0000000000000000000000000000000000000000000000000000000000000000
310
0000000000000000000000000000000000000000000000000000000000000000
310
0000000000000000000000000000000000000000000000000000000000000000
310
0000000000000000000000000000000000000000000000000000000000000000
310
E0110000424DDE11000000000000360400002800000096000000170000000100
310
08000000000000000000E7240000E72400000001000000010000000000FF0101
310
01FF020202FF030303FF040404FF050505FF060606FF070707FF080808FF0909
310
09FF0A0A0AFF0B0B0BFF0C0C0CFF0D0D0DFF0E0E0EFF0F0F0FFF101010FF1111
310
11FF121212FF131313FF141414FF151515FF161616FF171717FF181818FF1919
310
19FF1A1A1AFF1B1B1BFF1C1C1CFF1D1D1DFF1E1E1EFF1F1F1FFF202020FF2121
310
21FF222222FF232323FF242424FF252525FF262626FF272727FF282828FF2929
310
29FF2A2A2AFF2B2B2BFF2C2C2CFF2D2D2DFF2E2E2EFF2F2F2FFF303030FF3131
310
31FF323232FF333333FF343434FF353535FF363636FF373737FF383838FF3939
310
39FF3A3A3AFF3B3B3BFF3C3C3CFF3D3D3DFF3E3E3EFF3F3F3FFF404040FF4141
310
41FF424242FF434343FF444444FF454545FF464646FF474747FF484848FF4949
310
49FF4A4A4AFF4B4B4BFF4C4C4CFF4D4D4DFF4E4E4EFF4F4F4FFF505050FF5151
310
51FF525252FF535353FF545454FF555555FF565656FF575757FF585858FF5959
310
59FF5A5A5AFF5B5B5BFF5C5C5CFF5D5D5DFF5E5E5EFF5F5F5FFF606060FF6161
310
61FF626262FF636363FF646464FF656565FF666666FF676767FF686868FF6969
310
69FF6A6A6AFF6B6B6BFF6C6C6CFF6D6D6DFF6E6E6EFF6F6F6FFF707070FF7171
310
71FF727272FF737373FF747474FF757575FF767676FF777777FF787878FF7979
310
79FF7A7A7AFF7B7B7BFF7C7C7CFF7D7D7DFF7E7E7EFF7F7F7FFF808080FF8181
310
81FF828282FF838383FF848484FF858585FF868686FF878787FF888888FF8989
310
89FF8A8A8AFF8B8B8BFF8C8C8CFF8D8D8DFF8E8E8EFF8F8F8FFF909090FF9191
310
91FF929292FF939393FF949494FF959595FF969696FF979797FF989898FF9999
310
99FF9A9A9AFF9B9B9BFF9C9C9CFF9D9D9DFF9E9E9EFF9F9F9FFFA0A0A0FFA1A1
310
A1FFA2A2A2FFA3A3A3FFA4A4A4FFA5A5A5FFA6A6A6FFA7A7A7FFA8A8A8FFA9A9
310
A9FFAAAAAAFFABABABFFACACACFFADADADFFAEAEAEFFAFAFAFFFB0B0B0FFB1B1
310
B1FFB2B2B2FFB3B3B3FFB4B4B4FFB5B5B5FFB6B6B6FFB7B7B7FFB8B8B8FFB9B9
310
B9FFBABABAFFBBBBBBFFBCBCBCFFBDBDBDFFBEBEBEFFBFBFBFFFC0C0C0FFC1C1
310
C1FFC2C2C2FFC3C3C3FFC4C4C4FFC5C5C5FFC6C6C6FFC7C7C7FFC8C8C8FFC9C9
310
C9FFCACACAFFCBCBCBFFCCCCCCFFCDCDCDFFCECECEFFCFCFCFFFD0D0D0FFD1D1
310
D1FFD2D2D2FFD3D3D3FFD4D4D4FFD5D5D5FFD6D6D6FFD7D7D7FFD8D8D8FFD9D9
310
D9FFDADADAFFDBDBDBFFDCDCDCFFDDDDDDFFDEDEDEFFDFDFDFFFE0E0E0FFE1E1
310
E1FFE2E2E2FFE3E3E3FFE4E4E4FFE5E5E5FFE6E6E6FFE7E7E7FFE8E8E8FFE9E9
310
E9FFEAEAEAFFEBEBEBFFECECECFFEDEDEDFFEEEEEEFFEFEFEFFFF0F0F0FFF1F1
310
F1FFF2F2F2FFF3F3F3FFF4F4F4FFF5F5F5FFF6F6F6FFF7F7F7FFF8F8F8FFF9F9
310
F9FFFAFAFAFFFBFBFBFFFCFCFCFFFDFDFDFFFEFEFEFFFFFFFFFFFFFFFFFFFFFF
310
C94E4E4E4F4E4EFFFFFFFFFFC94E4E4E4E4E72FFFFFFFFFFFFFF734E4D4E4E4E
310
C9FFFFFFFFFFAA683516171616265B9BE9FFFFFFFFFF4E4E4E4D4E4EFFFFFFFF
310
FFFFFFFF4E4E4F4E4D4E4E4E4F4E4E4F4D4E4E4E4E4E4D4E4F4E4D4E4E4EAAFF
310
FFFFFFFFFFEA4E4F4F4E4E4E4E4E4D4D4F4F4E4E4E4E4E5B7FAAFFFFFFFFFFFF
310
C9744E1716171616164D8DEAFFFFFFFF0000FFFFFFFFFFFFBA161617161716FF
310
FFFFFFFFB917171616174FFFFFFFFFFFFFFF4E1716161616B9FFFFFFB9341717
310
1716171617171616268CFFFFFFFF161617161617FFFFFFFFFFFFFFB917161717
310
1617167F807F7F7F7F7F7F807F7F807F7F807F7F7F414EFFFFFFFFFFFF8C167F
310
7F807F7F7F7E7F7F807F807F7F807F4E3417258EFFFFEA4E162674AABAEAEBBA
310
AA74341680FFFFFF0000FFFFFFFFFFFFB9171717171617FFFFFFFFFFBB161616
310
16164EFFFFFFFFFFFFFF4E1717171717B9FFFF9C171617171716161616171616
310
171766FFFFFF161717161617FFFFFFFFFFFFFF8E16171717161616FFFFFFFFFF
310
FFFFFFFFFFFFFFFFFFFFFFFFFFAA16D9FFFFFFFFFF3467FFFFFFFFEAFFFFFFFF
310
FFFFFFFFFFFFFFFFFFCA671667EB26278DFFFFFFFFFFFFFFFFFFFF8C2541EAFF
310
0000FFFFFFFFFFFFB9171717171716FFFFFFFFFFBA16171617174EFFFFFFFFFF
310
FFFF4E1717161616BAFF9B1617161616171716171617161616161667FFFF1616
310
16161716FFFFFFFFFFFFFF7F16161617174017FFFFFFFFFFFFFFFFFFFFFFFFFF
310
FFFFFFFFFFFF344E7F7F7F7E7417DAFFFFFFFF80FFFFFFFFFFFFFFFFFFFFFFFF
310
FFFFFF9B163425CAFFFFFFFFFFFFFFFFFFFFFFFFCA2667FF0000FFFFFFFFFFFF
310
BA171717171617FFFFFFFFFFB916171716164EFFFFFFFFFFFFFF4F1716161717
310
B9C91716171616161716161617171616161617168DFF161716161717FFFFFFFF
310
FFFFFF7F17171716164F16FFFFFFFFFFFFFFFFFFFFFFFFFFFFFFFFFFFFFF9B16
310
17161617174EFFFFFFFFFF34FFFFFFFFD9BABABABABADAFFFFFFFFFF7F16AAFF
310
FFFFFFFFFFFFFFFFFFFFFFFFFF9C16BA0000FFFFFFFFFFFFB9161717161717FF
310
FFFFFFFFB917161716174DFFFFFFFFFFFFFF4E1616161616BA4E161617171716
310
419BEAEAAA4E16161617161726E9171717161616FFFFFFFFFFFFFF4F16161717
310
164E16FFFFFFFFFFBAB9B9B9B9B9BABABACAFFFFFFFFFFFFFFFFFFFFFFFFFFFF
310
FFFFBA16FFFFFFFF7F1617161617174DEAFFFFFFEA41FFFFFFFFFFAA4D16174E
310
9BFFFFFFFFFF34730000FFFFFFFFFFFFB9161617171617FFFFFFFFFFBA161616
310
16164EFFFFFFFFFFFFFF4F16161717169B1617161716175BFFFFFFFFFFFF7417
310
16171616168D171717161617FFFFFFFFFFFFEA2616171717167416FFFFFFFFFF
310
16171616171717171717EAFFFFFFFFFFFFFFFFFFFFFFFFFFFFFF6716FFFFFFFF
310
7F4EFFFFFFFFBA2573FFFFFFFFBAFFFFFFFFAA167FB9BB9B269BFFFFFFFF664F
310
0000FFFFFFFFFFFFB9171616161616FFFFFFFFFFBA16161717164EFFFFFFFFFF
310
FFFF4E16161616174E161617171626EAFFFFFFFFFFFFFF4E16161616164E1716
310
16161617FFFFFFFFFFFF671616161716347F16FFFFFFFFFF16B9FFFFFFFFFFFF
310
D9168DFFFFFFFFFFFFFFFFFFFFFFFFFFFFEA1716FFFFFFFF7F4EFFFFFFFFFF7F
310
4EFFFFFFFFFFFFFFFFFF5B66FFFFFFEA347FFFFFFFFF7F4D0000FFFFFFFFFFFF
310
B9171616171617FFFFFFFFFFBA17161716174EFFFFFFFFFFFFFF4D1716161617
310
17161716161673FFFFFFFFFFFFFFFF9B1617161717161616171616174F4E4E4E
310
4E341616171616167E7F16FFFFFFFFFF16BAFFFFFFFFFFFFFF5B41FFFFFFFF34
310
1616171616BAFFFFFF9B1716FFFFFFFF7F4EFFFFFFFFFF4E4EFFFFFFFF734E4E
310
4E4E267EDA9B67164EEAFFFFFFFF744D0000FFFFFFFFFFFFBA171717161617FF
310
FFFFFFFFBA1616171616347F7F7F7F80807F331616161717161717161716B9FF
310
FFFFFFFFFFFFFFE9161616161616171716161716171616161616171616171734
310
EA7F16FFFFFFFFFF16BAFFFFFFFFFFFFFFAA17C9FFFFFF7326BABA5B25FFFFFF
310
FF401716FFFFFFFF7F264F4E4E4E4217AAFFFFFFEA16677F73261616164173CA
310
FFFFFFFFFFFF417F0000FFFFFFFFFFFFBA171616171617FFFFFFFFFFBA161616
310
17171616161616161616161717161616161616161617EAFFFFFFFFFFFFFFFFFF
310
261717161716161617161616161617161617161616174EEAFF8016FFFFFFFFFF
310
17BAFFFFFFFFFFFFFFFF3467FFFFFFC916C9FF3467FFFFFFDA166716FFFFFFFF
310
9C4D4E4E4E4E67AAFFFFFFFF6834FF7F262567AAEAFFFFFFFFFFFFFFFF9B17D9
310
0000FFFFFFFFFFFFB9161616161616FFFFFFFFFFBA1617161717171616161616
310
1716171716161716161617171716FFFFFFFFFFFFFFFFFFFF4E17161716171616
310
1617171616161716171717161616169BFF7F17FFFFFFFFFF17B9FFFFFFFFFFFF
310
FFFF7326FFFFFFFF3473DA16AAFFFFFF7317AA16FFFFFFFFFFFFFFFFFFFFFFFF
310
FFFFEA6725BA4E167FEAFFFFFFFFFFFFFFFFFFFF9C167FFF0000FFFFFFFFFFFF
310
B9161717171716FFFFFFFFFFBA16161716171616171717161617161716161616
310
171617171617EAFFFFFFFFFFFFFFFFFF26161717161616161616161617171616
310
1616161616171616AA8016FFFFFFFFFF16BAFFFFFFFFFFFFFFFFDA179BFFFFFF
310
74348D26FFFFFFFF2566B917FFFFFFFFD8BAB9BAB9BADAFFFFEA41169B7425C9
310
FFFFFFFFFFFFFFFFFFFFAB4F1680FFFF0000FFFFFFFFFFFFBA161717171617FF
310
FFFFFFFFBA17161717161617171617161616161617171616171716171617BBFF
310
FFFFFFFFFFFFFFE9171616161617161617161716FFFFFFFFFFD9671616161617
310
348017FFFFFFFFFF16BAFFFFFFFFFFFFFFFFFF4E5AFFFFFFC916265AFFFFFFAA
310
16AABA16FFFFFFFF7F1617161616179BFFFFEB4127168DFFFFFFFFFFFFFFD99B
310
6734175AC9FFFFFF0000FFFFFFFFFFFFB9161617171617FFFFFFFFFFBB161616
310
1616347F807F7F7F7F8033171716171617171616161672FFFFFFFFFFFFFFFF9C
310
171617171617161716161617FFFFFFFFFFFFFF4117161616174E17FFFFFFFFFF
310
16BAFFFFFFFFFFFFFFFFFF9B16DAFFFFFF34169BFFFFFF5A26FFB917FFFFFFFF
310
7F4EFFFFFFEA5B26FFFFFFEA2616EAFFFFFFFFDA743416331617414E4E4E4ECA
310
0000FFFFFFFFFFFFBA161716161616FFFFFFFFFFBA17171616164EFFFFFFFFFF
310
FFFF4E16161717174E161717171626EBFFFFFFFFFFFFFF4E16161617165B1616
310
16171617FFFFFFFFFFFFFF6716161616161617FFFFFFFFFF16BAFFFFFFFFFFFF
310
FFFFFFEA268CFFFFFF7316EAFFFFEB1774FFB916FFFFFFFF7F4EFFFFFFFF7316
310
FFFFFFFF6826FFFFFFFFEB264D9CEABA257F807F7F6616BA0000FFFFFFFFFFFF
310
BA161716161616FFFFFFFFFFBA16171616164DFFFFFFFFFFFFFF4E1617161617
310
9B1617171717165BEBFFFFFFFFFF671616161617179B171616161616FFFFFFFF
310
FFFFFF3417161617171617FFFFFFFFFF17BAFFFFFFFFFFFFFFFFFFFF6734FFFF
310
FFEBCAFFFFFF8D17C9FFBA17FFFFFFFF7F357F808066174FFFFFFFFF7F16FFFF
310
FFFFD91673B99B415BFFFFFFFFBA16DA00009B7F7F7F807F671617161616167F
310
80807F7E6617161616164EFFFFFFFFFFFFFF4E1616161617B94E171716161616
310
349BC9D9AA4E16171616161634FF161617161717B9B9BAB9BA9B411716171716
310
163416FFFFFFFFFF16B9FFFFFFFFFFFFFFFFFFFFC917CAFFFFFFFFFFFFFF3342
310
FFFFBA17FFFFFFFF9B4E4E4F4E4E66EAFFFFFFFF5B16C9FFFFFFFFAA4E164E73
310
EAFFFFFFFF8D26FF00004E161716161616171617171616171717171617161616
310
17174EFFFFFFFFFFFFFF4E1717171616B9D92616171716171716171717171716
310
16171716AAFF161717171617161617171616161617161716166717FFFFFFFFFF
310
17B9FFFFFFFFFFFFFFFFFFFFFF3467FFFFFFFFFFFFCA168CFFFFBB17FFFFFFFF
310
FFFFFFFFFFFFFFFFFFFFFFEA26265BFFFFFFFFFFFFFFFFFFFFFFFFFFEA3467FF
310
00004D16161616161617161717161617161616171617171616164EFFFFFFFFFF
310
FFFF4D1617161616BAFF9B1616161616161716161616171717161766FFFF1616
310
16171617161617161716171616171717667F16FFFFFFFFFF17BAFFFFFFFFFFFF
310
FFFFFFFFFF8C26EAFFFFFFFFFF6617EAFFFFBA17FFFFFFFFFFFFFFFFFFFFFFFF
310
FFFFEA5A25BA269BFFFFFFFFFFFFFFFFFFFFFFFF6616DAFF00004E1616171616
310
1616161616161716161617171616171616174EFFFFFFFFFFFFFF4D1717171716
310
B9FFFF9C161616161616161716161717171667FFFFFF17161717171716161617
310
1716161616161641E97E16FFFFFFFFFF16B9FFFFFFFFFFFFFFFFFFFFFFEA169B
310
FFFFFFFFEA265BFFFFFFB916FFFFFFFFFFFFFFFFFFFFFFFFFF9B3416AAFF9B17
310
67EAFFFFFFFFFFFFFFFFEA5B169BFFFF00004D17161716161616161717171616
310
161717161716171716174EFFFFFFFFFFFFFF4D1616161616BAFFFFFFBB411616
310
161716161616171634ABFFFFFFFF161716161617171716171617171617267FFF
310
FF7F164E4E4E4E4F17BAFFFFFFFFFFFFFFFFFFFFFFFF66344D4E4E4F4117AAFF
310
FFFFBA174E4E4E4D4E4D4D4E4E4E4E4116174EBBFFFFFFCA342666ABEAFFFFEA
310
AA6725269CFFFFFF0000724F4E4D4D4D4E4D4D4E4E4E4D4E4E4E4E4E4E4E4E4D
310
4E4E74FFFFFFFFFFFFFF734E4E4E4D4ECAFFFFFFFFFFAA663416171717265B9B
310
FFFFFFFFFFFF7F8080807F80807F7F7F7F7F807FBAFFFFFFFF9B4E4E4F4D4D4E
310
4DC9FFFFFFFFFFFFFFFFFFFFFFFFBA4E4E4E4E4D4E4EFFFFFFFFC94E4E4E4F4E
310
4E4E4D4E4E5A807F9CD9FFFFFFFFFFFFFF9B5B2617171716174E8DEAFFFFFFFF
310
0000000000000000000000000000000000000000000000000000000000000000
  1
OLE
  0
ENDSEC
  0
SECTION
  2
OBJECTS
  0
DICTIONARY
  5
C
330
0
100
AcDbDictionary
281
     1
  3
ACAD_GROUP
350
D
  3
ACAD_LAYOUT
350
1A
  3
ACAD_MLINESTYLE
350
17
  3
ACAD_PLOTSETTINGS
350
19
  3
ACAD_PLOTSTYLENAME
350
E
  3
ACAD_SCALELIST
350
47
  0
DICTIONARY
  5
D
102
{ACAD_REACTORS
330
C
102
}
330
C
100
AcDbDictionary
281
     1
  0
DICTIONARY
  5
1A
102
{ACAD_REACTORS
330
C
102
}
330
C
100
AcDbDictionary
281
     1
  3
Layout1
350
1E
  3
Layout2
350
26
  3
Model
350
22
  0
DICTIONARY
  5
17
102
{ACAD_REACTORS
330
C
102
}
330
C
100
AcDbDictionary
281
     1
  3
Standard
350
18
  0
DICTIONARY
  5
19
102
{ACAD_REACTORS
330
C
102
}
330
C
100
AcDbDictionary
281
     1
  0
ACDBDICTIONARYWDFLT
  5
E
102
{ACAD_REACTORS
330
C
102
}
330
C
100
AcDbDictionary
281
     1
  3
Normal
350
F
100
AcDbDictionaryWithDefault
340
F
  0
DICTIONARY
  5
47
102
{ACAD_REACTORS
330
C
102
}
330
C
100
AcDbDictionary
281
     1
  3
A0
350
48
  3
A1
350
49
  3
A2
350
4A
  3
A3
350
4B
  3
A4
350
4C
  3
A5
350
4D
  3
A6
350
4E
  3
A7
350
4F
  3
A8
350
50
  3
A9
350
51
  3
B0
350
52
  3
B1
350
53
  3
B2
350
54
  3
B3
350
55
  3
B4
350
56
  3
B5
350
57
  3
B6
350
58
  3
B7
350
59
  3
B8
350
5A
  3
B9
350
5B
  3
C0
350
5C
  3
C1
350
5D
  3
C2
350
5E
  3
C3
350
5F
  3
C4
350
60
  3
C5
350
61
  3
C6
350
62
  3
C7
350
63
  3
C8
350
64
  3
C9
350
65
  3
D0
350
66
  3
D1
350
67
  3
D2
350
68
  0
LAYOUT
  5
1E
102
{ACAD_REACTORS
330
1A
102
}
330
1A
100
AcDbPlotSettings
  1

  2
none_device
  4

  6

 40
0.0
 41
0.0
 42
0.0
 43
0.0
 44
0.0
 45
0.0
 46
0.0
 47
0.0
 48
0.0
 49
0.0
140
0.0
141
0.0
142
1.0
143
1.0
 70
   688
 72
     1
 73
     0
 74
     5
  7

 75
    16
147
1.0
148
0.0
149
0.0
100
AcDbLayout
  1
Layout1
 70
     1
 71
     1
 10
0.0
 20
0.0
 11
420.0
 21
297.0
 12
0.0
 22
0.0
 32
0.0
 14
1.0000000000E+20
 24
1.0000000000E+20
 34
1.0000000000E+20
 15
-1.0000000000E+20
 25
-1.0000000000E+20
 35
-1.0000000000E+20
146
0.0
 13
0.0
 23
0.0
 33
0.0
 16
1.0
 26
0.0
 36
0.0
 17
0.0
 27
1.0
 37
0.0
 76
     0
330
1B
  0
LAYOUT
  5
26
102
{ACAD_REACTORS
330
1A
102
}
330
1A
100
AcDbPlotSettings
  1

  2
none_device
  4

  6

 40
0.0
 41
0.0
 42
0.0
 43
0.0
 44
0.0
 45
0.0
 46
0.0
 47
0.0
 48
0.0
 49
0.0
140
0.0
141
0.0
142
1.0
143
1.0
 70
   688
 72
     1
 73
     0
 74
     5
  7

 75
    16
147
1.0
148
0.0
149
0.0
100
AcDbLayout
  1
Layout2
 70
     1
 71
     2
 10
0.0
 20
0.0
 11
0.0
 21
0.0
 12
0.0
 22
0.0
 32
0.0
 14
0.0
 24
0.0
 34
0.0
 15
0.0
 25
0.0
 35
0.0
146
0.0
 13
0.0
 23
0.0
 33
0.0
 16
1.0
 26
0.0
 36
0.0
 17
0.0
 27
1.0
 37
0.0
 76
     0
330
23
  0
LAYOUT
  5
22
102
{ACAD_REACTORS
330
1A
102
}
330
1A
100
AcDbPlotSettings
  1

  2
none_device
  4
Letter_(8.50_x_11.00_Inches)
  6

 40
6.35
 41
6.35
 42
6.35000508
 43
6.35000508
 44
215.9
 45
279.4
 46
0.0
 47
0.0
 48
0.0
 49
0.0
140
0.0
141
0.0
142
1.0
143
1.0
 70
  1712
 72
     1
 73
     0
 74
     0
  7

 75
     0
147
1.0
148
0.0
149
0.0
100
AcDbLayout
  1
Model
 70
     1
 71
     0
 10
0.0
 20
0.0
 11
279.4
 21
215.9
 12
0.0
 22
0.0
 32
0.0
 14
0.0
 24
0.0
 34
0.0
 15
279.4
 25
215.9
 35
0.0
146
0.0
 13
0.0
 23
0.0
 33
0.0
 16
1.0
 26
0.0
 36
0.0
 17
0.0
 27
1.0
 37
0.0
 76
     0
330
1F
331
29
  0
MLINESTYLE
  5
18
102
{ACAD_REACTORS
330
17
102
}
330
17
100
AcDbMlineStyle
  2
Standard
 70
     0
  3

 62
   256
 51
90.0
 52
90.0
 71
     2
 49
0.5
 62
   256
  6
BYLAYER
 49
-0.5
 62
   256
  6
BYLAYER
  0
ACDBPLACEHOLDER
  5
F
102
{ACAD_REACTORS
330
E
102
}
330
E
  0
SCALE
  5
48
102
{ACAD_REACTORS
330
47
102
}
330
47
100
AcDbScale
 70
     0
300
1:1
140
1.0
141
1.0
290
     1
  0
SCALE
  5
49
102
{ACAD_REACTORS
330
47
102
}
330
47
100
AcDbScale
 70
     0
300
1:2
140
1.0
141
2.0
290
     0
  0
SCALE
  5
4A
102
{ACAD_REACTORS
330
47
102
}
330
47
100
AcDbScale
 70
     0
300
1:4
140
1.0
141
4.0
290
     0
  0
SCALE
  5
4B
102
{ACAD_REACTORS
330
47
102
}
330
47
100
AcDbScale
 70
     0
300
1:5
140
1.0
141
5.0
290
     0
  0
SCALE
  5
4C
102
{ACAD_REACTORS
330
47
102
}
330
47
100
AcDbScale
 70
     0
300
1:8
140
1.0
141
8.0
290
     0
  0
SCALE
  5
4D
102
{ACAD_REACTORS
330
47
102
}
330
47
100
AcDbScale
 70
     0
300
1:10
140
1.0
141
10.0
290
     0
  0
SCALE
  5
4E
102
{ACAD_REACTORS
330
47
102
}
330
47
100
AcDbScale
 70
     0
300
1:16
140
1.0
141
16.0
290
     0
  0
SCALE
  5
4F
102
{ACAD_REACTORS
330
47
102
}
330
47
100
AcDbScale
 70
     0
300
1:20
140
1.0
141
20.0
290
     0
  0
SCALE
  5
50
102
{ACAD_REACTORS
330
47
102
}
330
47
100
AcDbScale
 70
     0
300
1:30
140
1.0
141
30.0
290
     0
  0
SCALE
  5
51
102
{ACAD_REACTORS
330
47
102
}
330
47
100
AcDbScale
 70
     0
300
1:40
140
1.0
141
40.0
290
     0
  0
SCALE
  5
52
102
{ACAD_REACTORS
330
47
102
}
330
47
100
AcDbScale
 70
     0
300
1:50
140
1.0
141
50.0
290
     0
  0
SCALE
  5
53
102
{ACAD_REACTORS
330
47
102
}
330
47
100
AcDbScale
 70
     0
300
1:100
140
1.0
141
100.0
290
     0
  0
SCALE
  5
54
102
{ACAD_REACTORS
330
47
102
}
330
47
100
AcDbScale
 70
     0
300
2:1
140
2.0
141
1.0
290
     0
  0
SCALE
  5
55
102
{ACAD_REACTORS
330
47
102
}
330
47
100
AcDbScale
 70
     0
300
4:1
140
4.0
141
1.0
290
     0
  0
SCALE
  5
56
102
{ACAD_REACTORS
330
47
102
}
330
47
100
AcDbScale
 70
     0
300
8:1
140
8.0
141
1.0
290
     0
  0
SCALE
  5
57
102
{ACAD_REACTORS
330
47
102
}
330
47
100
AcDbScale
 70
     0
300
10:1
140
10.0
141
1.0
290
     0
  0
SCALE
  5
58
102
{ACAD_REACTORS
330
47
102
}
330
47
100
AcDbScale
 70
     0
300
100:1
140
100.0
141
1.0
290
     0
  0
SCALE
  5
59
102
{ACAD_REACTORS
330
47
102
}
330
47
100
AcDbScale
 70
     0
300
1/128" = 1'-0"
140
0.0078125
141
12.0
290
     0
  0
SCALE
  5
5A
102
{ACAD_REACTORS
330
47
102
}
330
47
100
AcDbScale
 70
     0
300
1/64" = 1'-0"
140
0.015625
141
12.0
290
     0
  0
SCALE
  5
5B
102
{ACAD_REACTORS
330
47
102
}
330
47
100
AcDbScale
 70
     0
300
1/32" = 1'-0"
140
0.03125
141
12.0
290
     0
  0
SCALE
  5
5C
102
{ACAD_REACTORS
330
47
102
}
330
47
100
AcDbScale
 70
     0
300
1/16" = 1'-0"
140
0.0625
141
12.0
290
     0
  0
SCALE
  5
5D
102
{ACAD_REACTORS
330
47
102
}
330
47
100
AcDbScale
 70
     0
300
3/32" = 1'-0"
140
0.09375
141
12.0
290
     0
  0
SCALE
  5
5E
102
{ACAD_REACTORS
330
47
102
}
330
47
100
AcDbScale
 70
     0
300
1/8" = 1'-0"
140
0.125
141
12.0
290
     0
  0
SCALE
  5
5F
102
{ACAD_REACTORS
330
47
102
}
330
47
100
AcDbScale
 70
     0
300
3/16" = 1'-0"
140
0.1875
141
12.0
290
     0
  0
SCALE
  5
60
102
{ACAD_REACTORS
330
47
102
}
330
47
100
AcDbScale
 70
     0
300
1/4" = 1'-0"
140
0.25
141
12.0
290
     0
  0
SCALE
  5
61
102
{ACAD_REACTORS
330
47
102
}
330
47
100
AcDbScale
 70
     0
300
3/8" = 1'-0"
140
0.375
141
12.0
290
     0
  0
SCALE
  5
62
102
{ACAD_REACTORS
330
47
102
}
330
47
100
AcDbScale
 70
     0
300
1/2" = 1'-0"
140
0.5
141
12.0
290
     0
  0
SCALE
  5
63
102
{ACAD_REACTORS
330
47
102
}
330
47
100
AcDbScale
 70
     0
300
3/4" = 1'-0"
140
0.75
141
12.0
290
     0
  0
SCALE
  5
64
102
{ACAD_REACTORS
330
47
102
}
330
47
100
AcDbScale
 70
     0
300
1" = 1'-0"
140
1.0
141
12.0
290
     0
  0
SCALE
  5
65
102
{ACAD_REACTORS
330
47
102
}
330
47
100
AcDbScale
 70
     0
300
1-1/2" = 1'-0"
140
1.5
141
12.0
290
     0
  0
SCALE
  5
66
102
{ACAD_REACTORS
330
47
102
}
330
47
100
AcDbScale
 70
     0
300
3" = 1'-0"
140
3.0
141
12.0
290
     0
  0
SCALE
  5
67
102
{ACAD_REACTORS
330
47
102
}
330
47
100
AcDbScale
 70
     0
300
6" = 1'-0"
140
6.0
141
12.0
290
     0
  0
SCALE
  5
68
102
{ACAD_REACTORS
330
47
102
}
330
47
100
AcDbScale
 70
     0
300
1'-0" = 1'-0"
140
12.0
141
12.0
290
     0
  0
ENDSEC
  0
EOF
