  0
SECTION
  2
HEADER
  9
$ACADVER
  1
AC1012
  9
$DWGCODEPAGE
  3
ansi_1252
  9
$INSBASE
 10
0.0
 20
0.0
 30
0.0
  9
$EXTMIN
 10
0.0
 20
0.0
 30
0.0
  9
$EXTMAX
 10
279.4
 20
215.9
 30
0.0
  9
$LIMMIN
 10
0.0
 20
0.0
  9
$LIMMAX
 10
279.4
 20
215.9
  9
$ORTHOMODE
 70
     0
  9
$REGENMODE
 70
     1
  9
$FILLMODE
 70
     1
  9
$QTEXTMODE
 70
     0
  9
$MIRRTEXT
 70
     1
  9
$DRAGMODE
 70
     2
  9
$LTSCALE
 40
1.0
  9
$OSMODE
 70
    37
  9
$ATTMODE
 70
     1
  9
$TEXTSIZE
 40
2.8222222222
  9
$TRACEWID
 40
1.0
  9
$TEXTSTYLE
  7
STANDARD
  9
$CLAYER
  8
0
  9
$CELTYPE
  6
BYLAYER
  9
$CECOLOR
 62
   256
  9
$CELTSCALE
 40
1.0
  9
$DELOBJ
 70
     1
  9
$DISPSILH
 70
     0
  9
$DIMSCALE
 40
1.0
  9
$DIMASZ
 40
3.175
  9
$DIMEXO
 40
1.27
  9
$DIMDLI
 40
3.75
  9
$DIMRND
 40
0.0
  9
$DIMDLE
 40
0.0
  9
$DIMEXE
 40
1.778
  9
$DIMTP
 40
0.0
  9
$DIMTM
 40
0.0
  9
$DIMTXT
 40
2.8222222222
  9
$DIMCEN
 40
2.5
  9
$DIMTSZ
 40
0.0
  9
$DIMTOL
 70
     0
  9
$DIMLIM
 70
     0
  9
$DIMTIH
 70
     1
  9
$DIMTOH
 70
     1
  9
$DIMSE1
 70
     0
  9
$DIMSE2
 70
     0
  9
$DIMTAD
 70
     0
  9
$DIMZIN
 70
     1
  9
$DIMBLK
  1

  9
$DIMASO
 70
     1
  9
$DIMSHO
 70
     1
  9
$DIMPOST
  1

  9
$DIMAPOST
  1

  9
$DIMALT
 70
     0
  9
$DIMALTD
 70
     3
  9
$DIMALTF
 40
0.0393700787
  9
$DIMLFAC
 40
0.2
  9
$DIMTOFL
 70
     1
  9
$DIMTVP
 40
0.0
  9
$DIMTIX
 70
     0
  9
$DIMSOXD
 70
     0
  9
$DIMSAH
 70
     0
  9
$DIMBLK1
  1

  9
$DIMBLK2
  1

  9
$DIMSTYLE
  2
ISO-25
  9
$DIMCLRD
 70
     0
  9
$DIMCLRE
 70
     0
  9
$DIMCLRT
 70
     0
  9
$DIMTFAC
 40
1.0
  9
$DIMGAP
 40
2.54
  9
$DIMJUST
 70
     0
  9
$DIMSD1
 70
     0
  9
$DIMSD2
 70
     0
  9
$DIMTOLJ
 70
     0
  9
$DIMTZIN
 70
     1
  9
$DIMALTZ
 70
     0
  9
$DIMALTTZ
 70
     0
  9
$DIMFIT
 70
     3
  9
$DIMUPT
 70
     0
  9
$DIMUNIT
 70
     2
  9
$DIMDEC
 70
     1
  9
$DIMTDEC
 70
     1
  9
$DIMALTU
 70
     2
  9
$DIMALTTD
 70
     3
  9
$DIMTXSTY
  7
STANDARD
  9
$DIMAUNIT
 70
     0
  9
$LUNITS
 70
     2
  9
$LUPREC
 70
     1
  9
$SKETCHINC
 40
1.0
  9
$FILLETRAD
 40
10.0
  9
$AUNITS
 70
     0
  9
$AUPREC
 70
     0
  9
$MENU
  1
.
  9
$ELEVATION
 40
0.0
  9
$PELEVATION
 40
0.0
  9
$THICKNESS
 40
0.0
  9
$LIMCHECK
 70
     0
  9
$CHAMFERA
 40
0.0
  9
$CHAMFERB
 40
0.0
  9
$CHAMFERC
 40
0.0
  9
$CHAMFERD
 40
0.0
  9
$SKPOLY
 70
     0
  9
$TDCREATE
 40
2459510.575580856
  9
$TDUPDATE
 40
2459510.575583553
  9
$TDINDWG
 40
0.0000000116
  9
$TDUSRTIMER
 40
0.0000000116
  9
$USRTIMER
 70
     1
  9
$ANGBASE
 50
0.0
  9
$ANGDIR
 70
     0
  9
$PDMODE
 70
     0
  9
$PDSIZE
 40
-1.0
  9
$PLINEWID
 40
0.0
  9
$COORDS
 70
     1
  9
$SPLFRAME
 70
     0
  9
$SPLINETYPE
 70
     6
  9
$SPLINESEGS
 70
     8
  9
$ATTDIA
 70
     0
  9
$ATTREQ
 70
     1
  9
$HANDLING
 70
     1
  9
$HANDSEED
  5
35D
  9
$SURFTAB1
 70
     6
  9
$SURFTAB2
 70
     6
  9
$SURFTYPE
 70
     6
  9
$SURFU
 70
     6
  9
$SURFV
 70
     6
  9
$UCSNAME
  2

  9
$UCSORG
 10
0.0
 20
0.0
 30
0.0
  9
$UCSXDIR
 10
1.0
 20
0.0
 30
0.0
  9
$UCSYDIR
 10
0.0
 20
1.0
 30
0.0
  9
$PUCSNAME
  2

  9
$PUCSORG
 10
0.0
 20
0.0
 30
0.0
  9
$PUCSXDIR
 10
1.0
 20
0.0
 30
0.0
  9
$PUCSYDIR
 10
0.0
 20
1.0
 30
0.0
  9
$USERI1
 70
     0
  9
$USERI2
 70
     0
  9
$USERI3
 70
     0
  9
$USERI4
 70
     0
  9
$USERI5
 70
     0
  9
$USERR1
 40
0.0
  9
$USERR2
 40
0.0
  9
$USERR3
 40
0.0
  9
$USERR4
 40
0.0
  9
$USERR5
 40
0.0
  9
$WORLDVIEW
 70
     1
  9
$SHADEDGE
 70
     3
  9
$SHADEDIF
 70
    70
  9
$TILEMODE
 70
     1
  9
$MAXACTVP
 70
    64
  9
$PINSBASE
 10
0.0
 20
0.0
 30
0.0
  9
$PLIMCHECK
 70
     0
  9
$PEXTMIN
 10
1.0000000000E+20
 20
1.0000000000E+20
 30
1.0000000000E+20
  9
$PEXTMAX
 10
-1.0000000000E+20
 20
-1.0000000000E+20
 30
-1.0000000000E+20
  9
$PLIMMIN
 10
0.0
 20
0.0
  9
$PLIMMAX
 10
420.0
 20
297.0
  9
$UNITMODE
 70
     0
  9
$VISRETAIN
 70
     1
  9
$PLINEGEN
 70
     0
  9
$PSLTSCALE
 70
     1
  9
$TREEDEPTH
 70
  3020
  9
$PICKSTYLE
 70
     1
  9
$CMLSTYLE
  2
STANDARD
  9
$CMLJUST
 70
     0
  9
$CMLSCALE
 40
20.0
  9
$SAVEIMAGES
 70
     1
  0
ENDSEC
  0
SECTION
  2
CLASSES
  0
CLASS
  1
ACDBDICTIONARYWDFLT
  2
AcDbDictionaryWithDefault
  3
ObjectDBX Classes
 90
    32768
280
     0
281
     0
  0
CLASS
  1
VISUALSTYLE
  2
AcDbVisualStyle
  3
ObjectDBX Classes
 90
     4095
280
     0
281
     0
  0
CLASS
  1
MATERIAL
  2
AcDbMaterial
  3
ObjectDBX Classes
 90
     1153
280
     0
281
     0
  0
CLASS
  1
SCALE
  2
AcDbScale
  3
ObjectDBX Classes
 90
     1153
280
     0
281
     0
  0
CLASS
  1
TABLESTYLE
  2
AcDbTableStyle
  3
ObjectDBX Classes
 90
     4095
280
     0
281
     0
  0
CLASS
  1
MLEADERSTYLE
  2
AcDbMLeaderStyle
  3
ACDB_MLEADERSTYLE_CLASS
 90
     4095
280
     0
281
     0
  0
CLASS
  1
SUN
  2
AcDbSun
  3
SCENEOE
 90
     1153
280
     0
281
     0
  0
CLASS
  1
XRECORD
  2
AcDbXrecord
  3
ObjectDBX Classes
 90
    32768
280
     0
281
     0
  0
ENDSEC
  0
SECTION
  2
TABLES
  0
TABLE
  2
VPORT
  5
8
330
0
100
AcDbSymbolTable
 70
     1
  0
VPORT
  5
29
330
8
100
AcDbSymbolTableRecord
100
AcDbViewportTableRecord
  2
*ACTIVE
 70
     0
 10
0.0
 20
0.0
 11
1.0
 21
1.0
 12
139.7
 22
107.95
 13
0.0
 23
0.0
 14
10.0
 24
10.0
 15
10.0
 25
10.0
 16
0.0
 26
0.0
 36
1.0
 17
0.0
 27
0.0
 37
0.0
 40
215.9
 41
1.2941176471
 42
50.0
 43
0.0
 44
0.0
 50
0.0
 51
0.0
 71
     0
 72
  2000
 73
     1
 74
     3
 75
     0
 76
     0
 77
     0
 78
     0
  0
ENDTAB
  0
TABLE
  2
LTYPE
  5
5
330
0
100
AcDbSymbolTable
 70
     8
  0
LTYPE
  5
14
330
5
100
AcDbSymbolTableRecord
100
AcDbLinetypeTableRecord
  2
BYBLOCK
 70
     0
  3

 72
    65
 73
     0
 40
0.0
  0
LTYPE
  5
15
330
5
100
AcDbSymbolTableRecord
100
AcDbLinetypeTableRecord
  2
BYLAYER
 70
     0
  3

 72
    65
 73
     0
 40
0.0
  0
LTYPE
  5
16
330
5
100
AcDbSymbolTableRecord
100
AcDbLinetypeTableRecord
  2
CONTINUOUS
 70
     0
  3
Solid line
 72
    65
 73
     0
 40
0.0
  0
LTYPE
  5
6E
330
5
100
AcDbSymbolTableRecord
100
AcDbLinetypeTableRecord
  2
SLD-SOLID
 70
     0
  3
SolidWorks Line Style
 72
    65
 73
     0
 40
0.0
  0
LTYPE
  5
6F
330
5
100
AcDbSymbolTableRecord
100
AcDbLinetypeTableRecord
  2
SLD-DASHED
 70
     0
  3
SolidWorks Line Style
 72
    65
 73
     2
 40
1.905
 49
1.27
 74
     0
 49
-0.635
 74
     0
  0
LTYPE
  5
70
330
5
100
AcDbSymbolTableRecord
100
AcDbLinetypeTableRecord
  2
SLD-PHANTOM
 70
     0
  3
SolidWorks Line Style
 72
    65
 73
     6
 40
12.7
 49
6.35
 74
     0
 49
-1.27
 74
     0
 49
1.27
 74
     0
 49
-1.27
 74
     0
 49
1.27
 74
     0
 49
-1.27
 74
     0
  0
LTYPE
  5
71
330
5
100
AcDbSymbolTableRecord
100
AcDbLinetypeTableRecord
  2
SLD-CHAIN
 70
     0
  3
SolidWorks Line Style
 72
    65
 73
     4
 40
10.16
 49
6.35
 74
     0
 49
-1.27
 74
     0
 49
1.27
 74
     0
 49
-1.27
 74
     0
  0
LTYPE
  5
72
330
5
100
AcDbSymbolTableRecord
100
AcDbLinetypeTableRecord
  2
SLD-CENTER
 70
     0
  3
SolidWorks Line Style
 72
    65
 73
     4
 40
19.05
 49
15.24
 74
     0
 49
-1.27
 74
     0
 49
1.27
 74
     0
 49
-1.27
 74
     0
  0
LTYPE
  5
73
330
5
100
AcDbSymbolTableRecord
100
AcDbLinetypeTableRecord
  2
SLD-STITCH
 70
     0
  3
SolidWorks Line Style
 72
    65
 73
     2
 40
0.635
 49
0.0
 74
     0
 49
-0.635
 74
     0
  0
LTYPE
  5
74
330
5
100
AcDbSymbolTableRecord
100
AcDbLinetypeTableRecord
  2
SLD-THIN-THICK-CHAIN
 70
     0
  3
SolidWorks Line Style
 72
    65
 73
     4
 40
10.16
 49
6.35
 74
     0
 49
-1.27
 74
     0
 49
1.27
 74
     0
 49
-1.27
 74
     0
  0
ENDTAB
  0
TABLE
  2
LAYER
  5
2
330
0
100
AcDbSymbolTable
 70
     2
  0
LAYER
  5
10
330
2
100
AcDbSymbolTableRecord
100
AcDbLayerTableRecord
  2
0
 70
     0
 62
     7
  6
CONTINUOUS
  0
LAYER
  5
75
330
2
100
AcDbSymbolTableRecord
100
AcDbLayerTableRecord
  2
FORMAT
 70
     0
 62
     7
  6
SLD-SOLID
  0
ENDTAB
  0
TABLE
  2
STYLE
  5
3
330
0
100
AcDbSymbolTable
 70
     6
  0
STYLE
  5
11
330
3
100
AcDbSymbolTableRecord
100
AcDbTextStyleTableRecord
  2
STANDARD
 70
     0
 40
0.0
 41
1.0
 50
0.0
 71
     0
 42
2.8222222222
  3
txt
  4

  0
STYLE
  5
9F
330
3
100
AcDbSymbolTableRecord
100
AcDbTextStyleTableRecord
  2
SLDTEXTSTYLE0
 70
     0
 40
0.0
 41
0.75
 50
0.0
 71
     0
 42
2.8222222222
  3
TXT
  4

  0
STYLE
  5
A5
330
3
100
AcDbSymbolTableRecord
100
AcDbTextStyleTableRecord
  2
SLDTEXTSTYLE1
 70
     0
 40
0.0
 41
0.75
 50
0.0
 71
     0
 42
2.8222222222
  3
TXT
  4
bigfont
  0
STYLE
  5
B4
330
3
100
AcDbSymbolTableRecord
100
AcDbTextStyleTableRecord
  2
SLDTEXTSTYLE2
 70
     0
 40
0.0
 41
0.6964285714
 50
0.0
 71
     0
 42
2.8222222222
  3
TXT
  4

  0
STYLE
  5
C8
330
3
100
AcDbSymbolTableRecord
100
AcDbTextStyleTableRecord
  2
SLDTEXTSTYLE3
 70
     0
 40
0.0
 41
0.5525
 50
0.0
 71
     0
 42
2.8222222222
  3
TXT
  4

  0
STYLE
  5
CD
330
3
100
AcDbSymbolTableRecord
100
AcDbTextStyleTableRecord
  2
SLDTEXTSTYLE4
 70
     0
 40
0.0
 41
0.6875
 50
0.0
 71
     0
 42
2.8222222222
  3
TXT
  4

  0
ENDTAB
  0
TABLE
  2
VIEW
  5
6
330
0
100
AcDbSymbolTable
 70
     0
  0
ENDTAB
  0
TABLE
  2
UCS
  5
7
330
0
100
AcDbSymbolTable
 70
     0
  0
ENDTAB
  0
TABLE
  2
APPID
  5
9
330
0
100
AcDbSymbolTable
 70
     1
  0
APPID
  5
12
330
9
100
AcDbSymbolTableRecord
100
AcDbRegAppTableRecord
  2
ACAD
 70
     0
  0
ENDTAB
  0
TABLE
  2
DIMSTYLE
  5
A
330
0
100
AcDbSymbolTable
 70
     5
  0
DIMSTYLE
105
27
330
A
100
AcDbSymbolTableRecord
100
AcDbDimStyleTableRecord
  2
ISO-25
 70
     0
  3

  4

  5

  6

  7

 40
1.0
 41
2.5
 42
0.625
 43
3.75
 44
1.25
 45
0.0
 46
0.0
 47
0.0
 48
0.0
140
2.5
141
2.5
142
0.0
143
0.0393700787
144
1.0
145
0.0
146
1.0
147
0.625
 71
     0
 72
     0
 73
     0
 74
     0
 75
     0
 76
     0
 77
     1
 78
     8
170
     0
171
     3
172
     1
173
     0
174
     0
175
     0
176
     0
177
     0
178
     0
270
     2
271
     2
272
     2
273
     2
274
     3
340
11
275
     0
280
     0
281
     0
282
     0
283
     0
284
     8
285
     0
286
     0
287
     3
288
     0
  0
DIMSTYLE
105
ED
102
{ACAD_REACTORS
330
EC
102
}
330
A
100
AcDbSymbolTableRecord
100
AcDbDimStyleTableRecord
  2
SLDDIMSTYLE0
 70
     0
  3

  4

  5

  6

  7

 40
1.0
 41
3.175
 42
0.0625
 43
0.38
 44
0.0
 45
0.000000001
 46
0.0
 47
0.0
 48
0.0
140
2.1166666667
141
0.0
142
0.0
143
0.0393700787
144
1.0
145
0.0
146
1.0
147
0.5291666667
 71
     0
 72
     0
 73
     1
 74
     1
 75
     0
 76
     0
 77
     0
 78
    12
170
     1
171
     2
172
     0
173
     1
174
     0
175
     0
176
     0
177
     0
178
     0
270
     2
271
     1
272
     1
273
     2
274
     2
340
9F
275
     0
280
     0
281
     0
282
     0
283
     1
284
    12
285
     0
286
     0
287
     3
288
     0
  0
DIMSTYLE
105
166
102
{ACAD_REACTORS
330
165
102
}
330
A
100
AcDbSymbolTableRecord
100
AcDbDimStyleTableRecord
  2
SLDDIMSTYLE1
 70
     0
  3

  4

  5

  6

  7

 40
1.0
 41
3.175
 42
0.0625
 43
0.38
 44
0.0
 45
0.0
 46
0.0
 47
0.0
 48
0.0
140
2.1166666667
141
0.09
142
0.0
143
0.0393700787
144
1.0
145
0.0
146
1.0
147
0.5291666667
 71
     0
 72
     0
 73
     1
 74
     1
 75
     0
 76
     0
 77
     0
 78
    12
170
     1
171
     2
172
     0
173
     1
174
     0
175
     0
176
     0
177
     0
178
     0
270
     2
271
     4
272
     0
273
     2
274
     2
340
9F
275
     0
280
     0
281
     0
282
     0
283
     1
284
    12
285
     0
286
     0
287
     3
288
     0
  0
DIMSTYLE
105
174
102
{ACAD_REACTORS
330
173
102
}
330
A
100
AcDbSymbolTableRecord
100
AcDbDimStyleTableRecord
  2
SLDDIMSTYLE2
 70
     0
  3

  4

  5

  6

  7

 40
1.0
 41
3.175
 42
0.0625
 43
0.38
 44
0.0
 45
0.000000001
 46
0.0
 47
0.0
 48
0.0
140
2.1166666667
141
0.09
142
0.0
143
0.0393700787
144
1.0
145
0.0
146
1.0
147
0.5291666667
 71
     0
 72
     0
 73
     1
 74
     1
 75
     0
 76
     0
 77
     0
 78
     4
170
     1
171
     2
172
     1
173
     1
174
     0
175
     0
176
     0
177
     0
178
     0
270
     2
271
     1
272
     1
273
     2
274
     2
340
9F
275
     0
280
     0
281
     0
282
     0
283
     1
284
    12
285
     0
286
     0
288
     0
  0
DIMSTYLE
105
189
330
A
100
AcDbSymbolTableRecord
100
AcDbDimStyleTableRecord
  2
SLDDIMSTYLE3
 70
     0
  3

  4

  5

  6

  7

 40
1.0
 41
3.175
 42
0.0625
 43
0.38
 44
0.0
 45
0.000000001
 46
0.0
 47
0.0
 48
0.0
140
0.18
141
0.09
142
0.0
143
25.4
144
1.0
145
0.0
146
3.175
147
0.0
 71
     0
 72
     0
 73
     1
 74
     1
 75
     0
 76
     0
 77
     0
 78
     0
170
     0
171
     2
172
     0
173
     1
174
     0
175
     0
176
     0
177
     0
178
     0
270
     2
271
     0
272
     0
273
     2
274
     2
340
11
275
     0
280
     0
281
     0
282
     0
283
     1
284
     0
285
     0
286
     0
287
     3
288
     0
  0
ENDTAB
  0
TABLE
  2
BLOCK_RECORD
  5
1
330
0
100
AcDbSymbolTable
 70
    11
  0
BLOCK_RECORD
  5
1F
330
1
100
AcDbSymbolTableRecord
100
AcDbBlockTableRecord
  2
*MODEL_SPACE
  0
BLOCK_RECORD
  5
1B
330
1
100
AcDbSymbolTableRecord
100
AcDbBlockTableRecord
  2
*PAPER_SPACE
  0
BLOCK_RECORD
  5
23
330
1
100
AcDbSymbolTableRecord
100
AcDbBlockTableRecord
  2
*PAPER_SPACE0
  0
BLOCK_RECORD
  5
76
330
1
100
AcDbSymbolTableRecord
100
AcDbBlockTableRecord
  2
THIRD_ANGLE_PROJECTION_BLO
  0
BLOCK_RECORD
  5
9C
330
1
100
AcDbSymbolTableRecord
100
AcDbBlockTableRecord
  2
SW_NOTE_0
  0
BLOCK_RECORD
  5
CF
330
1
100
AcDbSymbolTableRecord
100
AcDbBlockTableRecord
  2
SW_NOTE_1
  0
BLOCK_RECORD
  5
D5
330
1
100
AcDbSymbolTableRecord
100
AcDbBlockTableRecord
  2
SW_NOTE_2
  0
BLOCK_RECORD
  5
DC
330
1
100
AcDbSymbolTableRecord
100
AcDbBlockTableRecord
  2
SW_NOTE_3
  0
BLOCK_RECORD
  5
E3
330
1
100
AcDbSymbolTableRecord
100
AcDbBlockTableRecord
  2
SW_NOTE_4
  0
BLOCK_RECORD
  5
EE
330
1
100
AcDbSymbolTableRecord
100
AcDbBlockTableRecord
  2
_D
  0
BLOCK_RECORD
  5
167
330
1
100
AcDbSymbolTableRecord
100
AcDbBlockTableRecord
  2
_D_1
  0
BLOCK_RECORD
  5
175
330
1
100
AcDbSymbolTableRecord
100
AcDbBlockTableRecord
  2
_D_2
  0
BLOCK_RECORD
  5
18D
330
1
100
AcDbSymbolTableRecord
100
AcDbBlockTableRecord
  2
SW_NOTE_5
  0
ENDTAB
  0
ENDSEC
  0
SECTION
  2
BLOCKS
  0
BLOCK
  5
20
330
1F
100
AcDbEntity
  8
0
100
AcDbBlockBegin
  2
*MODEL_SPACE
 70
     0
 10
0.0
 20
0.0
 30
0.0
  3
*MODEL_SPACE
  1

  0
ENDBLK
  5
21
330
1F
100
AcDbEntity
  8
0
100
AcDbBlockEnd
  0
BLOCK
  5
1C
330
1B
100
AcDbEntity
 67
     1
  8
0
100
AcDbBlockBegin
  2
*PAPER_SPACE
 70
     0
 10
0.0
 20
0.0
 30
0.0
  3
*PAPER_SPACE
  1

  0
ENDBLK
  5
1D
330
1B
100
AcDbEntity
 67
     1
  8
0
100
AcDbBlockEnd
  0
BLOCK
  5
24
330
23
100
AcDbEntity
  8
0
100
AcDbBlockBegin
  2
*PAPER_SPACE0
 70
     0
 10
0.0
 20
0.0
 30
0.0
  3
*PAPER_SPACE0
  1

  0
ENDBLK
  5
25
330
23
100
AcDbEntity
  8
0
100
AcDbBlockEnd
  0
BLOCK
  5
77
330
76
100
AcDbEntity
  8
0
100
AcDbBlockBegin
  2
THIRD_ANGLE_PROJECTION_BLO
 70
     0
 10
0.0
 20
0.0
 30
0.0
  3
THIRD_ANGLE_PROJECTION_BLO
  1

  0
CIRCLE
  5
79
330
76
100
AcDbEntity
  8
0
  6
SLD-SOLID
 62
     7
100
AcDbCircle
 10
101.4766388944
 20
18.9404083667
 30
0.0
 40
1.768227153674871
  0
CIRCLE
  5
7A
330
76
100
AcDbEntity
  8
0
  6
SLD-SOLID
 62
     7
100
AcDbCircle
 10
101.4766388944
 20
18.9404083667
 30
0.0
 40
3.901228248531818
  0
LINE
  5
7B
330
76
100
AcDbEntity
  8
0
  6
SLD-CENTER
 62
     7
100
AcDbLine
 10
110.1367822585
 20
18.9404083667
 30
0.0
 11
119.4527334874
 21
18.9404083667
 31
0.0
  0
LINE
  5
7C
330
76
100
AcDbEntity
  8
0
  6
SLD-SOLID
 62
     7
100
AcDbLine
 10
111.0016388944
 20
20.7086355204
 30
0.0
 11
111.0016388944
 21
17.172181213
 31
0.0
  0
LINE
  5
7D
330
76
100
AcDbEntity
  8
0
  6
SLD-SOLID
 62
     7
100
AcDbLine
 10
111.0016388944
 20
17.172181213
 30
0.0
 11
118.6216388944
 21
15.1304083667
 31
0.0
  0
LINE
  5
7E
330
76
100
AcDbEntity
  8
0
  6
SLD-SOLID
 62
     7
100
AcDbLine
 10
118.6216388944
 20
15.1304083667
 30
0.0
 11
118.6216388944
 21
22.7504083667
 31
0.0
  0
LINE
  5
7F
330
76
100
AcDbEntity
  8
0
  6
SLD-SOLID
 62
     7
100
AcDbLine
 10
118.6216388944
 20
22.7504083667
 30
0.0
 11
111.0016388944
 21
20.7086355204
 31
0.0
  0
LINE
  5
80
330
76
100
AcDbEntity
  8
0
  6
SLD-CENTER
 62
     7
100
AcDbLine
 10
96.6025854619
 20
18.9404083667
 30
0.0
 11
106.3506923269
 21
18.9404083667
 31
0.0
  0
LINE
  5
81
330
76
100
AcDbEntity
  8
0
  6
SLD-CENTER
 62
     7
100
AcDbLine
 10
101.4766388944
 20
23.8144617992
 30
0.0
 11
101.4766388944
 21
14.0663549342
 31
0.0
  0
POINT
  5
82
330
76
100
AcDbEntity
  8
0
  6
CONTINUOUS
 62
     7
100
AcDbPoint
 10
101.4766388944
 20
18.9404083667
 30
0.0
  0
ENDBLK
  5
78
330
76
100
AcDbEntity
  8
0
100
AcDbBlockEnd
  0
BLOCK
  5
9D
330
9C
100
AcDbEntity
  8
0
100
AcDbBlockBegin
  2
SW_NOTE_0
 70
     0
 10
0.0
 20
0.0
 30
0.0
  3
SW_NOTE_0
  1

  0
MTEXT
  5
A0
330
9C
100
AcDbEntity
  8
0
  6
CONTINUOUS
 62
     0
100
AcDbMText
 10
0.0
 20
3.0695925553
 30
0.0
 40
2.38125
 41
0.0
 71
     1
 72
     1
  1
NOTES/SPECIFICATIONS:
  7
SLDTEXTSTYLE0
  0
MTEXT
  5
A1
330
9C
100
AcDbEntity
  8
0
  6
CONTINUOUS
 62
     0
100
AcDbMText
 10
9.9999997765
 20
-3.2804073679
 30
0.0
 40
2.38125
 41
0.0
 71
     1
 72
     1
  1
CLEAR APERTURE: >
  7
SLDTEXTSTYLE0
  0
MTEXT
  5
A2
330
9C
100
AcDbEntity
  8
0
  6
CONTINUOUS
 62
     0
100
AcDbMText
 10
39.5010411739
 20
-3.2804073679
 30
0.0
 40
2.38125
 41
0.0
 71
     1
 72
     1
  1
%%c
  7
SLDTEXTSTYLE0
  0
MTEXT
  5
A3
330
9C
100
AcDbEntity
  8
0
  6
CONTINUOUS
 62
     0
100
AcDbMText
 10
43.0954080075
 20
-3.2804073679
 30
0.0
 40
2.38125
 41
0.0
 71
     1
 72
     1
  1
40.64 mm
  7
SLDTEXTSTYLE0
  0
MTEXT
  5
A4
330
9C
100
AcDbEntity
  8
0
  6
CONTINUOUS
 62
     0
100
AcDbMText
 10
0.0
 20
-3.2804073679
 30
0.0
 40
2.38125
 41
0.0
 71
     1
 72
     1
  1
1.
  7
SLDTEXTSTYLE0
  0
MTEXT
  5
A6
330
9C
100
AcDbEntity
  8
0
  6
CONTINUOUS
 62
     0
100
AcDbMText
 10
9.9999997765
 20
-6.4554073296
 30
0.0
 40
2.38125
 41
0.0
 71
     1
 72
     1
  1
SURFACE FLATNESS(S1, S2): \M+183C9/10 AT 633 nm OVER CLEAR APERTURE
  7
SLDTEXTSTYLE1
  0
MTEXT
  5
A7
330
9C
100
AcDbEntity
  8
0
  6
CONTINUOUS
 62
     0
100
AcDbMText
 10
0.0
 20
-6.4554073296
 30
0.0
 40
2.38125
 41
0.0
 71
     1
 72
     1
  1
2.
  7
SLDTEXTSTYLE0
  0
MTEXT
  5
A8
330
9C
100
AcDbEntity
  8
0
  6
CONTINUOUS
 62
     0
100
AcDbMText
 10
9.9999997765
 20
-9.6304072912
 30
0.0
 40
2.38125
 41
0.0
 71
     1
 72
     1
  1
SURFACE QUALITY (S1, S2): 10-5 SCRATCH-DIG
  7
SLDTEXTSTYLE0
  0
MTEXT
  5
A9
330
9C
100
AcDbEntity
  8
0
  6
CONTINUOUS
 62
     0
100
AcDbMText
 10
0.0
 20
-9.6304072912
 30
0.0
 40
2.38125
 41
0.0
 71
     1
 72
     1
  1
3.
  7
SLDTEXTSTYLE0
  0
MTEXT
  5
AA
330
9C
100
AcDbEntity
  8
0
  6
CONTINUOUS
 62
     0
100
AcDbMText
 10
9.9999997765
 20
-12.8054072528
 30
0.0
 40
2.38125
 41
0.0
 71
     1
 72
     1
  1
THICKNESS TOLERANCE:
  7
SLDTEXTSTYLE0
  0
MTEXT
  5
AB
330
9C
100
AcDbEntity
  8
0
  6
CONTINUOUS
 62
     0
100
AcDbMText
 10
47.6193409413
 20
-12.8054072528
 30
0.0
 40
2.38125
 41
0.0
 71
     1
 72
     1
  1
%%p
  7
SLDTEXTSTYLE0
  0
MTEXT
  5
AC
330
9C
100
AcDbEntity
  8
0
  6
CONTINUOUS
 62
     0
100
AcDbMText
 10
49.889465794
 20
-12.8054072528
 30
0.0
 40
2.38125
 41
0.0
 71
     1
 72
     1
  1
0.1 mm
  7
SLDTEXTSTYLE0
  0
MTEXT
  5
AD
330
9C
100
AcDbEntity
  8
0
  6
CONTINUOUS
 62
     0
100
AcDbMText
 10
0.0
 20
-12.8054072528
 30
0.0
 40
2.38125
 41
0.0
 71
     1
 72
     1
  1
4.
  7
SLDTEXTSTYLE0
  0
MTEXT
  5
AE
330
9C
100
AcDbEntity
  8
0
  6
CONTINUOUS
 62
     0
100
AcDbMText
 10
9.9999997765
 20
-15.9804072144
 30
0.0
 40
2.38125
 41
0.0
 71
     1
 72
     1
  1
DIAMETER TOLERANCE: + 0.00/-0.20 mm
  7
SLDTEXTSTYLE0
  0
MTEXT
  5
AF
330
9C
100
AcDbEntity
  8
0
  6
CONTINUOUS
 62
     0
100
AcDbMText
 10
0.0
 20
-15.9804072144
 30
0.0
 40
2.38125
 41
0.0
 71
     1
 72
     1
  1
5.
  7
SLDTEXTSTYLE0
  0
MTEXT
  5
B0
330
9C
100
AcDbEntity
  8
0
  6
CONTINUOUS
 62
     0
100
AcDbMText
 10
9.9999997765
 20
-19.1554071761
 30
0.0
 40
2.38125
 41
0.0
 71
     1
 72
     1
  1
WEDGE TOLERANCE:
  7
SLDTEXTSTYLE0
  0
MTEXT
  5
B1
330
9C
100
AcDbEntity
  8
0
  6
CONTINUOUS
 62
     0
100
AcDbMText
 10
43.2889927179
 20
-19.1554071761
 30
0.0
 40
2.38125
 41
0.0
 71
     1
 72
     1
  1
%%p
  7
SLDTEXTSTYLE0
  0
MTEXT
  5
B2
330
9C
100
AcDbEntity
  8
0
  6
CONTINUOUS
 62
     0
100
AcDbMText
 10
45.5591175705
 20
-19.1554071761
 30
0.0
 40
2.38125
 41
0.0
 71
     1
 72
     1
  1
10 arcmin
  7
SLDTEXTSTYLE0
  0
MTEXT
  5
B3
330
9C
100
AcDbEntity
  8
0
  6
CONTINUOUS
 62
     0
100
AcDbMText
 10
0.0
 20
-19.1554071761
 30
0.0
 40
2.38125
 41
0.0
 71
     1
 72
     1
  1
6.
  7
SLDTEXTSTYLE0
  0
MTEXT
  5
B5
330
9C
100
AcDbEntity
  8
0
  6
CONTINUOUS
 62
     0
100
AcDbMText
 10
9.9999997765
 20
-22.3304071377
 30
0.0
 40
2.38125
 41
0.0
 71
     1
 72
     1
  1
COATING (S1): Ravg >99% AT 532 nm, Tavg > 95% AT 1064 nm
  7
SLDTEXTSTYLE2
  0
MTEXT
  5
B6
330
9C
100
AcDbEntity
  8
0
  6
CONTINUOUS
 62
     0
100
AcDbMText
 10
0.0
 20
-22.3304071377
 30
0.0
 40
2.38125
 41
0.0
 71
     1
 72
     1
  1
7.
  7
SLDTEXTSTYLE0
  0
MTEXT
  5
B7
330
9C
100
AcDbEntity
  8
0
  6
CONTINUOUS
 62
     0
100
AcDbMText
 10
10.0
 20
-25.5054070993
 30
0.0
 40
2.38125
 41
0.0
 71
     1
 72
     1
  1
AOI: 45
  7
SLDTEXTSTYLE0
  0
MTEXT
  5
B8
330
9C
100
AcDbEntity
  8
0
  6
CONTINUOUS
 62
     0
100
AcDbMText
 10
21.1036803573
 20
-25.5054070993
 30
0.0
 40
2.38125
 41
0.0
 71
     1
 72
     1
  1
%%d
  7
SLDTEXTSTYLE0
  0
MTEXT
  5
B9
330
9C
100
AcDbEntity
  8
0
  6
CONTINUOUS
 62
     0
100
AcDbMText
 10
9.9999997765
 20
-28.680407061
 30
0.0
 40
2.38125
 41
0.0
 71
     1
 72
     1
  1
COATING (S2): V-COAT AT 1064 nm, Ravg: < 0.5%, AOI: 45
  7
SLDTEXTSTYLE0
  0
MTEXT
  5
BA
330
9C
100
AcDbEntity
  8
0
  6
CONTINUOUS
 62
     0
100
AcDbMText
 10
97.8372562677
 20
-28.680407061
 30
0.0
 40
2.38125
 41
0.0
 71
     1
 72
     1
  1
%%d
  7
SLDTEXTSTYLE0
  0
MTEXT
  5
BB
330
9C
100
AcDbEntity
  8
0
  6
CONTINUOUS
 62
     0
100
AcDbMText
 10
0.0
 20
-28.680407061
 30
0.0
 40
2.38125
 41
0.0
 71
     1
 72
     1
  1
8.
  7
SLDTEXTSTYLE0
  0
ENDBLK
  5
9E
330
9C
100
AcDbEntity
  8
0
100
AcDbBlockEnd
  0
BLOCK
  5
D0
330
CF
100
AcDbEntity
  8
0
100
AcDbBlockBegin
  2
SW_NOTE_1
 70
     0
 10
0.0
 20
0.0
 30
0.0
  3
SW_NOTE_1
  1

  0
MTEXT
  5
D2
330
CF
100
AcDbEntity
  8
0
  6
CONTINUOUS
 62
     0
100
AcDbMText
 10
19.90725
 20
1.9645392354
 30
0.0
 40
1.524
 41
0.0
 71
     2
 72
     1
  1
VALUES IN PARENTHESIS ARE CALCULATED
  7
SLDTEXTSTYLE0
  0
MTEXT
  5
D3
330
CF
100
AcDbEntity
  8
0
  6
CONTINUOUS
 62
     0
100
AcDbMText
 10
19.8778795174
 20
-0.5594606586
 30
0.0
 40
1.524
 41
0.0
 71
     2
 72
     1
  1
AND MAY CONTAIN ROUNDOFF ERRORS
  7
SLDTEXTSTYLE0
  0
ENDBLK
  5
D1
330
CF
100
AcDbEntity
  8
0
100
AcDbBlockEnd
  0
BLOCK
  5
D6
330
D5
100
AcDbEntity
  8
0
100
AcDbBlockBegin
  2
SW_NOTE_2
 70
     0
 10
0.0
 20
0.0
 30
0.0
  3
SW_NOTE_2
  1

  0
MTEXT
  5
D8
330
D5
100
AcDbEntity
  8
0
  6
CONTINUOUS
 62
     0
100
AcDbMText
 10
0.0
 20
2.7285267159
 30
0.0
 40
2.1166666667
 41
0.0
 71
     1
 72
     1
  1
DRAWING
  7
SLDTEXTSTYLE0
  0
MTEXT
  5
D9
330
D5
100
AcDbEntity
  8
0
  6
CONTINUOUS
 62
     0
100
AcDbMText
 10
0.0
 20
-0.0936954723
 30
0.0
 40
2.1166666667
 41
0.0
 71
     1
 72
     1
  1
PROJECTION
  7
SLDTEXTSTYLE0
  0
ENDBLK
  5
D7
330
D5
100
AcDbEntity
  8
0
100
AcDbBlockEnd
  0
BLOCK
  5
DD
330
DC
100
AcDbEntity
  8
0
100
AcDbBlockBegin
  2
SW_NOTE_3
 70
     0
 10
0.0
 20
0.0
 30
0.0
  3
SW_NOTE_3
  1

  0
MTEXT
  5
DF
330
DC
100
AcDbEntity
  8
0
  6
CONTINUOUS
 62
     0
100
AcDbMText
 10
25.052734375
 20
4.0927900738
 30
0.0
 40
3.175
 41
0.0
 71
     2
 72
     1
  1
FOR INFORMATION ONLY
  7
SLDTEXTSTYLE0
  0
MTEXT
  5
E0
330
DC
100
AcDbEntity
  8
0
  6
CONTINUOUS
 62
     0
100
AcDbMText
 10
25.3768468589
 20
-0.1405432084
 30
0.0
 40
3.175
 41
0.0
 71
     2
 72
     1
  1
NOT FOR MANUFACTURING PURPOSES
  7
SLDTEXTSTYLE0
  0
ENDBLK
  5
DE
330
DC
100
AcDbEntity
  8
0
100
AcDbBlockEnd
  0
BLOCK
  5
E4
330
E3
100
AcDbEntity
  8
0
100
AcDbBlockBegin
  2
SW_NOTE_4
 70
     0
 10
0.0
 20
0.0
 30
0.0
  3
SW_NOTE_4
  1

  0
MTEXT
  5
E6
330
E3
100
AcDbEntity
  8
0
  6
CONTINUOUS
 62
     0
100
AcDbMText
 10
1.7115234375
 20
3.0695925553
 30
0.0
 40
2.38125
 41
0.0
 71
     2
 72
     1
  1
%%c
  7
SLDTEXTSTYLE0
  0
MTEXT
  5
E7
330
E3
100
AcDbEntity
  8
0
  6
CONTINUOUS
 62
     0
100
AcDbMText
 10
30.048563724
 20
3.0695925553
 30
0.0
 40
2.38125
 41
0.0
 71
     2
 72
     1
  1
50.8 mm HARMONIC BEAMSPLITTER,
  7
SLDTEXTSTYLE0
  0
MTEXT
  5
E8
330
E3
100
AcDbEntity
  8
0
  6
CONTINUOUS
 62
     0
100
AcDbMText
 10
28.8524788558
 20
-0.1054074063
 30
0.0
 40
2.38125
 41
0.0
 71
     2
 72
     1
  1
2ND HARMONIC ND:YAG
  7
SLDTEXTSTYLE0
  0
ENDBLK
  5
E5
330
E3
100
AcDbEntity
  8
0
100
AcDbBlockEnd
  0
BLOCK
  5
EF
330
EE
100
AcDbEntity
  8
0
100
AcDbBlockBegin
  2
_D
 70
     0
 10
0.0
 20
0.0
 30
0.0
  3
_D
  1

  0
SOLID
  5
F1
330
EE
100
AcDbEntity
  8
0
  6
SLD-SOLID
 62
     7
100
AcDbTrace
 10
88.7232427553
 20
126.1371036738
 30
0.0
 11
90.7506836604
 21
128.6327343308
 31
0.0
 12
89.8708018502
 22
129.1407343308
 32
0.0
 13
89.8708018502
 23
129.1407343308
 33
0.0
  0
LINE
  5
F2
330
EE
100
AcDbEntity
  8
0
  6
SLD-SOLID
 62
     7
100
AcDbLine
 10
100.8244328145
 20
136.6872222003
 30
0.0
 11
100.1806133604
 21
136.6872222003
 31
0.0
  0
LINE
  5
F3
330
EE
100
AcDbEntity
  8
0
  6
SLD-SOLID
 62
     7
100
AcDbLine
 10
100.1806133604
 20
136.6872222003
 30
0.0
 11
100.1806133604
 21
133.3240741239
 31
0.0
  0
LINE
  5
F4
330
EE
100
AcDbEntity
  8
0
  6
SLD-SOLID
 62
     7
100
AcDbLine
 10
100.1806133604
 20
133.3240741239
 30
0.0
 11
100.8244328145
 21
133.3240741239
 31
0.0
  0
LINE
  5
F5
330
EE
100
AcDbEntity
  8
0
  6
SLD-SOLID
 62
     7
100
AcDbLine
 10
108.5816243608
 20
136.6872222003
 30
0.0
 11
109.2254438149
 21
136.6872222003
 31
0.0
  0
LINE
  5
F6
330
EE
100
AcDbEntity
  8
0
  6
SLD-SOLID
 62
     7
100
AcDbLine
 10
109.2254438149
 20
136.6872222003
 30
0.0
 11
109.2254438149
 21
133.3240741239
 31
0.0
  0
LINE
  5
F7
330
EE
100
AcDbEntity
  8
0
  6
SLD-SOLID
 62
     7
100
AcDbLine
 10
109.2254438149
 20
133.3240741239
 30
0.0
 11
108.5816243608
 21
133.3240741239
 31
0.0
  0
LINE
  5
F8
330
EE
100
AcDbEntity
  8
0
  6
SLD-SOLID
 62
     7
100
AcDbLine
 10
88.7232427553
 20
126.1371036738
 30
0.0
 11
95.7267939063
 21
138.2676101007
 31
0.0
  0
LINE
  5
F9
330
EE
100
AcDbEntity
  8
0
  6
SLD-SOLID
 62
     7
100
AcDbLine
 10
95.7267939063
 20
138.2676101007
 30
0.0
 11
99.5367939063
 21
138.2676101007
 31
0.0
  0
MTEXT
  5
FA
330
EE
100
AcDbEntity
  8
0
  6
SLD-SOLID
 62
     7
100
AcDbMText
 10
99.5367939063
 20
139.8449618468
 30
0.0
 40
2.1166666667
 41
0.0
 71
     1
 72
     1
  1
%%c
  7
SLDTEXTSTYLE0
  0
MTEXT
  5
FB
330
EE
100
AcDbEntity
  8
0
  6
SLD-SOLID
 62
     7
100
AcDbMText
 10
102.731784707
 20
139.8449618468
 30
0.0
 40
2.1166666667
 41
0.0
 71
     1
 72
     1
  1
50.8mm
  7
SLDTEXTSTYLE0
  0
MTEXT
  5
FC
330
EE
100
AcDbEntity
  8
0
  6
SLD-SOLID
 62
     7
100
AcDbMText
 10
100.8244328145
 20
136.0526007233
 30
0.0
 40
2.1166666667
 41
0.0
 71
     1
 72
     1
  1
2.00in
  7
SLDTEXTSTYLE0
  0
ENDBLK
  5
F0
330
EE
100
AcDbEntity
  8
0
100
AcDbBlockEnd
  0
BLOCK
  5
168
330
167
100
AcDbEntity
  8
0
100
AcDbBlockBegin
  2
_D_1
 70
     0
 10
0.0
 20
0.0
 30
0.0
  3
_D_1
  1

  0
ARC
  5
16A
330
167
100
AcDbEntity
  8
0
  6
SLD-SOLID
 62
     7
100
AcDbCircle
 10
211.9619604836
 20
78.9900488984
 30
0.0
 40
68.37726612155818
100
AcDbArc
 50
83.977904376
 51
90.0
  0
ARC
  5
16B
330
167
100
AcDbEntity
  8
0
  6
SLD-SOLID
 62
     7
100
AcDbCircle
 10
211.9619604836
 20
78.9900488984
 30
0.0
 40
68.3772661215582
100
AcDbArc
 50
90.5
 51
95.8156431691
  0
SOLID
  5
16C
330
167
100
AcDbEntity
  8
0
  6
SLD-SOLID
 62
     7
100
AcDbTrace
 10
211.9619604836
 20
147.36731502
 30
0.0
 11
215.1243214553
 21
146.7857979655
 31
0.0
 12
215.1478906594
 22
147.8015245491
 32
0.0
 13
215.1478906594
 23
147.8015245491
 33
0.0
  0
SOLID
  5
16D
330
167
100
AcDbEntity
  8
0
  6
SLD-SOLID
 62
     7
100
AcDbTrace
 10
211.3652638435
 20
147.3647114232
 30
0.0
 11
208.1756658333
 21
147.7711022862
 31
0.0
 12
208.208097914
 22
146.7556200559
 32
0.0
 13
208.208097914
 23
146.7556200559
 33
0.0
  0
LINE
  5
16E
330
167
100
AcDbEntity
  8
0
  6
SLD-SOLID
 62
     7
100
AcDbLine
 10
211.9619604836
 20
130.4161608785
 30
0.0
 11
211.9619604836
 21
149.14531502
 31
0.0
  0
LINE
  5
16F
330
167
100
AcDbEntity
  8
0
  6
SLD-SOLID
 62
     7
100
AcDbLine
 10
211.5118787485
 20
130.5643073708
 30
0.0
 11
211.3497480634
 21
149.1426437224
 31
0.0
  0
MTEXT
  5
170
330
167
100
AcDbEntity
  8
0
  6
SLD-SOLID
 62
     7
100
AcDbMText
 10
219.1355551528
 20
146.4013439197
 30
0.0
 40
2.1166666667
 41
0.0
 71
     1
 72
     1
  1
30 arcmin
  7
SLDTEXTSTYLE0
  0
MTEXT
  5
171
330
167
100
AcDbEntity
  8
0
  6
SLD-SOLID
 62
     7
100
AcDbMText
 10
232.5803085165
 20
146.4013439197
 30
0.0
 40
2.1166666667
 41
0.0
 71
     1
 72
     1
  1
%%p
  7
SLDTEXTSTYLE0
  0
MTEXT
  5
172
330
167
100
AcDbEntity
  8
0
  6
SLD-SOLID
 62
     7
100
AcDbMText
 10
234.5981976884
 20
146.4013439197
 30
0.0
 40
2.1166666667
 41
0.0
 71
     1
 72
     1
  1
10
  7
SLDTEXTSTYLE0
  0
ENDBLK
  5
169
330
167
100
AcDbEntity
  8
0
100
AcDbBlockEnd
  0
BLOCK
  5
176
330
175
100
AcDbEntity
  8
0
100
AcDbBlockBegin
  2
_D_2
 70
     0
 10
0.0
 20
0.0
 30
0.0
  3
_D_2
  1

  0
SOLID
  5
178
330
175
100
AcDbEntity
  8
0
  6
SLD-SOLID
 62
     7
100
AcDbTrace
 10
203.9641421175
 20
62.6400584177
 30
0.0
 11
200.7891421175
 21
63.1480584177
 31
0.0
 12
200.7891421175
 22
62.1320584177
 32
0.0
 13
200.7891421175
 23
62.1320584177
 33
0.0
  0
SOLID
  5
179
330
175
100
AcDbEntity
  8
0
  6
SLD-SOLID
 62
     7
100
AcDbTrace
 10
211.9619604836
 20
62.6400584177
 30
0.0
 11
215.1369604836
 21
62.1320584177
 31
0.0
 12
215.1369604836
 22
63.1480584177
 32
0.0
 13
215.1369604836
 23
63.1480584177
 33
0.0
  0
LINE
  5
17A
330
175
100
AcDbEntity
  8
0
  6
SLD-SOLID
 62
     7
100
AcDbLine
 10
222.0842748866
 20
62.6400581848
 30
0.0
 11
221.4404554324
 21
62.6400581848
 31
0.0
  0
LINE
  5
17B
330
175
100
AcDbEntity
  8
0
  6
SLD-SOLID
 62
     7
100
AcDbLine
 10
221.4404554324
 20
62.6400581848
 30
0.0
 11
221.4404554324
 21
59.2769101084
 31
0.0
  0
LINE
  5
17C
330
175
100
AcDbEntity
  8
0
  6
SLD-SOLID
 62
     7
100
AcDbLine
 10
221.4404554324
 20
59.2769101084
 30
0.0
 11
222.0842748866
 21
59.2769101084
 31
0.0
  0
LINE
  5
17D
330
175
100
AcDbEntity
  8
0
  6
SLD-SOLID
 62
     7
100
AcDbLine
 10
229.8414664328
 20
62.6400581848
 30
0.0
 11
230.4852858869
 21
62.6400581848
 31
0.0
  0
LINE
  5
17E
330
175
100
AcDbEntity
  8
0
  6
SLD-SOLID
 62
     7
100
AcDbLine
 10
230.4852858869
 20
62.6400581848
 30
0.0
 11
230.4852858869
 21
59.2769101084
 31
0.0
  0
LINE
  5
17F
330
175
100
AcDbEntity
  8
0
  6
SLD-SOLID
 62
     7
100
AcDbLine
 10
230.4852858869
 20
59.2769101084
 30
0.0
 11
229.8414664328
 21
59.2769101084
 31
0.0
  0
LINE
  5
180
330
175
100
AcDbEntity
  8
0
  6
SLD-SOLID
 62
     7
100
AcDbLine
 10
203.9641421175
 20
77.7200584177
 30
0.0
 11
203.9641421175
 21
60.8620584177
 31
0.0
  0
LINE
  5
181
330
175
100
AcDbEntity
  8
0
  6
SLD-SOLID
 62
     7
100
AcDbLine
 10
211.9619604836
 20
77.7544944678
 30
0.0
 11
211.9619604836
 21
60.8620584177
 31
0.0
  0
LINE
  5
182
330
175
100
AcDbEntity
  8
0
  6
SLD-SOLID
 62
     7
100
AcDbLine
 10
203.9641421175
 20
62.6400584177
 30
0.0
 11
197.6141421175
 21
62.6400584177
 31
0.0
  0
LINE
  5
183
330
175
100
AcDbEntity
  8
0
  6
SLD-SOLID
 62
     7
100
AcDbLine
 10
211.9619604836
 20
62.6400584177
 30
0.0
 11
218.8136548867
 21
62.6400584177
 31
0.0
  0
MTEXT
  5
184
330
175
100
AcDbEntity
  8
0
  6
SLD-SOLID
 62
     7
100
AcDbMText
 10
220.8240742739
 20
65.7977978313
 30
0.0
 40
2.1166666667
 41
0.0
 71
     1
 72
     1
  1

  7
SLDTEXTSTYLE0
  0
MTEXT
  5
185
330
175
100
AcDbEntity
  8
0
  6
SLD-SOLID
 62
     7
100
AcDbMText
 10
221.3630402912
 20
65.7977978313
 30
0.0
 40
2.1166666667
 41
0.0
 71
     1
 72
     1
  1
8.0mm
  7
SLDTEXTSTYLE0
  0
MTEXT
  5
186
330
175
100
AcDbEntity
  8
0
  6
SLD-SOLID
 62
     7
100
AcDbMText
 10
222.0842748866
 20
62.0054367078
 30
0.0
 40
2.1166666667
 41
0.0
 71
     1
 72
     1
  1
0.31in
  7
SLDTEXTSTYLE0
  0
MTEXT
  5
187
330
175
100
AcDbEntity
  8
0
  6
SLD-SOLID
 62
     7
100
AcDbMText
 10
232.7166053411
 20
65.7977978313
 30
0.0
 40
2.1166666667
 41
0.0
 71
     1
 72
     1
  1

  7
SLDTEXTSTYLE0
  0
ENDBLK
  5
177
330
175
100
AcDbEntity
  8
0
100
AcDbBlockEnd
  0
BLOCK
  5
18E
330
18D
100
AcDbEntity
  8
0
100
AcDbBlockBegin
  2
SW_NOTE_5
 70
     0
 10
0.0
 20
0.0
 30
0.0
  3
SW_NOTE_5
  1

  0
MTEXT
  5
190
330
18D
100
AcDbEntity
  8
0
  6
CONTINUOUS
 62
     0
100
AcDbMText
 10
1.5040674277
 20
8.8368252802
 30
0.0
 40
2.1166666667
 41
0.0
 71
     1
 72
     1
  1
ARROW INDICATES
  7
SLDTEXTSTYLE0
  0
MTEXT
  5
191
330
18D
100
AcDbEntity
  8
0
  6
CONTINUOUS
 62
     0
100
AcDbMText
 10
1.5040674277
 20
5.014603161
 30
0.0
 40
2.1166666667
 41
0.0
 71
     1
 72
     1
  1
INTENDED DIRECTION
  7
SLDTEXTSTYLE0
  0
MTEXT
  5
192
330
18D
100
AcDbEntity
  8
0
  6
CONTINUOUS
 62
     0
100
AcDbMText
 10
1.5040674277
 20
1.1923810418
 30
0.0
 40
2.1166666667
 41
0.0
 71
     1
 72
     1
  1
OF LIGHT TRANSMISSION
  7
SLDTEXTSTYLE0
  0
ENDBLK
  5
18F
330
18D
100
AcDbEntity
  8
0
100
AcDbBlockEnd
  0
ENDSEC
  0
SECTION
  2
ENTITIES
  0
LINE
  5
83
330
1F
100
AcDbEntity
  8
0
  6
SLD-SOLID
 62
     7
100
AcDbLine
 10
1.5793501011
 20
214.6453799966
 30
0.0
 11
277.9892068491
 21
214.6453799966
 31
0.0
  0
LINE
  5
84
330
1F
100
AcDbEntity
  8
0
  6
SLD-SOLID
 62
     7
100
AcDbLine
 10
1.5793501011
 20
214.6453799966
 30
0.0
 11
1.5793501011
 21
0.9031642596
 31
0.0
  0
LINE
  5
85
330
1F
100
AcDbEntity
  8
0
  6
SLD-SOLID
 62
     7
100
AcDbLine
 10
277.9892068491
 20
0.9031642596
 30
0.0
 11
1.5793501011
 21
0.9031642596
 31
0.0
  0
LINE
  5
86
330
1F
100
AcDbEntity
  8
0
  6
SLD-SOLID
 62
     7
100
AcDbLine
 10
277.9892068491
 20
0.9031642596
 30
0.0
 11
277.9892068491
 21
214.6453799966
 31
0.0
  0
LINE
  5
87
330
1F
100
AcDbEntity
  8
0
  6
SLD-SOLID
 62
     7
100
AcDbLine
 10
215.7427640041
 20
12.2958890132
 30
0.0
 11
171.6327596684
 21
12.2958890132
 31
0.0
  0
LINE
  5
88
330
1F
100
AcDbEntity
  8
0
  6
SLD-SOLID
 62
     7
100
AcDbLine
 10
171.6327596684
 20
12.2958890132
 30
0.0
 11
171.6327596684
 21
26.1661402506
 31
0.0
  0
LINE
  5
89
330
1F
100
AcDbEntity
  8
0
  6
SLD-SOLID
 62
     7
100
AcDbLine
 10
171.6327596684
 20
0.9031642596
 30
0.0
 11
171.6327596684
 21
26.1661402506
 31
0.0
  0
LINE
  5
8A
330
1F
100
AcDbEntity
  8
0
  6
SLD-SOLID
 62
     7
100
AcDbLine
 10
215.7427640041
 20
17.1604579552
 30
0.0
 11
277.9892068491
 21
17.1604579552
 31
0.0
  0
LINE
  5
8B
330
1F
100
AcDbEntity
  8
0
  6
SLD-SOLID
 62
     7
100
AcDbLine
 10
215.7427640041
 20
35.2394508358
 30
0.0
 11
215.7427640041
 21
0.9031642596
 31
0.0
  0
LINE
  5
8C
330
1F
100
AcDbEntity
  8
0
  6
SLD-SOLID
 62
     7
100
AcDbLine
 10
215.7427640041
 20
26.1661402506
 30
0.0
 11
171.6327596684
 21
26.1661402506
 31
0.0
  0
LINE
  5
8D
330
1F
100
AcDbEntity
  8
0
  6
SLD-SOLID
 62
     7
100
AcDbLine
 10
215.7427640041
 20
9.1409200612
 30
0.0
 11
277.9892068491
 21
9.1409200612
 31
0.0
  0
LINE
  5
8E
330
1F
100
AcDbEntity
  8
0
  6
SLD-SOLID
 62
     7
100
AcDbLine
 10
215.7427640041
 20
16.9216824031
 30
0.0
 11
171.6327596684
 21
16.9216824031
 31
0.0
  0
LINE
  5
8F
330
1F
100
AcDbEntity
  8
0
  6
SLD-SOLID
 62
     7
100
AcDbLine
 10
215.7427640041
 20
21.4874005542
 30
0.0
 11
171.6327596684
 21
21.4874005542
 31
0.0
  0
LINE
  5
90
330
1F
100
AcDbEntity
  8
0
  6
SLD-SOLID
 62
     7
100
AcDbLine
 10
186.1338100705
 20
26.1661402506
 30
0.0
 11
186.1338100705
 21
12.2958890132
 31
0.0
  0
LINE
  5
91
330
1F
100
AcDbEntity
  8
0
  6
SLD-SOLID
 62
     7
100
AcDbLine
 10
198.2145906188
 20
26.1661402506
 30
0.0
 11
198.2145906188
 21
12.2958890132
 31
0.0
  0
LINE
  5
92
330
1F
100
AcDbEntity
  8
0
  6
SLD-SOLID
 62
     7
100
AcDbLine
 10
253.7490408369
 20
9.1409200612
 30
0.0
 11
253.7490408369
 21
0.9031642596
 31
0.0
  0
LINE
  5
93
330
1F
100
AcDbEntity
  8
0
  6
SLD-SOLID
 62
     7
100
AcDbLine
 10
171.6327596684
 20
12.2958890132
 30
0.0
 11
171.6327596684
 21
7.5627342528
 31
0.0
  0
LINE
  5
94
330
1F
100
AcDbEntity
  8
0
  6
SLD-SOLID
 62
     7
100
AcDbLine
 10
171.6327596684
 20
7.5627342528
 30
0.0
 11
215.7427640041
 21
7.5627342528
 31
0.0
  0
LINE
  5
95
330
1F
100
AcDbEntity
  8
0
  6
SLD-SOLID
 62
     7
100
AcDbLine
 10
171.6327596684
 20
7.5627342528
 30
0.0
 11
171.6327596684
 21
35.2394508358
 31
0.0
  0
LINE
  5
96
330
1F
100
AcDbEntity
  8
0
  6
SLD-SOLID
 62
     7
100
AcDbLine
 10
171.6327596684
 20
35.2394508358
 30
0.0
 11
215.7427640041
 21
35.2394508358
 31
0.0
  0
LINE
  5
97
330
1F
100
AcDbEntity
  8
0
  6
SLD-SOLID
 62
     7
100
AcDbLine
 10
270.1683598194
 20
17.1604579552
 30
0.0
 11
270.1683598194
 21
9.1409200612
 31
0.0
  0
LINE
  5
98
330
1F
100
AcDbEntity
  8
0
  6
SLD-SOLID
 62
     7
100
AcDbLine
 10
215.7427640041
 20
35.2394508358
 30
0.0
 11
277.9892068491
 21
35.2394508358
 31
0.0
  0
LINE
  5
99
330
1F
100
AcDbEntity
  8
0
  6
SLD-SOLID
 62
     7
100
AcDbLine
 10
277.9892068491
 20
35.2394508358
 30
0.0
 11
277.9892068491
 21
50.0331356147
 31
0.0
  0
LINE
  5
9A
330
1F
100
AcDbEntity
  8
0
  6
SLD-SOLID
 62
     7
100
AcDbLine
 10
215.7427640041
 20
24.8927335446
 30
0.0
 11
277.9892068491
 21
24.8927335446
 31
0.0
  0
INSERT
  5
9B
330
1F
100
AcDbEntity
  8
0
  6
CONTINUOUS
 62
     7
100
AcDbBlockReference
  2
THIRD_ANGLE_PROJECTION_BLO
 10
117.7262204235
 20
15.5162339489
 30
0.0
 41
0.8
 42
0.8
 43
0.8
  0
INSERT
  5
BC
330
1F
100
AcDbEntity
  8
0
  6
CONTINUOUS
 62
     7
100
AcDbBlockReference
  2
SW_NOTE_0
 10
8.6268415977
 20
52.412700979
 30
0.0
  0
MTEXT
  5
BD
330
1F
100
AcDbEntity
  8
0
  6
CONTINUOUS
 62
     7
100
AcDbMText
 10
274.2755418848
 20
13.2559386876
 30
0.0
 40
3.175
 41
0.0
 71
     2
 72
     1
  1
B
  7
SLDTEXTSTYLE0
  0
MTEXT
  5
BE
330
1F
100
AcDbEntity
  8
0
  6
CONTINUOUS
 62
     7
100
AcDbMText
 10
234.6884361885
 20
5.1306563898
 30
0.0
 40
3.175
 41
0.0
 71
     2
 72
     1
  1
HBSY22
  7
SLDTEXTSTYLE0
  0
MTEXT
  5
BF
330
1F
100
AcDbEntity
  8
0
  6
CONTINUOUS
 62
     7
100
AcDbMText
 10
216.4199766059
 20
16.8243178599
 30
0.0
 40
2.1166666667
 41
0.0
 71
     1
 72
     1
  1
MATERIAL
  7
SLDTEXTSTYLE0
  0
MTEXT
  5
C0
330
1F
100
AcDbEntity
  8
0
  6
CONTINUOUS
 62
     7
100
AcDbMText
 10
174.230946566
 20
20.054553926
 30
0.0
 40
1.8520833333
 41
0.0
 71
     1
 72
     1
  1
DRAWN
  7
SLDTEXTSTYLE0
  0
MTEXT
  5
C1
330
1F
100
AcDbEntity
  8
0
  6
CONTINUOUS
 62
     7
100
AcDbMText
 10
172.3960124543
 20
15.5787169747
 30
0.0
 40
1.8520833333
 41
0.0
 71
     1
 72
     1
  1
APPROVAL
  7
SLDTEXTSTYLE0
  0
MTEXT
  5
C2
330
1F
100
AcDbEntity
  8
0
  6
CONTINUOUS
 62
     7
100
AcDbMText
 10
271.7160653675
 20
16.1671746307
 30
0.0
 40
2.1166666667
 41
0.0
 71
     1
 72
     1
  1
REV
  7
SLDTEXTSTYLE0
  0
MTEXT
  5
C3
330
1F
100
AcDbEntity
  8
0
  6
CONTINUOUS
 62
     7
100
AcDbMText
 10
190.2958696448
 20
20.3177146903
 30
0.0
 40
2.1166666667
 41
0.0
 71
     1
 72
     1
  1
TK
  7
SLDTEXTSTYLE0
  0
MTEXT
  5
C4
330
1F
100
AcDbEntity
  8
0
  6
CONTINUOUS
 62
     7
100
AcDbMText
 10
189.5834546741
 20
15.841877739
 30
0.0
 40
2.1166666667
 41
0.0
 71
     1
 72
     1
  1
BW
  7
SLDTEXTSTYLE0
  0
MTEXT
  5
C5
330
1F
100
AcDbEntity
  8
0
  6
CONTINUOUS
 62
     7
100
AcDbMText
 10
199.8662436873
 20
20.3177146903
 30
0.0
 40
2.1166666667
 41
0.0
 71
     1
 72
     1
  1
21/NOV/12
  7
SLDTEXTSTYLE0
  0
MTEXT
  5
C6
330
1F
100
AcDbEntity
  8
0
  6
CONTINUOUS
 62
     7
100
AcDbMText
 10
203.6145073853
 20
24.8221395769
 30
0.0
 40
2.1166666667
 41
0.0
 71
     1
 72
     1
  1
DATE
  7
SLDTEXTSTYLE0
  0
MTEXT
  5
C7
330
1F
100
AcDbEntity
  8
0
  6
CONTINUOUS
 62
     7
100
AcDbMText
 10
199.8662436873
 20
15.841877739
 30
0.0
 40
2.1166666667
 41
0.0
 71
     1
 72
     1
  1
15/OCT/21
  7
SLDTEXTSTYLE0
  0
MTEXT
  5
C9
330
1F
100
AcDbEntity
  8
0
  6
CONTINUOUS
 62
     7
100
AcDbMText
 10
229.402906477
 20
27.7957480569
 30
0.0
 40
2.1166666667
 41
0.0
 71
     1
 72
     1
  1
w w w . t h o r  l a b s . c o m
  7
SLDTEXTSTYLE3
  0
MTEXT
  5
CA
330
1F
100
AcDbEntity
  8
0
  6
CONTINUOUS
 62
     7
100
AcDbMText
 10
216.7004035316
 20
8.3494791871
 30
0.0
 40
2.1166666667
 41
0.0
 71
     1
 72
     1
  1
ITEM #
  7
SLDTEXTSTYLE0
  0
MTEXT
  5
CB
330
1F
100
AcDbEntity
  8
0
  6
CONTINUOUS
 62
     7
100
AcDbMText
 10
254.5318000914
 20
8.3494791871
 30
0.0
 40
2.1166666667
 41
0.0
 71
     1
 72
     1
  1
APPROX WEIGHT
  7
SLDTEXTSTYLE0
  0
MTEXT
  5
CC
330
1F
100
AcDbEntity
  8
0
  6
CONTINUOUS
 62
     7
100
AcDbMText
 10
243.4409424799
 20
13.8247651814
 30
0.0
 40
3.175
 41
0.0
 71
     2
 72
     1
  1
UV FUSED SILICA
  7
SLDTEXTSTYLE0
  0
MTEXT
  5
CE
330
1F
100
AcDbEntity
  8
0
  6
CONTINUOUS
 62
     7
100
AcDbMText
 10
266.2586154088
 20
5.1306563898
 30
0.0
 40
3.175
 41
0.0
 71
     2
 72
     1
  1
36 g
  7
SLDTEXTSTYLE4
  0
INSERT
  5
D4
330
1F
100
AcDbEntity
  8
0
  6
CONTINUOUS
 62
     7
100
AcDbBlockReference
  2
SW_NOTE_1
 10
174.8430140051
 20
4.4558554801
 30
0.0
  0
INSERT
  5
DA
330
1F
100
AcDbEntity
  8
0
  6
CONTINUOUS
 62
     7
100
AcDbBlockReference
  2
SW_NOTE_2
 10
174.5483650337
 20
30.4835322715
 30
0.0
  0
MTEXT
  5
DB
330
1F
100
AcDbEntity
  8
0
  6
CONTINUOUS
 62
     7
100
AcDbMText
 10
187.9273588276
 20
24.8221395769
 30
0.0
 40
2.1166666667
 41
0.0
 71
     1
 72
     1
  1
NAME
  7
SLDTEXTSTYLE0
  0
INSERT
  5
E1
330
1F
100
AcDbEntity
  8
0
  6
CONTINUOUS
 62
     7
100
AcDbBlockReference
  2
SW_NOTE_3
 10
58.6204667508
 20
8.1776609732
 30
0.0
  0
MTEXT
  5
E2
330
1F
100
AcDbEntity
  8
0
  6
CONTINUOUS
 62
     7
100
AcDbMText
 10
177.6925831922
 20
10.7142101515
 30
0.0
 40
1.5875
 41
0.0
 71
     1
 72
     1
  1
COPYRIGHT © 2021 BY THORLABS
  7
SLDTEXTSTYLE0
  0
INSERT
  5
E9
330
1F
100
AcDbEntity
  8
0
  6
CONTINUOUS
 62
     7
100
AcDbBlockReference
  2
SW_NOTE_4
 10
217.8759157951
 20
20.6862828027
 30
0.0
  0
CIRCLE
  5
EA
330
1F
100
AcDbEntity
  8
0
  6
SLD-SOLID
 62
     7
100
AcDbCircle
 10
76.0232427553
 20
104.1400584177
 30
0.0
 40
25.14999999999999
  0
CIRCLE
  5
EB
330
1F
100
AcDbEntity
  8
0
  6
SLD-SOLID
 62
     7
100
AcDbCircle
 10
76.0232427553
 20
104.1400584177
 30
0.0
 40
25.40000000000001
  0
DIMENSION
  5
EC
330
1F
100
AcDbEntity
  8
0
  6
SLD-SOLID
 62
     7
100
AcDbDimension
  2
_D
 10
63.3232427553
 20
82.1430131615
 30
0.0
 11
106.5161103793
 21
138.2676101007
 31
0.0
 70
   163
  1
<>
  3
SLDDIMSTYLE0
100
AcDbDiametricDimension
 15
88.7232427553
 25
126.1371036738
 35
0.0
 40
0.0
  0
LINE
  5
FD
330
1F
100
AcDbEntity
  8
0
  6
SLD-SOLID
 62
     7
100
AcDbLine
 10
211.2772965653
 20
129.5400581107
 30
0.0
 11
204.2141422013
 21
129.5400581107
 31
0.0
  0
LINE
  5
FE
330
1F
100
AcDbEntity
  8
0
  6
SLD-SOLID
 62
     7
100
AcDbLine
 10
204.2141422013
 20
78.7400587246
 30
0.0
 11
211.7162954843
 21
78.7400587246
 31
0.0
  0
LINE
  5
FF
330
1F
100
AcDbEntity
  8
0
  6
SLD-SOLID
 62
     7
100
AcDbLine
 10
211.7162954843
 20
78.7400587246
 30
0.0
 11
211.9619606843
 21
78.9900480554
 31
0.0
  0
POLYLINE
  5
100
330
1F
100
AcDbEntity
  8
0
  6
SLD-SOLID
 62
     7
100
AcDb2dPolyline
 66
     1
 10
0.0
 20
0.0
 30
0.0
 70
   128
  0
VERTEX
  5
1FE
330
100
100
AcDbEntity
  8
0
  6
SLD-SOLID
 62
     7
100
AcDbVertex
100
AcDb2dVertex
 10
211.5229615325
 20
129.2943565891
 30
0.0
  0
VERTEX
  5
1FF
330
100
100
AcDbEntity
  8
0
  6
SLD-SOLID
 62
     7
100
AcDbVertex
100
AcDb2dVertex
 10
211.4001289325
 20
129.4172073499
 30
0.0
  0
VERTEX
  5
200
330
100
100
AcDbEntity
  8
0
  6
SLD-SOLID
 62
     7
100
AcDbVertex
100
AcDb2dVertex
 10
211.2772965653
 20
129.5400581107
 30
0.0
  0
SEQEND
  5
357
330
100
100
AcDbEntity
  8
0
  6
SLD-SOLID
 62
     7
  0
LINE
  5
101
330
1F
100
AcDbEntity
  8
0
  6
SLD-SOLID
 62
     7
100
AcDbLine
 10
204.2141422013
 20
129.5400581107
 30
0.0
 11
203.9641419275
 21
129.2900576041
 31
0.0
  0
LINE
  5
102
330
1F
100
AcDbEntity
  8
0
  6
SLD-SOLID
 62
     7
100
AcDbLine
 10
203.9641419275
 20
78.9900592313
 30
0.0
 11
204.2141422013
 21
78.7400587246
 31
0.0
  0
LINE
  5
103
330
1F
100
AcDbEntity
  8
0
  6
SLD-SOLID
 62
     7
100
AcDbLine
 10
208.041065193
 20
98.4390445769
 30
0.0
 11
208.041065193
 21
97.0250170462
 31
0.0
  0
LINE
  5
104
330
1F
100
AcDbEntity
  8
0
  6
SLD-SOLID
 62
     7
100
AcDbLine
 10
209.4641421305
 20
98.4390445769
 30
0.0
 11
208.041065193
 21
98.4390445769
 31
0.0
  0
LINE
  5
105
330
1F
100
AcDbEntity
  8
0
  6
SLD-SOLID
 62
     7
100
AcDbLine
 10
209.4641421305
 20
98.8520987116
 30
0.0
 11
209.4641421305
 21
98.4390445769
 31
0.0
  0
LINE
  5
106
330
1F
100
AcDbEntity
  8
0
  6
SLD-SOLID
 62
     7
100
AcDbLine
 10
206.4641421044
 20
98.8520987116
 30
0.0
 11
209.4641421305
 21
98.8520987116
 31
0.0
  0
LINE
  5
107
330
1F
100
AcDbEntity
  8
0
  6
SLD-SOLID
 62
     7
100
AcDbLine
 10
206.4641421044
 20
98.8520987116
 30
0.0
 11
206.4641421044
 21
98.4390445769
 31
0.0
  0
LINE
  5
108
330
1F
100
AcDbEntity
  8
0
  6
SLD-SOLID
 62
     7
100
AcDbLine
 10
207.6949113422
 20
98.4390445769
 30
0.0
 11
206.4641421044
 21
98.4390445769
 31
0.0
  0
LINE
  5
109
330
1F
100
AcDbEntity
  8
0
  6
SLD-SOLID
 62
     7
100
AcDbLine
 10
207.6949113422
 20
98.4390445769
 30
0.0
 11
207.6949113422
 21
97.0250170462
 31
0.0
  0
LINE
  5
10A
330
1F
100
AcDbEntity
  8
0
  6
SLD-SOLID
 62
     7
100
AcDbLine
 10
206.4641421044
 20
97.0250170462
 30
0.0
 11
207.6949113422
 21
97.0250170462
 31
0.0
  0
LINE
  5
10B
330
1F
100
AcDbEntity
  8
0
  6
SLD-SOLID
 62
     7
100
AcDbLine
 10
206.4641421044
 20
97.0250170462
 30
0.0
 11
206.4641421044
 21
96.61988381
 31
0.0
  0
LINE
  5
10C
330
1F
100
AcDbEntity
  8
0
  6
SLD-SOLID
 62
     7
100
AcDbLine
 10
209.4641421305
 20
96.61988381
 30
0.0
 11
206.4641421044
 21
96.61988381
 31
0.0
  0
LINE
  5
10D
330
1F
100
AcDbEntity
  8
0
  6
SLD-SOLID
 62
     7
100
AcDbLine
 10
209.4641421305
 20
97.0250170462
 30
0.0
 11
209.4641421305
 21
96.61988381
 31
0.0
  0
LINE
  5
10E
330
1F
100
AcDbEntity
  8
0
  6
SLD-SOLID
 62
     7
100
AcDbLine
 10
208.041065193
 20
97.0250170462
 30
0.0
 11
209.4641421305
 21
97.0250170462
 31
0.0
  0
SPLINE
  5
10F
330
1F
100
AcDbEntity
  8
0
  6
SLD-SOLID
 62
     7
100
AcDbSpline
210
0.0
220
0.0
230
1.0
 70
     8
 71
     3
 72
    14
 73
    10
 74
     0
 42
0.000000001
 43
0.00000001
 40
0.0
 40
0.0
 40
0.0
 40
0.0
 40
0.1430103408857296
 40
0.2502659478422435
 40
0.4997079877824764
 40
0.624782748226462
 40
0.7498435528551527
 40
0.8749208248774357
 40
1.0
 40
1.0
 40
1.0
 40
1.0
 10
207.8872190405451
 20
103.9465506742004
 30
0.0
 10
207.9068211780081
 20
103.9874056727621
 30
0.0
 10
207.9411246240493
 20
104.0589013064053
 30
0.0
 10
208.0272207774923
 20
104.1917175051857
 30
0.0
 10
208.1325303840435
 20
104.3055921802608
 30
0.0
 10
208.2669889207583
 20
104.390310817539
 30
0.0
 10
208.3773754639236
 20
104.4353225168296
 30
0.0
 10
208.4936945916749
 20
104.4626121288548
 30
0.0
 10
208.5729510745522
 20
104.4655190143726
 30
0.0
 10
208.6125796174682
 20
104.4669724681888
 30
0.0
  0
SPLINE
  5
110
330
1F
100
AcDbEntity
  8
0
  6
SLD-SOLID
 62
     7
100
AcDbSpline
210
0.0
220
0.0
230
1.0
 70
     8
 71
     3
 72
    16
 73
    12
 74
     0
 42
0.000000001
 43
0.00000001
 40
0.0
 40
0.0
 40
0.0
 40
0.0
 40
0.0337410650317383
 40
0.0624645070378801
 40
0.1249473397675534
 40
0.2499225262346525
 40
0.3749322369027476
 40
0.4999553816512366
 40
0.7499869141727314
 40
0.8750024537136274
 40
1.0
 40
1.0
 40
1.0
 40
1.0
 10
207.4845748097759
 20
102.767530133435
 30
0.0
 10
207.493560881634
 20
102.7783746983216
 30
0.0
 10
207.5101967094685
 20
102.7984511363075
 30
0.0
 10
207.5388922744695
 20
102.8420743020365
 30
0.0
 10
207.5782752189289
 20
102.9234557620831
 30
0.0
 10
207.6225921917834
 20
103.0461770001988
 30
0.0
 10
207.6673995594748
 20
103.1961306146507
 30
0.0
 10
207.7171518395078
 20
103.3988042624564
 30
0.0
 10
207.7698023883517
 20
103.6007454308334
 30
0.0
 10
207.8295252094394
 20
103.800931946744
 30
0.0
 10
207.8679886862391
 20
103.8980134273421
 30
0.0
 10
207.8872190405451
 20
103.9465506742004
 30
0.0
  0
SPLINE
  5
111
330
1F
100
AcDbEntity
  8
0
  6
SLD-SOLID
 62
     7
100
AcDbSpline
210
0.0
220
0.0
230
1.0
 70
     8
 71
     3
 72
    11
 73
     7
 74
     0
 42
0.000000001
 43
0.00000001
 40
0.0
 40
0.0
 40
0.0
 40
0.0
 40
0.2501966187589379
 40
0.5000571358904238
 40
0.749872261984377
 40
1.0
 40
1.0
 40
1.0
 40
1.0
 10
207.2195507713143
 20
102.6601278154758
 30
0.0
 10
207.2441186232873
 20
102.6611346976133
 30
0.0
 10
207.2932213240094
 20
102.6631471092931
 30
0.0
 10
207.3642770082822
 20
102.6839249904799
 30
0.0
 10
207.4305073779387
 20
102.7173840181337
 30
0.0
 10
207.4665448211489
 20
102.750807795091
 30
0.0
 10
207.4845748097759
 20
102.767530133435
 30
0.0
  0
SPLINE
  5
112
330
1F
100
AcDbEntity
  8
0
  6
SLD-SOLID
 62
     7
100
AcDbSpline
210
0.0
220
0.0
230
1.0
 70
     8
 71
     3
 72
    15
 73
    11
 74
     0
 42
0.000000001
 43
0.00000001
 40
0.0
 40
0.0
 40
0.0
 40
0.0
 40
0.1252753702516277
 40
0.2505459008221373
 40
0.4998899455516715
 40
0.6248465295676208
 40
0.7498871296288044
 40
0.874757179698254
 40
0.9373759605648325
 40
0.9999999999999999
 40
0.9999999999999999
 40
0.9999999999999999
 40
0.9999999999999999
 10
206.7718344251605
 20
103.2946616965639
 30
0.0
 10
206.7724394996657
 20
103.2582275666449
 30
0.0
 10
206.7736496253007
 20
103.1853607143427
 30
0.0
 10
206.7919562671471
 20
103.0415039201097
 30
0.0
 10
206.8335607494155
 20
102.8983453206007
 30
0.0
 10
206.9236382438183
 20
102.7827478648949
 30
0.0
 10
207.0088176984386
 20
102.7131866138681
 30
0.0
 10
207.0933957848966
 20
102.6767339668554
 30
0.0
 10
207.1648904825904
 20
102.6620537791073
 30
0.0
 10
207.2013301650755
 20
102.6607698213228
 30
0.0
 10
207.2195507713143
 20
102.6601278154758
 30
0.0
  0
SPLINE
  5
113
330
1F
100
AcDbEntity
  8
0
  6
SLD-SOLID
 62
     7
100
AcDbSpline
210
0.0
220
0.0
230
1.0
 70
     8
 71
     3
 72
    15
 73
    11
 74
     0
 42
0.000000001
 43
0.00000001
 40
0.0
 40
0.0
 40
0.0
 40
0.0
 40
0.1250770516030787
 40
0.250090701033529
 40
0.377003749335094
 40
0.4998510636194632
 40
0.6247495841010758
 40
0.7497740173005523
 40
0.8748489178847622
 40
1.0
 40
1.0
 40
1.0
 40
1.0
 10
207.310295963622
 20
103.9669828339477
 30
0.0
 10
207.2703072222226
 20
103.9614686671995
 30
0.0
 10
207.1903500099135
 20
103.9504431288613
 30
0.0
 10
207.0752607287328
 20
103.9089665422737
 30
0.0
 10
206.9710843477821
 20
103.8459110197629
 30
0.0
 10
206.88680553433
 20
103.7575668666625
 30
0.0
 10
206.8279196367073
 20
103.6515837291859
 30
0.0
 10
206.793509288088
 20
103.5352478041963
 30
0.0
 10
206.7745300356026
 20
103.4155724556409
 30
0.0
 10
206.7727331443296
 20
103.3349734624021
 30
0.0
 10
206.7718344251605
 20
103.2946616965639
 30
0.0
  0
LINE
  5
114
330
1F
100
AcDbEntity
  8
0
  6
SLD-SOLID
 62
     7
100
AcDbLine
 10
207.3102959863
 20
104.3900543841
 30
0.0
 11
207.3102959863
 21
103.9669828274
 31
0.0
  0
SPLINE
  5
115
330
1F
100
AcDbEntity
  8
0
  6
SLD-SOLID
 62
     7
100
AcDbSpline
210
0.0
220
0.0
230
1.0
 70
     8
 71
     3
 72
    16
 73
    12
 74
     0
 42
0.000000001
 43
0.00000001
 40
0.0
 40
0.0
 40
0.0
 40
0.0
 40
0.1252501039117529
 40
0.2504474826799954
 40
0.4996006484765032
 40
0.6423116415874414
 40
0.7138523485520653
 40
0.7853894622243167
 40
0.8926376358440749
 40
0.9463073593472918
 40
1.0
 40
1.0
 40
1.0
 40
1.0
 10
206.4256805790066
 20
103.2778442830799
 30
0.0
 10
206.427458764568
 20
103.3442576658367
 30
0.0
 10
206.4310143871478
 20
103.4770564740469
 30
0.0
 10
206.477204899213
 20
103.7380755791751
 30
0.0
 10
206.5816659080563
 20
103.9990396232062
 30
0.0
 10
206.7506195206196
 20
104.1823702569188
 30
0.0
 10
206.8760551419043
 20
104.2680129297456
 30
0.0
 10
206.9944329304959
 20
104.3285309315137
 30
0.0
 10
207.1126631907829
 20
104.3662900612718
 30
0.0
 10
207.2251163832935
 20
104.3842782593543
 30
0.0
 10
207.2818987300001
 20
104.3881287332933
 30
0.0
 10
207.310295963622
 20
104.3900543812163
 30
0.0
  0
SPLINE
  5
116
330
1F
100
AcDbEntity
  8
0
  6
SLD-SOLID
 62
     7
100
AcDbSpline
210
0.0
220
0.0
230
1.0
 70
     8
 71
     3
 72
    16
 73
    12
 74
     0
 42
0.000000001
 43
0.00000001
 40
0.0
 40
0.0
 40
0.0
 40
0.0
 40
0.062581291832555
 40
0.1251185619905059
 40
0.2500339966083338
 40
0.3748934519169205
 40
0.4997665987942875
 40
0.6425356419198773
 40
0.749765945952161
 40
0.874854662177317
 40
1.0
 40
1.0
 40
1.0
 40
1.0
 10
207.2471950020835
 20
102.2379944573813
 30
0.0
 10
207.2162128571033
 20
102.23911427518
 30
0.0
 10
207.1542703609707
 20
102.2413531230619
 30
0.0
 10
207.0321282499577
 20
102.2636977489431
 30
0.0
 10
206.8868495622146
 20
102.3203763600941
 30
0.0
 10
206.7317007287163
 20
102.424980155886
 30
0.0
 10
206.6038471111644
 20
102.5737294190208
 30
0.0
 10
206.5193877986228
 20
102.7404003866537
 30
0.0
 10
206.4637623313736
 20
102.9175869463445
 30
0.0
 10
206.4313811385318
 20
103.0920789488121
 30
0.0
 10
206.427581052136
 20
103.2159131648135
 30
0.0
 10
206.4256805790066
 20
103.2778442830799
 30
0.0
  0
SPLINE
  5
117
330
1F
100
AcDbEntity
  8
0
  6
SLD-SOLID
 62
     7
100
AcDbSpline
210
0.0
220
0.0
230
1.0
 70
     8
 71
     3
 72
    13
 73
     9
 74
     0
 42
0.000000001
 43
0.00000001
 40
0.0
 40
0.0
 40
0.0
 40
0.0
 40
0.1252703987144048
 40
0.2504796247751309
 40
0.5002081115003584
 40
0.749634200630809
 40
0.8747805455085639
 40
0.9999999999999999
 40
0.9999999999999999
 40
0.9999999999999999
 40
0.9999999999999999
 10
207.8956325020836
 20
102.6799263042444
 30
0.0
 10
207.8791729503847
 20
102.6494851789466
 30
0.0
 10
207.8462618845959
 20
102.5886177935102
 30
0.0
 10
207.7685205855545
 20
102.4742153351396
 30
0.0
 10
207.6437554353624
 20
102.3512395536963
 30
0.0
 10
207.4862482269431
 20
102.2740658313302
 30
0.0
 10
207.3512173686988
 20
102.2415500110098
 30
0.0
 10
207.281875873786
 20
102.2391798726264
 30
0.0
 10
207.2471950020835
 20
102.2379944573813
 30
0.0
  0
SPLINE
  5
118
330
1F
100
AcDbEntity
  8
0
  6
SLD-SOLID
 62
     7
100
AcDbSpline
210
0.0
220
0.0
230
1.0
 70
     8
 71
     3
 72
    16
 73
    12
 74
     0
 42
0.000000001
 43
0.00000001
 40
0.0
 40
0.0
 40
0.0
 40
0.0
 40
0.0527504287283681
 40
0.1249941999136709
 40
0.2499999026623657
 40
0.3928661216840583
 40
0.5000195877471693
 40
0.7500131823437874
 40
0.8500162248724892
 40
0.9100206159286836
 40
0.9999999999999999
 40
0.9999999999999999
 40
0.9999999999999999
 40
0.9999999999999999
 10
208.2279642328528
 20
103.7242116125388
 30
0.0
 10
208.2210760160243
 20
103.7061766130096
 30
0.0
 10
208.204754117377
 20
103.6634419776532
 30
0.0
 10
208.1762718027734
 20
103.5764654558779
 30
0.0
 10
208.1425993394549
 20
103.4566475855402
 30
0.0
 10
208.1061118643405
 20
103.3243823831621
 30
0.0
 10
208.0597529405105
 20
103.1474779916196
 30
0.0
 10
208.015377177207
 20
102.9861376149076
 30
0.0
 10
207.965632207416
 20
102.8447140965898
 30
0.0
 10
207.933176854339
 20
102.7592443460615
 30
0.0
 10
207.9097105701611
 20
102.7096683220286
 30
0.0
 10
207.8956325020836
 20
102.6799263042444
 30
0.0
  0
SPLINE
  5
119
330
1F
100
AcDbEntity
  8
0
  6
SLD-SOLID
 62
     7
100
AcDbSpline
210
0.0
220
0.0
230
1.0
 70
     8
 71
     3
 72
    13
 73
     9
 74
     0
 42
0.000000001
 43
0.00000001
 40
0.0
 40
0.0
 40
0.0
 40
0.0
 40
0.1252815490492465
 40
0.2504017094291043
 40
0.4996939484694313
 40
0.7494089043026909
 40
0.8746796942985441
 40
1.0
 40
1.0
 40
1.0
 40
1.0
 10
208.6330123097759
 20
104.043904801167
 30
0.0
 10
208.6099492874654
 20
104.0428483260429
 30
0.0
 10
208.5638529528098
 20
104.0407367367541
 30
0.0
 10
208.4739784220243
 20
104.0191273336168
 30
0.0
 10
208.3715146040009
 20
103.9604927355601
 30
0.0
 10
208.2995571414611
 20
103.8684875360642
 30
0.0
 10
208.255514920092
 20
103.7876681369036
 30
0.0
 10
208.2371490049407
 20
103.7453665735285
 30
0.0
 10
208.2279642328528
 20
103.7242116125388
 30
0.0
  0
SPLINE
  5
11A
330
1F
100
AcDbEntity
  8
0
  6
SLD-SOLID
 62
     7
100
AcDbSpline
210
0.0
220
0.0
230
1.0
 70
     8
 71
     3
 72
    15
 73
    11
 74
     0
 42
0.000000001
 43
0.00000001
 40
0.0
 40
0.0
 40
0.0
 40
0.0
 40
0.1252340652107939
 40
0.2504327417586132
 40
0.4998529441288185
 40
0.6248436805348848
 40
0.7498031372440926
 40
0.874793552449286
 40
0.9373746756917807
 40
1.0
 40
1.0
 40
1.0
 40
1.0
 10
209.1564498097759
 20
103.3589315950154
 30
0.0
 10
209.155475863977
 20
103.3990812248006
 30
0.0
 10
209.1535282475969
 20
103.479369138882
 30
0.0
 10
209.1247374844876
 20
103.6372390286003
 30
0.0
 10
209.0646892183472
 20
103.7889313070266
 30
0.0
 10
208.9640749895709
 20
103.9154546574595
 30
0.0
 10
208.8648951500837
 20
103.9854278628575
 30
0.0
 10
208.772092110807
 20
104.0253282381697
 30
0.0
 10
208.6932011545391
 20
104.0413784692683
 30
0.0
 10
208.6530799792959
 20
104.0430624923664
 30
0.0
 10
208.6330123097759
 20
104.043904801167
 30
0.0
  0
SPLINE
  5
11B
330
1F
100
AcDbEntity
  8
0
  6
SLD-SOLID
 62
     7
100
AcDbSpline
210
0.0
220
0.0
230
1.0
 70
     8
 71
     3
 72
    16
 73
    12
 74
     0
 42
0.000000001
 43
0.00000001
 40
0.0
 40
0.0
 40
0.0
 40
0.0
 40
0.1251168957393441
 40
0.1890308212484618
 40
0.2502670331399018
 40
0.3770907917709482
 40
0.4998837377755915
 40
0.6248539258740314
 40
0.7498673850242207
 40
0.8748959352721755
 40
1.0
 40
1.0
 40
1.0
 40
1.0
 10
208.4256805790066
 20
102.5449548870991
 30
0.0
 10
208.476312735305
 20
102.5514283738564
 30
0.0
 10
208.5528095028286
 20
102.5612087357399
 30
0.0
 10
208.6514688536475
 20
102.5875334408171
 30
0.0
 10
208.7485613259718
 20
102.6208689382404
 30
0.0
 10
208.8618232334399
 20
102.6804970882067
 30
0.0
 10
208.9741204987886
 20
102.786344533619
 30
0.0
 10
209.0563909121992
 20
102.9151062407212
 30
0.0
 10
209.1161188388752
 20
103.0561998715056
 30
0.0
 10
209.1507836847097
 20
103.2060026839806
 30
0.0
 10
209.1545607213275
 20
103.3079450326144
 30
0.0
 10
209.1564498097759
 20
103.3589315950154
 30
0.0
  0
LINE
  5
11C
330
1F
100
AcDbEntity
  8
0
  6
SLD-SOLID
 62
     7
100
AcDbLine
 10
208.4256805853
 20
102.5449548865
 30
0.0
 11
208.4256805853
 21
102.1229538851
 31
0.0
  0
SPLINE
  5
11D
330
1F
100
AcDbEntity
  8
0
  6
SLD-SOLID
 62
     7
100
AcDbSpline
210
0.0
220
0.0
230
1.0
 70
     8
 71
     3
 72
    17
 73
    13
 74
     0
 42
0.000000001
 43
0.00000001
 40
0.0
 40
0.0
 40
0.0
 40
0.0
 40
0.0626907839454636
 40
0.1253747394861049
 40
0.1880630178268907
 40
0.2507382830476645
 40
0.3798433107302376
 40
0.501013152224705
 40
0.7494941325266866
 40
0.8746495530799466
 40
0.9373239098167441
 40
1.0
 40
1.0
 40
1.0
 40
1.0
 10
209.5026036559297
 20
103.3775527995049
 30
0.0
 10
209.5022408163155
 20
103.3386758604235
 30
0.0
 10
209.5015151766083
 20
103.2609262168143
 30
0.0
 10
209.4913841537933
 20
103.1447243091433
 30
0.0
 10
209.4764186575027
 20
103.0290665313517
 30
0.0
 10
209.4428378315207
 20
102.8748857826335
 30
0.0
 10
209.3776934845015
 20
102.6908064991181
 30
0.0
 10
209.2122743830737
 20
102.4270448042099
 30
0.0
 10
208.9548876925379
 20
102.2364532113344
 30
0.0
 10
208.6958596843899
 20
102.1541043459927
 30
0.0
 10
208.5422377644545
 20
102.128674514155
 30
0.0
 10
208.4645333323423
 20
102.1248607475196
 30
0.0
 10
208.4256805790066
 20
102.1229538378319
 30
0.0
  0
SPLINE
  5
11E
330
1F
100
AcDbEntity
  8
0
  6
SLD-SOLID
 62
     7
100
AcDbSpline
210
0.0
220
0.0
230
1.0
 70
     8
 71
     3
 72
    15
 73
    11
 74
     0
 42
0.000000001
 43
0.00000001
 40
0.0
 40
0.0
 40
0.0
 40
0.0
 40
0.0626377064476582
 40
0.1252328576414864
 40
0.2502449672969574
 40
0.3754734207889339
 40
0.5002705548538309
 40
0.7495791849838804
 40
0.8747558686070493
 40
1.0
 40
1.0
 40
1.0
 40
1.0
 10
208.6125796174682
 20
104.4669724681888
 30
0.0
 10
208.6453149453946
 20
104.4657107976245
 30
0.0
 10
208.7107633612857
 20
104.4631883136588
 30
0.0
 10
208.8398277964536
 20
104.4395963780526
 30
0.0
 10
208.9934987247086
 20
104.3794140492134
 30
0.0
 10
209.157401312676
 20
104.2689950530493
 30
0.0
 10
209.3348169425712
 20
104.0745907189639
 30
0.0
 10
209.443642991396
 20
103.8304418599063
 30
0.0
 10
209.4965634457928
 20
103.5740406826074
 30
0.0
 10
209.5005898910595
 20
103.4430605198383
 30
0.0
 10
209.5026036559297
 20
103.3775527995049
 30
0.0
  0
LINE
  5
11F
330
1F
100
AcDbEntity
  8
0
  6
SLD-SOLID
 62
     7
100
AcDbLine
 10
204.2141422013
 20
104.1400584177
 30
0.0
 11
204.2141422013
 21
78.7400587246
 31
0.0
  0
LINE
  5
120
330
1F
100
AcDbEntity
  8
0
  6
SLD-SOLID
 62
     7
100
AcDbLine
 10
204.2141422013
 20
129.5400581107
 30
0.0
 11
204.2141422013
 21
104.1400584177
 31
0.0
  0
SPLINE
  5
121
330
1F
100
AcDbEntity
  8
0
  6
SLD-SOLID
 62
     7
100
AcDbSpline
210
0.0
220
0.0
230
1.0
 70
     8
 71
     3
 72
    96
 73
    92
 74
     0
 42
0.000000001
 43
0.00000001
 40
0.0
 40
0.0
 40
0.0
 40
0.0
 40
0.0063061589741461
 40
0.0126935392491661
 40
0.019162141124081
 40
0.0257119648815951
 40
0.0323430107888364
 40
0.0390552790980417
 40
0.0458487700472093
 40
0.0527234838607053
 40
0.0596794207498419
 40
0.0667165809134191
 40
0.0738349645382323
 40
0.0810345717995568
 40
0.0883154028616032
 40
0.0956774578779465
 40
0.103120736991931
 40
0.1106452403370589
 40
0.118250968037351
 40
0.1259379202076914
 40
0.1337060969541583
 40
0.1415554983743284
 40
0.1494861245575742
 40
0.1574979755853446
 40
0.1655910515314248
 40
0.173765352462193
 40
0.1820208784368589
 40
0.1903576295076901
 40
0.1987756057202296
 40
0.207274807113504
 40
0.2158552337202173
 40
0.2245168855669415
 40
0.2332597626742924
 40
0.2420838650571035
 40
0.2509891927245855
 40
0.259975745680484
 40
0.2690435239232275
 40
0.2781925274460684
 40
0.2874227562372196
 40
0.2967342102799845
 40
0.3061268895528796
 40
0.3156007940297555
 40
0.3251559236799083
 40
0.3347922784681905
 40
0.3445098583551143
 40
0.3543086632969525
 40
0.3641886932458332
 40
0.3741499481498332
 40
0.384192427953066
 40
0.3943161325957657
 40
0.4045210620143697
 40
0.4148072161415959
 40
0.4251745949065187
 40
0.4356231982346401
 40
0.4461530260479602
 40
0.4567640782650434
 40
0.4674563548010837
 40
0.4782298555679639
 40
0.4890845804743186
 40
0.5000205294255884
 40
0.5204126662652786
 40
0.5405205791486929
 40
0.5603442646197592
 40
0.5798837193032528
 40
0.5991389399062225
 40
0.6181099232195296
 40
0.636796666119498
 40
0.6551991655696947
 40
0.6733174186228499
 40
0.6911514224229294
 40
0.7087011742073741
 40
0.7259666713095255
 40
0.7429479111612527
 40
0.759644891295805
 40
0.7760576093509083
 40
0.7921860630721369
 40
0.808030250316587
 40
0.8235901690568855
 40
0.8388658173855724
 40
0.8538571935198972
 40
0.8685642958070817
 40
0.8829871227300969
 40
0.8971256729140256
 40
0.9109799451330742
 40
0.9245499383183207
 40
0.9378356515662899
 40
0.9508370841484686
 40
0.9635542355218818
 40
0.9759871053408784
 40
0.9881356934702977
 40
1.0
 40
1.0
 40
1.0
 40
1.0
 10
211.7162955223398
 20
78.74005841766315
 30
0.0
 10
211.716282763844
 20
78.74101861484442
 30
0.0
 10
211.7162570825271
 20
78.74295137623804
 30
0.0
 10
211.7160528215723
 20
78.75873485333612
 30
0.0
 10
211.7157277835856
 20
78.78439505930214
 30
0.0
 10
211.7152696205426
 20
78.8212472665509
 30
0.0
 10
211.7146817031358
 20
78.86942067024965
 30
0.0
 10
211.7139631103441
 20
78.92936712647891
 30
0.0
 10
211.7131140927028
 20
79.00144845143332
 30
0.0
 10
211.7121345810577
 20
79.08604825123037
 30
0.0
 10
211.7110245935183
 20
79.18354054655578
 30
0.0
 10
211.7097841244242
 20
79.29429743822375
 30
0.0
 10
211.7084131746307
 20
79.41868608395215
 30
0.0
 10
211.7069117432472
 20
79.5570685531796
 30
0.0
 10
211.7052798298884
 20
79.70980085963933
 30
0.0
 10
211.7035174340587
 20
79.8772321809577
 30
0.0
 10
211.7016245553189
 20
80.05970399043638
 30
0.0
 10
211.699601193239
 20
80.25754917638028
 30
0.0
 10
211.6974473474098
 20
80.47109112900199
 30
0.0
 10
211.6951630174389
 20
80.70064280104359
 30
0.0
 10
211.6927482029499
 20
80.9465057412809
 30
0.0
 10
211.6902029035822
 20
81.20896910211842
 30
0.0
 10
211.6875271189897
 20
81.48830862207717
 30
0.0
 10
211.6847208488406
 20
81.78478558424482
 30
0.0
 10
211.6817840928159
 20
82.09864575184683
 30
0.0
 10
211.6787168506094
 20
82.43011828224215
 30
0.0
 10
211.6755191219269
 20
82.77941462078165
 30
0.0
 10
211.6721909064855
 20
83.14672737611187
 30
0.0
 10
211.6687322040134
 20
83.53222917865209
 30
0.0
 10
211.6651430142489
 20
83.9360715241257
 30
0.0
 10
211.6614233369401
 20
84.35838360417993
 30
0.0
 10
211.6575731718448
 20
84.79927112628846
 30
0.0
 10
211.6535925187295
 20
85.25881512529155
 30
0.0
 10
211.6494813773693
 20
85.73707076909481
 30
0.0
 10
211.6452397475475
 20
86.23406616121436
 30
0.0
 10
211.6408676290552
 20
86.7498011430259
 30
0.0
 10
211.6363650216908
 20
87.28424609874719
 30
0.0
 10
211.6317319252602
 20
87.83734076635537
 30
0.0
 10
211.6269683395757
 20
88.40899305781547
 30
0.0
 10
211.6220742644562
 20
88.9990778921682
 30
0.0
 10
211.6170496997271
 20
89.60743604520069
 30
0.0
 10
211.6118946452194
 20
90.23387301959386
 30
0.0
 10
211.60660910077
 20
90.8781579396129
 30
0.0
 10
211.6011930662212
 20
91.54002247457319
 30
0.0
 10
211.5956465414208
 20
92.21915979548078
 30
0.0
 10
211.5899695262211
 20
92.9152235694051
 30
0.0
 10
211.5841620204805
 20
93.6278269963024
 30
0.0
 10
211.5782240240574
 20
94.35654189314111
 30
0.0
 10
211.5721555368326
 20
95.10089783038788
 30
0.0
 10
211.5659565586222
 20
95.8603813258066
 30
0.0
 10
211.5596270895079
 20
96.63443510156154
 30
0.0
 10
211.5531671285882
 20
97.42245740728958
 30
0.0
 10
211.5465766786915
 20
98.22380142491353
 30
0.0
 10
211.539855728581
 20
99.03777472196508
 30
0.0
 10
211.5330043201444
 20
99.86363890566594
 30
0.0
 10
211.5260222947135
 20
100.7006089300455
 30
0.0
 10
211.5189102507724
 20
101.5478541513978
 30
0.0
 10
211.5116659286755
 20
102.4044932498101
 30
0.0
 10
211.5042978569107
 20
103.2696127980934
 30
0.0
 10
211.4946238335224
 20
104.3915413002588
 30
0.0
 10
211.4828752885058
 20
105.7598664184234
 30
0.0
 10
211.4694077023595
 20
107.3579627111154
 30
0.0
 10
211.4563840054246
 20
108.9208989662017
 30
0.0
 10
211.4438204293995
 20
110.4432420052507
 30
0.0
 10
211.4317127142917
 20
111.9201792213655
 30
0.0
 10
211.4200619736071
 20
113.3474461967519
 30
0.0
 10
211.4088679119572
 20
114.7213317822767
 30
0.0
 10
211.3981306029627
 20
116.0386585645612
 30
0.0
 10
211.3878500233326
 20
117.2967660444815
 30
0.0
 10
211.3780261748997
 20
118.4934899072639
 30
0.0
 10
211.3686590526419
 20
119.6271396371334
 30
0.0
 10
211.3597486530305
 20
120.6964743784408
 30
0.0
 10
211.3512949718208
 20
121.7006775321412
 30
0.0
 10
211.3432980046017
 20
122.6393303922426
 30
0.0
 10
211.3357577466217
 20
123.5123851431957
 30
0.0
 10
211.3286741927996
 20
124.3201375025255
 30
0.0
 10
211.3220473376873
 20
125.0631992692039
 30
0.0
 10
211.3158771754246
 20
125.7424710138902
 30
0.0
 10
211.3101636997531
 20
126.3591151137557
 30
0.0
 10
211.3049069037847
 20
126.9145293394659
 30
0.0
 10
211.3001067806422
 20
127.4103210703322
 30
0.0
 10
211.2957633209145
 20
127.8482825813625
 30
0.0
 10
211.2918765216307
 20
128.2303664082105
 30
0.0
 10
211.2884463534769
 20
128.5586649062325
 30
0.0
 10
211.2854728791478
 20
128.8353795218195
 30
0.0
 10
211.2829558248658
 20
129.0628325118819
 30
0.0
 10
211.2808961289543
 20
129.2433306686502
 30
0.0
 10
211.279290347106
 20
129.3795694166812
 30
0.0
 10
211.2781508484686
 20
129.4730916620323
 30
0.0
 10
211.2774329635564
 20
129.5297705179997
 30
0.0
 10
211.2773416190558
 20
129.5366562906546
 30
0.0
 10
211.2772964875058
 20
129.5400584176632
 30
0.0
  0
SPLINE
  5
122
330
1F
100
AcDbEntity
  8
0
  6
SLD-SOLID
 62
     7
100
AcDbSpline
210
0.0
220
0.0
230
1.0
 70
     8
 71
     3
 72
    14
 73
    10
 74
     0
 42
0.000000001
 43
0.00000001
 40
0.0
 40
0.0
 40
0.0
 40
0.0
 40
0.2500168615556212
 40
0.3500261258081647
 40
0.5000369762994725
 40
0.6489430765647763
 40
0.750032019350838
 40
0.8749982441472501
 40
1.0
 40
1.0
 40
1.0
 40
1.0
 10
208.5230363482374
 20
110.898405666104
 30
0.0
 10
208.5665056631089
 20
110.8477180603063
 30
0.0
 10
208.6273631420059
 20
110.7767549013678
 30
0.0
 10
208.7144934519192
 20
110.6753714391631
 30
0.0
 10
208.7843558414424
 20
110.5946974984599
 30
0.0
 10
208.856487809785
 20
110.5154605135081
 30
0.0
 10
208.9261361390345
 20
110.4428511555994
 30
0.0
 10
208.9976148439805
 20
110.3808109345876
 30
0.0
 10
209.0522201826502
 20
110.3411725341805
 30
0.0
 10
209.0795267328528
 20
110.3213505168277
 30
0.0
  0
SPLINE
  5
123
330
1F
100
AcDbEntity
  8
0
  6
SLD-SOLID
 62
     7
100
AcDbSpline
210
0.0
220
0.0
230
1.0
 70
     8
 71
     3
 72
    14
 73
    10
 74
     0
 42
0.000000001
 43
0.00000001
 40
0.0
 40
0.0
 40
0.0
 40
0.0
 40
0.0625675661231024
 40
0.1251140026044137
 40
0.250101147771953
 40
0.4995675077343538
 40
0.7496838681908611
 40
0.8748402580249532
 40
1.0
 40
1.0
 40
1.0
 40
1.0
 10
207.2922671174682
 20
111.6969615629714
 30
0.0
 10
207.3242963389106
 20
111.696089477968
 30
0.0
 10
207.3883439652331
 20
111.6943456024725
 30
0.0
 10
207.5149605223921
 20
111.6748238945878
 30
0.0
 10
207.7296860840753
 20
111.610478812938
 30
0.0
 10
208.0005369642325
 20
111.4390594073754
 30
0.0
 10
208.2266884595571
 20
111.2219118197192
 30
0.0
 10
208.3984720169541
 20
111.0393233833236
 30
0.0
 10
208.4815145337847
 20
110.9453786578682
 30
0.0
 10
208.5230363482374
 20
110.898405666104
 30
0.0
  0
SPLINE
  5
124
330
1F
100
AcDbEntity
  8
0
  6
SLD-SOLID
 62
     7
100
AcDbSpline
210
0.0
220
0.0
230
1.0
 70
     8
 71
     3
 72
    17
 73
    13
 74
     0
 42
0.000000001
 43
0.00000001
 40
0.0
 40
0.0
 40
0.0
 40
0.0
 40
0.0625815367657185
 40
0.1251492961083455
 40
0.2501912548842851
 40
0.3768455455386589
 40
0.5000947322408439
 40
0.6264241736810374
 40
0.7499896198501536
 40
0.8748734351903942
 40
0.9374280894526572
 40
1.0
 40
1.0
 40
1.0
 40
1.0
 10
206.4641421174682
 20
110.8108887232622
 30
0.0
 10
206.4646038953126
 20
110.8388865323954
 30
0.0
 10
206.4655273493402
 20
110.8948759869004
 30
0.0
 10
206.4767586133535
 20
111.0062218261117
 30
0.0
 10
206.5063053925308
 20
111.1441190351796
 30
0.0
 10
206.5724725324012
 20
111.2998719890971
 30
0.0
 10
206.6735226363467
 20
111.4378260780883
 30
0.0
 10
206.8009607182874
 20
111.5514775365187
 30
0.0
 10
206.9512340923496
 20
111.6378425857574
 30
0.0
 10
207.0903796186992
 20
111.678299827534
 30
0.0
 10
207.2051563171776
 20
111.6953481009967
 30
0.0
 10
207.2632275144926
 20
111.6964236928679
 30
0.0
 10
207.2922671174682
 20
111.6969615629714
 30
0.0
  0
SPLINE
  5
125
330
1F
100
AcDbEntity
  8
0
  6
SLD-SOLID
 62
     7
100
AcDbSpline
210
0.0
220
0.0
230
1.0
 70
     8
 71
     3
 72
    16
 73
    12
 74
     0
 42
0.000000001
 43
0.00000001
 40
0.0
 40
0.0
 40
0.0
 40
0.0
 40
0.062665237114179
 40
0.1253166151161188
 40
0.2505047026334666
 40
0.3933880120692159
 40
0.5006362420848571
 40
0.749470695357641
 40
0.8746802095668523
 40
0.9373347007293137
 40
1.0
 40
1.0
 40
1.0
 40
1.0
 10
207.310295963622
 20
109.8785460896936
 30
0.0
 10
207.2806403295093
 20
109.8819176119441
 30
0.0
 10
207.2213356199563
 20
109.8886599107954
 30
0.0
 10
207.1039720932684
 20
109.9102334542387
 30
0.0
 10
206.9532186331082
 20
109.9574219137359
 30
0.0
 10
206.7965022779514
 20
110.0452455146431
 30
0.0
 10
206.6234634683853
 20
110.2057530085679
 30
0.0
 10
206.5161500252862
 20
110.4115030956453
 30
0.0
 10
206.4766801164947
 20
110.6094946346849
 30
0.0
 10
206.4659232283313
 20
110.7244619793136
 30
0.0
 10
206.4647358552239
 20
110.7820781522586
 30
0.0
 10
206.4641421174682
 20
110.8108887232622
 30
0.0
  0
SPLINE
  5
126
330
1F
100
AcDbEntity
  8
0
  6
SLD-SOLID
 62
     7
100
AcDbSpline
210
0.0
220
0.0
230
1.0
 70
     8
 71
     3
 72
     8
 73
     4
 74
     0
 42
0.000000001
 43
0.00000001
 40
0.0
 40
0.0
 40
0.0
 40
0.0
 40
1.0
 40
1.0
 40
1.0
 40
1.0
 10
207.3487575020836
 20
110.2525449580526
 30
0.0
 10
207.335936989263
 20
110.1281074978851
 30
0.0
 10
207.3231164764425
 20
110.0034364442833
 30
0.0
 10
207.310295963622
 20
109.8785460896936
 30
0.0
  0
SPLINE
  5
127
330
1F
100
AcDbEntity
  8
0
  6
SLD-SOLID
 62
     7
100
AcDbSpline
210
0.0
220
0.0
230
1.0
 70
     8
 71
     3
 72
    14
 73
    10
 74
     0
 42
0.000000001
 43
0.00000001
 40
0.0
 40
0.0
 40
0.0
 40
0.0
 40
0.1253010519741459
 40
0.2505098478769053
 40
0.499343369232075
 40
0.6244488719254124
 40
0.7495457180078846
 40
0.8747057413814276
 40
1.0
 40
1.0
 40
1.0
 40
1.0
 10
206.810295963622
 20
110.8027702394214
 30
0.0
 10
206.8116821166592
 20
110.7671528954949
 30
0.0
 10
206.8144534021432
 20
110.695944431813
 30
0.0
 10
206.8454235057908
 20
110.5564307957455
 30
0.0
 10
206.9191785641522
 20
110.4278109512097
 30
0.0
 10
207.0304192278854
 20
110.3327041259768
 30
0.0
 10
207.1305571258811
 20
110.285317763019
 30
0.0
 10
207.2380086636449
 20
110.2569508637885
 30
0.0
 10
207.3118280343536
 20
110.2540141179642
 30
0.0
 10
207.3487575020836
 20
110.2525449580526
 30
0.0
  0
SPLINE
  5
128
330
1F
100
AcDbEntity
  8
0
  6
SLD-SOLID
 62
     7
100
AcDbSpline
210
0.0
220
0.0
230
1.0
 70
     8
 71
     3
 72
    15
 73
    11
 74
     0
 42
0.000000001
 43
0.00000001
 40
0.0
 40
0.0
 40
0.0
 40
0.0
 40
0.0626688718537928
 40
0.1253235932687495
 40
0.2503465934107615
 40
0.4992250358967028
 40
0.6243290407597842
 40
0.7494788951445376
 40
0.8747178277475182
 40
1.0
 40
1.0
 40
1.0
 40
1.0
 10
207.295872886699
 20
111.3289104522354
 30
0.0
 10
207.2788094544973
 20
111.3284766569819
 30
0.0
 10
207.2446864429646
 20
111.3276091644245
 30
0.0
 10
207.1772261736576
 20
111.3174036037126
 30
0.0
 10
207.0633845338544
 20
111.2818688754491
 30
0.0
 10
206.9528361847997
 20
111.1978300357373
 30
0.0
 10
206.8760441320414
 20
111.0894702214882
 30
0.0
 10
206.8356302470621
 20
110.9984166941292
 30
0.0
 10
206.8143594533435
 20
110.9014558827203
 30
0.0
 10
206.8116506160432
 20
110.8356692387536
 30
0.0
 10
206.810295963622
 20
110.8027702394214
 30
0.0
  0
SPLINE
  5
129
330
1F
100
AcDbEntity
  8
0
  6
SLD-SOLID
 62
     7
100
AcDbSpline
210
0.0
220
0.0
230
1.0
 70
     8
 71
     3
 72
    14
 73
    10
 74
     0
 42
0.000000001
 43
0.00000001
 40
0.0
 40
0.0
 40
0.0
 40
0.0
 40
0.2001076230145705
 40
0.5001909591930223
 40
0.6252284615914541
 40
0.7501902181423923
 40
0.8750393928317121
 40
0.9375268274373513
 40
1.0
 40
1.0
 40
1.0
 40
1.0
 10
208.3421469251605
 20
110.5519020773515
 30
0.0
 10
208.2834605704461
 20
110.6186180601972
 30
0.0
 10
208.1367675878705
 20
110.7853819792842
 30
0.0
 10
207.9429410529567
 20
110.9845811036003
 30
0.0
 10
207.7593597420066
 20
111.1466496383499
 30
0.0
 10
207.6207779332144
 20
111.2419301217477
 30
0.0
 10
207.4910082729678
 20
111.2983414665133
 30
0.0
 10
207.3808254558808
 20
111.325148962386
 30
0.0
 10
207.324188255048
 20
111.3276567176909
 30
0.0
 10
207.295872886699
 20
111.3289104522354
 30
0.0
  0
SPLINE
  5
12A
330
1F
100
AcDbEntity
  8
0
  6
SLD-SOLID
 62
     7
100
AcDbSpline
210
0.0
220
0.0
230
1.0
 70
     8
 71
     3
 72
    13
 73
     9
 74
     0
 42
0.000000001
 43
0.00000001
 40
0.0
 40
0.0
 40
0.0
 40
0.0
 40
0.1250209265508464
 40
0.250049373506896
 40
0.4998209906540659
 40
0.699849996273849
 40
0.849922119023819
 40
1.0
 40
1.0
 40
1.0
 40
1.0
 10
209.1973151943913
 20
109.880302345848
 30
0.0
 10
209.1536485045733
 20
109.8960282075814
 30
0.0
 10
209.0663124982474
 20
109.9274808770086
 30
0.0
 10
208.902999656887
 20
110.0148463256478
 30
0.0
 10
208.729058765273
 20
110.1376212575667
 30
0.0
 10
208.5712432748738
 20
110.2912413394799
 30
0.0
 10
208.4464759171637
 20
110.4250790432494
 30
0.0
 10
208.376923700603
 20
110.5096271919796
 30
0.0
 10
208.3421469251605
 20
110.5519020773515
 30
0.0
  0
SPLINE
  5
12B
330
1F
100
AcDbEntity
  8
0
  6
SLD-SOLID
 62
     7
100
AcDbSpline
210
0.0
220
0.0
230
1.0
 70
     8
 71
     3
 72
    11
 73
     7
 74
     0
 42
0.000000001
 43
0.00000001
 40
0.0
 40
0.0
 40
0.0
 40
0.0
 40
0.2500297563975164
 40
0.5000133722126017
 40
0.7499826864803177
 40
1.0
 40
1.0
 40
1.0
 40
1.0
 10
209.4641421174682
 20
109.8410724187354
 30
0.0
 10
209.4415192637285
 20
109.8410173735
 30
0.0
 10
209.3962777310788
 20
109.8409072931873
 30
0.0
 10
209.3288333995733
 20
109.8485233464537
 30
0.0
 10
209.2619492030681
 20
109.860106679904
 30
0.0
 10
209.2188612427803
 20
109.8735700263681
 30
0.0
 10
209.1973151943913
 20
109.880302345848
 30
0.0
  0
LINE
  5
12C
330
1F
100
AcDbEntity
  8
0
  6
SLD-SOLID
 62
     7
100
AcDbLine
 10
209.4641421305
 20
111.7336729326
 30
0.0
 11
209.4641421305
 21
109.8410722584
 31
0.0
  0
LINE
  5
12D
330
1F
100
AcDbEntity
  8
0
  6
SLD-SOLID
 62
     7
100
AcDbLine
 10
209.0795267455
 20
111.7336729326
 30
0.0
 11
209.4641421305
 21
111.7336729326
 31
0.0
  0
LINE
  5
12E
330
1F
100
AcDbEntity
  8
0
  6
SLD-SOLID
 62
     7
100
AcDbLine
 10
209.0795267455
 20
111.7336729326
 30
0.0
 11
209.0795267455
 21
110.3213506535
 31
0.0
  0
SPLINE
  5
12F
330
1F
100
AcDbEntity
  8
0
  6
SLD-SOLID
 62
     7
100
AcDbSpline
210
0.0
220
0.0
230
1.0
 70
     8
 71
     3
 72
    14
 73
    10
 74
     0
 42
0.000000001
 43
0.00000001
 40
0.0
 40
0.0
 40
0.0
 40
0.0
 40
0.2500168615556141
 40
0.3500261258081755
 40
0.5000369762994756
 40
0.6489430765612622
 40
0.7500320193508472
 40
0.8749982441472567
 40
1.0
 40
1.0
 40
1.0
 40
1.0
 10
208.5230363482374
 20
108.6490863780849
 30
0.0
 10
208.5665056631089
 20
108.5973467837922
 30
0.0
 10
208.6273631420059
 20
108.524910830359
 30
0.0
 10
208.7144934519192
 20
108.4214818805967
 30
0.0
 10
208.7843558414418
 20
108.3392027387073
 30
0.0
 10
208.8564878097845
 20
108.2584178326468
 30
0.0
 10
208.9261361390338
 20
108.1844111677627
 30
0.0
 10
208.9976148439805
 20
108.121191976893
 30
0.0
 10
209.0522201826502
 20
108.0808121922361
 30
0.0
 10
209.0795267328528
 20
108.0606194300673
 30
0.0
  0
SPLINE
  5
130
330
1F
100
AcDbEntity
  8
0
  6
SLD-SOLID
 62
     7
100
AcDbSpline
210
0.0
220
0.0
230
1.0
 70
     8
 71
     3
 72
    14
 73
    10
 74
     0
 42
0.000000001
 43
0.00000001
 40
0.0
 40
0.0
 40
0.0
 40
0.0
 40
0.0625675661231029
 40
0.1251140026044146
 40
0.2501011477719563
 40
0.4995675077343559
 40
0.7496838681908607
 40
0.8748402580249539
 40
1.0
 40
1.0
 40
1.0
 40
1.0
 10
207.2922671174682
 20
109.465630948073
 30
0.0
 10
207.3242963389106
 20
109.4647377904644
 30
0.0
 10
207.3883439652331
 20
109.4629517768748
 30
0.0
 10
207.5149605223921
 20
109.4429592318941
 30
0.0
 10
207.7296860840753
 20
109.3770677294751
 30
0.0
 10
208.0005369642325
 20
109.2015966669418
 30
0.0
 10
208.2266884595572
 20
108.9795424039618
 30
0.0
 10
208.3984720169541
 20
108.7929752718054
 30
0.0
 10
208.4815145337847
 20
108.697049770858
 30
0.0
 10
208.5230363482374
 20
108.6490863780849
 30
0.0
  0
SPLINE
  5
131
330
1F
100
AcDbEntity
  8
0
  6
SLD-SOLID
 62
     7
100
AcDbSpline
210
0.0
220
0.0
230
1.0
 70
     8
 71
     3
 72
    17
 73
    13
 74
     0
 42
0.000000001
 43
0.00000001
 40
0.0
 40
0.0
 40
0.0
 40
0.0
 40
0.0625815367657585
 40
0.1251492961084244
 40
0.2501912548844511
 40
0.3768455455387809
 40
0.5000947322412226
 40
0.6264241736666116
 40
0.7499896198499914
 40
0.8748734351903144
 40
0.9374280894526168
 40
0.9999999999999999
 40
0.9999999999999999
 40
0.9999999999999999
 40
0.9999999999999999
 10
206.4641421174682
 20
108.5597539008669
 30
0.0
 10
206.4646038953126
 20
108.588330362254
 30
0.0
 10
206.4655273493402
 20
108.6454769938757
 30
0.0
 10
206.4767586133535
 20
108.759171077408
 30
0.0
 10
206.5063053925309
 20
108.9000426296647
 30
0.0
 10
206.572472532401
 20
109.0592593335116
 30
0.0
 10
206.6735226363415
 20
109.2003641134579
 30
0.0
 10
206.8009607182865
 20
109.3166700423675
 30
0.0
 10
206.9512340923421
 20
109.405088444637
 30
0.0
 10
207.0903796186993
 20
109.4465189434174
 30
0.0
 10
207.2051563171776
 20
109.4639784868611
 30
0.0
 10
207.2632275144926
 20
109.4650800770287
 30
0.0
 10
207.2922671174682
 20
109.465630948073
 30
0.0
  0
SPLINE
  5
132
330
1F
100
AcDbEntity
  8
0
  6
SLD-SOLID
 62
     7
100
AcDbSpline
210
0.0
220
0.0
230
1.0
 70
     8
 71
     3
 72
    16
 73
    12
 74
     0
 42
0.000000001
 43
0.00000001
 40
0.0
 40
0.0
 40
0.0
 40
0.0
 40
0.0626652371141787
 40
0.1253166151161174
 40
0.250504702633466
 40
0.3933880120692175
 40
0.5006362420848565
 40
0.7494706953576468
 40
0.8746802095668507
 40
0.9373347007293122
 40
1.0
 40
1.0
 40
1.0
 40
1.0
 10
207.310295963622
 20
107.6099433808458
 30
0.0
 10
207.2806403295093
 20
107.6133719674624
 30
0.0
 10
207.2213356199564
 20
107.6202283824257
 30
0.0
 10
207.1039720932684
 20
107.6421682853057
 30
0.0
 10
206.9532186331082
 20
107.6901622751959
 30
0.0
 10
206.7965022779515
 20
107.7795094108909
 30
0.0
 10
206.6234634683853
 20
107.9428693701914
 30
0.0
 10
206.5161500252862
 20
108.1524234879158
 30
0.0
 10
206.4766801164947
 20
108.3542868783461
 30
0.0
 10
206.4659232283313
 20
108.4715578832543
 30
0.0
 10
206.4647358552239
 20
108.5303535380674
 30
0.0
 10
206.4641421174682
 20
108.5597539008669
 30
0.0
  0
SPLINE
  5
133
330
1F
100
AcDbEntity
  8
0
  6
SLD-SOLID
 62
     7
100
AcDbSpline
210
0.0
220
0.0
230
1.0
 70
     8
 71
     3
 72
     8
 73
     4
 74
     0
 42
0.000000001
 43
0.00000001
 40
0.0
 40
0.0
 40
0.0
 40
0.0
 40
1.0
 40
1.0
 40
1.0
 40
1.0
 10
207.3487575020836
 20
107.9905406214351
 30
0.0
 10
207.335936989263
 20
107.8638171755048
 30
0.0
 10
207.3231164764425
 20
107.7369465804402
 30
0.0
 10
207.310295963622
 20
107.6099433808458
 30
0.0
  0
SPLINE
  5
134
330
1F
100
AcDbEntity
  8
0
  6
SLD-SOLID
 62
     7
100
AcDbSpline
210
0.0
220
0.0
230
1.0
 70
     8
 71
     3
 72
    14
 73
    10
 74
     0
 42
0.000000001
 43
0.00000001
 40
0.0
 40
0.0
 40
0.0
 40
0.0
 40
0.1253010519741585
 40
0.2505098478769187
 40
0.4993433692320847
 40
0.6244488719254206
 40
0.7495457180078925
 40
0.8747057413814285
 40
1.0
 40
1.0
 40
1.0
 40
1.0
 10
206.810295963622
 20
108.5514685444726
 30
0.0
 10
206.8116821166592
 20
108.5151240929634
 30
0.0
 10
206.8144534021432
 20
108.4424619494674
 30
0.0
 10
206.8454235057908
 20
108.3001744501991
 30
0.0
 10
206.9191785641523
 20
108.1690766203538
 30
0.0
 10
207.0304192278854
 20
108.0721827393949
 30
0.0
 10
207.1305571258811
 20
108.0239166967406
 30
0.0
 10
207.2380086636448
 20
107.9950273688848
 30
0.0
 10
207.3118280343536
 20
107.9920367382115
 30
0.0
 10
207.3487575020836
 20
107.9905406214351
 30
0.0
  0
SPLINE
  5
135
330
1F
100
AcDbEntity
  8
0
  6
SLD-SOLID
 62
     7
100
AcDbSpline
210
0.0
220
0.0
230
1.0
 70
     8
 71
     3
 72
    15
 73
    11
 74
     0
 42
0.000000001
 43
0.00000001
 40
0.0
 40
0.0
 40
0.0
 40
0.0
 40
0.062668871853796
 40
0.1253235932687528
 40
0.2503465934107637
 40
0.4992250358967144
 40
0.6243290407598011
 40
0.7494788951445468
 40
0.8747178277475294
 40
1.0
 40
1.0
 40
1.0
 40
1.0
 10
207.295872886699
 20
109.08896839809
 30
0.0
 10
207.2788094544973
 20
109.0885247739761
 30
0.0
 10
207.2446864429646
 20
109.0876376259174
 30
0.0
 10
207.1772261736576
 20
109.0772010867241
 30
0.0
 10
207.0633845338544
 20
109.0408635173526
 30
0.0
 10
206.9528361847997
 20
108.9549445391101
 30
0.0
 10
206.8760441320414
 20
108.8442156858888
 30
0.0
 10
206.8356302470621
 20
108.751204008325
 30
0.0
 10
206.8143594533435
 20
108.6521922599795
 30
0.0
 10
206.8116506160432
 20
108.5850469793738
 30
0.0
 10
206.810295963622
 20
108.5514685444726
 30
0.0
  0
SPLINE
  5
136
330
1F
100
AcDbEntity
  8
0
  6
SLD-SOLID
 62
     7
100
AcDbSpline
210
0.0
220
0.0
230
1.0
 70
     8
 71
     3
 72
    14
 73
    10
 74
     0
 42
0.000000001
 43
0.00000001
 40
0.0
 40
0.0
 40
0.0
 40
0.0
 40
0.2001076230145738
 40
0.5001909591930218
 40
0.6252284615914563
 40
0.7501902181423915
 40
0.8750393928317121
 40
0.9375268274373516
 40
1.0
 40
1.0
 40
1.0
 40
1.0
 10
208.3421469251605
 20
108.2955726689116
 30
0.0
 10
208.2834605704461
 20
108.3636083925784
 30
0.0
 10
208.1367675878705
 20
108.5336711486476
 30
0.0
 10
207.9429410529567
 20
108.7370546178929
 30
0.0
 10
207.7593597420066
 20
108.9026390705106
 30
0.0
 10
207.6207779332144
 20
109.0000288525652
 30
0.0
 10
207.4910082729678
 20
109.0577080634212
 30
0.0
 10
207.3808254558808
 20
109.0851216568001
 30
0.0
 10
207.324188255048
 20
109.087686248561
 30
0.0
 10
207.295872886699
 20
109.08896839809
 30
0.0
  0
SPLINE
  5
137
330
1F
100
AcDbEntity
  8
0
  6
SLD-SOLID
 62
     7
100
AcDbSpline
210
0.0
220
0.0
230
1.0
 70
     8
 71
     3
 72
    13
 73
     9
 74
     0
 42
0.000000001
 43
0.00000001
 40
0.0
 40
0.0
 40
0.0
 40
0.0
 40
0.1250209265508445
 40
0.2500493735068964
 40
0.4998209906540695
 40
0.6998499962738465
 40
0.8499221190238179
 40
1.0
 40
1.0
 40
1.0
 40
1.0
 10
209.1973151943913
 20
107.6117293545978
 30
0.0
 10
209.1536485045733
 20
107.627722017239
 30
0.0
 10
209.0663124982474
 20
107.6597083045307
 30
0.0
 10
208.902999656887
 20
107.7485783738738
 30
0.0
 10
208.7290587652731
 20
107.8735137916668
 30
0.0
 10
208.5712432748737
 20
108.0299391659358
 30
0.0
 10
208.4464759171637
 20
108.1662896323853
 30
0.0
 10
208.376923700603
 20
108.2524777722442
 30
0.0
 10
208.3421469251605
 20
108.2955726689116
 30
0.0
  0
SPLINE
  5
138
330
1F
100
AcDbEntity
  8
0
  6
SLD-SOLID
 62
     7
100
AcDbSpline
210
0.0
220
0.0
230
1.0
 70
     8
 71
     3
 72
    11
 73
     7
 74
     0
 42
0.000000001
 43
0.00000001
 40
0.0
 40
0.0
 40
0.0
 40
0.0
 40
0.2500297563975206
 40
0.5000133722126024
 40
0.7499826864803144
 40
1.0
 40
1.0
 40
1.0
 40
1.0
 10
209.4641421174682
 20
107.5718384574721
 30
0.0
 10
209.4415192637285
 20
107.5717824833481
 30
0.0
 10
209.3962777310788
 20
107.5716705454297
 30
0.0
 10
209.3288333995733
 20
107.5794144409504
 30
0.0
 10
209.2619492030681
 20
107.5911924278117
 30
0.0
 10
209.2188612427803
 20
107.6048832742238
 30
0.0
 10
209.1973151943913
 20
107.6117293545978
 30
0.0
  0
LINE
  5
139
330
1F
100
AcDbEntity
  8
0
  6
SLD-SOLID
 62
     7
100
AcDbLine
 10
209.4641421305
 20
109.5032312692
 30
0.0
 11
209.4641421305
 21
107.5718384486
 31
0.0
  0
LINE
  5
13A
330
1F
100
AcDbEntity
  8
0
  6
SLD-SOLID
 62
     7
100
AcDbLine
 10
209.0795267455
 20
109.5032312692
 30
0.0
 11
209.4641421305
 21
109.5032312692
 31
0.0
  0
LINE
  5
13B
330
1F
100
AcDbEntity
  8
0
  6
SLD-SOLID
 62
     7
100
AcDbLine
 10
209.0795267455
 20
109.5032312692
 30
0.0
 11
209.0795267455
 21
108.060619586
 31
0.0
  0
SPLINE
  5
13C
330
1F
100
AcDbEntity
  8
0
  6
SLD-SOLID
 62
     7
100
AcDbSpline
210
0.0
220
0.0
230
1.0
 70
     8
 71
     3
 72
     8
 73
     4
 74
     0
 42
0.000000001
 43
0.00000001
 40
0.0
 40
0.0
 40
0.0
 40
0.0
 40
1.0
 40
1.0
 40
1.0
 40
1.0
 10
206.4641421174682
 20
107.4235124295599
 30
0.0
 10
207.0404642328528
 20
107.0421241783256
 30
0.0
 10
207.6167863482374
 20
106.6596064632723
 30
0.0
 10
208.193108463622
 20
106.2763538466452
 30
0.0
  0
LINE
  5
13D
330
1F
100
AcDbEntity
  8
0
  6
SLD-SOLID
 62
     7
100
AcDbLine
 10
206.4641421044
 20
107.4235125229
 30
0.0
 11
206.4641421044
 21
106.9265061774
 31
0.0
  0
SPLINE
  5
13E
330
1F
100
AcDbEntity
  8
0
  6
SLD-SOLID
 62
     7
100
AcDbSpline
210
0.0
220
0.0
230
1.0
 70
     8
 71
     3
 72
     8
 73
     4
 74
     0
 42
0.000000001
 43
0.00000001
 40
0.0
 40
0.0
 40
0.0
 40
0.0
 40
1.0
 40
1.0
 40
1.0
 40
1.0
 10
207.3469546174682
 20
106.3703555493566
 30
0.0
 10
207.0526837841348
 20
106.5559340514973
 30
0.0
 10
206.7584129508015
 20
106.7413325743347
 30
0.0
 10
206.4641421174682
 20
106.9265062395526
 30
0.0
  0
SPLINE
  5
13F
330
1F
100
AcDbEntity
  8
0
  6
SLD-SOLID
 62
     7
100
AcDbSpline
210
0.0
220
0.0
230
1.0
 70
     8
 71
     3
 72
     8
 73
     4
 74
     0
 42
0.000000001
 43
0.00000001
 40
0.0
 40
0.0
 40
0.0
 40
0.0
 40
1.0
 40
1.0
 40
1.0
 40
1.0
 10
207.8277238482374
 20
106.066092489409
 30
0.0
 10
207.667467437981
 20
106.1675623249962
 30
0.0
 10
207.5072110277246
 20
106.268985786897
 30
0.0
 10
207.3469546174682
 20
106.3703555493566
 30
0.0
  0
SPLINE
  5
140
330
1F
100
AcDbEntity
  8
0
  6
SLD-SOLID
 62
     7
100
AcDbSpline
210
0.0
220
0.0
230
1.0
 70
     8
 71
     3
 72
     8
 73
     4
 74
     0
 42
0.000000001
 43
0.00000001
 40
0.0
 40
0.0
 40
0.0
 40
0.0
 40
1.0
 40
1.0
 40
1.0
 40
1.0
 10
207.3812094251605
 20
105.7831410897535
 30
0.0
 10
207.5300475661861
 20
105.8774943359289
 30
0.0
 10
207.6788857072118
 20
105.9718134295721
 30
0.0
 10
207.8277238482374
 20
106.066092489409
 30
0.0
  0
SPLINE
  5
141
330
1F
100
AcDbEntity
  8
0
  6
SLD-SOLID
 62
     7
100
AcDbSpline
210
0.0
220
0.0
230
1.0
 70
     8
 71
     3
 72
     8
 73
     4
 74
     0
 42
0.000000001
 43
0.00000001
 40
0.0
 40
0.0
 40
0.0
 40
0.0
 40
1.0
 40
1.0
 40
1.0
 40
1.0
 10
206.4641421174682
 20
105.2022485829055
 30
0.0
 10
206.7698312200323
 20
105.3959892111755
 30
0.0
 10
207.0755203225964
 20
105.5896369747156
 30
0.0
 10
207.3812094251605
 20
105.7831410897534
 30
0.0
  0
LINE
  5
142
330
1F
100
AcDbEntity
  8
0
  6
SLD-SOLID
 62
     7
100
AcDbLine
 10
206.4641421044
 20
105.2022485778
 30
0.0
 11
206.4641421044
 21
104.7019116481
 31
0.0
  0
SPLINE
  5
143
330
1F
100
AcDbEntity
  8
0
  6
SLD-SOLID
 62
     7
100
AcDbSpline
210
0.0
220
0.0
230
1.0
 70
     8
 71
     3
 72
     8
 73
     4
 74
     0
 42
0.000000001
 43
0.00000001
 40
0.0
 40
0.0
 40
0.0
 40
0.0
 40
1.0
 40
1.0
 40
1.0
 40
1.0
 10
208.193108463622
 20
105.8544991204153
 30
0.0
 10
207.6167863482374
 20
105.4707608773062
 30
0.0
 10
207.0404642328528
 20
105.086432902859
 30
0.0
 10
206.4641421174682
 20
104.7019116265785
 30
0.0
  0
LINE
  5
144
330
1F
100
AcDbEntity
  8
0
  6
SLD-SOLID
 62
     7
100
AcDbLine
 10
209.4641421305
 20
105.8544990624
 30
0.0
 11
208.1931084564
 21
105.8544990624
 31
0.0
  0
LINE
  5
145
330
1F
100
AcDbEntity
  8
0
  6
SLD-SOLID
 62
     7
100
AcDbLine
 10
209.4641421305
 20
106.2763538462
 30
0.0
 11
209.4641421305
 21
105.8544990624
 31
0.0
  0
LINE
  5
146
330
1F
100
AcDbEntity
  8
0
  6
SLD-SOLID
 62
     7
100
AcDbLine
 10
208.1931084564
 20
106.2763538462
 30
0.0
 11
209.4641421305
 21
106.2763538462
 31
0.0
  0
SPLINE
  5
147
330
1F
100
AcDbEntity
  8
0
  6
SLD-SOLID
 62
     7
100
AcDbSpline
210
0.0
220
0.0
230
1.0
 70
     8
 71
     3
 72
    14
 73
    10
 74
     0
 42
0.000000001
 43
0.00000001
 40
0.0
 40
0.0
 40
0.0
 40
0.0
 40
0.1252005766083377
 40
0.2503545287147368
 40
0.3754480165954126
 40
0.5005359455017232
 40
0.749737116827427
 40
0.8748330994379531
 40
1.0
 40
1.0
 40
1.0
 40
1.0
 10
207.8872190405451
 20
101.1774662491031
 30
0.0
 10
207.8999596098276
 20
101.216351552836
 30
0.0
 10
207.9254360038242
 20
101.2941076794745
 30
0.0
 10
207.9815390948613
 20
101.4039426716574
 30
0.0
 10
208.0546183318896
 20
101.5033660347407
 30
0.0
 10
208.1729107284202
 20
101.6174737392137
 30
0.0
 10
208.32089726206
 20
101.6967061932448
 30
0.0
 10
208.4812649465977
 20
101.735162049414
 30
0.0
 10
208.5635919507385
 20
101.7382530985583
 30
0.0
 10
208.6047671174682
 20
101.7397990610917
 30
0.0
  0
SPLINE
  5
148
330
1F
100
AcDbEntity
  8
0
  6
SLD-SOLID
 62
     7
100
AcDbSpline
210
0.0
220
0.0
230
1.0
 70
     8
 71
     3
 72
    13
 73
     9
 74
     0
 42
0.000000001
 43
0.00000001
 40
0.0
 40
0.0
 40
0.0
 40
0.0
 40
0.1252117063579229
 40
0.2503483626772298
 40
0.4999414635470167
 40
0.7495523300157595
 40
0.8747402266328755
 40
0.9999999999999999
 40
0.9999999999999999
 40
0.9999999999999999
 40
0.9999999999999999
 10
207.2417863482374
 20
101.624955951377
 30
0.0
 10
207.2765186101193
 20
101.623362352908
 30
0.0
 10
207.3459623158809
 20
101.6201761111494
 30
0.0
 10
207.4809109372511
 20
101.5858764408231
 30
0.0
 10
207.6373887415605
 20
101.5065741270572
 30
0.0
 10
207.7629253732922
 20
101.384466970345
 30
0.0
 10
207.8402256117022
 20
101.2698006586146
 30
0.0
 10
207.8715515674865
 20
101.2082502737853
 30
0.0
 10
207.8872190405451
 20
101.1774662491031
 30
0.0
  0
SPLINE
  5
149
330
1F
100
AcDbEntity
  8
0
  6
SLD-SOLID
 62
     7
100
AcDbSpline
210
0.0
220
0.0
230
1.0
 70
     8
 71
     3
 72
    16
 73
    12
 74
     0
 42
0.000000001
 43
0.00000001
 40
0.0
 40
0.0
 40
0.0
 40
0.0
 40
0.1354394901060808
 40
0.2502584014441673
 40
0.3752658126991605
 40
0.5001591743339796
 40
0.6218974034367518
 40
0.7499571229237734
 40
0.8748846055597966
 40
0.9374217603377395
 40
1.0
 40
1.0
 40
1.0
 40
1.0
 10
206.4641421174682
 20
100.6398142855497
 30
0.0
 10
206.4655304499618
 20
100.703429459731
 30
0.0
 10
206.4680957421841
 20
100.8209744370912
 30
0.0
 10
206.4928016047763
 20
100.9960222727012
 30
0.0
 10
206.5391567176486
 20
101.1622131607323
 30
0.0
 10
206.6232383060737
 20
101.3179776177833
 30
0.0
 10
206.7450366958257
 20
101.4490116441548
 30
0.0
 10
206.8953611273015
 20
101.5458336573191
 30
0.0
 10
207.0359565248506
 20
101.599846360242
 30
0.0
 10
207.1528118393306
 20
101.6217190105624
 30
0.0
 10
207.2121216866263
 20
101.6238767349239
 30
0.0
 10
207.2417863482374
 20
101.624955951377
 30
0.0
  0
LINE
  5
14A
330
1F
100
AcDbEntity
  8
0
  6
SLD-SOLID
 62
     7
100
AcDbLine
 10
206.4641421044
 20
100.6398143031
 30
0.0
 11
206.4641421044
 21
99.5311171532
 31
0.0
  0
LINE
  5
14B
330
1F
100
AcDbEntity
  8
0
  6
SLD-SOLID
 62
     7
100
AcDbLine
 10
209.4641421305
 20
99.5311171532
 30
0.0
 11
206.4641421044
 21
99.5311171532
 31
0.0
  0
LINE
  5
14C
330
1F
100
AcDbEntity
  8
0
  6
SLD-SOLID
 62
     7
100
AcDbLine
 10
209.4641421305
 20
100.6427903444
 30
0.0
 11
209.4641421305
 21
99.5311171532
 31
0.0
  0
SPLINE
  5
14D
330
1F
100
AcDbEntity
  8
0
  6
SLD-SOLID
 62
     7
100
AcDbSpline
210
0.0
220
0.0
230
1.0
 70
     8
 71
     3
 72
    15
 73
    11
 74
     0
 42
0.000000001
 43
0.00000001
 40
0.0
 40
0.0
 40
0.0
 40
0.0
 40
0.0626660137184049
 40
0.1253014339097364
 40
0.2503816639133776
 40
0.3754705953053446
 40
0.5003395255217281
 40
0.7493786657958521
 40
0.8746742184793008
 40
1.0
 40
1.0
 40
1.0
 40
1.0
 10
208.6047671174682
 20
101.7397990610917
 30
0.0
 10
208.6379446550878
 20
101.7387947197166
 30
0.0
 10
208.7042835330641
 20
101.7367865272855
 30
0.0
 10
208.8355925023291
 20
101.7159592313742
 30
0.0
 10
208.992458816592
 20
101.6592587513431
 30
0.0
 10
209.1641029113423
 20
101.5565229133357
 30
0.0
 10
209.3447523780956
 20
101.3588857930772
 30
0.0
 10
209.4279907600779
 20
101.1000992153999
 30
0.0
 10
209.4607641560997
 20
100.840176343986
 30
0.0
 10
209.4630160398079
 20
100.7085910384374
 30
0.0
 10
209.4641421174682
 20
100.6427904500443
 30
0.0
  0
LINE
  5
14E
330
1F
100
AcDbEntity
  8
0
  6
SLD-SOLID
 62
     7
100
AcDbLine
 10
206.4641421044
 20
113.5717986867
 30
0.0
 11
208.3659951482
 21
113.5717986867
 31
0.0
  0
LINE
  5
14F
330
1F
100
AcDbEntity
  8
0
  6
SLD-SOLID
 62
     7
100
AcDbLine
 10
208.3659951482
 20
113.5717986867
 30
0.0
 11
208.3659951482
 21
113.2489408151
 31
0.0
  0
SPLINE
  5
150
330
1F
100
AcDbEntity
  8
0
  6
SLD-SOLID
 62
     7
100
AcDbSpline
210
0.0
220
0.0
230
1.0
 70
     8
 71
     3
 72
     8
 73
     4
 74
     0
 42
0.000000001
 43
0.00000001
 40
0.0
 40
0.0
 40
0.0
 40
0.0
 40
1.0
 40
1.0
 40
1.0
 40
1.0
 10
208.3659951337351
 20
113.2489407657481
 30
0.0
 10
208.7320441283128
 20
113.3988096733302
 30
0.0
 10
209.0980931228905
 20
113.548132683632
 30
0.0
 10
209.4641421174682
 20
113.6968829520411
 30
0.0
  0
SPLINE
  5
151
330
1F
100
AcDbEntity
  8
0
  6
SLD-SOLID
 62
     7
100
AcDbSpline
210
0.0
220
0.0
230
1.0
 70
     8
 71
     3
 72
     8
 73
     4
 74
     0
 42
0.000000001
 43
0.00000001
 40
0.0
 40
0.0
 40
0.0
 40
0.0
 40
1.0
 40
1.0
 40
1.0
 40
1.0
 10
209.4641421174682
 20
113.6968829520411
 30
0.0
 10
209.0980931228905
 20
113.8456332204502
 30
0.0
 10
208.7320441283128
 20
113.9938107463256
 30
0.0
 10
208.3659951337351
 20
114.1413888909848
 30
0.0
  0
LINE
  5
152
330
1F
100
AcDbEntity
  8
0
  6
SLD-SOLID
 62
     7
100
AcDbLine
 10
208.3659951482
 20
114.1413890541
 30
0.0
 11
208.3659951482
 21
113.8216976792
 31
0.0
  0
LINE
  5
153
330
1F
100
AcDbEntity
  8
0
  6
SLD-SOLID
 62
     7
100
AcDbLine
 10
208.3659951482
 20
113.8216976792
 30
0.0
 11
206.4641421044
 21
113.8216976792
 31
0.0
  0
LINE
  5
154
330
1F
100
AcDbEntity
  8
0
  6
SLD-SOLID
 62
     7
100
AcDbLine
 10
206.4641421044
 20
113.8216976792
 30
0.0
 11
206.4641421044
 21
113.5717986867
 31
0.0
  0
POLYLINE
  5
155
330
1F
100
AcDbEntity
  8
0
  6
SLD-SOLID
 62
     7
100
AcDb2dPolyline
 66
     1
 10
0.0
 20
0.0
 30
0.0
 70
   128
  0
VERTEX
  5
201
330
155
100
AcDbEntity
  8
0
  6
SLD-SOLID
 62
     7
100
AcDbVertex
100
AcDb2dVertex
 10
211.5229615325
 20
129.2943565891
 30
0.0
  0
VERTEX
  5
202
330
155
100
AcDbEntity
  8
0
  6
SLD-SOLID
 62
     7
100
AcDbVertex
100
AcDb2dVertex
 10
211.5236292908
 20
129.217835401
 30
0.0
  0
VERTEX
  5
203
330
155
100
AcDbEntity
  8
0
  6
SLD-SOLID
 62
     7
100
AcDbVertex
100
AcDb2dVertex
 10
211.5256339626
 20
128.9881153748
 30
0.0
  0
VERTEX
  5
204
330
155
100
AcDbEntity
  8
0
  6
SLD-SOLID
 62
     7
100
AcDbVertex
100
AcDb2dVertex
 10
211.528975548
 20
128.6051965103
 30
0.0
  0
VERTEX
  5
205
330
155
100
AcDbEntity
  8
0
  6
SLD-SOLID
 62
     7
100
AcDbVertex
100
AcDb2dVertex
 10
211.5336542798
 20
128.0690788076
 30
0.0
  0
VERTEX
  5
206
330
155
100
AcDbEntity
  8
0
  6
SLD-SOLID
 62
     7
100
AcDbVertex
100
AcDb2dVertex
 10
211.5396699252
 20
127.3797622666
 30
0.0
  0
VERTEX
  5
207
330
155
100
AcDbEntity
  8
0
  6
SLD-SOLID
 62
     7
100
AcDbVertex
100
AcDb2dVertex
 10
211.5469181759
 20
126.5491808549
 30
0.0
  0
VERTEX
  5
208
330
155
100
AcDbEntity
  8
0
  6
SLD-SOLID
 62
     7
100
AcDbVertex
100
AcDb2dVertex
 10
211.5553005448
 20
125.5886594549
 30
0.0
  0
VERTEX
  5
209
330
155
100
AcDbEntity
  8
0
  6
SLD-SOLID
 62
     7
100
AcDbVertex
100
AcDb2dVertex
 10
211.5648167988
 20
124.4981980667
 30
0.0
  0
VERTEX
  5
20A
330
155
100
AcDbEntity
  8
0
  6
SLD-SOLID
 62
     7
100
AcDbVertex
100
AcDb2dVertex
 10
211.575467171
 20
123.2777985529
 30
0.0
  0
VERTEX
  5
20B
330
155
100
AcDbEntity
  8
0
  6
SLD-SOLID
 62
     7
100
AcDbVertex
100
AcDb2dVertex
 10
211.5872514283
 20
121.9274609134
 30
0.0
  0
VERTEX
  5
20C
330
155
100
AcDbEntity
  8
0
  6
SLD-SOLID
 62
     7
100
AcDbVertex
100
AcDb2dVertex
 10
211.5999767872
 20
120.4692649439
 30
0.0
  0
VERTEX
  5
20D
330
155
100
AcDbEntity
  8
0
  6
SLD-SOLID
 62
     7
100
AcDbVertex
100
AcDb2dVertex
 10
211.6134607082
 20
118.9241737843
 30
0.0
  0
VERTEX
  5
20E
330
155
100
AcDbEntity
  8
0
  6
SLD-SOLID
 62
     7
100
AcDbVertex
100
AcDb2dVertex
 10
211.6277027259
 20
117.2921846405
 30
0.0
  0
VERTEX
  5
20F
330
155
100
AcDbEntity
  8
0
  6
SLD-SOLID
 62
     7
100
AcDbVertex
100
AcDb2dVertex
 10
211.6427033057
 20
115.5732984439
 30
0.0
  0
VERTEX
  5
210
330
155
100
AcDbEntity
  8
0
  6
SLD-SOLID
 62
     7
100
AcDbVertex
100
AcDb2dVertex
 10
211.658462215
 20
113.7675142631
 30
0.0
  0
VERTEX
  5
211
330
155
100
AcDbEntity
  8
0
  6
SLD-SOLID
 62
     7
100
AcDbVertex
100
AcDb2dVertex
 10
211.6747272981
 20
111.9037040294
 30
0.0
  0
VERTEX
  5
212
330
155
100
AcDbEntity
  8
0
  6
SLD-SOLID
 62
     7
100
AcDbVertex
100
AcDb2dVertex
 10
211.6912599037
 20
110.0092672527
 30
0.0
  0
VERTEX
  5
213
330
155
100
AcDbEntity
  8
0
  6
SLD-SOLID
 62
     7
100
AcDbVertex
100
AcDb2dVertex
 10
211.7080595659
 20
108.0842048645
 30
0.0
  0
VERTEX
  5
214
330
155
100
AcDbEntity
  8
0
  6
SLD-SOLID
 62
     7
100
AcDbVertex
100
AcDb2dVertex
 10
211.7251267506
 20
106.1285163992
 30
0.0
  0
VERTEX
  5
215
330
155
100
AcDbEntity
  8
0
  6
SLD-SOLID
 62
     7
100
AcDbVertex
100
AcDb2dVertex
 10
211.742460992
 20
104.1422023034
 30
0.0
  0
VERTEX
  5
216
330
155
100
AcDbEntity
  8
0
  6
SLD-SOLID
 62
     7
100
AcDbVertex
100
AcDb2dVertex
 10
211.7597896455
 20
102.156523873
 30
0.0
  0
VERTEX
  5
217
330
155
100
AcDbEntity
  8
0
  6
SLD-SOLID
 62
     7
100
AcDbVertex
100
AcDb2dVertex
 10
211.7768540362
 20
100.2011534542
 30
0.0
  0
VERTEX
  5
218
330
155
100
AcDbEntity
  8
0
  6
SLD-SOLID
 62
     7
100
AcDbVertex
100
AcDb2dVertex
 10
211.7936536985
 20
98.276091066
 30
0.0
  0
VERTEX
  5
219
330
155
100
AcDbEntity
  8
0
  6
SLD-SOLID
 62
     7
100
AcDbVertex
100
AcDb2dVertex
 10
211.8101890979
 20
96.3813367084
 30
0.0
  0
VERTEX
  5
21A
330
155
100
AcDbEntity
  8
0
  6
SLD-SOLID
 62
     7
100
AcDbVertex
100
AcDb2dVertex
 10
211.826459769
 20
94.51688945
 30
0.0
  0
VERTEX
  5
21B
330
155
100
AcDbEntity
  8
0
  6
SLD-SOLID
 62
     7
100
AcDbVertex
100
AcDb2dVertex
 10
211.8422140217
 20
92.7116454363
 30
0.0
  0
VERTEX
  5
21C
330
155
100
AcDbEntity
  8
0
  6
SLD-SOLID
 62
     7
100
AcDbVertex
100
AcDb2dVertex
 10
211.8572120404
 20
90.9930283919
 30
0.0
  0
VERTEX
  5
21D
330
155
100
AcDbEntity
  8
0
  6
SLD-SOLID
 62
     7
100
AcDbVertex
100
AcDb2dVertex
 10
211.8714542909
 20
89.3610392482
 30
0.0
  0
VERTEX
  5
21E
330
155
100
AcDbEntity
  8
0
  6
SLD-SOLID
 62
     7
100
AcDbVertex
100
AcDb2dVertex
 10
211.8849403074
 20
87.815678005
 30
0.0
  0
VERTEX
  5
21F
330
155
100
AcDbEntity
  8
0
  6
SLD-SOLID
 62
     7
100
AcDbVertex
100
AcDb2dVertex
 10
211.8976705557
 20
86.3569437311
 30
0.0
  0
VERTEX
  5
220
330
155
100
AcDbEntity
  8
0
  6
SLD-SOLID
 62
     7
100
AcDbVertex
100
AcDb2dVertex
 10
211.9094517862
 20
85.0069655821
 30
0.0
  0
VERTEX
  5
221
330
155
100
AcDbEntity
  8
0
  6
SLD-SOLID
 62
     7
100
AcDbVertex
100
AcDb2dVertex
 10
211.9201005286
 20
83.7867467449
 30
0.0
  0
VERTEX
  5
222
330
155
100
AcDbEntity
  8
0
  6
SLD-SOLID
 62
     7
100
AcDbVertex
100
AcDb2dVertex
 10
211.9296167826
 20
82.6962853566
 30
0.0
  0
VERTEX
  5
223
330
155
100
AcDbEntity
  8
0
  6
SLD-SOLID
 62
     7
100
AcDbVertex
100
AcDb2dVertex
 10
211.9380005484
 20
81.7355851427
 30
0.0
  0
VERTEX
  5
224
330
155
100
AcDbEntity
  8
0
  6
SLD-SOLID
 62
     7
100
AcDbVertex
100
AcDb2dVertex
 10
211.9452522917
 20
80.9046423778
 30
0.0
  0
VERTEX
  5
225
330
155
100
AcDbEntity
  8
0
  6
SLD-SOLID
 62
     7
100
AcDbVertex
100
AcDb2dVertex
 10
211.9512681698
 20
80.2152625069
 30
0.0
  0
VERTEX
  5
226
330
155
100
AcDbEntity
  8
0
  6
SLD-SOLID
 62
     7
100
AcDbVertex
100
AcDb2dVertex
 10
211.9559471345
 20
79.6791131393
 30
0.0
  0
VERTEX
  5
227
330
155
100
AcDbEntity
  8
0
  6
SLD-SOLID
 62
     7
100
AcDbVertex
100
AcDb2dVertex
 10
211.9592887199
 20
79.2961942748
 30
0.0
  0
VERTEX
  5
228
330
155
100
AcDbEntity
  8
0
  6
SLD-SOLID
 62
     7
100
AcDbVertex
100
AcDb2dVertex
 10
211.9612933917
 20
79.0665059135
 30
0.0
  0
VERTEX
  5
229
330
155
100
AcDbEntity
  8
0
  6
SLD-SOLID
 62
     7
100
AcDbVertex
100
AcDb2dVertex
 10
211.9619606843
 20
78.9900480554
 30
0.0
  0
VERTEX
  5
22A
330
155
100
AcDbEntity
  8
0
  6
SLD-SOLID
 62
     7
100
AcDbVertex
100
AcDb2dVertex
 10
211.9619606843
 20
78.9900480554
 30
0.0
  0
SEQEND
  5
358
330
155
100
AcDbEntity
  8
0
  6
SLD-SOLID
 62
     7
  0
LINE
  5
156
330
1F
100
AcDbEntity
  8
0
  6
SLD-SOLID
 62
     7
100
AcDbLine
 10
203.9641419275
 20
104.1400584177
 30
0.0
 11
203.9641419275
 21
129.2900576041
 31
0.0
  0
LINE
  5
157
330
1F
100
AcDbEntity
  8
0
  6
SLD-SOLID
 62
     7
100
AcDbLine
 10
203.9641419275
 20
78.9900592313
 30
0.0
 11
203.9641419275
 21
104.1400584177
 31
0.0
  0
LINE
  5
158
330
1F
100
AcDbEntity
  8
0
  6
SLD-SOLID
 62
     7
100
AcDbLine
 10
207.7333728836
 20
100.5588814401
 30
0.0
 11
207.7333728836
 21
99.9477908731
 31
0.0
  0
SPLINE
  5
159
330
1F
100
AcDbEntity
  8
0
  6
SLD-SOLID
 62
     7
100
AcDbSpline
210
0.0
220
0.0
230
1.0
 70
     8
 71
     3
 72
    11
 73
     7
 74
     0
 42
0.000000001
 43
0.00000001
 40
0.0
 40
0.0
 40
0.0
 40
0.0
 40
0.5000311683832959
 40
0.7500609272078804
 40
0.8765740921436712
 40
1.0
 40
1.0
 40
1.0
 40
1.0
 10
207.7333728866989
 20
100.5588815375633
 30
0.0
 10
207.7326796383442
 20
100.6189061100642
 30
0.0
 10
207.7316397461603
 20
100.708944670362
 30
0.0
 10
207.72060846856
 20
100.8137524485976
 30
0.0
 10
207.7100616775027
 20
100.8729641350589
 30
0.0
 10
207.7019311870768
 20
100.9019108651686
 30
0.0
 10
207.6979161559297
 20
100.9162054546593
 30
0.0
  0
SPLINE
  5
15A
330
1F
100
AcDbEntity
  8
0
  6
SLD-SOLID
 62
     7
100
AcDbSpline
210
0.0
220
0.0
230
1.0
 70
     8
 71
     3
 72
    13
 73
     9
 74
     0
 42
0.000000001
 43
0.00000001
 40
0.0
 40
0.0
 40
0.0
 40
0.0
 40
0.1253259270605815
 40
0.25052808099378
 40
0.4997860069566294
 40
0.7493850119673028
 40
0.8746452998853721
 40
1.0
 40
1.0
 40
1.0
 40
1.0
 10
207.6979161559297
 20
100.9162054546593
 30
0.0
 10
207.690324442181
 20
100.9377376722975
 30
0.0
 10
207.6751485123353
 20
100.9807808421422
 30
0.0
 10
207.6291541921814
 20
101.0598820647031
 30
0.0
 10
207.5461735371504
 20
101.1418420116096
 30
0.0
 10
207.4386292021771
 20
101.1875225493024
 30
0.0
 10
207.347897464066
 20
101.2017385707348
 30
0.0
 10
207.3020022270195
 20
101.2034637136615
 30
0.0
 10
207.279045963622
 20
101.2043266100746
 30
0.0
  0
SPLINE
  5
15B
330
1F
100
AcDbEntity
  8
0
  6
SLD-SOLID
 62
     7
100
AcDbSpline
210
0.0
220
0.0
230
1.0
 70
     8
 71
     3
 72
    17
 73
    13
 74
     0
 42
0.000000001
 43
0.00000001
 40
0.0
 40
0.0
 40
0.0
 40
0.0
 40
0.0625772260125271
 40
0.1251218797937864
 40
0.2499730197880344
 40
0.3498773800919722
 40
0.4248322791572919
 40
0.4997937112000436
 40
0.6245551070231128
 40
0.7496814356971231
 40
0.8748345516634762
 40
1.0
 40
1.0
 40
1.0
 40
1.0
 10
207.279045963622
 20
101.2043266100746
 30
0.0
 10
207.2587384919019
 20
101.203725409465
 30
0.0
 10
207.2181341187556
 20
101.2025233211782
 30
0.0
 10
207.1376845395526
 20
101.1910791284801
 30
0.0
 10
207.0483010238124
 20
101.1610408557821
 30
0.0
 10
206.9657044063398
 20
101.1086631006005
 30
0.0
 10
206.9074701085281
 20
101.0517516931651
 30
0.0
 10
206.8610635020181
 20
100.9752550683919
 30
0.0
 10
206.8316110369456
 20
100.8736168429072
 30
0.0
 10
206.8183586486522
 20
100.7536222123324
 30
0.0
 10
206.8107624675735
 20
100.6331049332958
 30
0.0
 10
206.8104514700465
 20
100.5526902342091
 30
0.0
 10
206.810295963622
 20
100.5124809037823
 30
0.0
  0
LINE
  5
15C
330
1F
100
AcDbEntity
  8
0
  6
SLD-SOLID
 62
     7
100
AcDbLine
 10
206.8102959625
 20
100.5124808539
 30
0.0
 11
206.8102959625
 21
99.9477908731
 31
0.0
  0
LINE
  5
15D
330
1F
100
AcDbEntity
  8
0
  6
SLD-SOLID
 62
     7
100
AcDbLine
 10
206.8102959625
 20
99.9477908731
 30
0.0
 11
207.7333728836
 21
99.9477908731
 31
0.0
  0
LINE
  5
15E
330
1F
100
AcDbEntity
  8
0
  6
SLD-SOLID
 62
     7
100
AcDbLine
 10
209.1179882724
 20
100.6493382406
 30
0.0
 11
209.1179882724
 21
99.9477908731
 31
0.0
  0
SPLINE
  5
15F
330
1F
100
AcDbEntity
  8
0
  6
SLD-SOLID
 62
     7
100
AcDbSpline
210
0.0
220
0.0
230
1.0
 70
     8
 71
     3
 72
    10
 73
     6
 74
     0
 42
0.000000001
 43
0.00000001
 40
0.0
 40
0.0
 40
0.0
 40
0.0
 40
0.400055131594816
 40
0.7001130489825935
 40
1.0
 40
1.0
 40
1.0
 40
1.0
 10
209.1179882713143
 20
100.6493381841547
 30
0.0
 10
209.1177966914657
 20
100.6833217939794
 30
0.0
 10
209.1174614187962
 20
100.7427945186385
 30
0.0
 10
209.1143555807247
 20
100.8278524643981
 30
0.0
 10
209.1071613064513
 20
100.878414108481
 30
0.0
 10
209.1035651943913
 20
100.9036877262432
 30
0.0
  0
SPLINE
  5
160
330
1F
100
AcDbEntity
  8
0
  6
SLD-SOLID
 62
     7
100
AcDbSpline
210
0.0
220
0.0
230
1.0
 70
     8
 71
     3
 72
    14
 73
    10
 74
     0
 42
0.000000001
 43
0.00000001
 40
0.0
 40
0.0
 40
0.0
 40
0.0
 40
0.1252091874379811
 40
0.2503702745393185
 40
0.375444311575127
 40
0.5004441034223643
 40
0.7496801817937183
 40
0.874777745997233
 40
1.0
 40
1.0
 40
1.0
 40
1.0
 10
209.1035651943913
 20
100.9036877262432
 30
0.0
 10
209.0970451811713
 20
100.9328086767455
 30
0.0
 10
209.0840076594584
 20
100.9910393906515
 30
0.0
 10
209.0508309440086
 20
101.0745949784526
 30
0.0
 10
209.0029355574897
 20
101.1512113176089
 30
0.0
 10
208.915507091997
 20
101.2339144787327
 30
0.0
 10
208.8065341952296
 20
101.2899195976631
 30
0.0
 10
208.688966755452
 20
101.3159376653199
 30
0.0
 10
208.6288372371509
 20
101.3179574429751
 30
0.0
 10
208.5987575020836
 20
101.3189678348505
 30
0.0
  0
SPLINE
  5
161
330
1F
100
AcDbEntity
  8
0
  6
SLD-SOLID
 62
     7
100
AcDbSpline
210
0.0
220
0.0
230
1.0
 70
     8
 71
     3
 72
    16
 73
    12
 74
     0
 42
0.000000001
 43
0.00000001
 40
0.0
 40
0.0
 40
0.0
 40
0.0
 40
0.0715384074325947
 40
0.1430272757149802
 40
0.2856180476659166
 40
0.3935275862752441
 40
0.4996048059802362
 40
0.6244921122071773
 40
0.7496079071922829
 40
0.874791298326722
 40
1.0
 40
1.0
 40
1.0
 40
1.0
 10
208.5987575020836
 20
101.3189678348505
 30
0.0
 10
208.5744043588427
 20
101.3182594764913
 30
0.0
 10
208.5257149365053
 20
101.316843250299
 30
0.0
 10
208.4296500774124
 20
101.3003320241031
 30
0.0
 10
208.3265965516272
 20
101.2586353563111
 30
0.0
 10
208.2292602643497
 20
101.1846847130933
 30
0.0
 10
208.1588459694768
 20
101.0922528740574
 30
0.0
 10
208.1140861142664
 20
100.9790589720468
 30
0.0
 10
208.0921478451209
 20
100.8539894427064
 30
0.0
 10
208.0808143048254
 20
100.7277301144365
 30
0.0
 10
208.0799559524321
 20
100.6433319618538
 30
0.0
 10
208.0795267328528
 20
100.6011286199272
 30
0.0
  0
LINE
  5
162
330
1F
100
AcDbEntity
  8
0
  6
SLD-SOLID
 62
     7
100
AcDbLine
 10
208.0795267344
 20
100.6011285603
 30
0.0
 11
208.0795267344
 21
99.9477908731
 31
0.0
  0
LINE
  5
163
330
1F
100
AcDbEntity
  8
0
  6
SLD-SOLID
 62
     7
100
AcDbLine
 10
208.0795267344
 20
99.9477908731
 30
0.0
 11
209.1179882724
 21
99.9477908731
 31
0.0
  0
LINE
  5
164
330
1F
100
AcDbEntity
  8
0
  6
SLD-SOLID
 62
     7
100
AcDbLine
 10
211.9619604836
 20
96.3645929544
 30
0.0
 11
211.9619604836
 21
129.1461608785
 31
0.0
  0
DIMENSION
  5
165
330
1F
100
AcDbEntity
  8
0
  6
SLD-SOLID
 62
     7
100
AcDbDimension
  2
_D_1
 10
211.9619604836
 20
78.9900488984
 30
0.0
 11
228.430857596
 21
145.3543913585
 31
0.0
 70
   162
  1
30 arcmin%%p10
  3
SLDDIMSTYLE1
100
AcDb2LineAngularDimension
 13
211.9619604836
 23
129.1461608785
 33
0.0
 14
211.9619604836
 24
96.3645929544
 34
0.0
 15
211.5229614486
 25
129.2943557286
 35
0.0
 16
215.5537165077
 26
147.2729150577
 36
0.0
  0
DIMENSION
  5
173
330
1F
100
AcDbEntity
  8
0
  6
SLD-SOLID
 62
     7
100
AcDbDimension
  2
_D_2
 10
211.9619604836
 20
62.6400584177
 30
0.0
 11
225.9628708925
 21
62.6400584177
 31
0.0
 70
   160
  1
<>
  3
SLDDIMSTYLE2
100
AcDbAlignedDimension
 13
203.9641421175
 23
78.9900584177
 33
0.0
 14
211.9619604836
 24
96.3645929544
 34
0.0
100
AcDbRotatedDimension
  0
MTEXT
  5
188
330
1F
100
AcDbEntity
  8
0
  6
CONTINUOUS
 62
     7
100
AcDbMText
 10
184.7783266408
 20
88.4570046694
 30
0.0
 40
2.1166666667
 41
0.0
 71
     1
 72
     1
  1
S1
  7
SLDTEXTSTYLE0
  0
LEADER
  5
18A
330
1F
100
AcDbEntity
  8
0
  6
CONTINUOUS
 62
     7
100
AcDbLeader
  3
SLDDIMSTYLE3
 76
     3
 10
204.2141421175
 20
98.725845239
 30
0.0
 10
194.35
 20
87.5
 30
0.0
 10
188.0
 20
87.5
 30
0.0
1001
ACAD
1000
DSTYLE
1002
{
1070
     6
1000

1002
}
  0
MTEXT
  5
18B
330
1F
100
AcDbEntity
  8
0
  6
CONTINUOUS
 62
     7
100
AcDbMText
 10
226.9712451706
 20
95.4271225203
 30
0.0
 40
2.1166666667
 41
0.0
 71
     1
 72
     1
  1
S2
  7
SLDTEXTSTYLE0
  0
LEADER
  5
18C
330
1F
100
AcDbEntity
  8
0
  6
CONTINUOUS
 62
     7
100
AcDbLeader
  3
SLDDIMSTYLE3
 76
     3
 10
211.7076097678
 20
108.1357540851
 30
0.0
 10
219.7125
 20
96.875
 30
0.0
 10
226.0625
 20
96.875
 30
0.0
1001
ACAD
1000
DSTYLE
1002
{
1070
     6
1000

1002
}
  0
INSERT
  5
193
102
{ACAD_REACTORS
330
194
102
}
330
1F
100
AcDbEntity
  8
0
  6
CONTINUOUS
 62
     7
100
AcDbBlockReference
  2
SW_NOTE_5
 10
221.375
 20
122.0060652355
 30
0.0
  0
LEADER
  5
194
330
1F
100
AcDbEntity
  8
0
  6
CONTINUOUS
 62
     7
100
AcDbLeader
  3
SLDDIMSTYLE3
 73
     2
 76
     3
 10
209.1433394023
 20
113.8270993249
 30
0.0
 10
215.025
 20
122.0060652355
 30
0.0
 10
221.375
 20
122.0060652355
 30
0.0
340
193
1001
ACAD
1000
DSTYLE
1002
{
1070
     6
1000

1002
}
  0
LINE
  5
195
330
1F
100
AcDbEntity
  8
0
  6
SLD-SOLID
 62
     7
100
AcDbLine
 10
230.8171047836
 20
193.4715617278
 30
0.0
 11
230.8171047836
 21
193.2674596999
 31
0.0
  0
LINE
  5
196
330
1F
100
AcDbEntity
  8
0
  6
SLD-SOLID
 62
     7
100
AcDbLine
 10
248.5979499733
 20
162.4667951137
 30
0.0
 11
248.7746979374
 21
162.3647275136
 31
0.0
  0
LINE
  5
197
330
1F
100
AcDbEntity
  8
0
  6
SLD-SOLID
 62
     7
100
AcDbLine
 10
241.1230019955
 20
208.0128627419
 30
0.0
 11
236.0786491212
 21
205.1008198122
 31
0.0
  0
LINE
  5
198
330
1F
100
AcDbEntity
  8
0
  6
SLD-SOLID
 62
     7
100
AcDbLine
 10
261.4765849302
 20
161.1055376032
 30
0.0
 11
266.7314594316
 21
164.1391120814
 31
0.0
  0
POLYLINE
  5
199
330
1F
100
AcDbEntity
  8
0
  6
SLD-SOLID
 62
     7
100
AcDb2dPolyline
 66
     1
 10
0.0
 20
0.0
 30
0.0
 70
   128
  0
VERTEX
  5
22B
330
199
100
AcDbEntity
  8
0
  6
SLD-SOLID
 62
     7
100
AcDbVertex
100
AcDb2dVertex
 10
271.887729618
 20
175.7094046863
 30
0.0
  0
VERTEX
  5
22C
330
199
100
AcDbEntity
  8
0
  6
SLD-SOLID
 62
     7
100
AcDbVertex
100
AcDb2dVertex
 10
271.8869650002
 20
175.81011674
 30
0.0
  0
VERTEX
  5
22D
330
199
100
AcDbEntity
  8
0
  6
SLD-SOLID
 62
     7
100
AcDbVertex
100
AcDb2dVertex
 10
271.8862003488
 20
175.9108374903
 30
0.0
  0
SEQEND
  5
359
330
199
100
AcDbEntity
  8
0
  6
SLD-SOLID
 62
     7
  0
LINE
  5
19A
330
1F
100
AcDbEntity
  8
0
  6
SLD-SOLID
 62
     7
100
AcDbLine
 10
253.9513482197
 20
206.6229359585
 30
0.0
 11
253.7776917069
 21
206.7232491421
 31
0.0
  0
POLYLINE
  5
19B
330
1F
100
AcDbEntity
  8
0
  6
SLD-SOLID
 62
     7
100
AcDb2dPolyline
 66
     1
 10
0.0
 20
0.0
 30
0.0
 70
   128
  0
VERTEX
  5
22E
330
19B
100
AcDbEntity
  8
0
  6
SLD-SOLID
 62
     7
100
AcDbVertex
100
AcDb2dVertex
 10
266.3845758773
 20
172.7347956875
 30
0.0
  0
VERTEX
  5
22F
330
19B
100
AcDbEntity
  8
0
  6
SLD-SOLID
 62
     7
100
AcDbVertex
100
AcDb2dVertex
 10
266.3719904328
 20
173.5145225631
 30
0.0
  0
VERTEX
  5
230
330
19B
100
AcDbEntity
  8
0
  6
SLD-SOLID
 62
     7
100
AcDbVertex
100
AcDb2dVertex
 10
266.3342519125
 20
174.3076766674
 30
0.0
  0
VERTEX
  5
231
330
19B
100
AcDbEntity
  8
0
  6
SLD-SOLID
 62
     7
100
AcDbVertex
100
AcDb2dVertex
 10
266.2714137312
 20
175.1131353795
 30
0.0
  0
VERTEX
  5
232
330
19B
100
AcDbEntity
  8
0
  6
SLD-SOLID
 62
     7
100
AcDbVertex
100
AcDb2dVertex
 10
266.1835648293
 20
175.9297586627
 30
0.0
  0
VERTEX
  5
233
330
19B
100
AcDbEntity
  8
0
  6
SLD-SOLID
 62
     7
100
AcDbVertex
100
AcDb2dVertex
 10
266.070829547
 20
176.756390678
 30
0.0
  0
VERTEX
  5
234
330
19B
100
AcDbEntity
  8
0
  6
SLD-SOLID
 62
     7
100
AcDbVertex
100
AcDb2dVertex
 10
265.9333674485
 20
177.5918614201
 30
0.0
  0
VERTEX
  5
235
330
19B
100
AcDbEntity
  8
0
  6
SLD-SOLID
 62
     7
100
AcDbVertex
100
AcDb2dVertex
 10
265.7713730961
 20
178.4349883739
 30
0.0
  0
VERTEX
  5
236
330
19B
100
AcDbEntity
  8
0
  6
SLD-SOLID
 62
     7
100
AcDbVertex
100
AcDb2dVertex
 10
265.5850757746
 20
179.2845781872
 30
0.0
  0
VERTEX
  5
237
330
19B
100
AcDbEntity
  8
0
  6
SLD-SOLID
 62
     7
100
AcDbVertex
100
AcDb2dVertex
 10
265.3747391671
 20
180.1394283607
 30
0.0
  0
VERTEX
  5
238
330
19B
100
AcDbEntity
  8
0
  6
SLD-SOLID
 62
     7
100
AcDbVertex
100
AcDb2dVertex
 10
265.1406609816
 20
180.9983289497
 30
0.0
  0
VERTEX
  5
239
330
19B
100
AcDbEntity
  8
0
  6
SLD-SOLID
 62
     7
100
AcDbVertex
100
AcDb2dVertex
 10
264.8831725294
 20
181.8600642763
 30
0.0
  0
VERTEX
  5
23A
330
19B
100
AcDbEntity
  8
0
  6
SLD-SOLID
 62
     7
100
AcDbVertex
100
AcDb2dVertex
 10
264.6026382568
 20
182.7234146506
 30
0.0
  0
VERTEX
  5
23B
330
19B
100
AcDbEntity
  8
0
  6
SLD-SOLID
 62
     7
100
AcDbVertex
100
AcDb2dVertex
 10
264.2994552286
 20
183.5871580966
 30
0.0
  0
VERTEX
  5
23C
330
19B
100
AcDbEntity
  8
0
  6
SLD-SOLID
 62
     7
100
AcDbVertex
100
AcDb2dVertex
 10
263.9740525666
 20
184.4500720821
 30
0.0
  0
VERTEX
  5
23D
330
19B
100
AcDbEntity
  8
0
  6
SLD-SOLID
 62
     7
100
AcDbVertex
100
AcDb2dVertex
 10
263.6268908416
 20
185.3109352489
 30
0.0
  0
VERTEX
  5
23E
330
19B
100
AcDbEntity
  8
0
  6
SLD-SOLID
 62
     7
100
AcDbVertex
100
AcDb2dVertex
 10
263.2584614225
 20
186.1685291414
 30
0.0
  0
VERTEX
  5
23F
330
19B
100
AcDbEntity
  8
0
  6
SLD-SOLID
 62
     7
100
AcDbVertex
100
AcDb2dVertex
 10
262.8692857798
 20
187.0216399313
 30
0.0
  0
VERTEX
  5
240
330
19B
100
AcDbEntity
  8
0
  6
SLD-SOLID
 62
     7
100
AcDbVertex
100
AcDb2dVertex
 10
262.4599147481
 20
187.8690601358
 30
0.0
  0
VERTEX
  5
241
330
19B
100
AcDbEntity
  8
0
  6
SLD-SOLID
 62
     7
100
AcDbVertex
100
AcDb2dVertex
 10
262.0309277464
 20
188.7095903262
 30
0.0
  0
VERTEX
  5
242
330
19B
100
AcDbEntity
  8
0
  6
SLD-SOLID
 62
     7
100
AcDbVertex
100
AcDb2dVertex
 10
261.5829319577
 20
189.5420408261
 30
0.0
  0
VERTEX
  5
243
330
19B
100
AcDbEntity
  8
0
  6
SLD-SOLID
 62
     7
100
AcDbVertex
100
AcDb2dVertex
 10
261.11656147
 20
190.3652333949
 30
0.0
  0
VERTEX
  5
244
330
19B
100
AcDbEntity
  8
0
  6
SLD-SOLID
 62
     7
100
AcDbVertex
100
AcDb2dVertex
 10
260.6324763787
 20
191.1780028955
 30
0.0
  0
VERTEX
  5
245
330
19B
100
AcDbEntity
  8
0
  6
SLD-SOLID
 62
     7
100
AcDbVertex
100
AcDb2dVertex
 10
260.1313618519
 20
191.9791989437
 30
0.0
  0
VERTEX
  5
246
330
19B
100
AcDbEntity
  8
0
  6
SLD-SOLID
 62
     7
100
AcDbVertex
100
AcDb2dVertex
 10
259.6139271613
 20
192.767687536
 30
0.0
  0
VERTEX
  5
247
330
19B
100
AcDbEntity
  8
0
  6
SLD-SOLID
 62
     7
100
AcDbVertex
100
AcDb2dVertex
 10
259.0809046778
 20
193.542352655
 30
0.0
  0
VERTEX
  5
248
330
19B
100
AcDbEntity
  8
0
  6
SLD-SOLID
 62
     7
100
AcDbVertex
100
AcDb2dVertex
 10
258.5330488352
 20
194.3020978488
 30
0.0
  0
VERTEX
  5
249
330
19B
100
AcDbEntity
  8
0
  6
SLD-SOLID
 62
     7
100
AcDbVertex
100
AcDb2dVertex
 10
257.9711350621
 20
195.0458477831
 30
0.0
  0
VERTEX
  5
24A
330
19B
100
AcDbEntity
  8
0
  6
SLD-SOLID
 62
     7
100
AcDbVertex
100
AcDb2dVertex
 10
257.3959586846
 20
195.772549763
 30
0.0
  0
VERTEX
  5
24B
330
19B
100
AcDbEntity
  8
0
  6
SLD-SOLID
 62
     7
100
AcDbVertex
100
AcDb2dVertex
 10
256.8083338006
 20
196.4811752231
 30
0.0
  0
VERTEX
  5
24C
330
19B
100
AcDbEntity
  8
0
  6
SLD-SOLID
 62
     7
100
AcDbVertex
100
AcDb2dVertex
 10
256.2090921274
 20
197.1707211833
 30
0.0
  0
VERTEX
  5
24D
330
19B
100
AcDbEntity
  8
0
  6
SLD-SOLID
 62
     7
100
AcDbVertex
100
AcDb2dVertex
 10
255.5990818246
 20
197.8402116685
 30
0.0
  0
VERTEX
  5
24E
330
19B
100
AcDbEntity
  8
0
  6
SLD-SOLID
 62
     7
100
AcDbVertex
100
AcDb2dVertex
 10
254.9791662935
 20
198.4886990896
 30
0.0
  0
VERTEX
  5
24F
330
19B
100
AcDbEntity
  8
0
  6
SLD-SOLID
 62
     7
100
AcDbVertex
100
AcDb2dVertex
 10
254.3502229553
 20
199.1152655853
 30
0.0
  0
VERTEX
  5
250
330
19B
100
AcDbEntity
  8
0
  6
SLD-SOLID
 62
     7
100
AcDbVertex
100
AcDb2dVertex
 10
253.7131420088
 20
199.7190243208
 30
0.0
  0
VERTEX
  5
251
330
19B
100
AcDbEntity
  8
0
  6
SLD-SOLID
 62
     7
100
AcDbVertex
100
AcDb2dVertex
 10
253.068825171
 20
200.2991207431
 30
0.0
  0
VERTEX
  5
252
330
19B
100
AcDbEntity
  8
0
  6
SLD-SOLID
 62
     7
100
AcDbVertex
100
AcDb2dVertex
 10
252.4181844003
 20
200.8547337905
 30
0.0
  0
VERTEX
  5
253
330
19B
100
AcDbEntity
  8
0
  6
SLD-SOLID
 62
     7
100
AcDbVertex
100
AcDb2dVertex
 10
251.762140606
 20
201.385077055
 30
0.0
  0
VERTEX
  5
254
330
19B
100
AcDbEntity
  8
0
  6
SLD-SOLID
 62
     7
100
AcDbVertex
100
AcDb2dVertex
 10
251.1016223446
 20
201.8893998949
 30
0.0
  0
VERTEX
  5
255
330
19B
100
AcDbEntity
  8
0
  6
SLD-SOLID
 62
     7
100
AcDbVertex
100
AcDb2dVertex
 10
250.4375645059
 20
202.3669884977
 30
0.0
  0
VERTEX
  5
256
330
19B
100
AcDbEntity
  8
0
  6
SLD-SOLID
 62
     7
100
AcDbVertex
100
AcDb2dVertex
 10
249.7709069896
 20
202.8171668901
 30
0.0
  0
VERTEX
  5
257
330
19B
100
AcDbEntity
  8
0
  6
SLD-SOLID
 62
     7
100
AcDbVertex
100
AcDb2dVertex
 10
249.1025933747
 20
203.2392978949
 30
0.0
  0
VERTEX
  5
258
330
19B
100
AcDbEntity
  8
0
  6
SLD-SOLID
 62
     7
100
AcDbVertex
100
AcDb2dVertex
 10
248.4335695845
 20
203.632784033
 30
0.0
  0
VERTEX
  5
259
330
19B
100
AcDbEntity
  8
0
  6
SLD-SOLID
 62
     7
100
AcDbVertex
100
AcDb2dVertex
 10
247.7647825473
 20
203.9970683686
 30
0.0
  0
VERTEX
  5
25A
330
19B
100
AcDbEntity
  8
0
  6
SLD-SOLID
 62
     7
100
AcDbVertex
100
AcDb2dVertex
 10
247.0971788565
 20
204.331635298
 30
0.0
  0
VERTEX
  5
25B
330
19B
100
AcDbEntity
  8
0
  6
SLD-SOLID
 62
     7
100
AcDbVertex
100
AcDb2dVertex
 10
246.4317034303
 20
204.6360112792
 30
0.0
  0
VERTEX
  5
25C
330
19B
100
AcDbEntity
  8
0
  6
SLD-SOLID
 62
     7
100
AcDbVertex
100
AcDb2dVertex
 10
245.7692981748
 20
204.909765502
 30
0.0
  0
VERTEX
  5
25D
330
19B
100
AcDbEntity
  8
0
  6
SLD-SOLID
 62
     7
100
AcDbVertex
100
AcDb2dVertex
 10
245.1109006506
 20
205.1525104978
 30
0.0
  0
VERTEX
  5
25E
330
19B
100
AcDbEntity
  8
0
  6
SLD-SOLID
 62
     7
100
AcDbVertex
100
AcDb2dVertex
 10
244.4574427458
 20
205.3639026884
 30
0.0
  0
VERTEX
  5
25F
330
19B
100
AcDbEntity
  8
0
  6
SLD-SOLID
 62
     7
100
AcDbVertex
100
AcDb2dVertex
 10
243.8098493569
 20
205.5436428717
 30
0.0
  0
VERTEX
  5
260
330
19B
100
AcDbEntity
  8
0
  6
SLD-SOLID
 62
     7
100
AcDbVertex
100
AcDb2dVertex
 10
243.16903708
 20
205.6914766455
 30
0.0
  0
VERTEX
  5
261
330
19B
100
AcDbEntity
  8
0
  6
SLD-SOLID
 62
     7
100
AcDbVertex
100
AcDb2dVertex
 10
242.5359129132
 20
205.8071947677
 30
0.0
  0
VERTEX
  5
262
330
19B
100
AcDbEntity
  8
0
  6
SLD-SOLID
 62
     7
100
AcDbVertex
100
AcDb2dVertex
 10
241.911372973
 20
205.8906334523
 30
0.0
  0
VERTEX
  5
263
330
19B
100
AcDbEntity
  8
0
  6
SLD-SOLID
 62
     7
100
AcDbVertex
100
AcDb2dVertex
 10
241.2963012257
 20
205.941674601
 30
0.0
  0
VERTEX
  5
264
330
19B
100
AcDbEntity
  8
0
  6
SLD-SOLID
 62
     7
100
AcDbVertex
100
AcDb2dVertex
 10
240.6915682367
 20
205.9602459709
 30
0.0
  0
VERTEX
  5
265
330
19B
100
AcDbEntity
  8
0
  6
SLD-SOLID
 62
     7
100
AcDbVertex
100
AcDb2dVertex
 10
240.0980299379
 20
205.9463212763
 30
0.0
  0
VERTEX
  5
266
330
19B
100
AcDbEntity
  8
0
  6
SLD-SOLID
 62
     7
100
AcDbVertex
100
AcDb2dVertex
 10
239.5165264165
 20
205.899920226
 30
0.0
  0
VERTEX
  5
267
330
19B
100
AcDbEntity
  8
0
  6
SLD-SOLID
 62
     7
100
AcDbVertex
100
AcDb2dVertex
 10
238.9478807255
 20
205.8211084955
 30
0.0
  0
VERTEX
  5
268
330
19B
100
AcDbEntity
  8
0
  6
SLD-SOLID
 62
     7
100
AcDbVertex
100
AcDb2dVertex
 10
238.3928977194
 20
205.709997634
 30
0.0
  0
VERTEX
  5
269
330
19B
100
AcDbEntity
  8
0
  6
SLD-SOLID
 62
     7
100
AcDbVertex
100
AcDb2dVertex
 10
237.8523629145
 20
205.5667449065
 30
0.0
  0
VERTEX
  5
26A
330
19B
100
AcDbEntity
  8
0
  6
SLD-SOLID
 62
     7
100
AcDbVertex
100
AcDb2dVertex
 10
237.3270413775
 20
205.3915530712
 30
0.0
  0
VERTEX
  5
26B
330
19B
100
AcDbEntity
  8
0
  6
SLD-SOLID
 62
     7
100
AcDbVertex
100
AcDb2dVertex
 10
236.8176766423
 20
205.1846700926
 30
0.0
  0
VERTEX
  5
26C
330
19B
100
AcDbEntity
  8
0
  6
SLD-SOLID
 62
     7
100
AcDbVertex
100
AcDb2dVertex
 10
236.3249896576
 20
204.9463887904
 30
0.0
  0
VERTEX
  5
26D
330
19B
100
AcDbEntity
  8
0
  6
SLD-SOLID
 62
     7
100
AcDbVertex
100
AcDb2dVertex
 10
235.8496777668
 20
204.6770464251
 30
0.0
  0
VERTEX
  5
26E
330
19B
100
AcDbEntity
  8
0
  6
SLD-SOLID
 62
     7
100
AcDbVertex
100
AcDb2dVertex
 10
235.3924137207
 20
204.3770242207
 30
0.0
  0
VERTEX
  5
26F
330
19B
100
AcDbEntity
  8
0
  6
SLD-SOLID
 62
     7
100
AcDbVertex
100
AcDb2dVertex
 10
234.9538447254
 20
204.0467468251
 30
0.0
  0
VERTEX
  5
270
330
19B
100
AcDbEntity
  8
0
  6
SLD-SOLID
 62
     7
100
AcDbVertex
100
AcDb2dVertex
 10
234.5345915264
 20
203.6866817091
 30
0.0
  0
VERTEX
  5
271
330
19B
100
AcDbEntity
  8
0
  6
SLD-SOLID
 62
     7
100
AcDbVertex
100
AcDb2dVertex
 10
234.1352475296
 20
203.2973385045
 30
0.0
  0
VERTEX
  5
272
330
19B
100
AcDbEntity
  8
0
  6
SLD-SOLID
 62
     7
100
AcDbVertex
100
AcDb2dVertex
 10
233.7563779618
 20
202.8792682832
 30
0.0
  0
VERTEX
  5
273
330
19B
100
AcDbEntity
  8
0
  6
SLD-SOLID
 62
     7
100
AcDbVertex
100
AcDb2dVertex
 10
233.3985190705
 20
202.4330627766
 30
0.0
  0
VERTEX
  5
274
330
19B
100
AcDbEntity
  8
0
  6
SLD-SOLID
 62
     7
100
AcDbVertex
100
AcDb2dVertex
 10
233.062177365
 20
201.9593535389
 30
0.0
  0
VERTEX
  5
275
330
19B
100
AcDbEntity
  8
0
  6
SLD-SOLID
 62
     7
100
AcDbVertex
100
AcDb2dVertex
 10
232.7478288993
 20
201.4588110526
 30
0.0
  0
VERTEX
  5
276
330
19B
100
AcDbEntity
  8
0
  6
SLD-SOLID
 62
     7
100
AcDbVertex
100
AcDb2dVertex
 10
232.4559185986
 20
200.9321437794
 30
0.0
  0
VERTEX
  5
277
330
19B
100
AcDbEntity
  8
0
  6
SLD-SOLID
 62
     7
100
AcDbVertex
100
AcDb2dVertex
 10
232.1868596291
 20
200.3800971581
 30
0.0
  0
VERTEX
  5
278
330
19B
100
AcDbEntity
  8
0
  6
SLD-SOLID
 62
     7
100
AcDbVertex
100
AcDb2dVertex
 10
231.9410328139
 20
199.8034525489
 30
0.0
  0
VERTEX
  5
279
330
19B
100
AcDbEntity
  8
0
  6
SLD-SOLID
 62
     7
100
AcDbVertex
100
AcDb2dVertex
 10
231.7187860932
 20
199.2030261278
 30
0.0
  0
VERTEX
  5
27A
330
19B
100
AcDbEntity
  8
0
  6
SLD-SOLID
 62
     7
100
AcDbVertex
100
AcDb2dVertex
 10
231.5204340325
 20
198.5796677312
 30
0.0
  0
VERTEX
  5
27B
330
19B
100
AcDbEntity
  8
0
  6
SLD-SOLID
 62
     7
100
AcDbVertex
100
AcDb2dVertex
 10
231.3462573769
 20
197.9342596533
 30
0.0
  0
VERTEX
  5
27C
330
19B
100
AcDbEntity
  8
0
  6
SLD-SOLID
 62
     7
100
AcDbVertex
100
AcDb2dVertex
 10
231.196502654
 20
197.2677153969
 30
0.0
  0
VERTEX
  5
27D
330
19B
100
AcDbEntity
  8
0
  6
SLD-SOLID
 62
     7
100
AcDbVertex
100
AcDb2dVertex
 10
231.0713818248
 20
196.5809783811
 30
0.0
  0
VERTEX
  5
27E
330
19B
100
AcDbEntity
  8
0
  6
SLD-SOLID
 62
     7
100
AcDbVertex
100
AcDb2dVertex
 10
230.9710719839
 20
195.8750206051
 30
0.0
  0
VERTEX
  5
27F
330
19B
100
AcDbEntity
  8
0
  6
SLD-SOLID
 62
     7
100
AcDbVertex
100
AcDb2dVertex
 10
230.8957151087
 20
195.1508412733
 30
0.0
  0
VERTEX
  5
280
330
19B
100
AcDbEntity
  8
0
  6
SLD-SOLID
 62
     7
100
AcDbVertex
100
AcDb2dVertex
 10
230.8454178584
 20
194.4094653806
 30
0.0
  0
VERTEX
  5
281
330
19B
100
AcDbEntity
  8
0
  6
SLD-SOLID
 62
     7
100
AcDbVertex
100
AcDb2dVertex
 10
230.8202514231
 20
193.6519422616
 30
0.0
  0
VERTEX
  5
282
330
19B
100
AcDbEntity
  8
0
  6
SLD-SOLID
 62
     7
100
AcDbVertex
100
AcDb2dVertex
 10
230.8202514231
 20
192.8793441056
 30
0.0
  0
VERTEX
  5
283
330
19B
100
AcDbEntity
  8
0
  6
SLD-SOLID
 62
     7
100
AcDbVertex
100
AcDb2dVertex
 10
230.8454178584
 20
192.0927644389
 30
0.0
  0
VERTEX
  5
284
330
19B
100
AcDbEntity
  8
0
  6
SLD-SOLID
 62
     7
100
AcDbVertex
100
AcDb2dVertex
 10
230.8957151087
 20
191.293316577
 30
0.0
  0
VERTEX
  5
285
330
19B
100
AcDbEntity
  8
0
  6
SLD-SOLID
 62
     7
100
AcDbVertex
100
AcDb2dVertex
 10
230.9710719839
 20
190.4821320491
 30
0.0
  0
VERTEX
  5
286
330
19B
100
AcDbEntity
  8
0
  6
SLD-SOLID
 62
     7
100
AcDbVertex
100
AcDb2dVertex
 10
231.0713818248
 20
189.660358996
 30
0.0
  0
VERTEX
  5
287
330
19B
100
AcDbEntity
  8
0
  6
SLD-SOLID
 62
     7
100
AcDbVertex
100
AcDb2dVertex
 10
231.196502654
 20
188.8291605457
 30
0.0
  0
VERTEX
  5
288
330
19B
100
AcDbEntity
  8
0
  6
SLD-SOLID
 62
     7
100
AcDbVertex
100
AcDb2dVertex
 10
231.3462573769
 20
187.9897131666
 30
0.0
  0
VERTEX
  5
289
330
19B
100
AcDbEntity
  8
0
  6
SLD-SOLID
 62
     7
100
AcDbVertex
100
AcDb2dVertex
 10
231.5204340325
 20
187.1432050026
 30
0.0
  0
VERTEX
  5
28A
330
19B
100
AcDbEntity
  8
0
  6
SLD-SOLID
 62
     7
100
AcDbVertex
100
AcDb2dVertex
 10
231.7187860932
 20
186.2908341914
 30
0.0
  0
VERTEX
  5
28B
330
19B
100
AcDbEntity
  8
0
  6
SLD-SOLID
 62
     7
100
AcDbVertex
100
AcDb2dVertex
 10
231.9410328139
 20
185.4338071685
 30
0.0
  0
VERTEX
  5
28C
330
19B
100
AcDbEntity
  8
0
  6
SLD-SOLID
 62
     7
100
AcDbVertex
100
AcDb2dVertex
 10
232.1868596291
 20
184.5733369599
 30
0.0
  0
VERTEX
  5
28D
330
19B
100
AcDbEntity
  8
0
  6
SLD-SOLID
 62
     7
100
AcDbVertex
100
AcDb2dVertex
 10
232.4559185986
 20
183.7106414648
 30
0.0
  0
VERTEX
  5
28E
330
19B
100
AcDbEntity
  8
0
  6
SLD-SOLID
 62
     7
100
AcDbVertex
100
AcDb2dVertex
 10
232.7478288993
 20
182.8469417323
 30
0.0
  0
VERTEX
  5
28F
330
19B
100
AcDbEntity
  8
0
  6
SLD-SOLID
 62
     7
100
AcDbVertex
100
AcDb2dVertex
 10
233.062177365
 20
181.9834602328
 30
0.0
  0
VERTEX
  5
290
330
19B
100
AcDbEntity
  8
0
  6
SLD-SOLID
 62
     7
100
AcDbVertex
100
AcDb2dVertex
 10
233.3985190705
 20
181.1214191278
 30
0.0
  0
VERTEX
  5
291
330
19B
100
AcDbEntity
  8
0
  6
SLD-SOLID
 62
     7
100
AcDbVertex
100
AcDb2dVertex
 10
233.7563779618
 20
180.2620385401
 30
0.0
  0
VERTEX
  5
292
330
19B
100
AcDbEntity
  8
0
  6
SLD-SOLID
 62
     7
100
AcDbVertex
100
AcDb2dVertex
 10
234.1352475296
 20
179.4065348268
 30
0.0
  0
VERTEX
  5
293
330
19B
100
AcDbEntity
  8
0
  6
SLD-SOLID
 62
     7
100
AcDbVertex
100
AcDb2dVertex
 10
234.5345915264
 20
178.5561188577
 30
0.0
  0
VERTEX
  5
294
330
19B
100
AcDbEntity
  8
0
  6
SLD-SOLID
 62
     7
100
AcDbVertex
100
AcDb2dVertex
 10
234.9538447254
 20
177.7119943016
 30
0.0
  0
VERTEX
  5
295
330
19B
100
AcDbEntity
  8
0
  6
SLD-SOLID
 62
     7
100
AcDbVertex
100
AcDb2dVertex
 10
235.3924137207
 20
176.8753559223
 30
0.0
  0
VERTEX
  5
296
330
19B
100
AcDbEntity
  8
0
  6
SLD-SOLID
 62
     7
100
AcDbVertex
100
AcDb2dVertex
 10
235.8496777668
 20
176.047387888
 30
0.0
  0
VERTEX
  5
297
330
19B
100
AcDbEntity
  8
0
  6
SLD-SOLID
 62
     7
100
AcDbVertex
100
AcDb2dVertex
 10
236.3249896576
 20
175.2292620947
 30
0.0
  0
VERTEX
  5
298
330
19B
100
AcDbEntity
  8
0
  6
SLD-SOLID
 62
     7
100
AcDbVertex
100
AcDb2dVertex
 10
236.8176766423
 20
174.4221365082
 30
0.0
  0
VERTEX
  5
299
330
19B
100
AcDbEntity
  8
0
  6
SLD-SOLID
 62
     7
100
AcDbVertex
100
AcDb2dVertex
 10
237.3270413775
 20
173.6271535243
 30
0.0
  0
VERTEX
  5
29A
330
19B
100
AcDbEntity
  8
0
  6
SLD-SOLID
 62
     7
100
AcDbVertex
100
AcDb2dVertex
 10
237.8523629145
 20
172.8454383526
 30
0.0
  0
VERTEX
  5
29B
330
19B
100
AcDbEntity
  8
0
  6
SLD-SOLID
 62
     7
100
AcDbVertex
100
AcDb2dVertex
 10
238.3928977194
 20
172.0780974235
 30
0.0
  0
VERTEX
  5
29C
330
19B
100
AcDbEntity
  8
0
  6
SLD-SOLID
 62
     7
100
AcDbVertex
100
AcDb2dVertex
 10
238.9478807255
 20
171.3262168224
 30
0.0
  0
VERTEX
  5
29D
330
19B
100
AcDbEntity
  8
0
  6
SLD-SOLID
 62
     7
100
AcDbVertex
100
AcDb2dVertex
 10
239.5165264165
 20
170.590860752
 30
0.0
  0
VERTEX
  5
29E
330
19B
100
AcDbEntity
  8
0
  6
SLD-SOLID
 62
     7
100
AcDbVertex
100
AcDb2dVertex
 10
240.0980299379
 20
169.8730700267
 30
0.0
  0
VERTEX
  5
29F
330
19B
100
AcDbEntity
  8
0
  6
SLD-SOLID
 62
     7
100
AcDbVertex
100
AcDb2dVertex
 10
240.6915682367
 20
169.173860599
 30
0.0
  0
VERTEX
  5
2A0
330
19B
100
AcDbEntity
  8
0
  6
SLD-SOLID
 62
     7
100
AcDbVertex
100
AcDb2dVertex
 10
241.2963012257
 20
168.4942221216
 30
0.0
  0
VERTEX
  5
2A1
330
19B
100
AcDbEntity
  8
0
  6
SLD-SOLID
 62
     7
100
AcDbVertex
100
AcDb2dVertex
 10
241.911372973
 20
167.8351165469
 30
0.0
  0
VERTEX
  5
2A2
330
19B
100
AcDbEntity
  8
0
  6
SLD-SOLID
 62
     7
100
AcDbVertex
100
AcDb2dVertex
 10
242.5359129132
 20
167.197476765
 30
0.0
  0
VERTEX
  5
2A3
330
19B
100
AcDbEntity
  8
0
  6
SLD-SOLID
 62
     7
100
AcDbVertex
100
AcDb2dVertex
 10
243.16903708
 20
166.5822052838
 30
0.0
  0
VERTEX
  5
2A4
330
19B
100
AcDbEntity
  8
0
  6
SLD-SOLID
 62
     7
100
AcDbVertex
100
AcDb2dVertex
 10
243.8098493569
 20
165.9901729512
 30
0.0
  0
VERTEX
  5
2A5
330
19B
100
AcDbEntity
  8
0
  6
SLD-SOLID
 62
     7
100
AcDbVertex
100
AcDb2dVertex
 10
244.4574427458
 20
165.4222177228
 30
0.0
  0
VERTEX
  5
2A6
330
19B
100
AcDbEntity
  8
0
  6
SLD-SOLID
 62
     7
100
AcDbVertex
100
AcDb2dVertex
 10
245.1109006506
 20
164.8791434757
 30
0.0
  0
VERTEX
  5
2A7
330
19B
100
AcDbEntity
  8
0
  6
SLD-SOLID
 62
     7
100
AcDbVertex
100
AcDb2dVertex
 10
245.7692981748
 20
164.3617188708
 30
0.0
  0
VERTEX
  5
2A8
330
19B
100
AcDbEntity
  8
0
  6
SLD-SOLID
 62
     7
100
AcDbVertex
100
AcDb2dVertex
 10
246.4317034303
 20
163.8706762648
 30
0.0
  0
VERTEX
  5
2A9
330
19B
100
AcDbEntity
  8
0
  6
SLD-SOLID
 62
     7
100
AcDbVertex
100
AcDb2dVertex
 10
247.0971788565
 20
163.4067106735
 30
0.0
  0
VERTEX
  5
2AA
330
19B
100
AcDbEntity
  8
0
  6
SLD-SOLID
 62
     7
100
AcDbVertex
100
AcDb2dVertex
 10
247.7647825473
 20
162.9704787884
 30
0.0
  0
VERTEX
  5
2AB
330
19B
100
AcDbEntity
  8
0
  6
SLD-SOLID
 62
     7
100
AcDbVertex
100
AcDb2dVertex
 10
248.4335695845
 20
162.5625980469
 30
0.0
  0
VERTEX
  5
2AC
330
19B
100
AcDbEntity
  8
0
  6
SLD-SOLID
 62
     7
100
AcDbVertex
100
AcDb2dVertex
 10
249.1025933747
 20
162.1836457586
 30
0.0
  0
VERTEX
  5
2AD
330
19B
100
AcDbEntity
  8
0
  6
SLD-SOLID
 62
     7
100
AcDbVertex
100
AcDb2dVertex
 10
249.7709069896
 20
161.834158288
 30
0.0
  0
VERTEX
  5
2AE
330
19B
100
AcDbEntity
  8
0
  6
SLD-SOLID
 62
     7
100
AcDbVertex
100
AcDb2dVertex
 10
250.4375645059
 20
161.5146302957
 30
0.0
  0
VERTEX
  5
2AF
330
19B
100
AcDbEntity
  8
0
  6
SLD-SOLID
 62
     7
100
AcDbVertex
100
AcDb2dVertex
 10
251.1016223446
 20
161.2255140377
 30
0.0
  0
VERTEX
  5
2B0
330
19B
100
AcDbEntity
  8
0
  6
SLD-SOLID
 62
     7
100
AcDbVertex
100
AcDb2dVertex
 10
251.762140606
 20
160.9672187259
 30
0.0
  0
VERTEX
  5
2B1
330
19B
100
AcDbEntity
  8
0
  6
SLD-SOLID
 62
     7
100
AcDbVertex
100
AcDb2dVertex
 10
252.4181844003
 20
160.7401099482
 30
0.0
  0
VERTEX
  5
2B2
330
19B
100
AcDbEntity
  8
0
  6
SLD-SOLID
 62
     7
100
AcDbVertex
100
AcDb2dVertex
 10
253.068825171
 20
160.5445091518
 30
0.0
  0
VERTEX
  5
2B3
330
19B
100
AcDbEntity
  8
0
  6
SLD-SOLID
 62
     7
100
AcDbVertex
100
AcDb2dVertex
 10
253.7131420088
 20
160.3806931878
 30
0.0
  0
VERTEX
  5
2B4
330
19B
100
AcDbEntity
  8
0
  6
SLD-SOLID
 62
     7
100
AcDbVertex
100
AcDb2dVertex
 10
254.3502229553
 20
160.2488939193
 30
0.0
  0
VERTEX
  5
2B5
330
19B
100
AcDbEntity
  8
0
  6
SLD-SOLID
 62
     7
100
AcDbVertex
100
AcDb2dVertex
 10
254.9791662935
 20
160.1492978935
 30
0.0
  0
VERTEX
  5
2B6
330
19B
100
AcDbEntity
  8
0
  6
SLD-SOLID
 62
     7
100
AcDbVertex
100
AcDb2dVertex
 10
255.5990818246
 20
160.0820460774
 30
0.0
  0
VERTEX
  5
2B7
330
19B
100
AcDbEntity
  8
0
  6
SLD-SOLID
 62
     7
100
AcDbVertex
100
AcDb2dVertex
 10
256.2090921274
 20
160.0472336584
 30
0.0
  0
VERTEX
  5
2B8
330
19B
100
AcDbEntity
  8
0
  6
SLD-SOLID
 62
     7
100
AcDbVertex
100
AcDb2dVertex
 10
256.8083338006
 20
160.0449099096
 30
0.0
  0
VERTEX
  5
2B9
330
19B
100
AcDbEntity
  8
0
  6
SLD-SOLID
 62
     7
100
AcDbVertex
100
AcDb2dVertex
 10
257.3959586846
 20
160.07507812
 30
0.0
  0
VERTEX
  5
2BA
330
19B
100
AcDbEntity
  8
0
  6
SLD-SOLID
 62
     7
100
AcDbVertex
100
AcDb2dVertex
 10
257.9711350621
 20
160.1376955899
 30
0.0
  0
VERTEX
  5
2BB
330
19B
100
AcDbEntity
  8
0
  6
SLD-SOLID
 62
     7
100
AcDbVertex
100
AcDb2dVertex
 10
258.5330488352
 20
160.2326736912
 30
0.0
  0
VERTEX
  5
2BC
330
19B
100
AcDbEntity
  8
0
  6
SLD-SOLID
 62
     7
100
AcDbVertex
100
AcDb2dVertex
 10
259.0809046778
 20
160.3598779932
 30
0.0
  0
VERTEX
  5
2BD
330
19B
100
AcDbEntity
  8
0
  6
SLD-SOLID
 62
     7
100
AcDbVertex
100
AcDb2dVertex
 10
259.6139271613
 20
160.5191284522
 30
0.0
  0
VERTEX
  5
2BE
330
19B
100
AcDbEntity
  8
0
  6
SLD-SOLID
 62
     7
100
AcDbVertex
100
AcDb2dVertex
 10
260.1313618519
 20
160.7101996671
 30
0.0
  0
VERTEX
  5
2BF
330
19B
100
AcDbEntity
  8
0
  6
SLD-SOLID
 62
     7
100
AcDbVertex
100
AcDb2dVertex
 10
260.6324763787
 20
160.932821198
 30
0.0
  0
VERTEX
  5
2C0
330
19B
100
AcDbEntity
  8
0
  6
SLD-SOLID
 62
     7
100
AcDbVertex
100
AcDb2dVertex
 10
261.11656147
 20
161.186677949
 30
0.0
  0
VERTEX
  5
2C1
330
19B
100
AcDbEntity
  8
0
  6
SLD-SOLID
 62
     7
100
AcDbVertex
100
AcDb2dVertex
 10
261.5829319577
 20
161.4714106142
 30
0.0
  0
VERTEX
  5
2C2
330
19B
100
AcDbEntity
  8
0
  6
SLD-SOLID
 62
     7
100
AcDbVertex
100
AcDb2dVertex
 10
262.0309277464
 20
161.7866161863
 30
0.0
  0
VERTEX
  5
2C3
330
19B
100
AcDbEntity
  8
0
  6
SLD-SOLID
 62
     7
100
AcDbVertex
100
AcDb2dVertex
 10
262.4599147481
 20
162.1318485272
 30
0.0
  0
VERTEX
  5
2C4
330
19B
100
AcDbEntity
  8
0
  6
SLD-SOLID
 62
     7
100
AcDbVertex
100
AcDb2dVertex
 10
262.8692857798
 20
162.5066189991
 30
0.0
  0
VERTEX
  5
2C5
330
19B
100
AcDbEntity
  8
0
  6
SLD-SOLID
 62
     7
100
AcDbVertex
100
AcDb2dVertex
 10
263.2584614225
 20
162.9103971563
 30
0.0
  0
VERTEX
  5
2C6
330
19B
100
AcDbEntity
  8
0
  6
SLD-SOLID
 62
     7
100
AcDbVertex
100
AcDb2dVertex
 10
263.6268908416
 20
163.3426114959
 30
0.0
  0
VERTEX
  5
2C7
330
19B
100
AcDbEntity
  8
0
  6
SLD-SOLID
 62
     7
100
AcDbVertex
100
AcDb2dVertex
 10
263.9740525666
 20
163.8026502669
 30
0.0
  0
VERTEX
  5
2C8
330
19B
100
AcDbEntity
  8
0
  6
SLD-SOLID
 62
     7
100
AcDbVertex
100
AcDb2dVertex
 10
264.2994552286
 20
164.2898623358
 30
0.0
  0
VERTEX
  5
2C9
330
19B
100
AcDbEntity
  8
0
  6
SLD-SOLID
 62
     7
100
AcDbVertex
100
AcDb2dVertex
 10
264.6026382568
 20
164.8035581085
 30
0.0
  0
VERTEX
  5
2CA
330
19B
100
AcDbEntity
  8
0
  6
SLD-SOLID
 62
     7
100
AcDbVertex
100
AcDb2dVertex
 10
264.8831725294
 20
165.343010506
 30
0.0
  0
VERTEX
  5
2CB
330
19B
100
AcDbEntity
  8
0
  6
SLD-SOLID
 62
     7
100
AcDbVertex
100
AcDb2dVertex
 10
265.1406609816
 20
165.9074559937
 30
0.0
  0
VERTEX
  5
2CC
330
19B
100
AcDbEntity
  8
0
  6
SLD-SOLID
 62
     7
100
AcDbVertex
100
AcDb2dVertex
 10
265.3747391671
 20
166.4960956623
 30
0.0
  0
VERTEX
  5
2CD
330
19B
100
AcDbEntity
  8
0
  6
SLD-SOLID
 62
     7
100
AcDbVertex
100
AcDb2dVertex
 10
265.5850757746
 20
167.108096358
 30
0.0
  0
VERTEX
  5
2CE
330
19B
100
AcDbEntity
  8
0
  6
SLD-SOLID
 62
     7
100
AcDbVertex
100
AcDb2dVertex
 10
265.7713730961
 20
167.7425918624
 30
0.0
  0
VERTEX
  5
2CF
330
19B
100
AcDbEntity
  8
0
  6
SLD-SOLID
 62
     7
100
AcDbVertex
100
AcDb2dVertex
 10
265.9333674485
 20
168.398684118
 30
0.0
  0
VERTEX
  5
2D0
330
19B
100
AcDbEntity
  8
0
  6
SLD-SOLID
 62
     7
100
AcDbVertex
100
AcDb2dVertex
 10
266.070829547
 20
169.0754444995
 30
0.0
  0
VERTEX
  5
2D1
330
19B
100
AcDbEntity
  8
0
  6
SLD-SOLID
 62
     7
100
AcDbVertex
100
AcDb2dVertex
 10
266.1835648293
 20
169.7719151284
 30
0.0
  0
VERTEX
  5
2D2
330
19B
100
AcDbEntity
  8
0
  6
SLD-SOLID
 62
     7
100
AcDbVertex
100
AcDb2dVertex
 10
266.2714137312
 20
170.4871102283
 30
0.0
  0
VERTEX
  5
2D3
330
19B
100
AcDbEntity
  8
0
  6
SLD-SOLID
 62
     7
100
AcDbVertex
100
AcDb2dVertex
 10
266.3342519125
 20
171.2200175206
 30
0.0
  0
VERTEX
  5
2D4
330
19B
100
AcDbEntity
  8
0
  6
SLD-SOLID
 62
     7
100
AcDbVertex
100
AcDb2dVertex
 10
266.3719904328
 20
171.9695996569
 30
0.0
  0
VERTEX
  5
2D5
330
19B
100
AcDbEntity
  8
0
  6
SLD-SOLID
 62
     7
100
AcDbVertex
100
AcDb2dVertex
 10
266.3845758773
 20
172.7347956875
 30
0.0
  0
SEQEND
  5
35A
330
19B
100
AcDbEntity
  8
0
  6
SLD-SOLID
 62
     7
  0
POLYLINE
  5
19C
330
1F
100
AcDbEntity
  8
0
  6
SLD-SOLID
 62
     7
100
AcDb2dPolyline
 66
     1
 10
0.0
 20
0.0
 30
0.0
 70
   128
  0
VERTEX
  5
2D6
330
19C
100
AcDbEntity
  8
0
  6
SLD-SOLID
 62
     7
100
AcDbVertex
100
AcDb2dVertex
 10
266.7381292679
 20
172.7347956875
 30
0.0
  0
VERTEX
  5
2D7
330
19C
100
AcDbEntity
  8
0
  6
SLD-SOLID
 62
     7
100
AcDbVertex
100
AcDb2dVertex
 10
266.7255695676
 20
171.9665477704
 30
0.0
  0
VERTEX
  5
2D8
330
19C
100
AcDbEntity
  8
0
  6
SLD-SOLID
 62
     7
100
AcDbVertex
100
AcDb2dVertex
 10
266.6879080329
 20
171.2138754386
 30
0.0
  0
VERTEX
  5
2D9
330
19C
100
AcDbEntity
  8
0
  6
SLD-SOLID
 62
     7
100
AcDbVertex
100
AcDb2dVertex
 10
266.6251973367
 20
170.4778313725
 30
0.0
  0
VERTEX
  5
2DA
330
19C
100
AcDbEntity
  8
0
  6
SLD-SOLID
 62
     7
100
AcDbVertex
100
AcDb2dVertex
 10
266.5375251855
 20
169.7594449963
 30
0.0
  0
VERTEX
  5
2DB
330
19C
100
AcDbEntity
  8
0
  6
SLD-SOLID
 62
     7
100
AcDbVertex
100
AcDb2dVertex
 10
266.4250141969
 20
169.0597210383
 30
0.0
  0
VERTEX
  5
2DC
330
19C
100
AcDbEntity
  8
0
  6
SLD-SOLID
 62
     7
100
AcDbVertex
100
AcDb2dVertex
 10
266.2878217277
 20
168.3796381257
 30
0.0
  0
VERTEX
  5
2DD
330
19C
100
AcDbEntity
  8
0
  6
SLD-SOLID
 62
     7
100
AcDbVertex
100
AcDb2dVertex
 10
266.1261396538
 20
167.7201474159
 30
0.0
  0
VERTEX
  5
2DE
330
19C
100
AcDbEntity
  8
0
  6
SLD-SOLID
 62
     7
100
AcDbVertex
100
AcDb2dVertex
 10
265.9401941023
 20
167.0821712664
 30
0.0
  0
VERTEX
  5
2DF
330
19C
100
AcDbEntity
  8
0
  6
SLD-SOLID
 62
     7
100
AcDbVertex
100
AcDb2dVertex
 10
265.7302451349
 20
166.4666019444
 30
0.0
  0
VERTEX
  5
2E0
330
19C
100
AcDbEntity
  8
0
  6
SLD-SOLID
 62
     7
100
AcDbVertex
100
AcDb2dVertex
 10
265.4965863841
 20
165.8743003794
 30
0.0
  0
VERTEX
  5
2E1
330
19C
100
AcDbEntity
  8
0
  6
SLD-SOLID
 62
     7
100
AcDbVertex
100
AcDb2dVertex
 10
265.239544643
 20
165.3060949586
 30
0.0
  0
VERTEX
  5
2E2
330
19C
100
AcDbEntity
  8
0
  6
SLD-SOLID
 62
     7
100
AcDbVertex
100
AcDb2dVertex
 10
264.9594794075
 20
164.7627803687
 30
0.0
  0
VERTEX
  5
2E3
330
19C
100
AcDbEntity
  8
0
  6
SLD-SOLID
 62
     7
100
AcDbVertex
100
AcDb2dVertex
 10
264.6567823742
 20
164.2451164843
 30
0.0
  0
VERTEX
  5
2E4
330
19C
100
AcDbEntity
  8
0
  6
SLD-SOLID
 62
     7
100
AcDbVertex
100
AcDb2dVertex
 10
264.3318768924
 20
163.7538273051
 30
0.0
  0
VERTEX
  5
2E5
330
19C
100
AcDbEntity
  8
0
  6
SLD-SOLID
 62
     7
100
AcDbVertex
100
AcDb2dVertex
 10
263.9852173717
 20
163.2895999435
 30
0.0
  0
VERTEX
  5
2E6
330
19C
100
AcDbEntity
  8
0
  6
SLD-SOLID
 62
     7
100
AcDbVertex
100
AcDb2dVertex
 10
263.6172886467
 20
162.8530836634
 30
0.0
  0
VERTEX
  5
2E7
330
19C
100
AcDbEntity
  8
0
  6
SLD-SOLID
 62
     7
100
AcDbVertex
100
AcDb2dVertex
 10
263.2286052992
 20
162.4448889723
 30
0.0
  0
VERTEX
  5
2E8
330
19C
100
AcDbEntity
  8
0
  6
SLD-SOLID
 62
     7
100
AcDbVertex
100
AcDb2dVertex
 10
262.8197109379
 20
162.0655867673
 30
0.0
  0
VERTEX
  5
2E9
330
19C
100
AcDbEntity
  8
0
  6
SLD-SOLID
 62
     7
100
AcDbVertex
100
AcDb2dVertex
 10
262.3911774385
 20
161.715707537
 30
0.0
  0
VERTEX
  5
2EA
330
19C
100
AcDbEntity
  8
0
  6
SLD-SOLID
 62
     7
100
AcDbVertex
100
AcDb2dVertex
 10
261.9436041438
 20
161.3957406191
 30
0.0
  0
VERTEX
  5
2EB
330
19C
100
AcDbEntity
  8
0
  6
SLD-SOLID
 62
     7
100
AcDbVertex
100
AcDb2dVertex
 10
261.4776170257
 20
161.1061335161
 30
0.0
  0
VERTEX
  5
2EC
330
19C
100
AcDbEntity
  8
0
  6
SLD-SOLID
 62
     7
100
AcDbVertex
100
AcDb2dVertex
 10
260.9938678092
 20
160.8472912699
 30
0.0
  0
VERTEX
  5
2ED
330
19C
100
AcDbEntity
  8
0
  6
SLD-SOLID
 62
     7
100
AcDbVertex
100
AcDb2dVertex
 10
260.4930330614
 20
160.6195758948
 30
0.0
  0
VERTEX
  5
2EE
330
19C
100
AcDbEntity
  8
0
  6
SLD-SOLID
 62
     7
100
AcDbVertex
100
AcDb2dVertex
 10
259.9758132448
 20
160.4233058712
 30
0.0
  0
VERTEX
  5
2EF
330
19C
100
AcDbEntity
  8
0
  6
SLD-SOLID
 62
     7
100
AcDbVertex
100
AcDb2dVertex
 10
259.4429317383
 20
160.2587557005
 30
0.0
  0
VERTEX
  5
2F0
330
19C
100
AcDbEntity
  8
0
  6
SLD-SOLID
 62
     7
100
AcDbVertex
100
AcDb2dVertex
 10
258.8951338248
 20
160.1261555211
 30
0.0
  0
VERTEX
  5
2F1
330
19C
100
AcDbEntity
  8
0
  6
SLD-SOLID
 62
     7
100
AcDbVertex
100
AcDb2dVertex
 10
258.3331856492
 20
160.0256907863
 30
0.0
  0
VERTEX
  5
2F2
330
19C
100
AcDbEntity
  8
0
  6
SLD-SOLID
 62
     7
100
AcDbVertex
100
AcDb2dVertex
 10
257.7578731468
 20
159.9575020051
 30
0.0
  0
VERTEX
  5
2F3
330
19C
100
AcDbEntity
  8
0
  6
SLD-SOLID
 62
     7
100
AcDbVertex
100
AcDb2dVertex
 10
257.1700009442
 20
159.9216845457
 30
0.0
  0
VERTEX
  5
2F4
330
19C
100
AcDbEntity
  8
0
  6
SLD-SOLID
 62
     7
100
AcDbVertex
100
AcDb2dVertex
 10
256.5703912338
 20
159.9182885019
 30
0.0
  0
VERTEX
  5
2F5
330
19C
100
AcDbEntity
  8
0
  6
SLD-SOLID
 62
     7
100
AcDbVertex
100
AcDb2dVertex
 10
255.959882624
 20
159.9473186236
 30
0.0
  0
VERTEX
  5
2F6
330
19C
100
AcDbEntity
  8
0
  6
SLD-SOLID
 62
     7
100
AcDbVertex
100
AcDb2dVertex
 10
255.3393289664
 20
160.0087343095
 30
0.0
  0
VERTEX
  5
2F7
330
19C
100
AcDbEntity
  8
0
  6
SLD-SOLID
 62
     7
100
AcDbVertex
100
AcDb2dVertex
 10
254.7095981613
 20
160.1024496641
 30
0.0
  0
VERTEX
  5
2F8
330
19C
100
AcDbEntity
  8
0
  6
SLD-SOLID
 62
     7
100
AcDbVertex
100
AcDb2dVertex
 10
254.0715709442
 20
160.2283336181
 30
0.0
  0
VERTEX
  5
2F9
330
19C
100
AcDbEntity
  8
0
  6
SLD-SOLID
 62
     7
100
AcDbVertex
100
AcDb2dVertex
 10
253.4261396538
 20
160.3862101113
 30
0.0
  0
VERTEX
  5
2FA
330
19C
100
AcDbEntity
  8
0
  6
SLD-SOLID
 62
     7
100
AcDbVertex
100
AcDb2dVertex
 10
252.7742069842
 20
160.5758583393
 30
0.0
  0
VERTEX
  5
2FB
330
19C
100
AcDbEntity
  8
0
  6
SLD-SOLID
 62
     7
100
AcDbVertex
100
AcDb2dVertex
 10
252.1166847221
 20
160.7970130618
 30
0.0
  0
VERTEX
  5
2FC
330
19C
100
AcDbEntity
  8
0
  6
SLD-SOLID
 62
     7
100
AcDbVertex
100
AcDb2dVertex
 10
251.454492472
 20
161.0493649739
 30
0.0
  0
VERTEX
  5
2FD
330
19C
100
AcDbEntity
  8
0
  6
SLD-SOLID
 62
     7
100
AcDbVertex
100
AcDb2dVertex
 10
250.7885563695
 20
161.3325611388
 30
0.0
  0
VERTEX
  5
2FE
330
19C
100
AcDbEntity
  8
0
  6
SLD-SOLID
 62
     7
100
AcDbVertex
100
AcDb2dVertex
 10
250.1198077864
 20
161.6462054808
 30
0.0
  0
VERTEX
  5
2FF
330
19C
100
AcDbEntity
  8
0
  6
SLD-SOLID
 62
     7
100
AcDbVertex
100
AcDb2dVertex
 10
249.4491820283
 20
161.9898593402
 30
0.0
  0
VERTEX
  5
300
330
19C
100
AcDbEntity
  8
0
  6
SLD-SOLID
 62
     7
100
AcDbVertex
100
AcDb2dVertex
 10
248.7776170257
 20
162.3630420858
 30
0.0
  0
VERTEX
  5
301
330
19C
100
AcDbEntity
  8
0
  6
SLD-SOLID
 62
     7
100
AcDbVertex
100
AcDb2dVertex
 10
248.7746979374
 20
162.3647275136
 30
0.0
  0
SEQEND
  5
35B
330
19C
100
AcDbEntity
  8
0
  6
SLD-SOLID
 62
     7
  0
POLYLINE
  5
19D
330
1F
100
AcDbEntity
  8
0
  6
SLD-SOLID
 62
     7
100
AcDb2dPolyline
 66
     1
 10
0.0
 20
0.0
 30
0.0
 70
   128
  0
VERTEX
  5
302
330
19D
100
AcDbEntity
  8
0
  6
SLD-SOLID
 62
     7
100
AcDbVertex
100
AcDb2dVertex
 10
230.8171047836
 20
193.4715617278
 30
0.0
  0
VERTEX
  5
303
330
19D
100
AcDbEntity
  8
0
  6
SLD-SOLID
 62
     7
100
AcDbVertex
100
AcDb2dVertex
 10
230.8296644838
 20
194.239809645
 30
0.0
  0
VERTEX
  5
304
330
19D
100
AcDbEntity
  8
0
  6
SLD-SOLID
 62
     7
100
AcDbVertex
100
AcDb2dVertex
 10
230.8673260185
 20
194.9924819768
 30
0.0
  0
VERTEX
  5
305
330
19D
100
AcDbEntity
  8
0
  6
SLD-SOLID
 62
     7
100
AcDbVertex
100
AcDb2dVertex
 10
230.9300367148
 20
195.7285260428
 30
0.0
  0
VERTEX
  5
306
330
19D
100
AcDbEntity
  8
0
  6
SLD-SOLID
 62
     7
100
AcDbVertex
100
AcDb2dVertex
 10
231.0177088659
 20
196.4469124191
 30
0.0
  0
VERTEX
  5
307
330
19D
100
AcDbEntity
  8
0
  6
SLD-SOLID
 62
     7
100
AcDbVertex
100
AcDb2dVertex
 10
231.1302198545
 20
197.1466363771
 30
0.0
  0
VERTEX
  5
308
330
19D
100
AcDbEntity
  8
0
  6
SLD-SOLID
 62
     7
100
AcDbVertex
100
AcDb2dVertex
 10
231.2674123238
 20
197.8267192897
 30
0.0
  0
VERTEX
  5
309
330
19D
100
AcDbEntity
  8
0
  6
SLD-SOLID
 62
     7
100
AcDbVertex
100
AcDb2dVertex
 10
231.4290943977
 20
198.4862099995
 30
0.0
  0
VERTEX
  5
30A
330
19D
100
AcDbEntity
  8
0
  6
SLD-SOLID
 62
     7
100
AcDbVertex
100
AcDb2dVertex
 10
231.6150399491
 20
199.124186149
 30
0.0
  0
VERTEX
  5
30B
330
19D
100
AcDbEntity
  8
0
  6
SLD-SOLID
 62
     7
100
AcDbVertex
100
AcDb2dVertex
 10
231.8249889166
 20
199.739755471
 30
0.0
  0
VERTEX
  5
30C
330
19D
100
AcDbEntity
  8
0
  6
SLD-SOLID
 62
     7
100
AcDbVertex
100
AcDb2dVertex
 10
232.0586476673
 20
200.332057036
 30
0.0
  0
VERTEX
  5
30D
330
19D
100
AcDbEntity
  8
0
  6
SLD-SOLID
 62
     7
100
AcDbVertex
100
AcDb2dVertex
 10
232.3156894085
 20
200.9002624568
 30
0.0
  0
VERTEX
  5
30E
330
19D
100
AcDbEntity
  8
0
  6
SLD-SOLID
 62
     7
100
AcDbVertex
100
AcDb2dVertex
 10
232.595754644
 20
201.4435770467
 30
0.0
  0
VERTEX
  5
30F
330
19D
100
AcDbEntity
  8
0
  6
SLD-SOLID
 62
     7
100
AcDbVertex
100
AcDb2dVertex
 10
232.8984516772
 20
201.9612409311
 30
0.0
  0
VERTEX
  5
310
330
19D
100
AcDbEntity
  8
0
  6
SLD-SOLID
 62
     7
100
AcDbVertex
100
AcDb2dVertex
 10
233.223357159
 20
202.4525301103
 30
0.0
  0
VERTEX
  5
311
330
19D
100
AcDbEntity
  8
0
  6
SLD-SOLID
 62
     7
100
AcDbVertex
100
AcDb2dVertex
 10
233.5700166798
 20
202.9167574719
 30
0.0
  0
VERTEX
  5
312
330
19D
100
AcDbEntity
  8
0
  6
SLD-SOLID
 62
     7
100
AcDbVertex
100
AcDb2dVertex
 10
233.9379454047
 20
203.353273752
 30
0.0
  0
VERTEX
  5
313
330
19D
100
AcDbEntity
  8
0
  6
SLD-SOLID
 62
     7
100
AcDbVertex
100
AcDb2dVertex
 10
234.3266287522
 20
203.7614684431
 30
0.0
  0
VERTEX
  5
314
330
19D
100
AcDbEntity
  8
0
  6
SLD-SOLID
 62
     7
100
AcDbVertex
100
AcDb2dVertex
 10
234.7355231136
 20
204.140770648
 30
0.0
  0
VERTEX
  5
315
330
19D
100
AcDbEntity
  8
0
  6
SLD-SOLID
 62
     7
100
AcDbVertex
100
AcDb2dVertex
 10
235.164056613
 20
204.4906498784
 30
0.0
  0
VERTEX
  5
316
330
19D
100
AcDbEntity
  8
0
  6
SLD-SOLID
 62
     7
100
AcDbVertex
100
AcDb2dVertex
 10
235.6116299076
 20
204.8106167963
 30
0.0
  0
VERTEX
  5
317
330
19D
100
AcDbEntity
  8
0
  6
SLD-SOLID
 62
     7
100
AcDbVertex
100
AcDb2dVertex
 10
236.0776170257
 20
205.1002238993
 30
0.0
  0
VERTEX
  5
318
330
19D
100
AcDbEntity
  8
0
  6
SLD-SOLID
 62
     7
100
AcDbVertex
100
AcDb2dVertex
 10
236.5613662422
 20
205.3590661455
 30
0.0
  0
VERTEX
  5
319
330
19D
100
AcDbEntity
  8
0
  6
SLD-SOLID
 62
     7
100
AcDbVertex
100
AcDb2dVertex
 10
237.0622009901
 20
205.5867815206
 30
0.0
  0
VERTEX
  5
31A
330
19D
100
AcDbEntity
  8
0
  6
SLD-SOLID
 62
     7
100
AcDbVertex
100
AcDb2dVertex
 10
237.5794208066
 20
205.7830515442
 30
0.0
  0
VERTEX
  5
31B
330
19D
100
AcDbEntity
  8
0
  6
SLD-SOLID
 62
     7
100
AcDbVertex
100
AcDb2dVertex
 10
238.1123023131
 20
205.9476017149
 30
0.0
  0
VERTEX
  5
31C
330
19D
100
AcDbEntity
  8
0
  6
SLD-SOLID
 62
     7
100
AcDbVertex
100
AcDb2dVertex
 10
238.6601002266
 20
206.0802018943
 30
0.0
  0
VERTEX
  5
31D
330
19D
100
AcDbEntity
  8
0
  6
SLD-SOLID
 62
     7
100
AcDbVertex
100
AcDb2dVertex
 10
239.2220484023
 20
206.1806666291
 30
0.0
  0
VERTEX
  5
31E
330
19D
100
AcDbEntity
  8
0
  6
SLD-SOLID
 62
     7
100
AcDbVertex
100
AcDb2dVertex
 10
239.7973609046
 20
206.2488554103
 30
0.0
  0
VERTEX
  5
31F
330
19D
100
AcDbEntity
  8
0
  6
SLD-SOLID
 62
     7
100
AcDbVertex
100
AcDb2dVertex
 10
240.3852331073
 20
206.2846728697
 30
0.0
  0
VERTEX
  5
320
330
19D
100
AcDbEntity
  8
0
  6
SLD-SOLID
 62
     7
100
AcDbVertex
100
AcDb2dVertex
 10
240.9848428176
 20
206.2880689135
 30
0.0
  0
VERTEX
  5
321
330
19D
100
AcDbEntity
  8
0
  6
SLD-SOLID
 62
     7
100
AcDbVertex
100
AcDb2dVertex
 10
241.5953514274
 20
206.2590387918
 30
0.0
  0
VERTEX
  5
322
330
19D
100
AcDbEntity
  8
0
  6
SLD-SOLID
 62
     7
100
AcDbVertex
100
AcDb2dVertex
 10
242.215905085
 20
206.1976231059
 30
0.0
  0
VERTEX
  5
323
330
19D
100
AcDbEntity
  8
0
  6
SLD-SOLID
 62
     7
100
AcDbVertex
100
AcDb2dVertex
 10
242.8456358902
 20
206.1039077513
 30
0.0
  0
VERTEX
  5
324
330
19D
100
AcDbEntity
  8
0
  6
SLD-SOLID
 62
     7
100
AcDbVertex
100
AcDb2dVertex
 10
243.4836631073
 20
205.9780237973
 30
0.0
  0
VERTEX
  5
325
330
19D
100
AcDbEntity
  8
0
  6
SLD-SOLID
 62
     7
100
AcDbVertex
100
AcDb2dVertex
 10
244.1290943977
 20
205.8201473041
 30
0.0
  0
VERTEX
  5
326
330
19D
100
AcDbEntity
  8
0
  6
SLD-SOLID
 62
     7
100
AcDbVertex
100
AcDb2dVertex
 10
244.7810270673
 20
205.6304990761
 30
0.0
  0
VERTEX
  5
327
330
19D
100
AcDbEntity
  8
0
  6
SLD-SOLID
 62
     7
100
AcDbVertex
100
AcDb2dVertex
 10
245.4385493293
 20
205.4093443536
 30
0.0
  0
VERTEX
  5
328
330
19D
100
AcDbEntity
  8
0
  6
SLD-SOLID
 62
     7
100
AcDbVertex
100
AcDb2dVertex
 10
246.1007415795
 20
205.1569924415
 30
0.0
  0
VERTEX
  5
329
330
19D
100
AcDbEntity
  8
0
  6
SLD-SOLID
 62
     7
100
AcDbVertex
100
AcDb2dVertex
 10
246.766677682
 20
204.8737962766
 30
0.0
  0
VERTEX
  5
32A
330
19D
100
AcDbEntity
  8
0
  6
SLD-SOLID
 62
     7
100
AcDbVertex
100
AcDb2dVertex
 10
247.435426265
 20
204.5601519345
 30
0.0
  0
VERTEX
  5
32B
330
19D
100
AcDbEntity
  8
0
  6
SLD-SOLID
 62
     7
100
AcDbVertex
100
AcDb2dVertex
 10
248.1060520232
 20
204.2164980752
 30
0.0
  0
VERTEX
  5
32C
330
19D
100
AcDbEntity
  8
0
  6
SLD-SOLID
 62
     7
100
AcDbVertex
100
AcDb2dVertex
 10
248.7776170257
 20
203.8433153296
 30
0.0
  0
VERTEX
  5
32D
330
19D
100
AcDbEntity
  8
0
  6
SLD-SOLID
 62
     7
100
AcDbVertex
100
AcDb2dVertex
 10
249.4491820283
 20
203.4411256275
 30
0.0
  0
VERTEX
  5
32E
330
19D
100
AcDbEntity
  8
0
  6
SLD-SOLID
 62
     7
100
AcDbVertex
100
AcDb2dVertex
 10
250.1198077864
 20
203.0104914677
 30
0.0
  0
VERTEX
  5
32F
330
19D
100
AcDbEntity
  8
0
  6
SLD-SOLID
 62
     7
100
AcDbVertex
100
AcDb2dVertex
 10
250.7885563695
 20
202.5520151308
 30
0.0
  0
VERTEX
  5
330
330
19D
100
AcDbEntity
  8
0
  6
SLD-SOLID
 62
     7
100
AcDbVertex
100
AcDb2dVertex
 10
251.454492472
 20
202.0663378376
 30
0.0
  0
VERTEX
  5
331
330
19D
100
AcDbEntity
  8
0
  6
SLD-SOLID
 62
     7
100
AcDbVertex
100
AcDb2dVertex
 10
252.1166847221
 20
201.5541388517
 30
0.0
  0
VERTEX
  5
332
330
19D
100
AcDbEntity
  8
0
  6
SLD-SOLID
 62
     7
100
AcDbVertex
100
AcDb2dVertex
 10
252.7742069842
 20
201.0161345296
 30
0.0
  0
VERTEX
  5
333
330
19D
100
AcDbEntity
  8
0
  6
SLD-SOLID
 62
     7
100
AcDbVertex
100
AcDb2dVertex
 10
253.4261396538
 20
200.453077319
 30
0.0
  0
VERTEX
  5
334
330
19D
100
AcDbEntity
  8
0
  6
SLD-SOLID
 62
     7
100
AcDbVertex
100
AcDb2dVertex
 10
254.0715709442
 20
199.8657547064
 30
0.0
  0
VERTEX
  5
335
330
19D
100
AcDbEntity
  8
0
  6
SLD-SOLID
 62
     7
100
AcDbVertex
100
AcDb2dVertex
 10
254.7095981613
 20
199.2549881155
 30
0.0
  0
VERTEX
  5
336
330
19D
100
AcDbEntity
  8
0
  6
SLD-SOLID
 62
     7
100
AcDbVertex
100
AcDb2dVertex
 10
255.3393289664
 20
198.6216317587
 30
0.0
  0
VERTEX
  5
337
330
19D
100
AcDbEntity
  8
0
  6
SLD-SOLID
 62
     7
100
AcDbVertex
100
AcDb2dVertex
 10
255.959882624
 20
197.9665714421
 30
0.0
  0
VERTEX
  5
338
330
19D
100
AcDbEntity
  8
0
  6
SLD-SOLID
 62
     7
100
AcDbVertex
100
AcDb2dVertex
 10
256.5703912338
 20
197.2907233267
 30
0.0
  0
VERTEX
  5
339
330
19D
100
AcDbEntity
  8
0
  6
SLD-SOLID
 62
     7
100
AcDbVertex
100
AcDb2dVertex
 10
257.1700009442
 20
196.5950326473
 30
0.0
  0
VERTEX
  5
33A
330
19D
100
AcDbEntity
  8
0
  6
SLD-SOLID
 62
     7
100
AcDbVertex
100
AcDb2dVertex
 10
257.7578731468
 20
195.8804723901
 30
0.0
  0
VERTEX
  5
33B
330
19D
100
AcDbEntity
  8
0
  6
SLD-SOLID
 62
     7
100
AcDbVertex
100
AcDb2dVertex
 10
258.3331856492
 20
195.1480419324
 30
0.0
  0
VERTEX
  5
33C
330
19D
100
AcDbEntity
  8
0
  6
SLD-SOLID
 62
     7
100
AcDbVertex
100
AcDb2dVertex
 10
258.8951338248
 20
194.3987656444
 30
0.0
  0
VERTEX
  5
33D
330
19D
100
AcDbEntity
  8
0
  6
SLD-SOLID
 62
     7
100
AcDbVertex
100
AcDb2dVertex
 10
259.4429317383
 20
193.6336914566
 30
0.0
  0
VERTEX
  5
33E
330
19D
100
AcDbEntity
  8
0
  6
SLD-SOLID
 62
     7
100
AcDbVertex
100
AcDb2dVertex
 10
259.9758132449
 20
192.8538893946
 30
0.0
  0
VERTEX
  5
33F
330
19D
100
AcDbEntity
  8
0
  6
SLD-SOLID
 62
     7
100
AcDbVertex
100
AcDb2dVertex
 10
260.4930330614
 20
192.0604500819
 30
0.0
  0
VERTEX
  5
340
330
19D
100
AcDbEntity
  8
0
  6
SLD-SOLID
 62
     7
100
AcDbVertex
100
AcDb2dVertex
 10
260.9938678092
 20
191.2544832153
 30
0.0
  0
VERTEX
  5
341
330
19D
100
AcDbEntity
  8
0
  6
SLD-SOLID
 62
     7
100
AcDbVertex
100
AcDb2dVertex
 10
261.4776170257
 20
190.4371160123
 30
0.0
  0
VERTEX
  5
342
330
19D
100
AcDbEntity
  8
0
  6
SLD-SOLID
 62
     7
100
AcDbVertex
100
AcDb2dVertex
 10
261.9436041438
 20
189.6094916348
 30
0.0
  0
VERTEX
  5
343
330
19D
100
AcDbEntity
  8
0
  6
SLD-SOLID
 62
     7
100
AcDbVertex
100
AcDb2dVertex
 10
262.3911774385
 20
188.7727675903
 30
0.0
  0
VERTEX
  5
344
330
19D
100
AcDbEntity
  8
0
  6
SLD-SOLID
 62
     7
100
AcDbVertex
100
AcDb2dVertex
 10
262.8197109379
 20
187.9281141132
 30
0.0
  0
VERTEX
  5
345
330
19D
100
AcDbEntity
  8
0
  6
SLD-SOLID
 62
     7
100
AcDbVertex
100
AcDb2dVertex
 10
263.2286052992
 20
187.0767125275
 30
0.0
  0
VERTEX
  5
346
330
19D
100
AcDbEntity
  8
0
  6
SLD-SOLID
 62
     7
100
AcDbVertex
100
AcDb2dVertex
 10
263.6172886467
 20
186.2197535956
 30
0.0
  0
VERTEX
  5
347
330
19D
100
AcDbEntity
  8
0
  6
SLD-SOLID
 62
     7
100
AcDbVertex
100
AcDb2dVertex
 10
263.9852173717
 20
185.3584358518
 30
0.0
  0
VERTEX
  5
348
330
19D
100
AcDbEntity
  8
0
  6
SLD-SOLID
 62
     7
100
AcDbVertex
100
AcDb2dVertex
 10
264.3318768924
 20
184.493963927
 30
0.0
  0
VERTEX
  5
349
330
19D
100
AcDbEntity
  8
0
  6
SLD-SOLID
 62
     7
100
AcDbVertex
100
AcDb2dVertex
 10
264.6567823742
 20
183.6275468633
 30
0.0
  0
VERTEX
  5
34A
330
19D
100
AcDbEntity
  8
0
  6
SLD-SOLID
 62
     7
100
AcDbVertex
100
AcDb2dVertex
 10
264.9594794075
 20
182.7603964234
 30
0.0
  0
VERTEX
  5
34B
330
19D
100
AcDbEntity
  8
0
  6
SLD-SOLID
 62
     7
100
AcDbVertex
100
AcDb2dVertex
 10
265.239544643
 20
181.8937253954
 30
0.0
  0
VERTEX
  5
34C
330
19D
100
AcDbEntity
  8
0
  6
SLD-SOLID
 62
     7
100
AcDbVertex
100
AcDb2dVertex
 10
265.4965863841
 20
181.0287458973
 30
0.0
  0
VERTEX
  5
34D
330
19D
100
AcDbEntity
  8
0
  6
SLD-SOLID
 62
     7
100
AcDbVertex
100
AcDb2dVertex
 10
265.7302451349
 20
180.166667681
 30
0.0
  0
VERTEX
  5
34E
330
19D
100
AcDbEntity
  8
0
  6
SLD-SOLID
 62
     7
100
AcDbVertex
100
AcDb2dVertex
 10
265.9401941023
 20
179.308696441
 30
0.0
  0
VERTEX
  5
34F
330
19D
100
AcDbEntity
  8
0
  6
SLD-SOLID
 62
     7
100
AcDbVertex
100
AcDb2dVertex
 10
266.1261396538
 20
178.4560321275
 30
0.0
  0
VERTEX
  5
350
330
19D
100
AcDbEntity
  8
0
  6
SLD-SOLID
 62
     7
100
AcDbVertex
100
AcDb2dVertex
 10
266.2878217277
 20
177.6098672686
 30
0.0
  0
VERTEX
  5
351
330
19D
100
AcDbEntity
  8
0
  6
SLD-SOLID
 62
     7
100
AcDbVertex
100
AcDb2dVertex
 10
266.4250141969
 20
176.7713853026
 30
0.0
  0
VERTEX
  5
352
330
19D
100
AcDbEntity
  8
0
  6
SLD-SOLID
 62
     7
100
AcDbVertex
100
AcDb2dVertex
 10
266.5375251855
 20
175.9417589222
 30
0.0
  0
VERTEX
  5
353
330
19D
100
AcDbEntity
  8
0
  6
SLD-SOLID
 62
     7
100
AcDbVertex
100
AcDb2dVertex
 10
266.6251973367
 20
175.1221484349
 30
0.0
  0
VERTEX
  5
354
330
19D
100
AcDbEntity
  8
0
  6
SLD-SOLID
 62
     7
100
AcDbVertex
100
AcDb2dVertex
 10
266.6879080329
 20
174.3137001401
 30
0.0
  0
VERTEX
  5
355
330
19D
100
AcDbEntity
  8
0
  6
SLD-SOLID
 62
     7
100
AcDbVertex
100
AcDb2dVertex
 10
266.7255695676
 20
173.5175447259
 30
0.0
  0
VERTEX
  5
356
330
19D
100
AcDbEntity
  8
0
  6
SLD-SOLID
 62
     7
100
AcDbVertex
100
AcDb2dVertex
 10
266.7381292679
 20
172.7347956875
 30
0.0
  0
SEQEND
  5
35C
330
19D
100
AcDbEntity
  8
0
  6
SLD-SOLID
 62
     7
  0
ARC
  5
19E
330
1F
100
AcDbEntity
  8
0
  6
SLD-SOLID
 62
     7
100
AcDbCircle
 10
253.6318684468
 20
173.3586427069
 30
0.0
 40
15.73737724489731
100
AcDbArc
 50
343.5506886717
 51
347.328183093
  0
LINE
  5
19F
330
1F
100
AcDbEntity
  8
0
  6
SLD-SOLID
 62
     7
100
AcDbLine
 10
269.9921909
 20
170.487297879
 30
0.0
 11
268.9859235576
 21
169.9063921071
 31
0.0
  0
ARC
  5
1A0
330
1F
100
AcDbEntity
  8
0
  6
SLD-SOLID
 62
     7
100
AcDbCircle
 10
253.6234309026
 20
174.176262294
 30
0.0
 40
16.77929564401558
100
AcDbArc
 50
347.2996501233
 51
348.3473502562
  0
LINE
  5
1A1
330
1F
100
AcDbEntity
  8
0
  6
SLD-SOLID
 62
     7
100
AcDbLine
 10
267.9355859812
 20
169.5626019035
 30
0.0
 11
270.0569063248
 21
170.7872140713
 31
0.0
  0
ARC
  5
1A2
330
1F
100
AcDbEntity
  8
0
  6
SLD-SOLID
 62
     7
100
AcDbCircle
 10
251.5021105604
 20
172.9516501259
 30
0.0
 40
16.77929564256759
100
AcDbArc
 50
347.2996501232
 51
348.3473502563
  0
LINE
  5
1A3
330
1F
100
AcDbEntity
  8
0
  6
SLD-SOLID
 62
     7
100
AcDbLine
 10
268.7411558256
 20
169.7650907032
 30
0.0
 11
267.8708705565
 21
169.2626857113
 31
0.0
  0
ARC
  5
1A4
330
1F
100
AcDbEntity
  8
0
  6
SLD-SOLID
 62
     7
100
AcDbCircle
 10
253.3871007149
 20
173.217341303
 30
0.0
 40
15.73737724488265
100
AcDbArc
 50
343.5506886717
 51
347.328183093
  0
LINE
  5
1A5
330
1F
100
AcDbEntity
  8
0
  6
SLD-SOLID
 62
     7
100
AcDbLine
 10
267.6100716524
 20
168.258630708
 30
0.0
 11
268.4803569215
 21
168.7610356999
 31
0.0
  0
ARC
  5
1A6
330
1F
100
AcDbEntity
  8
0
  6
SLD-SOLID
 62
     7
100
AcDbCircle
 10
253.4577384743
 20
172.4448994157
 30
0.0
 40
14.75850195909127
100
AcDbArc
 50
342.3804721977
 51
343.5217510554
  0
LINE
  5
1A7
330
1F
100
AcDbEntity
  8
0
  6
SLD-SOLID
 62
     7
100
AcDbLine
 10
269.6452034007
 20
169.2021906131
 30
0.0
 11
267.5238830571
 21
167.9775784454
 31
0.0
  0
ARC
  5
1A8
330
1F
100
AcDbEntity
  8
0
  6
SLD-SOLID
 62
     7
100
AcDbCircle
 10
255.579058818
 20
173.6695115834
 30
0.0
 40
14.7585019589445
100
AcDbArc
 50
342.3804721977
 51
343.5217510554
  0
LINE
  5
1A9
330
1F
100
AcDbEntity
  8
0
  6
SLD-SOLID
 62
     7
100
AcDbLine
 10
268.7251246535
 20
168.9023371039
 30
0.0
 11
269.7313919959
 21
169.4832428758
 31
0.0
  0
SPLINE
  5
1AA
330
1F
100
AcDbEntity
  8
0
  6
SLD-SOLID
 62
     7
100
AcDbSpline
210
0.0
220
0.0
230
1.0
 70
     8
 71
     3
 72
    14
 73
    10
 74
     0
 42
0.000000001
 43
0.00000001
 40
0.0
 40
0.0
 40
0.0
 40
0.0
 40
0.1430103408857296
 40
0.2502659478422435
 40
0.4997079877824764
 40
0.624782748226462
 40
0.7498435528551527
 40
0.8749208248774357
 40
1.0
 40
1.0
 40
1.0
 40
1.0
 10
269.3348656441229
 20
174.0764545113975
 30
0.0
 10
269.348905554629
 20
174.1177125613126
 30
0.0
 10
269.3734751870674
 20
174.1899135287683
 30
0.0
 10
269.4344335516691
 20
174.3334624587861
 30
0.0
 10
269.5085224595972
 20
174.4696507793178
 30
0.0
 10
269.6030658269078
 20
174.594021320053
 30
0.0
 10
269.6807722894664
 20
174.6760366928276
 30
0.0
 10
269.76278243844
 20
174.7459402029742
 30
0.0
 10
269.818798391606
 20
174.780682107727
 30
0.0
 10
269.8468065812636
 20
174.7980531922553
 30
0.0
  0
SPLINE
  5
1AB
330
1F
100
AcDbEntity
  8
0
  6
SLD-SOLID
 62
     7
100
AcDbSpline
210
0.0
220
0.0
230
1.0
 70
     8
 71
     3
 72
    16
 73
    12
 74
     0
 42
0.000000001
 43
0.00000001
 40
0.0
 40
0.0
 40
0.0
 40
0.0
 40
0.0337410650317383
 40
0.0624645070378801
 40
0.1249473397675534
 40
0.2499225262346525
 40
0.3749322369027476
 40
0.4999553816512366
 40
0.7499869141727314
 40
0.8750024537136274
 40
1.0
 40
1.0
 40
1.0
 40
1.0
 10
269.0244333481351
 20
172.9642228555405
 30
0.0
 10
269.0311997194727
 20
172.9765080442874
 30
0.0
 10
269.043726237223
 20
172.9992514952787
 30
0.0
 10
269.0656274795942
 20
173.04565556438
 30
0.0
 10
269.0963729200004
 20
173.1265104382139
 30
0.0
 10
269.1317072608491
 20
173.2424999929637
 30
0.0
 10
269.1676504554227
 20
173.3807747729458
 30
0.0
 10
269.2077346939868
 20
173.563744104502
 30
0.0
 10
269.2485435904152
 20
173.7480631707979
 30
0.0
 10
269.2931172813056
 20
173.9345499825918
 30
0.0
 10
269.3209501908883
 20
174.0291552713528
 30
0.0
 10
269.3348656441229
 20
174.0764545113975
 30
0.0
  0
SPLINE
  5
1AC
330
1F
100
AcDbEntity
  8
0
  6
SLD-SOLID
 62
     7
100
AcDbSpline
210
0.0
220
0.0
230
1.0
 70
     8
 71
     3
 72
    11
 73
     7
 74
     0
 42
0.000000001
 43
0.00000001
 40
0.0
 40
0.0
 40
0.0
 40
0.0
 40
0.2501966187589379
 40
0.5000571358904238
 40
0.749872261984377
 40
1.0
 40
1.0
 40
1.0
 40
1.0
 10
268.8327619405592
 20
172.7708062531595
 30
0.0
 10
268.8501758227946
 20
172.7816329869241
 30
0.0
 10
268.8849801943267
 20
172.8032719103606
 30
0.0
 10
268.9360751435973
 20
172.8487518490019
 30
0.0
 10
268.9842598806366
 20
172.902327065041
 30
0.0
 10
269.0110366111811
 20
172.9435823264671
 30
0.0
 10
269.0244333481351
 20
172.9642228555405
 30
0.0
  0
SPLINE
  5
1AD
330
1F
100
AcDbEntity
  8
0
  6
SLD-SOLID
 62
     7
100
AcDbSpline
210
0.0
220
0.0
230
1.0
 70
     8
 71
     3
 72
    15
 73
    11
 74
     0
 42
0.000000001
 43
0.00000001
 40
0.0
 40
0.0
 40
0.0
 40
0.0
 40
0.1252753702516277
 40
0.2505459008221373
 40
0.4998899455516715
 40
0.6248465295676208
 40
0.7498871296288044
 40
0.874757179698254
 40
0.9373759605648325
 40
0.9999999999999999
 40
0.9999999999999999
 40
0.9999999999999999
 40
0.9999999999999999
 10
268.5367399342936
 20
173.0942996735205
 30
0.0
 10
268.5362772386097
 20
173.0653108157632
 30
0.0
 10
268.5353518651171
 20
173.007334220156
 30
0.0
 10
268.5442346218467
 20
172.8996870611919
 30
0.0
 10
268.5689605922369
 20
172.8024844600568
 30
0.0
 10
268.6283983667625
 20
172.7473217199786
 30
0.0
 10
268.6859168208662
 20
172.7268586205299
 30
0.0
 10
268.7442401588696
 20
172.7324744360523
 30
0.0
 10
268.7941908946732
 20
172.7500203687902
 30
0.0
 10
268.819904565384
 20
172.7638774310976
 30
0.0
 10
268.8327619405592
 20
172.7708062531595
 30
0.0
  0
SPLINE
  5
1AE
330
1F
100
AcDbEntity
  8
0
  6
SLD-SOLID
 62
     7
100
AcDbSpline
210
0.0
220
0.0
230
1.0
 70
     8
 71
     3
 72
    15
 73
    11
 74
     0
 42
0.000000001
 43
0.00000001
 40
0.0
 40
0.0
 40
0.0
 40
0.0
 40
0.1250770516030787
 40
0.250090701033529
 40
0.377003749335094
 40
0.4998510636194632
 40
0.6247495841010758
 40
0.7497740173005523
 40
0.8748489178847622
 40
1.0
 40
1.0
 40
1.0
 40
1.0
 10
268.9270236846628
 20
173.8575756754776
 30
0.0
 10
268.8987207146806
 20
173.8367649572104
 30
0.0
 10
268.8421291216309
 20
173.7951540697313
 30
0.0
 10
268.7605143949382
 20
173.71444210015
 30
0.0
 10
268.6864040508752
 20
173.6206872411026
 30
0.0
 10
268.6259951670654
 20
173.5146180339718
 30
0.0
 10
268.5830877659484
 20
173.4047734677816
 30
0.0
 10
268.5569854232421
 20
173.2967561110967
 30
0.0
 10
268.5413751140706
 20
173.1925531288057
 30
0.0
 10
268.5382853077841
 20
173.1270574720199
 30
0.0
 10
268.5367399342936
 20
173.0942996735206
 30
0.0
  0
ARC
  5
1AF
330
1F
100
AcDbEntity
  8
0
  6
SLD-SOLID
 62
     7
100
AcDbCircle
 10
244.9232945337
 20
173.9989821598
 30
0.0
 40
24.00414566168676
100
AcDbArc
 50
359.6624732359
 51
0.4876763431
  0
SPLINE
  5
1B0
330
1F
100
AcDbEntity
  8
0
  6
SLD-SOLID
 62
     7
100
AcDbSpline
210
0.0
220
0.0
230
1.0
 70
     8
 71
     3
 72
    16
 73
    12
 74
     0
 42
0.000000001
 43
0.00000001
 40
0.0
 40
0.0
 40
0.0
 40
0.0
 40
0.1252501039117529
 40
0.2504474826799954
 40
0.4996006484765032
 40
0.6423116415874414
 40
0.7138523485520653
 40
0.7853894622243167
 40
0.8926376358440749
 40
0.9463073593472918
 40
1.0
 40
1.0
 40
1.0
 40
1.0
 10
268.2915722438525
 20
172.939497056214
 30
0.0
 10
268.2943165176744
 20
172.9935937832509
 30
0.0
 10
268.2998039100918
 20
173.101764464827
 30
0.0
 10
268.3364984538205
 20
173.3314242163903
 30
0.0
 10
268.4122675334103
 20
173.586054265162
 30
0.0
 10
268.5317153367312
 20
173.8047305603829
 30
0.0
 10
268.6201737942313
 20
173.9260019761684
 30
0.0
 10
268.7036126862035
 20
174.0238937342861
 30
0.0
 10
268.7869834294918
 20
174.1031208426684
 30
0.0
 10
268.866379768753
 20
174.163782108061
 30
0.0
 10
268.9065041953432
 20
174.1901204072118
 30
0.0
 10
268.9265706910398
 20
174.2032923678223
 30
0.0
  0
SPLINE
  5
1B1
330
1F
100
AcDbEntity
  8
0
  6
SLD-SOLID
 62
     7
100
AcDbSpline
210
0.0
220
0.0
230
1.0
 70
     8
 71
     3
 72
    16
 73
    12
 74
     0
 42
0.000000001
 43
0.00000001
 40
0.0
 40
0.0
 40
0.0
 40
0.0
 40
0.062581291832555
 40
0.1251185619905059
 40
0.2500339966083338
 40
0.3748934519169205
 40
0.4997665987942875
 40
0.6425356419198773
 40
0.749765945952161
 40
0.874854662177317
 40
1.0
 40
1.0
 40
1.0
 40
1.0
 10
268.8323923796565
 20
172.4488994554301
 30
0.0
 10
268.8105442218244
 20
172.4371324309292
 30
0.0
 10
268.7668632748507
 20
172.4136066592273
 30
0.0
 10
268.6816774727767
 20
172.381310864741
 30
0.0
 10
268.5819024146129
 20
172.3665834798088
 30
0.0
 10
268.4773929176604
 20
172.3856640303302
 30
0.0
 10
268.3938524831465
 20
172.4509700102296
 30
0.0
 10
268.3410406940488
 20
172.5485979864798
 30
0.0
 10
268.3081582371922
 20
172.6668475993852
 30
0.0
 10
268.2908630065534
 20
172.7928754963667
 30
0.0
 10
268.2913357957594
 20
172.8906158308815
 30
0.0
 10
268.2915722438525
 20
172.939497056214
 30
0.0
  0
SPLINE
  5
1B2
330
1F
100
AcDbEntity
  8
0
  6
SLD-SOLID
 62
     7
100
AcDbSpline
210
0.0
220
0.0
230
1.0
 70
     8
 71
     3
 72
    13
 73
     9
 74
     0
 42
0.000000001
 43
0.00000001
 40
0.0
 40
0.0
 40
0.0
 40
0.0
 40
0.1252703987144048
 40
0.2504796247751309
 40
0.5002081115003584
 40
0.749634200630809
 40
0.8747805455085639
 40
0.9999999999999999
 40
0.9999999999999999
 40
0.9999999999999999
 40
0.9999999999999999
 10
269.3116355104558
 20
173.062483308964
 30
0.0
 10
269.2987343290509
 20
173.0316368697711
 30
0.0
 10
269.2729382662092
 20
172.9699590544696
 30
0.0
 10
269.2128562310143
 20
172.847760771704
 30
0.0
 10
269.1187065644606
 20
172.6998381921908
 30
0.0
 10
269.0033341132797
 20
172.5748356340296
 30
0.0
 10
268.9061368585903
 20
172.4941556324696
 30
0.0
 10
268.8569786575492
 20
172.4639877842262
 30
0.0
 10
268.8323923796565
 20
172.4488994554301
 30
0.0
  0
SPLINE
  5
1B3
330
1F
100
AcDbEntity
  8
0
  6
SLD-SOLID
 62
     7
100
AcDbSpline
210
0.0
220
0.0
230
1.0
 70
     8
 71
     3
 72
    16
 73
    12
 74
     0
 42
0.000000001
 43
0.00000001
 40
0.0
 40
0.0
 40
0.0
 40
0.0
 40
0.0527504287283681
 40
0.1249941999136709
 40
0.2499999026623657
 40
0.3928661216840583
 40
0.5000195877471693
 40
0.7500131823437874
 40
0.8500162248724892
 40
0.9100206159286836
 40
0.9999999999999999
 40
0.9999999999999999
 40
0.9999999999999999
 40
0.9999999999999999
 10
269.5739228766366
 20
174.0350879297237
 30
0.0
 10
269.568835372485
 20
174.0176749741029
 30
0.0
 10
269.5567803328137
 20
173.9764142960682
 30
0.0
 10
269.5354043913516
 20
173.8944812920173
 30
0.0
 10
269.5095602953075
 20
173.7840741177713
 30
0.0
 10
269.4809859616187
 20
173.6627811230935
 30
0.0
 10
269.4438443999962
 20
173.5019250332594
 30
0.0
 10
269.4076304230629
 20
173.3548611818291
 30
0.0
 10
269.3674924689955
 20
173.2219420581737
 30
0.0
 10
269.3413582584333
 20
173.1407426637842
 30
0.0
 10
269.3227806985957
 20
173.0918283491278
 30
0.0
 10
269.3116355104558
 20
173.062483308964
 30
0.0
  0
SPLINE
  5
1B4
330
1F
100
AcDbEntity
  8
0
  6
SLD-SOLID
 62
     7
100
AcDbSpline
210
0.0
220
0.0
230
1.0
 70
     8
 71
     3
 72
    13
 73
     9
 74
     0
 42
0.000000001
 43
0.00000001
 40
0.0
 40
0.0
 40
0.0
 40
0.0
 40
0.1252815490492465
 40
0.2504017094291043
 40
0.4996939484694313
 40
0.7494089043026909
 40
0.8746796942985441
 40
1.0
 40
1.0
 40
1.0
 40
1.0
 10
269.8626136532666
 20
174.4601573632578
 30
0.0
 10
269.8463028908959
 20
174.4498818723961
 30
0.0
 10
269.8137023778058
 20
174.4293441276403
 30
0.0
 10
269.7500887692544
 20
174.3750482266168
 30
0.0
 10
269.6774274376879
 20
174.2854648859695
 30
0.0
 10
269.6259637064715
 20
174.181301609201
 30
0.0
 10
269.594105639474
 20
174.0977441152143
 30
0.0
 10
269.5806513504187
 20
174.0559760759479
 30
0.0
 10
269.5739228766366
 20
174.0350879297237
 30
0.0
  0
SPLINE
  5
1B5
330
1F
100
AcDbEntity
  8
0
  6
SLD-SOLID
 62
     7
100
AcDbSpline
210
0.0
220
0.0
230
1.0
 70
     8
 71
     3
 72
    15
 73
    11
 74
     0
 42
0.000000001
 43
0.00000001
 40
0.0
 40
0.0
 40
0.0
 40
0.0
 40
0.1252340652107939
 40
0.2504327417586132
 40
0.4998529441288185
 40
0.6248436805348848
 40
0.7498031372440926
 40
0.874793552449286
 40
0.9373746756917807
 40
1.0
 40
1.0
 40
1.0
 40
1.0
 10
270.2243734788651
 20
174.1193479043747
 30
0.0
 10
270.224518874788
 20
174.1512526431461
 30
0.0
 10
270.2248096255478
 20
174.2150531050424
 30
0.0
 10
270.2070666463109
 20
174.3306981043065
 30
0.0
 10
270.1663819603929
 20
174.4290239181622
 30
0.0
 10
270.0961680311049
 20
174.4907267635046
 30
0.0
 10
270.0263910906879
 20
174.5071728862535
 30
0.0
 10
269.9609058467568
 20
174.5017918436826
 30
0.0
 10
269.9051669137249
 20
174.4826676968923
 30
0.0
 10
269.8768014113344
 20
174.4676625735329
 30
0.0
 10
269.8626136532666
 20
174.4601573632578
 30
0.0
  0
SPLINE
  5
1B6
330
1F
100
AcDbEntity
  8
0
  6
SLD-SOLID
 62
     7
100
AcDbSpline
210
0.0
220
0.0
230
1.0
 70
     8
 71
     3
 72
    16
 73
    12
 74
     0
 42
0.000000001
 43
0.00000001
 40
0.0
 40
0.0
 40
0.0
 40
0.0
 40
0.1251168957393441
 40
0.1890308212484618
 40
0.2502670331399018
 40
0.3770907917709482
 40
0.4998837377755915
 40
0.6248539258740314
 40
0.7498673850242207
 40
0.8748959352721755
 40
1.0
 40
1.0
 40
1.0
 40
1.0
 10
269.6806857242554
 20
173.1719610345138
 30
0.0
 10
269.7167758555083
 20
173.1977490144675
 30
0.0
 10
269.7713020416753
 20
173.2367103633738
 30
0.0
 10
269.8422136474574
 20
173.2978154550836
 30
0.0
 10
269.9123014516302
 20
173.3638415031008
 30
0.0
 10
269.9948956635667
 20
173.4573176374626
 30
0.0
 10
270.0784810647571
 20
173.5871739698248
 30
0.0
 10
270.1413065188029
 20
173.7232110289264
 30
0.0
 10
270.1880822806071
 20
173.8601790280867
 30
0.0
 10
270.2168506956017
 20
173.9941921470696
 30
0.0
 10
270.2218653798033
 20
174.0776209229524
 30
0.0
 10
270.2243734788651
 20
174.1193479043747
 30
0.0
  0
ARC
  5
1B7
330
1F
100
AcDbEntity
  8
0
  6
SLD-SOLID
 62
     7
100
AcDbCircle
 10
248.2667200923
 20
174.3759782167
 30
0.0
 40
21.44778733248332
100
AcDbArc
 50
355.8923514122
 51
356.7818877341
  0
SPLINE
  5
1B8
330
1F
100
AcDbEntity
  8
0
  6
SLD-SOLID
 62
     7
100
AcDbSpline
210
0.0
220
0.0
230
1.0
 70
     8
 71
     3
 72
    17
 73
    13
 74
     0
 42
0.000000001
 43
0.00000001
 40
0.0
 40
0.0
 40
0.0
 40
0.0
 40
0.0626907839454636
 40
0.1253747394861049
 40
0.1880630178268907
 40
0.2507382830476645
 40
0.3798433107302376
 40
0.501013152224705
 40
0.7494941325266866
 40
0.8746495530799466
 40
0.9373239098167441
 40
1.0
 40
1.0
 40
1.0
 40
1.0
 10
270.4695414997429
 20
174.2756231998964
 30
0.0
 10
270.4684227547561
 20
174.2442282050248
 30
0.0
 10
270.4661853866384
 20
174.1814416348868
 30
0.0
 10
270.4559659083978
 20
174.0841865648594
 30
0.0
 10
270.4419941742746
 20
173.9855950269374
 30
0.0
 10
270.413226868974
 20
173.8488915063283
 30
0.0
 10
270.3602617230123
 20
173.6759750133018
 30
0.0
 10
270.2318197075628
 20
173.3997013257757
 30
0.0
 10
270.0399113604321
 20
173.1447292604069
 30
0.0
 10
269.8522048405019
 20
172.9743761514358
 30
0.0
 10
269.7421538439629
 20
172.8917245623167
 30
0.0
 10
269.6869935251083
 20
172.8570153117803
 30
0.0
 10
269.6594129842806
 20
172.8396604465184
 30
0.0
  0
SPLINE
  5
1B9
330
1F
100
AcDbEntity
  8
0
  6
SLD-SOLID
 62
     7
100
AcDbSpline
210
0.0
220
0.0
230
1.0
 70
     8
 71
     3
 72
    15
 73
    11
 74
     0
 42
0.000000001
 43
0.00000001
 40
0.0
 40
0.0
 40
0.0
 40
0.0
 40
0.0626377064476582
 40
0.1252328576414864
 40
0.2502449672969574
 40
0.3754734207889339
 40
0.5002705548538309
 40
0.7495791849838804
 40
0.8747558686070493
 40
1.0
 40
1.0
 40
1.0
 40
1.0
 10
269.8468065812636
 20
174.7980531922553
 30
0.0
 10
269.8699655100335
 20
174.8103790090069
 30
0.0
 10
269.9162676336942
 20
174.8350222685082
 30
0.0
 10
270.0077390888155
 20
174.8683223950251
 30
0.0
 10
270.1168857907357
 20
174.8816302099191
 30
0.0
 10
270.2333844105663
 20
174.8580267738058
 30
0.0
 10
270.3592091206816
 20
174.771494201402
 30
0.0
 10
270.4349842105716
 20
174.6172391345686
 30
0.0
 10
270.4691276299636
 20
174.4313712208758
 30
0.0
 10
270.4694035183807
 20
174.3275485280118
 30
0.0
 10
270.4695414997429
 20
174.2756231998964
 30
0.0
  0
SPLINE
  5
1BA
330
1F
100
AcDbEntity
  8
0
  6
SLD-SOLID
 62
     7
100
AcDbSpline
210
0.0
220
0.0
230
1.0
 70
     8
 71
     3
 72
    58
 73
    54
 74
     0
 42
0.000000001
 43
0.00000001
 40
0.0
 40
0.0
 40
0.0
 40
0.0
 40
0.0084874510432639
 40
0.0305059964043185
 40
0.0529987240090326
 40
0.0759656232099654
 40
0.0994066829848945
 40
0.1173004710010945
 40
0.1354610461911132
 40
0.153888405986938
 40
0.172582547747085
 40
0.1915434687580974
 40
0.2107711662359416
 40
0.2302656373273057
 40
0.2500268791108131
 40
0.2697881208954456
 40
0.2892825919878619
 40
0.3085102894666855
 40
0.327471210478605
 40
0.3461653522395866
 40
0.3645927120361734
 40
0.3827532872268814
 40
0.4006470752436985
 40
0.4240881350193368
 40
0.4470550342208506
 40
0.4695477618260159
 40
0.491566307187393
 40
0.5131106600421613
 40
0.5341808105230645
 40
0.5547767491706127
 40
0.5748984669467211
 40
0.5945459552499962
 40
0.6137192059329117
 40
0.6324182113211599
 40
0.6506429642355226
 40
0.6718854406213003
 40
0.6924450859085078
 40
0.7123218836241352
 40
0.7315158188491526
 40
0.7500268783318976
 40
0.7685372628975593
 40
0.787730594265225
 40
0.8076068591805619
 40
0.8281660427213915
 40
0.8494081284111189
 40
0.8676326099681528
 40
0.8863313933410932
 40
0.9055044713489427
 40
0.9251518363154883
 40
0.9452734800911774
 40
0.9658693940724774
 40
0.9869395692190533
 40
1.0
 40
1.0
 40
1.0
 40
1.0
 10
266.7245649696959
 20
164.1511700520713
 30
0.0
 10
266.8382372867176
 20
164.2127622654828
 30
0.0
 10
267.246803683938
 20
164.4341399006863
 30
0.0
 10
267.8924886171549
 20
164.9270940176364
 30
0.0
 10
268.6601244047451
 20
165.6344227173243
 30
0.0
 10
269.3641861329515
 20
166.4688858646255
 30
0.0
 10
269.9466280764052
 20
167.3422295437265
 30
0.0
 10
270.4202476471316
 20
168.2260377258296
 30
0.0
 10
270.8007682219807
 20
169.0929748393428
 30
0.0
 10
271.1307304864063
 20
170.0291588484546
 30
0.0
 10
271.4065547401991
 20
171.0338236572068
 30
0.0
 10
271.6247004719572
 20
172.1057946472996
 30
0.0
 10
271.7817317920539
 20
173.2434238110723
 30
0.0
 10
271.8743616035579
 20
174.4445895374873
 30
0.0
 10
271.8992834617857
 20
175.7009424993872
 30
0.0
 10
271.8552754290826
 20
176.9970878472934
 30
0.0
 10
271.7441705834691
 20
178.3158670673683
 30
0.0
 10
271.5692465668104
 20
179.64513004164
 30
0.0
 10
271.3338203333372
 20
180.9789422853453
 30
0.0
 10
271.0413212041616
 20
182.311694180574
 30
0.0
 10
270.695286767444
 20
183.6381191958588
 30
0.0
 10
270.2993144394658
 20
184.953329202771
 30
0.0
 10
269.8091834514356
 20
186.3934458172479
 30
0.0
 10
269.2097099305696
 20
187.9493506806187
 30
0.0
 10
268.487006000207
 20
189.606490364746
 30
0.0
 10
267.7057253213857
 20
191.2115169401509
 30
0.0
 10
266.8742386965516
 20
192.7577520407205
 30
0.0
 10
266.0006450890955
 20
194.2396319931044
 30
0.0
 10
265.0927286202588
 20
195.652615180954
 30
0.0
 10
264.1579069843808
 20
196.9931415421798
 30
0.0
 10
263.2031947267159
 20
198.2585705974188
 30
0.0
 10
262.2351728126849
 20
199.44712043665
 30
0.0
 10
261.2599719512446
 20
200.5577984022381
 30
0.0
 10
260.2832448740629
 20
201.5903460577352
 30
0.0
 10
259.2480655039122
 20
202.606107790362
 30
0.0
 10
258.1587173069268
 20
203.5902490834003
 30
0.0
 10
257.0215745094781
 20
204.5271465770121
 30
0.0
 10
255.9100661601917
 20
205.3597734356655
 30
0.0
 10
254.8296061763627
 20
206.0924905773214
 30
0.0
 10
253.7719000463726
 20
206.738131632609
 30
0.0
 10
252.715019311678
 20
207.3132168679442
 30
0.0
 10
251.6369472469059
 20
207.8266007396018
 30
0.0
 10
250.5293724999414
 20
208.2750343378522
 30
0.0
 10
249.3977084958677
 20
208.6479058738804
 30
0.0
 10
248.314978005323
 20
208.9176943837481
 30
0.0
 10
247.2872745282232
 20
209.092828897502
 30
0.0
 10
246.3186584157022
 20
209.1833105873752
 30
0.0
 10
245.3526010393468
 20
209.1933508365042
 30
0.0
 10
244.3949549519529
 20
209.116336549305
 30
0.0
 10
243.4510785002859
 20
208.9475137672646
 30
0.0
 10
242.5305395880069
 20
208.6759140003618
 30
0.0
 10
241.749843325155
 20
208.3642878351823
 30
0.0
 10
241.3014701055838
 20
208.1014022699197
 30
0.0
 10
241.1298954370686
 20
208.0008063784868
 30
0.0
  0
SPLINE
  5
1BB
330
1F
100
AcDbEntity
  8
0
  6
SLD-SOLID
 62
     7
100
AcDbSpline
210
0.0
220
0.0
230
1.0
 70
     8
 71
     3
 72
    14
 73
    10
 74
     0
 42
0.000000001
 43
0.00000001
 40
0.0
 40
0.0
 40
0.0
 40
0.0
 40
0.2500168615556212
 40
0.3500261258081647
 40
0.5000369762994725
 40
0.6489430765647763
 40
0.750032019350838
 40
0.8749982441472501
 40
1.0
 40
1.0
 40
1.0
 40
1.0
 10
269.1375347321885
 20
180.3859309489102
 30
0.0
 10
269.1781002590537
 20
180.3566131712024
 30
0.0
 10
269.2348924054781
 20
180.3155679869516
 30
0.0
 10
269.3157034191609
 20
180.2572669390098
 30
0.0
 10
269.3802070666155
 20
180.2111924324278
 30
0.0
 10
269.4458229409619
 20
180.1675020865026
 30
0.0
 10
269.5082957524768
 20
180.1290102569926
 30
0.0
 10
269.5700214686481
 20
180.1010741816331
 30
0.0
 10
269.6156854621338
 20
180.0869267890975
 30
0.0
 10
269.6385207042723
 20
180.0798520873573
 30
0.0
  0
SPLINE
  5
1BC
330
1F
100
AcDbEntity
  8
0
  6
SLD-SOLID
 62
     7
100
AcDbSpline
210
0.0
220
0.0
230
1.0
 70
     8
 71
     3
 72
    14
 73
    10
 74
     0
 42
0.000000001
 43
0.00000001
 40
0.0
 40
0.0
 40
0.0
 40
0.0
 40
0.0625675661231024
 40
0.1251140026044137
 40
0.250101147771953
 40
0.4995675077343538
 40
0.7496838681908611
 40
0.8748402580249532
 40
1.0
 40
1.0
 40
1.0
 40
1.0
 10
268.1013841567907
 20
180.6313314405401
 30
0.0
 10
268.1242245002369
 20
180.643582814133
 30
0.0
 10
268.1698974737357
 20
180.6680814239176
 30
0.0
 10
268.2637259219417
 20
180.7013459268742
 30
0.0
 10
268.4296803167286
 20
180.7283057991598
 30
0.0
 10
268.6582879116704
 20
180.6774873587742
 30
0.0
 10
268.8634218252682
 20
180.5663881188821
 30
0.0
 10
269.0217686293557
 20
180.4661310342756
 30
0.0
 10
269.0989456867354
 20
180.4126645493664
 30
0.0
 10
269.1375347321885
 20
180.3859309489102
 30
0.0
  0
SPLINE
  5
1BD
330
1F
100
AcDbEntity
  8
0
  6
SLD-SOLID
 62
     7
100
AcDbSpline
210
0.0
220
0.0
230
1.0
 70
     8
 71
     3
 72
    17
 73
    13
 74
     0
 42
0.000000001
 43
0.00000001
 40
0.0
 40
0.0
 40
0.0
 40
0.0
 40
0.0625815367657185
 40
0.1251492961083455
 40
0.2501912548842851
 40
0.3768455455386589
 40
0.5000947322408439
 40
0.6264241736810374
 40
0.7499896198501536
 40
0.8748734351903942
 40
0.9374280894526572
 40
1.0
 40
1.0
 40
1.0
 40
1.0
 10
267.698639352514
 20
179.4642284636261
 30
0.0
 10
267.6935561332057
 20
179.4904012966493
 30
0.0
 10
267.6833908136677
 20
179.5427412007056
 30
0.0
 10
267.6694521396392
 20
179.6508755429412
 30
0.0
 10
267.6627314589532
 20
179.7914762385658
 30
0.0
 10
267.6775170876039
 20
179.964138710002
 30
0.0
 10
267.7199806793216
 20
180.1347682686818
 30
0.0
 10
267.785751916624
 20
180.2936418795687
 30
0.0
 10
267.8732321072545
 20
180.4363456294661
 30
0.0
 10
267.9627372186235
 20
180.5313099539864
 30
0.0
 10
268.0401433267892
 20
180.5942495976425
 30
0.0
 10
268.0809686700404
 20
180.6189696898529
 30
0.0
 10
268.1013841567907
 20
180.6313314405401
 30
0.0
  0
SPLINE
  5
1BE
330
1F
100
AcDbEntity
  8
0
  6
SLD-SOLID
 62
     7
100
AcDbSpline
210
0.0
220
0.0
230
1.0
 70
     8
 71
     3
 72
    16
 73
    12
 74
     0
 42
0.000000001
 43
0.00000001
 40
0.0
 40
0.0
 40
0.0
 40
0.0
 40
0.062665237114179
 40
0.1253166151161188
 40
0.2505047026334666
 40
0.3933880120692159
 40
0.5006362420848571
 40
0.749470695357641
 40
0.8746802095668523
 40
0.9373347007293137
 40
1.0
 40
1.0
 40
1.0
 40
1.0
 10
268.4630673976898
 20
178.9524445992527
 30
0.0
 10
268.4415445867593
 20
178.9434113387973
 30
0.0
 10
268.3985037249066
 20
178.9253468156921
 30
0.0
 10
268.3119664611046
 20
178.8971028581807
 30
0.0
 10
268.1975728610663
 20
178.8785958330935
 30
0.0
 10
268.0720608435939
 20
178.8948194292817
 30
0.0
 10
267.9223136051069
 20
178.971057301592
 30
0.0
 10
267.8101708222021
 20
179.1161877298561
 30
0.0
 10
267.745721484005
 20
179.2828381591729
 30
0.0
 10
267.716465899754
 20
179.3848205666398
 30
0.0
 10
267.7045818765702
 20
179.4377576427917
 30
0.0
 10
267.698639352514
 20
179.4642284636261
 30
0.0
  0
SPLINE
  5
1BF
330
1F
100
AcDbEntity
  8
0
  6
SLD-SOLID
 62
     7
100
AcDbSpline
210
0.0
220
0.0
230
1.0
 70
     8
 71
     3
 72
     8
 73
     4
 74
     0
 42
0.000000001
 43
0.00000001
 40
0.0
 40
0.0
 40
0.0
 40
0.0
 40
1.0
 40
1.0
 40
1.0
 40
1.0
 10
268.4268169290056
 20
179.3101572009889
 30
0.0
 10
268.4395674310165
 20
179.1907214574364
 30
0.0
 10
268.45165172879
 20
179.0714795668316
 30
0.0
 10
268.4630673976898
 20
178.9524445992527
 30
0.0
  0
SPLINE
  5
1C0
330
1F
100
AcDbEntity
  8
0
  6
SLD-SOLID
 62
     7
100
AcDbSpline
210
0.0
220
0.0
230
1.0
 70
     8
 71
     3
 72
    14
 73
    10
 74
     0
 42
0.000000001
 43
0.00000001
 40
0.0
 40
0.0
 40
0.0
 40
0.0
 40
0.1253010519741459
 40
0.2505098478769053
 40
0.499343369232075
 40
0.6244488719254124
 40
0.7495457180078846
 40
0.8747057413814276
 40
1.0
 40
1.0
 40
1.0
 40
1.0
 10
267.9449685828683
 20
179.597999360367
 30
0.0
 10
267.9527604102923
 20
179.5655498857973
 30
0.0
 10
267.9683383282099
 20
179.5006748284049
 30
0.0
 10
268.0163404032472
 20
179.3843294865095
 30
0.0
 10
268.091939885578
 20
179.2958777099722
 30
0.0
 10
268.1875836226536
 20
179.2538229317653
 30
0.0
 10
268.2667708673067
 20
179.2511696014159
 30
0.0
 10
268.347734003022
 20
179.2689921541653
 30
0.0
 10
268.4004465362839
 20
179.296430616677
 30
0.0
 10
268.4268169290056
 20
179.3101572009889
 30
0.0
  0
SPLINE
  5
1C1
330
1F
100
AcDbEntity
  8
0
  6
SLD-SOLID
 62
     7
100
AcDbSpline
210
0.0
220
0.0
230
1.0
 70
     8
 71
     3
 72
    15
 73
    11
 74
     0
 42
0.000000001
 43
0.00000001
 40
0.0
 40
0.0
 40
0.0
 40
0.0
 40
0.0626688718537928
 40
0.1253235932687495
 40
0.2503465934107615
 40
0.4992250358967028
 40
0.6243290407597842
 40
0.7494788951445376
 40
0.8747178277475182
 40
1.0
 40
1.0
 40
1.0
 40
1.0
 10
268.1828785717013
 20
180.2867007426821
 30
0.0
 10
268.1709034492035
 20
180.2793288977574
 30
0.0
 10
268.1469559081537
 20
180.2645868724479
 30
0.0
 10
268.1013824957433
 20
180.2274874755129
 30
0.0
 10
268.0282835511543
 20
180.1477298039255
 30
0.0
 10
267.9674684562048
 20
180.0239638996241
 30
0.0
 10
267.9351147348763
 20
179.8914674398891
 30
0.0
 10
267.9247256664991
 20
179.7901217767212
 30
0.0
 10
267.9287858339465
 20
179.691239783739
 30
0.0
 10
267.9395737125693
 20
179.6290830775493
 30
0.0
 10
267.9449685828683
 20
179.597999360367
 30
0.0
  0
SPLINE
  5
1C2
330
1F
100
AcDbEntity
  8
0
  6
SLD-SOLID
 62
     7
100
AcDbSpline
210
0.0
220
0.0
230
1.0
 70
     8
 71
     3
 72
    14
 73
    10
 74
     0
 42
0.000000001
 43
0.00000001
 40
0.0
 40
0.0
 40
0.0
 40
0.0
 40
0.2001076230145705
 40
0.5001909591930223
 40
0.6252284615914541
 40
0.7501902181423923
 40
0.8750393928317121
 40
0.9375268274373513
 40
1.0
 40
1.0
 40
1.0
 40
1.0
 10
269.0753986765704
 20
179.9911874162717
 30
0.0
 10
269.0214711074871
 20
180.0288834460025
 30
0.0
 10
268.8866732317223
 20
180.1231088082592
 30
0.0
 10
268.7106030084351
 20
180.229164643933
 30
0.0
 10
268.5481802303825
 20
180.3053876193723
 30
0.0
 10
268.4306863676792
 20
180.3378764729779
 30
0.0
 10
268.3272308333282
 20
180.3377172436666
 30
0.0
 10
268.2437344344202
 20
180.3178539575509
 30
0.0
 10
268.2031623157444
 20
180.2970843574775
 30
0.0
 10
268.1828785717013
 20
180.2867007426821
 30
0.0
  0
SPLINE
  5
1C3
330
1F
100
AcDbEntity
  8
0
  6
SLD-SOLID
 62
     7
100
AcDbSpline
210
0.0
220
0.0
230
1.0
 70
     8
 71
     3
 72
    13
 73
     9
 74
     0
 42
0.000000001
 43
0.00000001
 40
0.0
 40
0.0
 40
0.0
 40
0.0
 40
0.1250209265508464
 40
0.250049373506896
 40
0.4998209906540659
 40
0.699849996273849
 40
0.849922119023819
 40
1.0
 40
1.0
 40
1.0
 40
1.0
 10
269.797103431885
 20
179.7243338512242
 30
0.0
 10
269.7636415882388
 20
179.7208419305083
 30
0.0
 10
269.6967158881105
 20
179.7138578790266
 30
0.0
 10
269.566701586216
 20
179.7269210638168
 30
0.0
 10
269.4229223654594
 20
179.7681670289098
 30
0.0
 10
269.2845286751594
 20
179.8446552256243
 30
0.0
 10
269.1724192867503
 20
179.916797462334
 30
0.0
 10
269.1077392935814
 20
179.9663904478203
 30
0.0
 10
269.0753986765704
 20
179.9911874162717
 30
0.0
  0
SPLINE
  5
1C4
330
1F
100
AcDbEntity
  8
0
  6
SLD-SOLID
 62
     7
100
AcDbSpline
210
0.0
220
0.0
230
1.0
 70
     8
 71
     3
 72
    11
 73
     7
 74
     0
 42
0.000000001
 43
0.00000001
 40
0.0
 40
0.0
 40
0.0
 40
0.0
 40
0.2500297563975164
 40
0.5000133722126017
 40
0.7499826864803177
 40
1.0
 40
1.0
 40
1.0
 40
1.0
 10
269.9921909000153
 20
179.7975190810085
 30
0.0
 10
269.9762031354845
 20
179.7882341930291
 30
0.0
 10
269.9442305568106
 20
179.7696661305068
 30
0.0
 10
269.895299051087
 20
179.7490704064748
 30
0.0
 10
269.8461153970628
 20
179.7323169894987
 30
0.0
 10
269.8134417991777
 20
179.7269950676191
 30
0.0
 10
269.797103431885
 20
179.7243338512242
 30
0.0
  0
ARC
  5
1C5
330
1F
100
AcDbEntity
  8
0
  6
SLD-SOLID
 62
     7
100
AcDbCircle
 10
236.9478095436
 20
173.8747406703
 30
0.0
 40
33.57097620460762
100
AcDbArc
 50
10.1616278018
 51
13.2207845703
  0
LINE
  5
1C6
330
1F
100
AcDbEntity
  8
0
  6
SLD-SOLID
 62
     7
100
AcDbLine
 10
269.3570565302
 20
181.3955566516
 30
0.0
 11
269.6290206768
 21
181.5525582116
 31
0.0
  0
ARC
  5
1C7
330
1F
100
AcDbEntity
  8
0
  6
SLD-SOLID
 62
     7
100
AcDbCircle
 10
236.3439256225
 20
173.6452119372
 30
0.0
 40
33.91068645019455
100
AcDbArc
 50
10.9383452463
 51
13.2118187026
  0
SPLINE
  5
1C8
330
1F
100
AcDbEntity
  8
0
  6
SLD-SOLID
 62
     7
100
AcDbSpline
210
0.0
220
0.0
230
1.0
 70
     8
 71
     3
 72
    14
 73
    10
 74
     0
 42
0.000000001
 43
0.00000001
 40
0.0
 40
0.0
 40
0.0
 40
0.0
 40
0.2500168615556141
 40
0.3500261258081755
 40
0.5000369762994756
 40
0.6489430765612622
 40
0.7500320193508472
 40
0.8749982441472567
 40
1.0
 40
1.0
 40
1.0
 40
1.0
 10
269.4997117026801
 20
178.3401896366155
 30
0.0
 10
269.536984823609
 20
178.3119135328583
 30
0.0
 10
269.5891675685421
 20
178.272326702636
 30
0.0
 10
269.6633951200156
 20
178.2161559824596
 30
0.0
 10
269.7226608258292
 20
178.1717945629433
 30
0.0
 10
269.7831329783572
 20
178.1298096836594
 30
0.0
 10
269.8408929844512
 20
178.092897540636
 30
0.0
 10
269.8985923791881
 20
178.0663231341613
 30
0.0
 10
269.9416842790573
 20
178.0530552091676
 30
0.0
 10
269.9632332915855
 20
178.0464203037032
 30
0.0
  0
SPLINE
  5
1C9
330
1F
100
AcDbEntity
  8
0
  6
SLD-SOLID
 62
     7
100
AcDbSpline
210
0.0
220
0.0
230
1.0
 70
     8
 71
     3
 72
    14
 73
    10
 74
     0
 42
0.000000001
 43
0.00000001
 40
0.0
 40
0.0
 40
0.0
 40
0.0
 40
0.0625675661231029
 40
0.1251140026044146
 40
0.2501011477719563
 40
0.4995675077343559
 40
0.7496838681908607
 40
0.8748402580249539
 40
1.0
 40
1.0
 40
1.0
 40
1.0
 10
268.5154766961954
 20
178.5703083940008
 30
0.0
 10
268.5382602979241
 20
178.5825753172478
 30
0.0
 10
268.58381980715
 20
178.6071050210893
 30
0.0
 10
268.6763781146065
 20
178.6407183029887
 30
0.0
 10
268.8381462024149
 20
178.6688321631816
 30
0.0
 10
269.0556033975076
 20
178.6211423683412
 30
0.0
 10
269.2466196667785
 20
178.5141865703903
 30
0.0
 10
269.3931003846675
 20
178.4175308640698
 30
0.0
 10
269.4641742794108
 20
178.3659702759271
 30
0.0
 10
269.4997117026801
 20
178.3401896366155
 30
0.0
  0
SPLINE
  5
1CA
330
1F
100
AcDbEntity
  8
0
  6
SLD-SOLID
 62
     7
100
AcDbSpline
210
0.0
220
0.0
230
1.0
 70
     8
 71
     3
 72
    17
 73
    13
 74
     0
 42
0.000000001
 43
0.00000001
 40
0.0
 40
0.0
 40
0.0
 40
0.0
 40
0.0625815367657585
 40
0.1251492961084244
 40
0.2501912548844511
 40
0.3768455455387809
 40
0.5000947322412226
 40
0.6264241736666116
 40
0.7499896198499914
 40
0.8748734351903144
 40
0.9374280894526168
 40
0.9999999999999999
 40
0.9999999999999999
 40
0.9999999999999999
 40
0.9999999999999999
 10
268.0551316993906
 20
177.4202863567787
 30
0.0
 10
268.0518669957104
 20
177.4458818762568
 30
0.0
 10
268.0453383070795
 20
177.4970672803194
 30
0.0
 10
268.0386332856053
 20
177.6029431611463
 30
0.0
 10
268.0408733099258
 20
177.7407996244812
 30
0.0
 10
268.0657832802559
 20
177.9104457310523
 30
0.0
 10
268.1172169021567
 20
178.0784696692767
 30
0.0
 10
268.1903798583282
 20
178.2352436151731
 30
0.0
 10
268.283478264356
 20
178.3763806849032
 30
0.0
 10
268.3756155640837
 20
178.4706201834985
 30
0.0
 10
268.4541308868048
 20
178.5332553099458
 30
0.0
 10
268.4950262130982
 20
178.5579562304758
 30
0.0
 10
268.5154766961954
 20
178.5703083940008
 30
0.0
  0
SPLINE
  5
1CB
330
1F
100
AcDbEntity
  8
0
  6
SLD-SOLID
 62
     7
100
AcDbSpline
210
0.0
220
0.0
230
1.0
 70
     8
 71
     3
 72
    16
 73
    12
 74
     0
 42
0.000000001
 43
0.00000001
 40
0.0
 40
0.0
 40
0.0
 40
0.0
 40
0.0626652371141787
 40
0.1253166151161174
 40
0.250504702633466
 40
0.3933880120692175
 40
0.5006362420848565
 40
0.7494706953576468
 40
0.8746802095668507
 40
0.9373347007293122
 40
1.0
 40
1.0
 40
1.0
 40
1.0
 10
268.7590600705491
 20
176.929164968615
 30
0.0
 10
268.7377558413896
 20
176.9200521189728
 30
0.0
 10
268.6951520947372
 20
176.9018284350964
 30
0.0
 10
268.6100135212135
 20
176.8730761783063
 30
0.0
 10
268.498679452834
 20
176.8534606716288
 30
0.0
 10
268.3788623873315
 20
176.8676406703564
 30
0.0
 10
268.2395255000466
 20
176.940197929233
 30
0.0
 10
268.1407321988036
 20
177.0807280120439
 30
0.0
 10
268.0891357428712
 20
177.2431201550426
 30
0.0
 10
268.0673451964226
 20
177.3426741205508
 30
0.0
 10
268.0592030991376
 20
177.3944141239439
 30
0.0
 10
268.0551316993906
 20
177.4202863567787
 30
0.0
  0
SPLINE
  5
1CC
330
1F
100
AcDbEntity
  8
0
  6
SLD-SOLID
 62
     7
100
AcDbSpline
210
0.0
220
0.0
230
1.0
 70
     8
 71
     3
 72
     8
 73
     4
 74
     0
 42
0.000000001
 43
0.00000001
 40
0.0
 40
0.0
 40
0.0
 40
0.0
 40
1.0
 40
1.0
 40
1.0
 40
1.0
 10
268.7470652361734
 20
177.2782629309339
 30
0.0
 10
268.7517424563072
 20
177.1616211931347
 30
0.0
 10
268.7557412336664
 20
177.045250958739
 30
0.0
 10
268.7590600705491
 20
176.929164968615
 30
0.0
  0
SPLINE
  5
1CD
330
1F
100
AcDbEntity
  8
0
  6
SLD-SOLID
 62
     7
100
AcDbSpline
210
0.0
220
0.0
230
1.0
 70
     8
 71
     3
 72
    14
 73
    10
 74
     0
 42
0.000000001
 43
0.00000001
 40
0.0
 40
0.0
 40
0.0
 40
0.0
 40
0.1253010519741585
 40
0.2505098478769187
 40
0.4993433692320847
 40
0.6244488719254206
 40
0.7495457180078925
 40
0.8747057413814285
 40
1.0
 40
1.0
 40
1.0
 40
1.0
 10
268.3009336469439
 20
177.5542253891512
 30
0.0
 10
268.3064123442396
 20
177.522517543165
 30
0.0
 10
268.3173657050014
 20
177.459125196897
 30
0.0
 10
268.3563096028159
 20
177.3457440568962
 30
0.0
 10
268.4235607556781
 20
177.2600882922411
 30
0.0
 10
268.5130328482657
 20
177.220137124627
 30
0.0
 10
268.5891454550513
 20
177.2185404505641
 30
0.0
 10
268.6682681544198
 20
177.2369988803075
 30
0.0
 10
268.7207901589007
 20
177.2645033335648
 30
0.0
 10
268.7470652361734
 20
177.2782629309339
 30
0.0
  0
SPLINE
  5
1CE
330
1F
100
AcDbEntity
  8
0
  6
SLD-SOLID
 62
     7
100
AcDbSpline
210
0.0
220
0.0
230
1.0
 70
     8
 71
     3
 72
    15
 73
    11
 74
     0
 42
0.000000001
 43
0.00000001
 40
0.0
 40
0.0
 40
0.0
 40
0.0
 40
0.062668871853796
 40
0.1253235932687528
 40
0.2503465934107637
 40
0.4992250358967144
 40
0.6243290407598011
 40
0.7494788951445468
 40
0.8747178277475294
 40
1.0
 40
1.0
 40
1.0
 40
1.0
 10
268.5730331368641
 20
178.2324652029306
 30
0.0
 10
268.561029810718
 20
178.2251016139599
 30
0.0
 10
268.5370258687398
 20
178.2103760986944
 30
0.0
 10
268.490788939488
 20
178.1734711385218
 30
0.0
 10
268.4153797415759
 20
178.0943915952596
 30
0.0
 10
268.3491015457288
 20
177.972244262134
 30
0.0
 10
268.309705468183
 20
177.8418788511015
 30
0.0
 10
268.2933998329874
 20
177.7423498396976
 30
0.0
 10
268.2911606852282
 20
177.6454296902674
 30
0.0
 10
268.2976756182155
 20
177.5846303208232
 30
0.0
 10
268.3009336469439
 20
177.5542253891512
 30
0.0
  0
SPLINE
  5
1CF
330
1F
100
AcDbEntity
  8
0
  6
SLD-SOLID
 62
     7
100
AcDbSpline
210
0.0
220
0.0
230
1.0
 70
     8
 71
     3
 72
    14
 73
    10
 74
     0
 42
0.000000001
 43
0.00000001
 40
0.0
 40
0.0
 40
0.0
 40
0.0
 40
0.2001076230145738
 40
0.5001909591930218
 40
0.6252284615914563
 40
0.7501902181423915
 40
0.8750393928317121
 40
0.9375268274373516
 40
1.0
 40
1.0
 40
1.0
 40
1.0
 10
269.4150743866039
 20
177.9527117557262
 30
0.0
 10
269.3654782579784
 20
177.9889849203468
 30
0.0
 10
269.2415072928763
 20
178.0796536751457
 30
0.0
 10
269.0783776295158
 20
178.1816557729919
 30
0.0
 10
268.926486884358
 20
178.2546696256884
 30
0.0
 10
268.8151861883641
 20
178.2853055686914
 30
0.0
 10
268.7153979652574
 20
178.2840645100693
 30
0.0
 10
268.63364444164
 20
178.2636899868144
 30
0.0
 10
268.5932353677958
 20
178.2428726722491
 30
0.0
 10
268.5730331368641
 20
178.2324652029306
 30
0.0
  0
SPLINE
  5
1D0
330
1F
100
AcDbEntity
  8
0
  6
SLD-SOLID
 62
     7
100
AcDbSpline
210
0.0
220
0.0
230
1.0
 70
     8
 71
     3
 72
    13
 73
     9
 74
     0
 42
0.000000001
 43
0.00000001
 40
0.0
 40
0.0
 40
0.0
 40
0.0
 40
0.1250209265508445
 40
0.2500493735068964
 40
0.4998209906540695
 40
0.6998499962738465
 40
0.8499221190238179
 40
1.0
 40
1.0
 40
1.0
 40
1.0
 10
270.0932099656987
 20
177.7010127556877
 30
0.0
 10
270.0607676779699
 20
177.6971501116989
 30
0.0
 10
269.9958811510057
 20
177.689424591371
 30
0.0
 10
269.8715317395415
 20
177.7004460887366
 30
0.0
 10
269.7357148864486
 20
177.7388596017079
 30
0.0
 10
269.6072872549647
 20
177.8118851508277
 30
0.0
 10
269.503862758213
 20
177.8810654795817
 30
0.0
 10
269.4446708889956
 20
177.9288293582361
 30
0.0
 10
269.4150743866039
 20
177.9527117557262
 30
0.0
  0
SPLINE
  5
1D1
330
1F
100
AcDbEntity
  8
0
  6
SLD-SOLID
 62
     7
100
AcDbSpline
210
0.0
220
0.0
230
1.0
 70
     8
 71
     3
 72
    11
 73
     7
 74
     0
 42
0.000000001
 43
0.00000001
 40
0.0
 40
0.0
 40
0.0
 40
0.0
 40
0.2500297563975206
 40
0.5000133722126024
 40
0.7499826864803144
 40
1.0
 40
1.0
 40
1.0
 40
1.0
 10
270.2857541848563
 20
177.7751264628617
 30
0.0
 10
270.2697628517344
 20
177.7658428765106
 30
0.0
 10
270.2377831365368
 20
177.7472774170049
 30
0.0
 10
270.18934535891
 20
177.7265010582277
 30
0.0
 10
270.1409126279767
 20
177.7094730850327
 30
0.0
 10
270.1091118707603
 20
177.7038330459527
 30
0.0
 10
270.0932099656987
 20
177.7010127556877
 30
0.0
  0
ARC
  5
1D2
330
1F
100
AcDbEntity
  8
0
  6
SLD-SOLID
 62
     7
100
AcDbCircle
 10
240.1450393091
 20
174.4293088382
 30
0.0
 40
30.32585017440513
100
AcDbArc
 50
6.3342754269
 51
9.6079896033
  0
LINE
  5
1D3
330
1F
100
AcDbEntity
  8
0
  6
SLD-SOLID
 62
     7
100
AcDbLine
 10
269.7735377354
 20
179.3338808207
 30
0.0
 11
270.045501882
 21
179.4908823806
 31
0.0
  0
ARC
  5
1D4
330
1F
100
AcDbEntity
  8
0
  6
SLD-SOLID
 62
     7
100
AcDbCircle
 10
239.5192778616
 20
174.2184865539
 30
0.0
 40
30.68366827836329
100
AcDbArc
 50
7.1665938528
 51
9.5968133932
  0
SPLINE
  5
1D5
330
1F
100
AcDbEntity
  8
0
  6
SLD-SOLID
 62
     7
100
AcDbSpline
210
0.0
220
0.0
230
1.0
 70
     8
 71
     3
 72
     8
 73
     4
 74
     0
 42
0.000000001
 43
0.00000001
 40
0.0
 40
0.0
 40
0.0
 40
0.0
 40
1.0
 40
1.0
 40
1.0
 40
1.0
 10
268.1784210071714
 20
176.4213254208861
 30
0.0
 10
268.6210990456383
 20
176.3248678065853
 30
0.0
 10
269.0576505994979
 20
176.2310246832629
 30
0.0
 10
269.488045724381
 20
176.1401355136111
 30
0.0
  0
ARC
  5
1D6
330
1F
100
AcDbEntity
  8
0
  6
SLD-SOLID
 62
     7
100
AcDbCircle
 10
240.0016377524
 20
173.4340851633
 30
0.0
 40
28.33469108606842
100
AcDbArc
 50
5.1775653351
 51
6.0517659269
  0
SPLINE
  5
1D7
330
1F
100
AcDbEntity
  8
0
  6
SLD-SOLID
 62
     7
100
AcDbSpline
210
0.0
220
0.0
230
1.0
 70
     8
 71
     3
 72
     8
 73
     4
 74
     0
 42
0.000000001
 43
0.00000001
 40
0.0
 40
0.0
 40
0.0
 40
0.0
 40
1.0
 40
1.0
 40
1.0
 40
1.0
 10
268.8839899006935
 20
175.8747988808402
 30
0.0
 10
268.6643419550532
 20
175.9128862662435
 30
0.0
 10
268.4432502458095
 20
175.9516601581878
 30
0.0
 10
268.2207179224113
 20
175.9910820935582
 30
0.0
  0
SPLINE
  5
1D8
330
1F
100
AcDbEntity
  8
0
  6
SLD-SOLID
 62
     7
100
AcDbSpline
210
0.0
220
0.0
230
1.0
 70
     8
 71
     3
 72
     8
 73
     4
 74
     0
 42
0.000000001
 43
0.00000001
 40
0.0
 40
0.0
 40
0.0
 40
0.0
 40
1.0
 40
1.0
 40
1.0
 40
1.0
 10
269.2416073757838
 20
175.8124114007619
 30
0.0
 10
269.1228326041476
 20
175.8329982455606
 30
0.0
 10
269.0036266373655
 20
175.8537961480109
 30
0.0
 10
268.8839899006935
 20
175.8747988808402
 30
0.0
  0
SPLINE
  5
1D9
330
1F
100
AcDbEntity
  8
0
  6
SLD-SOLID
 62
     7
100
AcDbSpline
210
0.0
220
0.0
230
1.0
 70
     8
 71
     3
 72
     8
 73
     4
 74
     0
 42
0.000000001
 43
0.00000001
 40
0.0
 40
0.0
 40
0.0
 40
0.0
 40
1.0
 40
1.0
 40
1.0
 40
1.0
 10
268.9399660836709
 20
175.3909658495114
 30
0.0
 10
269.0408856220453
 20
175.5312621820166
 30
0.0
 10
269.1414326217795
 20
175.6717456895647
 30
0.0
 10
269.2416073757838
 20
175.8124114007619
 30
0.0
  0
SPLINE
  5
1DA
330
1F
100
AcDbEntity
  8
0
  6
SLD-SOLID
 62
     7
100
AcDbSpline
210
0.0
220
0.0
230
1.0
 70
     8
 71
     3
 72
     8
 73
     4
 74
     0
 42
0.000000001
 43
0.00000001
 40
0.0
 40
0.0
 40
0.0
 40
0.0
 40
1.0
 40
1.0
 40
1.0
 40
1.0
 10
268.313408091043
 20
174.5296464513171
 30
0.0
 10
268.5238289725838
 20
174.8159372549694
 30
0.0
 10
268.7326809984101
 20
175.1030579119057
 30
0.0
 10
268.9399660836709
 20
175.3909658495114
 30
0.0
  0
ARC
  5
1DB
330
1F
100
AcDbEntity
  8
0
  6
SLD-SOLID
 62
     7
100
AcDbCircle
 10
243.2227436165
 20
173.6378735546
 30
0.0
 40
25.10650717789797
100
AcDbArc
 50
1.0879335742
 51
2.0355508992
  0
SPLINE
  5
1DC
330
1F
100
AcDbEntity
  8
0
  6
SLD-SOLID
 62
     7
100
AcDbSpline
210
0.0
220
0.0
230
1.0
 70
     8
 71
     3
 72
     8
 73
     4
 74
     0
 42
0.000000001
 43
0.00000001
 40
0.0
 40
0.0
 40
0.0
 40
0.0
 40
1.0
 40
1.0
 40
1.0
 40
1.0
 10
269.5107231853519
 20
175.7825824933977
 30
0.0
 10
269.1215588544014
 20
175.2233902930347
 30
0.0
 10
268.7262302906212
 20
174.667275088833
 30
0.0
 10
268.3247249173811
 20
174.1145678419966
 30
0.0
  0
LINE
  5
1DD
330
1F
100
AcDbEntity
  8
0
  6
SLD-SOLID
 62
     7
100
AcDbLine
 10
270.4094797011
 20
176.3014235861
 30
0.0
 11
269.5107231854
 21
175.7825824934
 31
0.0
  0
ARC
  5
1DE
330
1F
100
AcDbEntity
  8
0
  6
SLD-SOLID
 62
     7
100
AcDbCircle
 10
243.737012052
 20
174.7892432973
 30
0.0
 40
26.71529935668306
100
AcDbArc
 50
3.2448777793
 51
4.013261295
  0
LINE
  5
1DF
330
1F
100
AcDbEntity
  8
0
  6
SLD-SOLID
 62
     7
100
AcDbLine
 10
269.4880457244
 20
176.1401355136
 30
0.0
 11
270.3868022401
 21
176.6589766063
 31
0.0
  0
SPLINE
  5
1E0
330
1F
100
AcDbEntity
  8
0
  6
SLD-SOLID
 62
     7
100
AcDbSpline
210
0.0
220
0.0
230
1.0
 70
     8
 71
     3
 72
    14
 73
    10
 74
     0
 42
0.000000001
 43
0.00000001
 40
0.0
 40
0.0
 40
0.0
 40
0.0
 40
0.1252005766083377
 40
0.2503545287147368
 40
0.3754480165954126
 40
0.5005359455017232
 40
0.749737116827427
 40
0.8748330994379531
 40
1.0
 40
1.0
 40
1.0
 40
1.0
 10
269.2127983789449
 20
171.8858519989836
 30
0.0
 10
269.2249984226798
 20
171.9209620052404
 30
0.0
 10
269.249393966872
 20
171.9911689428419
 30
0.0
 10
269.2976190614635
 20
172.0988169606316
 30
0.0
 10
269.356766315942
 20
172.2055176929457
 30
0.0
 10
269.4486743453189
 20
172.3422087866917
 30
0.0
 10
269.5587653322386
 20
172.4641685515779
 30
0.0
 10
269.6747572407744
 20
172.5595341026279
 30
0.0
 10
269.7331781809057
 20
172.5955448135422
 30
0.0
 10
269.762396928454
 20
172.6135552712459
 30
0.0
  0
SPLINE
  5
1E1
330
1F
100
AcDbEntity
  8
0
  6
SLD-SOLID
 62
     7
100
AcDbSpline
210
0.0
220
0.0
230
1.0
 70
     8
 71
     3
 72
    13
 73
     9
 74
     0
 42
0.000000001
 43
0.00000001
 40
0.0
 40
0.0
 40
0.0
 40
0.0
 40
0.1252117063579229
 40
0.2503483626772298
 40
0.4999414635470167
 40
0.7495523300157595
 40
0.8747402266328755
 40
0.9999999999999999
 40
0.9999999999999999
 40
0.9999999999999999
 40
0.9999999999999999
 10
268.7907294692448
 20
171.9679643133764
 30
0.0
 10
268.8151770013499
 20
171.980905515656
 30
0.0
 10
268.8640574120722
 20
172.0067801634506
 30
0.0
 10
268.9570544323979
 20
172.0352601948662
 30
0.0
 10
269.0620062641197
 20
172.0376689651441
 30
0.0
 10
269.1415614727378
 20
171.9945263683742
 30
0.0
 10
269.1871645193281
 20
171.9376791083515
 30
0.0
 10
269.2042521243978
 20
171.9031310071283
 30
0.0
 10
269.2127983789449
 20
171.8858519989836
 30
0.0
  0
SPLINE
  5
1E2
330
1F
100
AcDbEntity
  8
0
  6
SLD-SOLID
 62
     7
100
AcDbSpline
210
0.0
220
0.0
230
1.0
 70
     8
 71
     3
 72
    16
 73
    12
 74
     0
 42
0.000000001
 43
0.00000001
 40
0.0
 40
0.0
 40
0.0
 40
0.0
 40
0.1354394901060808
 40
0.2502584014441673
 40
0.3752658126991605
 40
0.5001591743339796
 40
0.6218974034367518
 40
0.7499571229237734
 40
0.8748846055597966
 40
0.9374217603377395
 40
1.0
 40
1.0
 40
1.0
 40
1.0
 10
268.1577653721731
 20
170.894083275058
 30
0.0
 10
268.1649060950508
 20
170.9430388553693
 30
0.0
 10
268.1781003701558
 20
171.0334965591075
 30
0.0
 10
268.211382497521
 20
171.1773869643851
 30
0.0
 10
268.258437695964
 20
171.3237689093487
 30
0.0
 10
268.3305135887441
 20
171.4779933091776
 30
0.0
 10
268.4267184760017
 20
171.6288872335998
 30
0.0
 10
268.5401440672796
 20
171.7651932440185
 30
0.0
 10
268.6434145700367
 20
171.8644632510968
 30
0.0
 10
268.7275874239575
 20
171.929132835139
 30
0.0
 10
268.7696775136915
 20
171.9550176539801
 30
0.0
 10
268.7907294692448
 20
171.9679643133764
 30
0.0
  0
ARC
  5
1E3
330
1F
100
AcDbEntity
  8
0
  6
SLD-SOLID
 62
     7
100
AcDbCircle
 10
249.7933434498
 20
173.2669012591
 30
0.0
 40
18.51708016207219
100
AcDbArc
 50
350.0331271966
 51
352.6377540633
  0
LINE
  5
1E4
330
1F
100
AcDbEntity
  8
0
  6
SLD-SOLID
 62
     7
100
AcDbLine
 10
270.1522839607
 20
171.2866002674
 30
0.0
 11
268.0309636171
 21
170.0619880996
 31
0.0
  0
ARC
  5
1E5
330
1F
100
AcDbEntity
  8
0
  6
SLD-SOLID
 62
     7
100
AcDbCircle
 10
251.9128388731
 20
174.4918057115
 30
0.0
 40
18.5189281289116
100
AcDbArc
 50
350.0332137683
 51
352.6446350277
  0
SPLINE
  5
1E6
330
1F
100
AcDbEntity
  8
0
  6
SLD-SOLID
 62
     7
100
AcDbSpline
210
0.0
220
0.0
230
1.0
 70
     8
 71
     3
 72
    15
 73
    11
 74
     0
 42
0.000000001
 43
0.00000001
 40
0.0
 40
0.0
 40
0.0
 40
0.0
 40
0.0626660137184049
 40
0.1253014339097364
 40
0.2503816639133776
 40
0.3754705953053446
 40
0.5003395255217281
 40
0.7493786657958521
 40
0.8746742184793008
 40
1.0
 40
1.0
 40
1.0
 40
1.0
 10
269.762396928454
 20
172.6135552712459
 30
0.0
 10
269.785789617604
 20
172.626317284368
 30
0.0
 10
269.8325635756011
 20
172.6518350802016
 30
0.0
 10
269.9240113512915
 20
172.6892387735483
 30
0.0
 10
270.0310719436295
 20
172.70920268458
 30
0.0
 10
270.1452010497849
 20
172.6995609807294
 30
0.0
 10
270.2583338392844
 20
172.6203557269367
 30
0.0
 10
270.2961861275714
 20
172.4551507540579
 30
0.0
 10
270.2960641459341
 20
172.2697400064703
 30
0.0
 10
270.2849407545559
 20
172.1705550875311
 30
0.0
 10
270.2793783880397
 20
172.1209566464383
 30
0.0
  0
LINE
  5
1E7
330
1F
100
AcDbEntity
  8
0
  6
SLD-SOLID
 62
     7
100
AcDbLine
 10
267.0449719496
 20
182.0959782228
 30
0.0
 11
268.3897851142
 21
182.8723223378
 31
0.0
  0
ARC
  5
1E8
330
1F
100
AcDbEntity
  8
0
  6
SLD-SOLID
 62
     7
100
AcDbCircle
 10
232.7077943131
 20
172.5734514526
 30
0.0
 40
37.1385407500191
100
AcDbArc
 50
15.5940556366
 51
16.0996938392
  0
SPLINE
  5
1E9
330
1F
100
AcDbEntity
  8
0
  6
SLD-SOLID
 62
     7
100
AcDbSpline
210
0.0
220
0.0
230
1.0
 70
     8
 71
     3
 72
     8
 73
     4
 74
     0
 42
0.000000001
 43
0.00000001
 40
0.0
 40
0.0
 40
0.0
 40
0.0
 40
1.0
 40
1.0
 40
1.0
 40
1.0
 10
268.4792825249917
 20
182.5570299767971
 30
0.0
 10
268.6974064095708
 20
182.8523291864886
 30
0.0
 10
268.9145255131078
 20
183.1477626965205
 30
0.0
 10
269.1306473352278
 20
183.4433042577299
 30
0.0
  0
SPLINE
  5
1EA
330
1F
100
AcDbEntity
  8
0
  6
SLD-SOLID
 62
     7
100
AcDbSpline
210
0.0
220
0.0
230
1.0
 70
     8
 71
     3
 72
     8
 73
     4
 74
     0
 42
0.000000001
 43
0.00000001
 40
0.0
 40
0.0
 40
0.0
 40
0.0
 40
1.0
 40
1.0
 40
1.0
 40
1.0
 10
269.1306473352278
 20
183.4433042577299
 30
0.0
 10
268.8290977047229
 20
183.4400004504415
 30
0.0
 10
268.5265507929849
 20
183.436804693701
 30
0.0
 10
268.2230144582122
 20
183.4336906994956
 30
0.0
  0
ARC
  5
1EB
330
1F
100
AcDbEntity
  8
0
  6
SLD-SOLID
 62
     7
100
AcDbCircle
 10
232.0113915178
 20
172.3699202346
 30
0.0
 40
37.86408130246694
100
AcDbArc
 50
16.4903741875
 51
16.9895322914
  0
LINE
  5
1EC
330
1F
100
AcDbEntity
  8
0
  6
SLD-SOLID
 62
     7
100
AcDbLine
 10
268.3180260924
 20
183.1178008977
 30
0.0
 11
266.9732129277
 21
182.3414567827
 31
0.0
  0
ARC
  5
1ED
330
1F
100
AcDbEntity
  8
0
  6
SLD-SOLID
 62
     7
100
AcDbCircle
 10
231.010726341
 20
171.6955681837
 30
0.0
 40
37.50513812215239
100
AcDbArc
 50
16.099500193
 51
16.4902076741
  0
LINE
  5
1EE
330
1F
100
AcDbEntity
  8
0
  6
SLD-SOLID
 62
     7
100
AcDbLine
 10
253.9511510658
 20
206.6228118678
 30
0.0
 11
254.4656344724
 21
206.3031197023
 31
0.0
  0
SPLINE
  5
1EF
330
1F
100
AcDbEntity
  8
0
  6
SLD-SOLID
 62
     7
100
AcDbSpline
210
0.0
220
0.0
230
1.0
 70
     8
 71
     3
 72
    27
 73
    23
 74
     0
 42
0.000000001
 43
0.00000001
 40
0.0
 40
0.0
 40
0.0
 40
0.0
 40
0.0179281849151668
 40
0.0714245927724522
 40
0.1247568943425847
 40
0.1782622050693649
 40
0.2322744009998989
 40
0.2862693130312748
 40
0.3397661780105418
 40
0.3930990291193838
 40
0.4466049714028347
 40
0.5006178691156614
 40
0.5546135290818249
 40
0.6081111638011438
 40
0.6614447920654171
 40
0.7149515042143765
 40
0.7689651501202164
 40
0.8229615116674016
 40
0.8764597778383759
 40
0.9297939556276897
 40
0.9833011249774084
 40
1.0
 40
1.0
 40
1.0
 40
1.0
 10
254.8839262208462
 20
206.0431995704524
 30
0.0
 10
255.0394510047002
 20
205.9480902723868
 30
0.0
 10
255.6590505015455
 20
205.5691817038197
 30
0.0
 10
256.7355073822487
 20
204.7835766052309
 30
0.0
 10
258.1036264447892
 20
203.6896509608033
 30
0.0
 10
259.4507853324086
 20
202.4744255801095
 30
0.0
 10
260.770219710583
 20
201.155825033753
 30
0.0
 10
262.0495841762208
 20
199.7468849870748
 30
0.0
 10
263.2747523179997
 20
198.2600884737239
 30
0.0
 10
264.4391466605631
 20
196.7024538984027
 30
0.0
 10
265.5426406695984
 20
195.0741936828767
 30
0.0
 10
266.5796698845742
 20
193.384442529707
 30
0.0
 10
267.5418366869148
 20
191.6515766900383
 30
0.0
 10
268.4171968779514
 20
189.8919405941823
 30
0.0
 10
269.2008197401552
 20
188.1144211296784
 30
0.0
 10
269.8925626158024
 20
186.3192303826688
 30
0.0
 10
270.4894449332348
 20
184.5160019376529
 30
0.0
 10
270.9874785027644
 20
182.7231295079434
 30
0.0
 10
271.3814304978283
 20
180.9577026139342
 30
0.0
 10
271.6587958266824
 20
179.2341514838768
 30
0.0
 10
271.8107884095876
 20
177.9277320594107
 30
0.0
 10
271.8346218921611
 20
177.2170542015078
 30
0.0
 10
271.8402908107052
 20
177.0480157542268
 30
0.0
  0
LINE
  5
1F0
330
1F
100
AcDbEntity
  8
0
  6
SLD-SOLID
 62
     7
100
AcDbLine
 10
271.8526629115
 20
176.7415527479
 30
0.0
 11
271.8861999736
 21
175.9108232694
 31
0.0
  0
ARC
  5
1F1
330
1F
100
AcDbEntity
  8
0
  6
SLD-SOLID
 62
     7
100
AcDbCircle
 10
250.4814505217
 20
173.8143303097
 30
0.0
 40
18.72847892754174
100
AcDbArc
 50
351.0181255046
 51
352.4413093308
  0
SPLINE
  5
1F2
330
1F
100
AcDbEntity
  8
0
  6
SLD-SOLID
 62
     7
100
AcDbSpline
210
0.0
220
0.0
230
1.0
 70
     8
 71
     3
 72
    11
 73
     7
 74
     0
 42
0.000000001
 43
0.00000001
 40
0.0
 40
0.0
 40
0.0
 40
0.0
 40
0.5000311683832959
 40
0.7500609272078804
 40
0.8765740921436712
 40
1.0
 40
1.0
 40
1.0
 40
1.0
 10
269.0471909037158
 20
171.3507542489093
 30
0.0
 10
269.0526604233294
 20
171.3960433020279
 30
0.0
 10
269.0608648577972
 20
171.4639781655372
 30
0.0
 10
269.0629197769936
 20
171.5393656897517
 30
0.0
 10
269.0609352034417
 20
171.5802496324403
 30
0.0
 10
269.0578151457191
 20
171.5990491915929
 30
0.0
 10
269.0562743863946
 20
171.6083328647289
 30
0.0
  0
SPLINE
  5
1F3
330
1F
100
AcDbEntity
  8
0
  6
SLD-SOLID
 62
     7
100
AcDbSpline
210
0.0
220
0.0
230
1.0
 70
     8
 71
     3
 72
    13
 73
     9
 74
     0
 42
0.000000001
 43
0.00000001
 40
0.0
 40
0.0
 40
0.0
 40
0.0
 40
0.1253259270605815
 40
0.25052808099378
 40
0.4997860069566294
 40
0.7493850119673028
 40
0.8746452998853721
 40
1.0
 40
1.0
 40
1.0
 40
1.0
 10
269.0562743863946
 20
171.6083328647289
 30
0.0
 10
269.0528426004486
 20
171.6216979903709
 30
0.0
 10
269.0459824178224
 20
171.6484150421244
 30
0.0
 10
269.0203912713623
 20
171.6902277369336
 30
0.0
 10
268.9686953109947
 20
171.7192487413157
 30
0.0
 10
268.8964326032203
 20
171.7104650704382
 30
0.0
 10
268.8334479175962
 20
171.6843591901871
 30
0.0
 10
268.8011369361323
 20
171.6669513285389
 30
0.0
 10
268.7849753592704
 20
171.658244118752
 30
0.0
  0
SPLINE
  5
1F4
330
1F
100
AcDbEntity
  8
0
  6
SLD-SOLID
 62
     7
100
AcDbSpline
210
0.0
220
0.0
230
1.0
 70
     8
 71
     3
 72
    17
 73
    13
 74
     0
 42
0.000000001
 43
0.00000001
 40
0.0
 40
0.0
 40
0.0
 40
0.0
 40
0.0625772260125271
 40
0.1251218797937864
 40
0.2499730197880344
 40
0.3498773800919722
 40
0.4248322791572919
 40
0.4997937112000436
 40
0.6245551070231128
 40
0.7496814356971231
 40
0.8748345516634762
 40
1.0
 40
1.0
 40
1.0
 40
1.0
 10
268.7849753592704
 20
171.658244118752
 30
0.0
 10
268.770566365511
 20
171.6494921643161
 30
0.0
 10
268.7417558780541
 20
171.6319928109463
 30
0.0
 10
268.6839263779677
 20
171.590352731291
 30
0.0
 10
268.6182370561476
 20
171.530773466703
 30
0.0
 10
268.5554221592142
 20
171.4568346115841
 30
0.0
 10
268.509362468822
 20
171.3894108649174
 30
0.0
 10
268.4698607851071
 20
171.311865355437
 30
0.0
 10
268.4398946231489
 20
171.2221274619596
 30
0.0
 10
268.4193093975958
 20
171.1252111893465
 30
0.0
 10
268.4022904027119
 20
171.0304271852428
 30
0.0
 10
268.393945893027
 20
170.9693285835637
 30
0.0
 10
268.3897734326313
 20
170.9387777776608
 30
0.0
  0
ARC
  5
1F5
330
1F
100
AcDbEntity
  8
0
  6
SLD-SOLID
 62
     7
100
AcDbCircle
 10
249.8574835484
 20
173.4332169091
 30
0.0
 40
18.69941162001097
100
AcDbArc
 50
351.017417021
 51
352.3340830452
  0
LINE
  5
1F6
330
1F
100
AcDbEntity
  8
0
  6
SLD-SOLID
 62
     7
100
AcDbLine
 10
268.327562753
 20
170.513598936
 30
0.0
 11
268.9802767049
 21
170.8904026799
 31
0.0
  0
ARC
  5
1F7
330
1F
100
AcDbEntity
  8
0
  6
SLD-SOLID
 62
     7
100
AcDbCircle
 10
251.4044087801
 20
174.3878948445
 30
0.0
 40
18.78520854891218
100
AcDbArc
 50
351.0196627353
 51
352.6497855409
  0
SPLINE
  5
1F8
330
1F
100
AcDbEntity
  8
0
  6
SLD-SOLID
 62
     7
100
AcDbSpline
210
0.0
220
0.0
230
1.0
 70
     8
 71
     3
 72
    10
 73
     6
 74
     0
 42
0.000000001
 43
0.00000001
 40
0.0
 40
0.0
 40
0.0
 40
0.0
 40
0.400055131594816
 40
0.7001130489825935
 40
1.0
 40
1.0
 40
1.0
 40
1.0
 10
270.0352536588231
 20
171.9846305370191
 30
0.0
 10
270.0384233209509
 20
172.010393327036
 30
0.0
 10
270.0439703609492
 20
172.0554792765576
 30
0.0
 10
270.0497754854592
 20
172.1190457022031
 30
0.0
 10
270.0493141266367
 20
172.1547242210164
 30
0.0
 10
270.0490835129622
 20
172.1725583967669
 30
0.0
  0
SPLINE
  5
1F9
330
1F
100
AcDbEntity
  8
0
  6
SLD-SOLID
 62
     7
100
AcDbSpline
210
0.0
220
0.0
230
1.0
 70
     8
 71
     3
 72
    14
 73
    10
 74
     0
 42
0.000000001
 43
0.00000001
 40
0.0
 40
0.0
 40
0.0
 40
0.0
 40
0.1252091874379811
 40
0.2503702745393185
 40
0.375444311575127
 40
0.5004441034223643
 40
0.7496801817937183
 40
0.874777745997233
 40
1.0
 40
1.0
 40
1.0
 40
1.0
 10
270.0490835129622
 20
172.1725583967669
 30
0.0
 10
270.0470971354598
 20
172.1921605609747
 30
0.0
 10
270.0431251435413
 20
172.2313573590268
 30
0.0
 10
270.0269316748958
 20
172.2818464573758
 30
0.0
 10
269.9995629308552
 20
172.3211042827111
 30
0.0
 10
269.9445846724695
 20
172.3489957536061
 30
0.0
 10
269.8720173649917
 20
172.3476520769037
 30
0.0
 10
269.7909467724775
 20
172.3197149363411
 30
0.0
 10
269.7485881664714
 20
172.2967270434749
 30
0.0
 10
269.7273983135925
 20
172.2852273716546
 30
0.0
  0
SPLINE
  5
1FA
330
1F
100
AcDbEntity
  8
0
  6
SLD-SOLID
 62
     7
100
AcDbSpline
210
0.0
220
0.0
230
1.0
 70
     8
 71
     3
 72
    16
 73
    12
 74
     0
 42
0.000000001
 43
0.00000001
 40
0.0
 40
0.0
 40
0.0
 40
0.0
 40
0.0715384074325947
 40
0.1430272757149802
 40
0.2856180476659166
 40
0.3935275862752441
 40
0.4996048059802362
 40
0.6244921122071773
 40
0.7496079071922829
 40
0.874791298326722
 40
1.0
 40
1.0
 40
1.0
 40
1.0
 10
269.7273983135925
 20
172.2852273716546
 30
0.0
 10
269.7101221098019
 20
172.2747402046144
 30
0.0
 10
269.6755816657029
 20
172.2537731327216
 30
0.0
 10
269.6063461519404
 20
172.2018317237889
 30
0.0
 10
269.5301523451207
 20
172.1276367068282
 30
0.0
 10
269.4552852183014
 20
172.0310067264195
 30
0.0
 10
269.3977381812327
 20
171.9312667533732
 30
0.0
 10
269.3562556969594
 20
171.826244332285
 30
0.0
 10
269.3294237905498
 20
171.7216991062275
 30
0.0
 10
269.3095606765783
 20
171.6208171492004
 30
0.0
 10
269.3006454555946
 20
171.5563484948367
 30
0.0
 10
269.2961873945114
 20
171.5241109092924
 30
0.0
  0
ARC
  5
1FB
330
1F
100
AcDbEntity
  8
0
  6
SLD-SOLID
 62
     7
100
AcDbCircle
 10
250.7000229744
 20
173.9595427015
 30
0.0
 40
18.75496358716035
100
AcDbArc
 50
351.0188178483
 51
352.5387681227
  0
LINE
  5
1FC
330
1F
100
AcDbEntity
  8
0
  6
SLD-SOLID
 62
     7
100
AcDbLine
 10
269.2250444368
 20
171.0317040839
 30
0.0
 11
269.9593476327
 21
171.4556082958
 31
0.0
  0
OLE2FRAME
  5
1FD
330
1F
100
AcDbEntity
  8
0
100
AcDbOle2Frame
 70
     2
  3
Paintbrush Picture
 10
229.0524258301
 20
33.6996297921
 30
0.0
 11
265.1686469208
 21
28.555479607
 31
0.0
 71
     2
 72
     0
 90
     7296
310
80557333EF78ADA16C40002412788DD94040000000000000000041161DC7B292
310
7040002412788DD94040000000000000000041161DC7B2927040F6DD59E9338E
310
3C4000000000000000007333EF78ADA16C40F6DD59E9338E3C40000000000000
310
00000000000001000000000100000100000001000000000001000000001C0000
310
D0CF11E0A1B11AE1000000000000000000000000000000003E000300FEFF0900
310
0600000000000000000000000100000001000000000000000010000002000000
310
01000000FEFFFFFF0000000000000000FFFFFFFFFFFFFFFFFFFFFFFFFFFFFFFF
310
FFFFFFFFFFFFFFFFFFFFFFFFFFFFFFFFFFFFFFFFFFFFFFFFFFFFFFFFFFFFFFFF
310
FFFFFFFFFFFFFFFFFFFFFFFFFFFFFFFFFFFFFFFFFFFFFFFFFFFFFFFFFFFFFFFF
310
FFFFFFFFFFFFFFFFFFFFFFFFFFFFFFFFFFFFFFFFFFFFFFFFFFFFFFFFFFFFFFFF
310
FFFFFFFFFFFFFFFFFFFFFFFFFFFFFFFFFFFFFFFFFFFFFFFFFFFFFFFFFFFFFFFF
310
FFFFFFFFFFFFFFFFFFFFFFFFFFFFFFFFFFFFFFFFFFFFFFFFFFFFFFFFFFFFFFFF
310
FFFFFFFFFFFFFFFFFFFFFFFFFFFFFFFFFFFFFFFFFFFFFFFFFFFFFFFFFFFFFFFF
310
FFFFFFFFFFFFFFFFFFFFFFFFFFFFFFFFFFFFFFFFFFFFFFFFFFFFFFFFFFFFFFFF
310
FFFFFFFFFFFFFFFFFFFFFFFFFFFFFFFFFFFFFFFFFFFFFFFFFFFFFFFFFFFFFFFF
310
FFFFFFFFFFFFFFFFFFFFFFFFFFFFFFFFFFFFFFFFFFFFFFFFFFFFFFFFFFFFFFFF
310
FFFFFFFFFFFFFFFFFFFFFFFFFFFFFFFFFFFFFFFFFFFFFFFFFFFFFFFFFFFFFFFF
310
FFFFFFFFFFFFFFFFFFFFFFFFFFFFFFFFFFFFFFFFFFFFFFFFFFFFFFFFFFFFFFFF
310
FFFFFFFFFFFFFFFFFFFFFFFFFFFFFFFFFFFFFFFFFFFFFFFFFFFFFFFFFFFFFFFF
310
FFFFFFFFFFFFFFFFFFFFFFFFFFFFFFFFFFFFFFFFFFFFFFFFFFFFFFFFFFFFFFFF
310
FDFFFFFFFEFFFFFFFEFFFFFFFEFFFFFF05000000060000000700000008000000
310
090000000A0000000B0000000C000000FEFFFFFFFFFFFFFFFFFFFFFFFFFFFFFF
310
FFFFFFFFFFFFFFFFFFFFFFFFFFFFFFFFFFFFFFFFFFFFFFFFFFFFFFFFFFFFFFFF
310
FFFFFFFFFFFFFFFFFFFFFFFFFFFFFFFFFFFFFFFFFFFFFFFFFFFFFFFFFFFFFFFF
310
FFFFFFFFFFFFFFFFFFFFFFFFFFFFFFFFFFFFFFFFFFFFFFFFFFFFFFFFFFFFFFFF
310
FFFFFFFFFFFFFFFFFFFFFFFFFFFFFFFFFFFFFFFFFFFFFFFFFFFFFFFFFFFFFFFF
310
FFFFFFFFFFFFFFFFFFFFFFFFFFFFFFFFFFFFFFFFFFFFFFFFFFFFFFFFFFFFFFFF
310
FFFFFFFFFFFFFFFFFFFFFFFFFFFFFFFFFFFFFFFFFFFFFFFFFFFFFFFFFFFFFFFF
310
FFFFFFFFFFFFFFFFFFFFFFFFFFFFFFFFFFFFFFFFFFFFFFFFFFFFFFFFFFFFFFFF
310
FFFFFFFFFFFFFFFFFFFFFFFFFFFFFFFFFFFFFFFFFFFFFFFFFFFFFFFFFFFFFFFF
310
FFFFFFFFFFFFFFFFFFFFFFFFFFFFFFFFFFFFFFFFFFFFFFFFFFFFFFFFFFFFFFFF
310
FFFFFFFFFFFFFFFFFFFFFFFFFFFFFFFFFFFFFFFFFFFFFFFFFFFFFFFFFFFFFFFF
310
FFFFFFFFFFFFFFFFFFFFFFFFFFFFFFFFFFFFFFFFFFFFFFFFFFFFFFFFFFFFFFFF
310
FFFFFFFFFFFFFFFFFFFFFFFFFFFFFFFFFFFFFFFFFFFFFFFFFFFFFFFFFFFFFFFF
310
FFFFFFFFFFFFFFFFFFFFFFFFFFFFFFFFFFFFFFFFFFFFFFFFFFFFFFFFFFFFFFFF
310
FFFFFFFFFFFFFFFFFFFFFFFFFFFFFFFFFFFFFFFFFFFFFFFFFFFFFFFFFFFFFFFF
310
52006F006F007400200045006E00740072007900000000000000000000000000
310
0000000000000000000000000000000000000000000000000000000000000000
310
16000500FFFFFFFFFFFFFFFF020000000A00030000000000C000000000000046
310
000000000000000000000000305C5D126DC7D70103000000C000000000000000
310
01004F006C006500000000000000000000000000000000000000000000000000
310
0000000000000000000000000000000000000000000000000000000000000000
310
0A000200FFFFFFFFFFFFFFFFFFFFFFFF00000000000000000000000000000000
310
0000000000000000000000000000000000000000000000001400000000000000
310
010043006F006D0070004F0062006A0000000000000000000000000000000000
310
0000000000000000000000000000000000000000000000000000000000000000
310
120002010100000003000000FFFFFFFF00000000000000000000000000000000
310
0000000000000000000000000000000000000000010000004D00000000000000
310
01004F006C006500310030004E00610074006900760065000000000000000000
310
0000000000000000000000000000000000000000000000000000000000000000
310
1A000200FFFFFFFFFFFFFFFFFFFFFFFF00000000000000000000000000000000
310
000000000000000000000000000000000000000004000000E411000000000000
310
FEFFFFFF02000000FEFFFFFFFFFFFFFFFFFFFFFFFFFFFFFFFFFFFFFFFFFFFFFF
310
FFFFFFFFFFFFFFFFFFFFFFFFFFFFFFFFFFFFFFFFFFFFFFFFFFFFFFFFFFFFFFFF
310
FFFFFFFFFFFFFFFFFFFFFFFFFFFFFFFFFFFFFFFFFFFFFFFFFFFFFFFFFFFFFFFF
310
FFFFFFFFFFFFFFFFFFFFFFFFFFFFFFFFFFFFFFFFFFFFFFFFFFFFFFFFFFFFFFFF
310
FFFFFFFFFFFFFFFFFFFFFFFFFFFFFFFFFFFFFFFFFFFFFFFFFFFFFFFFFFFFFFFF
310
FFFFFFFFFFFFFFFFFFFFFFFFFFFFFFFFFFFFFFFFFFFFFFFFFFFFFFFFFFFFFFFF
310
FFFFFFFFFFFFFFFFFFFFFFFFFFFFFFFFFFFFFFFFFFFFFFFFFFFFFFFFFFFFFFFF
310
FFFFFFFFFFFFFFFFFFFFFFFFFFFFFFFFFFFFFFFFFFFFFFFFFFFFFFFFFFFFFFFF
310
FFFFFFFFFFFFFFFFFFFFFFFFFFFFFFFFFFFFFFFFFFFFFFFFFFFFFFFFFFFFFFFF
310
FFFFFFFFFFFFFFFFFFFFFFFFFFFFFFFFFFFFFFFFFFFFFFFFFFFFFFFFFFFFFFFF
310
FFFFFFFFFFFFFFFFFFFFFFFFFFFFFFFFFFFFFFFFFFFFFFFFFFFFFFFFFFFFFFFF
310
FFFFFFFFFFFFFFFFFFFFFFFFFFFFFFFFFFFFFFFFFFFFFFFFFFFFFFFFFFFFFFFF
310
FFFFFFFFFFFFFFFFFFFFFFFFFFFFFFFFFFFFFFFFFFFFFFFFFFFFFFFFFFFFFFFF
310
FFFFFFFFFFFFFFFFFFFFFFFFFFFFFFFFFFFFFFFFFFFFFFFFFFFFFFFFFFFFFFFF
310
FFFFFFFFFFFFFFFFFFFFFFFFFFFFFFFFFFFFFFFFFFFFFFFFFFFFFFFFFFFFFFFF
310
FFFFFFFFFFFFFFFFFFFFFFFFFFFFFFFFFFFFFFFFFFFFFFFFFFFFFFFFFFFFFFFF
310
0100000200000000000000000000000000000000000000000000000000000000
310
0000000000000000000000000000000000000000000000000000000000000000
310
0100FEFF030A0000FFFFFFFF0A00030000000000C00000000000004607000000
310
5042727573680007000000504272757368000700000050427275736800F439B2
310
7100000000000000000000000000000000000000000000000000000000000000
310
0000000000000000000000000000000000000000000000000000000000000000
310
0000000000000000000000000000000000000000000000000000000000000000
310
0000000000000000000000000000000000000000000000000000000000000000
310
0000000000000000000000000000000000000000000000000000000000000000
310
0000000000000000000000000000000000000000000000000000000000000000
310
0000000000000000000000000000000000000000000000000000000000000000
310
0000000000000000000000000000000000000000000000000000000000000000
310
0000000000000000000000000000000000000000000000000000000000000000
310
0000000000000000000000000000000000000000000000000000000000000000
310
0000000000000000000000000000000000000000000000000000000000000000
310
0000000000000000000000000000000000000000000000000000000000000000
310
E0110000424DDE11000000000000360400002800000096000000170000000100
310
08000000000000000000E7240000E72400000001000000010000000000FF0101
310
01FF020202FF030303FF040404FF050505FF060606FF070707FF080808FF0909
310
09FF0A0A0AFF0B0B0BFF0C0C0CFF0D0D0DFF0E0E0EFF0F0F0FFF101010FF1111
310
11FF121212FF131313FF141414FF151515FF161616FF171717FF181818FF1919
310
19FF1A1A1AFF1B1B1BFF1C1C1CFF1D1D1DFF1E1E1EFF1F1F1FFF202020FF2121
310
21FF222222FF232323FF242424FF252525FF262626FF272727FF282828FF2929
310
29FF2A2A2AFF2B2B2BFF2C2C2CFF2D2D2DFF2E2E2EFF2F2F2FFF303030FF3131
310
31FF323232FF333333FF343434FF353535FF363636FF373737FF383838FF3939
310
39FF3A3A3AFF3B3B3BFF3C3C3CFF3D3D3DFF3E3E3EFF3F3F3FFF404040FF4141
310
41FF424242FF434343FF444444FF454545FF464646FF474747FF484848FF4949
310
49FF4A4A4AFF4B4B4BFF4C4C4CFF4D4D4DFF4E4E4EFF4F4F4FFF505050FF5151
310
51FF525252FF535353FF545454FF555555FF565656FF575757FF585858FF5959
310
59FF5A5A5AFF5B5B5BFF5C5C5CFF5D5D5DFF5E5E5EFF5F5F5FFF606060FF6161
310
61FF626262FF636363FF646464FF656565FF666666FF676767FF686868FF6969
310
69FF6A6A6AFF6B6B6BFF6C6C6CFF6D6D6DFF6E6E6EFF6F6F6FFF707070FF7171
310
71FF727272FF737373FF747474FF757575FF767676FF777777FF787878FF7979
310
79FF7A7A7AFF7B7B7BFF7C7C7CFF7D7D7DFF7E7E7EFF7F7F7FFF808080FF8181
310
81FF828282FF838383FF848484FF858585FF868686FF878787FF888888FF8989
310
89FF8A8A8AFF8B8B8BFF8C8C8CFF8D8D8DFF8E8E8EFF8F8F8FFF909090FF9191
310
91FF929292FF939393FF949494FF959595FF969696FF979797FF989898FF9999
310
99FF9A9A9AFF9B9B9BFF9C9C9CFF9D9D9DFF9E9E9EFF9F9F9FFFA0A0A0FFA1A1
310
A1FFA2A2A2FFA3A3A3FFA4A4A4FFA5A5A5FFA6A6A6FFA7A7A7FFA8A8A8FFA9A9
310
A9FFAAAAAAFFABABABFFACACACFFADADADFFAEAEAEFFAFAFAFFFB0B0B0FFB1B1
310
B1FFB2B2B2FFB3B3B3FFB4B4B4FFB5B5B5FFB6B6B6FFB7B7B7FFB8B8B8FFB9B9
310
B9FFBABABAFFBBBBBBFFBCBCBCFFBDBDBDFFBEBEBEFFBFBFBFFFC0C0C0FFC1C1
310
C1FFC2C2C2FFC3C3C3FFC4C4C4FFC5C5C5FFC6C6C6FFC7C7C7FFC8C8C8FFC9C9
310
C9FFCACACAFFCBCBCBFFCCCCCCFFCDCDCDFFCECECEFFCFCFCFFFD0D0D0FFD1D1
310
D1FFD2D2D2FFD3D3D3FFD4D4D4FFD5D5D5FFD6D6D6FFD7D7D7FFD8D8D8FFD9D9
310
D9FFDADADAFFDBDBDBFFDCDCDCFFDDDDDDFFDEDEDEFFDFDFDFFFE0E0E0FFE1E1
310
E1FFE2E2E2FFE3E3E3FFE4E4E4FFE5E5E5FFE6E6E6FFE7E7E7FFE8E8E8FFE9E9
310
E9FFEAEAEAFFEBEBEBFFECECECFFEDEDEDFFEEEEEEFFEFEFEFFFF0F0F0FFF1F1
310
F1FFF2F2F2FFF3F3F3FFF4F4F4FFF5F5F5FFF6F6F6FFF7F7F7FFF8F8F8FFF9F9
310
F9FFFAFAFAFFFBFBFBFFFCFCFCFFFDFDFDFFFEFEFEFFFFFFFFFFFFFFFFFFFFFF
310
C94E4E4E4F4E4EFFFFFFFFFFC94E4E4E4E4E72FFFFFFFFFFFFFF734E4D4E4E4E
310
C9FFFFFFFFFFAA683516171616265B9BE9FFFFFFFFFF4E4E4E4D4E4EFFFFFFFF
310
FFFFFFFF4E4E4F4E4D4E4E4E4F4E4E4F4D4E4E4E4E4E4D4E4F4E4D4E4E4EAAFF
310
FFFFFFFFFFEA4E4F4F4E4E4E4E4E4D4D4F4F4E4E4E4E4E5B7FAAFFFFFFFFFFFF
310
C9744E1716171616164D8DEAFFFFFFFF0000FFFFFFFFFFFFBA161617161716FF
310
FFFFFFFFB917171616174FFFFFFFFFFFFFFF4E1716161616B9FFFFFFB9341717
310
1716171617171616268CFFFFFFFF161617161617FFFFFFFFFFFFFFB917161717
310
1617167F807F7F7F7F7F7F807F7F807F7F807F7F7F414EFFFFFFFFFFFF8C167F
310
7F807F7F7F7E7F7F807F807F7F807F4E3417258EFFFFEA4E162674AABAEAEBBA
310
AA74341680FFFFFF0000FFFFFFFFFFFFB9171717171617FFFFFFFFFFBB161616
310
16164EFFFFFFFFFFFFFF4E1717171717B9FFFF9C171617171716161616171616
310
171766FFFFFF161717161617FFFFFFFFFFFFFF8E16171717161616FFFFFFFFFF
310
FFFFFFFFFFFFFFFFFFFFFFFFFFAA16D9FFFFFFFFFF3467FFFFFFFFEAFFFFFFFF
310
FFFFFFFFFFFFFFFFFFCA671667EB26278DFFFFFFFFFFFFFFFFFFFF8C2541EAFF
310
0000FFFFFFFFFFFFB9171717171716FFFFFFFFFFBA16171617174EFFFFFFFFFF
310
FFFF4E1717161616BAFF9B1617161616171716171617161616161667FFFF1616
310
16161716FFFFFFFFFFFFFF7F16161617174017FFFFFFFFFFFFFFFFFFFFFFFFFF
310
FFFFFFFFFFFF344E7F7F7F7E7417DAFFFFFFFF80FFFFFFFFFFFFFFFFFFFFFFFF
310
FFFFFF9B163425CAFFFFFFFFFFFFFFFFFFFFFFFFCA2667FF0000FFFFFFFFFFFF
310
BA171717171617FFFFFFFFFFB916171716164EFFFFFFFFFFFFFF4F1716161717
310
B9C91716171616161716161617171616161617168DFF161716161717FFFFFFFF
310
FFFFFF7F17171716164F16FFFFFFFFFFFFFFFFFFFFFFFFFFFFFFFFFFFFFF9B16
310
17161617174EFFFFFFFFFF34FFFFFFFFD9BABABABABADAFFFFFFFFFF7F16AAFF
310
FFFFFFFFFFFFFFFFFFFFFFFFFF9C16BA0000FFFFFFFFFFFFB9161717161717FF
310
FFFFFFFFB917161716174DFFFFFFFFFFFFFF4E1616161616BA4E161617171716
310
419BEAEAAA4E16161617161726E9171717161616FFFFFFFFFFFFFF4F16161717
310
164E16FFFFFFFFFFBAB9B9B9B9B9BABABACAFFFFFFFFFFFFFFFFFFFFFFFFFFFF
310
FFFFBA16FFFFFFFF7F1617161617174DEAFFFFFFEA41FFFFFFFFFFAA4D16174E
310
9BFFFFFFFFFF34730000FFFFFFFFFFFFB9161617171617FFFFFFFFFFBA161616
310
16164EFFFFFFFFFFFFFF4F16161717169B1617161716175BFFFFFFFFFFFF7417
310
16171616168D171717161617FFFFFFFFFFFFEA2616171717167416FFFFFFFFFF
310
16171616171717171717EAFFFFFFFFFFFFFFFFFFFFFFFFFFFFFF6716FFFFFFFF
310
7F4EFFFFFFFFBA2573FFFFFFFFBAFFFFFFFFAA167FB9BB9B269BFFFFFFFF664F
310
0000FFFFFFFFFFFFB9171616161616FFFFFFFFFFBA16161717164EFFFFFFFFFF
310
FFFF4E16161616174E161617171626EAFFFFFFFFFFFFFF4E16161616164E1716
310
16161617FFFFFFFFFFFF671616161716347F16FFFFFFFFFF16B9FFFFFFFFFFFF
310
D9168DFFFFFFFFFFFFFFFFFFFFFFFFFFFFEA1716FFFFFFFF7F4EFFFFFFFFFF7F
310
4EFFFFFFFFFFFFFFFFFF5B66FFFFFFEA347FFFFFFFFF7F4D0000FFFFFFFFFFFF
310
B9171616171617FFFFFFFFFFBA17161716174EFFFFFFFFFFFFFF4D1716161617
310
17161716161673FFFFFFFFFFFFFFFF9B1617161717161616171616174F4E4E4E
310
4E341616171616167E7F16FFFFFFFFFF16BAFFFFFFFFFFFFFF5B41FFFFFFFF34
310
1616171616BAFFFFFF9B1716FFFFFFFF7F4EFFFFFFFFFF4E4EFFFFFFFF734E4E
310
4E4E267EDA9B67164EEAFFFFFFFF744D0000FFFFFFFFFFFFBA171717161617FF
310
FFFFFFFFBA1616171616347F7F7F7F80807F331616161717161717161716B9FF
310
FFFFFFFFFFFFFFE9161616161616171716161716171616161616171616171734
310
EA7F16FFFFFFFFFF16BAFFFFFFFFFFFFFFAA17C9FFFFFF7326BABA5B25FFFFFF
310
FF401716FFFFFFFF7F264F4E4E4E4217AAFFFFFFEA16677F73261616164173CA
310
FFFFFFFFFFFF417F0000FFFFFFFFFFFFBA171616171617FFFFFFFFFFBA161616
310
17171616161616161616161717161616161616161617EAFFFFFFFFFFFFFFFFFF
310
261717161716161617161616161617161617161616174EEAFF8016FFFFFFFFFF
310
17BAFFFFFFFFFFFFFFFF3467FFFFFFC916C9FF3467FFFFFFDA166716FFFFFFFF
310
9C4D4E4E4E4E67AAFFFFFFFF6834FF7F262567AAEAFFFFFFFFFFFFFFFF9B17D9
310
0000FFFFFFFFFFFFB9161616161616FFFFFFFFFFBA1617161717171616161616
310
1716171716161716161617171716FFFFFFFFFFFFFFFFFFFF4E17161716171616
310
1617171616161716171717161616169BFF7F17FFFFFFFFFF17B9FFFFFFFFFFFF
310
FFFF7326FFFFFFFF3473DA16AAFFFFFF7317AA16FFFFFFFFFFFFFFFFFFFFFFFF
310
FFFFEA6725BA4E167FEAFFFFFFFFFFFFFFFFFFFF9C167FFF0000FFFFFFFFFFFF
310
B9161717171716FFFFFFFFFFBA16161716171616171717161617161716161616
310
171617171617EAFFFFFFFFFFFFFFFFFF26161717161616161616161617171616
310
1616161616171616AA8016FFFFFFFFFF16BAFFFFFFFFFFFFFFFFDA179BFFFFFF
310
74348D26FFFFFFFF2566B917FFFFFFFFD8BAB9BAB9BADAFFFFEA41169B7425C9
310
FFFFFFFFFFFFFFFFFFFFAB4F1680FFFF0000FFFFFFFFFFFFBA161717171617FF
310
FFFFFFFFBA17161717161617171617161616161617171616171716171617BBFF
310
FFFFFFFFFFFFFFE9171616161617161617161716FFFFFFFFFFD9671616161617
310
348017FFFFFFFFFF16BAFFFFFFFFFFFFFFFFFF4E5AFFFFFFC916265AFFFFFFAA
310
16AABA16FFFFFFFF7F1617161616179BFFFFEB4127168DFFFFFFFFFFFFFFD99B
310
6734175AC9FFFFFF0000FFFFFFFFFFFFB9161617171617FFFFFFFFFFBB161616
310
1616347F807F7F7F7F8033171716171617171616161672FFFFFFFFFFFFFFFF9C
310
171617171617161716161617FFFFFFFFFFFFFF4117161616174E17FFFFFFFFFF
310
16BAFFFFFFFFFFFFFFFFFF9B16DAFFFFFF34169BFFFFFF5A26FFB917FFFFFFFF
310
7F4EFFFFFFEA5B26FFFFFFEA2616EAFFFFFFFFDA743416331617414E4E4E4ECA
310
0000FFFFFFFFFFFFBA161716161616FFFFFFFFFFBA17171616164EFFFFFFFFFF
310
FFFF4E16161717174E161717171626EBFFFFFFFFFFFFFF4E16161617165B1616
310
16171617FFFFFFFFFFFFFF6716161616161617FFFFFFFFFF16BAFFFFFFFFFFFF
310
FFFFFFEA268CFFFFFF7316EAFFFFEB1774FFB916FFFFFFFF7F4EFFFFFFFF7316
310
FFFFFFFF6826FFFFFFFFEB264D9CEABA257F807F7F6616BA0000FFFFFFFFFFFF
310
BA161716161616FFFFFFFFFFBA16171616164DFFFFFFFFFFFFFF4E1617161617
310
9B1617171717165BEBFFFFFFFFFF671616161617179B171616161616FFFFFFFF
310
FFFFFF3417161617171617FFFFFFFFFF17BAFFFFFFFFFFFFFFFFFFFF6734FFFF
310
FFEBCAFFFFFF8D17C9FFBA17FFFFFFFF7F357F808066174FFFFFFFFF7F16FFFF
310
FFFFD91673B99B415BFFFFFFFFBA16DA00009B7F7F7F807F671617161616167F
310
80807F7E6617161616164EFFFFFFFFFFFFFF4E1616161617B94E171716161616
310
349BC9D9AA4E16171616161634FF161617161717B9B9BAB9BA9B411716171716
310
163416FFFFFFFFFF16B9FFFFFFFFFFFFFFFFFFFFC917CAFFFFFFFFFFFFFF3342
310
FFFFBA17FFFFFFFF9B4E4E4F4E4E66EAFFFFFFFF5B16C9FFFFFFFFAA4E164E73
310
EAFFFFFFFF8D26FF00004E161716161616171617171616171717171617161616
310
17174EFFFFFFFFFFFFFF4E1717171616B9D92616171716171716171717171716
310
16171716AAFF161717171617161617171616161617161716166717FFFFFFFFFF
310
17B9FFFFFFFFFFFFFFFFFFFFFF3467FFFFFFFFFFFFCA168CFFFFBB17FFFFFFFF
310
FFFFFFFFFFFFFFFFFFFFFFEA26265BFFFFFFFFFFFFFFFFFFFFFFFFFFEA3467FF
310
00004D16161616161617161717161617161616171617171616164EFFFFFFFFFF
310
FFFF4D1617161616BAFF9B1616161616161716161616171717161766FFFF1616
310
16171617161617161716171616171717667F16FFFFFFFFFF17BAFFFFFFFFFFFF
310
FFFFFFFFFF8C26EAFFFFFFFFFF6617EAFFFFBA17FFFFFFFFFFFFFFFFFFFFFFFF
310
FFFFEA5A25BA269BFFFFFFFFFFFFFFFFFFFFFFFF6616DAFF00004E1616171616
310
1616161616161716161617171616171616174EFFFFFFFFFFFFFF4D1717171716
310
B9FFFF9C161616161616161716161717171667FFFFFF17161717171716161617
310
1716161616161641E97E16FFFFFFFFFF16B9FFFFFFFFFFFFFFFFFFFFFFEA169B
310
FFFFFFFFEA265BFFFFFFB916FFFFFFFFFFFFFFFFFFFFFFFFFF9B3416AAFF9B17
310
67EAFFFFFFFFFFFFFFFFEA5B169BFFFF00004D17161716161616161717171616
310
161717161716171716174EFFFFFFFFFFFFFF4D1616161616BAFFFFFFBB411616
310
161716161616171634ABFFFFFFFF161716161617171716171617171617267FFF
310
FF7F164E4E4E4E4F17BAFFFFFFFFFFFFFFFFFFFFFFFF66344D4E4E4F4117AAFF
310
FFFFBA174E4E4E4D4E4D4D4E4E4E4E4116174EBBFFFFFFCA342666ABEAFFFFEA
310
AA6725269CFFFFFF0000724F4E4D4D4D4E4D4D4E4E4E4D4E4E4E4E4E4E4E4E4D
310
4E4E74FFFFFFFFFFFFFF734E4E4E4D4ECAFFFFFFFFFFAA663416171717265B9B
310
FFFFFFFFFFFF7F8080807F80807F7F7F7F7F807FBAFFFFFFFF9B4E4E4F4D4D4E
310
4DC9FFFFFFFFFFFFFFFFFFFFFFFFBA4E4E4E4E4D4E4EFFFFFFFFC94E4E4E4F4E
310
4E4E4D4E4E5A807F9CD9FFFFFFFFFFFFFF9B5B2617171716174E8DEAFFFFFFFF
310
0000000000000000000000000000000000000000000000000000000000000000
  1
OLE
  0
ENDSEC
  0
SECTION
  2
OBJECTS
  0
DICTIONARY
  5
C
330
0
100
AcDbDictionary
  3
ACAD_GROUP
350
D
  3
ACAD_MLINESTYLE
350
17
  3
ACAD_SCALELIST
350
47
1001
ACAD
1000
TREAT_AS_HARD
1070
     0
  0
DICTIONARY
  5
D
102
{ACAD_REACTORS
330
C
102
}
330
C
100
AcDbDictionary
1001
ACAD
1000
TREAT_AS_HARD
1070
     0
  0
DICTIONARY
  5
17
102
{ACAD_REACTORS
330
C
102
}
330
C
100
AcDbDictionary
  3
STANDARD
350
18
1001
ACAD
1000
TREAT_AS_HARD
1070
     0
  0
DICTIONARY
  5
47
102
{ACAD_REACTORS
330
C
102
}
330
C
100
AcDbDictionary
1001
ACAD
1000
TREAT_AS_HARD
1070
     0
  0
MLINESTYLE
  5
18
102
{ACAD_REACTORS
330
17
102
}
330
17
100
AcDbMlineStyle
  2
Standard
 70
     0
  3

 62
   256
 51
90.0
 52
90.0
 71
     2
 49
0.5
 62
   256
  6
BYLAYER
 49
-0.5
 62
   256
  6
BYLAYER
  0
ENDSEC
  0
EOF
