  0
SECTION
  2
HEADER
  9
$ACADVER
  1
AC1015
  9
$ACADMAINTVER
 70
     6
  9
$DWGCODEPAGE
  3
ANSI_1252
  9
$INSBASE
 10
0.0
 20
0.0
 30
0.0
  9
$EXTMIN
 10
0.0
 20
0.0
 30
0.0
  9
$EXTMAX
 10
279.4
 20
215.9
 30
0.0
  9
$LIMMIN
 10
0.0
 20
0.0
  9
$LIMMAX
 10
279.4
 20
215.9
  9
$ORTHOMODE
 70
     0
  9
$REGENMODE
 70
     1
  9
$FILLMODE
 70
     1
  9
$QTEXTMODE
 70
     0
  9
$MIRRTEXT
 70
     1
  9
$LTSCALE
 40
1.0
  9
$ATTMODE
 70
     1
  9
$TEXTSIZE
 40
2.8222222222
  9
$TRACEWID
 40
1.0
  9
$TEXTSTYLE
  7
Standard
  9
$CLAYER
  8
0
  9
$CELTYPE
  6
ByLayer
  9
$CECOLOR
 62
   256
  9
$CELTSCALE
 40
1.0
  9
$DISPSILH
 70
     0
  9
$DIMSCALE
 40
1.0
  9
$DIMASZ
 40
3.175
  9
$DIMEXO
 40
1.27
  9
$DIMDLI
 40
3.75
  9
$DIMRND
 40
0.0
  9
$DIMDLE
 40
0.0
  9
$DIMEXE
 40
1.778
  9
$DIMTP
 40
0.0
  9
$DIMTM
 40
0.0
  9
$DIMTXT
 40
2.8222222222
  9
$DIMCEN
 40
2.5
  9
$DIMTSZ
 40
0.0
  9
$DIMTOL
 70
     0
  9
$DIMLIM
 70
     0
  9
$DIMTIH
 70
     1
  9
$DIMTOH
 70
     1
  9
$DIMSE1
 70
     0
  9
$DIMSE2
 70
     0
  9
$DIMTAD
 70
     0
  9
$DIMZIN
 70
     1
  9
$DIMBLK
  1

  9
$DIMASO
 70
     1
  9
$DIMSHO
 70
     1
  9
$DIMPOST
  1

  9
$DIMAPOST
  1

  9
$DIMALT
 70
     0
  9
$DIMALTD
 70
     3
  9
$DIMALTF
 40
0.0393700787
  9
$DIMLFAC
 40
1.0
  9
$DIMTOFL
 70
     1
  9
$DIMTVP
 40
0.0
  9
$DIMTIX
 70
     0
  9
$DIMSOXD
 70
     0
  9
$DIMSAH
 70
     0
  9
$DIMBLK1
  1

  9
$DIMBLK2
  1

  9
$DIMSTYLE
  2
ISO-25
  9
$DIMCLRD
 70
     0
  9
$DIMCLRE
 70
     0
  9
$DIMCLRT
 70
     0
  9
$DIMTFAC
 40
1.0
  9
$DIMGAP
 40
2.54
  9
$DIMJUST
 70
     0
  9
$DIMSD1
 70
     0
  9
$DIMSD2
 70
     0
  9
$DIMTOLJ
 70
     0
  9
$DIMTZIN
 70
     1
  9
$DIMALTZ
 70
     0
  9
$DIMALTTZ
 70
     0
  9
$DIMUPT
 70
     0
  9
$DIMDEC
 70
     1
  9
$DIMTDEC
 70
     1
  9
$DIMALTU
 70
     2
  9
$DIMALTTD
 70
     3
  9
$DIMTXSTY
  7
Standard
  9
$DIMAUNIT
 70
     0
  9
$DIMADEC
 70
     0
  9
$DIMALTRND
 40
0.0
  9
$DIMAZIN
 70
     0
  9
$DIMDSEP
 70
    44
  9
$DIMATFIT
 70
     3
  9
$DIMFRAC
 70
     0
  9
$DIMLDRBLK
  1

  9
$DIMLUNIT
 70
     2
  9
$DIMLWD
 70
    -2
  9
$DIMLWE
 70
    -2
  9
$DIMTMOVE
 70
     0
  9
$LUNITS
 70
     2
  9
$LUPREC
 70
     1
  9
$SKETCHINC
 40
1.0
  9
$FILLETRAD
 40
10.0
  9
$AUNITS
 70
     0
  9
$AUPREC
 70
     0
  9
$MENU
  1
.
  9
$ELEVATION
 40
0.0
  9
$PELEVATION
 40
0.0
  9
$THICKNESS
 40
0.0
  9
$LIMCHECK
 70
     0
  9
$CHAMFERA
 40
10.0
  9
$CHAMFERB
 40
10.0
  9
$CHAMFERC
 40
20.0
  9
$CHAMFERD
 40
0.0
  9
$SKPOLY
 70
     0
  9
$TDCREATE
 40
2456715.452288553
  9
$TDUCREATE
 40
2456715.660621887
  9
$TDUPDATE
 40
2456715.452290613
  9
$TDUUPDATE
 40
2456715.660623947
  9
$TDINDWG
 40
0.0000000116
  9
$TDUSRTIMER
 40
0.0000000116
  9
$USRTIMER
 70
     1
  9
$ANGBASE
 50
0.0
  9
$ANGDIR
 70
     0
  9
$PDMODE
 70
     0
  9
$PDSIZE
 40
-1.0
  9
$PLINEWID
 40
0.0
  9
$SPLFRAME
 70
     0
  9
$SPLINETYPE
 70
     6
  9
$SPLINESEGS
 70
     8
  9
$HANDSEED
  5
1D6
  9
$SURFTAB1
 70
     6
  9
$SURFTAB2
 70
     6
  9
$SURFTYPE
 70
     6
  9
$SURFU
 70
     6
  9
$SURFV
 70
     6
  9
$UCSBASE
  2

  9
$UCSNAME
  2

  9
$UCSORG
 10
0.0
 20
0.0
 30
0.0
  9
$UCSXDIR
 10
1.0
 20
0.0
 30
0.0
  9
$UCSYDIR
 10
0.0
 20
1.0
 30
0.0
  9
$UCSORTHOREF
  2

  9
$UCSORTHOVIEW
 70
     0
  9
$UCSORGTOP
 10
0.0
 20
0.0
 30
0.0
  9
$UCSORGBOTTOM
 10
0.0
 20
0.0
 30
0.0
  9
$UCSORGLEFT
 10
0.0
 20
0.0
 30
0.0
  9
$UCSORGRIGHT
 10
0.0
 20
0.0
 30
0.0
  9
$UCSORGFRONT
 10
0.0
 20
0.0
 30
0.0
  9
$UCSORGBACK
 10
0.0
 20
0.0
 30
0.0
  9
$PUCSBASE
  2

  9
$PUCSNAME
  2

  9
$PUCSORG
 10
0.0
 20
0.0
 30
0.0
  9
$PUCSXDIR
 10
1.0
 20
0.0
 30
0.0
  9
$PUCSYDIR
 10
0.0
 20
1.0
 30
0.0
  9
$PUCSORTHOREF
  2

  9
$PUCSORTHOVIEW
 70
     0
  9
$PUCSORGTOP
 10
0.0
 20
0.0
 30
0.0
  9
$PUCSORGBOTTOM
 10
0.0
 20
0.0
 30
0.0
  9
$PUCSORGLEFT
 10
0.0
 20
0.0
 30
0.0
  9
$PUCSORGRIGHT
 10
0.0
 20
0.0
 30
0.0
  9
$PUCSORGFRONT
 10
0.0
 20
0.0
 30
0.0
  9
$PUCSORGBACK
 10
0.0
 20
0.0
 30
0.0
  9
$USERI1
 70
     0
  9
$USERI2
 70
     0
  9
$USERI3
 70
     0
  9
$USERI4
 70
     0
  9
$USERI5
 70
     0
  9
$USERR1
 40
0.0
  9
$USERR2
 40
0.0
  9
$USERR3
 40
0.0
  9
$USERR4
 40
0.0
  9
$USERR5
 40
0.0
  9
$WORLDVIEW
 70
     1
  9
$SHADEDGE
 70
     3
  9
$SHADEDIF
 70
    70
  9
$TILEMODE
 70
     1
  9
$MAXACTVP
 70
    64
  9
$PINSBASE
 10
0.0
 20
0.0
 30
0.0
  9
$PLIMCHECK
 70
     0
  9
$PEXTMIN
 10
1.0000000000E+20
 20
1.0000000000E+20
 30
1.0000000000E+20
  9
$PEXTMAX
 10
-1.0000000000E+20
 20
-1.0000000000E+20
 30
-1.0000000000E+20
  9
$PLIMMIN
 10
0.0
 20
0.0
  9
$PLIMMAX
 10
420.0
 20
297.0
  9
$UNITMODE
 70
     0
  9
$VISRETAIN
 70
     1
  9
$PLINEGEN
 70
     0
  9
$PSLTSCALE
 70
     1
  9
$TREEDEPTH
 70
  3020
  9
$CMLSTYLE
  2
Standard
  9
$CMLJUST
 70
     0
  9
$CMLSCALE
 40
20.0
  9
$PROXYGRAPHICS
 70
     1
  9
$MEASUREMENT
 70
     1
  9
$CELWEIGHT
370
    -1
  9
$ENDCAPS
280
     0
  9
$JOINSTYLE
280
     0
  9
$LWDISPLAY
290
     1
  9
$INSUNITS
 70
     4
  9
$HYPERLINKBASE
  1

  9
$STYLESHEET
  1

  9
$XEDIT
290
     1
  9
$CEPSNTYPE
380
     0
  9
$PSTYLEMODE
290
     1
  9
$FINGERPRINTGUID
  2
{7A867E8B-28FF-4CBC-9DBB-ACF5A78BF831}
  9
$VERSIONGUID
  2
{FAEB1C32-E019-11D5-929B-00C0DF256EC4}
  9
$EXTNAMES
290
     1
  9
$PSVPSCALE
 40
0.0
  9
$OLESTARTUP
290
     0
  0
ENDSEC
  0
SECTION
  2
CLASSES
  0
CLASS
  1
ACDBDICTIONARYWDFLT
  2
AcDbDictionaryWithDefault
  3
ObjectDBX Classes
 90
        0
280
     0
281
     0
  0
CLASS
  1
VISUALSTYLE
  2
AcDbVisualStyle
  3
ObjectDBX Classes
 90
     4095
280
     0
281
     0
  0
CLASS
  1
MATERIAL
  2
AcDbMaterial
  3
ObjectDBX Classes
 90
     1153
280
     0
281
     0
  0
CLASS
  1
ACDBPLACEHOLDER
  2
AcDbPlaceHolder
  3
ObjectDBX Classes
 90
        0
280
     0
281
     0
  0
CLASS
  1
LAYOUT
  2
AcDbLayout
  3
ObjectDBX Classes
 90
        0
280
     0
281
     0
  0
ENDSEC
  0
SECTION
  2
TABLES
  0
TABLE
  2
VPORT
  5
8
330
0
100
AcDbSymbolTable
 70
     1
  0
VPORT
  5
29
330
8
100
AcDbSymbolTableRecord
100
AcDbViewportTableRecord
  2
*Active
 70
     0
 10
0.0
 20
0.0
 11
1.0
 21
1.0
 12
139.7
 22
107.95
 13
0.0
 23
0.0
 14
10.0
 24
10.0
 15
10.0
 25
10.0
 16
0.0
 26
0.0
 36
1.0
 17
0.0
 27
0.0
 37
0.0
 40
215.9
 41
1.2941176471
 42
50.0
 43
0.0
 44
0.0
 50
0.0
 51
0.0
 71
     0
 72
  2000
 73
     1
 74
     3
 75
     0
 76
     0
 77
     0
 78
     0
281
     0
 65
     1
110
0.0
120
0.0
130
0.0
111
1.0
121
0.0
131
0.0
112
0.0
122
1.0
132
0.0
 79
     0
146
0.0
  0
ENDTAB
  0
TABLE
  2
LTYPE
  5
5
330
0
100
AcDbSymbolTable
 70
     6
  0
LTYPE
  5
14
330
5
100
AcDbSymbolTableRecord
100
AcDbLinetypeTableRecord
  2
ByBlock
 70
     0
  3

 72
    65
 73
     0
 40
0.0
  0
LTYPE
  5
15
330
5
100
AcDbSymbolTableRecord
100
AcDbLinetypeTableRecord
  2
ByLayer
 70
     0
  3

 72
    65
 73
     0
 40
0.0
  0
LTYPE
  5
16
330
5
100
AcDbSymbolTableRecord
100
AcDbLinetypeTableRecord
  2
Continuous
 70
     0
  3
Solid line
 72
    65
 73
     0
 40
0.0
  0
LTYPE
  5
3F
330
5
100
AcDbSymbolTableRecord
100
AcDbLinetypeTableRecord
  2
HIDDEN
 70
     0
  3
Hidden __ __ __ __ __ __ __ __ __ __ __ __ __ __
 72
    65
 73
     2
 40
1.905
 49
1.27
 74
     0
 49
-0.635
 74
     0
  0
LTYPE
  5
40
330
5
100
AcDbSymbolTableRecord
100
AcDbLinetypeTableRecord
  2
PHANTOM
 70
     0
  3
Phantom ______  __  __  ______  __  __  ______
 72
    65
 73
     6
 40
12.7
 49
6.35
 74
     0
 49
-1.27
 74
     0
 49
1.27
 74
     0
 49
-1.27
 74
     0
 49
1.27
 74
     0
 49
-1.27
 74
     0
  0
LTYPE
  5
41
330
5
100
AcDbSymbolTableRecord
100
AcDbLinetypeTableRecord
  2
CENTER
 70
     0
  3
Center ____ _ ____ _ ____ _ ____ _ ____ _ ____
 72
    65
 73
     4
 40
10.16
 49
6.35
 74
     0
 49
-1.27
 74
     0
 49
1.27
 74
     0
 49
-1.27
 74
     0
  0
LTYPE
  5
42
330
5
100
AcDbSymbolTableRecord
100
AcDbLinetypeTableRecord
  2
CENTERX2
 70
     0
  3
Center (2x) ________  __  ________  __  _____
 72
    65
 73
     4
 40
20.32
 49
12.7
 74
     0
 49
-2.54
 74
     0
 49
2.54
 74
     0
 49
-2.54
 74
     0
  0
LTYPE
  5
43
330
5
100
AcDbSymbolTableRecord
100
AcDbLinetypeTableRecord
  2
DOT2
 70
     0
  3
Dot (.5x) ........................................
 72
    65
 73
     2
 40
0.635
 49
0.0
 74
     0
 49
-0.635
 74
     0
  0
ENDTAB
  0
TABLE
  2
LAYER
  5
2
330
0
100
AcDbSymbolTable
 70
     2
  0
LAYER
  5
10
330
2
100
AcDbSymbolTableRecord
100
AcDbLayerTableRecord
  2
0
 70
     0
 62
     7
  6
Continuous
370
    -3
390
F
  0
LAYER
  5
44
330
2
100
AcDbSymbolTableRecord
100
AcDbLayerTableRecord
  2
FORMAT
 70
     0
 62
     7
  6
Continuous
370
    -3
390
F
  0
ENDTAB
  0
TABLE
  2
STYLE
  5
3
330
0
100
AcDbSymbolTable
 70
     5
  0
STYLE
  5
11
330
3
100
AcDbSymbolTableRecord
100
AcDbTextStyleTableRecord
  2
Standard
 70
     0
 40
0.0
 41
1.0
 50
0.0
 71
     0
 42
2.8222222222
  3
txt
  4

  0
STYLE
  5
6E
330
3
100
AcDbSymbolTableRecord
100
AcDbTextStyleTableRecord
  2
SLDTEXTSTYLE0
 70
     0
 40
0.0
 41
0.75
 50
0.0
 71
     0
 42
0.2
  3
TXT
  4

  0
STYLE
  5
70
330
3
100
AcDbSymbolTableRecord
100
AcDbTextStyleTableRecord
  2
SLDTEXTSTYLE1
 70
     0
 40
0.0
 41
0.75
 50
0.0
 71
     0
 42
0.2
  3
TXT
  4
bigfont
  0
STYLE
  5
74
330
3
100
AcDbSymbolTableRecord
100
AcDbTextStyleTableRecord
  2
SLDTEXTSTYLE2
 70
     0
 40
0.0
 41
0.7
 50
0.0
 71
     0
 42
0.2
  3
TXT
  4

  0
STYLE
  5
91
330
3
100
AcDbSymbolTableRecord
100
AcDbTextStyleTableRecord
  2
SLDTEXTSTYLE3
 70
     0
 40
0.0
 41
0.6
 50
0.0
 71
     0
 42
0.2
  3
TXT
  4

  0
ENDTAB
  0
TABLE
  2
VIEW
  5
6
330
0
100
AcDbSymbolTable
 70
     0
  0
ENDTAB
  0
TABLE
  2
UCS
  5
7
330
0
100
AcDbSymbolTable
 70
     0
  0
ENDTAB
  0
TABLE
  2
APPID
  5
9
330
0
100
AcDbSymbolTable
 70
     1
  0
APPID
  5
12
330
9
100
AcDbSymbolTableRecord
100
AcDbRegAppTableRecord
  2
ACAD
 70
     0
  0
ENDTAB
  0
TABLE
  2
DIMSTYLE
  5
A
330
0
100
AcDbSymbolTable
 70
     4
100
AcDbDimStyleTable
  0
DIMSTYLE
105
27
330
A
100
AcDbSymbolTableRecord
100
AcDbDimStyleTableRecord
  2
ISO-25
 70
     0
 41
2.5
 42
0.625
 43
3.75
 44
1.25
 73
     0
 74
     0
 77
     1
 78
     8
140
2.5
141
2.5
143
0.0393700787
147
0.625
171
     3
172
     1
178
     0
271
     2
272
     2
274
     3
278
    44
283
     0
284
     8
340
11
  0
DIMSTYLE
105
12E
102
{ACAD_REACTORS
330
12D
102
}
330
A
100
AcDbSymbolTableRecord
100
AcDbDimStyleTableRecord
  2
SLDDIMSTYLE0
 70
     0
 41
3.175
 44
0.0
 45
0.000000001
 78
    12
 79
     3
140
2.1166666667
141
0.0
143
0.0393700787
147
0.5291666667
148
0.000000001
170
     1
173
     1
178
     0
271
     1
272
     1
276
     2
284
    12
340
6E
  0
DIMSTYLE
105
1B7
102
{ACAD_REACTORS
330
1B6
102
}
330
A
100
AcDbSymbolTableRecord
100
AcDbDimStyleTableRecord
  2
SLDDIMSTYLE1
 70
     0
 41
3.175
 44
0.0
 45
0.000000001
 78
     4
 79
     1
140
2.1166666667
143
0.0393700787
147
0.5291666667
148
0.000000001
170
     1
172
     1
173
     1
178
     0
271
     1
272
     1
276
     2
284
    12
289
     0
340
6E
  0
DIMSTYLE
105
1CC
330
A
100
AcDbSymbolTableRecord
100
AcDbDimStyleTableRecord
  2
SLDDIMSTYLE2
 70
     0
 41
3.175
 44
0.0
 45
0.000000001
140
0.0
146
3.175
147
0.0
173
     1
178
     0
271
     0
272
     0
276
     2
340
11
  0
ENDTAB
  0
TABLE
  2
BLOCK_RECORD
  5
1
330
0
100
AcDbSymbolTable
 70
    10
  0
BLOCK_RECORD
  5
1F
330
1
100
AcDbSymbolTableRecord
100
AcDbBlockTableRecord
  2
*Model_Space
340
22
  0
BLOCK_RECORD
  5
1B
330
1
100
AcDbSymbolTableRecord
100
AcDbBlockTableRecord
  2
*Paper_Space
340
1E
  0
BLOCK_RECORD
  5
23
330
1
100
AcDbSymbolTableRecord
100
AcDbBlockTableRecord
  2
*Paper_Space0
340
26
  0
BLOCK_RECORD
  5
45
330
1
100
AcDbSymbolTableRecord
100
AcDbBlockTableRecord
  2
Third Angle Projection Block
340
0
102
{BLKREFS
331
6A
102
}
  0
BLOCK_RECORD
  5
6B
330
1
100
AcDbSymbolTableRecord
100
AcDbBlockTableRecord
  2
SW_NOTE_0
340
0
102
{BLKREFS
331
85
102
}
  0
BLOCK_RECORD
  5
95
330
1
100
AcDbSymbolTableRecord
100
AcDbBlockTableRecord
  2
SW_NOTE_1
340
0
102
{BLKREFS
331
9A
102
}
  0
BLOCK_RECORD
  5
9B
330
1
100
AcDbSymbolTableRecord
100
AcDbBlockTableRecord
  2
SW_NOTE_2
340
0
102
{BLKREFS
331
A0
102
}
  0
BLOCK_RECORD
  5
A2
330
1
100
AcDbSymbolTableRecord
100
AcDbBlockTableRecord
  2
SW_NOTE_3
340
0
102
{BLKREFS
331
A7
102
}
  0
BLOCK_RECORD
  5
A9
330
1
100
AcDbSymbolTableRecord
100
AcDbBlockTableRecord
  2
SW_NOTE_4
340
0
102
{BLKREFS
331
AE
102
}
  0
BLOCK_RECORD
  5
12F
330
1
100
AcDbSymbolTableRecord
100
AcDbBlockTableRecord
  2
_D
340
0
  0
BLOCK_RECORD
  5
1B8
330
1
100
AcDbSymbolTableRecord
100
AcDbBlockTableRecord
  2
_D_1
340
0
  0
BLOCK_RECORD
  5
1CE
330
1
100
AcDbSymbolTableRecord
100
AcDbBlockTableRecord
  2
SW_NOTE_5
340
0
102
{BLKREFS
331
1D3
102
}
  0
ENDTAB
  0
ENDSEC
  0
SECTION
  2
BLOCKS
  0
BLOCK
  5
20
330
1F
100
AcDbEntity
  8
0
100
AcDbBlockBegin
  2
*Model_Space
 70
     0
 10
0.0
 20
0.0
 30
0.0
  3
*Model_Space
  1

  0
ENDBLK
  5
21
330
1F
100
AcDbEntity
  8
0
100
AcDbBlockEnd
  0
BLOCK
  5
1C
330
1B
100
AcDbEntity
 67
     1
  8
0
100
AcDbBlockBegin
  2
*Paper_Space
 70
     0
 10
0.0
 20
0.0
 30
0.0
  3
*Paper_Space
  1

  0
ENDBLK
  5
1D
330
1B
100
AcDbEntity
 67
     1
  8
0
100
AcDbBlockEnd
  0
BLOCK
  5
24
330
23
100
AcDbEntity
  8
0
100
AcDbBlockBegin
  2
*Paper_Space0
 70
     0
 10
0.0
 20
0.0
 30
0.0
  3
*Paper_Space0
  1

  0
ENDBLK
  5
25
330
23
100
AcDbEntity
  8
0
100
AcDbBlockEnd
  0
BLOCK
  5
46
330
45
100
AcDbEntity
  8
0
100
AcDbBlockBegin
  2
Third Angle Projection Block
 70
     0
 10
0.0
 20
0.0
 30
0.0
  3
Third Angle Projection Block
  1

  0
CIRCLE
  5
48
330
45
100
AcDbEntity
  8
0
  6
Continuous
 62
     7
370
    30
100
AcDbCircle
 10
101.4766388944
 20
18.9404083667
 30
0.0
 40
1.768227153674871
  0
CIRCLE
  5
49
330
45
100
AcDbEntity
  8
0
  6
Continuous
 62
     7
370
    30
100
AcDbCircle
 10
101.4766388944
 20
18.9404083667
 30
0.0
 40
3.901228248531818
  0
LINE
  5
4A
330
45
100
AcDbEntity
  8
0
  6
CENTERX2
 62
     7
370
     0
100
AcDbLine
 10
110.1367822585
 20
18.9404083667
 30
0.0
 11
119.4527334874
 21
18.9404083667
 31
0.0
  0
LINE
  5
4B
330
45
100
AcDbEntity
  8
0
  6
Continuous
 62
     7
370
    30
100
AcDbLine
 10
111.0016388944
 20
20.7086355204
 30
0.0
 11
111.0016388944
 21
17.172181213
 31
0.0
  0
LINE
  5
4C
330
45
100
AcDbEntity
  8
0
  6
Continuous
 62
     7
370
    30
100
AcDbLine
 10
111.0016388944
 20
17.172181213
 30
0.0
 11
118.6216388944
 21
15.1304083667
 31
0.0
  0
LINE
  5
4D
330
45
100
AcDbEntity
  8
0
  6
Continuous
 62
     7
370
    30
100
AcDbLine
 10
118.6216388944
 20
15.1304083667
 30
0.0
 11
118.6216388944
 21
22.7504083667
 31
0.0
  0
LINE
  5
4E
330
45
100
AcDbEntity
  8
0
  6
Continuous
 62
     7
370
    30
100
AcDbLine
 10
118.6216388944
 20
22.7504083667
 30
0.0
 11
111.0016388944
 21
20.7086355204
 31
0.0
  0
LINE
  5
4F
330
45
100
AcDbEntity
  8
0
  6
CENTERX2
 62
     7
370
     0
100
AcDbLine
 10
96.6025854619
 20
18.9404083667
 30
0.0
 11
106.3506923269
 21
18.9404083667
 31
0.0
  0
LINE
  5
50
330
45
100
AcDbEntity
  8
0
  6
CENTERX2
 62
     7
370
     0
100
AcDbLine
 10
101.4766388944
 20
23.8144617992
 30
0.0
 11
101.4766388944
 21
14.0663549342
 31
0.0
  0
POINT
  5
51
330
45
100
AcDbEntity
  8
0
  6
Continuous
 62
     7
370
     0
100
AcDbPoint
 10
101.4766388944
 20
18.9404083667
 30
0.0
  0
ENDBLK
  5
47
330
45
100
AcDbEntity
  8
0
100
AcDbBlockEnd
  0
BLOCK
  5
6C
330
6B
100
AcDbEntity
  8
0
100
AcDbBlockBegin
  2
SW_NOTE_0
 70
     0
 10
0.0
 20
0.0
 30
0.0
  3
SW_NOTE_0
  1

  0
MTEXT
  5
6F
330
6B
100
AcDbEntity
  8
0
  6
Continuous
 62
     0
370
     0
100
AcDbMText
 10
0.0
 20
3.0695925553
 30
0.0
 40
2.38125
 41
0.0
 71
     1
 72
     1
  1
NOTES/SPECIFICATIONS:
  7
SLDTEXTSTYLE0
 73
     1
 44
1.0
  0
MTEXT
  5
71
330
6B
100
AcDbEntity
  8
0
  6
Continuous
 62
     0
370
     0
100
AcDbMText
 10
9.9999997765
 20
-3.2804073679
 30
0.0
 40
2.38125
 41
0.0
 71
     1
 72
     1
  1
CLEAR APERTURE: \U+2265 90% OF DIAMETER
  7
SLDTEXTSTYLE1
 73
     1
 44
1.0
  0
MTEXT
  5
72
330
6B
100
AcDbEntity
  8
0
  6
Continuous
 62
     0
370
     0
100
AcDbMText
 10
0.0
 20
-3.2804073679
 30
0.0
 40
2.38125
 41
0.0
 71
     1
 72
     1
  1
1.
  7
SLDTEXTSTYLE0
 73
     1
 44
1.0
  0
MTEXT
  5
73
330
6B
100
AcDbEntity
  8
0
  6
Continuous
 62
     0
370
     0
100
AcDbMText
 10
9.9999997765
 20
-6.4598169091
 30
0.0
 40
2.38125
 41
0.0
 71
     1
 72
     1
  1
TRANSMITTED WAVEFRONT ERROR:
  7
SLDTEXTSTYLE0
 73
     1
 44
1.0
  0
MTEXT
  5
75
330
6B
100
AcDbEntity
  8
0
  6
Continuous
 62
     0
370
     0
100
AcDbMText
 10
62.9916321486
 20
-6.4554071549
 30
0.0
 40
2.38125
 41
0.0
 71
     1
 72
     1
  1
l
  7
SLDTEXTSTYLE2
 73
     1
 44
1.0
  0
MTEXT
  5
76
330
6B
100
AcDbEntity
  8
0
  6
Continuous
 62
     0
370
     0
100
AcDbMText
 10
64.7334735841
 20
-6.4598169091
 30
0.0
 40
2.38125
 41
0.0
 71
     1
 72
     1
  1
/4 @ 633nm OVER CLEAR APERTURE
  7
SLDTEXTSTYLE0
 73
     1
 44
1.0
  0
MTEXT
  5
77
330
6B
100
AcDbEntity
  8
0
  6
Continuous
 62
     0
370
     0
100
AcDbMText
 10
0.0
 20
-6.4598169091
 30
0.0
 40
2.38125
 41
0.0
 71
     1
 72
     1
  1
2.
  7
SLDTEXTSTYLE0
 73
     1
 44
1.0
  0
MTEXT
  5
78
330
6B
100
AcDbEntity
  8
0
  6
Continuous
 62
     0
370
     0
100
AcDbMText
 10
9.9999997765
 20
-9.6348168707
 30
0.0
 40
2.38125
 41
0.0
 71
     1
 72
     1
  1
SURFACE QUALITY: 40-20 SCRATCH-DIG
  7
SLDTEXTSTYLE0
 73
     1
 44
1.0
  0
MTEXT
  5
79
330
6B
100
AcDbEntity
  8
0
  6
Continuous
 62
     0
370
     0
100
AcDbMText
 10
0.0
 20
-9.6348168707
 30
0.0
 40
2.38125
 41
0.0
 71
     1
 72
     1
  1
3.
  7
SLDTEXTSTYLE0
 73
     1
 44
1.0
  0
MTEXT
  5
7A
330
6B
100
AcDbEntity
  8
0
  6
Continuous
 62
     0
370
     0
100
AcDbMText
 10
9.9999997765
 20
-12.8098168324
 30
0.0
 40
2.38125
 41
0.0
 71
     1
 72
     1
  1
PARALLELISM: \U+2264 3 arcmin OVER CLEAR APERTURE
  7
SLDTEXTSTYLE1
 73
     1
 44
1.0
  0
MTEXT
  5
7B
330
6B
100
AcDbEntity
  8
0
  6
Continuous
 62
     0
370
     0
100
AcDbMText
 10
0.0
 20
-12.8098168324
 30
0.0
 40
2.38125
 41
0.0
 71
     1
 72
     1
  1
4.
  7
SLDTEXTSTYLE0
 73
     1
 44
1.0
  0
MTEXT
  5
7C
330
6B
100
AcDbEntity
  8
0
  6
Continuous
 62
     0
370
     0
100
AcDbMText
 10
9.9999997765
 20
-15.984816794
 30
0.0
 40
2.38125
 41
0.0
 71
     1
 72
     1
  1
COATING AOI (S1, S2): 45°
  7
SLDTEXTSTYLE0
 73
     1
 44
1.0
  0
MTEXT
  5
7D
330
6B
100
AcDbEntity
  8
0
  6
Continuous
 62
     0
370
     0
100
AcDbMText
 10
0.0
 20
-15.984816794
 30
0.0
 40
2.38125
 41
0.0
 71
     1
 72
     1
  1
5.
  7
SLDTEXTSTYLE0
 73
     1
 44
1.0
  0
MTEXT
  5
7E
330
6B
100
AcDbEntity
  8
0
  6
Continuous
 62
     0
370
     0
100
AcDbMText
 10
9.9999997765
 20
-19.1598167556
 30
0.0
 40
2.38125
 41
0.0
 71
     1
 72
     1
  1
FILTER COATING (S1)
  7
SLDTEXTSTYLE0
 73
     1
 44
1.0
  0
MTEXT
  5
7F
330
6B
100
AcDbEntity
  8
0
  6
Continuous
 62
     0
370
     0
100
AcDbMText
 10
0.0
 20
-19.1598167556
 30
0.0
 40
2.38125
 41
0.0
 71
     1
 72
     1
  1
6.
  7
SLDTEXTSTYLE0
 73
     1
 44
1.0
  0
MTEXT
  5
80
330
6B
100
AcDbEntity
  8
0
  6
Continuous
 62
     0
370
     0
100
AcDbMText
 10
20.0
 20
-22.3348167173
 30
0.0
 40
2.38125
 41
0.0
 71
     1
 72
     1
  1
REFLECTION BAND (R): > 90% ABSOLUTE 1550-2000nm
  7
SLDTEXTSTYLE0
 73
     1
 44
1.0
  0
MTEXT
  5
81
330
6B
100
AcDbEntity
  8
0
  6
Continuous
 62
     0
370
     0
100
AcDbMText
 10
20.0
 20
-25.5098166789
 30
0.0
 40
2.38125
 41
0.0
 71
     1
 72
     1
  1
TRANSMISSION BAND (T): > 90% AVERAGE, >85% ABSOLUTE 1000-1450nm
  7
SLDTEXTSTYLE0
 73
     1
 44
1.0
  0
MTEXT
  5
82
330
6B
100
AcDbEntity
  8
0
  6
Continuous
 62
     0
370
     0
100
AcDbMText
 10
9.9999997765
 20
-28.6848166405
 30
0.0
 40
2.38125
 41
0.0
 71
     1
 72
     1
  1
AR COATING (S2)
  7
SLDTEXTSTYLE0
 73
     1
 44
1.0
  0
MTEXT
  5
83
330
6B
100
AcDbEntity
  8
0
  6
Continuous
 62
     0
370
     0
100
AcDbMText
 10
0.0
 20
-28.6848166405
 30
0.0
 40
2.38125
 41
0.0
 71
     1
 72
     1
  1
7.
  7
SLDTEXTSTYLE0
 73
     1
 44
1.0
  0
MTEXT
  5
84
330
6B
100
AcDbEntity
  8
0
  6
Continuous
 62
     0
370
     0
100
AcDbMText
 10
20.0
 20
-31.8598166022
 30
0.0
 40
2.38125
 41
0.0
 71
     1
 72
     1
  1
R: < 2% ABSOLUTE 932-1700nm
  7
SLDTEXTSTYLE0
 73
     1
 44
1.0
  0
ENDBLK
  5
6D
330
6B
100
AcDbEntity
  8
0
100
AcDbBlockEnd
  0
BLOCK
  5
96
330
95
100
AcDbEntity
  8
0
100
AcDbBlockBegin
  2
SW_NOTE_1
 70
     0
 10
0.0
 20
0.0
 30
0.0
  3
SW_NOTE_1
  1

  0
MTEXT
  5
98
330
95
100
AcDbEntity
  8
0
  6
Continuous
 62
     0
370
     0
100
AcDbMText
 10
19.90725
 20
1.9645392354
 30
0.0
 40
1.524
 41
0.0
 71
     2
 72
     1
  1
VALUES IN PARENTHESIS ARE CALCULATED
  7
SLDTEXTSTYLE0
 73
     1
 44
1.0
  0
MTEXT
  5
99
330
95
100
AcDbEntity
  8
0
  6
Continuous
 62
     0
370
     0
100
AcDbMText
 10
19.8778795174
 20
-0.5594606586
 30
0.0
 40
1.524
 41
0.0
 71
     2
 72
     1
  1
AND MAY CONTAIN ROUNDOFF ERRORS
  7
SLDTEXTSTYLE0
 73
     1
 44
1.0
  0
ENDBLK
  5
97
330
95
100
AcDbEntity
  8
0
100
AcDbBlockEnd
  0
BLOCK
  5
9C
330
9B
100
AcDbEntity
  8
0
100
AcDbBlockBegin
  2
SW_NOTE_2
 70
     0
 10
0.0
 20
0.0
 30
0.0
  3
SW_NOTE_2
  1

  0
MTEXT
  5
9E
330
9B
100
AcDbEntity
  8
0
  6
Continuous
 62
     0
370
     0
100
AcDbMText
 10
0.0
 20
2.7285267159
 30
0.0
 40
2.1166666667
 41
0.0
 71
     1
 72
     1
  1
DRAWING
  7
SLDTEXTSTYLE0
 73
     1
 44
1.0
  0
MTEXT
  5
9F
330
9B
100
AcDbEntity
  8
0
  6
Continuous
 62
     0
370
     0
100
AcDbMText
 10
0.0
 20
-0.0936954723
 30
0.0
 40
2.1166666667
 41
0.0
 71
     1
 72
     1
  1
PROJECTION
  7
SLDTEXTSTYLE0
 73
     1
 44
1.0
  0
ENDBLK
  5
9D
330
9B
100
AcDbEntity
  8
0
100
AcDbBlockEnd
  0
BLOCK
  5
A3
330
A2
100
AcDbEntity
  8
0
100
AcDbBlockBegin
  2
SW_NOTE_3
 70
     0
 10
0.0
 20
0.0
 30
0.0
  3
SW_NOTE_3
  1

  0
MTEXT
  5
A5
330
A2
100
AcDbEntity
  8
0
  6
Continuous
 62
     0
370
     0
100
AcDbMText
 10
25.052734375
 20
4.0927900738
 30
0.0
 40
3.175
 41
0.0
 71
     2
 72
     1
  1
FOR INFORMATION ONLY
  7
SLDTEXTSTYLE0
 73
     1
 44
1.0
  0
MTEXT
  5
A6
330
A2
100
AcDbEntity
  8
0
  6
Continuous
 62
     0
370
     0
100
AcDbMText
 10
25.3768468589
 20
-0.1405432084
 30
0.0
 40
3.175
 41
0.0
 71
     2
 72
     1
  1
NOT FOR MANUFACTURING PURPOSES
  7
SLDTEXTSTYLE0
 73
     1
 44
1.0
  0
ENDBLK
  5
A4
330
A2
100
AcDbEntity
  8
0
100
AcDbBlockEnd
  0
BLOCK
  5
AA
330
A9
100
AcDbEntity
  8
0
100
AcDbBlockBegin
  2
SW_NOTE_4
 70
     0
 10
0.0
 20
0.0
 30
0.0
  3
SW_NOTE_4
  1

  0
MTEXT
  5
AC
330
A9
100
AcDbEntity
  8
0
  6
Continuous
 62
     0
370
     0
100
AcDbMText
 10
0.0
 20
3.4106583948
 30
0.0
 40
2.6458333333
 41
0.0
 71
     1
 72
     1
  1
Ø 50.8mm DICHROIC MIRROR,
  7
SLDTEXTSTYLE0
 73
     1
 44
1.0
  0
MTEXT
  5
AD
330
A9
100
AcDbEntity
  8
0
  6
Continuous
 62
     0
370
     0
100
AcDbMText
 10
0.0
 20
-0.1171193403
 30
0.0
 40
2.6458333333
 41
0.0
 71
     1
 72
     1
  1
SHORT PASS 1500nm
  7
SLDTEXTSTYLE0
 73
     1
 44
1.0
  0
ENDBLK
  5
AB
330
A9
100
AcDbEntity
  8
0
100
AcDbBlockEnd
  0
BLOCK
  5
130
330
12F
100
AcDbEntity
  8
0
100
AcDbBlockBegin
  2
_D
 70
     0
 10
0.0
 20
0.0
 30
0.0
  3
_D
  1

  0
SOLID
  5
132
330
12F
100
AcDbEntity
  8
0
  6
Continuous
 62
     7
370
     0
100
AcDbTrace
 10
105.0143313006
 20
133.5191914732
 30
0.0
 11
107.5952652119
 21
135.4368643195
 31
0.0
 12
106.8680819757
 22
136.1464138533
 32
0.0
 13
106.8680819757
 23
136.1464138533
 33
0.0
  0
LINE
  5
133
330
12F
100
AcDbEntity
  8
0
  6
Continuous
 62
     7
370
     0
100
AcDbLine
 10
126.3782895477
 20
149.169660303
 30
0.0
 11
125.949076588
 21
149.169660303
 31
0.0
  0
LINE
  5
134
330
12F
100
AcDbEntity
  8
0
  6
Continuous
 62
     7
370
     0
100
AcDbLine
 10
125.949076588
 20
149.169660303
 30
0.0
 11
125.949076588
 21
145.8065122266
 31
0.0
  0
LINE
  5
135
330
12F
100
AcDbEntity
  8
0
  6
Continuous
 62
     7
370
     0
100
AcDbLine
 10
125.949076588
 20
145.8065122266
 30
0.0
 11
126.3782895477
 21
145.8065122266
 31
0.0
  0
LINE
  5
136
330
12F
100
AcDbEntity
  8
0
  6
Continuous
 62
     7
370
     0
100
AcDbLine
 10
135.2085135369
 20
149.169660303
 30
0.0
 11
135.6377264966
 21
149.169660303
 31
0.0
  0
LINE
  5
137
330
12F
100
AcDbEntity
  8
0
  6
Continuous
 62
     7
370
     0
100
AcDbLine
 10
135.6377264966
 20
149.169660303
 30
0.0
 11
135.6377264966
 21
145.8065122266
 31
0.0
  0
LINE
  5
138
330
12F
100
AcDbEntity
  8
0
  6
Continuous
 62
     7
370
     0
100
AcDbLine
 10
135.6377264966
 20
145.8065122266
 30
0.0
 11
135.2085135369
 21
145.8065122266
 31
0.0
  0
LINE
  5
139
330
12F
100
AcDbEntity
  8
0
  6
Continuous
 62
     7
370
     0
100
AcDbLine
 10
105.0143313006
 20
133.5191914732
 30
0.0
 11
121.8171668609
 21
150.7396105675
 31
0.0
  0
LINE
  5
13A
330
12F
100
AcDbEntity
  8
0
  6
Continuous
 62
     7
370
     0
100
AcDbLine
 10
121.8171668609
 20
150.7396105675
 30
0.0
 11
125.6271668609
 21
150.7396105675
 31
0.0
  0
MTEXT
  5
13B
330
12F
100
AcDbEntity
  8
0
  6
Continuous
 62
     7
370
     0
100
AcDbMText
 10
125.6271668609
 20
152.3273999495
 30
0.1
 40
2.1166666667
 41
0.0
 71
     1
 72
     1
  1
%%c
  7
SLDTEXTSTYLE0
 73
     1
 44
1.0
  0
MTEXT
  5
13C
330
12F
100
AcDbEntity
  8
0
  6
Continuous
 62
     7
370
     0
100
AcDbMText
 10
128.8221576616
 20
152.3273999495
 30
0.1
 40
2.1166666667
 41
0.0
 71
     1
 72
     1
  1
50.8mm
  7
SLDTEXTSTYLE0
 73
     1
 44
1.0
  0
MTEXT
  5
13D
330
12F
100
AcDbEntity
  8
0
  6
Continuous
 62
     7
370
     0
100
AcDbMText
 10
126.9148057692
 20
148.535038826
 30
0.1
 40
2.1166666667
 41
0.0
 71
     1
 72
     1
  1
2.00in
  7
SLDTEXTSTYLE0
 73
     1
 44
1.0
  0
ENDBLK
  5
131
330
12F
100
AcDbEntity
  8
0
100
AcDbBlockEnd
  0
BLOCK
  5
1B9
330
1B8
100
AcDbEntity
  8
0
100
AcDbBlockBegin
  2
_D_1
 70
     0
 10
0.0
 20
0.0
 30
0.0
  3
_D_1
  1

  0
SOLID
  5
1BB
330
1B8
100
AcDbEntity
  8
0
  6
Continuous
 62
     7
370
     0
100
AcDbTrace
 10
177.6337181996
 20
79.9396105675
 30
0.0
 11
174.4587181996
 21
80.4476105675
 31
0.0
 12
174.4587181996
 22
79.4316105675
 32
0.0
 13
174.4587181996
 23
79.4316105675
 33
0.0
  0
SOLID
  5
1BC
330
1B8
100
AcDbEntity
  8
0
  6
Continuous
 62
     7
370
     0
100
AcDbTrace
 10
182.6337181996
 20
79.9396105675
 30
0.0
 11
185.8087181996
 21
79.4316105675
 31
0.0
 12
185.8087181996
 22
80.4476105675
 32
0.0
 13
185.8087181996
 23
80.4476105675
 33
0.0
  0
LINE
  5
1BD
330
1B8
100
AcDbEntity
  8
0
  6
Continuous
 62
     7
370
     0
100
AcDbLine
 10
160.1423093536
 20
79.9396103347
 30
0.0
 11
159.7130963939
 21
79.9396103347
 31
0.0
  0
LINE
  5
1BE
330
1B8
100
AcDbEntity
  8
0
  6
Continuous
 62
     7
370
     0
100
AcDbLine
 10
159.7130963939
 20
79.9396103347
 30
0.0
 11
159.7130963939
 21
76.5764622582
 31
0.0
  0
LINE
  5
1BF
330
1B8
100
AcDbEntity
  8
0
  6
Continuous
 62
     7
370
     0
100
AcDbLine
 10
159.7130963939
 20
76.5764622582
 30
0.0
 11
160.1423093536
 21
76.5764622582
 31
0.0
  0
LINE
  5
1C0
330
1B8
100
AcDbEntity
  8
0
  6
Continuous
 62
     7
370
     0
100
AcDbLine
 10
168.9725333428
 20
79.9396103347
 30
0.0
 11
169.4017463025
 21
79.9396103347
 31
0.0
  0
LINE
  5
1C1
330
1B8
100
AcDbEntity
  8
0
  6
Continuous
 62
     7
370
     0
100
AcDbLine
 10
169.4017463025
 20
79.9396103347
 30
0.0
 11
169.4017463025
 21
76.5764622582
 31
0.0
  0
LINE
  5
1C2
330
1B8
100
AcDbEntity
  8
0
  6
Continuous
 62
     7
370
     0
100
AcDbLine
 10
169.4017463025
 20
76.5764622582
 30
0.0
 11
168.9725333428
 21
76.5764622582
 31
0.0
  0
LINE
  5
1C3
330
1B8
100
AcDbEntity
  8
0
  6
Continuous
 62
     7
370
     0
100
AcDbLine
 10
177.6337181996
 20
88.9696105675
 30
0.0
 11
177.6337181996
 21
78.1616105675
 31
0.0
  0
LINE
  5
1C4
330
1B8
100
AcDbEntity
  8
0
  6
Continuous
 62
     7
370
     0
100
AcDbLine
 10
182.6337181996
 20
88.9696105675
 30
0.0
 11
182.6337181996
 21
78.1616105675
 31
0.0
  0
LINE
  5
1C5
330
1B8
100
AcDbEntity
  8
0
  6
Continuous
 62
     7
370
     0
100
AcDbLine
 10
177.6337181996
 20
79.9396105675
 30
0.0
 11
172.0051739534
 21
79.9396105675
 31
0.0
  0
LINE
  5
1C6
330
1B8
100
AcDbEntity
  8
0
  6
Continuous
 62
     7
370
     0
100
AcDbLine
 10
182.6337181996
 20
79.9396105675
 30
0.0
 11
188.9837181996
 21
79.9396105675
 31
0.0
  0
MTEXT
  5
1C7
330
1B8
100
AcDbEntity
  8
0
  6
Continuous
 62
     7
370
     0
100
AcDbMText
 10
159.1266031812
 20
83.0973499811
 30
0.1
 40
2.1166666667
 41
0.0
 71
     1
 72
     1
  1

  7
SLDTEXTSTYLE0
 73
     1
 44
1.0
  0
MTEXT
  5
1C8
330
1B8
100
AcDbEntity
  8
0
  6
Continuous
 62
     7
370
     0
100
AcDbMText
 10
159.0991648856
 20
83.0973499811
 30
0.1
 40
2.1166666667
 41
0.0
 71
     1
 72
     1
  1
5.0mm
  7
SLDTEXTSTYLE0
 73
     1
 44
1.0
  0
MTEXT
  5
1C9
330
1B8
100
AcDbEntity
  8
0
  6
Continuous
 62
     7
370
     0
100
AcDbMText
 10
160.6788255751
 20
79.3049888577
 30
0.1
 40
2.1166666667
 41
0.0
 71
     1
 72
     1
  1
0.20in
  7
SLDTEXTSTYLE0
 73
     1
 44
1.0
  0
MTEXT
  5
1CA
330
1B8
100
AcDbEntity
  8
0
  6
Continuous
 62
     7
370
     0
100
AcDbMText
 10
171.6031778108
 20
83.0973499811
 30
0.1
 40
2.1166666667
 41
0.0
 71
     1
 72
     1
  1

  7
SLDTEXTSTYLE0
 73
     1
 44
1.0
  0
ENDBLK
  5
1BA
330
1B8
100
AcDbEntity
  8
0
100
AcDbBlockEnd
  0
BLOCK
  5
1CF
330
1CE
100
AcDbEntity
  8
0
100
AcDbBlockBegin
  2
SW_NOTE_5
 70
     0
 10
0.0
 20
0.0
 30
0.0
  3
SW_NOTE_5
  1

  0
MTEXT
  5
1D1
330
1CE
100
AcDbEntity
  8
0
  6
Continuous
 62
     0
370
     0
100
AcDbMText
 10
0.5884437877
 20
0.9828989257
 30
0.0
 40
2.1166666667
 41
0.0
 71
     1
 72
     1
  1
S2, INDICATED BY
  7
SLDTEXTSTYLE0
 73
     1
 44
1.0
  0
MTEXT
  5
1D2
330
1CE
100
AcDbEntity
  8
0
  6
Continuous
 62
     0
370
     0
100
AcDbMText
 10
0.5884437877
 20
-1.8393232624
 30
0.0
 40
2.1166666667
 41
0.0
 71
     1
 72
     1
  1
ENGRAVED ARROW
  7
SLDTEXTSTYLE0
 73
     1
 44
1.0
  0
ENDBLK
  5
1D0
330
1CE
100
AcDbEntity
  8
0
100
AcDbBlockEnd
  0
ENDSEC
  0
SECTION
  2
ENTITIES
  0
LINE
  5
52
330
1F
100
AcDbEntity
  8
0
  6
Continuous
 62
     7
370
     0
100
AcDbLine
 10
1.5793501011
 20
214.6453799966
 30
0.0
 11
277.9892068491
 21
214.6453799966
 31
0.0
  0
LINE
  5
53
330
1F
100
AcDbEntity
  8
0
  6
Continuous
 62
     7
370
     0
100
AcDbLine
 10
1.5793501011
 20
214.6453799966
 30
0.0
 11
1.5793501011
 21
0.9031642596
 31
0.0
  0
LINE
  5
54
330
1F
100
AcDbEntity
  8
0
  6
Continuous
 62
     7
370
     0
100
AcDbLine
 10
277.9892068491
 20
0.9031642596
 30
0.0
 11
1.5793501011
 21
0.9031642596
 31
0.0
  0
LINE
  5
55
330
1F
100
AcDbEntity
  8
0
  6
Continuous
 62
     7
370
     0
100
AcDbLine
 10
277.9892068491
 20
0.9031642596
 30
0.0
 11
277.9892068491
 21
214.6453799966
 31
0.0
  0
LINE
  5
56
330
1F
100
AcDbEntity
  8
0
  6
Continuous
 62
     7
370
     0
100
AcDbLine
 10
215.7427640041
 20
12.2958890132
 30
0.0
 11
171.6327596684
 21
12.2958890132
 31
0.0
  0
LINE
  5
57
330
1F
100
AcDbEntity
  8
0
  6
Continuous
 62
     7
370
     0
100
AcDbLine
 10
171.6327596684
 20
12.2958890132
 30
0.0
 11
171.6327596684
 21
26.1661402506
 31
0.0
  0
LINE
  5
58
330
1F
100
AcDbEntity
  8
0
  6
Continuous
 62
     7
370
     0
100
AcDbLine
 10
171.6327596684
 20
0.9031642596
 30
0.0
 11
171.6327596684
 21
26.1661402506
 31
0.0
  0
LINE
  5
59
330
1F
100
AcDbEntity
  8
0
  6
Continuous
 62
     7
370
     0
100
AcDbLine
 10
215.7427640041
 20
17.1604579552
 30
0.0
 11
277.9892068491
 21
17.1604579552
 31
0.0
  0
LINE
  5
5A
330
1F
100
AcDbEntity
  8
0
  6
Continuous
 62
     7
370
     0
100
AcDbLine
 10
215.7427640041
 20
35.2394508358
 30
0.0
 11
215.7427640041
 21
0.9031642596
 31
0.0
  0
LINE
  5
5B
330
1F
100
AcDbEntity
  8
0
  6
Continuous
 62
     7
370
     0
100
AcDbLine
 10
215.7427640041
 20
26.1661402506
 30
0.0
 11
171.6327596684
 21
26.1661402506
 31
0.0
  0
LINE
  5
5C
330
1F
100
AcDbEntity
  8
0
  6
Continuous
 62
     7
370
     0
100
AcDbLine
 10
215.7427640041
 20
9.1409200612
 30
0.0
 11
277.9892068491
 21
9.1409200612
 31
0.0
  0
LINE
  5
5D
330
1F
100
AcDbEntity
  8
0
  6
Continuous
 62
     7
370
     0
100
AcDbLine
 10
215.7427640041
 20
16.9216824031
 30
0.0
 11
171.6327596684
 21
16.9216824031
 31
0.0
  0
LINE
  5
5E
330
1F
100
AcDbEntity
  8
0
  6
Continuous
 62
     7
370
     0
100
AcDbLine
 10
215.7427640041
 20
21.4874005542
 30
0.0
 11
171.6327596684
 21
21.4874005542
 31
0.0
  0
LINE
  5
5F
330
1F
100
AcDbEntity
  8
0
  6
Continuous
 62
     7
370
     0
100
AcDbLine
 10
186.1338100705
 20
26.1661402506
 30
0.0
 11
186.1338100705
 21
12.2958890132
 31
0.0
  0
LINE
  5
60
330
1F
100
AcDbEntity
  8
0
  6
Continuous
 62
     7
370
     0
100
AcDbLine
 10
198.2145906188
 20
26.1661402506
 30
0.0
 11
198.2145906188
 21
12.2958890132
 31
0.0
  0
LINE
  5
61
330
1F
100
AcDbEntity
  8
0
  6
Continuous
 62
     7
370
     0
100
AcDbLine
 10
253.7490408369
 20
9.1409200612
 30
0.0
 11
253.7490408369
 21
0.9031642596
 31
0.0
  0
LINE
  5
62
330
1F
100
AcDbEntity
  8
0
  6
Continuous
 62
     7
370
     0
100
AcDbLine
 10
171.6327596684
 20
12.2958890132
 30
0.0
 11
171.6327596684
 21
7.5627342528
 31
0.0
  0
LINE
  5
63
330
1F
100
AcDbEntity
  8
0
  6
Continuous
 62
     7
370
     0
100
AcDbLine
 10
171.6327596684
 20
7.5627342528
 30
0.0
 11
215.7427640041
 21
7.5627342528
 31
0.0
  0
LINE
  5
64
330
1F
100
AcDbEntity
  8
0
  6
Continuous
 62
     7
370
     0
100
AcDbLine
 10
171.6327596684
 20
7.5627342528
 30
0.0
 11
171.6327596684
 21
35.2394508358
 31
0.0
  0
LINE
  5
65
330
1F
100
AcDbEntity
  8
0
  6
Continuous
 62
     7
370
     0
100
AcDbLine
 10
171.6327596684
 20
35.2394508358
 30
0.0
 11
215.7427640041
 21
35.2394508358
 31
0.0
  0
LINE
  5
66
330
1F
100
AcDbEntity
  8
0
  6
Continuous
 62
     7
370
     0
100
AcDbLine
 10
270.1683598194
 20
17.1604579552
 30
0.0
 11
270.1683598194
 21
9.1409200612
 31
0.0
  0
LINE
  5
67
330
1F
100
AcDbEntity
  8
0
  6
Continuous
 62
     7
370
     0
100
AcDbLine
 10
215.7427640041
 20
35.2394508358
 30
0.0
 11
277.9892068491
 21
35.2394508358
 31
0.0
  0
LINE
  5
68
330
1F
100
AcDbEntity
  8
0
  6
Continuous
 62
     7
370
     0
100
AcDbLine
 10
277.9892068491
 20
35.2394508358
 30
0.0
 11
277.9892068491
 21
50.0331356147
 31
0.0
  0
LINE
  5
69
330
1F
100
AcDbEntity
  8
0
  6
Continuous
 62
     7
370
     0
100
AcDbLine
 10
215.7427640041
 20
24.8927335446
 30
0.0
 11
277.9892068491
 21
24.8927335446
 31
0.0
  0
INSERT
  5
6A
330
1F
100
AcDbEntity
  8
0
  6
Continuous
 62
     7
100
AcDbBlockReference
  2
Third Angle Projection Block
 10
117.7262204235
 20
15.5162339489
 30
0.0
 41
0.8
 42
0.8
 43
0.8
  0
INSERT
  5
85
330
1F
100
AcDbEntity
  8
0
  6
Continuous
 62
     7
370
     0
100
AcDbBlockReference
  2
SW_NOTE_0
 10
7.8242281509
 20
62.170998082
 30
0.0
  0
MTEXT
  5
86
330
1F
100
AcDbEntity
  8
0
  6
Continuous
 62
     7
370
     0
100
AcDbMText
 10
273.9057868792
 20
13.1125292762
 30
0.0
 40
3.175
 41
0.0
 71
     2
 72
     1
  1
E
  7
SLDTEXTSTYLE0
 73
     1
 44
1.0
  0
MTEXT
  5
87
330
1F
100
AcDbEntity
  8
0
  6
Continuous
 62
     7
370
     0
100
AcDbMText
 10
234.6237612969
 20
5.1306563898
 30
0.0
 40
3.175
 41
0.0
 71
     2
 72
     1
  1
DMSP1500L
  7
SLDTEXTSTYLE0
 73
     1
 44
1.0
  0
MTEXT
  5
88
330
1F
100
AcDbEntity
  8
0
  6
Continuous
 62
     7
370
     0
100
AcDbMText
 10
216.4199766059
 20
16.8243178599
 30
0.0
 40
2.1166666667
 41
0.0
 71
     1
 72
     1
  1
MATERIAL
  7
SLDTEXTSTYLE0
 73
     1
 44
1.0
  0
MTEXT
  5
89
330
1F
100
AcDbEntity
  8
0
  6
Continuous
 62
     7
370
     0
100
AcDbMText
 10
174.230946566
 20
20.054553926
 30
0.0
 40
1.8520833333
 41
0.0
 71
     1
 72
     1
  1
DRAWN
  7
SLDTEXTSTYLE0
 73
     1
 44
1.0
  0
MTEXT
  5
8A
330
1F
100
AcDbEntity
  8
0
  6
Continuous
 62
     7
370
     0
100
AcDbMText
 10
172.3960124543
 20
15.5787169747
 30
0.0
 40
1.8520833333
 41
0.0
 71
     1
 72
     1
  1
APPROVAL
  7
SLDTEXTSTYLE0
 73
     1
 44
1.0
  0
MTEXT
  5
8B
330
1F
100
AcDbEntity
  8
0
  6
Continuous
 62
     7
370
     0
100
AcDbMText
 10
271.321689486
 20
16.0237652193
 30
0.0
 40
2.1166666667
 41
0.0
 71
     1
 72
     1
  1
REV
  7
SLDTEXTSTYLE0
 73
     1
 44
1.0
  0
MTEXT
  5
8C
330
1F
100
AcDbEntity
  8
0
  6
Continuous
 62
     7
370
     0
100
AcDbMText
 10
190.2958696448
 20
20.3177146903
 30
0.0
 40
2.1166666667
 41
0.0
 71
     1
 72
     1
  1
TW
  7
SLDTEXTSTYLE0
 73
     1
 44
1.0
  0
MTEXT
  5
8D
330
1F
100
AcDbEntity
  8
0
  6
Continuous
 62
     7
370
     0
100
AcDbMText
 10
190.2958696448
 20
15.841877739
 30
0.0
 40
2.1166666667
 41
0.0
 71
     1
 72
     1
  1
DD
  7
SLDTEXTSTYLE0
 73
     1
 44
1.0
  0
MTEXT
  5
8E
330
1F
100
AcDbEntity
  8
0
  6
Continuous
 62
     7
370
     0
100
AcDbMText
 10
199.8662436873
 20
20.3177146903
 30
0.0
 40
2.1166666667
 41
0.0
 71
     1
 72
     1
  1
17/OCT/11
  7
SLDTEXTSTYLE0
 73
     1
 44
1.0
  0
MTEXT
  5
8F
330
1F
100
AcDbEntity
  8
0
  6
Continuous
 62
     7
370
     0
100
AcDbMText
 10
203.6145073853
 20
24.8221395769
 30
0.0
 40
2.1166666667
 41
0.0
 71
     1
 72
     1
  1
DATE
  7
SLDTEXTSTYLE0
 73
     1
 44
1.0
  0
MTEXT
  5
90
330
1F
100
AcDbEntity
  8
0
  6
Continuous
 62
     7
370
     0
100
AcDbMText
 10
199.8662436873
 20
15.841877739
 30
0.0
 40
2.1166666667
 41
0.0
 71
     1
 72
     1
  1
26/FEB/14
  7
SLDTEXTSTYLE0
 73
     1
 44
1.0
  0
MTEXT
  5
92
330
1F
100
AcDbEntity
  8
0
  6
Continuous
 62
     7
370
     0
100
AcDbMText
 10
229.402906477
 20
27.7957480569
 30
0.0
 40
2.1166666667
 41
0.0
 71
     1
 72
     1
  1
w w w . t h o r  l a b s . c o m
  7
SLDTEXTSTYLE3
 73
     1
 44
1.0
  0
MTEXT
  5
93
330
1F
100
AcDbEntity
  8
0
  6
Continuous
 62
     7
370
     0
100
AcDbMText
 10
216.7004035316
 20
8.3494791871
 30
0.0
 40
2.1166666667
 41
0.0
 71
     1
 72
     1
  1
ITEM #
  7
SLDTEXTSTYLE0
 73
     1
 44
1.0
  0
MTEXT
  5
94
330
1F
100
AcDbEntity
  8
0
  6
Continuous
 62
     7
370
     0
100
AcDbMText
 10
266.1678480997
 20
5.1306563898
 30
0.0
 40
3.175
 41
0.0
 71
     2
 72
     1
  1
0.12 kg
  7
SLDTEXTSTYLE0
 73
     1
 44
1.0
  0
INSERT
  5
9A
330
1F
100
AcDbEntity
  8
0
  6
Continuous
 62
     7
370
     0
100
AcDbBlockReference
  2
SW_NOTE_1
 10
174.8430140051
 20
4.4558554801
 30
0.0
  0
INSERT
  5
A0
330
1F
100
AcDbEntity
  8
0
  6
Continuous
 62
     7
370
     0
100
AcDbBlockReference
  2
SW_NOTE_2
 10
174.5483650337
 20
30.4835322715
 30
0.0
  0
MTEXT
  5
A1
330
1F
100
AcDbEntity
  8
0
  6
Continuous
 62
     7
370
     0
100
AcDbMText
 10
187.9273588276
 20
24.8221395769
 30
0.0
 40
2.1166666667
 41
0.0
 71
     1
 72
     1
  1
NAME
  7
SLDTEXTSTYLE0
 73
     1
 44
1.0
  0
INSERT
  5
A7
330
1F
100
AcDbEntity
  8
0
  6
Continuous
 62
     7
370
     0
100
AcDbBlockReference
  2
SW_NOTE_3
 10
58.6204667508
 20
8.1776609732
 30
0.0
  0
MTEXT
  5
A8
330
1F
100
AcDbEntity
  8
0
  6
Continuous
 62
     7
370
     0
100
AcDbMText
 10
179.1174811218
 20
10.6680638482
 30
0.0
 40
1.5875
 41
0.0
 71
     1
 72
     1
  1
COPYRIGHT © 2011 BY THORLABS
  7
SLDTEXTSTYLE0
 73
     1
 44
1.0
  0
INSERT
  5
AE
330
1F
100
AcDbEntity
  8
0
  6
Continuous
 62
     7
370
     0
100
AcDbBlockReference
  2
SW_NOTE_4
 10
219.4903195239
 20
20.9611555011
 30
0.0
  0
MTEXT
  5
AF
330
1F
100
AcDbEntity
  8
0
  6
Continuous
 62
     7
370
     0
100
AcDbMText
 10
254.5318000914
 20
8.3494791871
 30
0.0
 40
2.1166666667
 41
0.0
 71
     1
 72
     1
  1
APPROX WEIGHT
  7
SLDTEXTSTYLE0
 73
     1
 44
1.0
  0
MTEXT
  5
B0
330
1F
100
AcDbEntity
  8
0
  6
Continuous
 62
     7
370
     0
100
AcDbMText
 10
243.0198277474
 20
13.1109293603
 30
0.0
 40
2.6
 41
0.0
 71
     2
 72
     1
  1
UV GRADE FUSED SILICA
  7
SLDTEXTSTYLE0
 73
     1
 44
1.0
  0
LINE
  5
B1
330
1F
100
AcDbEntity
  8
0
  6
Continuous
 62
     7
370
     0
100
AcDbLine
 10
216.2422348533
 20
187.2814203967
 30
0.0
 11
216.2422348533
 21
187.0364979632
 31
0.0
  0
LINE
  5
B2
330
1F
100
AcDbEntity
  8
0
  6
Continuous
 62
     7
370
     0
100
AcDbLine
 10
233.9877304502
 20
156.2970673026
 30
0.0
 11
234.1998280071
 21
156.1745861825
 31
0.0
  0
LINE
  5
B3
330
1F
100
AcDbEntity
  8
0
  6
Continuous
 62
     7
370
     0
100
AcDbLine
 10
246.9017149999
 20
154.9153962721
 30
0.0
 11
250.0129848372
 21
156.7114941181
 31
0.0
  0
LINE
  5
B4
330
1F
100
AcDbEntity
  8
0
  6
Continuous
 62
     7
370
     0
100
AcDbLine
 10
224.6150490282
 20
200.7067763271
 30
0.0
 11
221.503779191
 21
198.9106784811
 31
0.0
  0
LINE
  5
B5
330
1F
100
AcDbEntity
  8
0
  6
Continuous
 62
     7
370
     0
100
AcDbLine
 10
255.2745291748
 20
168.3407522024
 30
0.0
 11
255.2745291748
 21
168.585674636
 31
0.0
  0
LINE
  5
B6
330
1F
100
AcDbEntity
  8
0
  6
Continuous
 62
     7
370
     0
100
AcDbLine
 10
237.529033578
 20
199.3251052966
 30
0.0
 11
237.316936021
 21
199.4475864167
 31
0.0
  0
LWPOLYLINE
  5
B7
330
1F
100
AcDbEntity
  8
0
  6
Continuous
 62
     7
370
     0
100
AcDbPolyline
 90
      170
 70
   128
 43
0.0
 10
251.7389952689
 20
166.5446543564
 10
251.7267303401
 20
167.3135413411
 10
251.6899525051
 20
168.0955264402
 10
251.6287125941
 20
168.8895288799
 10
251.5430952462
 20
169.6944512774
 10
251.4332187922
 20
170.5091811577
 10
251.2992350913
 20
171.3325924907
 10
251.141329321
 20
172.163547248
 10
250.9597197213
 20
173.0008969753
 10
250.754657293
 20
173.84348438
 10
250.5264254508
 20
174.6901449306
 10
250.2753396316
 20
175.5397084661
 10
250.0017468586
 20
176.3910008132
 10
249.7060252617
 20
177.2428454093
 10
249.3885835546
 20
178.0940649287
 10
249.0498604704
 20
178.9434829094
 10
248.6903241548
 20
179.7899253793
 10
248.3104715193
 20
180.6322224789
 10
247.9108275545
 20
181.4692100779
 10
247.4919446042
 20
182.299731384
 10
247.0544016023
 20
183.1226385422
 10
246.5988032727
 20
183.9367942207
 10
246.1257792931
 20
184.7410731832
 10
245.6359834253
 20
185.5343638439
 10
245.1300926112
 20
186.3155698038
 10
244.6088060373
 20
187.0836113658
 10
244.0728441687
 20
187.8374270276
 10
243.5229477528
 20
188.5759749481
 10
242.9598767959
 20
189.2982343876
 10
242.3844095128
 20
190.0032071187
 10
241.7973412508
 20
190.6899188056
 10
241.1994833912
 20
191.3574203511
 10
240.5916622274
 20
192.0047892079
 10
239.9747178227
 20
192.6311306542
 10
239.3495028499
 20
193.2355790296
 10
238.7168814122
 20
193.8172989323
 10
238.0777278495
 20
194.3754863729
 10
237.4329255293
 20
194.9093698862
 10
236.7833656265
 20
195.4182115973
 10
236.1299458913
 20
195.901308241
 10
235.4735694085
 20
196.3579921345
 10
234.8151433494
 20
196.7876320994
 10
234.1555777181
 20
197.1896343348
 10
233.4957840935
 20
197.5634432373
 10
232.8366743699
 20
197.9085421696
 10
232.179159496
 20
198.2244541737
 10
231.5241482167
 20
198.5107426309
 10
230.8725458163
 20
198.7670118648
 10
230.225252868
 20
198.9929076884
 10
229.5831639889
 20
199.1881178931
 10
228.9471666035
 20
199.3523726811
 10
228.3181397174
 20
199.4854450374
 10
227.6969527023
 20
199.587151044
 10
227.0844640946
 20
199.657350134
 10
226.4815204086
 20
199.6959452862
 10
225.8889549667
 20
199.7028831583
 10
225.3075867475
 20
199.6781541618
 10
224.7382192544
 20
199.6217924743
 10
224.1816394042
 20
199.5338759927
 10
223.6386164405
 20
199.4145262255
 10
223.1099008699
 20
199.2639081248
 10
222.5962234247
 20
199.0822298584
 10
222.0982940534
 20
198.8697425219
 10
221.6168009392
 20
198.6267397921
 10
221.1524095488
 20
198.3535575204
 10
220.705761713
 20
198.0505732694
 10
220.2774747391
 20
197.7182057906
 10
219.8681405583
 20
197.3569144457
 10
219.4783249073
 20
196.9671985717
 10
219.1085665464
 20
196.5495967912
 10
218.7593765147
 20
196.1046862674
 10
218.4312374245
 20
195.6330819065
 10
218.1246027933
 20
195.1354355082
 10
217.8398964179
 20
194.6124348646
 10
217.577511788
 20
194.0648028096
 10
217.3378115428
 20
193.49329622
 10
217.1211269696
 20
192.8987049692
 10
216.9277575459
 20
192.2818508358
 10
216.7579705258
 20
191.6435863678
 10
216.6120005701
 20
190.984793704
 10
216.4900494224
 20
190.3063833551
 10
216.3922856302
 20
189.6092929452
 10
216.3188443118
 20
188.894485916
 10
216.2698269698
 20
188.1629501951
 10
216.2453013504
 20
187.4156968305
 10
216.2453013504
 20
186.6537585937
 10
216.2698269698
 20
185.8781885518
 10
216.3188443118
 20
185.0900586123
 10
216.3922856302
 20
184.2904580418
 10
216.4900494224
 20
183.4804919601
 10
216.6120005701
 20
182.6612798131
 10
216.7579705258
 20
181.8339538257
 10
216.9277575459
 20
180.9996574369
 10
217.1211269696
 20
180.1595437193
 10
217.3378115428
 20
179.3147737855
 10
217.577511788
 20
178.4665151836
 10
217.8398964179
 20
177.6159402832
 10
218.1246027933
 20
176.7642246555
 10
218.4312374245
 20
175.9125454478
 10
218.7593765147
 20
175.0620797576
 10
219.1085665464
 20
174.2140030048
 10
219.4783249073
 20
173.3694873079
 10
219.8681405583
 20
172.5296998633
 10
220.2774747391
 20
171.695801333
 10
220.705761713
 20
170.8689442397
 10
221.1524095488
 20
170.0502713742
 10
221.6168009392
 20
169.240914216
 10
222.0982940534
 20
168.4419913695
 10
222.5962234247
 20
167.654607018
 10
223.1099008699
 20
166.8798493975
 10
223.6386164405
 20
166.1187892925
 10
224.1816394042
 20
165.3724785567
 10
224.7382192544
 20
164.6419486585
 10
225.3075867475
 20
163.928209256
 10
225.8889549667
 20
163.2322468013
 10
226.4815204086
 20
162.555023177
 10
227.0844640946
 20
161.8974743671
 10
227.6969527023
 20
161.2605091631
 10
228.3181397174
 20
160.6450079083
 10
228.9471666035
 20
160.0518212808
 10
229.5831639889
 20
159.4817691177
 10
230.225252868
 20
158.9356392825
 10
230.8725458163
 20
158.4141865757
 10
231.5241482167
 20
157.9181316919
 10
232.179159496
 20
157.4481602234
 10
232.8366743699
 20
157.0049217131
 10
233.4957840935
 20
156.5890287566
 10
234.1555777181
 20
156.2010561552
 10
234.8151433494
 20
155.841540122
 10
235.4735694085
 20
155.5109775405
 10
236.1299458913
 20
155.2098252779
 10
236.7833656265
 20
154.9384995537
 10
237.4329255293
 20
154.6973753645
 10
238.0777278495
 20
154.4867859655
 10
238.7168814122
 20
154.3070224103
 10
239.3495028499
 20
154.1583331482
 10
239.9747178227
 20
154.0409236812
 10
240.5916622274
 20
153.9549562798
 10
241.1994833912
 20
153.9005497585
 10
241.7973412508
 20
153.8777793122
 10
242.3844095128
 20
153.8866764115
 10
242.9598767959
 20
153.92722876
 10
243.5229477528
 20
153.9993803107
 10
244.0728441687
 20
154.1030313435
 10
244.6088060373
 20
154.2380386035
 10
245.1300926112
 20
154.4042154985
 10
245.6359834253
 20
154.601332357
 10
246.1257792931
 20
154.8291167458
 10
246.5988032727
 20
155.0872538465
 10
247.0544016023
 20
155.3753868904
 10
247.4919446042
 20
155.6931176516
 10
247.9108275545
 20
156.0400069977
 10
248.3104715193
 20
156.4155754964
 10
248.6903241548
 20
156.8193040783
 10
249.0498604704
 20
157.2506347541
 10
249.3885835546
 20
157.7089713862
 10
249.7060252617
 20
158.193680512
 10
250.0017468586
 20
158.7040922199
 10
250.2753396316
 20
159.2395010751
 10
250.5264254508
 20
159.7991670943
 10
250.754657293
 20
160.3823167689
 10
250.9597197213
 20
160.9881441335
 10
251.141329321
 20
161.6158118802
 10
251.2992350913
 20
162.2644525157
 10
251.4332187922
 20
162.9331695605
 10
251.5430952462
 20
163.6210387873
 10
251.6287125941
 20
164.327109499
 10
251.6899525051
 20
165.0504058425
 10
251.7267303401
 20
165.7899281571
 10
251.7389952689
 20
166.5446543564
  0
LWPOLYLINE
  5
B8
330
1F
100
AcDbEntity
  8
0
  6
Continuous
 62
     7
370
     0
100
AcDbPolyline
 90
       44
 70
   128
 43
0.0
 10
252.1632593376
 20
166.5446543564
 10
252.1509933879
 20
165.7853561927
 10
252.1142122928
 20
165.041257103
 10
252.0529662906
 20
164.3133734372
 10
251.9673390362
 20
163.6026993967
 10
251.857447486
 20
162.9102056768
 10
251.7234417387
 20
162.2368381407
 10
251.56550483
 20
161.5835165275
 10
251.3838524828
 20
160.9511331957
 10
251.1787328122
 20
160.3405519051
 10
250.9504259871
 20
159.7526066362
 10
250.6992438472
 20
159.1881004516
 10
250.425529477
 20
158.6478043987
 10
250.1296567374
 20
158.132456457
 10
249.8120297551
 20
157.6427605298
 10
249.4730823702
 20
157.1793854828
 10
249.1132775442
 20
156.7429642306
 10
248.733106727
 20
156.3340928722
 10
248.3330891865
 20
155.9533298766
 10
247.9137712983
 20
155.6011953203
 10
247.4757258003
 20
155.2781701767
 10
247.0195510099
 20
154.9846956594
 10
246.5458700071
 20
154.7211726191
 10
246.055329783
 20
154.4879609968
 10
245.5486003568
 20
154.2853793313
 10
245.0263738597
 20
154.113704325
 10
244.4893635904
 20
153.9731704651
 10
243.9383030403
 20
153.8639697041
 10
243.3739448918
 20
153.7862511971
 10
242.7970599903
 20
153.7401210982
 10
242.2084362912
 20
153.7256424155
 10
241.6088777836
 20
153.7428349252
 10
240.9992033923
 20
153.7916751444
 10
240.3802458593
 20
153.8720963633
 10
239.752850606
 20
153.9839887361
 10
239.1178745789
 20
154.1271994312
 10
238.4761850789
 20
154.3015328402
 10
237.8286585766
 20
154.5067508445
 10
237.1761795154
 20
154.7425731411
 10
236.5196391032
 20
155.008677625
 10
235.8599340952
 20
155.3047008296
 10
235.1979655691
 20
155.6302384227
 10
234.5346376942
 20
155.9848457591
 10
234.1998280071
 20
156.1745861825
  0
LWPOLYLINE
  5
B9
330
1F
100
AcDbEntity
  8
0
  6
Continuous
 62
     7
370
     0
100
AcDbPolyline
 90
       86
 70
   128
 43
0.0
 10
216.2422348533
 20
187.2814203967
 10
216.254500803
 20
188.0407185604
 10
216.2912818982
 20
188.7848176501
 10
216.3525279003
 20
189.512701316
 10
216.4381551547
 20
190.2233753565
 10
216.5480467049
 20
190.9158690763
 10
216.6820524522
 20
191.5892366124
 10
216.8399893609
 20
192.2425582257
 10
217.0216417081
 20
192.8749415574
 10
217.2267613787
 20
193.485522848
 10
217.4550682038
 20
194.0734681169
 10
217.7062503437
 20
194.6379743016
 10
217.9799647139
 20
195.1782703545
 10
218.2758374535
 20
195.6936182962
 10
218.5934644358
 20
196.1833142234
 10
218.9324118207
 20
196.6466892704
 10
219.2922166468
 20
197.0831105225
 10
219.6723874639
 20
197.491981881
 10
220.0724050045
 20
197.8727448766
 10
220.4917228927
 20
198.2248794329
 10
220.9297683907
 20
198.5479045764
 10
221.385943181
 20
198.8413790938
 10
221.8596241839
 20
199.104902134
 10
222.3501644079
 20
199.3381137564
 10
222.8568938342
 20
199.5406954218
 10
223.3791203312
 20
199.7123704282
 10
223.9161306005
 20
199.852904288
 10
224.4671911507
 20
199.962105049
 10
225.0315492991
 20
200.039823556
 10
225.6084342006
 20
200.085953655
 10
226.1970578998
 20
200.1004323377
 10
226.7966164074
 20
200.0832398279
 10
227.4062907986
 20
200.0343996087
 10
228.0252483317
 20
199.9539783899
 10
228.652643585
 20
199.8420860171
 10
229.2876196121
 20
199.6988753219
 10
229.9293091121
 20
199.524541913
 10
230.5768356143
 20
199.3193239086
 10
231.2293146755
 20
199.0835016121
 10
231.8858550878
 20
198.8173971281
 10
232.5455600958
 20
198.5213739236
 10
233.2075286219
 20
198.1958363305
 10
233.8708564967
 20
197.8412289941
 10
234.5346376942
 20
197.4580362652
 10
235.1979655691
 20
197.0467815392
 10
235.8599340952
 20
196.6080265405
 10
236.5196391032
 20
196.1423705556
 10
237.1761795154
 20
195.6504496146
 10
237.8286585766
 20
195.1329356223
 10
238.4761850789
 20
194.5905354406
 10
239.1178745789
 20
194.0239899229
 10
239.752850606
 20
193.4340729023
 10
240.3802458593
 20
192.8215901343
 10
240.9992033923
 20
192.1873781969
 10
241.6088777836
 20
191.5323033472
 10
242.2084362912
 20
190.8572603387
 10
242.7970599903
 20
190.163171199
 10
243.3739448918
 20
189.4509839702
 10
243.9383030403
 20
188.7216714145
 10
244.4893635904
 20
187.9762296851
 10
245.0263738597
 20
187.2156769658
 10
245.5486003568
 20
186.4410520801
 10
246.055329783
 20
185.6534130724
 10
246.5458700071
 20
184.8538357628
 10
247.0195510099
 20
184.0434122778
 10
247.4757258003
 20
183.2232495583
 10
247.9137712983
 20
182.3944678481
 10
248.3330891865
 20
181.5581991632
 10
248.733106727
 20
180.715585746
 10
249.1132775442
 20
179.8677785051
 10
249.4730823702
 20
179.0159354433
 10
249.8120297551
 20
178.1612200756
 10
250.1296567374
 20
177.3047998406
 10
250.425529477
 20
176.4478445051
 10
250.6992438472
 20
175.5915245671
 10
250.9504259871
 20
174.7370096567
 10
251.1787328122
 20
173.8854669384
 10
251.3838524828
 20
173.0380595171
 10
251.56550483
 20
172.1959448495
 10
251.7234417387
 20
171.3602731629
 10
251.857447486
 20
170.5321858843
 10
251.9673390362
 20
169.7128140813
 10
252.0529662906
 20
168.9032769172
 10
252.1142122928
 20
168.1046801224
 10
252.1509933879
 20
167.3181144842
 10
252.1632593376
 20
166.5446543564
  0
ARC
  5
BA
330
1F
100
AcDbEntity
  8
0
  6
Continuous
 62
     7
370
     0
100
AcDbCircle
 10
215.2371518226
 20
167.3690748872
 30
0.0
 40
36.60507975861393
100
AcDbArc
 50
43.8679743642
 51
45.7034262706
  0
LINE
  5
BB
330
1F
100
AcDbEntity
  8
0
  6
Continuous
 62
     7
370
     0
100
AcDbLine
 10
242.6745061827
 20
194.6500689329
 30
0.0
 11
240.8011323728
 21
193.5685932523
 31
0.0
  0
ARC
  5
BC
330
1F
100
AcDbEntity
  8
0
  6
Continuous
 62
     7
370
     0
100
AcDbCircle
 10
217.7953122772
 20
169.1469434599
 30
0.0
 40
35.62841139146193
100
AcDbArc
 50
45.7095111667
 51
46.1767311135
  0
LINE
  5
BD
330
1F
100
AcDbEntity
  8
0
  6
Continuous
 62
     7
370
     0
100
AcDbLine
 10
240.3443950513
 20
193.6274846333
 30
0.0
 11
242.4657153949
 21
194.852096801
 31
0.0
  0
ARC
  5
BE
330
1F
100
AcDbEntity
  8
0
  6
Continuous
 62
     7
370
     0
100
AcDbCircle
 10
215.1282314702
 20
167.3628293066
 30
0.0
 40
36.40998524002452
100
AcDbArc
 50
43.8642843073
 51
46.166761698
  0
LINE
  5
BF
330
1F
100
AcDbEntity
  8
0
  6
Continuous
 62
     7
370
     0
100
AcDbLine
 10
241.6271659709
 20
192.7363573074
 30
0.0
 11
241.3792194372
 21
192.5932208203
 31
0.0
  0
SPLINE
  5
C0
330
1F
100
AcDbEntity
  8
0
  6
Continuous
 62
     7
370
     0
100
AcDbSpline
210
0.0
220
0.0
230
1.0
 70
     8
 71
     3
 72
    14
 73
    10
 74
     0
 42
0.00000001
 43
0.00000001
 12
1.0
 22
0.0
 32
0.0
 13
1.0
 23
0.0
 33
0.0
 40
0.0
 40
0.0
 40
0.0
 40
0.0
 40
0.1249642785198604
 40
0.2499282715641016
 40
0.3720998993849184
 40
0.4999250557765769
 40
0.6246427517431304
 40
0.7499738496850407
 40
1.0
 40
1.0
 40
1.0
 40
1.0
 10
240.509820587101
 20
196.3147071763134
 30
0.0
 10
240.4955952852475
 20
196.2809448281395
 30
0.0
 10
240.4671447140375
 20
196.2134202089203
 30
0.0
 10
240.3989538099562
 20
196.1223470728461
 30
0.0
 10
240.3199471607708
 20
196.0360669007398
 30
0.0
 10
240.2301539450362
 20
195.9558782940488
 30
0.0
 10
240.1326325682927
 20
195.8796302031465
 30
0.0
 10
239.9973171695455
 20
195.7830239783695
 30
0.0
 10
239.886900789681
 20
195.7173533546599
 30
0.0
 10
239.8133522368892
 20
195.673610031969
 30
0.0
  0
SPLINE
  5
C1
330
1F
100
AcDbEntity
  8
0
  6
Continuous
 62
     7
370
     0
100
AcDbSpline
210
0.0
220
0.0
230
1.0
 70
     8
 71
     3
 72
    13
 73
     9
 74
     0
 42
0.00000001
 43
0.00000001
 12
1.0
 22
0.0
 32
0.0
 13
1.0
 23
0.0
 33
0.0
 40
0.0
 40
0.0
 40
0.0
 40
0.0
 40
0.1251948774509707
 40
0.2503112808433222
 40
0.4999074824305221
 40
0.7496464708871775
 40
0.8747928721822833
 40
1.0
 40
1.0
 40
1.0
 40
1.0
 10
240.3515964596193
 20
196.7572723332837
 30
0.0
 10
240.3702483513703
 20
196.7413290636879
 30
0.0
 10
240.4075404435821
 20
196.7094525179808
 30
0.0
 10
240.469694755014
 20
196.6397339130751
 30
0.0
 10
240.5220481708413
 20
196.5442038329703
 30
0.0
 10
240.5358193257061
 20
196.4458149437042
 30
0.0
 10
240.5262106048613
 20
196.3698304659883
 30
0.0
 10
240.5152848097526
 20
196.3330845772703
 30
0.0
 10
240.509820587101
 20
196.3147071763134
 30
0.0
  0
SPLINE
  5
C2
330
1F
100
AcDbEntity
  8
0
  6
Continuous
 62
     7
370
     0
100
AcDbSpline
210
0.0
220
0.0
230
1.0
 70
     8
 71
     3
 72
    16
 73
    12
 74
     0
 42
0.00000001
 43
0.00000001
 12
1.0
 22
0.0
 32
0.0
 13
1.0
 23
0.0
 33
0.0
 40
0.0
 40
0.0
 40
0.0
 40
0.0
 40
0.1251729595269204
 40
0.2503372774079402
 40
0.5002449954416988
 40
0.6352206015890628
 40
0.7500261309022525
 40
0.8134102944345083
 40
0.8749697478554562
 40
0.9374576207513924
 40
1.0
 40
1.0
 40
1.0
 40
1.0
 10
238.7057019678905
 20
196.5674525978837
 30
0.0
 10
238.7632951725662
 20
196.5998712455651
 30
0.0
 10
238.8784776058186
 20
196.6647063028208
 30
0.0
 10
239.1233205561055
 20
196.7818155728001
 30
0.0
 10
239.3939762135916
 20
196.8838961291389
 30
0.0
 10
239.6923869315201
 20
196.9376151896979
 30
0.0
 10
239.8931725607152
 20
196.9385263770477
 30
0.0
 10
240.046185700858
 20
196.9116783576345
 30
0.0
 10
240.1601416808538
 20
196.8742581513802
 30
0.0
 10
240.2641495774897
 20
196.8227574805824
 30
0.0
 10
240.3224390285717
 20
196.7791070587822
 30
0.0
 10
240.3515964596193
 20
196.7572723332837
 30
0.0
  0
SPLINE
  5
C3
330
1F
100
AcDbEntity
  8
0
  6
Continuous
 62
     7
370
     0
100
AcDbSpline
210
0.0
220
0.0
230
1.0
 70
     8
 71
     3
 72
    18
 73
    14
 74
     0
 42
0.00000001
 43
0.00000001
 12
1.0
 22
0.0
 32
0.0
 13
1.0
 23
0.0
 33
0.0
 40
0.0
 40
0.0
 40
0.0
 40
0.0
 40
0.0624950322413549
 40
0.1249340560767829
 40
0.1865917156250405
 40
0.2498536395941504
 40
0.3120654852386789
 40
0.3748805468662907
 40
0.499712008759789
 40
0.6247329320279822
 40
0.7498001999826227
 40
0.8748958867714849
 40
1.0
 40
1.0
 40
1.0
 40
1.0
 10
238.172643732027
 20
195.5028962414851
 30
0.0
 10
238.146050941769
 20
195.5261263030435
 30
0.0
 10
238.0928891938639
 20
195.5725656072461
 30
0.0
 10
238.0374039026683
 20
195.651152549226
 30
0.0
 10
238.0028668920683
 20
195.7331768253887
 30
0.0
 10
237.9913795430366
 20
195.8157492911363
 30
0.0
 10
237.998203588891
 20
195.8968835690158
 30
0.0
 10
238.0274483069082
 20
196.0008475937241
 30
0.0
 10
238.1045188725114
 20
196.1198217570275
 30
0.0
 10
238.232519572374
 20
196.2452105538253
 30
0.0
 10
238.3780757489539
 20
196.3607495308458
 30
0.0
 10
238.537284006181
 20
196.4674728539078
 30
0.0
 10
238.6495613868633
 20
196.5341252682997
 30
0.0
 10
238.7057019678905
 20
196.5674525978837
 30
0.0
  0
SPLINE
  5
C4
330
1F
100
AcDbEntity
  8
0
  6
Continuous
 62
     7
370
     0
100
AcDbSpline
210
0.0
220
0.0
230
1.0
 70
     8
 71
     3
 72
    16
 73
    12
 74
     0
 42
0.00000001
 43
0.00000001
 12
1.0
 22
0.0
 32
0.0
 13
1.0
 23
0.0
 33
0.0
 40
0.0
 40
0.0
 40
0.0
 40
0.0
 40
0.1251681795783653
 40
0.2503286224455489
 40
0.5002403576317187
 40
0.6338071334602062
 40
0.7500155071378947
 40
0.8124974968691973
 40
0.8749673844673919
 40
0.9374604080777067
 40
1.0
 40
1.0
 40
1.0
 40
1.0
 10
239.8133522368892
 20
195.673610031969
 30
0.0
 10
239.755809842466
 20
195.641285861828
 30
0.0
 10
239.6407286103453
 20
195.57663951952
 30
0.0
 10
239.3963064323265
 20
195.4608480377441
 30
0.0
 10
239.1266837363833
 20
195.3622655286618
 30
0.0
 10
238.82992444423
 20
195.3127580908347
 30
0.0
 10
238.6305437959796
 20
195.3149250724591
 30
0.0
 10
238.4774331609167
 20
195.3449919781768
 30
0.0
 10
238.3637982788807
 20
195.3839776082399
 30
0.0
 10
238.2599513236864
 20
195.4372770845286
 30
0.0
 10
238.2017534878282
 20
195.4810177587715
 30
0.0
 10
238.172643732027
 20
195.5028962414851
 30
0.0
  0
SPLINE
  5
C5
330
1F
100
AcDbEntity
  8
0
  6
Continuous
 62
     7
370
     0
100
AcDbSpline
210
0.0
220
0.0
230
1.0
 70
     8
 71
     3
 72
    13
 73
     9
 74
     0
 42
0.00000001
 43
0.00000001
 12
1.0
 22
0.0
 32
0.0
 13
1.0
 23
0.0
 33
0.0
 40
0.0
 40
0.0
 40
0.0
 40
0.0
 40
0.1429290000846537
 40
0.2858355047860122
 40
0.5713887719618188
 40
0.7856535991854242
 40
0.8928128968450194
 40
1.0
 40
1.0
 40
1.0
 40
1.0
 10
236.6950359845193
 20
198.6256324885391
 30
0.0
 10
236.7453363827712
 20
198.6175945905764
 30
0.0
 10
236.8459292625701
 20
198.6015200597239
 30
0.0
 10
237.0511965429239
 20
198.5807254812712
 30
0.0
 10
237.2849926107689
 20
198.5725007542489
 30
0.0
 10
237.5038904547383
 20
198.5826338884821
 30
0.0
 10
237.6553342529721
 20
198.6001922162441
 30
0.0
 10
237.7277343028706
 20
198.6152563188028
 30
0.0
 10
237.7639390237682
 20
198.6227893471567
 30
0.0
  0
LINE
  5
C6
330
1F
100
AcDbEntity
  8
0
  6
Continuous
 62
     7
370
     0
100
AcDbLine
 10
236.4470894509
 20
198.4824960014
 30
0.0
 11
236.6950359845
 21
198.6256324885
 31
0.0
  0
SPLINE
  5
C7
330
1F
100
AcDbEntity
  8
0
  6
Continuous
 62
     7
370
     0
100
AcDbSpline
210
0.0
220
0.0
230
1.0
 70
     8
 71
     3
 72
    13
 73
     9
 74
     0
 42
0.00000001
 43
0.00000001
 12
1.0
 22
0.0
 32
0.0
 13
1.0
 23
0.0
 33
0.0
 40
0.0
 40
0.0
 40
0.0
 40
0.0
 40
0.1250123714961211
 40
0.2500229783890252
 40
0.4999839591220571
 40
0.7499694082085199
 40
0.8749832141361749
 40
1.0
 40
1.0
 40
1.0
 40
1.0
 10
237.2182051157286
 20
198.4014742205158
 30
0.0
 10
237.1855933524059
 20
198.4010023001998
 30
0.0
 10
237.1203702860895
 20
198.4000584662294
 30
0.0
 10
236.9896525600048
 20
198.4061401729312
 30
0.0
 10
236.8270788869554
 20
198.4200289359434
 30
0.0
 10
236.6664055727975
 20
198.4409770754361
 30
0.0
 10
236.5395631567879
 20
198.4619543053574
 30
0.0
 10
236.4779142644166
 20
198.475648714982
 30
0.0
 10
236.4470894508565
 20
198.4824960014013
 30
0.0
  0
LINE
  5
C8
330
1F
100
AcDbEntity
  8
0
  6
Continuous
 62
     7
370
     0
100
AcDbLine
 10
235.5376786098
 20
197.4313269188
 30
0.0
 11
237.2182051157
 21
198.4014742205
 31
0.0
  0
ARC
  5
C9
330
1F
100
AcDbEntity
  8
0
  6
Continuous
 62
     7
370
     0
100
AcDbCircle
 10
221.7286824476
 20
175.5599175772
 30
0.0
 40
25.86594134367718
100
AcDbArc
 50
57.1544238207
 51
57.7328313046
  0
LINE
  5
CA
330
1F
100
AcDbEntity
  8
0
  6
Continuous
 62
     7
370
     0
100
AcDbLine
 10
237.90663557
 20
198.5313276411
 30
0.0
 11
235.7577656116
 21
197.2908114192
 31
0.0
  0
ARC
  5
CB
330
1F
100
AcDbEntity
  8
0
  6
Continuous
 62
     7
370
     0
100
AcDbCircle
 10
223.8348079074
 20
176.7338178609
 30
0.0
 40
25.94509137356228
100
AcDbArc
 50
57.1549091337
 51
57.5292071105
  0
SPLINE
  5
CC
330
1F
100
AcDbEntity
  8
0
  6
Continuous
 62
     7
370
     0
100
AcDbSpline
210
0.0
220
0.0
230
1.0
 70
     8
 71
     3
 72
    13
 73
     9
 74
     0
 42
0.00000001
 43
0.00000001
 12
1.0
 22
0.0
 32
0.0
 13
1.0
 23
0.0
 33
0.0
 40
0.0
 40
0.0
 40
0.0
 40
0.0
 40
0.1252811271759511
 40
0.2504738718290436
 40
0.4999736990848824
 40
0.7495186620198464
 40
0.8747168909573877
 40
0.9999999999999999
 40
0.9999999999999999
 40
0.9999999999999999
 40
0.9999999999999999
 10
233.8868914837927
 20
199.5560397354746
 30
0.0
 10
233.899230701862
 20
199.5383871826939
 30
0.0
 10
233.9239004330086
 20
199.5030945305419
 30
0.0
 10
233.9507496917415
 20
199.4274862311252
 30
0.0
 10
233.942318608386
 20
199.3269586192221
 30
0.0
 10
233.8697090380512
 20
199.2298444772819
 30
0.0
 10
233.783611580936
 20
199.1598664701051
 30
0.0
 10
233.7317673236715
 20
199.1281536842753
 30
0.0
 10
233.7058364108599
 20
199.1122919181365
 30
0.0
  0
SPLINE
  5
CD
330
1F
100
AcDbEntity
  8
0
  6
Continuous
 62
     7
370
     0
100
AcDbSpline
210
0.0
220
0.0
230
1.0
 70
     8
 71
     3
 72
    11
 73
     7
 74
     0
 42
0.00000001
 43
0.00000001
 12
1.0
 22
0.0
 32
0.0
 13
1.0
 23
0.0
 33
0.0
 40
0.0
 40
0.0
 40
0.0
 40
0.0
 40
0.5000226720966782
 40
0.7500106326006034
 40
0.8750211364987092
 40
1.0
 40
1.0
 40
1.0
 40
1.0
 10
233.6302644163837
 20
199.7808949127989
 30
0.0
 10
233.6770414555488
 20
199.7453723312544
 30
0.0
 10
233.7472048275181
 20
199.6920901195816
 30
0.0
 10
233.8203440126044
 20
199.6253978418914
 30
0.0
 10
233.8612117852666
 20
199.5867199624664
 30
0.0
 10
233.8783323065815
 20
199.5662656148569
 30
0.0
 10
233.8868914837927
 20
199.5560397354746
 30
0.0
  0
SPLINE
  5
CE
330
1F
100
AcDbEntity
  8
0
  6
Continuous
 62
     7
370
     0
100
AcDbSpline
210
0.0
220
0.0
230
1.0
 70
     8
 71
     3
 72
    12
 73
     8
 74
     0
 42
0.00000001
 43
0.00000001
 12
1.0
 22
0.0
 32
0.0
 13
1.0
 23
0.0
 33
0.0
 40
0.0
 40
0.0
 40
0.0
 40
0.0
 40
0.0684070121218567
 40
0.1249521065050069
 40
0.2499724161952047
 40
0.4999612419727746
 40
1.0
 40
1.0
 40
1.0
 40
1.0
 10
233.437535365452
 20
200.002281248225
 30
0.0
 10
233.4376501484471
 20
199.9964497574825
 30
0.0
 10
233.437859810828
 20
199.9857979685835
 30
0.0
 10
233.4435464400113
 20
199.9650839929643
 30
0.0
 10
233.4627533618486
 20
199.930951940895
 30
0.0
 10
233.5207461601123
 20
199.8662023181676
 30
0.0
 10
233.5864560431681
 20
199.8150187089556
 30
0.0
 10
233.6302644163837
 20
199.7808949127989
 30
0.0
  0
SPLINE
  5
CF
330
1F
100
AcDbEntity
  8
0
  6
Continuous
 62
     7
370
     0
100
AcDbSpline
210
0.0
220
0.0
230
1.0
 70
     8
 71
     3
 72
    11
 73
     7
 74
     0
 42
0.00000001
 43
0.00000001
 12
1.0
 22
0.0
 32
0.0
 13
1.0
 23
0.0
 33
0.0
 40
0.0
 40
0.0
 40
0.0
 40
0.0
 40
0.2502289237422089
 40
0.5002032682721483
 40
0.7499928847035011
 40
1.0
 40
1.0
 40
1.0
 40
1.0
 10
233.584216093292
 20
200.1543334510291
 30
0.0
 10
233.5655320855679
 20
200.1429533323715
 30
0.0
 10
233.5281830789532
 20
200.1202046730211
 30
0.0
 10
233.4822161856807
 20
200.0829351815661
 30
0.0
 10
233.4482928966375
 20
200.0430737391538
 30
0.0
 10
233.4411222493418
 20
200.0158826894864
 30
0.0
 10
233.437535365452
 20
200.002281248225
 30
0.0
  0
SPLINE
  5
D0
330
1F
100
AcDbEntity
  8
0
  6
Continuous
 62
     7
370
     0
100
AcDbSpline
210
0.0
220
0.0
230
1.0
 70
     8
 71
     3
 72
    15
 73
    11
 74
     0
 42
0.00000001
 43
0.00000001
 12
1.0
 22
0.0
 32
0.0
 13
1.0
 23
0.0
 33
0.0
 40
0.0
 40
0.0
 40
0.0
 40
0.0
 40
0.0777526257237599
 40
0.1432281142729331
 40
0.2506300153014006
 40
0.4995926731139621
 40
0.6246817606491039
 40
0.7496818425173593
 40
0.8748013780954865
 40
0.9999999999999999
 40
0.9999999999999999
 40
0.9999999999999999
 40
0.9999999999999999
 10
234.3211883212201
 20
200.1836269547045
 30
0.0
 10
234.3056673591294
 20
200.189999582951
 30
0.0
 10
234.2770761943776
 20
200.2017386016427
 30
0.0
 10
234.2235177242568
 20
200.2198867579146
 30
0.0
 10
234.1279575831203
 20
200.2460445121346
 30
0.0
 10
233.9991787756144
 20
200.2605144502712
 30
0.0
 10
233.8591291561496
 20
200.2485653633512
 30
0.0
 10
233.7564992251331
 20
200.2278924090128
 30
0.0
 10
233.6622298630734
 20
200.1957641525975
 30
0.0
 10
233.6102261599584
 20
200.1681465934122
 30
0.0
 10
233.584216093292
 20
200.1543334510291
 30
0.0
  0
SPLINE
  5
D1
330
1F
100
AcDbEntity
  8
0
  6
Continuous
 62
     7
370
     0
100
AcDbSpline
210
0.0
220
0.0
230
1.0
 70
     8
 71
     3
 72
    14
 73
    10
 74
     0
 42
0.00000001
 43
0.00000001
 12
1.0
 22
0.0
 32
0.0
 13
1.0
 23
0.0
 33
0.0
 40
0.0
 40
0.0
 40
0.0
 40
0.0
 40
0.1253630775418432
 40
0.2506826249695318
 40
0.3937251744239495
 40
0.5010193669162339
 40
0.7494139240249075
 40
0.8746544750575698
 40
1.0
 40
1.0
 40
1.0
 40
1.0
 10
234.3291227937626
 20
199.7582728944414
 30
0.0
 10
234.353822156509
 20
199.775602476425
 30
0.0
 10
234.4032123055843
 20
199.8102556230012
 30
0.0
 10
234.466445261393
 20
199.8691837986429
 30
0.0
 10
234.507248992706
 20
199.9292424052522
 30
0.0
 10
234.5266962297033
 20
200.0107174544523
 30
0.0
 10
234.4859195922428
 20
200.0856688640629
 30
0.0
 10
234.4010627542345
 20
200.1462157398501
 30
0.0
 10
234.34782056685
 20
200.171153067558
 30
0.0
 10
234.3211883212201
 20
200.1836269547045
 30
0.0
  0
SPLINE
  5
D2
330
1F
100
AcDbEntity
  8
0
  6
Continuous
 62
     7
370
     0
100
AcDbSpline
210
0.0
220
0.0
230
1.0
 70
     8
 71
     3
 72
     8
 73
     4
 74
     0
 42
0.00000001
 43
0.00000001
 12
1.0
 22
0.0
 32
0.0
 13
1.0
 23
0.0
 33
0.0
 40
0.0
 40
0.0
 40
0.0
 40
0.0
 40
1.0
 40
1.0
 40
1.0
 40
1.0
 10
234.5760232953629
 20
199.6722986103483
 30
0.0
 10
234.4936802105793
 20
199.7014996297855
 30
0.0
 10
234.411378208356
 20
199.7301585767666
 30
0.0
 10
234.3291227937626
 20
199.7582728944414
 30
0.0
  0
SPLINE
  5
D3
330
1F
100
AcDbEntity
  8
0
  6
Continuous
 62
     7
370
     0
100
AcDbSpline
210
0.0
220
0.0
230
1.0
 70
     8
 71
     3
 72
    15
 73
    11
 74
     0
 42
0.00000001
 43
0.00000001
 12
1.0
 22
0.0
 32
0.0
 13
1.0
 23
0.0
 33
0.0
 40
0.0
 40
0.0
 40
0.0
 40
0.0
 40
0.0627787189007932
 40
0.1255404537923985
 40
0.2509217997511365
 40
0.4999930802217219
 40
0.7490704743254051
 40
0.8744612101315474
 40
0.9372214876468203
 40
1.0
 40
1.0
 40
1.0
 40
1.0
 10
234.5618762486054
 20
200.3298804973635
 30
0.0
 10
234.5824372195563
 20
200.3204532046712
 30
0.0
 10
234.6235535989407
 20
200.3016011697246
 30
0.0
 10
234.6997115741293
 20
200.2602002316452
 30
0.0
 10
234.8091764849041
 20
200.176721024001
 30
0.0
 10
234.8874465856757
 20
200.0272415587002
 30
0.0
 10
234.8159398665294
 20
199.8657574768141
 30
0.0
 10
234.7104832814491
 20
199.7646117034747
 30
0.0
 10
234.6364939954861
 20
199.7107454095071
 30
0.0
 10
234.5961821472044
 20
199.6851154510074
 30
0.0
 10
234.5760232953629
 20
199.6722986103483
 30
0.0
  0
SPLINE
  5
D4
330
1F
100
AcDbEntity
  8
0
  6
Continuous
 62
     7
370
     0
100
AcDbSpline
210
0.0
220
0.0
230
1.0
 70
     8
 71
     3
 72
    16
 73
    12
 74
     0
 42
0.00000001
 43
0.00000001
 12
1.0
 22
0.0
 32
0.0
 13
1.0
 23
0.0
 33
0.0
 40
0.0
 40
0.0
 40
0.0
 40
0.0
 40
0.0626827915024324
 40
0.125348329837804
 40
0.2504777186787188
 40
0.4991637604942339
 40
0.6242589209323735
 40
0.7494133056485497
 40
0.8746428196545928
 40
0.9373144782055621
 40
1.0
 40
1.0
 40
1.0
 40
1.0
 10
233.3716518702328
 20
200.2435440491113
 30
0.0
 10
233.3919668842454
 20
200.2548419696152
 30
0.0
 10
233.4325913206512
 20
200.2774347009192
 30
0.0
 10
233.5212476726065
 20
200.3191835628489
 30
0.0
 10
233.691686569316
 20
200.3825839789734
 30
0.0
 10
233.9193436286372
 20
200.4240959344302
 30
0.0
 10
234.1402517617522
 20
200.427472613538
 30
0.0
 10
234.2977238625878
 20
200.4113815072536
 30
0.0
 10
234.4149809765254
 20
200.382887930238
 30
0.0
 10
234.5016449962469
 20
200.3545447015285
 30
0.0
 10
234.5417976843247
 20
200.3381025048657
 30
0.0
 10
234.5618762486054
 20
200.3298804973635
 30
0.0
  0
SPLINE
  5
D5
330
1F
100
AcDbEntity
  8
0
  6
Continuous
 62
     7
370
     0
100
AcDbSpline
210
0.0
220
0.0
230
1.0
 70
     8
 71
     3
 72
    15
 73
    11
 74
     0
 42
0.00000001
 43
0.00000001
 12
1.0
 22
0.0
 32
0.0
 13
1.0
 23
0.0
 33
0.0
 40
0.0
 40
0.0
 40
0.0
 40
0.0
 40
0.1002638719455917
 40
0.2506188090589255
 40
0.3758439836045921
 40
0.5008774064868258
 40
0.7495964227322595
 40
0.8747064182623572
 40
0.93733986761347
 40
1.0
 40
1.0
 40
1.0
 40
1.0
 10
233.3547882218105
 20
199.6763782384133
 30
0.0
 10
233.3345428728416
 20
199.6931804509077
 30
0.0
 10
233.2839377530799
 20
199.7351791330171
 30
0.0
 10
233.2156685991587
 20
199.7997886958292
 30
0.0
 10
233.1563494396687
 20
199.872163772429
 30
0.0
 10
233.1237794026411
 20
199.9707604713397
 30
0.0
 10
233.1617138063231
 20
200.078141150875
 30
0.0
 10
233.2530161127057
 20
200.164214233266
 30
0.0
 10
233.3168775663303
 20
200.2108016317856
 30
0.0
 10
233.3533911769025
 20
200.2326283605662
 30
0.0
 10
233.3716518702328
 20
200.2435440491113
 30
0.0
  0
SPLINE
  5
D6
330
1F
100
AcDbEntity
  8
0
  6
Continuous
 62
     7
370
     0
100
AcDbSpline
210
0.0
220
0.0
230
1.0
 70
     8
 71
     3
 72
    16
 73
    12
 74
     0
 42
0.00000001
 43
0.00000001
 12
1.0
 22
0.0
 32
0.0
 13
1.0
 23
0.0
 33
0.0
 40
0.0
 40
0.0
 40
0.0
 40
0.0
 40
0.0625795252929905
 40
0.1251155320466102
 40
0.2498237836924495
 40
0.3744671792113396
 40
0.4993284528219521
 40
0.6205760330217929
 40
0.7853909342519781
 40
0.8873882837646181
 40
1.0
 40
1.0
 40
1.0
 40
1.0
 10
233.479963862788
 20
199.2112572893058
 30
0.0
 10
233.4946671538554
 20
199.220228567441
 30
0.0
 10
233.5240635111484
 20
199.2381648849788
 30
0.0
 10
233.5727206353008
 20
199.2776980320695
 30
0.0
 10
233.6136943260928
 20
199.3323062974633
 30
0.0
 10
233.6200251803052
 20
199.3998880629724
 30
0.0
 10
233.5894652916861
 20
199.4617624927639
 30
0.0
 10
233.5314167106379
 20
199.5232666532232
 30
0.0
 10
233.4712033048713
 20
199.5788991161174
 30
0.0
 10
233.4093361666961
 20
199.6317463613591
 30
0.0
 10
233.373560677684
 20
199.6610183574075
 30
0.0
 10
233.3547882218105
 20
199.6763782384133
 30
0.0
  0
SPLINE
  5
D7
330
1F
100
AcDbEntity
  8
0
  6
Continuous
 62
     7
370
     0
100
AcDbSpline
210
0.0
220
0.0
230
1.0
 70
     8
 71
     3
 72
    16
 73
    12
 74
     0
 42
0.00000001
 43
0.00000001
 12
1.0
 22
0.0
 32
0.0
 13
1.0
 23
0.0
 33
0.0
 40
0.0
 40
0.0
 40
0.0
 40
0.0
 40
0.1251298534570248
 40
0.2501927365502785
 40
0.3929614418558055
 40
0.5001165276216101
 40
0.642834621924365
 40
0.749938473727909
 40
0.8748622099567
 40
0.9374171835512065
 40
0.9999999999999999
 40
0.9999999999999999
 40
0.9999999999999999
 40
0.9999999999999999
 10
232.6906282966596
 20
199.1919284468144
 30
0.0
 10
232.7176681067746
 20
199.1809993986264
 30
0.0
 10
232.7717332551112
 20
199.1591471515527
 30
0.0
 10
232.8677685710614
 20
199.1316751848528
 30
0.0
 10
232.9695419926979
 20
199.1141286026545
 30
0.0
 10
233.084128276268
 20
199.1082554131148
 30
0.0
 10
233.1917682031402
 20
199.1153217834992
 30
0.0
 10
233.3008934409804
 20
199.1360099905916
 30
0.0
 10
233.3796122972414
 20
199.1619805593863
 30
0.0
 10
233.4393697488242
 20
199.1888038639832
 30
0.0
 10
233.4664304844841
 20
199.2037717040956
 30
0.0
 10
233.479963862788
 20
199.2112572893058
 30
0.0
  0
SPLINE
  5
D8
330
1F
100
AcDbEntity
  8
0
  6
Continuous
 62
     7
370
     0
100
AcDbSpline
210
0.0
220
0.0
230
1.0
 70
     8
 71
     3
 72
    15
 73
    11
 74
     0
 42
0.00000001
 43
0.00000001
 12
1.0
 22
0.0
 32
0.0
 13
1.0
 23
0.0
 33
0.0
 40
0.0
 40
0.0
 40
0.0
 40
0.0
 40
0.1251442851864198
 40
0.2502017963495081
 40
0.3751051540460505
 40
0.500018750140006
 40
0.6249636838007112
 40
0.7499233596452595
 40
0.8749319668218639
 40
1.0
 40
1.0
 40
1.0
 40
1.0
 10
232.6834548583044
 20
199.6876497781271
 30
0.0
 10
232.6543505773772
 20
199.6671535926341
 30
0.0
 10
232.5961621961929
 20
199.6261754335354
 30
0.0
 10
232.5250000140978
 20
199.5605850143211
 30
0.0
 10
232.4749261110138
 20
199.4915563082752
 30
0.0
 10
232.462361754973
 20
199.4213689777898
 30
0.0
 10
232.4807194780729
 20
199.3542284109451
 30
0.0
 10
232.5259557438376
 20
199.2920316735029
 30
0.0
 10
232.5965710144264
 20
199.2369241922805
 30
0.0
 10
232.6592709027662
 20
199.2069294045352
 30
0.0
 10
232.6906282966596
 20
199.1919284468144
 30
0.0
  0
SPLINE
  5
D9
330
1F
100
AcDbEntity
  8
0
  6
Continuous
 62
     7
370
     0
100
AcDbSpline
210
0.0
220
0.0
230
1.0
 70
     8
 71
     3
 72
     8
 73
     4
 74
     0
 42
0.00000001
 43
0.00000001
 12
1.0
 22
0.0
 32
0.0
 13
1.0
 23
0.0
 33
0.0
 40
0.0
 40
0.0
 40
0.0
 40
0.0
 40
1.0
 40
1.0
 40
1.0
 40
1.0
 10
232.4382813343076
 20
199.7571420580921
 30
0.0
 10
232.5199336713941
 20
199.7345334266349
 30
0.0
 10
232.6016599999689
 20
199.7113686189133
 30
0.0
 10
232.6834548583044
 20
199.6876497781271
 30
0.0
  0
SPLINE
  5
DA
330
1F
100
AcDbEntity
  8
0
  6
Continuous
 62
     7
370
     0
100
AcDbSpline
210
0.0
220
0.0
230
1.0
 70
     8
 71
     3
 72
    17
 73
    13
 74
     0
 42
0.00000001
 43
0.00000001
 12
1.0
 22
0.0
 32
0.0
 13
1.0
 23
0.0
 33
0.0
 40
0.0
 40
0.0
 40
0.0
 40
0.0
 40
0.0625856100871915
 40
0.1251549030271038
 40
0.2501430453663136
 40
0.3756899044275474
 40
0.4999449646693334
 40
0.6248671745802138
 40
0.7498239565756871
 40
0.8748397203247755
 40
0.9374129209274158
 40
1.0
 40
1.0
 40
1.0
 40
1.0
 10
232.4238888734218
 20
199.0569168678263
 30
0.0
 10
232.4008945637729
 20
199.0672966020571
 30
0.0
 10
232.3549119394881
 20
199.0880533643431
 30
0.0
 10
232.2720566999343
 20
199.1336687089009
 30
0.0
 10
232.1857358885133
 20
199.1978886336744
 30
0.0
 10
232.121026583508
 20
199.2859825639447
 30
0.0
 10
232.1031945952666
 20
199.3821600848169
 30
0.0
 10
232.1292529290949
 20
199.4812758197645
 30
0.0
 10
232.2006568814263
 20
199.5790336664375
 30
0.0
 10
232.2873941983541
 20
199.6565204137227
 30
0.0
 10
232.3703327605096
 20
199.7150518428082
 30
0.0
 10
232.4156301354331
 20
199.743110949214
 30
0.0
 10
232.4382813343076
 20
199.7571420580921
 30
0.0
  0
SPLINE
  5
DB
330
1F
100
AcDbEntity
  8
0
  6
Continuous
 62
     7
370
     0
100
AcDbSpline
210
0.0
220
0.0
230
1.0
 70
     8
 71
     3
 72
    16
 73
    12
 74
     0
 42
0.00000001
 43
0.00000001
 12
1.0
 22
0.0
 32
0.0
 13
1.0
 23
0.0
 33
0.0
 40
0.0
 40
0.0
 40
0.0
 40
0.0
 40
0.0625855665553854
 40
0.1251419478590803
 40
0.2500971494983084
 40
0.3750709526752736
 40
0.4999880743355287
 40
0.6248991864886239
 40
0.7498369235043443
 40
0.8748857555372312
 40
1.0
 40
1.0
 40
1.0
 40
1.0
 10
233.7058364108599
 20
199.1122919181365
 30
0.0
 10
233.683847453768
 20
199.1002878189904
 30
0.0
 10
233.6398797935979
 20
199.076285218517
 30
0.0
 10
233.5440599714947
 20
199.0326928292482
 30
0.0
 10
233.4099057793157
 20
198.9883375706871
 30
0.0
 10
233.2354012746398
 20
198.9526304847903
 30
0.0
 10
233.0541386843775
 20
198.9348317153772
 30
0.0
 10
232.8747405071528
 20
198.9395861089692
 30
0.0
 10
232.7068273245255
 20
198.9639061064047
 30
0.0
 10
232.555129699438
 20
199.0041833104406
 30
0.0
 10
232.4676434407049
 20
199.0393359514701
 30
0.0
 10
232.4238888734218
 20
199.0569168678263
 30
0.0
  0
SPLINE
  5
DC
330
1F
100
AcDbEntity
  8
0
  6
Continuous
 62
     7
370
     0
100
AcDbSpline
210
0.0
220
0.0
230
1.0
 70
     8
 71
     3
 72
    14
 73
    10
 74
     0
 42
0.00000001
 43
0.00000001
 12
1.0
 22
0.0
 32
0.0
 13
1.0
 23
0.0
 33
0.0
 40
0.0
 40
0.0
 40
0.0
 40
0.0
 40
0.0626209035518783
 40
0.125197136984164
 40
0.2501776311320299
 40
0.4995004115477686
 40
0.7494942445745891
 40
0.8747342129769956
 40
1.0
 40
1.0
 40
1.0
 40
1.0
 10
231.1058256077241
 20
201.3542983165241
 30
0.0
 10
231.1191069983326
 20
201.3448413858511
 30
0.0
 10
231.1456603053761
 20
201.3259342705309
 30
0.0
 10
231.1767696495731
 20
201.2800396229954
 30
0.0
 10
231.1825771009043
 20
201.1859908831802
 30
0.0
 10
231.0805763553776
 20
201.0318326374654
 30
0.0
 10
230.895991063468
 20
200.8781136023183
 30
0.0
 10
230.7173915328851
 20
200.7587163491709
 30
0.0
 10
230.6189976247932
 20
200.700635142446
 30
0.0
 10
230.569795600215
 20
200.6715915459853
 30
0.0
  0
SPLINE
  5
DD
330
1F
100
AcDbEntity
  8
0
  6
Continuous
 62
     7
370
     0
100
AcDbSpline
210
0.0
220
0.0
230
1.0
 70
     8
 71
     3
 72
    13
 73
     9
 74
     0
 42
0.00000001
 43
0.00000001
 12
1.0
 22
0.0
 32
0.0
 13
1.0
 23
0.0
 33
0.0
 40
0.0
 40
0.0
 40
0.0
 40
0.0
 40
0.2621623226301575
 40
0.5000242273424722
 40
0.6219901488518266
 40
0.7500545430443156
 40
0.8623234327868307
 40
1.0
 40
1.0
 40
1.0
 40
1.0
 10
230.8258190722647
 20
201.4345861169469
 30
0.0
 10
230.8536108894334
 20
201.4296140332993
 30
0.0
 10
230.9066184374546
 20
201.4201307396696
 30
0.0
 10
230.968813696861
 20
201.4056063489999
 30
0.0
 10
231.0145879828849
 20
201.3924339228131
 30
0.0
 10
231.0472736018878
 20
201.381856043343
 30
0.0
 10
231.0782128237718
 20
201.3692006745275
 30
0.0
 10
231.0960180295455
 20
201.3595913735883
 30
0.0
 10
231.1058256077241
 20
201.3542983165241
 30
0.0
  0
ARC
  5
DE
330
1F
100
AcDbEntity
  8
0
  6
Continuous
 62
     7
370
     0
100
AcDbCircle
 10
228.6277336045
 20
188.407557544
 30
0.0
 40
13.21117152879303
100
AcDbArc
 50
80.4225418661
 51
82.8783762373
  0
LINE
  5
DF
330
1F
100
AcDbEntity
  8
0
  6
Continuous
 62
     7
370
     0
100
AcDbLine
 10
228.1442811957
 20
200.2921956139
 30
0.0
 11
230.2656015393
 21
201.5168077816
 31
0.0
  0
ARC
  5
E0
330
1F
100
AcDbEntity
  8
0
  6
Continuous
 62
     7
370
     0
100
AcDbCircle
 10
226.5040412473
 20
187.1659768672
 30
0.0
 40
13.22830320459886
100
AcDbArc
 50
80.3105172434
 51
82.8772932969
  0
SPLINE
  5
E1
330
1F
100
AcDbEntity
  8
0
  6
Continuous
 62
     7
370
     0
100
AcDbSpline
210
0.0
220
0.0
230
1.0
 70
     8
 71
     3
 72
    17
 73
    13
 74
     0
 42
0.00000001
 43
0.00000001
 12
1.0
 22
0.0
 32
0.0
 13
1.0
 23
0.0
 33
0.0
 40
0.0
 40
0.0
 40
0.0
 40
0.0
 40
0.0715357051320338
 40
0.143064735485808
 40
0.2860245204548001
 40
0.4289089802452746
 40
0.5716729696068843
 40
0.6786677761034727
 40
0.7855971142383416
 40
0.8927121774632341
 40
0.9463509865938885
 40
1.0
 40
1.0
 40
1.0
 40
1.0
 10
230.569795600215
 20
200.6715915459853
 30
0.0
 10
230.5329346536137
 20
200.6506880579971
 30
0.0
 10
230.4592161997934
 20
200.6088830324613
 30
0.0
 10
230.3039347829721
 20
200.5273698741957
 30
0.0
 10
230.0955816388889
 20
200.4298834313628
 30
0.0
 10
229.8214189744186
 20
200.3248019590033
 30
0.0
 10
229.5517706722432
 20
200.2437664252971
 30
0.0
 10
229.2976801198304
 20
200.1919477173151
 30
0.0
 10
229.081104972908
 20
200.1755984691612
 30
0.0
 10
228.9230917601778
 20
200.1811158402781
 30
0.0
 10
228.809238235401
 20
200.1931219096146
 30
0.0
 10
228.7567319630594
 20
200.201420461069
 30
0.0
 10
228.7304763299209
 20
200.2055701314389
 30
0.0
  0
LWPOLYLINE
  5
E2
330
1F
100
AcDbEntity
  8
0
  6
Continuous
 62
     7
370
     0
100
AcDbPolyline
 90
       65
 70
   128
 43
0.0
 10
255.2745291748
 20
168.3407522024
 10
255.2622632252
 20
169.1142123302
 10
255.22548213
 20
169.9007779684
 10
255.1642361279
 20
170.6993747632
 10
255.0786088734
 20
171.5089119273
 10
254.9687173233
 20
172.3282837303
 10
254.834711576
 20
173.1563710089
 10
254.6767746673
 20
173.9920426955
 10
254.49512232
 20
174.8341573632
 10
254.2900026494
 20
175.6815647844
 10
254.0616958244
 20
176.5331075027
 10
253.8105136844
 20
177.3876224131
 10
253.5367993142
 20
178.2439423511
 10
253.2409265747
 20
179.1008976866
 10
252.9232995923
 20
179.9573179217
 10
252.5843522074
 20
180.8120332893
 10
252.2245473814
 20
181.6638763511
 10
251.8443765643
 20
182.511683592
 10
251.4443590237
 20
183.3542970092
 10
251.0250411355
 20
184.1905656941
 10
250.5869956375
 20
185.0193474044
 10
250.1308208471
 20
185.8395101238
 10
249.6571398443
 20
186.6499336088
 10
249.1665996203
 20
187.4495109184
 10
248.659870194
 20
188.2371499261
 10
248.1376436969
 20
189.0117748118
 10
247.6006334276
 20
189.7723275311
 10
247.0495728775
 20
190.5177692605
 10
246.485214729
 20
191.2470818162
 10
245.9083298275
 20
191.959269045
 10
245.3197061284
 20
192.6533581847
 10
244.7201476208
 20
193.3284011933
 10
244.1104732295
 20
193.9834760429
 10
243.4915156965
 20
194.6176879804
 10
242.8641204432
 20
195.2301707483
 10
242.2291444161
 20
195.8200877689
 10
241.5874549161
 20
196.3866332866
 10
240.9399284138
 20
196.9290334683
 10
240.2874493526
 20
197.4465474606
 10
239.6309089404
 20
197.9384684016
 10
238.9712039324
 20
198.4041243865
 10
238.3092354063
 20
198.8428793852
 10
237.6459075314
 20
199.2541341113
 10
236.9821263339
 20
199.6373268401
 10
236.3187984591
 20
199.9919341765
 10
235.656829933
 20
200.3174717696
 10
234.997124925
 20
200.6134949742
 10
234.3405845128
 20
200.8795994581
 10
233.6881054516
 20
201.1154217546
 10
233.0405789493
 20
201.320639759
 10
232.3988894493
 20
201.4949731679
 10
231.7639134222
 20
201.6381838631
 10
231.1365181689
 20
201.7500762359
 10
230.5175606358
 20
201.8304974547
 10
229.9078862446
 20
201.8793376739
 10
229.308327737
 20
201.8965301837
 10
228.7197040378
 20
201.882051501
 10
228.1428191363
 20
201.8359214021
 10
227.5784609879
 20
201.758202895
 10
227.0274004378
 20
201.649002134
 10
226.4903901685
 20
201.5084682742
 10
225.9681636714
 20
201.3367932679
 10
225.4614342451
 20
201.1342116024
 10
224.9708940211
 20
200.9009999801
 10
224.6150490282
 20
200.7067763271
  0
LWPOLYLINE
  5
E3
330
1F
100
AcDbEntity
  8
0
  6
Continuous
 62
     7
370
     0
100
AcDbPolyline
 90
       23
 70
   128
 43
0.0
 10
250.0129848372
 20
156.7114941181
 10
250.1308208471
 20
156.7807935054
 10
250.5869956375
 20
157.0742680227
 10
251.0250411355
 20
157.3972931663
 10
251.4443590237
 20
157.7494277226
 10
251.8443765643
 20
158.1301907182
 10
252.2245473814
 20
158.5390620767
 10
252.5843522074
 20
158.9754833288
 10
252.9232995923
 20
159.4388583758
 10
253.2409265747
 20
159.928554303
 10
253.5367993142
 20
160.4439022447
 10
253.8105136844
 20
160.9841982976
 10
254.0616958244
 20
161.5487044822
 10
254.2900026494
 20
162.1366497511
 10
254.49512232
 20
162.7472310417
 10
254.6767746673
 20
163.3796143735
 10
254.834711576
 20
164.0329359868
 10
254.9687173233
 20
164.7063035228
 10
255.0786088734
 20
165.3987972427
 10
255.1642361279
 20
166.1094712832
 10
255.22548213
 20
166.837354949
 10
255.2622632252
 20
167.5814540387
 10
255.2745291748
 20
168.3407522024
  0
SPLINE
  5
E4
330
1F
100
AcDbEntity
  8
0
  6
Continuous
 62
     7
370
     0
100
AcDbSpline
210
0.0
220
0.0
230
1.0
 70
     8
 71
     3
 72
     8
 73
     4
 74
     0
 42
0.00000001
 43
0.00000001
 12
1.0
 22
0.0
 32
0.0
 13
1.0
 23
0.0
 33
0.0
 40
0.0
 40
0.0
 40
0.0
 40
0.0
 40
1.0
 40
1.0
 40
1.0
 40
1.0
 10
230.5166121921947
 20
199.7828041556668
 30
0.0
 10
230.9700655198902
 20
200.1883201032188
 30
0.0
 10
231.4240696552234
 20
200.590860903603
 30
0.0
 10
231.8786890593158
 20
200.9904082724566
 30
0.0
  0
ARC
  5
E5
330
1F
100
AcDbEntity
  8
0
  6
Continuous
 62
     7
370
     0
100
AcDbCircle
 10
225.7709916252
 20
184.0113005168
 30
0.0
 40
16.47001037030518
100
AcDbArc
 50
72.4537341387
 51
73.2535419253
  0
SPLINE
  5
E6
330
1F
100
AcDbEntity
  8
0
  6
Continuous
 62
     7
370
     0
100
AcDbSpline
210
0.0
220
0.0
230
1.0
 70
     8
 71
     3
 72
     8
 73
     4
 74
     0
 42
0.00000001
 43
0.00000001
 12
1.0
 22
0.0
 32
0.0
 13
1.0
 23
0.0
 33
0.0
 40
0.0
 40
0.0
 40
0.0
 40
0.0
 40
1.0
 40
1.0
 40
1.0
 40
1.0
 10
232.9856458532648
 20
200.5598618620386
 30
0.0
 10
232.2353781070554
 20
200.2812515054718
 30
0.0
 10
231.4855744058023
 20
199.9996463881869
 30
0.0
 10
230.736301504013
 20
199.7150242600408
 30
0.0
  0
LINE
  5
E7
330
1F
100
AcDbEntity
  8
0
  6
Continuous
 62
     7
370
     0
100
AcDbLine
 10
231.2345234593
 20
199.5489604216
 30
0.0
 11
232.9856458533
 21
200.559861862
 31
0.0
  0
ARC
  5
E8
330
1F
100
AcDbEntity
  8
0
  6
Continuous
 62
     7
370
     0
100
AcDbCircle
 10
225.392894852
 20
182.8771693831
 30
0.0
 40
17.66559484470812
100
AcDbArc
 50
69.9442293185
 51
70.6900502074
  0
LINE
  5
E9
330
1F
100
AcDbEntity
  8
0
  6
Continuous
 62
     7
370
     0
100
AcDbLine
 10
233.5723599759
 20
200.6961216413
 30
0.0
 11
231.4510396324
 21
199.4715094736
 31
0.0
  0
ARC
  5
EA
330
1F
100
AcDbEntity
  8
0
  6
Continuous
 62
     7
370
     0
100
AcDbCircle
 10
227.5402206564
 20
184.1741912571
 30
0.0
 40
17.58865794736
100
AcDbArc
 50
69.9429154623
 51
71.0020882794
  0
SPLINE
  5
EB
330
1F
100
AcDbEntity
  8
0
  6
Continuous
 62
     7
370
     0
100
AcDbSpline
210
0.0
220
0.0
230
1.0
 70
     8
 71
     3
 72
     8
 73
     4
 74
     0
 42
0.00000001
 43
0.00000001
 12
1.0
 22
0.0
 32
0.0
 13
1.0
 23
0.0
 33
0.0
 40
0.0
 40
0.0
 40
0.0
 40
0.0
 40
1.0
 40
1.0
 40
1.0
 40
1.0
 10
231.3672911606949
 20
200.0920328159872
 30
0.0
 10
231.9997978172087
 20
200.3317917860268
 30
0.0
 10
232.6326881658634
 20
200.5693772862965
 30
0.0
 10
233.2659214258006
 20
200.8048027638812
 30
0.0
  0
SPLINE
  5
EC
330
1F
100
AcDbEntity
  8
0
  6
Continuous
 62
     7
370
     0
100
AcDbSpline
210
0.0
220
0.0
230
1.0
 70
     8
 71
     3
 72
    12
 73
     8
 74
     0
 42
0.00000001
 43
0.00000001
 12
1.0
 22
0.0
 32
0.0
 13
1.0
 23
0.0
 33
0.0
 40
0.0
 40
0.0
 40
0.0
 40
0.0
 40
0.2499936386573762
 40
0.4999942819844594
 40
0.6249956604535664
 40
0.749997103868654
 40
1.0
 40
1.0
 40
1.0
 40
1.0
 10
230.9336709721332
 20
199.9248989794788
 30
0.0
 10
230.9696700958783
 20
199.9389367216738
 30
0.0
 10
231.0416693520423
 20
199.9670125993927
 30
0.0
 10
231.1316144750009
 20
200.0021122798421
 30
0.0
 10
231.2042386377329
 20
200.0297236907924
 30
0.0
 10
231.2768128551508
 20
200.0573569024193
 30
0.0
 10
231.3310998382079
 20
200.0781624504568
 30
0.0
 10
231.3672911606949
 20
200.0920328159872
 30
0.0
  0
SPLINE
  5
ED
330
1F
100
AcDbEntity
  8
0
  6
Continuous
 62
     7
370
     0
100
AcDbSpline
210
0.0
220
0.0
230
1.0
 70
     8
 71
     3
 72
     8
 73
     4
 74
     0
 42
0.00000001
 43
0.00000001
 12
1.0
 22
0.0
 32
0.0
 13
1.0
 23
0.0
 33
0.0
 40
0.0
 40
0.0
 40
0.0
 40
0.0
 40
1.0
 40
1.0
 40
1.0
 40
1.0
 10
231.1674525143457
 20
200.1309137353128
 30
0.0
 10
231.0895107828031
 20
200.0623217928742
 30
0.0
 10
231.0115836967162
 20
199.9936501786455
 30
0.0
 10
230.9336709721332
 20
199.9248989794788
 30
0.0
  0
SPLINE
  5
EE
330
1F
100
AcDbEntity
  8
0
  6
Continuous
 62
     7
370
     0
100
AcDbSpline
210
0.0
220
0.0
230
1.0
 70
     8
 71
     3
 72
     8
 73
     4
 74
     0
 42
0.00000001
 43
0.00000001
 12
1.0
 22
0.0
 32
0.0
 13
1.0
 23
0.0
 33
0.0
 40
0.0
 40
0.0
 40
0.0
 40
0.0
 40
1.0
 40
1.0
 40
1.0
 40
1.0
 10
232.2688242381374
 20
201.1136839212584
 30
0.0
 10
231.901311430354
 20
200.7880883852791
 30
0.0
 10
231.534199277313
 20
200.4604949260593
 30
0.0
 10
231.1674525143457
 20
200.1309137353128
 30
0.0
  0
ARC
  5
EF
330
1F
100
AcDbEntity
  8
0
  6
Continuous
 62
     7
370
     0
100
AcDbCircle
 10
228.1739095337
 20
186.2194788713
 30
0.0
 40
15.44686604162757
100
AcDbArc
 50
74.6272954578
 51
75.9033142331
  0
LINE
  5
F0
330
1F
100
AcDbEntity
  8
0
  6
Continuous
 62
     7
370
     0
100
AcDbLine
 10
229.8148110436
 20
199.9765674492
 30
0.0
 11
231.9361313871
 21
201.201179617
 31
0.0
  0
ARC
  5
F1
330
1F
100
AcDbEntity
  8
0
  6
Continuous
 62
     7
370
     0
100
AcDbCircle
 10
226.0756350475
 20
185.0843351705
 30
0.0
 40
15.35447880502701
100
AcDbArc
 50
75.0865088062
 51
75.9054076787
  0
LINE
  5
F2
330
1F
100
AcDbEntity
  8
0
  6
Continuous
 62
     7
370
     0
100
AcDbLine
 10
231.8786890593
 20
200.9904082725
 30
0.0
 11
230.0272688488
 21
199.921606135
 31
0.0
  0
ARC
  5
F3
330
1F
100
AcDbEntity
  8
0
  6
Continuous
 62
     7
370
     0
100
AcDbCircle
 10
224.3778046947
 20
179.1417526314
 30
0.0
 40
22.292343139206
100
AcDbArc
 50
61.7217210227
 51
63.0190383928
  0
SPLINE
  5
F4
330
1F
100
AcDbEntity
  8
0
  6
Continuous
 62
     7
370
     0
100
AcDbSpline
210
0.0
220
0.0
230
1.0
 70
     8
 71
     3
 72
    17
 73
    13
 74
     0
 42
0.00000001
 43
0.00000001
 12
1.0
 22
0.0
 32
0.0
 13
1.0
 23
0.0
 33
0.0
 40
0.0
 40
0.0
 40
0.0
 40
0.0
 40
0.0625867507144296
 40
0.125160787773535
 40
0.2502054915254991
 40
0.3751630122568049
 40
0.4405101568604299
 40
0.5002773891343174
 40
0.6183058012617236
 40
0.7498302131144273
 40
0.8748618907254895
 40
1.0
 40
1.0
 40
1.0
 40
1.0
 10
236.2456657903015
 20
198.7847588393852
 30
0.0
 10
236.223240776498
 20
198.772193630786
 30
0.0
 10
236.1783953042304
 20
198.7470657660406
 30
0.0
 10
236.0818060900404
 20
198.7012833612654
 30
0.0
 10
235.9505022993507
 20
198.6518729172168
 30
0.0
 10
235.803531241508
 20
198.6174483029532
 30
0.0
 10
235.6817501141828
 20
198.6009278718183
 30
0.0
 10
235.560837512477
 20
198.5925027282769
 30
0.0
 10
235.4050764563913
 20
198.6031708065763
 30
0.0
 10
235.2320823739518
 20
198.6445540527663
 30
0.0
 10
235.0748396790272
 20
198.7040735583715
 30
0.0
 10
234.9842260535536
 20
198.7504586611412
 30
0.0
 10
234.9388999655897
 20
198.7736610795122
 30
0.0
  0
SPLINE
  5
F5
330
1F
100
AcDbEntity
  8
0
  6
Continuous
 62
     7
370
     0
100
AcDbSpline
210
0.0
220
0.0
230
1.0
 70
     8
 71
     3
 72
    16
 73
    12
 74
     0
 42
0.00000001
 43
0.00000001
 12
1.0
 22
0.0
 32
0.0
 13
1.0
 23
0.0
 33
0.0
 40
0.0
 40
0.0
 40
0.0
 40
0.0
 40
0.0625716166060426
 40
0.12513334428345
 40
0.2500890908637045
 40
0.3712225297599292
 40
0.5001650323831495
 40
0.7497016235417528
 40
0.8498037792774732
 40
0.924898529623531
 40
1.0
 40
1.0
 40
1.0
 40
1.0
 10
236.4906114053578
 20
199.3032548742417
 30
0.0
 10
236.4989662592325
 20
199.2924925291092
 30
0.0
 10
236.515674646566
 20
199.2709695397442
 30
0.0
 10
236.5380712524862
 20
199.2254054257117
 30
0.0
 10
236.5526965094669
 20
199.167036464176
 30
0.0
 10
236.5442307717456
 20
199.0952419305679
 30
0.0
 10
236.5073888693702
 20
199.0016645534153
 30
0.0
 10
236.4354444404448
 20
198.918035818707
 30
0.0
 10
236.3515275702765
 20
198.8524962638129
 30
0.0
 10
236.2980447134694
 20
198.8156532673605
 30
0.0
 10
236.2631259521321
 20
198.7950572892098
 30
0.0
 10
236.2456657903015
 20
198.7847588393852
 30
0.0
  0
SPLINE
  5
F6
330
1F
100
AcDbEntity
  8
0
  6
Continuous
 62
     7
370
     0
100
AcDbSpline
210
0.0
220
0.0
230
1.0
 70
     8
 71
     3
 72
    13
 73
     9
 74
     0
 42
0.00000001
 43
0.00000001
 12
1.0
 22
0.0
 32
0.0
 13
1.0
 23
0.0
 33
0.0
 40
0.0
 40
0.0
 40
0.0
 40
0.0
 40
0.271616176090155
 40
0.5000373570164097
 40
0.634227148976322
 40
0.7500701523405121
 40
0.8670131673723206
 40
0.9999999999999999
 40
0.9999999999999999
 40
0.9999999999999999
 40
0.9999999999999999
 10
236.1915552440332
 20
199.5131079774871
 30
0.0
 10
236.222447003408
 20
199.4961968721461
 30
0.0
 10
236.2793178199171
 20
199.4650640267439
 30
0.0
 10
236.3470904053101
 20
199.4226495085226
 30
0.0
 10
236.3951411991443
 20
199.3890046319973
 30
0.0
 10
236.4305269628941
 20
199.3624138116826
 30
0.0
 10
236.4622018246601
 20
199.3343388006354
 30
0.0
 10
236.4807447676589
 20
199.3140503112899
 30
0.0
 10
236.4906114053578
 20
199.3032548742417
 30
0.0
  0
ARC
  5
F7
330
1F
100
AcDbEntity
  8
0
  6
Continuous
 62
     7
370
     0
100
AcDbCircle
 10
225.7511995785
 20
180.0755216978
 30
0.0
 40
22.06401565451436
100
AcDbArc
 50
61.7587752524
 51
63.6654038478
  0
LINE
  5
F8
330
1F
100
AcDbEntity
  8
0
  6
Continuous
 62
     7
370
     0
100
AcDbLine
 10
233.4177506929
 20
198.6250936884
 30
0.0
 11
235.5390710364
 21
199.8497058561
 31
0.0
  0
ARC
  5
F9
330
1F
100
AcDbEntity
  8
0
  6
Continuous
 62
     7
370
     0
100
AcDbCircle
 10
223.817337937
 20
179.2227101387
 30
0.0
 40
21.6476421924494
100
AcDbArc
 50
63.0222283975
 51
63.6735257313
  0
LINE
  5
FA
330
1F
100
AcDbEntity
  8
0
  6
Continuous
 62
     7
370
     0
100
AcDbLine
 10
234.4917161334
 20
199.0077375817
 30
0.0
 11
233.637678073
 21
198.5147119038
 31
0.0
  0
SPLINE
  5
FB
330
1F
100
AcDbEntity
  8
0
  6
Continuous
 62
     7
370
     0
100
AcDbSpline
210
0.0
220
0.0
230
1.0
 70
     8
 71
     3
 72
    16
 73
    12
 74
     0
 42
0.00000001
 43
0.00000001
 12
1.0
 22
0.0
 32
0.0
 13
1.0
 23
0.0
 33
0.0
 40
0.0
 40
0.0
 40
0.0
 40
0.0
 40
0.0625647985474546
 40
0.1251035349199471
 40
0.2498538211251796
 40
0.3714414588532187
 40
0.4997975618920236
 40
0.6202135167757724
 40
0.7497910752833171
 40
0.8748595856834983
 40
1.0
 40
1.0
 40
1.0
 40
1.0
 10
238.3208452891408
 20
197.310775431237
 30
0.0
 10
238.3397838235221
 20
197.2960803659479
 30
0.0
 10
238.3776530031938
 20
197.266696356789
 30
0.0
 10
238.438881859873
 20
197.2011164298308
 30
0.0
 10
238.4880892339942
 20
197.1117773053624
 30
0.0
 10
238.5063298529352
 20
197.0000005598495
 30
0.0
 10
238.4906449676335
 20
196.8915821066831
 30
0.0
 10
238.4423603879079
 20
196.7873183533884
 30
0.0
 10
238.3659143979661
 20
196.6937704510226
 30
0.0
 10
238.2666950231896
 20
196.6097074076237
 30
0.0
 10
238.1893026058351
 20
196.562236895132
 30
0.0
 10
238.1505952768152
 20
196.5384948179548
 30
0.0
  0
SPLINE
  5
FC
330
1F
100
AcDbEntity
  8
0
  6
Continuous
 62
     7
370
     0
100
AcDbSpline
210
0.0
220
0.0
230
1.0
 70
     8
 71
     3
 72
    11
 73
     7
 74
     0
 42
0.00000001
 43
0.00000001
 12
1.0
 22
0.0
 32
0.0
 13
1.0
 23
0.0
 33
0.0
 40
0.0
 40
0.0
 40
0.0
 40
0.0
 40
0.25007719413065
 40
0.5000175858752957
 40
0.7499382381823037
 40
0.9999999999999999
 40
0.9999999999999999
 40
0.9999999999999999
 40
0.9999999999999999
 10
237.9256101724388
 20
197.4846800413437
 30
0.0
 10
237.9623573556447
 20
197.4748613701729
 30
0.0
 10
238.0358316198542
 20
197.4552293990432
 30
0.0
 10
238.1397322086231
 20
197.4155106152761
 30
0.0
 10
238.236326000778
 20
197.3677518632136
 30
0.0
 10
238.2926668926763
 20
197.3297711483149
 30
0.0
 10
238.3208452891408
 20
197.310775431237
 30
0.0
  0
SPLINE
  5
FD
330
1F
100
AcDbEntity
  8
0
  6
Continuous
 62
     7
370
     0
100
AcDbSpline
210
0.0
220
0.0
230
1.0
 70
     8
 71
     3
 72
     8
 73
     4
 74
     0
 42
0.00000001
 43
0.00000001
 12
1.0
 22
0.0
 32
0.0
 13
1.0
 23
0.0
 33
0.0
 40
0.0
 40
0.0
 40
0.0
 40
0.0
 40
1.0
 40
1.0
 40
1.0
 40
1.0
 10
238.5286502675774
 20
197.7314421166538
 30
0.0
 10
238.3276433205044
 20
197.6492519386799
 30
0.0
 10
238.1266298689915
 20
197.5669979743726
 30
0.0
 10
237.9256101724388
 20
197.4846800413437
 30
0.0
  0
ARC
  5
FE
330
1F
100
AcDbEntity
  8
0
  6
Continuous
 62
     7
370
     0
100
AcDbCircle
 10
221.9882658622
 20
174.2991132066
 30
0.0
 40
28.68202144945982
100
AcDbArc
 50
53.1428172878
 51
54.7825425859
  0
LINE
  5
FF
330
1F
100
AcDbEntity
  8
0
  6
Continuous
 62
     7
370
     0
100
AcDbLine
 10
239.4403328088
 20
197.391685313
 30
0.0
 11
239.1923862751
 21
197.2485488259
 31
0.0
  0
ARC
  5
100
330
1F
100
AcDbEntity
  8
0
  6
Continuous
 62
     7
370
     0
100
AcDbCircle
 10
222.3488698263
 20
174.5959803405
 30
0.0
 40
28.49144208491567
100
AcDbArc
 50
53.1386542516
 51
55.2400663677
  0
SPLINE
  5
101
330
1F
100
AcDbEntity
  8
0
  6
Continuous
 62
     7
370
     0
100
AcDbSpline
210
0.0
220
0.0
230
1.0
 70
     8
 71
     3
 72
     8
 73
     4
 74
     0
 42
0.00000001
 43
0.00000001
 12
1.0
 22
0.0
 32
0.0
 13
1.0
 23
0.0
 33
0.0
 40
0.0
 40
0.0
 40
0.0
 40
0.0
 40
1.0
 40
1.0
 40
1.0
 40
1.0
 10
237.3415015363354
 20
197.4888630061918
 30
0.0
 10
237.7586775790219
 20
197.6605432133188
 30
0.0
 10
238.1758305129042
 20
197.8319451872249
 30
0.0
 10
238.5929580151817
 20
198.0030705267721
 30
0.0
  0
SPLINE
  5
102
330
1F
100
AcDbEntity
  8
0
  6
Continuous
 62
     7
370
     0
100
AcDbSpline
210
0.0
220
0.0
230
1.0
 70
     8
 71
     3
 72
     8
 73
     4
 74
     0
 42
0.00000001
 43
0.00000001
 12
1.0
 22
0.0
 32
0.0
 13
1.0
 23
0.0
 33
0.0
 40
0.0
 40
0.0
 40
0.0
 40
0.0
 40
1.0
 40
1.0
 40
1.0
 40
1.0
 10
237.5294286436443
 20
197.319343639563
 30
0.0
 10
237.4668310271481
 20
197.376342201869
 30
0.0
 10
237.4041868230218
 20
197.4328499238013
 30
0.0
 10
237.3415015363354
 20
197.4888630061918
 30
0.0
  0
SPLINE
  5
103
330
1F
100
AcDbEntity
  8
0
  6
Continuous
 62
     7
370
     0
100
AcDbSpline
210
0.0
220
0.0
230
1.0
 70
     8
 71
     3
 72
    13
 73
     9
 74
     0
 42
0.00000001
 43
0.00000001
 12
1.0
 22
0.0
 32
0.0
 13
1.0
 23
0.0
 33
0.0
 40
0.0
 40
0.0
 40
0.0
 40
0.0
 40
0.1251847097081998
 40
0.2502624997043266
 40
0.4999265329858808
 40
0.749617051330163
 40
0.8747749619545568
 40
1.0
 40
1.0
 40
1.0
 40
1.0
 10
238.0393505178633
 20
197.2274717475026
 30
0.0
 10
238.0225509072413
 20
197.2385694344784
 30
0.0
 10
237.9889660344712
 20
197.2607553299442
 30
0.0
 10
237.9101740477196
 20
197.2958381017922
 30
0.0
 10
237.8000429336774
 20
197.3247494662505
 30
0.0
 10
237.6849069817635
 20
197.3331697038422
 30
0.0
 10
237.5948221614484
 20
197.3286418790699
 30
0.0
 10
237.5512303785503
 20
197.3224436066489
 30
0.0
 10
237.5294286436443
 20
197.319343639563
 30
0.0
  0
SPLINE
  5
104
330
1F
100
AcDbEntity
  8
0
  6
Continuous
 62
     7
370
     0
100
AcDbSpline
210
0.0
220
0.0
230
1.0
 70
     8
 71
     3
 72
    15
 73
    11
 74
     0
 42
0.00000001
 43
0.00000001
 12
1.0
 22
0.0
 32
0.0
 13
1.0
 23
0.0
 33
0.0
 40
0.0
 40
0.0
 40
0.0
 40
0.0
 40
0.1253495801705155
 40
0.2506599194264291
 40
0.3759066795964706
 40
0.5010417308309477
 40
0.7496862051623795
 40
0.8746835149766059
 40
0.9373192359432152
 40
1.0
 40
1.0
 40
1.0
 40
1.0
 10
237.9205072430922
 20
196.6945542870588
 30
0.0
 10
237.9475505710698
 20
196.7111591810777
 30
0.0
 10
238.0016287610621
 20
196.7443637709231
 30
0.0
 10
238.0724187394167
 20
196.8009917725269
 30
0.0
 10
238.1279795904972
 20
196.8652115129656
 30
0.0
 10
238.1778231229499
 20
196.9588680667493
 30
0.0
 10
238.177569404978
 20
197.0656287477422
 30
0.0
 10
238.1238282590967
 20
197.1519862483584
 30
0.0
 10
238.0791761846617
 20
197.1968615907377
 30
0.0
 10
238.0526289207984
 20
197.2172659172401
 30
0.0
 10
238.0393505178633
 20
197.2274717475026
 30
0.0
  0
SPLINE
  5
105
330
1F
100
AcDbEntity
  8
0
  6
Continuous
 62
     7
370
     0
100
AcDbSpline
210
0.0
220
0.0
230
1.0
 70
     8
 71
     3
 72
    16
 73
    12
 74
     0
 42
0.00000001
 43
0.00000001
 12
1.0
 22
0.0
 32
0.0
 13
1.0
 23
0.0
 33
0.0
 40
0.0
 40
0.0
 40
0.0
 40
0.0
 40
0.0625568803557666
 40
0.1250886456959759
 40
0.249823695431126
 40
0.3746883977337562
 40
0.4996668591645583
 40
0.6247035305831735
 40
0.7497357800776749
 40
0.8748599883283996
 40
1.0
 40
1.0
 40
1.0
 40
1.0
 10
237.0420087658231
 20
196.6589080616312
 30
0.0
 10
237.057143152776
 20
196.648788633817
 30
0.0
 10
237.0874058506055
 20
196.6285538408846
 30
0.0
 10
237.1574808129999
 20
196.5951247224216
 30
0.0
 10
237.2565214968974
 20
196.5662750868688
 30
0.0
 10
237.3808637365761
 20
196.5531438268526
 30
0.0
 10
237.5043271156389
 20
196.5544226664728
 30
0.0
 10
237.6214209331762
 20
196.5735318064712
 30
0.0
 10
237.7305345658194
 20
196.6042577086117
 30
0.0
 10
237.8302849265804
 20
196.6454596842928
 30
0.0
 10
237.8904318715563
 20
196.6781887305571
 30
0.0
 10
237.9205072430922
 20
196.6945542870588
 30
0.0
  0
SPLINE
  5
106
330
1F
100
AcDbEntity
  8
0
  6
Continuous
 62
     7
370
     0
100
AcDbSpline
210
0.0
220
0.0
230
1.0
 70
     8
 71
     3
 72
    16
 73
    12
 74
     0
 42
0.00000001
 43
0.00000001
 12
1.0
 22
0.0
 32
0.0
 13
1.0
 23
0.0
 33
0.0
 40
0.0
 40
0.0
 40
0.0
 40
0.0
 40
0.1379233981904997
 40
0.2502472527041127
 40
0.381870138874025
 40
0.5003541146048891
 40
0.6430936768241717
 40
0.7502097280840497
 40
0.8749103985108834
 40
0.9374462236058205
 40
1.0
 40
1.0
 40
1.0
 40
1.0
 10
237.1326873679032
 20
197.1252137892373
 30
0.0
 10
237.110247442918
 20
197.1074287242394
 30
0.0
 10
237.0695325993736
 20
197.0751596262234
 30
0.0
 10
237.0148744138986
 20
197.0221371854124
 30
0.0
 10
236.9728425563593
 20
196.9677368230097
 30
0.0
 10
236.9405598237887
 20
196.9045498004699
 30
0.0
 10
236.9309549279896
 20
196.840869004599
 30
0.0
 10
236.9430903504697
 20
196.7751593884509
 30
0.0
 10
236.9707681363653
 20
196.7245664478408
 30
0.0
 10
237.0077410545043
 20
196.6854388955186
 30
0.0
 10
237.0305851026193
 20
196.6677525189697
 30
0.0
 10
237.0420087658231
 20
196.6589080616312
 30
0.0
  0
SPLINE
  5
107
330
1F
100
AcDbEntity
  8
0
  6
Continuous
 62
     7
370
     0
100
AcDbSpline
210
0.0
220
0.0
230
1.0
 70
     8
 71
     3
 72
     8
 73
     4
 74
     0
 42
0.00000001
 43
0.00000001
 12
1.0
 22
0.0
 32
0.0
 13
1.0
 23
0.0
 33
0.0
 40
0.0
 40
0.0
 40
0.0
 40
0.0
 40
1.0
 40
1.0
 40
1.0
 40
1.0
 10
236.885754248044
 20
197.2603188070928
 30
0.0
 10
236.9681075172608
 20
197.2157776470618
 30
0.0
 10
237.05042039251
 20
197.1707413778137
 30
0.0
 10
237.1326873679032
 20
197.1252137892373
 30
0.0
  0
SPLINE
  5
108
330
1F
100
AcDbEntity
  8
0
  6
Continuous
 62
     7
370
     0
100
AcDbSpline
210
0.0
220
0.0
230
1.0
 70
     8
 71
     3
 72
    15
 73
    11
 74
     0
 42
0.00000001
 43
0.00000001
 12
1.0
 22
0.0
 32
0.0
 13
1.0
 23
0.0
 33
0.0
 40
0.0
 40
0.0
 40
0.0
 40
0.0
 40
0.062660151010694
 40
0.1252967808132987
 40
0.2503298908547028
 40
0.4991311649554993
 40
0.6215999564255469
 40
0.7494646694161372
 40
0.8747197951606068
 40
1.0
 40
1.0
 40
1.0
 40
1.0
 10
236.8237486476769
 20
196.5301442113955
 30
0.0
 10
236.8055465468858
 20
196.5438874724967
 30
0.0
 10
236.7691491779621
 20
196.5713688357889
 30
0.0
 10
236.7060734035804
 20
196.6306767839757
 30
0.0
 10
236.6230595885159
 20
196.7432522747531
 30
0.0
 10
236.6003928023063
 20
196.8829938718832
 30
0.0
 10
236.641023340769
 20
197.0132790091041
 30
0.0
 10
236.7021385620192
 20
197.1039093844298
 30
0.0
 10
236.7844657669064
 20
197.1873511969628
 30
0.0
 10
236.8519891679217
 20
197.2359946472801
 30
0.0
 10
236.885754248044
 20
197.2603188070928
 30
0.0
  0
SPLINE
  5
109
330
1F
100
AcDbEntity
  8
0
  6
Continuous
 62
     7
370
     0
100
AcDbSpline
210
0.0
220
0.0
230
1.0
 70
     8
 71
     3
 72
    16
 73
    12
 74
     0
 42
0.00000001
 43
0.00000001
 12
1.0
 22
0.0
 32
0.0
 13
1.0
 23
0.0
 33
0.0
 40
0.0
 40
0.0
 40
0.0
 40
0.0
 40
0.0626482196101817
 40
0.1252863497981891
 40
0.2504883340935483
 40
0.4999565017260363
 40
0.6664476492180208
 40
0.749874313015432
 40
0.8747603764964852
 40
0.9373645182863886
 40
1.0
 40
1.0
 40
1.0
 40
1.0
 10
238.1505952768152
 20
196.5384948179548
 30
0.0
 10
238.1280680104487
 20
196.5260745898067
 30
0.0
 10
238.0830171057054
 20
196.5012361337734
 30
0.0
 10
237.9875182068784
 20
196.4559964627984
 30
0.0
 10
237.8070311236829
 20
196.3898916276125
 30
0.0
 10
237.5524510739932
 20
196.3446519388568
 30
0.0
 10
237.301933644687
 20
196.349782289857
 30
0.0
 10
237.117897547475
 20
196.3852975952249
 30
0.0
 10
236.9932955774535
 20
196.4303769787017
 30
0.0
 10
236.8915183896552
 20
196.4840315137084
 30
0.0
 10
236.8463423299506
 20
196.5147707481077
 30
0.0
 10
236.8237486476769
 20
196.5301442113955
 30
0.0
  0
SPLINE
  5
10A
330
1F
100
AcDbEntity
  8
0
  6
Continuous
 62
     7
370
     0
100
AcDbSpline
210
0.0
220
0.0
230
1.0
 70
     8
 71
     3
 72
    14
 73
    10
 74
     0
 42
0.00000001
 43
0.00000001
 12
1.0
 22
0.0
 32
0.0
 13
1.0
 23
0.0
 33
0.0
 40
0.0
 40
0.0
 40
0.0
 40
0.0
 40
0.1249642785198695
 40
0.2499282715641172
 40
0.3720998993726617
 40
0.4999250557765333
 40
0.6246427517131092
 40
0.7499738496850274
 40
1.0
 40
1.0
 40
1.0
 40
1.0
 10
241.8155431572466
 20
195.1667087873466
 30
0.0
 10
241.8009640549987
 20
195.1315945481736
 30
0.0
 10
241.7718058838082
 20
195.0613661500446
 30
0.0
 10
241.7028905344962
 20
194.9675725067064
 30
0.0
 10
241.6233118371886
 20
194.8791565803878
 30
0.0
 10
241.5331178603303
 20
194.7974827120546
 30
0.0
 10
241.4353137718389
 20
194.7201908022571
 30
0.0
 10
241.2997357536612
 20
194.6226182273472
 30
0.0
 10
241.1892919074976
 20
194.5568469450496
 30
0.0
 10
241.1157250593596
 20
194.5130365734924
 30
0.0
  0
SPLINE
  5
10B
330
1F
100
AcDbEntity
  8
0
  6
Continuous
 62
     7
370
     0
100
AcDbSpline
210
0.0
220
0.0
230
1.0
 70
     8
 71
     3
 72
    13
 73
     9
 74
     0
 42
0.00000001
 43
0.00000001
 12
1.0
 22
0.0
 32
0.0
 13
1.0
 23
0.0
 33
0.0
 40
0.0
 40
0.0
 40
0.0
 40
0.0
 40
0.1251948774509709
 40
0.2503112808433142
 40
0.499907482430517
 40
0.7496464708871742
 40
0.8747928721822885
 40
1.0
 40
1.0
 40
1.0
 40
1.0
 10
241.6644310898188
 20
195.6380357031634
 30
0.0
 10
241.6827390632112
 20
195.6206318410719
 30
0.0
 10
241.7193435342792
 20
195.5858350258953
 30
0.0
 10
241.7801184988928
 20
195.5103779285602
 30
0.0
 10
241.8308027511586
 20
195.4080625953537
 30
0.0
 10
241.8431343548462
 20
195.3039871619223
 30
0.0
 10
241.832562413831
 20
195.2242536302991
 30
0.0
 10
241.821217160088
 20
195.1858935032475
 30
0.0
 10
241.8155431572466
 20
195.1667087873466
 30
0.0
  0
SPLINE
  5
10C
330
1F
100
AcDbEntity
  8
0
  6
Continuous
 62
     7
370
     0
100
AcDbSpline
210
0.0
220
0.0
230
1.0
 70
     8
 71
     3
 72
    16
 73
    12
 74
     0
 42
0.00000001
 43
0.00000001
 12
1.0
 22
0.0
 32
0.0
 13
1.0
 23
0.0
 33
0.0
 40
0.0
 40
0.0
 40
0.0
 40
0.0
 40
0.1251729595270009
 40
0.2503372774081007
 40
0.5002449954420188
 40
0.635220601592611
 40
0.7500261309019706
 40
0.8134102944308368
 40
0.8749697478553772
 40
0.9374576207513534
 40
1.0
 40
1.0
 40
1.0
 40
1.0
 10
240.027745373573
 20
195.4908513285018
 30
0.0
 10
240.0853291685588
 20
195.5232223252303
 30
0.0
 10
240.2004927830809
 20
195.5879620838698
 30
0.0
 10
240.4450594112581
 20
195.7036810005208
 30
0.0
 10
240.715096988942
 20
195.8026550938612
 30
0.0
 10
241.0121267572598
 20
195.8496265547417
 30
0.0
 10
241.2115469349783
 20
195.8440393119944
 30
0.0
 10
241.3631648589219
 20
195.8107329840709
 30
0.0
 10
241.4758508199003
 20
195.7675621171069
 30
0.0
 10
241.5784650633503
 20
195.7098845482149
 30
0.0
 10
241.6357674207645
 20
195.6619922776509
 30
0.0
 10
241.6644310898188
 20
195.6380357031634
 30
0.0
  0
SPLINE
  5
10D
330
1F
100
AcDbEntity
  8
0
  6
Continuous
 62
     7
370
     0
100
AcDbSpline
210
0.0
220
0.0
230
1.0
 70
     8
 71
     3
 72
    18
 73
    14
 74
     0
 42
0.00000001
 43
0.00000001
 12
1.0
 22
0.0
 32
0.0
 13
1.0
 23
0.0
 33
0.0
 40
0.0
 40
0.0
 40
0.0
 40
0.0
 40
0.0624950322413511
 40
0.1249340560767785
 40
0.1865917156241193
 40
0.2498536395941549
 40
0.312065485239129
 40
0.3748805468663127
 40
0.4997120087598077
 40
0.6247329320279962
 40
0.7498001999826316
 40
0.8748958867714897
 40
0.9999999999999999
 40
0.9999999999999999
 40
0.9999999999999999
 40
0.9999999999999999
 10
239.4855233481074
 20
194.3838516525895
 30
0.0
 10
239.4594229774602
 20
194.4091993514818
 30
0.0
 10
239.4072456274674
 20
194.4598720325134
 30
0.0
 10
239.3531418057979
 20
194.5445857725718
 30
0.0
 10
239.3198591680584
 20
194.6322920460322
 30
0.0
 10
239.3094523731133
 20
194.7198662786979
 30
0.0
 10
239.3171993495325
 20
194.8053511072815
 30
0.0
 10
239.3474729787014
 20
194.9142451444409
 30
0.0
 10
239.4254096312964
 20
195.0374614747502
 30
0.0
 10
239.5540028320706
 20
195.1657946931598
 30
0.0
 10
239.6999191730327
 20
195.2831397938071
 30
0.0
 10
239.859296087273
 20
195.3907134454222
 30
0.0
 10
239.9715943507812
 20
195.4574712846997
 30
0.0
 10
240.027745373573
 20
195.4908513285018
 30
0.0
  0
SPLINE
  5
10E
330
1F
100
AcDbEntity
  8
0
  6
Continuous
 62
     7
370
     0
100
AcDbSpline
210
0.0
220
0.0
230
1.0
 70
     8
 71
     3
 72
    16
 73
    12
 74
     0
 42
0.00000001
 43
0.00000001
 12
1.0
 22
0.0
 32
0.0
 13
1.0
 23
0.0
 33
0.0
 40
0.0
 40
0.0
 40
0.0
 40
0.0
 40
0.125168179578397
 40
0.2503286224456129
 40
0.5002403576318452
 40
0.633807133455111
 40
0.7500155071378305
 40
0.8124974968691507
 40
0.874967384467361
 40
0.9374604080776929
 40
1.0
 40
1.0
 40
1.0
 40
1.0
 10
241.1157250593596
 20
194.5130365734924
 30
0.0
 10
241.058195406407
 20
194.4807590731419
 30
0.0
 10
240.9431396564402
 20
194.4162060675301
 30
0.0
 10
240.6990768711061
 20
194.3017375437655
 30
0.0
 10
240.4302638655368
 20
194.2061390538723
 30
0.0
 10
240.135206045702
 20
194.1630496950372
 30
0.0
 10
239.9374391086909
 20
194.1714398254226
 30
0.0
 10
239.7859312789661
 20
194.2078426583736
 30
0.0
 10
239.6736921705562
 20
194.2524576117502
 30
0.0
 10
239.571335620699
 20
194.3118909685333
 30
0.0
 10
239.5141345404723
 20
194.3598588027085
 30
0.0
 10
239.4855233481074
 20
194.3838516525895
 30
0.0
  0
LINE
  5
10F
330
1F
100
AcDbEntity
  8
0
  6
Continuous
 62
     7
370
     0
100
AcDbLine
 10
244.1176169627
 20
193.1604760583
 30
0.0
 11
242.7728037981
 21
192.3841319433
 31
0.0
  0
ARC
  5
110
330
1F
100
AcDbEntity
  8
0
  6
Continuous
 62
     7
370
     0
100
AcDbCircle
 10
214.571584175
 20
166.5322996666
 30
0.0
 40
38.25736556912594
100
AcDbArc
 50
42.5112356471
 51
43.0069669624
  0
SPLINE
  5
111
330
1F
100
AcDbEntity
  8
0
  6
Continuous
 62
     7
370
     0
100
AcDbSpline
210
0.0
220
0.0
230
1.0
 70
     8
 71
     3
 72
     8
 73
     4
 74
     0
 42
0.00000001
 43
0.00000001
 12
1.0
 22
0.0
 32
0.0
 13
1.0
 23
0.0
 33
0.0
 40
0.0
 40
0.0
 40
0.0
 40
0.0
 40
1.0
 40
1.0
 40
1.0
 40
1.0
 10
242.5480772627899
 20
192.627162279795
 30
0.0
 10
242.3935900616225
 20
192.3658684338774
 30
0.0
 10
242.2386789232328
 20
192.1036768272739
 30
0.0
 10
242.0833251645307
 20
191.8406077330689
 30
0.0
  0
SPLINE
  5
112
330
1F
100
AcDbEntity
  8
0
  6
Continuous
 62
     7
370
     0
100
AcDbSpline
210
0.0
220
0.0
230
1.0
 70
     8
 71
     3
 72
     8
 73
     4
 74
     0
 42
0.00000001
 43
0.00000001
 12
1.0
 22
0.0
 32
0.0
 13
1.0
 23
0.0
 33
0.0
 40
0.0
 40
0.0
 40
0.0
 40
0.0
 40
1.0
 40
1.0
 40
1.0
 40
1.0
 10
242.0833251645307
 20
191.8406077330689
 30
0.0
 10
242.4456428584534
 20
191.8763840073617
 30
0.0
 10
242.8075179316176
 20
191.9112827945428
 30
0.0
 10
243.1689318600778
 20
191.9453246831981
 30
0.0
  0
ARC
  5
113
330
1F
100
AcDbEntity
  8
0
  6
Continuous
 62
     7
370
     0
100
AcDbCircle
 10
214.0714145239
 20
166.0768049168
 30
0.0
 40
38.93386482270866
100
AcDbArc
 50
41.6380048382
 51
42.1279769479
  0
LINE
  5
114
330
1F
100
AcDbEntity
  8
0
  6
Continuous
 62
     7
370
     0
100
AcDbLine
 10
242.9466526869
 20
192.1932068716
 30
0.0
 11
244.2914658515
 21
192.9695509866
 31
0.0
  0
ARC
  5
115
330
1F
100
AcDbEntity
  8
0
  6
Continuous
 62
     7
370
     0
100
AcDbCircle
 10
215.6639760506
 20
167.0770930862
 30
0.0
 40
38.59990347685022
100
AcDbArc
 50
42.12812403
 51
42.5114086594
  0
ARC
  5
116
330
1F
100
AcDbEntity
  8
0
  6
Continuous
 62
     7
370
     0
100
AcDbCircle
 10
216.793020048
 20
166.8626158813
 30
0.0
 40
38.5200658897196
100
AcDbArc
 50
2.5637792864
 51
57.4308441809
  0
SPLINE
  5
117
330
1F
100
AcDbEntity
  8
0
  6
Continuous
 62
     7
370
     0
100
AcDbSpline
210
0.0
220
0.0
230
1.0
 70
     8
 71
     3
 72
    16
 73
    12
 74
     0
 42
0.00000001
 43
0.00000001
 12
1.0
 22
0.0
 32
0.0
 13
1.0
 23
0.0
 33
0.0
 40
0.0
 40
0.0
 40
0.0
 40
0.0
 40
0.2502666070979137
 40
0.5003870414468568
 40
0.6253978040240677
 40
0.7501183366664412
 40
0.8126309605029066
 40
0.8750812198716656
 40
0.937468153076263
 40
0.9687217402228872
 40
1.0
 40
1.0
 40
1.0
 40
1.0
 10
240.2423564240789
 20
195.3059273276143
 30
0.0
 10
240.1577578017901
 20
195.2555743166781
 30
0.0
 10
239.9886099685716
 20
195.1548977043946
 30
0.0
 10
239.7971355352476
 20
195.0125605187408
 30
0.0
 10
239.6702910582714
 20
194.8811888986966
 30
0.0
 10
239.6248335518245
 20
194.7822313897402
 30
0.0
 10
239.6135267020299
 20
194.696959797308
 30
0.0
 10
239.622850857927
 20
194.6301430398887
 30
0.0
 10
239.6506219079943
 20
194.5752681188756
 30
0.0
 10
239.6820711195003
 20
194.5338447155135
 30
0.0
 10
239.7021147378361
 20
194.5149459608909
 30
0.0
 10
239.7121405012194
 20
194.5054928552235
 30
0.0
  0
SPLINE
  5
118
330
1F
100
AcDbEntity
  8
0
  6
Continuous
 62
     7
370
     0
100
AcDbSpline
210
0.0
220
0.0
230
1.0
 70
     8
 71
     3
 72
    15
 73
    11
 74
     0
 42
0.00000001
 43
0.00000001
 12
1.0
 22
0.0
 32
0.0
 13
1.0
 23
0.0
 33
0.0
 40
0.0
 40
0.0
 40
0.0
 40
0.0
 40
0.0312914406377341
 40
0.0625559738335173
 40
0.124966542442185
 40
0.2494283959541476
 40
0.3742714550651963
 40
0.4993601535802144
 40
0.7496086004653203
 40
1.0
 40
1.0
 40
1.0
 40
1.0
 10
239.7121405012194
 20
194.5054928552235
 30
0.0
 10
239.722718927558
 20
194.4964828681349
 30
0.0
 10
239.7438666838693
 20
194.4784706416259
 30
0.0
 10
239.793535459261
 20
194.4481347454734
 30
0.0
 10
239.8903516538093
 20
194.4068920270509
 30
0.0
 10
240.0412063748184
 20
194.3893177811663
 30
0.0
 10
240.2110410979589
 20
194.4031016471939
 30
0.0
 10
240.4155152418914
 20
194.4629837277882
 30
0.0
 10
240.6479681695171
 20
194.5656462896908
 30
0.0
 10
240.8198579340815
 20
194.6616310192526
 30
0.0
 10
240.9058273570564
 20
194.7096370877682
 30
0.0
  0
SPLINE
  5
119
330
1F
100
AcDbEntity
  8
0
  6
Continuous
 62
     7
370
     0
100
AcDbSpline
210
0.0
220
0.0
230
1.0
 70
     8
 71
     3
 72
    16
 73
    12
 74
     0
 42
0.00000001
 43
0.00000001
 12
1.0
 22
0.0
 32
0.0
 13
1.0
 23
0.0
 33
0.0
 40
0.0
 40
0.0
 40
0.0
 40
0.0
 40
0.2503496394344898
 40
0.5005495143908351
 40
0.625588881818983
 40
0.6881323128788713
 40
0.7506868671567943
 40
0.8750305488322866
 40
0.9374399021183751
 40
0.9687083653526533
 40
0.9999999999999999
 40
0.9999999999999999
 40
0.9999999999999999
 40
0.9999999999999999
 10
240.9058273570564
 20
194.7096370877682
 30
0.0
 10
240.9906284016539
 20
194.7601575846337
 30
0.0
 10
241.1601797610607
 20
194.8611683559292
 30
0.0
 10
241.3526485953674
 20
195.0045060535465
 30
0.0
 10
241.4634774732166
 20
195.1214685071183
 30
0.0
 10
241.5077843491144
 20
195.1980602340549
 30
0.0
 10
241.5344989798386
 20
195.2805001978294
 30
0.0
 10
241.5363496055722
 20
195.3711836109225
 30
0.0
 10
241.4981856397692
 20
195.4489040141071
 30
0.0
 10
241.4652240295387
 20
195.4901054550516
 30
0.0
 10
241.445293901059
 20
195.5091184728224
 30
0.0
 10
241.4353251458943
 20
195.5186285027899
 30
0.0
  0
SPLINE
  5
11A
330
1F
100
AcDbEntity
  8
0
  6
Continuous
 62
     7
370
     0
100
AcDbSpline
210
0.0
220
0.0
230
1.0
 70
     8
 71
     3
 72
    15
 73
    11
 74
     0
 42
0.00000001
 43
0.00000001
 12
1.0
 22
0.0
 32
0.0
 13
1.0
 23
0.0
 33
0.0
 40
0.0
 40
0.0
 40
0.0
 40
0.0
 40
0.0312909998794802
 40
0.0625538939250198
 40
0.1249573530937503
 40
0.2494428287818823
 40
0.3742794951282828
 40
0.4993614316828253
 40
0.7496082157734054
 40
1.0
 40
1.0
 40
1.0
 40
1.0
 10
241.4353251458943
 20
195.5186285027899
 30
0.0
 10
241.4247699696536
 20
195.5276110995882
 30
0.0
 10
241.4036690979184
 20
195.5455682249422
 30
0.0
 10
241.3539147202029
 20
195.5755123307505
 30
0.0
 10
241.2567079899346
 20
195.615399923676
 30
0.0
 10
241.1058451000472
 20
195.6305207599773
 30
0.0
 10
240.9359761735159
 20
195.6148406358171
 30
0.0
 10
240.7323110131313
 20
195.5526634252819
 30
0.0
 10
240.4996785408173
 20
195.4499228755486
 30
0.0
 10
240.3281470232376
 20
195.3539351105832
 30
0.0
 10
240.2423564240789
 20
195.3059273276143
 30
0.0
  0
SPLINE
  5
11B
330
1F
100
AcDbEntity
  8
0
  6
Continuous
 62
     7
370
     0
100
AcDbSpline
210
0.0
220
0.0
230
1.0
 70
     8
 71
     3
 72
    16
 73
    12
 74
     0
 42
0.00000001
 43
0.00000001
 12
1.0
 22
0.0
 32
0.0
 13
1.0
 23
0.0
 33
0.0
 40
0.0
 40
0.0
 40
0.0
 40
0.0
 40
0.2502666070979152
 40
0.5003870414468602
 40
0.6253978040240693
 40
0.7501183366664415
 40
0.8126309605029063
 40
0.8750812198716655
 40
0.9374681530762621
 40
0.9687217402228868
 40
0.9999999999999999
 40
0.9999999999999999
 40
0.9999999999999999
 40
0.9999999999999999
 10
238.9237428645469
 20
196.3992583024044
 30
0.0
 10
238.8391614936849
 20
196.3489866828662
 30
0.0
 10
238.670048153244
 20
196.2484728058407
 30
0.0
 10
238.478936317841
 20
196.10784292122
 30
0.0
 10
238.3527603182805
 20
195.9795838779555
 30
0.0
 10
238.308146893471
 20
195.8845055030862
 30
0.0
 10
238.2977666000004
 20
195.8034140704178
 30
0.0
 10
238.3079485334468
 20
195.7404164697251
 30
0.0
 10
238.3365721924022
 20
195.6892755294823
 30
0.0
 10
238.368744590673
 20
195.650978365008
 30
0.0
 10
238.3891611121992
 20
195.6336734001463
 30
0.0
 10
238.3993734007444
 20
195.625017503783
 30
0.0
  0
SPLINE
  5
11C
330
1F
100
AcDbEntity
  8
0
  6
Continuous
 62
     7
370
     0
100
AcDbSpline
210
0.0
220
0.0
230
1.0
 70
     8
 71
     3
 72
    15
 73
    11
 74
     0
 42
0.00000001
 43
0.00000001
 12
1.0
 22
0.0
 32
0.0
 13
1.0
 23
0.0
 33
0.0
 40
0.0
 40
0.0
 40
0.0
 40
0.0
 40
0.0312914406377343
 40
0.0625559738335145
 40
0.1249665424421837
 40
0.2494283959541423
 40
0.3742714550651909
 40
0.4993601535802101
 40
0.7496086004653187
 40
1.0
 40
1.0
 40
1.0
 40
1.0
 10
238.3993734007444
 20
195.625017503783
 30
0.0
 10
238.4101375359865
 20
195.6167970784432
 30
0.0
 10
238.4316565504143
 20
195.6003632964895
 30
0.0
 10
238.4820560729625
 20
195.5730998909886
 30
0.0
 10
238.580086106342
 20
195.5368966430516
 30
0.0
 10
238.7322712675224
 20
195.5247152476378
 30
0.0
 10
238.9031914986447
 20
195.5428170044706
 30
0.0
 10
239.1084210799494
 20
195.6056692087875
 30
0.0
 10
239.3412863708486
 20
195.7099373386585
 30
0.0
 10
239.51321862405
 20
195.8060872401125
 30
0.0
 10
239.5992092974096
 20
195.8541759181559
 30
0.0
  0
SPLINE
  5
11D
330
1F
100
AcDbEntity
  8
0
  6
Continuous
 62
     7
370
     0
100
AcDbSpline
210
0.0
220
0.0
230
1.0
 70
     8
 71
     3
 72
    16
 73
    12
 74
     0
 42
0.00000001
 43
0.00000001
 12
1.0
 22
0.0
 32
0.0
 13
1.0
 23
0.0
 33
0.0
 40
0.0
 40
0.0
 40
0.0
 40
0.0
 40
0.2503496394344899
 40
0.5005495143908347
 40
0.6255888818189804
 40
0.6881323128788679
 40
0.7506868671567913
 40
0.8750305488322871
 40
0.9374399021183717
 40
0.9687083653526499
 40
1.0
 40
1.0
 40
1.0
 40
1.0
 10
239.5992092974096
 20
195.8541759181559
 30
0.0
 10
239.6839898450457
 20
195.9046167041936
 30
0.0
 10
239.8535002227915
 20
196.0054681015182
 30
0.0
 10
240.0455474845476
 20
196.147164809158
 30
0.0
 10
240.1556883740805
 20
196.2614211206222
 30
0.0
 10
240.1993374488789
 20
196.335399615682
 30
0.0
 10
240.2251931371508
 20
196.4143979168967
 30
0.0
 10
240.2259063816842
 20
196.5004607759654
 30
0.0
 10
240.1864986971922
 20
196.5730011718771
 30
0.0
 10
240.1527930536365
 20
196.6110635446479
 30
0.0
 10
240.1324889805919
 20
196.6284809560847
 30
0.0
 10
240.1223331838927
 20
196.6371928873897
 30
0.0
  0
SPLINE
  5
11E
330
1F
100
AcDbEntity
  8
0
  6
Continuous
 62
     7
370
     0
100
AcDbSpline
210
0.0
220
0.0
230
1.0
 70
     8
 71
     3
 72
    15
 73
    11
 74
     0
 42
0.00000001
 43
0.00000001
 12
1.0
 22
0.0
 32
0.0
 13
1.0
 23
0.0
 33
0.0
 40
0.0
 40
0.0
 40
0.0
 40
0.0
 40
0.0312909998794809
 40
0.0625538939250194
 40
0.1249573530937515
 40
0.2494428287818828
 40
0.3742794951282839
 40
0.4993614316828264
 40
0.7496082157734062
 40
1.0
 40
1.0
 40
1.0
 40
1.0
 10
240.1223331838927
 20
196.6371928873897
 30
0.0
 10
240.1115939803212
 20
196.6453861085
 30
0.0
 10
240.0901252192194
 20
196.6617651915019
 30
0.0
 10
240.0396605233832
 20
196.6886279448592
 30
0.0
 10
239.9413023409555
 20
196.7234551026855
 30
0.0
 10
239.7892357635459
 20
196.7331516206783
 30
0.0
 10
239.6184109939338
 20
196.7130758635274
 30
0.0
 10
239.4141091478545
 20
196.6479329713099
 30
0.0
 10
239.1811168021526
 20
196.5434984620534
 30
0.0
 10
239.009550740663
 20
196.4473476383538
 30
0.0
 10
238.9237428645469
 20
196.3992583024044
 30
0.0
  0
ARC
  5
11F
330
1F
100
AcDbEntity
  8
0
  6
Continuous
 62
     7
370
     0
100
AcDbCircle
 10
224.6195950926
 20
179.2730226693
 30
0.0
 40
22.30571101701391
100
AcDbArc
 50
61.6820749294
 51
63.0187755064
  0
SPLINE
  5
120
330
1F
100
AcDbEntity
  8
0
  6
Continuous
 62
     7
370
     0
100
AcDbSpline
210
0.0
220
0.0
230
1.0
 70
     8
 71
     3
 72
    15
 73
    11
 74
     0
 42
0.00000001
 43
0.00000001
 12
1.0
 22
0.0
 32
0.0
 13
1.0
 23
0.0
 33
0.0
 40
0.0
 40
0.0
 40
0.0
 40
0.0
 40
0.1253687344043246
 40
0.2506537146082102
 40
0.499006107688182
 40
0.5824744486737407
 40
0.6659284924138883
 40
0.7494593542610679
 40
0.8746717774612639
 40
0.9999999999999999
 40
0.9999999999999999
 40
0.9999999999999999
 40
0.9999999999999999
 10
235.2006134638627
 20
198.9093867472362
 30
0.0
 10
235.2289317503538
 20
198.8948586099229
 30
0.0
 10
235.2855494049393
 20
198.8658120410061
 30
0.0
 10
235.4113972015184
 20
198.8167135133882
 30
0.0
 10
235.5505301675454
 20
198.7873117389283
 30
0.0
 10
235.6805782595836
 20
198.7923402873184
 30
0.0
 10
235.7568749309176
 20
198.8032186160459
 30
0.0
 10
235.8403493140868
 20
198.8249136344102
 30
0.0
 10
235.9281790745572
 20
198.8579920731337
 30
0.0
 10
235.9851505015211
 20
198.8888619730942
 30
0.0
 10
236.0136493810375
 20
198.9043040570745
 30
0.0
  0
SPLINE
  5
121
330
1F
100
AcDbEntity
  8
0
  6
Continuous
 62
     7
370
     0
100
AcDbSpline
210
0.0
220
0.0
230
1.0
 70
     8
 71
     3
 72
    15
 73
    11
 74
     0
 42
0.00000001
 43
0.00000001
 12
1.0
 22
0.0
 32
0.0
 13
1.0
 23
0.0
 33
0.0
 40
0.0
 40
0.0
 40
0.0
 40
0.0
 40
0.1251540318599156
 40
0.2502318117948319
 40
0.3752377208699228
 40
0.5001643140107119
 40
0.6246887580925394
 40
0.7495887405035583
 40
0.8622797430428797
 40
1.0
 40
1.0
 40
1.0
 40
1.0
 10
236.0136493810375
 20
198.9043040570745
 30
0.0
 10
236.0402999462596
 20
198.9207679186852
 30
0.0
 10
236.093584839457
 20
198.9536856110578
 30
0.0
 10
236.1556450330459
 20
199.0113731192274
 30
0.0
 10
236.194310891399
 20
199.0749062346454
 30
0.0
 10
236.2124101734666
 20
199.1412790396679
 30
0.0
 10
236.1902803422053
 20
199.2079722870148
 30
0.0
 10
236.1262313618625
 20
199.2606137597993
 30
0.0
 10
236.0521185388912
 20
199.3101683767609
 30
0.0
 10
235.9976544325134
 20
199.3403940641062
 30
0.0
 10
235.9677004650266
 20
199.3570174756743
 30
0.0
  0
ARC
  5
122
330
1F
100
AcDbEntity
  8
0
  6
Continuous
 62
     7
370
     0
100
AcDbCircle
 10
225.3929085397
 20
179.7220445688
 30
0.0
 40
22.30153325035625
100
AcDbArc
 50
61.6944617846
 51
63.0188584909
  0
LINE
  5
123
330
1F
100
AcDbEntity
  8
0
  6
Continuous
 62
     7
370
     0
100
AcDbLine
 10
235.5110518829
 20
199.5961875844
 30
0.0
 11
234.739662667
 21
199.1508740689
 31
0.0
  0
ARC
  5
124
330
1F
100
AcDbEntity
  8
0
  6
Continuous
 62
     7
370
     0
100
AcDbCircle
 10
226.7330209093
 20
187.1899096908
 30
0.0
 40
13.34899621953593
100
AcDbArc
 50
80.4259410123
 51
81.9693318061
  0
SPLINE
  5
125
330
1F
100
AcDbEntity
  8
0
  6
Continuous
 62
     7
370
     0
100
AcDbSpline
210
0.0
220
0.0
230
1.0
 70
     8
 71
     3
 72
    15
 73
    11
 74
     0
 42
0.00000001
 43
0.00000001
 12
1.0
 22
0.0
 32
0.0
 13
1.0
 23
0.0
 33
0.0
 40
0.0
 40
0.0
 40
0.0
 40
0.0
 40
0.1397214989288396
 40
0.2501771574758365
 40
0.3752386258444426
 40
0.5002314506201603
 40
0.6214276674167163
 40
0.7499576434759416
 40
0.8749319569283671
 40
1.0
 40
1.0
 40
1.0
 40
1.0
 10
228.953256849279
 20
200.3529736365207
 30
0.0
 10
228.9830571201432
 20
200.3484386899945
 30
0.0
 10
229.0364157450789
 20
200.3403186795457
 30
0.0
 10
229.1232100430126
 20
200.3316013660685
 30
0.0
 10
229.2131932764568
 20
200.3273460802471
 30
0.0
 10
229.31544457536
 20
200.3303715437616
 30
0.0
 10
229.4275499890651
 20
200.3441529970691
 30
0.0
 10
229.5422820666134
 20
200.3683398459566
 30
0.0
 10
229.6565506013997
 20
200.3995550746006
 30
0.0
 10
229.7278951460545
 20
200.4247470603641
 30
0.0
 10
229.7635807903104
 20
200.4373477749163
 30
0.0
  0
SPLINE
  5
126
330
1F
100
AcDbEntity
  8
0
  6
Continuous
 62
     7
370
     0
100
AcDbSpline
210
0.0
220
0.0
230
1.0
 70
     8
 71
     3
 72
    12
 73
     8
 74
     0
 42
0.00000001
 43
0.00000001
 12
1.0
 22
0.0
 32
0.0
 13
1.0
 23
0.0
 33
0.0
 40
0.0
 40
0.0
 40
0.0
 40
0.0
 40
0.125017884638177
 40
0.2500201696718612
 40
0.4999844141952986
 40
0.7499868018933626
 40
1.0
 40
1.0
 40
1.0
 40
1.0
 10
229.7635807903104
 20
200.4373477749163
 30
0.0
 10
229.7914800760792
 20
200.4477699522249
 30
0.0
 10
229.8472751663724
 20
200.4686130063735
 30
0.0
 10
229.9547342047296
 20
200.5128346866136
 30
0.0
 10
230.0830264357115
 20
200.5709700893087
 30
0.0
 10
230.2281986228348
 20
200.6439066508448
 30
0.0
 10
230.3175648642173
 20
200.6944373618827
 30
0.0
 10
230.362248950964
 20
200.7197032636423
 30
0.0
  0
SPLINE
  5
127
330
1F
100
AcDbEntity
  8
0
  6
Continuous
 62
     7
370
     0
100
AcDbSpline
210
0.0
220
0.0
230
1.0
 70
     8
 71
     3
 72
    15
 73
    11
 74
     0
 42
0.00000001
 43
0.00000001
 12
1.0
 22
0.0
 32
0.0
 13
1.0
 23
0.0
 33
0.0
 40
0.0
 40
0.0
 40
0.0
 40
0.0
 40
0.1251268274281168
 40
0.2502484251834728
 40
0.5001030853491292
 40
0.6251006234200772
 40
0.750105284304712
 40
0.8749559266229174
 40
0.9374630657903281
 40
1.0
 40
1.0
 40
1.0
 40
1.0
 10
230.362248950964
 20
200.7197032636423
 30
0.0
 10
230.3978970496465
 20
200.7406141764228
 30
0.0
 10
230.4691917570999
 20
200.7824351280128
 30
0.0
 10
230.6013096316988
 20
200.8677474408543
 30
0.0
 10
230.7186644874913
 20
200.9556733069226
 30
0.0
 10
230.7981899081887
 20
201.0436361360251
 30
0.0
 10
230.8380105683458
 20
201.1081695696751
 30
0.0
 10
230.8470484010091
 20
201.1584735535143
 30
0.0
 10
230.8364949386963
 20
201.1945111574001
 30
0.0
 10
230.8217985041275
 20
201.2096043037626
 30
0.0
 10
230.814448535937
 20
201.2171526751136
 30
0.0
  0
SPLINE
  5
128
330
1F
100
AcDbEntity
  8
0
  6
Continuous
 62
     7
370
     0
100
AcDbSpline
210
0.0
220
0.0
230
1.0
 70
     8
 71
     3
 72
    12
 73
     8
 74
     0
 42
0.00000001
 43
0.00000001
 12
1.0
 22
0.0
 32
0.0
 13
1.0
 23
0.0
 33
0.0
 40
0.0
 40
0.0
 40
0.0
 40
0.0
 40
0.1428151998865927
 40
0.2856721884586208
 40
0.4999151269693736
 40
0.7499378388271243
 40
1.0
 40
1.0
 40
1.0
 40
1.0
 10
230.814448535937
 20
201.2171526751136
 30
0.0
 10
230.8069191049677
 20
201.2226326901117
 30
0.0
 10
230.7918580398671
 20
201.2335943235972
 30
0.0
 10
230.756217782384
 20
201.2488671297023
 30
0.0
 10
230.7072200097516
 20
201.2644310289327
 30
0.0
 10
230.644041800234
 20
201.2795795338626
 30
0.0
 10
230.59668404961
 20
201.2880391678054
 30
0.0
 10
230.5730033063843
 20
201.292269318447
 30
0.0
  0
ARC
  5
129
330
1F
100
AcDbEntity
  8
0
  6
Continuous
 62
     7
370
     0
100
AcDbCircle
 10
228.3590114528
 20
188.1319996799
 30
0.0
 40
13.3452035161368
100
AcDbArc
 50
80.4503803695
 51
81.9694766885
  0
LINE
  5
12A
330
1F
100
AcDbEntity
  8
0
  6
Continuous
 62
     7
370
     0
100
AcDbLine
 10
230.2233447776
 20
201.3463372774
 30
0.0
 11
228.5979175013
 21
200.407998084
 31
0.0
  0
CIRCLE
  5
12B
330
1F
100
AcDbEntity
  8
0
  6
Continuous
 62
     7
370
     0
100
AcDbCircle
 10
87.275592955
 20
115.3396105675
 30
0.0
 40
25.40000000000001
  0
CIRCLE
  5
12C
330
1F
100
AcDbEntity
  8
0
  6
Continuous
 62
     7
370
     0
100
AcDbCircle
 10
87.275592955
 20
115.3396105675
 30
0.0
 40
25.10000000000002
  0
DIMENSION
  5
12D
330
1F
100
AcDbEntity
  8
0
  6
Continuous
 62
     7
370
     0
100
AcDbDimension
  2
_D
 10
69.5368546094
 20
97.1600296618
 30
0.0
 11
133.464909428
 21
150.7396105675
 31
0.0
 70
   163
  1
<>
 71
     1
 42
-1.0
  3
SLDDIMSTYLE0
100
AcDbDiametricDimension
 15
105.0143313006
 25
133.5191914732
 35
0.0
 40
0.0
  0
LINE
  5
13E
330
1F
100
AcDbEntity
  8
0
  6
Continuous
 62
     7
370
     0
100
AcDbLine
 10
182.3337181996
 20
89.9396105675
 30
0.0
 11
182.6337181996
 21
90.2396105675
 31
0.0
  0
LINE
  5
13F
330
1F
100
AcDbEntity
  8
0
  6
Continuous
 62
     7
370
     0
100
AcDbLine
 10
182.6337181996
 20
140.4396105675
 30
0.0
 11
182.3337181996
 21
140.7396105675
 31
0.0
  0
LINE
  5
140
330
1F
100
AcDbEntity
  8
0
  6
Continuous
 62
     7
370
     0
100
AcDbLine
 10
182.3337181996
 20
140.7396105675
 30
0.0
 11
177.9337181996
 21
140.7396105675
 31
0.0
  0
LINE
  5
141
330
1F
100
AcDbEntity
  8
0
  6
Continuous
 62
     7
370
     0
100
AcDbLine
 10
177.9337181996
 20
89.9396105675
 30
0.0
 11
182.3337181996
 21
89.9396105675
 31
0.0
  0
LINE
  5
142
330
1F
100
AcDbEntity
  8
0
  6
Continuous
 62
     7
370
     0
100
AcDbLine
 10
177.9337181996
 20
140.7396105675
 30
0.0
 11
177.6337181996
 21
140.4396105675
 31
0.0
  0
LINE
  5
143
330
1F
100
AcDbEntity
  8
0
  6
Continuous
 62
     7
370
     0
100
AcDbLine
 10
177.6337181996
 20
90.2396105675
 30
0.0
 11
177.9337181996
 21
89.9396105675
 31
0.0
  0
LINE
  5
144
330
1F
100
AcDbEntity
  8
0
  6
Continuous
 62
     7
370
     0
100
AcDbLine
 10
182.6337181996
 20
140.4396105675
 30
0.0
 11
182.6337181996
 21
90.2396105675
 31
0.0
  0
LINE
  5
145
330
1F
100
AcDbEntity
  8
0
  6
Continuous
 62
     7
370
     0
100
AcDbLine
 10
182.3337181996
 20
89.9396105675
 30
0.0
 11
182.3337181996
 21
140.7396105675
 31
0.0
  0
LINE
  5
146
330
1F
100
AcDbEntity
  8
0
  6
Continuous
 62
     7
370
     0
100
AcDbLine
 10
181.283068849
 20
124.7886750832
 30
0.0
 11
181.283068849
 21
123.6204871658
 31
0.0
  0
LINE
  5
147
330
1F
100
AcDbEntity
  8
0
  6
Continuous
 62
     7
370
     0
100
AcDbLine
 10
178.6337181996
 20
123.6204871658
 30
0.0
 11
181.283068849
 21
123.6204871658
 31
0.0
  0
LINE
  5
148
330
1F
100
AcDbEntity
  8
0
  6
Continuous
 62
     7
370
     0
100
AcDbLine
 10
178.6337181996
 20
123.6204871658
 30
0.0
 11
178.6337181996
 21
123.325212402
 31
0.0
  0
LINE
  5
149
330
1F
100
AcDbEntity
  8
0
  6
Continuous
 62
     7
370
     0
100
AcDbLine
 10
181.6337181996
 20
123.325212402
 30
0.0
 11
178.6337181996
 21
123.325212402
 31
0.0
  0
LINE
  5
14A
330
1F
100
AcDbEntity
  8
0
  6
Continuous
 62
     7
370
     0
100
AcDbLine
 10
181.6337181996
 20
124.7886750832
 30
0.0
 11
181.6337181996
 21
123.325212402
 31
0.0
  0
LINE
  5
14B
330
1F
100
AcDbEntity
  8
0
  6
Continuous
 62
     7
370
     0
100
AcDbLine
 10
181.283068849
 20
124.7886750832
 30
0.0
 11
181.6337181996
 21
124.7886750832
 31
0.0
  0
SPLINE
  5
14C
330
1F
100
AcDbEntity
  8
0
  6
Continuous
 62
     7
370
     0
100
AcDbSpline
210
0.0
220
0.0
230
1.0
 70
     8
 71
     3
 72
    14
 73
    10
 74
     0
 42
0.00000001
 43
0.00000001
 12
1.0
 22
0.0
 32
0.0
 13
1.0
 23
0.0
 33
0.0
 40
0.0
 40
0.0
 40
0.0
 40
0.0
 40
0.1249642785198604
 40
0.2499282715641016
 40
0.3720998993849184
 40
0.4999250557765769
 40
0.6246427517431304
 40
0.7499738496850407
 40
1.0
 40
1.0
 40
1.0
 40
1.0
 10
178.911315602206
 20
120.8367568408635
 30
0.0
 10
178.9570272152205
 20
120.8623508390679
 30
0.0
 10
179.0484503368233
 20
120.9135387770083
 30
0.0
 10
179.1965175098829
 20
120.9651694486856
 30
0.0
 10
179.3488163551017
 20
121.0057360191087
 30
0.0
 10
179.5040439903375
 20
121.0339768708437
 30
0.0
 10
179.661818023508
 20
121.0538348504021
 30
0.0
 10
179.8715760751993
 20
121.0722280299872
 30
0.0
 10
180.0296454392613
 20
121.0741450521367
 30
0.0
 10
180.1349357320762
 20
121.0754219841005
 30
0.0
  0
SPLINE
  5
14D
330
1F
100
AcDbEntity
  8
0
  6
Continuous
 62
     7
370
     0
100
AcDbSpline
210
0.0
220
0.0
230
1.0
 70
     8
 71
     3
 72
    13
 73
     9
 74
     0
 42
0.00000001
 43
0.00000001
 12
1.0
 22
0.0
 32
0.0
 13
1.0
 23
0.0
 33
0.0
 40
0.0
 40
0.0
 40
0.0
 40
0.0
 40
0.1251948774509707
 40
0.2503112808433222
 40
0.4999074824305221
 40
0.7496464708871775
 40
0.8747928721822833
 40
1.0
 40
1.0
 40
1.0
 40
1.0
 10
178.5947571606476
 20
120.2964356923257
 30
0.0
 10
178.5956438571158
 20
120.3237001470721
 30
0.0
 10
178.5974166942573
 20
120.3782119667889
 30
0.0
 10
178.6169203876275
 20
120.485615130346
 30
0.0
 10
178.6702623556886
 20
120.6129960091067
 30
0.0
 10
178.7579527239157
 20
120.7201617313131
 30
0.0
 10
178.8423372699156
 20
120.7909574939772
 30
0.0
 10
178.8883191069439
 20
120.8214879233831
 30
0.0
 10
178.911315602206
 20
120.8367568408635
 30
0.0
  0
SPLINE
  5
14E
330
1F
100
AcDbEntity
  8
0
  6
Continuous
 62
     7
370
     0
100
AcDbSpline
210
0.0
220
0.0
230
1.0
 70
     8
 71
     3
 72
    16
 73
    12
 74
     0
 42
0.00000001
 43
0.00000001
 12
1.0
 22
0.0
 32
0.0
 13
1.0
 23
0.0
 33
0.0
 40
0.0
 40
0.0
 40
0.0
 40
0.0
 40
0.1251729595269204
 40
0.2503372774079402
 40
0.5002449954416988
 40
0.6352206015890628
 40
0.7500261309022525
 40
0.8134102944345083
 40
0.8749697478554562
 40
0.9374576207513924
 40
1.0
 40
1.0
 40
1.0
 40
1.0
 10
180.1349357320762
 20
119.5089679513163
 30
0.0
 10
180.0543578255815
 20
119.5098391359745
 30
0.0
 10
179.8932075755007
 20
119.5115814451464
 30
0.0
 10
179.5723845342275
 20
119.5370186248204
 30
0.0
 10
179.2464608759726
 20
119.5938598681154
 30
0.0
 10
178.9482984666128
 20
119.7177139432075
 30
0.0
 10
178.7839840390852
 20
119.8373532756172
 30
0.0
 10
178.6868775705
 20
119.9566400650432
 30
0.0
 10
178.6322156201663
 20
120.0631362071333
 30
0.0
 10
178.5998140726801
 20
120.1778240376634
 30
0.0
 10
178.5964432878177
 20
120.2568869850645
 30
0.0
 10
178.5947571606476
 20
120.2964356923257
 30
0.0
  0
SPLINE
  5
14F
330
1F
100
AcDbEntity
  8
0
  6
Continuous
 62
     7
370
     0
100
AcDbSpline
210
0.0
220
0.0
230
1.0
 70
     8
 71
     3
 72
    18
 73
    14
 74
     0
 42
0.00000001
 43
0.00000001
 12
1.0
 22
0.0
 32
0.0
 13
1.0
 23
0.0
 33
0.0
 40
0.0
 40
0.0
 40
0.0
 40
0.0
 40
0.0624950322413549
 40
0.1249340560767829
 40
0.1865917156250405
 40
0.2498536395941504
 40
0.3120654852386789
 40
0.3748805468662907
 40
0.499712008759789
 40
0.6247329320279822
 40
0.7498001999826227
 40
0.8748958867714849
 40
1.0
 40
1.0
 40
1.0
 40
1.0
 10
181.6726792385697
 20
120.292853271117
 30
0.0
 10
181.6708205787828
 20
120.2533867266859
 30
0.0
 10
181.6671049249508
 20
120.174489007967
 30
0.0
 10
181.6318242589471
 20
120.0607402906423
 30
0.0
 10
181.5754472719515
 20
119.9555205948524
 30
0.0
 10
181.4993087750566
 20
119.8631365331612
 30
0.0
 10
181.4094734349873
 20
119.7829518512894
 30
0.0
 10
181.2774217776289
 20
119.6922584707787
 30
0.0
 10
181.0905826689935
 20
119.6144136012791
 30
0.0
 10
180.8556187463655
 20
119.5604700043901
 30
0.0
 10
180.6167150879903
 20
119.5274138650214
 30
0.0
 10
180.3760068734054
 20
119.5118601270487
 30
0.0
 10
180.2152945833872
 20
119.5099320315392
 30
0.0
 10
180.1349357320762
 20
119.5089679513163
 30
0.0
  0
SPLINE
  5
150
330
1F
100
AcDbEntity
  8
0
  6
Continuous
 62
     7
370
     0
100
AcDbSpline
210
0.0
220
0.0
230
1.0
 70
     8
 71
     3
 72
    16
 73
    12
 74
     0
 42
0.00000001
 43
0.00000001
 12
1.0
 22
0.0
 32
0.0
 13
1.0
 23
0.0
 33
0.0
 40
0.0
 40
0.0
 40
0.0
 40
0.0
 40
0.1251681795783653
 40
0.2503286224455489
 40
0.5002403576317187
 40
0.6338071334602062
 40
0.7500155071378947
 40
0.8124974968691973
 40
0.8749673844673919
 40
0.9374604080777067
 40
1.0
 40
1.0
 40
1.0
 40
1.0
 10
180.1349357320762
 20
121.0754219841005
 30
0.0
 10
180.2154240805193
 20
121.0745330979389
 30
0.0
 10
180.3763958023781
 20
121.0727553805581
 30
0.0
 10
180.6968816443819
 20
121.0475760634628
 30
0.0
 10
181.0214016432325
 20
120.990791988987
 30
0.0
 10
181.3193551086824
 20
120.8690644387135
 30
0.0
 10
181.4836562638587
 20
120.7513987770593
 30
0.0
 10
181.5807952334501
 20
120.6320066100011
 30
0.0
 10
181.635707972255
 20
120.5262153574721
 30
0.0
 10
181.6676044443288
 20
120.4112500570989
 30
0.0
 10
181.6709872205185
 20
120.3323286645172
 30
0.0
 10
181.6726792385697
 20
120.292853271117
 30
0.0
  0
SPLINE
  5
151
330
1F
100
AcDbEntity
  8
0
  6
Continuous
 62
     7
370
     0
100
AcDbSpline
210
0.0
220
0.0
230
1.0
 70
     8
 71
     3
 72
    13
 73
     9
 74
     0
 42
0.00000001
 43
0.00000001
 12
1.0
 22
0.0
 32
0.0
 13
1.0
 23
0.0
 33
0.0
 40
0.0
 40
0.0
 40
0.0
 40
0.0
 40
0.1429290000846537
 40
0.2858355047860122
 40
0.5713887719618188
 40
0.7856535991854242
 40
0.8928128968450194
 40
1.0
 40
1.0
 40
1.0
 40
1.0
 10
179.3739779398684
 20
115.9044990560227
 30
0.0
 10
179.3471994053451
 20
115.9488560269001
 30
0.0
 10
179.2936465509323
 20
116.037562987377
 30
0.0
 10
179.1689445512884
 20
116.2031527595209
 30
0.0
 10
179.0073965983514
 20
116.3722423765598
 30
0.0
 10
178.8341286133089
 20
116.5085426912331
 30
0.0
 10
178.701601242609
 20
116.5901891939328
 30
0.0
 10
178.6303749345135
 20
116.6213520183202
 30
0.0
 10
178.5947571606476
 20
116.6369354517696
 30
0.0
  0
LINE
  5
152
330
1F
100
AcDbEntity
  8
0
  6
Continuous
 62
     7
370
     0
100
AcDbLine
 10
179.7246272905
 20
115.904499056
 30
0.0
 11
179.3739779399
 21
115.904499056
 31
0.0
  0
SPLINE
  5
153
330
1F
100
AcDbEntity
  8
0
  6
Continuous
 62
     7
370
     0
100
AcDbSpline
210
0.0
220
0.0
230
1.0
 70
     8
 71
     3
 72
    13
 73
     9
 74
     0
 42
0.00000001
 43
0.00000001
 12
1.0
 22
0.0
 32
0.0
 13
1.0
 23
0.0
 33
0.0
 40
0.0
 40
0.0
 40
0.0
 40
0.0
 40
0.1250123714961211
 40
0.2500229783890252
 40
0.4999839591220571
 40
0.7499694082085199
 40
0.8749832141361749
 40
1.0
 40
1.0
 40
1.0
 40
1.0
 10
179.2570948229853
 20
116.5274888199108
 30
0.0
 10
179.2817242675377
 20
116.5059982664793
 30
0.0
 10
179.3309828089874
 20
116.4630174629647
 30
0.0
 10
179.4200659997646
 20
116.3672378726705
 30
0.0
 10
179.522926030016
 20
116.2401840096106
 30
0.0
 10
179.6152395829006
 20
116.1052711825018
 30
0.0
 10
179.6823393540719
 20
115.992988688668
 30
0.0
 10
179.710531199703
 20
115.9339958346024
 30
0.0
 10
179.7246272905177
 20
115.9044990560227
 30
0.0
  0
LINE
  5
154
330
1F
100
AcDbEntity
  8
0
  6
Continuous
 62
     7
370
     0
100
AcDbLine
 10
181.6337181996
 20
116.5274888199
 30
0.0
 11
179.257094823
 21
116.5274888199
 31
0.0
  0
LINE
  5
155
330
1F
100
AcDbEntity
  8
0
  6
Continuous
 62
     7
370
     0
100
AcDbLine
 10
181.6337181996
 20
116.8387388428
 30
0.0
 11
181.6337181996
 21
116.5274888199
 31
0.0
  0
LINE
  5
156
330
1F
100
AcDbEntity
  8
0
  6
Continuous
 62
     7
370
     0
100
AcDbLine
 10
178.5947571606
 20
116.8387388428
 30
0.0
 11
181.6337181996
 21
116.8387388428
 31
0.0
  0
LINE
  5
157
330
1F
100
AcDbEntity
  8
0
  6
Continuous
 62
     7
370
     0
100
AcDbLine
 10
178.5947571606
 20
116.8387388428
 30
0.0
 11
178.5947571606
 21
116.6369354518
 31
0.0
  0
SPLINE
  5
158
330
1F
100
AcDbEntity
  8
0
  6
Continuous
 62
     7
370
     0
100
AcDbSpline
210
0.0
220
0.0
230
1.0
 70
     8
 71
     3
 72
    13
 73
     9
 74
     0
 42
0.00000001
 43
0.00000001
 12
1.0
 22
0.0
 32
0.0
 13
1.0
 23
0.0
 33
0.0
 40
0.0
 40
0.0
 40
0.0
 40
0.0
 40
0.1252811271759511
 40
0.2504738718290436
 40
0.4999736990848824
 40
0.7495186620198464
 40
0.8747168909573877
 40
0.9999999999999999
 40
0.9999999999999999
 40
0.9999999999999999
 40
0.9999999999999999
 10
180.0825818359723
 20
112.6417869140956
 30
0.0
 10
180.0990623973546
 20
112.6757177650207
 30
0.0
 10
180.132011893519
 20
112.7435555295528
 30
0.0
 10
180.2181116002751
 20
112.8676258221486
 30
0.0
 10
180.3595251895547
 20
112.9971160590013
 30
0.0
 10
180.5364969732118
 20
113.0714024035328
 30
0.0
 10
180.6855142252169
 20
113.0986594639997
 30
0.0
 10
180.7612293180088
 20
113.1010557050371
 30
0.0
 10
180.7990996931152
 20
113.1022542315605
 30
0.0
  0
SPLINE
  5
159
330
1F
100
AcDbEntity
  8
0
  6
Continuous
 62
     7
370
     0
100
AcDbSpline
210
0.0
220
0.0
230
1.0
 70
     8
 71
     3
 72
    11
 73
     7
 74
     0
 42
0.00000001
 43
0.00000001
 12
1.0
 22
0.0
 32
0.0
 13
1.0
 23
0.0
 33
0.0
 40
0.0
 40
0.0
 40
0.0
 40
0.0
 40
0.5000226720966782
 40
0.7500106326006034
 40
0.8750211364987092
 40
1.0
 40
1.0
 40
1.0
 40
1.0
 10
179.9279552125956
 20
112.1242348115172
 30
0.0
 10
179.9493022908675
 20
112.211734612984
 30
0.0
 10
179.9813219103213
 20
112.3429802246586
 30
0.0
 10
180.0284621140089
 20
112.4935548558362
 30
0.0
 10
180.056444767377
 20
112.5793332675671
 30
0.0
 10
180.0738702149359
 20
112.6209707885644
 30
0.0
 10
180.0825818359723
 20
112.6417869140956
 30
0.0
  0
SPLINE
  5
15A
330
1F
100
AcDbEntity
  8
0
  6
Continuous
 62
     7
370
     0
100
AcDbSpline
210
0.0
220
0.0
230
1.0
 70
     8
 71
     3
 72
    12
 73
     8
 74
     0
 42
0.00000001
 43
0.00000001
 12
1.0
 22
0.0
 32
0.0
 13
1.0
 23
0.0
 33
0.0
 40
0.0
 40
0.0
 40
0.0
 40
0.0
 40
0.0684070121218567
 40
0.1249521065050069
 40
0.2499724161952047
 40
0.4999612419727746
 40
1.0
 40
1.0
 40
1.0
 40
1.0
 10
179.7282798879203
 20
111.6519994491509
 30
0.0
 10
179.7365813417296
 20
111.6604632306287
 30
0.0
 10
179.7517447600453
 20
111.6759231563269
 30
0.0
 10
179.7780906201237
 20
111.7103111245206
 30
0.0
 10
179.8156085885537
 20
111.7749917823043
 30
0.0
 10
179.8736063770228
 20
111.9150037725979
 30
0.0
 10
179.9062151470242
 20
112.0405403503988
 30
0.0
 10
179.9279552125956
 20
112.1242348115172
 30
0.0
  0
SPLINE
  5
15B
330
1F
100
AcDbEntity
  8
0
  6
Continuous
 62
     7
370
     0
100
AcDbSpline
210
0.0
220
0.0
230
1.0
 70
     8
 71
     3
 72
    11
 73
     7
 74
     0
 42
0.00000001
 43
0.00000001
 12
1.0
 22
0.0
 32
0.0
 13
1.0
 23
0.0
 33
0.0
 40
0.0
 40
0.0
 40
0.0
 40
0.0
 40
0.2502289237422089
 40
0.5002032682721483
 40
0.7499928847035011
 40
1.0
 40
1.0
 40
1.0
 40
1.0
 10
179.4238967710372
 20
111.555054206918
 30
0.0
 10
179.4511770062904
 20
111.5559112650482
 30
0.0
 10
179.5057097222883
 20
111.5576245093505
 30
0.0
 10
179.5861894017661
 20
111.573097184942
 30
0.0
 10
179.6633816718874
 20
111.6023146796182
 30
0.0
 10
179.70664087414
 20
111.6354330552142
 30
0.0
 10
179.7282798879203
 20
111.6519994491509
 30
0.0
  0
SPLINE
  5
15C
330
1F
100
AcDbEntity
  8
0
  6
Continuous
 62
     7
370
     0
100
AcDbSpline
210
0.0
220
0.0
230
1.0
 70
     8
 71
     3
 72
    15
 73
    11
 74
     0
 42
0.00000001
 43
0.00000001
 12
1.0
 22
0.0
 32
0.0
 13
1.0
 23
0.0
 33
0.0
 40
0.0
 40
0.0
 40
0.0
 40
0.0
 40
0.0777526257237599
 40
0.1432281142729331
 40
0.2506300153014006
 40
0.4995926731139621
 40
0.6246817606491039
 40
0.7496818425173593
 40
0.8748013780954865
 40
0.9999999999999999
 40
0.9999999999999999
 40
0.9999999999999999
 40
0.9999999999999999
 10
178.9454065112969
 20
112.1188000670058
 30
0.0
 10
178.9458041477964
 20
112.0972477484155
 30
0.0
 10
178.9465366340044
 20
112.0575462216675
 30
0.0
 10
178.9530630989992
 20
111.9883295718375
 30
0.0
 10
178.9731314774022
 20
111.873255502623
 30
0.0
 10
179.0286493041648
 20
111.7466525932646
 30
0.0
 10
179.1279205331855
 20
111.6478637510329
 30
0.0
 10
179.2175844966829
 20
111.5923870741813
 30
0.0
 10
179.3187699719613
 20
111.5602555391188
 30
0.0
 10
179.3888471245447
 20
111.5567883494633
 30
0.0
 10
179.4238967710372
 20
111.555054206918
 30
0.0
  0
SPLINE
  5
15D
330
1F
100
AcDbEntity
  8
0
  6
Continuous
 62
     7
370
     0
100
AcDbSpline
210
0.0
220
0.0
230
1.0
 70
     8
 71
     3
 72
    14
 73
    10
 74
     0
 42
0.00000001
 43
0.00000001
 12
1.0
 22
0.0
 32
0.0
 13
1.0
 23
0.0
 33
0.0
 40
0.0
 40
0.0
 40
0.0
 40
0.0
 40
0.1253630775418432
 40
0.2506826249695318
 40
0.3937251744239495
 40
0.5010193669162339
 40
0.7494139240249075
 40
0.8746544750575698
 40
1.0
 40
1.0
 40
1.0
 40
1.0
 10
179.5298220957125
 20
112.7144366901014
 30
0.0
 10
179.4906938577582
 20
112.710238625925
 30
0.0
 10
179.4124509684391
 20
112.7018439552758
 30
0.0
 10
179.2923441453079
 20
112.6711620358382
 30
0.0
 10
179.1846043245322
 20
112.6211274052808
 30
0.0
 10
179.0605457321784
 20
112.5245713592393
 30
0.0
 10
178.9821161415149
 20
112.3884748948511
 30
0.0
 10
178.9495625774328
 20
112.2359156395976
 30
0.0
 10
178.9467922535177
 20
112.1578494921928
 30
0.0
 10
178.9454065112969
 20
112.1188000670058
 30
0.0
  0
SPLINE
  5
15E
330
1F
100
AcDbEntity
  8
0
  6
Continuous
 62
     7
370
     0
100
AcDbSpline
210
0.0
220
0.0
230
1.0
 70
     8
 71
     3
 72
     8
 73
     4
 74
     0
 42
0.00000001
 43
0.00000001
 12
1.0
 22
0.0
 32
0.0
 13
1.0
 23
0.0
 33
0.0
 40
0.0
 40
0.0
 40
0.0
 40
0.0
 40
1.0
 40
1.0
 40
1.0
 40
1.0
 10
179.4908610567515
 20
113.0246456890602
 30
0.0
 10
179.5038480697385
 20
112.9211819947786
 30
0.0
 10
179.5168350827255
 20
112.8177764000109
 30
0.0
 10
179.5298220957125
 20
112.7144366901014
 30
0.0
  0
SPLINE
  5
15F
330
1F
100
AcDbEntity
  8
0
  6
Continuous
 62
     7
370
     0
100
AcDbSpline
210
0.0
220
0.0
230
1.0
 70
     8
 71
     3
 72
    15
 73
    11
 74
     0
 42
0.00000001
 43
0.00000001
 12
1.0
 22
0.0
 32
0.0
 13
1.0
 23
0.0
 33
0.0
 40
0.0
 40
0.0
 40
0.0
 40
0.0
 40
0.0627787189007932
 40
0.1255404537923985
 40
0.2509217997511365
 40
0.4999930802217219
 40
0.7490704743254051
 40
0.8744612101315474
 40
0.9372214876468203
 40
1.0
 40
1.0
 40
1.0
 40
1.0
 10
178.5947571606476
 20
112.1085348475642
 30
0.0
 10
178.5955681976088
 20
112.1384234884998
 30
0.0
 10
178.5971900521151
 20
112.1981926843673
 30
0.0
 10
178.6086664687539
 20
112.3173727424006
 30
0.0
 10
178.6574495691349
 20
112.5209626042033
 30
0.0
 10
178.8135465657718
 20
112.7877502388797
 30
0.0
 10
179.0773947053365
 20
112.9504726064269
 30
0.0
 10
179.2808931657084
 20
113.0048329339367
 30
0.0
 10
179.400572375964
 20
113.019875492513
 30
0.0
 10
179.4607619155929
 20
113.0230554695778
 30
0.0
 10
179.4908610567515
 20
113.0246456890602
 30
0.0
  0
SPLINE
  5
160
330
1F
100
AcDbEntity
  8
0
  6
Continuous
 62
     7
370
     0
100
AcDbSpline
210
0.0
220
0.0
230
1.0
 70
     8
 71
     3
 72
    16
 73
    12
 74
     0
 42
0.00000001
 43
0.00000001
 12
1.0
 22
0.0
 32
0.0
 13
1.0
 23
0.0
 33
0.0
 40
0.0
 40
0.0
 40
0.0
 40
0.0
 40
0.0626827915024324
 40
0.125348329837804
 40
0.2504777186787188
 40
0.4991637604942339
 40
0.6242589209323735
 40
0.7494133056485497
 40
0.8746428196545928
 40
0.9373144782055621
 40
1.0
 40
1.0
 40
1.0
 40
1.0
 10
179.416591576232
 20
111.2471378049871
 30
0.0
 10
179.3884909072408
 20
111.2477669043324
 30
0.0
 10
179.3322973038458
 20
111.2490249298661
 30
0.0
 10
179.2207212152368
 20
111.2628278565829
 30
0.0
 10
179.0308616578292
 20
111.3140052984577
 30
0.0
 10
178.8399227869164
 20
111.445022128407
 30
0.0
 10
178.7066116942934
 20
111.6241223136737
 30
0.0
 10
178.6371982495211
 20
111.7774080495986
 30
0.0
 10
178.6081033966525
 20
111.9141397975453
 30
0.0
 10
178.5963301659463
 20
112.0249279988988
 30
0.0
 10
178.5952815344032
 20
112.0806638434011
 30
0.0
 10
178.5947571606476
 20
112.1085348475642
 30
0.0
  0
SPLINE
  5
161
330
1F
100
AcDbEntity
  8
0
  6
Continuous
 62
     7
370
     0
100
AcDbSpline
210
0.0
220
0.0
230
1.0
 70
     8
 71
     3
 72
    15
 73
    11
 74
     0
 42
0.00000001
 43
0.00000001
 12
1.0
 22
0.0
 32
0.0
 13
1.0
 23
0.0
 33
0.0
 40
0.0
 40
0.0
 40
0.0
 40
0.0
 40
0.1002638719455917
 40
0.2506188090589255
 40
0.3758439836045921
 40
0.5008774064868258
 40
0.7495964227322595
 40
0.8747064182623572
 40
0.93733986761347
 40
1.0
 40
1.0
 40
1.0
 40
1.0
 10
180.2408610567515
 20
112.0475584851967
 30
0.0
 10
180.2292805144135
 20
112.0073466957718
 30
0.0
 10
180.200333879173
 20
111.9068336138389
 30
0.0
 10
180.1487921917733
 20
111.7587447630721
 30
0.0
 10
180.0798023080254
 20
111.6058649194649
 30
0.0
 10
179.9563824708067
 20
111.4363840941548
 30
0.0
 10
179.7781568117992
 20
111.3118057833148
 30
0.0
 10
179.6002372105444
 20
111.2630071420223
 30
0.0
 10
179.4956967586619
 20
111.2487804239685
 30
0.0
 10
179.4429637137905
 20
111.2476854223795
 30
0.0
 10
179.416591576232
 20
111.2471378049871
 30
0.0
  0
SPLINE
  5
162
330
1F
100
AcDbEntity
  8
0
  6
Continuous
 62
     7
370
     0
100
AcDbSpline
210
0.0
220
0.0
230
1.0
 70
     8
 71
     3
 72
    16
 73
    12
 74
     0
 42
0.00000001
 43
0.00000001
 12
1.0
 22
0.0
 32
0.0
 13
1.0
 23
0.0
 33
0.0
 40
0.0
 40
0.0
 40
0.0
 40
0.0
 40
0.0625795252929905
 40
0.1251155320466102
 40
0.2498237836924495
 40
0.3744671792113396
 40
0.4993284528219521
 40
0.6205760330217929
 40
0.7853909342519781
 40
0.8873882837646181
 40
1.0
 40
1.0
 40
1.0
 40
1.0
 10
180.8082311866216
 20
112.7919537042159
 30
0.0
 10
180.7867793845413
 20
112.7912954957746
 30
0.0
 10
180.7438906982165
 20
112.789979536618
 30
0.0
 10
180.6594858348925
 20
112.7743862381763
 30
0.0
 10
180.5593323542331
 20
112.7321783067355
 30
0.0
 10
180.4629343278088
 20
112.6447334601998
 30
0.0
 10
180.3968737972711
 20
112.5354547207123
 30
0.0
 10
180.3476990556754
 20
112.4041868885217
 30
0.0
 10
180.3071662065296
 20
112.2784994243041
 30
0.0
 10
180.2708228466337
 20
112.1546627185356
 30
0.0
 10
180.2511722862512
 20
112.0844179763918
 30
0.0
 10
180.2408610567515
 20
112.0475584851967
 30
0.0
  0
SPLINE
  5
163
330
1F
100
AcDbEntity
  8
0
  6
Continuous
 62
     7
370
     0
100
AcDbSpline
210
0.0
220
0.0
230
1.0
 70
     8
 71
     3
 72
    16
 73
    12
 74
     0
 42
0.00000001
 43
0.00000001
 12
1.0
 22
0.0
 32
0.0
 13
1.0
 23
0.0
 33
0.0
 40
0.0
 40
0.0
 40
0.0
 40
0.0
 40
0.1251298534570248
 40
0.2501927365502785
 40
0.3929614418558055
 40
0.5001165276216101
 40
0.642834621924365
 40
0.749938473727909
 40
0.8748622099567
 40
0.9374171835512065
 40
0.9999999999999999
 40
0.9999999999999999
 40
0.9999999999999999
 40
0.9999999999999999
 10
181.3220298879203
 20
112.1894633426324
 30
0.0
 10
181.3208855878762
 20
112.226559108777
 30
0.0
 10
181.3185976002254
 20
112.3007307871554
 30
0.0
 10
181.2979314590479
 20
112.4158790922615
 30
0.0
 10
181.2594399732154
 20
112.5213169595964
 30
0.0
 10
181.1964595132752
 20
112.6203859759429
 30
0.0
 10
181.1196789884085
 20
112.6958312955119
 30
0.0
 10
181.0231396149721
 20
112.7536183134263
 30
0.0
 10
180.9383579839647
 20
112.7801619565576
 30
0.0
 10
180.8643036255538
 20
112.790617396628
 30
0.0
 10
180.8269247718337
 20
112.7915082022859
 30
0.0
 10
180.8082311866216
 20
112.7919537042159
 30
0.0
  0
SPLINE
  5
164
330
1F
100
AcDbEntity
  8
0
  6
Continuous
 62
     7
370
     0
100
AcDbSpline
210
0.0
220
0.0
230
1.0
 70
     8
 71
     3
 72
    15
 73
    11
 74
     0
 42
0.00000001
 43
0.00000001
 12
1.0
 22
0.0
 32
0.0
 13
1.0
 23
0.0
 33
0.0
 40
0.0
 40
0.0
 40
0.0
 40
0.0
 40
0.1251442851864198
 40
0.2502017963495081
 40
0.3751051540460505
 40
0.500018750140006
 40
0.6249636838007112
 40
0.7499233596452595
 40
0.8749319668218639
 40
1.0
 40
1.0
 40
1.0
 40
1.0
 10
180.6207311866216
 20
111.478019867523
 30
0.0
 10
180.6672387346098
 20
111.4833677467007
 30
0.0
 10
180.7602215826329
 20
111.4940597968805
 30
0.0
 10
180.8962917753624
 20
111.529491466563
 30
0.0
 10
181.0249908083823
 20
111.5873753067206
 30
0.0
 10
181.1332277019251
 20
111.677843517548
 30
0.0
 10
181.218465454736
 20
111.7890430113411
 30
0.0
 10
181.2800844810619
 20
111.9146357782225
 30
0.0
 10
181.3157887311813
 20
112.0502051017192
 30
0.0
 10
181.3199491727904
 20
112.1430365757778
 30
0.0
 10
181.3220298879203
 20
112.1894633426324
 30
0.0
  0
SPLINE
  5
165
330
1F
100
AcDbEntity
  8
0
  6
Continuous
 62
     7
370
     0
100
AcDbSpline
210
0.0
220
0.0
230
1.0
 70
     8
 71
     3
 72
     8
 73
     4
 74
     0
 42
0.00000001
 43
0.00000001
 12
1.0
 22
0.0
 32
0.0
 13
1.0
 23
0.0
 33
0.0
 40
0.0
 40
0.0
 40
0.0
 40
0.0
 40
1.0
 40
1.0
 40
1.0
 40
1.0
 10
180.6596922255827
 20
111.1702531837129
 30
0.0
 10
180.6467052125957
 20
111.272740013233
 30
0.0
 10
180.6337181996086
 20
111.3753314825195
 30
0.0
 10
180.6207311866216
 20
111.478019867523
 30
0.0
  0
SPLINE
  5
166
330
1F
100
AcDbEntity
  8
0
  6
Continuous
 62
     7
370
     0
100
AcDbSpline
210
0.0
220
0.0
230
1.0
 70
     8
 71
     3
 72
    17
 73
    13
 74
     0
 42
0.00000001
 43
0.00000001
 12
1.0
 22
0.0
 32
0.0
 13
1.0
 23
0.0
 33
0.0
 40
0.0
 40
0.0
 40
0.0
 40
0.0
 40
0.0625856100871915
 40
0.1251549030271038
 40
0.2501430453663136
 40
0.3756899044275474
 40
0.4999449646693334
 40
0.6248671745802138
 40
0.7498239565756871
 40
0.8748397203247755
 40
0.9374129209274158
 40
1.0
 40
1.0
 40
1.0
 40
1.0
 10
181.6726792385697
 20
112.1628861833193
 30
0.0
 10
181.6720005546781
 20
112.1296886348649
 30
0.0
 10
181.6706433638396
 20
112.0633021931293
 30
0.0
 10
181.6559040666007
 20
111.9313878923996
 30
0.0
 10
181.6159012187705
 20
111.7693089823429
 30
0.0
 10
181.5274920088064
 20
111.5893869956285
 30
0.0
 10
181.3987685557655
 20
111.4354453029726
 30
0.0
 10
181.2395313769482
 20
111.3130601732681
 30
0.0
 10
181.0558323018914
 20
111.2303415360055
 30
0.0
 10
180.8929343265381
 20
111.1901086506153
 30
0.0
 10
180.7599950146969
 20
111.1744621782181
 30
0.0
 10
180.6931289601144
 20
111.1716562855923
 30
0.0
 10
180.6596922255827
 20
111.1702531837129
 30
0.0
  0
SPLINE
  5
167
330
1F
100
AcDbEntity
  8
0
  6
Continuous
 62
     7
370
     0
100
AcDbSpline
210
0.0
220
0.0
230
1.0
 70
     8
 71
     3
 72
    16
 73
    12
 74
     0
 42
0.00000001
 43
0.00000001
 12
1.0
 22
0.0
 32
0.0
 13
1.0
 23
0.0
 33
0.0
 40
0.0
 40
0.0
 40
0.0
 40
0.0
 40
0.0625855665553854
 40
0.1251419478590803
 40
0.2500971494983084
 40
0.3750709526752736
 40
0.4999880743355287
 40
0.6248991864886239
 40
0.7498369235043443
 40
0.8748857555372312
 40
1.0
 40
1.0
 40
1.0
 40
1.0
 10
180.7990996931152
 20
113.1022542315605
 30
0.0
 10
180.829269848991
 20
113.1013273060946
 30
0.0
 10
180.8895960916267
 20
113.0994738874118
 30
0.0
 10
181.0093489004018
 20
113.0837170042246
 30
0.0
 10
181.1545603277861
 20
113.0392057535801
 30
0.0
 10
181.313591927762
 20
112.951450716348
 30
0.0
 10
181.4522170173308
 20
112.833731792417
 30
0.0
 10
181.558220477261
 20
112.6860279170512
 30
0.0
 10
181.6291206701961
 20
112.5194630098134
 30
0.0
 10
181.6667457400407
 20
112.3425552408795
 30
0.0
 10
181.670701060982
 20
112.2227863081991
 30
0.0
 10
181.6726792385697
 20
112.1628861833193
 30
0.0
  0
SPLINE
  5
168
330
1F
100
AcDbEntity
  8
0
  6
Continuous
 62
     7
370
     0
100
AcDbSpline
210
0.0
220
0.0
230
1.0
 70
     8
 71
     3
 72
    14
 73
    10
 74
     0
 42
0.00000001
 43
0.00000001
 12
1.0
 22
0.0
 32
0.0
 13
1.0
 23
0.0
 33
0.0
 40
0.0
 40
0.0
 40
0.0
 40
0.0
 40
0.0626209035518783
 40
0.125197136984164
 40
0.2501776311320299
 40
0.4995004115477686
 40
0.7494942445745891
 40
0.8747342129769956
 40
1.0
 40
1.0
 40
1.0
 40
1.0
 10
178.6891159268814
 20
107.3152999252155
 30
0.0
 10
178.7017200250834
 20
107.3466867461432
 30
0.0
 10
178.726919230455
 20
107.4094379984616
 30
0.0
 10
178.7990231185162
 20
107.5255371430028
 30
0.0
 10
178.966420812039
 20
107.7011478129609
 30
0.0
 10
179.2798934528348
 20
107.8703696160608
 30
0.0
 10
179.6239673370142
 20
107.9534004770069
 30
0.0
 10
179.9051796087989
 20
107.9820348704079
 30
0.0
 10
180.0465760194112
 20
107.9842812817416
 30
0.0
 10
180.1172815112969
 20
107.9854046031728
 30
0.0
  0
SPLINE
  5
169
330
1F
100
AcDbEntity
  8
0
  6
Continuous
 62
     7
370
     0
100
AcDbSpline
210
0.0
220
0.0
230
1.0
 70
     8
 71
     3
 72
    13
 73
     9
 74
     0
 42
0.00000001
 43
0.00000001
 12
1.0
 22
0.0
 32
0.0
 13
1.0
 23
0.0
 33
0.0
 40
0.0
 40
0.0
 40
0.0
 40
0.0
 40
0.2621623226301575
 40
0.5000242273424722
 40
0.6219901488518266
 40
0.7500545430443156
 40
0.8623234327868307
 40
1.0
 40
1.0
 40
1.0
 40
1.0
 10
178.6337181996086
 20
106.863913157943
 30
0.0
 10
178.6341666494609
 20
106.9036651725581
 30
0.0
 10
178.6350219813355
 20
106.9794844977526
 30
0.0
 10
178.6414524711056
 20
107.0738723668904
 30
0.0
 10
178.6504480468122
 20
107.1476025587
 30
0.0
 10
178.6588256151124
 20
107.2022045726887
 30
0.0
 10
178.671457707344
 20
107.2585913321179
 30
0.0
 10
178.6828440359737
 20
107.2951580242337
 30
0.0
 10
178.6891159268814
 20
107.3152999252155
 30
0.0
  0
LINE
  5
16A
330
1F
100
AcDbEntity
  8
0
  6
Continuous
 62
     7
370
     0
100
AcDbLine
 10
178.6337181996
 20
106.8639131579
 30
0.0
 11
178.6337181996
 21
106.0716459249
 31
0.0
  0
LINE
  5
16B
330
1F
100
AcDbEntity
  8
0
  6
Continuous
 62
     7
370
     0
100
AcDbLine
 10
181.6337181996
 20
106.0716459249
 30
0.0
 11
178.6337181996
 21
106.0716459249
 31
0.0
  0
LINE
  5
16C
330
1F
100
AcDbEntity
  8
0
  6
Continuous
 62
     7
370
     0
100
AcDbLine
 10
181.6337181996
 20
106.9006510339
 30
0.0
 11
181.6337181996
 21
106.0716459249
 31
0.0
  0
SPLINE
  5
16D
330
1F
100
AcDbEntity
  8
0
  6
Continuous
 62
     7
370
     0
100
AcDbSpline
210
0.0
220
0.0
230
1.0
 70
     8
 71
     3
 72
    17
 73
    13
 74
     0
 42
0.00000001
 43
0.00000001
 12
1.0
 22
0.0
 32
0.0
 13
1.0
 23
0.0
 33
0.0
 40
0.0
 40
0.0
 40
0.0
 40
0.0
 40
0.0715357051320338
 40
0.143064735485808
 40
0.2860245204548001
 40
0.4289089802452746
 40
0.5716729696068843
 40
0.6786677761034727
 40
0.7855971142383416
 40
0.8927121774632341
 40
0.9463509865938885
 40
1.0
 40
1.0
 40
1.0
 40
1.0
 10
180.1172815112969
 20
107.9854046031728
 30
0.0
 10
180.1687507580379
 20
107.9847445993082
 30
0.0
 10
180.2716844490814
 20
107.983424653162
 30
0.0
 10
180.4770040556584
 20
107.9691431740858
 30
0.0
 10
180.7315828034664
 20
107.9290660797681
 30
0.0
 10
181.0253640381723
 20
107.8351227560838
 30
0.0
 10
181.2738978735698
 20
107.7023163054739
 30
0.0
 10
181.4626406014743
 20
107.5317207280854
 30
0.0
 10
181.5711015850745
 20
107.333898201635
 30
0.0
 10
181.6158215653449
 20
107.1551537534282
 30
0.0
 10
181.6316097494877
 20
107.0099287387076
 30
0.0
 10
181.6330153383392
 20
106.9370792451041
 30
0.0
 10
181.6337181996086
 20
106.9006510339003
 30
0.0
  0
LINE
  5
16E
330
1F
100
AcDbEntity
  8
0
  6
Continuous
 62
     7
370
     0
100
AcDbLine
 10
177.9337181996
 20
140.7396105675
 30
0.0
 11
177.9337181996
 21
89.9396105675
 31
0.0
  0
SPLINE
  5
16F
330
1F
100
AcDbEntity
  8
0
  6
Continuous
 62
     7
370
     0
100
AcDbSpline
210
0.0
220
0.0
230
1.0
 70
     8
 71
     3
 72
     8
 73
     4
 74
     0
 42
0.00000001
 43
0.00000001
 12
1.0
 22
0.0
 32
0.0
 13
1.0
 23
0.0
 33
0.0
 40
0.0
 40
0.0
 40
0.0
 40
0.0
 40
1.0
 40
1.0
 40
1.0
 40
1.0
 10
181.6337181996086
 20
109.426628594569
 30
0.0
 10
180.7609503424658
 20
109.1951405833563
 30
0.0
 10
179.8881824853229
 20
108.964431531775
 30
0.0
 10
179.0154146281801
 20
108.7345926016177
 30
0.0
  0
LINE
  5
170
330
1F
100
AcDbEntity
  8
0
  6
Continuous
 62
     7
370
     0
100
AcDbLine
 10
181.6337181996
 20
109.7373161989
 30
0.0
 11
181.6337181996
 21
109.4266285946
 31
0.0
  0
SPLINE
  5
171
330
1F
100
AcDbEntity
  8
0
  6
Continuous
 62
     7
370
     0
100
AcDbSpline
210
0.0
220
0.0
230
1.0
 70
     8
 71
     3
 72
     8
 73
     4
 74
     0
 42
0.00000001
 43
0.00000001
 12
1.0
 22
0.0
 32
0.0
 13
1.0
 23
0.0
 33
0.0
 40
0.0
 40
0.0
 40
0.0
 40
0.0
 40
1.0
 40
1.0
 40
1.0
 40
1.0
 10
179.1572571606476
 20
110.4419084450489
 30
0.0
 10
179.9827441736346
 20
110.2063566359355
 30
0.0
 10
180.8082311866216
 20
109.9714610854927
 30
0.0
 10
181.6337181996086
 20
109.7373161988507
 30
0.0
  0
LINE
  5
172
330
1F
100
AcDbEntity
  8
0
  6
Continuous
 62
     7
370
     0
100
AcDbLine
 10
181.6337181996
 20
110.441908445
 30
0.0
 11
179.1572571606
 21
110.441908445
 31
0.0
  0
LINE
  5
173
330
1F
100
AcDbEntity
  8
0
  6
Continuous
 62
     7
370
     0
100
AcDbLine
 10
181.6337181996
 20
110.7481085535
 30
0.0
 11
181.6337181996
 21
110.441908445
 31
0.0
  0
LINE
  5
174
330
1F
100
AcDbEntity
  8
0
  6
Continuous
 62
     7
370
     0
100
AcDbLine
 10
178.6337181996
 20
110.7481085535
 30
0.0
 11
181.6337181996
 21
110.7481085535
 31
0.0
  0
LINE
  5
175
330
1F
100
AcDbEntity
  8
0
  6
Continuous
 62
     7
370
     0
100
AcDbLine
 10
178.6337181996
 20
110.7481085535
 30
0.0
 11
178.6337181996
 21
110.3147389999
 31
0.0
  0
SPLINE
  5
176
330
1F
100
AcDbEntity
  8
0
  6
Continuous
 62
     7
370
     0
100
AcDbSpline
210
0.0
220
0.0
230
1.0
 70
     8
 71
     3
 72
     8
 73
     4
 74
     0
 42
0.00000001
 43
0.00000001
 12
1.0
 22
0.0
 32
0.0
 13
1.0
 23
0.0
 33
0.0
 40
0.0
 40
0.0
 40
0.0
 40
0.0
 40
1.0
 40
1.0
 40
1.0
 40
1.0
 10
180.7211776151931
 20
109.7171297446318
 30
0.0
 10
180.0253578099982
 20
109.9158094313701
 30
0.0
 10
179.3295380048035
 20
110.1150317407378
 30
0.0
 10
178.6337181996086
 20
110.314738999892
 30
0.0
  0
SPLINE
  5
177
330
1F
100
AcDbEntity
  8
0
  6
Continuous
 62
     7
370
     0
100
AcDbSpline
210
0.0
220
0.0
230
1.0
 70
     8
 71
     3
 72
    12
 73
     8
 74
     0
 42
0.00000001
 43
0.00000001
 12
1.0
 22
0.0
 32
0.0
 13
1.0
 23
0.0
 33
0.0
 40
0.0
 40
0.0
 40
0.0
 40
0.0
 40
0.2499936386573762
 40
0.4999942819844594
 40
0.6249956604535664
 40
0.749997103868654
 40
1.0
 40
1.0
 40
1.0
 40
1.0
 10
181.2021029398684
 20
109.5848235177244
 30
0.0
 10
181.1619521495629
 20
109.595583176453
 30
0.0
 10
181.0816494439512
 20
109.6171027953891
 30
0.0
 10
180.9812299509256
 20
109.6438849151209
 30
0.0
 10
180.9012797583947
 20
109.6666407984814
 30
0.0
 10
180.8212993915087
 20
109.6892958741465
 30
0.0
 10
180.7612263260173
 20
109.7059961963548
 30
0.0
 10
180.7211776151931
 20
109.7171297446318
 30
0.0
  0
SPLINE
  5
178
330
1F
100
AcDbEntity
  8
0
  6
Continuous
 62
     7
370
     0
100
AcDbSpline
210
0.0
220
0.0
230
1.0
 70
     8
 71
     3
 72
     8
 73
     4
 74
     0
 42
0.00000001
 43
0.00000001
 12
1.0
 22
0.0
 32
0.0
 13
1.0
 23
0.0
 33
0.0
 40
0.0
 40
0.0
 40
0.0
 40
0.0
 40
1.0
 40
1.0
 40
1.0
 40
1.0
 10
180.757703589219
 20
109.4710411947045
 30
0.0
 10
180.9058367061021
 20
109.5089480577653
 30
0.0
 10
181.0539698229852
 20
109.5468756326281
 30
0.0
 10
181.2021029398684
 20
109.5848235177244
 30
0.0
  0
SPLINE
  5
179
330
1F
100
AcDbEntity
  8
0
  6
Continuous
 62
     7
370
     0
100
AcDbSpline
210
0.0
220
0.0
230
1.0
 70
     8
 71
     3
 72
     8
 73
     4
 74
     0
 42
0.00000001
 43
0.00000001
 12
1.0
 22
0.0
 32
0.0
 13
1.0
 23
0.0
 33
0.0
 40
0.0
 40
0.0
 40
0.0
 40
0.0
 40
1.0
 40
1.0
 40
1.0
 40
1.0
 10
178.6337181996086
 20
108.9046306340946
 30
0.0
 10
179.3417133294788
 20
109.0928841668516
 30
0.0
 10
180.0497084593489
 20
109.2817043109792
 30
0.0
 10
180.757703589219
 20
109.4710411947045
 30
0.0
  0
LINE
  5
17A
330
1F
100
AcDbEntity
  8
0
  6
Continuous
 62
     7
370
     0
100
AcDbLine
 10
178.6337181996
 20
108.9046306341
 30
0.0
 11
178.6337181996
 21
108.4341318921
 31
0.0
  0
LINE
  5
17B
330
1F
100
AcDbEntity
  8
0
  6
Continuous
 62
     7
370
     0
100
AcDbLine
 10
181.6337181996
 20
108.4341318921
 30
0.0
 11
178.6337181996
 21
108.4341318921
 31
0.0
  0
LINE
  5
17C
330
1F
100
AcDbEntity
  8
0
  6
Continuous
 62
     7
370
     0
100
AcDbLine
 10
181.6337181996
 20
108.7345926016
 30
0.0
 11
181.6337181996
 21
108.4341318921
 31
0.0
  0
LINE
  5
17D
330
1F
100
AcDbEntity
  8
0
  6
Continuous
 62
     7
370
     0
100
AcDbLine
 10
179.0154146282
 20
108.7345926016
 30
0.0
 11
181.6337181996
 21
108.7345926016
 31
0.0
  0
LINE
  5
17E
330
1F
100
AcDbEntity
  8
0
  6
Continuous
 62
     7
370
     0
100
AcDbLine
 10
180.4259259918
 20
114.4728957326
 30
0.0
 11
180.4259259918
 21
113.8404822922
 31
0.0
  0
SPLINE
  5
17F
330
1F
100
AcDbEntity
  8
0
  6
Continuous
 62
     7
370
     0
100
AcDbSpline
210
0.0
220
0.0
230
1.0
 70
     8
 71
     3
 72
    17
 73
    13
 74
     0
 42
0.00000001
 43
0.00000001
 12
1.0
 22
0.0
 32
0.0
 13
1.0
 23
0.0
 33
0.0
 40
0.0
 40
0.0
 40
0.0
 40
0.0
 40
0.0625867507144296
 40
0.125160787773535
 40
0.2502054915254991
 40
0.3751630122568049
 40
0.4405101568604299
 40
0.5002773891343174
 40
0.6183058012617236
 40
0.7498302131144273
 40
0.8748618907254895
 40
1.0
 40
1.0
 40
1.0
 40
1.0
 10
179.5030363814268
 20
115.3980520743922
 30
0.0
 10
179.5342852276549
 20
115.3975871619629
 30
0.0
 10
179.5967765723288
 20
115.3966574315449
 30
0.0
 10
179.721179137743
 20
115.3844622202727
 30
0.0
 10
179.8746005061955
 20
115.3521919871409
 30
0.0
 10
180.0206607442364
 20
115.2904037619042
 30
0.0
 10
180.1267797706754
 20
115.224298266439
 30
0.0
 10
180.2221764558118
 20
115.1486987103811
 30
0.0
 10
180.3181402867673
 20
115.0243831433307
 30
0.0
 10
180.3870150975805
 20
114.8486073765476
 30
0.0
 10
180.4210351757163
 20
114.660252702937
 30
0.0
 10
180.4242952574625
 20
114.5353657666025
 30
0.0
 10
180.4259259918164
 20
114.4728957326287
 30
0.0
  0
SPLINE
  5
180
330
1F
100
AcDbEntity
  8
0
  6
Continuous
 62
     7
370
     0
100
AcDbSpline
210
0.0
220
0.0
230
1.0
 70
     8
 71
     3
 72
    16
 73
    12
 74
     0
 42
0.00000001
 43
0.00000001
 12
1.0
 22
0.0
 32
0.0
 13
1.0
 23
0.0
 33
0.0
 40
0.0
 40
0.0
 40
0.0
 40
0.0
 40
0.0625716166060426
 40
0.12513334428345
 40
0.2500890908637045
 40
0.3712225297599292
 40
0.5001650323831495
 40
0.7497016235417528
 40
0.8498037792774732
 40
0.924898529623531
 40
1.0
 40
1.0
 40
1.0
 40
1.0
 10
178.6915509918164
 20
114.9329720956381
 30
0.0
 10
178.6991229860539
 20
114.9523596375368
 30
0.0
 10
178.7142657778374
 20
114.9911316572929
 30
0.0
 10
178.7551449817047
 20
115.0636844450036
 30
0.0
 10
178.817075304646
 20
115.1462980047201
 30
0.0
 10
178.9114766948562
 20
115.2287270338293
 30
0.0
 10
179.052399734213
 20
115.3175477551834
 30
0.0
 10
179.2056496146615
 20
115.3690528485083
 30
0.0
 10
179.345228829257
 20
115.3899556871999
 30
0.0
 10
179.4281588747762
 20
115.3972495512681
 30
0.0
 10
179.4780764680777
 20
115.3977845587051
 30
0.0
 10
179.5030363814268
 20
115.3980520743922
 30
0.0
  0
SPLINE
  5
181
330
1F
100
AcDbEntity
  8
0
  6
Continuous
 62
     7
370
     0
100
AcDbSpline
210
0.0
220
0.0
230
1.0
 70
     8
 71
     3
 72
    13
 73
     9
 74
     0
 42
0.00000001
 43
0.00000001
 12
1.0
 22
0.0
 32
0.0
 13
1.0
 23
0.0
 33
0.0
 40
0.0
 40
0.0
 40
0.0
 40
0.0
 40
0.271616176090155
 40
0.5000373570164097
 40
0.634227148976322
 40
0.7500701523405121
 40
0.8670131673723206
 40
0.9999999999999999
 40
0.9999999999999999
 40
0.9999999999999999
 40
0.9999999999999999
 10
178.6337181996086
 20
114.4522100241739
 30
0.0
 10
178.6340627831599
 20
114.4962421527985
 30
0.0
 10
178.6346971512991
 20
114.5773040009482
 30
0.0
 10
178.6415274908434
 20
114.6799792499123
 30
0.0
 10
178.6506233089703
 20
114.7570291523623
 30
0.0
 10
178.6594487027587
 20
114.8158975731607
 30
0.0
 10
178.6725778247995
 20
114.8738217142973
 30
0.0
 10
178.6849616173745
 20
114.9124291883473
 30
0.0
 10
178.6915509918164
 20
114.9329720956381
 30
0.0
  0
LINE
  5
182
330
1F
100
AcDbEntity
  8
0
  6
Continuous
 62
     7
370
     0
100
AcDbLine
 10
178.6337181996
 20
114.4522100242
 30
0.0
 11
178.6337181996
 21
113.5294580085
 31
0.0
  0
LINE
  5
183
330
1F
100
AcDbEntity
  8
0
  6
Continuous
 62
     7
370
     0
100
AcDbLine
 10
181.6337181996
 20
113.5294580085
 30
0.0
 11
178.6337181996
 21
113.5294580085
 31
0.0
  0
LINE
  5
184
330
1F
100
AcDbEntity
  8
0
  6
Continuous
 62
     7
370
     0
100
AcDbLine
 10
181.6337181996
 20
113.8404822922
 30
0.0
 11
181.6337181996
 21
113.5294580085
 31
0.0
  0
LINE
  5
185
330
1F
100
AcDbEntity
  8
0
  6
Continuous
 62
     7
370
     0
100
AcDbLine
 10
180.4259259918
 20
113.8404822922
 30
0.0
 11
181.6337181996
 21
113.8404822922
 31
0.0
  0
SPLINE
  5
186
330
1F
100
AcDbEntity
  8
0
  6
Continuous
 62
     7
370
     0
100
AcDbSpline
210
0.0
220
0.0
230
1.0
 70
     8
 71
     3
 72
    16
 73
    12
 74
     0
 42
0.00000001
 43
0.00000001
 12
1.0
 22
0.0
 32
0.0
 13
1.0
 23
0.0
 33
0.0
 40
0.0
 40
0.0
 40
0.0
 40
0.0
 40
0.0625647985474546
 40
0.1251035349199471
 40
0.2498538211251796
 40
0.3714414588532187
 40
0.4997975618920236
 40
0.6202135167757724
 40
0.7497910752833171
 40
0.8748595856834983
 40
1.0
 40
1.0
 40
1.0
 40
1.0
 10
179.6467052125957
 20
118.476467897178
 30
0.0
 10
179.6478141192443
 20
118.5043599360003
 30
0.0
 10
179.6500314706121
 20
118.5601323948558
 30
0.0
 10
179.6728699042922
 20
118.6695615080602
 30
0.0
 10
179.7304041612995
 20
118.7966855009184
 30
0.0
 10
179.8359774100486
 20
118.9280548803599
 30
0.0
 10
179.9644323421317
 20
119.0343280349251
 30
0.0
 10
180.1141468646748
 20
119.1157578499667
 30
0.0
 10
180.2748095153566
 20
119.1683095448839
 30
0.0
 10
180.4435717445293
 20
119.1967543885974
 30
0.0
 10
180.5559854527602
 20
119.1997186905808
 30
0.0
 10
180.6122084593489
 20
119.2012012675063
 30
0.0
  0
SPLINE
  5
187
330
1F
100
AcDbEntity
  8
0
  6
Continuous
 62
     7
370
     0
100
AcDbSpline
210
0.0
220
0.0
230
1.0
 70
     8
 71
     3
 72
    11
 73
     7
 74
     0
 42
0.00000001
 43
0.00000001
 12
1.0
 22
0.0
 32
0.0
 13
1.0
 23
0.0
 33
0.0
 40
0.0
 40
0.0
 40
0.0
 40
0.0
 40
0.25007719413065
 40
0.5000175858752957
 40
0.7499382381823037
 40
0.9999999999999999
 40
0.9999999999999999
 40
0.9999999999999999
 40
0.9999999999999999
 10
179.7641970957125
 20
118.035012917929
 30
0.0
 10
179.7465384147658
 20
118.069322601851
 30
0.0
 10
179.7112307128884
 20
118.137923200904
 30
0.0
 10
179.6739878687184
 20
118.2476179785095
 30
0.0
 10
179.650883500587
 20
118.3611178612846
 30
0.0
 10
179.6480982372867
 20
118.4380106514231
 30
0.0
 10
179.6467052125957
 20
118.476467897178
 30
0.0
  0
SPLINE
  5
188
330
1F
100
AcDbEntity
  8
0
  6
Continuous
 62
     7
370
     0
100
AcDbSpline
210
0.0
220
0.0
230
1.0
 70
     8
 71
     3
 72
     8
 73
     4
 74
     0
 42
0.00000001
 43
0.00000001
 12
1.0
 22
0.0
 32
0.0
 13
1.0
 23
0.0
 33
0.0
 40
0.0
 40
0.0
 40
0.0
 40
0.0
 40
1.0
 40
1.0
 40
1.0
 40
1.0
 10
179.023328589219
 20
118.1469718926352
 30
0.0
 10
179.2702847580502
 20
118.1096613107844
 30
0.0
 10
179.5172409268814
 20
118.0723415302667
 30
0.0
 10
179.7641970957125
 20
118.035012917929
 30
0.0
  0
LINE
  5
189
330
1F
100
AcDbEntity
  8
0
  6
Continuous
 62
     7
370
     0
100
AcDbLine
 10
179.0233285892
 20
119.0856363564
 30
0.0
 11
179.0233285892
 21
118.1469718926
 31
0.0
  0
LINE
  5
18A
330
1F
100
AcDbEntity
  8
0
  6
Continuous
 62
     7
370
     0
100
AcDbLine
 10
178.6726792386
 20
119.0856363564
 30
0.0
 11
179.0233285892
 21
119.0856363564
 31
0.0
  0
LINE
  5
18B
330
1F
100
AcDbEntity
  8
0
  6
Continuous
 62
     7
370
     0
100
AcDbLine
 10
178.6726792386
 20
119.0856363564
 30
0.0
 11
178.6726792386
 21
117.8872674308
 31
0.0
  0
SPLINE
  5
18C
330
1F
100
AcDbEntity
  8
0
  6
Continuous
 62
     7
370
     0
100
AcDbSpline
210
0.0
220
0.0
230
1.0
 70
     8
 71
     3
 72
     8
 73
     4
 74
     0
 42
0.00000001
 43
0.00000001
 12
1.0
 22
0.0
 32
0.0
 13
1.0
 23
0.0
 33
0.0
 40
0.0
 40
0.0
 40
0.0
 40
0.0
 40
1.0
 40
1.0
 40
1.0
 40
1.0
 10
180.2098139788294
 20
117.6545754459691
 30
0.0
 10
179.6974357320762
 20
117.7321732166803
 30
0.0
 10
179.1850574853229
 20
117.809738306607
 30
0.0
 10
178.6726792385697
 20
117.8872674308134
 30
0.0
  0
SPLINE
  5
18D
330
1F
100
AcDbEntity
  8
0
  6
Continuous
 62
     7
370
     0
100
AcDbSpline
210
0.0
220
0.0
230
1.0
 70
     8
 71
     3
 72
     8
 73
     4
 74
     0
 42
0.00000001
 43
0.00000001
 12
1.0
 22
0.0
 32
0.0
 13
1.0
 23
0.0
 33
0.0
 40
0.0
 40
0.0
 40
0.0
 40
0.0
 40
1.0
 40
1.0
 40
1.0
 40
1.0
 10
180.2542539138944
 20
117.9647844449279
 30
0.0
 10
180.239440602206
 20
117.8614447350184
 30
0.0
 10
180.2246272905177
 20
117.7580391402506
 30
0.0
 10
180.2098139788294
 20
117.6545754459691
 30
0.0
  0
SPLINE
  5
18E
330
1F
100
AcDbEntity
  8
0
  6
Continuous
 62
     7
370
     0
100
AcDbSpline
210
0.0
220
0.0
230
1.0
 70
     8
 71
     3
 72
    13
 73
     9
 74
     0
 42
0.00000001
 43
0.00000001
 12
1.0
 22
0.0
 32
0.0
 13
1.0
 23
0.0
 33
0.0
 40
0.0
 40
0.0
 40
0.0
 40
0.0
 40
0.1251847097081998
 40
0.2502624997043266
 40
0.4999265329858808
 40
0.749617051330163
 40
0.8747749619545568
 40
1.0
 40
1.0
 40
1.0
 40
1.0
 10
179.9583935242839
 20
118.3900624855886
 30
0.0
 10
179.9594123467153
 20
118.3673230708358
 30
0.0
 10
179.9614491214062
 20
118.3218636629646
 30
0.0
 10
179.9845074005717
 20
118.2334932458597
 30
0.0
 10
180.0384598515578
 20
118.1316967817282
 30
0.0
 10
180.1185186480234
 20
118.0489287534804
 30
0.0
 10
180.1933343412985
 20
117.9963452721018
 30
0.0
 10
180.2339437605807
 20
117.9753066008015
 30
0.0
 10
180.2542539138944
 20
117.9647844449279
 30
0.0
  0
SPLINE
  5
18F
330
1F
100
AcDbEntity
  8
0
  6
Continuous
 62
     7
370
     0
100
AcDbSpline
210
0.0
220
0.0
230
1.0
 70
     8
 71
     3
 72
    15
 73
    11
 74
     0
 42
0.00000001
 43
0.00000001
 12
1.0
 22
0.0
 32
0.0
 13
1.0
 23
0.0
 33
0.0
 40
0.0
 40
0.0
 40
0.0
 40
0.0
 40
0.1253495801705155
 40
0.2506599194264291
 40
0.3759066795964706
 40
0.5010417308309477
 40
0.7496862051623795
 40
0.8746835149766059
 40
0.9373192359432152
 40
1.0
 40
1.0
 40
1.0
 40
1.0
 10
180.6292539138943
 20
118.8928531042209
 30
0.0
 10
180.5899430640476
 20
118.8917872955719
 30
0.0
 10
180.5113336706873
 20
118.8896560119271
 30
0.0
 10
180.3943019099271
 20
118.8727363986361
 30
0.0
 10
180.2811888855525
 20
118.8381982833966
 30
0.0
 10
180.1408828831214
 20
118.7683816805567
 30
0.0
 10
180.0258637968819
 20
118.6530037829202
 30
0.0
 10
179.974405591932
 20
118.5255441206077
 30
0.0
 10
179.9606041092197
 20
118.4485950686412
 30
0.0
 10
179.9591305624772
 20
118.4095780212994
 30
0.0
 10
179.9583935242839
 20
118.3900624855886
 30
0.0
  0
SPLINE
  5
190
330
1F
100
AcDbEntity
  8
0
  6
Continuous
 62
     7
370
     0
100
AcDbSpline
210
0.0
220
0.0
230
1.0
 70
     8
 71
     3
 72
    16
 73
    12
 74
     0
 42
0.00000001
 43
0.00000001
 12
1.0
 22
0.0
 32
0.0
 13
1.0
 23
0.0
 33
0.0
 40
0.0
 40
0.0
 40
0.0
 40
0.0
 40
0.0625568803557666
 40
0.1250886456959759
 40
0.249823695431126
 40
0.3746883977337562
 40
0.4996668591645583
 40
0.6247035305831735
 40
0.7497357800776749
 40
0.8748599883283996
 40
1.0
 40
1.0
 40
1.0
 40
1.0
 10
181.3609909268814
 20
118.38220565613
 30
0.0
 10
181.3601839288328
 20
118.4028019133682
 30
0.0
 10
181.358570256725
 20
118.443986158965
 30
0.0
 10
181.3399445365133
 20
118.5244614009542
 30
0.0
 10
181.2932856647973
 20
118.6178672076328
 30
0.0
 10
181.2092940946301
 20
118.709722119195
 30
0.0
 10
181.1101841511217
 20
118.7852157608138
 30
0.0
 10
180.9967638131733
 20
118.8373910876967
 30
0.0
 10
180.877121161523
 20
118.8720584151701
 30
0.0
 10
180.7536390982776
 20
118.8896446649646
 30
0.0
 10
180.6707173874397
 20
118.8917835794468
 30
0.0
 10
180.6292539138943
 20
118.8928531042209
 30
0.0
  0
SPLINE
  5
191
330
1F
100
AcDbEntity
  8
0
  6
Continuous
 62
     7
370
     0
100
AcDbSpline
210
0.0
220
0.0
230
1.0
 70
     8
 71
     3
 72
    16
 73
    12
 74
     0
 42
0.00000001
 43
0.00000001
 12
1.0
 22
0.0
 32
0.0
 13
1.0
 23
0.0
 33
0.0
 40
0.0
 40
0.0
 40
0.0
 40
0.0
 40
0.1379233981904997
 40
0.2502472527041127
 40
0.381870138874025
 40
0.5003541146048891
 40
0.6430936768241717
 40
0.7502097280840497
 40
0.8749103985108834
 40
0.9374462236058205
 40
1.0
 40
1.0
 40
1.0
 40
1.0
 10
180.7765753424658
 20
117.926028980593
 30
0.0
 10
180.8136771386781
 20
117.9313959305526
 30
0.0
 10
180.8809943792213
 20
117.9411336871654
 30
0.0
 10
180.9821261259081
 20
117.9649670866587
 30
0.0
 10
181.0749907577554
 20
117.9983896955223
 30
0.0
 10
181.1699827349663
 20
118.0477269945014
 30
0.0
 10
181.2478175131064
 20
118.1119783987373
 30
0.0
 10
181.3107989675494
 20
118.1921219322367
 30
0.0
 10
181.3448127923636
 20
118.2652780572408
 30
0.0
 10
181.3588065253809
 20
118.3315593925309
 30
0.0
 10
181.3602627233894
 20
118.3653219532031
 30
0.0
 10
181.3609909268814
 20
118.38220565613
 30
0.0
  0
SPLINE
  5
192
330
1F
100
AcDbEntity
  8
0
  6
Continuous
 62
     7
370
     0
100
AcDbSpline
210
0.0
220
0.0
230
1.0
 70
     8
 71
     3
 72
     8
 73
     4
 74
     0
 42
0.00000001
 43
0.00000001
 12
1.0
 22
0.0
 32
0.0
 13
1.0
 23
0.0
 33
0.0
 40
0.0
 40
0.0
 40
0.0
 40
0.0
 40
1.0
 40
1.0
 40
1.0
 40
1.0
 10
180.8155363814268
 20
117.61577385245
 30
0.0
 10
180.8025493684398
 20
117.7192519496952
 30
0.0
 10
180.7895623554528
 20
117.8226729212436
 30
0.0
 10
180.7765753424658
 20
117.926028980593
 30
0.0
  0
SPLINE
  5
193
330
1F
100
AcDbEntity
  8
0
  6
Continuous
 62
     7
370
     0
100
AcDbSpline
210
0.0
220
0.0
230
1.0
 70
     8
 71
     3
 72
    15
 73
    11
 74
     0
 42
0.00000001
 43
0.00000001
 12
1.0
 22
0.0
 32
0.0
 13
1.0
 23
0.0
 33
0.0
 40
0.0
 40
0.0
 40
0.0
 40
0.0
 40
0.062660151010694
 40
0.1252967808132987
 40
0.2503298908547028
 40
0.4991311649554993
 40
0.6215999564255469
 40
0.7494646694161372
 40
0.8747197951606068
 40
1.0
 40
1.0
 40
1.0
 40
1.0
 10
181.6726792385697
 20
118.3852275486106
 30
0.0
 10
181.671895733648
 20
118.3587023858867
 30
0.0
 10
181.6703290179148
 20
118.3056620173868
 30
0.0
 10
181.6544565591445
 20
118.2005869430287
 30
0.0
 10
181.5949479401296
 20
118.0236790608852
 30
0.0
 10
181.4570978345524
 20
117.8537732788351
 30
0.0
 10
181.2802625635529
 20
117.7343982663759
 30
0.0
 10
181.1318134979816
 20
117.6723791755642
 30
0.0
 10
180.9750682574099
 20
117.6320621846963
 30
0.0
 10
180.8687172220727
 20
117.6212036588523
 30
0.0
 10
180.8155363814268
 20
117.61577385245
 30
0.0
  0
SPLINE
  5
194
330
1F
100
AcDbEntity
  8
0
  6
Continuous
 62
     7
370
     0
100
AcDbSpline
210
0.0
220
0.0
230
1.0
 70
     8
 71
     3
 72
    16
 73
    12
 74
     0
 42
0.00000001
 43
0.00000001
 12
1.0
 22
0.0
 32
0.0
 13
1.0
 23
0.0
 33
0.0
 40
0.0
 40
0.0
 40
0.0
 40
0.0
 40
0.0626482196101817
 40
0.1252863497981891
 40
0.2504883340935483
 40
0.4999565017260363
 40
0.6664476492180208
 40
0.749874313015432
 40
0.8747603764964852
 40
0.9373645182863886
 40
1.0
 40
1.0
 40
1.0
 40
1.0
 10
180.6122084593489
 20
119.2012012675063
 30
0.0
 10
180.643446363226
 20
119.2005808057646
 30
0.0
 10
180.7059171401524
 20
119.1993399822059
 30
0.0
 10
180.8304721249965
 20
119.1888391291373
 30
0.0
 10
181.045260943742
 20
119.1483806669944
 30
0.0
 10
181.2970441109551
 20
119.0401332752268
 30
0.0
 10
181.4909471761372
 20
118.8797511942732
 30
0.0
 10
181.5985760369607
 20
118.7271137104533
 30
0.0
 10
181.648178087291
 20
118.6005019648808
 30
0.0
 10
181.6698982117903
 20
118.4782874100555
 30
0.0
 10
181.6717520750065
 20
118.4162526769429
 30
0.0
 10
181.6726792385697
 20
118.3852275486106
 30
0.0
  0
SPLINE
  5
195
330
1F
100
AcDbEntity
  8
0
  6
Continuous
 62
     7
370
     0
100
AcDbSpline
210
0.0
220
0.0
230
1.0
 70
     8
 71
     3
 72
    14
 73
    10
 74
     0
 42
0.00000001
 43
0.00000001
 12
1.0
 22
0.0
 32
0.0
 13
1.0
 23
0.0
 33
0.0
 40
0.0
 40
0.0
 40
0.0
 40
0.0
 40
0.1249642785198695
 40
0.2499282715641172
 40
0.3720998993726617
 40
0.4999250557765333
 40
0.6246427517131092
 40
0.7499738496850274
 40
1.0
 40
1.0
 40
1.0
 40
1.0
 10
178.911315602206
 20
122.6833274082601
 30
0.0
 10
178.9570272152205
 20
122.7084210571484
 30
0.0
 10
179.0484503368233
 20
122.7586082975995
 30
0.0
 10
179.1965175098779
 20
122.8092144490014
 30
0.0
 10
179.3488163550971
 20
122.8489720212122
 30
0.0
 10
179.50404399032
 20
122.8766461111177
 30
0.0
 10
179.6618180234954
 20
122.896104275893
 30
0.0
 10
179.8715760751867
 20
122.9141260555178
 30
0.0
 10
180.0296454392613
 20
122.9160042344673
 30
0.0
 10
180.1349357320762
 20
122.9172552929043
 30
0.0
  0
SPLINE
  5
196
330
1F
100
AcDbEntity
  8
0
  6
Continuous
 62
     7
370
     0
100
AcDbSpline
210
0.0
220
0.0
230
1.0
 70
     8
 71
     3
 72
    13
 73
     9
 74
     0
 42
0.00000001
 43
0.00000001
 12
1.0
 22
0.0
 32
0.0
 13
1.0
 23
0.0
 33
0.0
 40
0.0
 40
0.0
 40
0.0
 40
0.0
 40
0.1251948774509709
 40
0.2503112808433142
 40
0.499907482430517
 40
0.7496464708871742
 40
0.8747928721822885
 40
1.0
 40
1.0
 40
1.0
 40
1.0
 10
178.5947571606476
 20
122.153064231507
 30
0.0
 10
178.5956438571158
 20
122.1798423122463
 30
0.0
 10
178.5974166942573
 20
122.2333816888156
 30
0.0
 10
178.6169203876275
 20
122.3388341613952
 30
0.0
 10
178.6702623556886
 20
122.4638544864093
 30
0.0
 10
178.7579527239157
 20
122.5689843758172
 30
0.0
 10
178.8423372699156
 20
122.6384179394529
 30
0.0
 10
178.8883191069439
 20
122.6683551647692
 30
0.0
 10
178.911315602206
 20
122.6833274082601
 30
0.0
  0
SPLINE
  5
197
330
1F
100
AcDbEntity
  8
0
  6
Continuous
 62
     7
370
     0
100
AcDbSpline
210
0.0
220
0.0
230
1.0
 70
     8
 71
     3
 72
    16
 73
    12
 74
     0
 42
0.00000001
 43
0.00000001
 12
1.0
 22
0.0
 32
0.0
 13
1.0
 23
0.0
 33
0.0
 40
0.0
 40
0.0
 40
0.0
 40
0.0
 40
0.1251729595270009
 40
0.2503372774081007
 40
0.5002449954420188
 40
0.635220601592611
 40
0.7500261309019706
 40
0.8134102944308368
 40
0.8749697478553772
 40
0.9374576207513534
 40
1.0
 40
1.0
 40
1.0
 40
1.0
 10
180.1349357320762
 20
121.3786196656785
 30
0.0
 10
180.0543578255815
 20
121.3794775430255
 30
0.0
 10
179.8932075755006
 20
121.3811932384937
 30
0.0
 10
179.5723845342279
 20
121.4062396396931
 30
0.0
 10
179.2464608759681
 20
121.4622067861443
 30
0.0
 10
178.9482984666159
 20
121.5841079035757
 30
0.0
 10
178.7839840390855
 20
121.7018161959856
 30
0.0
 10
178.6868775704998
 20
121.8191298517397
 30
0.0
 10
178.6322156201674
 20
121.9238299157121
 30
0.0
 10
178.59981407268
 20
122.0365468230043
 30
0.0
 10
178.5964432878177
 20
122.1142138091532
 30
0.0
 10
178.5947571606476
 20
122.153064231507
 30
0.0
  0
SPLINE
  5
198
330
1F
100
AcDbEntity
  8
0
  6
Continuous
 62
     7
370
     0
100
AcDbSpline
210
0.0
220
0.0
230
1.0
 70
     8
 71
     3
 72
    18
 73
    14
 74
     0
 42
0.00000001
 43
0.00000001
 12
1.0
 22
0.0
 32
0.0
 13
1.0
 23
0.0
 33
0.0
 40
0.0
 40
0.0
 40
0.0
 40
0.0
 40
0.0624950322413511
 40
0.1249340560767785
 40
0.1865917156241193
 40
0.2498536395941549
 40
0.312065485239129
 40
0.3748805468663127
 40
0.4997120087598077
 40
0.6247329320279962
 40
0.7498001999826316
 40
0.8748958867714897
 40
0.9999999999999999
 40
0.9999999999999999
 40
0.9999999999999999
 40
0.9999999999999999
 10
181.6726792385697
 20
122.1495454299411
 30
0.0
 10
181.6708205787829
 20
122.110775272002
 30
0.0
 10
181.6671049249508
 20
122.0332697021614
 30
0.0
 10
181.6318242589472
 20
121.9214746777767
 30
0.0
 10
181.575447271952
 20
121.8180289330987
 30
0.0
 10
181.4993087750568
 20
121.7271730056512
 30
0.0
 10
181.4094734349874
 20
121.6482935447013
 30
0.0
 10
181.2774217776285
 20
121.5590552642953
 30
0.0
 10
181.0905826689936
 20
121.4824352267662
 30
0.0
 10
180.8556187463655
 20
121.4293295527019
 30
0.0
 10
180.6167150879904
 20
121.3967827626874
 30
0.0
 10
180.3760068734054
 20
121.3814675417502
 30
0.0
 10
180.2152945833872
 20
121.3795689790162
 30
0.0
 10
180.1349357320762
 20
121.3786196656785
 30
0.0
  0
SPLINE
  5
199
330
1F
100
AcDbEntity
  8
0
  6
Continuous
 62
     7
370
     0
100
AcDbSpline
210
0.0
220
0.0
230
1.0
 70
     8
 71
     3
 72
    16
 73
    12
 74
     0
 42
0.00000001
 43
0.00000001
 12
1.0
 22
0.0
 32
0.0
 13
1.0
 23
0.0
 33
0.0
 40
0.0
 40
0.0
 40
0.0
 40
0.0
 40
0.125168179578397
 40
0.2503286224456129
 40
0.5002403576318452
 40
0.633807133455111
 40
0.7500155071378305
 40
0.8124974968691507
 40
0.874967384467361
 40
0.9374604080776929
 40
1.0
 40
1.0
 40
1.0
 40
1.0
 10
180.1349357320762
 20
122.9172552929043
 30
0.0
 10
180.2154240805193
 20
122.9163844259032
 30
0.0
 10
180.3763958023782
 20
122.91464274573
 30
0.0
 10
180.6968816443817
 20
122.8899716866435
 30
0.0
 10
181.02140164323
 20
122.8343326872735
 30
0.0
 10
181.3193551086775
 20
122.7150113822264
 30
0.0
 10
181.4836562638569
 20
122.5996278528957
 30
0.0
 10
181.5807952334501
 20
122.4825023948862
 30
0.0
 10
181.635707972255
 20
122.3786850643493
 30
0.0
 10
181.6676044443287
 20
122.2658275154173
 30
0.0
 10
181.6709872205185
 20
122.188315748168
 30
0.0
 10
181.6726792385697
 20
122.1495454299411
 30
0.0
  0
LINE
  5
19A
330
1F
100
AcDbEntity
  8
0
  6
Continuous
 62
     7
370
     0
100
AcDbLine
 10
178.6337181996
 20
125.6613540029
 30
0.0
 11
180.5355712159
 21
125.6613540029
 31
0.0
  0
LINE
  5
19B
330
1F
100
AcDbEntity
  8
0
  6
Continuous
 62
     7
370
     0
100
AcDbLine
 10
180.5355712159
 20
125.6613540029
 30
0.0
 11
180.5355712159
 21
125.3435426889
 31
0.0
  0
SPLINE
  5
19C
330
1F
100
AcDbEntity
  8
0
  6
Continuous
 62
     7
370
     0
100
AcDbSpline
210
0.0
220
0.0
230
1.0
 70
     8
 71
     3
 72
     8
 73
     4
 74
     0
 42
0.00000001
 43
0.00000001
 12
1.0
 22
0.0
 32
0.0
 13
1.0
 23
0.0
 33
0.0
 40
0.0
 40
0.0
 40
0.0
 40
0.0
 40
1.0
 40
1.0
 40
1.0
 40
1.0
 10
180.5355712158755
 20
125.3435426888897
 30
0.0
 10
180.9016202104532
 20
125.4911137883634
 30
0.0
 10
181.2676692050309
 20
125.6380853500678
 30
0.0
 10
181.6337181996086
 20
125.7844309521233
 30
0.0
  0
SPLINE
  5
19D
330
1F
100
AcDbEntity
  8
0
  6
Continuous
 62
     7
370
     0
100
AcDbSpline
210
0.0
220
0.0
230
1.0
 70
     8
 71
     3
 72
     8
 73
     4
 74
     0
 42
0.00000001
 43
0.00000001
 12
1.0
 22
0.0
 32
0.0
 13
1.0
 23
0.0
 33
0.0
 40
0.0
 40
0.0
 40
0.0
 40
0.0
 40
1.0
 40
1.0
 40
1.0
 40
1.0
 10
181.6337181996086
 20
125.7844309521233
 30
0.0
 10
181.2676692050309
 20
125.9307765541788
 30
0.0
 10
180.9016202104532
 20
126.0764961959547
 30
0.0
 10
180.5355712158755
 20
126.221563680636
 30
0.0
  0
LINE
  5
19E
330
1F
100
AcDbEntity
  8
0
  6
Continuous
 62
     7
370
     0
100
AcDbLine
 10
180.5355712159
 20
126.2215636806
 30
0.0
 11
180.5355712159
 21
125.9072134593
 31
0.0
  0
LINE
  5
19F
330
1F
100
AcDbEntity
  8
0
  6
Continuous
 62
     7
370
     0
100
AcDbLine
 10
180.5355712159
 20
125.9072134593
 30
0.0
 11
178.6337181996
 21
125.9072134593
 31
0.0
  0
LINE
  5
1A0
330
1F
100
AcDbEntity
  8
0
  6
Continuous
 62
     7
370
     0
100
AcDbLine
 10
178.6337181996
 20
125.9072134593
 30
0.0
 11
178.6337181996
 21
125.6613540029
 31
0.0
  0
LINE
  5
1A1
330
1F
100
AcDbEntity
  8
0
  6
Continuous
 62
     7
370
     0
100
AcDbLine
 10
177.6337181996
 20
90.2396105675
 30
0.0
 11
177.6337181996
 21
140.4396105675
 31
0.0
  0
LINE
  5
1A2
330
1F
100
AcDbEntity
  8
0
  6
Continuous
 62
     7
370
     0
100
AcDbLine
 10
180.0752766412
 20
114.4923651607
 30
0.0
 11
180.0752766412
 21
113.8404822922
 31
0.0
  0
SPLINE
  5
1A3
330
1F
100
AcDbEntity
  8
0
  6
Continuous
 62
     7
370
     0
100
AcDbSpline
210
0.0
220
0.0
230
1.0
 70
     8
 71
     3
 72
    15
 73
    11
 74
     0
 42
0.00000001
 43
0.00000001
 12
1.0
 22
0.0
 32
0.0
 13
1.0
 23
0.0
 33
0.0
 40
0.0
 40
0.0
 40
0.0
 40
0.0
 40
0.1253687344043246
 40
0.2506537146082102
 40
0.499006107688182
 40
0.5824744486737407
 40
0.6659284924138883
 40
0.7494593542610679
 40
0.8746717774612639
 40
0.9999999999999999
 40
0.9999999999999999
 40
0.9999999999999999
 40
0.9999999999999999
 10
180.0752766411671
 20
114.4923651606932
 30
0.0
 10
180.0742986904214
 20
114.5314353147663
 30
0.0
 10
180.0723434422625
 20
114.609549521592
 30
0.0
 10
180.0475221405953
 20
114.7627038806418
 30
0.0
 10
179.9877967195463
 20
114.8997421871213
 30
0.0
 10
179.8909571099773
 20
114.9868183530734
 30
0.0
 10
179.8242158974976
 20
115.0279769279582
 30
0.0
 10
179.7389959186789
 20
115.060807553928
 30
0.0
 10
179.6365994278064
 20
115.0826211014928
 30
0.0
 10
179.5585272173628
 20
115.0851186557293
 30
0.0
 10
179.5194730697385
 20
115.0863680100296
 30
0.0
  0
SPLINE
  5
1A4
330
1F
100
AcDbEntity
  8
0
  6
Continuous
 62
     7
370
     0
100
AcDbSpline
210
0.0
220
0.0
230
1.0
 70
     8
 71
     3
 72
    15
 73
    11
 74
     0
 42
0.00000001
 43
0.00000001
 12
1.0
 22
0.0
 32
0.0
 13
1.0
 23
0.0
 33
0.0
 40
0.0
 40
0.0
 40
0.0
 40
0.0
 40
0.1251540318599156
 40
0.2502318117948319
 40
0.3752377208699228
 40
0.5001643140107119
 40
0.6246887580925394
 40
0.7495887405035583
 40
0.8622797430428797
 40
1.0
 40
1.0
 40
1.0
 40
1.0
 10
179.5194730697385
 20
115.0863680100296
 30
0.0
 10
179.480448879125
 20
115.0850334101981
 30
0.0
 10
179.4024242739571
 20
115.0823650236595
 30
0.0
 10
179.2876019387683
 20
115.0553090559277
 30
0.0
 10
179.1818297116485
 20
115.0042186100916
 30
0.0
 10
179.0867428084977
 20
114.93472795711
 30
0.0
 10
179.0189636698432
 20
114.8356525109528
 30
0.0
 10
178.997290939718
 20
114.7234008441706
 30
0.0
 10
178.9859501022758
 20
114.6072486473366
 30
0.0
 10
178.9849290853596
 20
114.5292037525184
 30
0.0
 10
178.984367550258
 20
114.4862809103501
 30
0.0
  0
LINE
  5
1A5
330
1F
100
AcDbEntity
  8
0
  6
Continuous
 62
     7
370
     0
100
AcDbLine
 10
178.9843675503
 20
114.4862809104
 30
0.0
 11
178.9843675503
 21
113.8404822922
 31
0.0
  0
LINE
  5
1A6
330
1F
100
AcDbEntity
  8
0
  6
Continuous
 62
     7
370
     0
100
AcDbLine
 10
178.9843675503
 20
113.8404822922
 30
0.0
 11
180.0752766412
 21
113.8404822922
 31
0.0
  0
SPLINE
  5
1A7
330
1F
100
AcDbEntity
  8
0
  6
Continuous
 62
     7
370
     0
100
AcDbSpline
210
0.0
220
0.0
230
1.0
 70
     8
 71
     3
 72
    16
 73
    12
 74
     0
 42
0.00000001
 43
0.00000001
 12
1.0
 22
0.0
 32
0.0
 13
1.0
 23
0.0
 33
0.0
 40
0.0
 40
0.0
 40
0.0
 40
0.0
 40
0.2502666070979152
 40
0.5003870414468602
 40
0.6253978040240693
 40
0.7501183366664415
 40
0.8126309605029063
 40
0.8750812198716655
 40
0.9374681530762621
 40
0.9687217402228868
 40
0.9999999999999999
 40
0.9999999999999999
 40
0.9999999999999999
 40
0.9999999999999999
 10
180.1337181996086
 20
119.8161068120522
 30
0.0
 10
180.2548342883416
 20
119.8176067789881
 30
0.0
 10
180.4969957257602
 20
119.8206058367769
 30
0.0
 10
180.7987399526289
 20
119.8520771140887
 30
0.0
 10
181.0346300483784
 20
119.9095274000138
 30
0.0
 10
181.1694328815474
 20
119.9812373227531
 30
0.0
 10
181.2615591157377
 20
120.0586836051359
 30
0.0
 10
181.3180312482062
 20
120.1295551659756
 30
0.0
 10
181.3469833837585
 20
120.1989872682274
 30
0.0
 10
181.3597105928802
 20
120.2572131193177
 30
0.0
 10
181.3605640366358
 20
120.2869398847122
 30
0.0
 10
181.3609909268814
 20
120.3018091319211
 30
0.0
  0
SPLINE
  5
1A8
330
1F
100
AcDbEntity
  8
0
  6
Continuous
 62
     7
370
     0
100
AcDbSpline
210
0.0
220
0.0
230
1.0
 70
     8
 71
     3
 72
    15
 73
    11
 74
     0
 42
0.00000001
 43
0.00000001
 12
1.0
 22
0.0
 32
0.0
 13
1.0
 23
0.0
 33
0.0
 40
0.0
 40
0.0
 40
0.0
 40
0.0
 40
0.0312914406377343
 40
0.0625559738335145
 40
0.1249665424421837
 40
0.2494283959541423
 40
0.3742714550651909
 40
0.4993601535802101
 40
0.7496086004653187
 40
1.0
 40
1.0
 40
1.0
 40
1.0
 10
181.3609909268814
 20
120.3018091319211
 30
0.0
 10
181.360504585432
 20
120.3165455765184
 30
0.0
 10
181.3595323207371
 20
120.3460057938762
 30
0.0
 10
181.3456835473204
 20
120.4034327087843
 30
0.0
 10
181.3013936414663
 20
120.4977782056555
 30
0.0
 10
181.1874508290515
 20
120.5990577121739
 30
0.0
 10
181.0270293913686
 20
120.680353983428
 30
0.0
 10
180.7928002560911
 20
120.7363633054319
 30
0.0
 10
180.4937964967347
 20
120.766680798671
 30
0.0
 10
180.2537671446361
 20
120.7698003708592
 30
0.0
 10
180.1337181996086
 20
120.7713606023344
 30
0.0
  0
SPLINE
  5
1A9
330
1F
100
AcDbEntity
  8
0
  6
Continuous
 62
     7
370
     0
100
AcDbSpline
210
0.0
220
0.0
230
1.0
 70
     8
 71
     3
 72
    16
 73
    12
 74
     0
 42
0.00000001
 43
0.00000001
 12
1.0
 22
0.0
 32
0.0
 13
1.0
 23
0.0
 33
0.0
 40
0.0
 40
0.0
 40
0.0
 40
0.0
 40
0.2503496394344899
 40
0.5005495143908347
 40
0.6255888818189804
 40
0.6881323128788679
 40
0.7506868671567913
 40
0.8750305488322871
 40
0.9374399021183717
 40
0.9687083653526499
 40
1.0
 40
1.0
 40
1.0
 40
1.0
 10
180.1337181996086
 20
120.7713606023344
 30
0.0
 10
180.0123149935671
 20
120.7698551965853
 30
0.0
 10
179.7695812074635
 20
120.7668452856529
 30
0.0
 10
179.4669978786408
 20
120.7358577990222
 30
0.0
 10
179.2602069680323
 20
120.684829628163
 30
0.0
 10
179.1492680190671
 20
120.6356197927627
 30
0.0
 10
179.0479672324323
 20
120.5708844711466
 30
0.0
 10
178.9602086031585
 20
120.4841345219651
 30
0.0
 10
178.9190030953793
 20
120.3871981323157
 30
0.0
 10
178.9080245412042
 20
120.3285525998956
 30
0.0
 10
178.9069719585795
 20
120.2987857217997
 30
0.0
 10
178.9064454723359
 20
120.2838967701274
 30
0.0
  0
SPLINE
  5
1AA
330
1F
100
AcDbEntity
  8
0
  6
Continuous
 62
     7
370
     0
100
AcDbSpline
210
0.0
220
0.0
230
1.0
 70
     8
 71
     3
 72
    15
 73
    11
 74
     0
 42
0.00000001
 43
0.00000001
 12
1.0
 22
0.0
 32
0.0
 13
1.0
 23
0.0
 33
0.0
 40
0.0
 40
0.0
 40
0.0
 40
0.0
 40
0.0312909998794809
 40
0.0625538939250194
 40
0.1249573530937515
 40
0.2494428287818828
 40
0.3742794951282839
 40
0.4993614316828264
 40
0.7496082157734062
 40
1.0
 40
1.0
 40
1.0
 40
1.0
 10
178.9064454723359
 20
120.2838967701274
 30
0.0
 10
178.9069165844196
 20
120.2691803548713
 30
0.0
 10
178.9078583854303
 20
120.2397607427645
 30
0.0
 10
178.9218615189879
 20
120.1823960190494
 30
0.0
 10
178.9669047290618
 20
120.0883397535637
 30
0.0
 10
179.0814486885547
 20
119.9878290969003
 30
0.0
 10
179.2417797713575
 20
119.9065774737284
 30
0.0
 10
179.4759697007313
 20
119.851840961559
 30
0.0
 10
179.7742441860105
 20
119.8206145116174
 30
0.0
 10
180.0138703940665
 20
119.8176096686719
 30
0.0
 10
180.1337181996086
 20
119.8161068120522
 30
0.0
  0
SPLINE
  5
1AB
330
1F
100
AcDbEntity
  8
0
  6
Continuous
 62
     7
370
     0
100
AcDbSpline
210
0.0
220
0.0
230
1.0
 70
     8
 71
     3
 72
    16
 73
    12
 74
     0
 42
0.00000001
 43
0.00000001
 12
1.0
 22
0.0
 32
0.0
 13
1.0
 23
0.0
 33
0.0
 40
0.0
 40
0.0
 40
0.0
 40
0.0
 40
0.2502666070979137
 40
0.5003870414468568
 40
0.6253978040240677
 40
0.7501183366664412
 40
0.8126309605029066
 40
0.8750812198716656
 40
0.937468153076263
 40
0.9687217402228872
 40
1.0
 40
1.0
 40
1.0
 40
1.0
 10
180.1337181996086
 20
121.6809079914715
 30
0.0
 10
180.2548342883416
 20
121.6823835612055
 30
0.0
 10
180.4969957257602
 20
121.6853338388404
 30
0.0
 10
180.7987399526289
 20
121.7162923252547
 30
0.0
 10
181.0346300483784
 20
121.7727972413524
 30
0.0
 10
181.1694328815474
 20
121.8433134523925
 30
0.0
 10
181.2615591157377
 20
121.9194493862555
 30
0.0
 10
181.3180312482062
 20
121.9891078664515
 30
0.0
 10
181.3469833837585
 20
122.0573341976503
 30
0.0
 10
181.3597105928802
 20
122.1145373082096
 30
0.0
 10
181.3605640366358
 20
122.1437367088547
 30
0.0
 10
181.3609909268814
 20
122.1583421696501
 30
0.0
  0
SPLINE
  5
1AC
330
1F
100
AcDbEntity
  8
0
  6
Continuous
 62
     7
370
     0
100
AcDbSpline
210
0.0
220
0.0
230
1.0
 70
     8
 71
     3
 72
    15
 73
    11
 74
     0
 42
0.00000001
 43
0.00000001
 12
1.0
 22
0.0
 32
0.0
 13
1.0
 23
0.0
 33
0.0
 40
0.0
 40
0.0
 40
0.0
 40
0.0
 40
0.0312914406377341
 40
0.0625559738335173
 40
0.124966542442185
 40
0.2494283959541476
 40
0.3742714550651963
 40
0.4993601535802144
 40
0.7496086004653203
 40
1.0
 40
1.0
 40
1.0
 40
1.0
 10
181.3609909268814
 20
122.1583421696501
 30
0.0
 10
181.360504585432
 20
122.1728159821973
 30
0.0
 10
181.3595323207371
 20
122.2017511612917
 30
0.0
 10
181.3456835473204
 20
122.2581446436603
 30
0.0
 10
181.3013936414663
 20
122.3507735131939
 30
0.0
 10
181.1874508290515
 20
122.4501714931782
 30
0.0
 10
181.0270293913686
 20
122.5299326243224
 30
0.0
 10
180.7928002560911
 20
122.5848735965489
 30
0.0
 10
180.4937964967347
 20
122.6146079200541
 30
0.0
 10
180.2537671446361
 20
122.6176674042355
 30
0.0
 10
180.1337181996086
 20
122.6191975831286
 30
0.0
  0
SPLINE
  5
1AD
330
1F
100
AcDbEntity
  8
0
  6
Continuous
 62
     7
370
     0
100
AcDbSpline
210
0.0
220
0.0
230
1.0
 70
     8
 71
     3
 72
    16
 73
    12
 74
     0
 42
0.00000001
 43
0.00000001
 12
1.0
 22
0.0
 32
0.0
 13
1.0
 23
0.0
 33
0.0
 40
0.0
 40
0.0
 40
0.0
 40
0.0
 40
0.2503496394344898
 40
0.5005495143908351
 40
0.625588881818983
 40
0.6881323128788713
 40
0.7506868671567943
 40
0.8750305488322866
 40
0.9374399021183751
 40
0.9687083653526533
 40
0.9999999999999999
 40
0.9999999999999999
 40
0.9999999999999999
 40
0.9999999999999999
 10
180.1337181996086
 20
122.6191975831286
 30
0.0
 10
180.0123149935671
 20
122.6177211644602
 30
0.0
 10
179.7695812074635
 20
122.6147692103485
 30
0.0
 10
179.4669978786408
 20
122.5843779173364
 30
0.0
 10
179.2602069680322
 20
122.5343227088849
 30
0.0
 10
179.1492680190671
 20
122.4860431447207
 30
0.0
 10
179.0479672324323
 20
122.42252255117
 30
0.0
 10
178.9602086031585
 20
122.3373811019075
 30
0.0
 10
178.9190030953793
 20
122.2422035960958
 30
0.0
 10
178.9080245412042
 20
122.1846102856951
 30
0.0
 10
178.9069719585795
 20
122.1553722450745
 30
0.0
 10
178.9064454723359
 20
122.140747810077
 30
0.0
  0
SPLINE
  5
1AE
330
1F
100
AcDbEntity
  8
0
  6
Continuous
 62
     7
370
     0
100
AcDbSpline
210
0.0
220
0.0
230
1.0
 70
     8
 71
     3
 72
    15
 73
    11
 74
     0
 42
0.00000001
 43
0.00000001
 12
1.0
 22
0.0
 32
0.0
 13
1.0
 23
0.0
 33
0.0
 40
0.0
 40
0.0
 40
0.0
 40
0.0
 40
0.0312909998794802
 40
0.0625538939250198
 40
0.1249573530937503
 40
0.2494428287818823
 40
0.3742794951282828
 40
0.4993614316828253
 40
0.7496082157734054
 40
1.0
 40
1.0
 40
1.0
 40
1.0
 10
178.9064454723359
 20
122.140747810077
 30
0.0
 10
178.9069165844196
 20
122.1262916487678
 30
0.0
 10
178.9078583854303
 20
122.0973923107927
 30
0.0
 10
178.9218615189879
 20
122.0410321285977
 30
0.0
 10
178.9669047290617
 20
121.9486042623721
 30
0.0
 10
179.0814486885547
 20
121.8497958769276
 30
0.0
 10
179.2417797713575
 20
121.769896020004
 30
0.0
 10
179.4759697007313
 20
121.716059917379
 30
0.0
 10
179.7742441860105
 20
121.6853424052634
 30
0.0
 10
180.0138703940665
 20
121.6823864147837
 30
0.0
 10
180.1337181996086
 20
121.6809079914715
 30
0.0
  0
LINE
  5
1AF
330
1F
100
AcDbEntity
  8
0
  6
Continuous
 62
     7
370
     0
100
AcDbLine
 10
181.283068849
 20
106.8650609152
 30
0.0
 11
181.283068849
 21
106.36253519
 31
0.0
  0
SPLINE
  5
1B0
330
1F
100
AcDbEntity
  8
0
  6
Continuous
 62
     7
370
     0
100
AcDbSpline
210
0.0
220
0.0
230
1.0
 70
     8
 71
     3
 72
    15
 73
    11
 74
     0
 42
0.00000001
 43
0.00000001
 12
1.0
 22
0.0
 32
0.0
 13
1.0
 23
0.0
 33
0.0
 40
0.0
 40
0.0
 40
0.0
 40
0.0
 40
0.1397214989288396
 40
0.2501771574758365
 40
0.3752386258444426
 40
0.5002314506201603
 40
0.6214276674167163
 40
0.7499576434759416
 40
0.8749319569283671
 40
1.0
 40
1.0
 40
1.0
 40
1.0
 10
181.2830688489593
 20
106.8650609151597
 30
0.0
 10
181.282036690465
 20
106.9061727038839
 30
0.0
 10
181.2801885677341
 20
106.9797850722068
 30
0.0
 10
181.2675505969059
 20
107.089892774653
 30
0.0
 10
181.2447846728408
 20
107.1943823597109
 30
0.0
 10
181.2034969847336
 20
107.2976998452828
 30
0.0
 10
181.1382831256933
 20
107.3910269827197
 30
0.0
 10
181.0526138440931
 20
107.4676133612276
 30
0.0
 10
180.9540148565185
 20
107.5306144853004
 30
0.0
 10
180.8819970796567
 20
107.5594931310907
 30
0.0
 10
180.8459746931151
 20
107.5739378666378
 30
0.0
  0
SPLINE
  5
1B1
330
1F
100
AcDbEntity
  8
0
  6
Continuous
 62
     7
370
     0
100
AcDbSpline
210
0.0
220
0.0
230
1.0
 70
     8
 71
     3
 72
    12
 73
     8
 74
     0
 42
0.00000001
 43
0.00000001
 12
1.0
 22
0.0
 32
0.0
 13
1.0
 23
0.0
 33
0.0
 40
0.0
 40
0.0
 40
0.0
 40
0.0
 40
0.125017884638177
 40
0.2500201696718612
 40
0.4999844141952986
 40
0.7499868018933626
 40
1.0
 40
1.0
 40
1.0
 40
1.0
 10
180.8459746931151
 20
107.5739378666378
 30
0.0
 10
180.8167680450124
 20
107.5841867668498
 30
0.0
 10
180.7583583931828
 20
107.6046832884266
 30
0.0
 10
180.6384281849709
 20
107.6367231096591
 30
0.0
 10
180.4855820890897
 20
107.6653096267796
 30
0.0
 10
180.2997510340447
 20
107.6847830476438
 30
0.0
 10
180.1752646735929
 20
107.6866796377735
 30
0.0
 10
180.1130201476606
 20
107.6876279533406
 30
0.0
  0
SPLINE
  5
1B2
330
1F
100
AcDbEntity
  8
0
  6
Continuous
 62
     7
370
     0
100
AcDbSpline
210
0.0
220
0.0
230
1.0
 70
     8
 71
     3
 72
    15
 73
    11
 74
     0
 42
0.00000001
 43
0.00000001
 12
1.0
 22
0.0
 32
0.0
 13
1.0
 23
0.0
 33
0.0
 40
0.0
 40
0.0
 40
0.0
 40
0.0
 40
0.1251268274281168
 40
0.2502484251834728
 40
0.5001030853491292
 40
0.6251006234200772
 40
0.750105284304712
 40
0.8749559266229174
 40
0.9374630657903281
 40
1.0
 40
1.0
 40
1.0
 40
1.0
 10
180.1130201476606
 20
107.6876279533406
 30
0.0
 10
180.0620124763761
 20
107.6870343066856
 30
0.0
 10
179.9599992656716
 20
107.6858470381872
 30
0.0
 10
179.7569539864068
 20
107.6696446490121
 30
0.0
 10
179.5548269846549
 20
107.6334824759323
 30
0.0
 10
179.3665774933166
 20
107.5576989130976
 30
0.0
 10
179.2350643858841
 20
107.4825007233219
 30
0.0
 10
179.1401845574021
 20
107.4004023203668
 30
0.0
 10
179.0779699447934
 20
107.3232628582253
 30
0.0
 10
179.0553428728743
 20
107.2798518892207
 30
0.0
 10
179.0440266411671
 20
107.2581412328153
 30
0.0
  0
SPLINE
  5
1B3
330
1F
100
AcDbEntity
  8
0
  6
Continuous
 62
     7
370
     0
100
AcDbSpline
210
0.0
220
0.0
230
1.0
 70
     8
 71
     3
 72
    12
 73
     8
 74
     0
 42
0.00000001
 43
0.00000001
 12
1.0
 22
0.0
 32
0.0
 13
1.0
 23
0.0
 33
0.0
 40
0.0
 40
0.0
 40
0.0
 40
0.0
 40
0.1428151998865927
 40
0.2856721884586208
 40
0.4999151269693736
 40
0.7499378388271243
 40
1.0
 40
1.0
 40
1.0
 40
1.0
 10
179.0440266411671
 20
107.2581412328153
 30
0.0
 10
179.0365374156869
 20
107.2400037839414
 30
0.0
 10
179.021556773329
 20
107.2037235790545
 30
0.0
 10
179.0054731436118
 20
107.1372370138381
 30
0.0
 10
178.99303429631
 20
107.0555048519536
 30
0.0
 10
178.9855625703221
 20
106.9586856452194
 30
0.0
 10
178.9847659112276
 20
106.890915012909
 30
0.0
 10
178.984367550258
 20
106.8570270237025
 30
0.0
  0
LINE
  5
1B4
330
1F
100
AcDbEntity
  8
0
  6
Continuous
 62
     7
370
     0
100
AcDbLine
 10
178.9843675503
 20
106.8570270237
 30
0.0
 11
178.9843675503
 21
106.36253519
 31
0.0
  0
LINE
  5
1B5
330
1F
100
AcDbEntity
  8
0
  6
Continuous
 62
     7
370
     0
100
AcDbLine
 10
178.9843675503
 20
106.36253519
 30
0.0
 11
181.283068849
 21
106.36253519
 31
0.0
  0
DIMENSION
  5
1B6
330
1F
100
AcDbEntity
  8
0
  6
Continuous
 62
     7
370
     0
100
AcDbDimension
  2
_D_1
 10
182.6337181996
 20
79.9396105675
 30
0.0
 11
164.557421581
 21
79.9396105675
 31
0.0
 70
   160
  1
<>
 71
     2
 42
-1.0
  3
SLDDIMSTYLE1
100
AcDbAlignedDimension
 13
177.6337181996
 23
90.2396105675
 33
0.0
 14
182.6337181996
 24
90.2396105675
 34
0.0
100
AcDbRotatedDimension
  0
MTEXT
  5
1CB
330
1F
100
AcDbEntity
  8
0
  6
Continuous
 62
     7
370
     0
100
AcDbMText
 10
155.8719121646
 20
127.1205885406
 30
0.0
 40
2.1166666667
 41
0.0
 71
     1
 72
     1
  1
S1
  7
SLDTEXTSTYLE0
 73
     1
 44
1.0
  0
LEADER
  5
1CD
330
1F
100
AcDbEntity
  8
0
  6
Continuous
 62
     7
370
     0
100
AcDbLeader
  3
SLDDIMSTYLE2
 76
     3
 10
177.6337181996
 20
113.8811950374
 30
0.0
 10
165.6014585764
 20
126.0210035006
 30
0.0
 10
159.2514585764
 20
126.0210035006
 30
0.0
  0
INSERT
  5
1D3
102
{ACAD_REACTORS
330
1D4
102
}
330
1F
100
AcDbEntity
  8
0
  6
Continuous
 62
     7
370
     0
100
AcDbBlockReference
  2
SW_NOTE_5
 10
195.5910151692
 20
126.1376896149
 30
0.0
  0
LEADER
  5
1D4
330
1F
100
AcDbEntity
  8
0
  6
Continuous
 62
     7
370
     0
100
AcDbLeader
  3
SLDDIMSTYLE2
 73
     2
 76
     3
 10
182.6337181996
 20
113.7270552791
 30
0.0
 10
189.2410151692
 20
126.1376896149
 30
0.0
 10
195.5910151692
 20
126.1376896149
 30
0.0
340
1D3
  0
OLE2FRAME
  5
1D5
330
1F
100
AcDbEntity
  8
0
100
AcDbOle2Frame
 70
     2
  3
Paintbrush Picture
 10
229.0524258301
 20
33.6996297921
 30
0.0
 11
265.1686469208
 21
28.555479607
 31
0.0
 71
     2
 72
     0
 73
     1
 90
     7296
310
80557333EF78ADA16C40002412788DD94040000000000000000041161DC7B292
310
7040002412788DD94040000000000000000041161DC7B2927040F6DD59E9338E
310
3C4000000000000000007333EF78ADA16C40F6DD59E9338E3C40000000000000
310
00000000000001000000000100000100000001000000000001000000001C0000
310
D0CF11E0A1B11AE1000000000000000000000000000000003E000300FEFF0900
310
0600000000000000000000000100000001000000000000000010000002000000
310
01000000FEFFFFFF0000000000000000FFFFFFFFFFFFFFFFFFFFFFFFFFFFFFFF
310
FFFFFFFFFFFFFFFFFFFFFFFFFFFFFFFFFFFFFFFFFFFFFFFFFFFFFFFFFFFFFFFF
310
FFFFFFFFFFFFFFFFFFFFFFFFFFFFFFFFFFFFFFFFFFFFFFFFFFFFFFFFFFFFFFFF
310
FFFFFFFFFFFFFFFFFFFFFFFFFFFFFFFFFFFFFFFFFFFFFFFFFFFFFFFFFFFFFFFF
310
FFFFFFFFFFFFFFFFFFFFFFFFFFFFFFFFFFFFFFFFFFFFFFFFFFFFFFFFFFFFFFFF
310
FFFFFFFFFFFFFFFFFFFFFFFFFFFFFFFFFFFFFFFFFFFFFFFFFFFFFFFFFFFFFFFF
310
FFFFFFFFFFFFFFFFFFFFFFFFFFFFFFFFFFFFFFFFFFFFFFFFFFFFFFFFFFFFFFFF
310
FFFFFFFFFFFFFFFFFFFFFFFFFFFFFFFFFFFFFFFFFFFFFFFFFFFFFFFFFFFFFFFF
310
FFFFFFFFFFFFFFFFFFFFFFFFFFFFFFFFFFFFFFFFFFFFFFFFFFFFFFFFFFFFFFFF
310
FFFFFFFFFFFFFFFFFFFFFFFFFFFFFFFFFFFFFFFFFFFFFFFFFFFFFFFFFFFFFFFF
310
FFFFFFFFFFFFFFFFFFFFFFFFFFFFFFFFFFFFFFFFFFFFFFFFFFFFFFFFFFFFFFFF
310
FFFFFFFFFFFFFFFFFFFFFFFFFFFFFFFFFFFFFFFFFFFFFFFFFFFFFFFFFFFFFFFF
310
FFFFFFFFFFFFFFFFFFFFFFFFFFFFFFFFFFFFFFFFFFFFFFFFFFFFFFFFFFFFFFFF
310
FFFFFFFFFFFFFFFFFFFFFFFFFFFFFFFFFFFFFFFFFFFFFFFFFFFFFFFFFFFFFFFF
310
FDFFFFFFFEFFFFFFFEFFFFFFFEFFFFFF05000000060000000700000008000000
310
090000000A0000000B0000000C000000FEFFFFFFFFFFFFFFFFFFFFFFFFFFFFFF
310
FFFFFFFFFFFFFFFFFFFFFFFFFFFFFFFFFFFFFFFFFFFFFFFFFFFFFFFFFFFFFFFF
310
FFFFFFFFFFFFFFFFFFFFFFFFFFFFFFFFFFFFFFFFFFFFFFFFFFFFFFFFFFFFFFFF
310
FFFFFFFFFFFFFFFFFFFFFFFFFFFFFFFFFFFFFFFFFFFFFFFFFFFFFFFFFFFFFFFF
310
FFFFFFFFFFFFFFFFFFFFFFFFFFFFFFFFFFFFFFFFFFFFFFFFFFFFFFFFFFFFFFFF
310
FFFFFFFFFFFFFFFFFFFFFFFFFFFFFFFFFFFFFFFFFFFFFFFFFFFFFFFFFFFFFFFF
310
FFFFFFFFFFFFFFFFFFFFFFFFFFFFFFFFFFFFFFFFFFFFFFFFFFFFFFFFFFFFFFFF
310
FFFFFFFFFFFFFFFFFFFFFFFFFFFFFFFFFFFFFFFFFFFFFFFFFFFFFFFFFFFFFFFF
310
FFFFFFFFFFFFFFFFFFFFFFFFFFFFFFFFFFFFFFFFFFFFFFFFFFFFFFFFFFFFFFFF
310
FFFFFFFFFFFFFFFFFFFFFFFFFFFFFFFFFFFFFFFFFFFFFFFFFFFFFFFFFFFFFFFF
310
FFFFFFFFFFFFFFFFFFFFFFFFFFFFFFFFFFFFFFFFFFFFFFFFFFFFFFFFFFFFFFFF
310
FFFFFFFFFFFFFFFFFFFFFFFFFFFFFFFFFFFFFFFFFFFFFFFFFFFFFFFFFFFFFFFF
310
FFFFFFFFFFFFFFFFFFFFFFFFFFFFFFFFFFFFFFFFFFFFFFFFFFFFFFFFFFFFFFFF
310
FFFFFFFFFFFFFFFFFFFFFFFFFFFFFFFFFFFFFFFFFFFFFFFFFFFFFFFFFFFFFFFF
310
FFFFFFFFFFFFFFFFFFFFFFFFFFFFFFFFFFFFFFFFFFFFFFFFFFFFFFFFFFFFFFFF
310
52006F006F007400200045006E00740072007900000000000000000000000000
310
0000000000000000000000000000000000000000000000000000000000000000
310
16000500FFFFFFFFFFFFFFFF020000000A00030000000000C000000000000046
310
00000000000000000000000040552A960A33CF0103000000C000000000000000
310
01004F006C006500000000000000000000000000000000000000000000000000
310
0000000000000000000000000000000000000000000000000000000000000000
310
0A000200FFFFFFFFFFFFFFFFFFFFFFFF00000000000000000000000000000000
310
0000000000000000000000000000000000000000000000001400000000000000
310
010043006F006D0070004F0062006A0000000000000000000000000000000000
310
0000000000000000000000000000000000000000000000000000000000000000
310
120002010100000003000000FFFFFFFF00000000000000000000000000000000
310
0000000000000000000000000000000000000000010000004D00000000000000
310
01004F006C006500310030004E00610074006900760065000000000000000000
310
0000000000000000000000000000000000000000000000000000000000000000
310
1A000200FFFFFFFFFFFFFFFFFFFFFFFF00000000000000000000000000000000
310
000000000000000000000000000000000000000004000000E411000000000000
310
FEFFFFFF02000000FEFFFFFFFFFFFFFFFFFFFFFFFFFFFFFFFFFFFFFFFFFFFFFF
310
FFFFFFFFFFFFFFFFFFFFFFFFFFFFFFFFFFFFFFFFFFFFFFFFFFFFFFFFFFFFFFFF
310
FFFFFFFFFFFFFFFFFFFFFFFFFFFFFFFFFFFFFFFFFFFFFFFFFFFFFFFFFFFFFFFF
310
FFFFFFFFFFFFFFFFFFFFFFFFFFFFFFFFFFFFFFFFFFFFFFFFFFFFFFFFFFFFFFFF
310
FFFFFFFFFFFFFFFFFFFFFFFFFFFFFFFFFFFFFFFFFFFFFFFFFFFFFFFFFFFFFFFF
310
FFFFFFFFFFFFFFFFFFFFFFFFFFFFFFFFFFFFFFFFFFFFFFFFFFFFFFFFFFFFFFFF
310
FFFFFFFFFFFFFFFFFFFFFFFFFFFFFFFFFFFFFFFFFFFFFFFFFFFFFFFFFFFFFFFF
310
FFFFFFFFFFFFFFFFFFFFFFFFFFFFFFFFFFFFFFFFFFFFFFFFFFFFFFFFFFFFFFFF
310
FFFFFFFFFFFFFFFFFFFFFFFFFFFFFFFFFFFFFFFFFFFFFFFFFFFFFFFFFFFFFFFF
310
FFFFFFFFFFFFFFFFFFFFFFFFFFFFFFFFFFFFFFFFFFFFFFFFFFFFFFFFFFFFFFFF
310
FFFFFFFFFFFFFFFFFFFFFFFFFFFFFFFFFFFFFFFFFFFFFFFFFFFFFFFFFFFFFFFF
310
FFFFFFFFFFFFFFFFFFFFFFFFFFFFFFFFFFFFFFFFFFFFFFFFFFFFFFFFFFFFFFFF
310
FFFFFFFFFFFFFFFFFFFFFFFFFFFFFFFFFFFFFFFFFFFFFFFFFFFFFFFFFFFFFFFF
310
FFFFFFFFFFFFFFFFFFFFFFFFFFFFFFFFFFFFFFFFFFFFFFFFFFFFFFFFFFFFFFFF
310
FFFFFFFFFFFFFFFFFFFFFFFFFFFFFFFFFFFFFFFFFFFFFFFFFFFFFFFFFFFFFFFF
310
FFFFFFFFFFFFFFFFFFFFFFFFFFFFFFFFFFFFFFFFFFFFFFFFFFFFFFFFFFFFFFFF
310
0100000200000000000000000000000000000000000000000000000000000000
310
0000000000000000000000000000000000000000000000000000000000000000
310
0100FEFF030A0000FFFFFFFF0A00030000000000C00000000000004607000000
310
5042727573680007000000504272757368000700000050427275736800F439B2
310
7100000000000000000000000000000000000000000000000000000000000000
310
0000000000000000000000000000000000000000000000000000000000000000
310
0000000000000000000000000000000000000000000000000000000000000000
310
0000000000000000000000000000000000000000000000000000000000000000
310
0000000000000000000000000000000000000000000000000000000000000000
310
0000000000000000000000000000000000000000000000000000000000000000
310
0000000000000000000000000000000000000000000000000000000000000000
310
0000000000000000000000000000000000000000000000000000000000000000
310
0000000000000000000000000000000000000000000000000000000000000000
310
0000000000000000000000000000000000000000000000000000000000000000
310
0000000000000000000000000000000000000000000000000000000000000000
310
0000000000000000000000000000000000000000000000000000000000000000
310
E0110000424DDE11000000000000360400002800000096000000170000000100
310
08000000000000000000E7240000E72400000001000000010000000000FF0101
310
01FF020202FF030303FF040404FF050505FF060606FF070707FF080808FF0909
310
09FF0A0A0AFF0B0B0BFF0C0C0CFF0D0D0DFF0E0E0EFF0F0F0FFF101010FF1111
310
11FF121212FF131313FF141414FF151515FF161616FF171717FF181818FF1919
310
19FF1A1A1AFF1B1B1BFF1C1C1CFF1D1D1DFF1E1E1EFF1F1F1FFF202020FF2121
310
21FF222222FF232323FF242424FF252525FF262626FF272727FF282828FF2929
310
29FF2A2A2AFF2B2B2BFF2C2C2CFF2D2D2DFF2E2E2EFF2F2F2FFF303030FF3131
310
31FF323232FF333333FF343434FF353535FF363636FF373737FF383838FF3939
310
39FF3A3A3AFF3B3B3BFF3C3C3CFF3D3D3DFF3E3E3EFF3F3F3FFF404040FF4141
310
41FF424242FF434343FF444444FF454545FF464646FF474747FF484848FF4949
310
49FF4A4A4AFF4B4B4BFF4C4C4CFF4D4D4DFF4E4E4EFF4F4F4FFF505050FF5151
310
51FF525252FF535353FF545454FF555555FF565656FF575757FF585858FF5959
310
59FF5A5A5AFF5B5B5BFF5C5C5CFF5D5D5DFF5E5E5EFF5F5F5FFF606060FF6161
310
61FF626262FF636363FF646464FF656565FF666666FF676767FF686868FF6969
310
69FF6A6A6AFF6B6B6BFF6C6C6CFF6D6D6DFF6E6E6EFF6F6F6FFF707070FF7171
310
71FF727272FF737373FF747474FF757575FF767676FF777777FF787878FF7979
310
79FF7A7A7AFF7B7B7BFF7C7C7CFF7D7D7DFF7E7E7EFF7F7F7FFF808080FF8181
310
81FF828282FF838383FF848484FF858585FF868686FF878787FF888888FF8989
310
89FF8A8A8AFF8B8B8BFF8C8C8CFF8D8D8DFF8E8E8EFF8F8F8FFF909090FF9191
310
91FF929292FF939393FF949494FF959595FF969696FF979797FF989898FF9999
310
99FF9A9A9AFF9B9B9BFF9C9C9CFF9D9D9DFF9E9E9EFF9F9F9FFFA0A0A0FFA1A1
310
A1FFA2A2A2FFA3A3A3FFA4A4A4FFA5A5A5FFA6A6A6FFA7A7A7FFA8A8A8FFA9A9
310
A9FFAAAAAAFFABABABFFACACACFFADADADFFAEAEAEFFAFAFAFFFB0B0B0FFB1B1
310
B1FFB2B2B2FFB3B3B3FFB4B4B4FFB5B5B5FFB6B6B6FFB7B7B7FFB8B8B8FFB9B9
310
B9FFBABABAFFBBBBBBFFBCBCBCFFBDBDBDFFBEBEBEFFBFBFBFFFC0C0C0FFC1C1
310
C1FFC2C2C2FFC3C3C3FFC4C4C4FFC5C5C5FFC6C6C6FFC7C7C7FFC8C8C8FFC9C9
310
C9FFCACACAFFCBCBCBFFCCCCCCFFCDCDCDFFCECECEFFCFCFCFFFD0D0D0FFD1D1
310
D1FFD2D2D2FFD3D3D3FFD4D4D4FFD5D5D5FFD6D6D6FFD7D7D7FFD8D8D8FFD9D9
310
D9FFDADADAFFDBDBDBFFDCDCDCFFDDDDDDFFDEDEDEFFDFDFDFFFE0E0E0FFE1E1
310
E1FFE2E2E2FFE3E3E3FFE4E4E4FFE5E5E5FFE6E6E6FFE7E7E7FFE8E8E8FFE9E9
310
E9FFEAEAEAFFEBEBEBFFECECECFFEDEDEDFFEEEEEEFFEFEFEFFFF0F0F0FFF1F1
310
F1FFF2F2F2FFF3F3F3FFF4F4F4FFF5F5F5FFF6F6F6FFF7F7F7FFF8F8F8FFF9F9
310
F9FFFAFAFAFFFBFBFBFFFCFCFCFFFDFDFDFFFEFEFEFFFFFFFFFFFFFFFFFFFFFF
310
C94E4E4E4F4E4EFFFFFFFFFFC94E4E4E4E4E72FFFFFFFFFFFFFF734E4D4E4E4E
310
C9FFFFFFFFFFAA683516171616265B9BE9FFFFFFFFFF4E4E4E4D4E4EFFFFFFFF
310
FFFFFFFF4E4E4F4E4D4E4E4E4F4E4E4F4D4E4E4E4E4E4D4E4F4E4D4E4E4EAAFF
310
FFFFFFFFFFEA4E4F4F4E4E4E4E4E4D4D4F4F4E4E4E4E4E5B7FAAFFFFFFFFFFFF
310
C9744E1716171616164D8DEAFFFFFFFF0000FFFFFFFFFFFFBA161617161716FF
310
FFFFFFFFB917171616174FFFFFFFFFFFFFFF4E1716161616B9FFFFFFB9341717
310
1716171617171616268CFFFFFFFF161617161617FFFFFFFFFFFFFFB917161717
310
1617167F807F7F7F7F7F7F807F7F807F7F807F7F7F414EFFFFFFFFFFFF8C167F
310
7F807F7F7F7E7F7F807F807F7F807F4E3417258EFFFFEA4E162674AABAEAEBBA
310
AA74341680FFFFFF0000FFFFFFFFFFFFB9171717171617FFFFFFFFFFBB161616
310
16164EFFFFFFFFFFFFFF4E1717171717B9FFFF9C171617171716161616171616
310
171766FFFFFF161717161617FFFFFFFFFFFFFF8E16171717161616FFFFFFFFFF
310
FFFFFFFFFFFFFFFFFFFFFFFFFFAA16D9FFFFFFFFFF3467FFFFFFFFEAFFFFFFFF
310
FFFFFFFFFFFFFFFFFFCA671667EB26278DFFFFFFFFFFFFFFFFFFFF8C2541EAFF
310
0000FFFFFFFFFFFFB9171717171716FFFFFFFFFFBA16171617174EFFFFFFFFFF
310
FFFF4E1717161616BAFF9B1617161616171716171617161616161667FFFF1616
310
16161716FFFFFFFFFFFFFF7F16161617174017FFFFFFFFFFFFFFFFFFFFFFFFFF
310
FFFFFFFFFFFF344E7F7F7F7E7417DAFFFFFFFF80FFFFFFFFFFFFFFFFFFFFFFFF
310
FFFFFF9B163425CAFFFFFFFFFFFFFFFFFFFFFFFFCA2667FF0000FFFFFFFFFFFF
310
BA171717171617FFFFFFFFFFB916171716164EFFFFFFFFFFFFFF4F1716161717
310
B9C91716171616161716161617171616161617168DFF161716161717FFFFFFFF
310
FFFFFF7F17171716164F16FFFFFFFFFFFFFFFFFFFFFFFFFFFFFFFFFFFFFF9B16
310
17161617174EFFFFFFFFFF34FFFFFFFFD9BABABABABADAFFFFFFFFFF7F16AAFF
310
FFFFFFFFFFFFFFFFFFFFFFFFFF9C16BA0000FFFFFFFFFFFFB9161717161717FF
310
FFFFFFFFB917161716174DFFFFFFFFFFFFFF4E1616161616BA4E161617171716
310
419BEAEAAA4E16161617161726E9171717161616FFFFFFFFFFFFFF4F16161717
310
164E16FFFFFFFFFFBAB9B9B9B9B9BABABACAFFFFFFFFFFFFFFFFFFFFFFFFFFFF
310
FFFFBA16FFFFFFFF7F1617161617174DEAFFFFFFEA41FFFFFFFFFFAA4D16174E
310
9BFFFFFFFFFF34730000FFFFFFFFFFFFB9161617171617FFFFFFFFFFBA161616
310
16164EFFFFFFFFFFFFFF4F16161717169B1617161716175BFFFFFFFFFFFF7417
310
16171616168D171717161617FFFFFFFFFFFFEA2616171717167416FFFFFFFFFF
310
16171616171717171717EAFFFFFFFFFFFFFFFFFFFFFFFFFFFFFF6716FFFFFFFF
310
7F4EFFFFFFFFBA2573FFFFFFFFBAFFFFFFFFAA167FB9BB9B269BFFFFFFFF664F
310
0000FFFFFFFFFFFFB9171616161616FFFFFFFFFFBA16161717164EFFFFFFFFFF
310
FFFF4E16161616174E161617171626EAFFFFFFFFFFFFFF4E16161616164E1716
310
16161617FFFFFFFFFFFF671616161716347F16FFFFFFFFFF16B9FFFFFFFFFFFF
310
D9168DFFFFFFFFFFFFFFFFFFFFFFFFFFFFEA1716FFFFFFFF7F4EFFFFFFFFFF7F
310
4EFFFFFFFFFFFFFFFFFF5B66FFFFFFEA347FFFFFFFFF7F4D0000FFFFFFFFFFFF
310
B9171616171617FFFFFFFFFFBA17161716174EFFFFFFFFFFFFFF4D1716161617
310
17161716161673FFFFFFFFFFFFFFFF9B1617161717161616171616174F4E4E4E
310
4E341616171616167E7F16FFFFFFFFFF16BAFFFFFFFFFFFFFF5B41FFFFFFFF34
310
1616171616BAFFFFFF9B1716FFFFFFFF7F4EFFFFFFFFFF4E4EFFFFFFFF734E4E
310
4E4E267EDA9B67164EEAFFFFFFFF744D0000FFFFFFFFFFFFBA171717161617FF
310
FFFFFFFFBA1616171616347F7F7F7F80807F331616161717161717161716B9FF
310
FFFFFFFFFFFFFFE9161616161616171716161716171616161616171616171734
310
EA7F16FFFFFFFFFF16BAFFFFFFFFFFFFFFAA17C9FFFFFF7326BABA5B25FFFFFF
310
FF401716FFFFFFFF7F264F4E4E4E4217AAFFFFFFEA16677F73261616164173CA
310
FFFFFFFFFFFF417F0000FFFFFFFFFFFFBA171616171617FFFFFFFFFFBA161616
310
17171616161616161616161717161616161616161617EAFFFFFFFFFFFFFFFFFF
310
261717161716161617161616161617161617161616174EEAFF8016FFFFFFFFFF
310
17BAFFFFFFFFFFFFFFFF3467FFFFFFC916C9FF3467FFFFFFDA166716FFFFFFFF
310
9C4D4E4E4E4E67AAFFFFFFFF6834FF7F262567AAEAFFFFFFFFFFFFFFFF9B17D9
310
0000FFFFFFFFFFFFB9161616161616FFFFFFFFFFBA1617161717171616161616
310
1716171716161716161617171716FFFFFFFFFFFFFFFFFFFF4E17161716171616
310
1617171616161716171717161616169BFF7F17FFFFFFFFFF17B9FFFFFFFFFFFF
310
FFFF7326FFFFFFFF3473DA16AAFFFFFF7317AA16FFFFFFFFFFFFFFFFFFFFFFFF
310
FFFFEA6725BA4E167FEAFFFFFFFFFFFFFFFFFFFF9C167FFF0000FFFFFFFFFFFF
310
B9161717171716FFFFFFFFFFBA16161716171616171717161617161716161616
310
171617171617EAFFFFFFFFFFFFFFFFFF26161717161616161616161617171616
310
1616161616171616AA8016FFFFFFFFFF16BAFFFFFFFFFFFFFFFFDA179BFFFFFF
310
74348D26FFFFFFFF2566B917FFFFFFFFD8BAB9BAB9BADAFFFFEA41169B7425C9
310
FFFFFFFFFFFFFFFFFFFFAB4F1680FFFF0000FFFFFFFFFFFFBA161717171617FF
310
FFFFFFFFBA17161717161617171617161616161617171616171716171617BBFF
310
FFFFFFFFFFFFFFE9171616161617161617161716FFFFFFFFFFD9671616161617
310
348017FFFFFFFFFF16BAFFFFFFFFFFFFFFFFFF4E5AFFFFFFC916265AFFFFFFAA
310
16AABA16FFFFFFFF7F1617161616179BFFFFEB4127168DFFFFFFFFFFFFFFD99B
310
6734175AC9FFFFFF0000FFFFFFFFFFFFB9161617171617FFFFFFFFFFBB161616
310
1616347F807F7F7F7F8033171716171617171616161672FFFFFFFFFFFFFFFF9C
310
171617171617161716161617FFFFFFFFFFFFFF4117161616174E17FFFFFFFFFF
310
16BAFFFFFFFFFFFFFFFFFF9B16DAFFFFFF34169BFFFFFF5A26FFB917FFFFFFFF
310
7F4EFFFFFFEA5B26FFFFFFEA2616EAFFFFFFFFDA743416331617414E4E4E4ECA
310
0000FFFFFFFFFFFFBA161716161616FFFFFFFFFFBA17171616164EFFFFFFFFFF
310
FFFF4E16161717174E161717171626EBFFFFFFFFFFFFFF4E16161617165B1616
310
16171617FFFFFFFFFFFFFF6716161616161617FFFFFFFFFF16BAFFFFFFFFFFFF
310
FFFFFFEA268CFFFFFF7316EAFFFFEB1774FFB916FFFFFFFF7F4EFFFFFFFF7316
310
FFFFFFFF6826FFFFFFFFEB264D9CEABA257F807F7F6616BA0000FFFFFFFFFFFF
310
BA161716161616FFFFFFFFFFBA16171616164DFFFFFFFFFFFFFF4E1617161617
310
9B1617171717165BEBFFFFFFFFFF671616161617179B171616161616FFFFFFFF
310
FFFFFF3417161617171617FFFFFFFFFF17BAFFFFFFFFFFFFFFFFFFFF6734FFFF
310
FFEBCAFFFFFF8D17C9FFBA17FFFFFFFF7F357F808066174FFFFFFFFF7F16FFFF
310
FFFFD91673B99B415BFFFFFFFFBA16DA00009B7F7F7F807F671617161616167F
310
80807F7E6617161616164EFFFFFFFFFFFFFF4E1616161617B94E171716161616
310
349BC9D9AA4E16171616161634FF161617161717B9B9BAB9BA9B411716171716
310
163416FFFFFFFFFF16B9FFFFFFFFFFFFFFFFFFFFC917CAFFFFFFFFFFFFFF3342
310
FFFFBA17FFFFFFFF9B4E4E4F4E4E66EAFFFFFFFF5B16C9FFFFFFFFAA4E164E73
310
EAFFFFFFFF8D26FF00004E161716161616171617171616171717171617161616
310
17174EFFFFFFFFFFFFFF4E1717171616B9D92616171716171716171717171716
310
16171716AAFF161717171617161617171616161617161716166717FFFFFFFFFF
310
17B9FFFFFFFFFFFFFFFFFFFFFF3467FFFFFFFFFFFFCA168CFFFFBB17FFFFFFFF
310
FFFFFFFFFFFFFFFFFFFFFFEA26265BFFFFFFFFFFFFFFFFFFFFFFFFFFEA3467FF
310
00004D16161616161617161717161617161616171617171616164EFFFFFFFFFF
310
FFFF4D1617161616BAFF9B1616161616161716161616171717161766FFFF1616
310
16171617161617161716171616171717667F16FFFFFFFFFF17BAFFFFFFFFFFFF
310
FFFFFFFFFF8C26EAFFFFFFFFFF6617EAFFFFBA17FFFFFFFFFFFFFFFFFFFFFFFF
310
FFFFEA5A25BA269BFFFFFFFFFFFFFFFFFFFFFFFF6616DAFF00004E1616171616
310
1616161616161716161617171616171616174EFFFFFFFFFFFFFF4D1717171716
310
B9FFFF9C161616161616161716161717171667FFFFFF17161717171716161617
310
1716161616161641E97E16FFFFFFFFFF16B9FFFFFFFFFFFFFFFFFFFFFFEA169B
310
FFFFFFFFEA265BFFFFFFB916FFFFFFFFFFFFFFFFFFFFFFFFFF9B3416AAFF9B17
310
67EAFFFFFFFFFFFFFFFFEA5B169BFFFF00004D17161716161616161717171616
310
161717161716171716174EFFFFFFFFFFFFFF4D1616161616BAFFFFFFBB411616
310
161716161616171634ABFFFFFFFF161716161617171716171617171617267FFF
310
FF7F164E4E4E4E4F17BAFFFFFFFFFFFFFFFFFFFFFFFF66344D4E4E4F4117AAFF
310
FFFFBA174E4E4E4D4E4D4D4E4E4E4E4116174EBBFFFFFFCA342666ABEAFFFFEA
310
AA6725269CFFFFFF0000724F4E4D4D4D4E4D4D4E4E4E4D4E4E4E4E4E4E4E4E4D
310
4E4E74FFFFFFFFFFFFFF734E4E4E4D4ECAFFFFFFFFFFAA663416171717265B9B
310
FFFFFFFFFFFF7F8080807F80807F7F7F7F7F807FBAFFFFFFFF9B4E4E4F4D4D4E
310
4DC9FFFFFFFFFFFFFFFFFFFFFFFFBA4E4E4E4E4D4E4EFFFFFFFFC94E4E4E4F4E
310
4E4E4D4E4E5A807F9CD9FFFFFFFFFFFFFF9B5B2617171716174E8DEAFFFFFFFF
310
0000000000000000000000000000000000000000000000000000000000000000
  1
OLE
  0
ENDSEC
  0
SECTION
  2
OBJECTS
  0
DICTIONARY
  5
C
330
0
100
AcDbDictionary
281
     1
  3
ACAD_GROUP
350
D
  3
ACAD_LAYOUT
350
1A
  3
ACAD_MLINESTYLE
350
17
  3
ACAD_PLOTSETTINGS
350
19
  3
ACAD_PLOTSTYLENAME
350
E
  0
DICTIONARY
  5
D
102
{ACAD_REACTORS
330
C
102
}
330
C
100
AcDbDictionary
281
     1
  0
DICTIONARY
  5
1A
102
{ACAD_REACTORS
330
C
102
}
330
C
100
AcDbDictionary
281
     1
  3
Layout1
350
1E
  3
Layout2
350
26
  3
Model
350
22
  0
DICTIONARY
  5
17
102
{ACAD_REACTORS
330
C
102
}
330
C
100
AcDbDictionary
281
     1
  3
Standard
350
18
  0
DICTIONARY
  5
19
102
{ACAD_REACTORS
330
C
102
}
330
C
100
AcDbDictionary
281
     1
  0
ACDBDICTIONARYWDFLT
  5
E
102
{ACAD_REACTORS
330
C
102
}
330
C
100
AcDbDictionary
281
     1
  3
Normal
350
F
100
AcDbDictionaryWithDefault
340
F
  0
LAYOUT
  5
1E
102
{ACAD_REACTORS
330
1A
102
}
330
1A
100
AcDbPlotSettings
  1

  2
none_device
  4

  6

 40
0.0
 41
0.0
 42
0.0
 43
0.0
 44
0.0
 45
0.0
 46
0.0
 47
0.0
 48
0.0
 49
0.0
140
0.0
141
0.0
142
1.0
143
1.0
 70
   688
 72
     0
 73
     0
 74
     5
  7

 75
    16
147
1.0
148
0.0
149
0.0
100
AcDbLayout
  1
Layout1
 70
     1
 71
     1
 10
0.0
 20
0.0
 11
420.0
 21
297.0
 12
0.0
 22
0.0
 32
0.0
 14
1.0000000000E+20
 24
1.0000000000E+20
 34
1.0000000000E+20
 15
-1.0000000000E+20
 25
-1.0000000000E+20
 35
-1.0000000000E+20
146
0.0
 13
0.0
 23
0.0
 33
0.0
 16
1.0
 26
0.0
 36
0.0
 17
0.0
 27
1.0
 37
0.0
 76
     0
330
1B
  0
LAYOUT
  5
26
102
{ACAD_REACTORS
330
1A
102
}
330
1A
100
AcDbPlotSettings
  1

  2
none_device
  4

  6

 40
0.0
 41
0.0
 42
0.0
 43
0.0
 44
0.0
 45
0.0
 46
0.0
 47
0.0
 48
0.0
 49
0.0
140
0.0
141
0.0
142
1.0
143
1.0
 70
   688
 72
     0
 73
     0
 74
     5
  7

 75
    16
147
1.0
148
0.0
149
0.0
100
AcDbLayout
  1
Layout2
 70
     1
 71
     2
 10
0.0
 20
0.0
 11
0.0
 21
0.0
 12
0.0
 22
0.0
 32
0.0
 14
0.0
 24
0.0
 34
0.0
 15
0.0
 25
0.0
 35
0.0
146
0.0
 13
0.0
 23
0.0
 33
0.0
 16
1.0
 26
0.0
 36
0.0
 17
0.0
 27
1.0
 37
0.0
 76
     0
330
23
  0
LAYOUT
  5
22
102
{ACAD_REACTORS
330
1A
102
}
330
1A
100
AcDbPlotSettings
  1

  2
none_device
  4

  6

 40
0.0
 41
0.0
 42
0.0
 43
0.0
 44
0.0
 45
0.0
 46
0.0
 47
0.0
 48
0.0
 49
0.0
140
0.0
141
0.0
142
1.0
143
1.0
 70
  1712
 72
     0
 73
     0
 74
     0
  7

 75
     0
147
1.0
148
0.0
149
0.0
100
AcDbLayout
  1
Model
 70
     1
 71
     0
 10
0.0
 20
0.0
 11
279.4
 21
215.9
 12
0.0
 22
0.0
 32
0.0
 14
0.0
 24
0.0
 34
0.0
 15
279.4
 25
215.9
 35
0.0
146
0.0
 13
0.0
 23
0.0
 33
0.0
 16
1.0
 26
0.0
 36
0.0
 17
0.0
 27
1.0
 37
0.0
 76
     0
330
1F
331
29
  0
MLINESTYLE
  5
18
102
{ACAD_REACTORS
330
17
102
}
330
17
100
AcDbMlineStyle
  2
Standard
 70
     0
  3

 62
   256
 51
90.0
 52
90.0
 71
     2
 49
0.5
 62
   256
  6
BYLAYER
 49
-0.5
 62
   256
  6
BYLAYER
  0
ACDBPLACEHOLDER
  5
F
102
{ACAD_REACTORS
330
E
102
}
330
E
  0
ENDSEC
  0
EOF
