  0
SECTION
  2
HEADER
  9
$ACADVER
  1
AC1015
  9
$ACADMAINTVER
 70
     6
  9
$DWGCODEPAGE
  3
ANSI_1252
  9
$INSBASE
 10
0.0
 20
0.0
 30
0.0
  9
$EXTMIN
 10
0.0
 20
0.0
 30
0.0
  9
$EXTMAX
 10
139.7
 20
107.95
 30
0.0
  9
$LIMMIN
 10
0.0
 20
0.0
  9
$LIMMAX
 10
139.7
 20
107.95
  9
$ORTHOMODE
 70
     0
  9
$REGENMODE
 70
     1
  9
$FILLMODE
 70
     1
  9
$QTEXTMODE
 70
     0
  9
$MIRRTEXT
 70
     1
  9
$LTSCALE
 40
0.5
  9
$ATTMODE
 70
     1
  9
$TEXTSIZE
 40
1.4111111111
  9
$TRACEWID
 40
1.0
  9
$TEXTSTYLE
  7
Standard
  9
$CLAYER
  8
0
  9
$CELTYPE
  6
ByLayer
  9
$CECOLOR
 62
   256
  9
$CELTSCALE
 40
1.0
  9
$DISPSILH
 70
     0
  9
$DIMSCALE
 40
1.0
  9
$DIMASZ
 40
1.5875
  9
$DIMEXO
 40
0.635
  9
$DIMDLI
 40
3.75
  9
$DIMRND
 40
0.0
  9
$DIMDLE
 40
0.0
  9
$DIMEXE
 40
0.889
  9
$DIMTP
 40
0.0
  9
$DIMTM
 40
0.0
  9
$DIMTXT
 40
1.4111111111
  9
$DIMCEN
 40
2.5
  9
$DIMTSZ
 40
0.0
  9
$DIMTOL
 70
     0
  9
$DIMLIM
 70
     0
  9
$DIMTIH
 70
     1
  9
$DIMTOH
 70
     1
  9
$DIMSE1
 70
     0
  9
$DIMSE2
 70
     0
  9
$DIMTAD
 70
     0
  9
$DIMZIN
 70
     1
  9
$DIMBLK
  1

  9
$DIMASO
 70
     1
  9
$DIMSHO
 70
     1
  9
$DIMPOST
  1

  9
$DIMAPOST
  1

  9
$DIMALT
 70
     0
  9
$DIMALTD
 70
     3
  9
$DIMALTF
 40
0.0393700787
  9
$DIMLFAC
 40
1.0
  9
$DIMTOFL
 70
     1
  9
$DIMTVP
 40
0.0
  9
$DIMTIX
 70
     0
  9
$DIMSOXD
 70
     0
  9
$DIMSAH
 70
     0
  9
$DIMBLK1
  1

  9
$DIMBLK2
  1

  9
$DIMSTYLE
  2
ISO-25
  9
$DIMCLRD
 70
     0
  9
$DIMCLRE
 70
     0
  9
$DIMCLRT
 70
     0
  9
$DIMTFAC
 40
1.0
  9
$DIMGAP
 40
1.27
  9
$DIMJUST
 70
     0
  9
$DIMSD1
 70
     0
  9
$DIMSD2
 70
     0
  9
$DIMTOLJ
 70
     0
  9
$DIMTZIN
 70
     1
  9
$DIMALTZ
 70
     0
  9
$DIMALTTZ
 70
     0
  9
$DIMUPT
 70
     0
  9
$DIMDEC
 70
     1
  9
$DIMTDEC
 70
     1
  9
$DIMALTU
 70
     2
  9
$DIMALTTD
 70
     3
  9
$DIMTXSTY
  7
Standard
  9
$DIMAUNIT
 70
     0
  9
$DIMADEC
 70
     0
  9
$DIMALTRND
 40
0.0
  9
$DIMAZIN
 70
     0
  9
$DIMDSEP
 70
    44
  9
$DIMATFIT
 70
     3
  9
$DIMFRAC
 70
     0
  9
$DIMLDRBLK
  1

  9
$DIMLUNIT
 70
     2
  9
$DIMLWD
 70
    -2
  9
$DIMLWE
 70
    -2
  9
$DIMTMOVE
 70
     0
  9
$LUNITS
 70
     2
  9
$LUPREC
 70
     1
  9
$SKETCHINC
 40
1.0
  9
$FILLETRAD
 40
10.0
  9
$AUNITS
 70
     1
  9
$AUPREC
 70
     0
  9
$MENU
  1
.
  9
$ELEVATION
 40
0.0
  9
$PELEVATION
 40
0.0
  9
$THICKNESS
 40
0.0
  9
$LIMCHECK
 70
     0
  9
$CHAMFERA
 40
0.0
  9
$CHAMFERB
 40
0.0
  9
$CHAMFERC
 40
0.0
  9
$CHAMFERD
 40
0.0
  9
$SKPOLY
 70
     0
  9
$TDCREATE
 40
2459195.489688681
  9
$TDUCREATE
 40
2459195.698022014
  9
$TDUPDATE
 40
2459195.489691875
  9
$TDUUPDATE
 40
2459195.698025208
  9
$TDINDWG
 40
0.0000000116
  9
$TDUSRTIMER
 40
0.0000000116
  9
$USRTIMER
 70
     1
  9
$ANGBASE
 50
0.0
  9
$ANGDIR
 70
     0
  9
$PDMODE
 70
     0
  9
$PDSIZE
 40
-1.0
  9
$PLINEWID
 40
0.0
  9
$SPLFRAME
 70
     0
  9
$SPLINETYPE
 70
     6
  9
$SPLINESEGS
 70
     8
  9
$HANDSEED
  5
1FB
  9
$SURFTAB1
 70
     6
  9
$SURFTAB2
 70
     6
  9
$SURFTYPE
 70
     6
  9
$SURFU
 70
     6
  9
$SURFV
 70
     6
  9
$UCSBASE
  2

  9
$UCSNAME
  2

  9
$UCSORG
 10
0.0
 20
0.0
 30
0.0
  9
$UCSXDIR
 10
1.0
 20
0.0
 30
0.0
  9
$UCSYDIR
 10
0.0
 20
1.0
 30
0.0
  9
$UCSORTHOREF
  2

  9
$UCSORTHOVIEW
 70
     0
  9
$UCSORGTOP
 10
0.0
 20
0.0
 30
0.0
  9
$UCSORGBOTTOM
 10
0.0
 20
0.0
 30
0.0
  9
$UCSORGLEFT
 10
0.0
 20
0.0
 30
0.0
  9
$UCSORGRIGHT
 10
0.0
 20
0.0
 30
0.0
  9
$UCSORGFRONT
 10
0.0
 20
0.0
 30
0.0
  9
$UCSORGBACK
 10
0.0
 20
0.0
 30
0.0
  9
$PUCSBASE
  2

  9
$PUCSNAME
  2

  9
$PUCSORG
 10
0.0
 20
0.0
 30
0.0
  9
$PUCSXDIR
 10
1.0
 20
0.0
 30
0.0
  9
$PUCSYDIR
 10
0.0
 20
1.0
 30
0.0
  9
$PUCSORTHOREF
  2

  9
$PUCSORTHOVIEW
 70
     0
  9
$PUCSORGTOP
 10
0.0
 20
0.0
 30
0.0
  9
$PUCSORGBOTTOM
 10
0.0
 20
0.0
 30
0.0
  9
$PUCSORGLEFT
 10
0.0
 20
0.0
 30
0.0
  9
$PUCSORGRIGHT
 10
0.0
 20
0.0
 30
0.0
  9
$PUCSORGFRONT
 10
0.0
 20
0.0
 30
0.0
  9
$PUCSORGBACK
 10
0.0
 20
0.0
 30
0.0
  9
$USERI1
 70
     0
  9
$USERI2
 70
     0
  9
$USERI3
 70
     0
  9
$USERI4
 70
     0
  9
$USERI5
 70
     0
  9
$USERR1
 40
0.0
  9
$USERR2
 40
0.0
  9
$USERR3
 40
0.0
  9
$USERR4
 40
0.0
  9
$USERR5
 40
0.0
  9
$WORLDVIEW
 70
     1
  9
$SHADEDGE
 70
     3
  9
$SHADEDIF
 70
    70
  9
$TILEMODE
 70
     1
  9
$MAXACTVP
 70
    64
  9
$PINSBASE
 10
0.0
 20
0.0
 30
0.0
  9
$PLIMCHECK
 70
     0
  9
$PEXTMIN
 10
1.0000000000E+20
 20
1.0000000000E+20
 30
1.0000000000E+20
  9
$PEXTMAX
 10
-1.0000000000E+20
 20
-1.0000000000E+20
 30
-1.0000000000E+20
  9
$PLIMMIN
 10
0.0
 20
0.0
  9
$PLIMMAX
 10
420.0
 20
297.0
  9
$UNITMODE
 70
     0
  9
$VISRETAIN
 70
     1
  9
$PLINEGEN
 70
     0
  9
$PSLTSCALE
 70
     1
  9
$TREEDEPTH
 70
  3020
  9
$CMLSTYLE
  2
Standard
  9
$CMLJUST
 70
     0
  9
$CMLSCALE
 40
20.0
  9
$PROXYGRAPHICS
 70
     1
  9
$MEASUREMENT
 70
     1
  9
$CELWEIGHT
370
    -1
  9
$ENDCAPS
280
     0
  9
$JOINSTYLE
280
     0
  9
$LWDISPLAY
290
     1
  9
$INSUNITS
 70
     4
  9
$HYPERLINKBASE
  1

  9
$STYLESHEET
  1

  9
$XEDIT
290
     1
  9
$CEPSNTYPE
380
     0
  9
$PSTYLEMODE
290
     1
  9
$FINGERPRINTGUID
  2
{1C5C4D60-F5B0-40B8-9496-2D136BD0BCA1}
  9
$VERSIONGUID
  2
{FAEB1C32-E019-11D5-929B-00C0DF256EC4}
  9
$EXTNAMES
290
     1
  9
$PSVPSCALE
 40
0.0
  9
$OLESTARTUP
290
     0
  0
ENDSEC
  0
SECTION
  2
CLASSES
  0
CLASS
  1
ACDBDICTIONARYWDFLT
  2
AcDbDictionaryWithDefault
  3
ObjectDBX Classes
 90
        0
280
     0
281
     0
  0
CLASS
  1
VISUALSTYLE
  2
AcDbVisualStyle
  3
ObjectDBX Classes
 90
     4095
280
     0
281
     0
  0
CLASS
  1
MATERIAL
  2
AcDbMaterial
  3
ObjectDBX Classes
 90
     1153
280
     0
281
     0
  0
CLASS
  1
SCALE
  2
AcDbScale
  3
ObjectDBX Classes
 90
     1153
280
     0
281
     0
  0
CLASS
  1
TABLESTYLE
  2
AcDbTableStyle
  3
ObjectDBX Classes
 90
     4095
280
     0
281
     0
  0
CLASS
  1
MLEADERSTYLE
  2
AcDbMLeaderStyle
  3
ACDB_MLEADERSTYLE_CLASS
 90
     4095
280
     0
281
     0
  0
CLASS
  1
SUN
  2
AcDbSun
  3
SCENEOE
 90
     1153
280
     0
281
     0
  0
CLASS
  1
ACDBPLACEHOLDER
  2
AcDbPlaceHolder
  3
ObjectDBX Classes
 90
        0
280
     0
281
     0
  0
CLASS
  1
LAYOUT
  2
AcDbLayout
  3
ObjectDBX Classes
 90
        0
280
     0
281
     0
  0
ENDSEC
  0
SECTION
  2
TABLES
  0
TABLE
  2
VPORT
  5
8
330
0
100
AcDbSymbolTable
 70
     1
  0
VPORT
  5
29
330
8
100
AcDbSymbolTableRecord
100
AcDbViewportTableRecord
  2
*Active
 70
     0
 10
0.0
 20
0.0
 11
1.0
 21
1.0
 12
69.85
 22
53.975
 13
0.0
 23
0.0
 14
10.0
 24
10.0
 15
10.0
 25
10.0
 16
0.0
 26
0.0
 36
1.0
 17
0.0
 27
0.0
 37
0.0
 40
107.95
 41
1.2941176471
 42
50.0
 43
0.0
 44
0.0
 50
0.0
 51
0.0
 71
     0
 72
  2000
 73
     1
 74
     3
 75
     0
 76
     0
 77
     0
 78
     0
281
     0
 65
     1
110
0.0
120
0.0
130
0.0
111
1.0
121
0.0
131
0.0
112
0.0
122
1.0
132
0.0
 79
     0
146
0.0
  0
ENDTAB
  0
TABLE
  2
LTYPE
  5
5
330
0
100
AcDbSymbolTable
 70
     6
  0
LTYPE
  5
14
330
5
100
AcDbSymbolTableRecord
100
AcDbLinetypeTableRecord
  2
ByBlock
 70
     0
  3

 72
    65
 73
     0
 40
0.0
  0
LTYPE
  5
15
330
5
100
AcDbSymbolTableRecord
100
AcDbLinetypeTableRecord
  2
ByLayer
 70
     0
  3

 72
    65
 73
     0
 40
0.0
  0
LTYPE
  5
16
330
5
100
AcDbSymbolTableRecord
100
AcDbLinetypeTableRecord
  2
Continuous
 70
     0
  3
Solid line
 72
    65
 73
     0
 40
0.0
  0
LTYPE
  5
6E
330
5
100
AcDbSymbolTableRecord
100
AcDbLinetypeTableRecord
  2
HIDDEN
 70
     0
  3
Hidden __ __ __ __ __ __ __ __ __ __ __ __ __ __
 72
    65
 73
     2
 40
1.905
 49
1.27
 74
     0
 49
-0.635
 74
     0
  0
LTYPE
  5
6F
330
5
100
AcDbSymbolTableRecord
100
AcDbLinetypeTableRecord
  2
PHANTOM
 70
     0
  3
Phantom ______  __  __  ______  __  __  ______
 72
    65
 73
     6
 40
12.7
 49
6.35
 74
     0
 49
-1.27
 74
     0
 49
1.27
 74
     0
 49
-1.27
 74
     0
 49
1.27
 74
     0
 49
-1.27
 74
     0
  0
LTYPE
  5
70
330
5
100
AcDbSymbolTableRecord
100
AcDbLinetypeTableRecord
  2
CENTER
 70
     0
  3
Center ____ _ ____ _ ____ _ ____ _ ____ _ ____
 72
    65
 73
     4
 40
10.16
 49
6.35
 74
     0
 49
-1.27
 74
     0
 49
1.27
 74
     0
 49
-1.27
 74
     0
  0
LTYPE
  5
71
330
5
100
AcDbSymbolTableRecord
100
AcDbLinetypeTableRecord
  2
CENTERX2
 70
     0
  3
Center (2x) ________  __  ________  __  _____
 72
    65
 73
     4
 40
20.32
 49
12.7
 74
     0
 49
-2.54
 74
     0
 49
2.54
 74
     0
 49
-2.54
 74
     0
  0
LTYPE
  5
72
330
5
100
AcDbSymbolTableRecord
100
AcDbLinetypeTableRecord
  2
DOT2
 70
     0
  3
Dot (.5x) ........................................
 72
    65
 73
     2
 40
0.635
 49
0.0
 74
     0
 49
-0.635
 74
     0
  0
ENDTAB
  0
TABLE
  2
LAYER
  5
2
330
0
100
AcDbSymbolTable
 70
     2
  0
LAYER
  5
10
330
2
100
AcDbSymbolTableRecord
100
AcDbLayerTableRecord
  2
0
 70
     0
 62
     7
  6
Continuous
370
    -3
390
F
  0
LAYER
  5
73
330
2
100
AcDbSymbolTableRecord
100
AcDbLayerTableRecord
  2
FORMAT
 70
     0
 62
     7
  6
Continuous
370
    -3
390
F
  0
ENDTAB
  0
TABLE
  2
STYLE
  5
3
330
0
100
AcDbSymbolTable
 70
     4
  0
STYLE
  5
11
330
3
100
AcDbSymbolTableRecord
100
AcDbTextStyleTableRecord
  2
Standard
 70
     0
 40
0.0
 41
1.0
 50
0.0
 71
     0
 42
1.4111111111
  3
txt
  4

  0
STYLE
  5
9A
330
3
100
AcDbSymbolTableRecord
100
AcDbTextStyleTableRecord
  2
SLDTEXTSTYLE0
 70
     0
 40
0.0
 41
0.75
 50
0.0
 71
     0
 42
1.4111111111
  3
TXT
  4

  0
STYLE
  5
A6
330
3
100
AcDbSymbolTableRecord
100
AcDbTextStyleTableRecord
  2
SLDTEXTSTYLE1
 70
     0
 40
0.0
 41
0.6
 50
0.0
 71
     0
 42
1.4111111111
  3
TXT
  4

  0
STYLE
  5
AB
330
3
100
AcDbSymbolTableRecord
100
AcDbTextStyleTableRecord
  2
SLDTEXTSTYLE2
 70
     0
 40
0.0
 41
0.7
 50
0.0
 71
     0
 42
1.4111111111
  3
TXT
  4

  0
ENDTAB
  0
TABLE
  2
VIEW
  5
6
330
0
100
AcDbSymbolTable
 70
     0
  0
ENDTAB
  0
TABLE
  2
UCS
  5
7
330
0
100
AcDbSymbolTable
 70
     0
  0
ENDTAB
  0
TABLE
  2
APPID
  5
9
330
0
100
AcDbSymbolTable
 70
     1
  0
APPID
  5
12
330
9
100
AcDbSymbolTableRecord
100
AcDbRegAppTableRecord
  2
ACAD
 70
     0
  0
ENDTAB
  0
TABLE
  2
DIMSTYLE
  5
A
330
0
100
AcDbSymbolTable
 70
     5
100
AcDbDimStyleTable
  0
DIMSTYLE
105
27
330
A
100
AcDbSymbolTableRecord
100
AcDbDimStyleTableRecord
  2
ISO-25
 70
     0
 41
2.5
 42
0.625
 43
3.75
 44
1.25
 73
     0
 74
     0
 77
     1
 78
     8
140
2.5
141
2.5
143
0.0393700787
147
0.625
171
     3
172
     1
178
     0
271
     2
272
     2
274
     3
278
    44
283
     0
284
     8
340
11
  0
DIMSTYLE
105
E8
102
{ACAD_REACTORS
330
E7
102
}
330
A
100
AcDbSymbolTableRecord
100
AcDbDimStyleTableRecord
  2
SLDDIMSTYLE0
 70
     0
 41
1.5875
 44
0.0
 45
0.000000001
 78
    12
 79
     3
140
1.0583333333
141
0.0
143
0.0393700787
147
0.2645833333
148
0.000000001
170
     1
173
     1
178
     0
271
     1
272
     1
276
     2
284
    12
340
9A
  0
DIMSTYLE
105
166
102
{ACAD_REACTORS
330
165
102
}
330
A
100
AcDbSymbolTableRecord
100
AcDbDimStyleTableRecord
  2
SLDDIMSTYLE1
 70
     0
 41
1.5875
 44
0.0
 45
0.000000001
 78
     4
 79
     1
140
1.0583333333
143
0.0393700787
147
0.2645833333
148
0.000000001
170
     1
172
     1
173
     1
178
     0
271
     1
272
     1
276
     2
284
    12
289
     0
340
9A
  0
DIMSTYLE
105
17B
102
{ACAD_REACTORS
330
17A
102
}
330
A
100
AcDbSymbolTableRecord
100
AcDbDimStyleTableRecord
  2
SLDDIMSTYLE2
 70
     0
 41
1.5875
 44
0.0
 78
     8
 79
     2
140
1.0583333333
143
0.0393700787
144
0.5
147
0.2645833333
148
0.000000001
170
     1
173
     1
178
     0
272
     0
276
     2
284
    12
340
9A
  0
DIMSTYLE
105
187
330
A
100
AcDbSymbolTableRecord
100
AcDbDimStyleTableRecord
  2
SLDDIMSTYLE3
 70
     0
 41
1.5875
 44
0.0
 45
0.000000001
146
1.5875
147
0.0
173
     1
178
     0
271
     0
272
     0
276
     2
340
11
  0
ENDTAB
  0
TABLE
  2
BLOCK_RECORD
  5
1
330
0
100
AcDbSymbolTable
 70
    10
  0
BLOCK_RECORD
  5
1F
330
1
100
AcDbSymbolTableRecord
100
AcDbBlockTableRecord
  2
*Model_Space
340
22
  0
BLOCK_RECORD
  5
1B
330
1
100
AcDbSymbolTableRecord
100
AcDbBlockTableRecord
  2
*Paper_Space
340
1E
  0
BLOCK_RECORD
  5
23
330
1
100
AcDbSymbolTableRecord
100
AcDbBlockTableRecord
  2
*Paper_Space0
340
26
  0
BLOCK_RECORD
  5
74
330
1
100
AcDbSymbolTableRecord
100
AcDbBlockTableRecord
  2
Third Angle Projection Block
340
0
102
{BLKREFS
331
99
102
}
  0
BLOCK_RECORD
  5
AD
330
1
100
AcDbSymbolTableRecord
100
AcDbBlockTableRecord
  2
SW_NOTE_0
340
0
102
{BLKREFS
331
B2
102
}
  0
BLOCK_RECORD
  5
B3
330
1
100
AcDbSymbolTableRecord
100
AcDbBlockTableRecord
  2
SW_NOTE_1
340
0
102
{BLKREFS
331
B8
102
}
  0
BLOCK_RECORD
  5
BA
330
1
100
AcDbSymbolTableRecord
100
AcDbBlockTableRecord
  2
SW_NOTE_2
340
0
102
{BLKREFS
331
BF
102
}
  0
BLOCK_RECORD
  5
C0
330
1
100
AcDbSymbolTableRecord
100
AcDbBlockTableRecord
  2
SW_NOTE_3
340
0
102
{BLKREFS
331
C7
102
}
  0
BLOCK_RECORD
  5
C9
330
1
100
AcDbSymbolTableRecord
100
AcDbBlockTableRecord
  2
SW_NOTE_4
340
0
102
{BLKREFS
331
E4
102
}
  0
BLOCK_RECORD
  5
E9
330
1
100
AcDbSymbolTableRecord
100
AcDbBlockTableRecord
  2
_D
340
0
  0
BLOCK_RECORD
  5
167
330
1
100
AcDbSymbolTableRecord
100
AcDbBlockTableRecord
  2
_D_1
340
0
  0
BLOCK_RECORD
  5
17C
330
1
100
AcDbSymbolTableRecord
100
AcDbBlockTableRecord
  2
_D_2
340
0
  0
ENDTAB
  0
ENDSEC
  0
SECTION
  2
BLOCKS
  0
BLOCK
  5
20
330
1F
100
AcDbEntity
  8
0
100
AcDbBlockBegin
  2
*Model_Space
 70
     0
 10
0.0
 20
0.0
 30
0.0
  3
*Model_Space
  1

  0
ENDBLK
  5
21
330
1F
100
AcDbEntity
  8
0
100
AcDbBlockEnd
  0
BLOCK
  5
1C
330
1B
100
AcDbEntity
 67
     1
  8
0
100
AcDbBlockBegin
  2
*Paper_Space
 70
     0
 10
0.0
 20
0.0
 30
0.0
  3
*Paper_Space
  1

  0
ENDBLK
  5
1D
330
1B
100
AcDbEntity
 67
     1
  8
0
100
AcDbBlockEnd
  0
BLOCK
  5
24
330
23
100
AcDbEntity
  8
0
100
AcDbBlockBegin
  2
*Paper_Space0
 70
     0
 10
0.0
 20
0.0
 30
0.0
  3
*Paper_Space0
  1

  0
ENDBLK
  5
25
330
23
100
AcDbEntity
  8
0
100
AcDbBlockEnd
  0
BLOCK
  5
75
330
74
100
AcDbEntity
  8
0
100
AcDbBlockBegin
  2
Third Angle Projection Block
 70
     0
 10
0.0
 20
0.0
 30
0.0
  3
Third Angle Projection Block
  1

  0
CIRCLE
  5
77
330
74
100
AcDbEntity
  8
0
  6
Continuous
 62
     7
370
    35
100
AcDbCircle
 10
50.7383194472
 20
9.4702041834
 30
0.0
 40
0.8841135768374355
  0
CIRCLE
  5
78
330
74
100
AcDbEntity
  8
0
  6
Continuous
 62
     7
370
    35
100
AcDbCircle
 10
50.7383194472
 20
9.4702041834
 30
0.0
 40
1.950614124265909
  0
LINE
  5
79
330
74
100
AcDbEntity
  8
0
  6
CENTERX2
 62
     7
370
    18
100
AcDbLine
 10
55.0683911292
 20
9.4702041834
 30
0.0
 11
59.7263667437
 21
9.4702041834
 31
0.0
  0
LINE
  5
7A
330
74
100
AcDbEntity
  8
0
  6
Continuous
 62
     7
370
    35
100
AcDbLine
 10
55.5008194472
 20
10.3543177602
 30
0.0
 11
55.5008194472
 21
8.5860906065
 31
0.0
  0
LINE
  5
7B
330
74
100
AcDbEntity
  8
0
  6
Continuous
 62
     7
370
    35
100
AcDbLine
 10
55.5008194472
 20
8.5860906065
 30
0.0
 11
59.3108194472
 21
7.5652041834
 31
0.0
  0
LINE
  5
7C
330
74
100
AcDbEntity
  8
0
  6
Continuous
 62
     7
370
    35
100
AcDbLine
 10
59.3108194472
 20
7.5652041834
 30
0.0
 11
59.3108194472
 21
11.3752041834
 31
0.0
  0
LINE
  5
7D
330
74
100
AcDbEntity
  8
0
  6
Continuous
 62
     7
370
    35
100
AcDbLine
 10
59.3108194472
 20
11.3752041834
 30
0.0
 11
55.5008194472
 21
10.3543177602
 31
0.0
  0
LINE
  5
7E
330
74
100
AcDbEntity
  8
0
  6
CENTERX2
 62
     7
370
    18
100
AcDbLine
 10
48.3012927309
 20
9.4702041834
 30
0.0
 11
53.1753461634
 21
9.4702041834
 31
0.0
  0
LINE
  5
7F
330
74
100
AcDbEntity
  8
0
  6
CENTERX2
 62
     7
370
    18
100
AcDbLine
 10
50.7383194472
 20
11.9072308996
 30
0.0
 11
50.7383194472
 21
7.0331774671
 31
0.0
  0
POINT
  5
80
330
74
100
AcDbEntity
  8
0
  6
Continuous
 62
     7
370
     0
100
AcDbPoint
 10
50.7383194472
 20
9.4702041834
 30
0.0
  0
ENDBLK
  5
76
330
74
100
AcDbEntity
  8
0
100
AcDbBlockEnd
  0
BLOCK
  5
AE
330
AD
100
AcDbEntity
  8
0
100
AcDbBlockBegin
  2
SW_NOTE_0
 70
     0
 10
0.0
 20
0.0
 30
0.0
  3
SW_NOTE_0
  1

  0
MTEXT
  5
B0
330
AD
100
AcDbEntity
  8
0
  6
Continuous
 62
     0
370
     0
100
AcDbMText
 10
9.953625
 20
0.9822696177
 30
0.0
 40
0.762
 41
0.0
 71
     2
 72
     1
  1
VALUES IN PARENTHESIS ARE CALCULATED
  7
SLDTEXTSTYLE0
 73
     1
 44
1.0
  0
MTEXT
  5
B1
330
AD
100
AcDbEntity
  8
0
  6
Continuous
 62
     0
370
     0
100
AcDbMText
 10
9.9389397587
 20
-0.2797303293
 30
0.0
 40
0.762
 41
0.0
 71
     2
 72
     1
  1
AND MAY CONTAIN ROUNDOFF ERRORS
  7
SLDTEXTSTYLE0
 73
     1
 44
1.0
  0
ENDBLK
  5
AF
330
AD
100
AcDbEntity
  8
0
100
AcDbBlockEnd
  0
BLOCK
  5
B4
330
B3
100
AcDbEntity
  8
0
100
AcDbBlockBegin
  2
SW_NOTE_1
 70
     0
 10
0.0
 20
0.0
 30
0.0
  3
SW_NOTE_1
  1

  0
MTEXT
  5
B6
330
B3
100
AcDbEntity
  8
0
  6
Continuous
 62
     0
370
     0
100
AcDbMText
 10
0.0
 20
1.3642633579
 30
0.0
 40
1.0583333333
 41
0.0
 71
     1
 72
     1
  1
DRAWING
  7
SLDTEXTSTYLE0
 73
     1
 44
1.0
  0
MTEXT
  5
B7
330
B3
100
AcDbEntity
  8
0
  6
Continuous
 62
     0
370
     0
100
AcDbMText
 10
0.0
 20
-0.0468477361
 30
0.0
 40
1.0583333333
 41
0.0
 71
     1
 72
     1
  1
PROJECTION
  7
SLDTEXTSTYLE0
 73
     1
 44
1.0
  0
ENDBLK
  5
B5
330
B3
100
AcDbEntity
  8
0
100
AcDbBlockEnd
  0
BLOCK
  5
BB
330
BA
100
AcDbEntity
  8
0
100
AcDbBlockBegin
  2
SW_NOTE_2
 70
     0
 10
0.0
 20
0.0
 30
0.0
  3
SW_NOTE_2
  1

  0
MTEXT
  5
BD
330
BA
100
AcDbEntity
  8
0
  6
Continuous
 62
     0
370
     0
100
AcDbMText
 10
12.5263671875
 20
2.0463950369
 30
0.0
 40
1.5875
 41
0.0
 71
     2
 72
     1
  1
FOR INFORMATION ONLY
  7
SLDTEXTSTYLE0
 73
     1
 44
1.0
  0
MTEXT
  5
BE
330
BA
100
AcDbEntity
  8
0
  6
Continuous
 62
     0
370
     0
100
AcDbMText
 10
12.6884234294
 20
-0.0702716042
 30
0.0
 40
1.5875
 41
0.0
 71
     2
 72
     1
  1
NOT FOR MANUFACTURING PURPOSES
  7
SLDTEXTSTYLE0
 73
     1
 44
1.0
  0
ENDBLK
  5
BC
330
BA
100
AcDbEntity
  8
0
100
AcDbBlockEnd
  0
BLOCK
  5
C1
330
C0
100
AcDbEntity
  8
0
100
AcDbBlockBegin
  2
SW_NOTE_3
 70
     0
 10
0.0
 20
0.0
 30
0.0
  3
SW_NOTE_3
  1

  0
MTEXT
  5
C3
330
C0
100
AcDbEntity
  8
0
  6
Continuous
 62
     0
370
     0
100
AcDbMText
 10
0.9508463542
 20
1.7053291974
 30
0.0
 40
1.3229166667
 41
0.0
 71
     2
 72
     1
  1
%%c
  7
SLDTEXTSTYLE0
 73
     1
 44
1.0
  0
MTEXT
  5
C4
330
C0
100
AcDbEntity
  8
0
  6
Continuous
 62
     0
370
     0
100
AcDbMText
 10
9.3349226067
 20
1.7053291974
 30
0.0
 40
1.3229166667
 41
0.0
 71
     2
 72
     1
  1
1in HIGH QUALITY
  7
SLDTEXTSTYLE0
 73
     1
 44
1.0
  0
MTEXT
  5
C5
330
C0
100
AcDbEntity
  8
0
  6
Continuous
 62
     0
370
     0
100
AcDbMText
 10
7.7623677949
 20
-0.0585596702
 30
0.0
 40
1.3229166667
 41
0.0
 71
     2
 72
     1
  1
COLD MIRROR, AOI: 0
  7
SLDTEXTSTYLE0
 73
     1
 44
1.0
  0
MTEXT
  5
C6
330
C0
100
AcDbEntity
  8
0
  6
Continuous
 62
     0
370
     0
100
AcDbMText
 10
17.5966604749
 20
-0.0585596702
 30
0.0
 40
1.3229166667
 41
0.0
 71
     2
 72
     1
  1
%%d
  7
SLDTEXTSTYLE0
 73
     1
 44
1.0
  0
ENDBLK
  5
C2
330
C0
100
AcDbEntity
  8
0
100
AcDbBlockEnd
  0
BLOCK
  5
CA
330
C9
100
AcDbEntity
  8
0
100
AcDbBlockBegin
  2
SW_NOTE_4
 70
     0
 10
0.0
 20
0.0
 30
0.0
  3
SW_NOTE_4
  1

  0
MTEXT
  5
CC
330
C9
100
AcDbEntity
  8
0
  6
Continuous
 62
     0
370
     0
100
AcDbMText
 10
0.0
 20
1.7053291974
 30
0.0
 40
1.3229166667
 41
0.0
 71
     1
 72
     1
  1
NOTES/SPECIFICATIONS:
  7
SLDTEXTSTYLE0
 73
     1
 44
1.0
  0
MTEXT
  5
CD
330
C9
100
AcDbEntity
  8
0
  6
Continuous
 62
     0
370
     0
100
AcDbMText
 10
4.9999998882
 20
-1.8224485377
 30
0.0
 40
1.3229166667
 41
0.0
 71
     1
 72
     1
  1
CLEAR APERTURE: >
  7
SLDTEXTSTYLE0
 73
     1
 44
1.0
  0
MTEXT
  5
CE
330
C9
100
AcDbEntity
  8
0
  6
Continuous
 62
     0
370
     0
100
AcDbMText
 10
21.3894667104
 20
-1.8224485377
 30
0.0
 40
1.3229166667
 41
0.0
 71
     1
 72
     1
  1
%%c
  7
SLDTEXTSTYLE0
 73
     1
 44
1.0
  0
MTEXT
  5
CF
330
C9
100
AcDbEntity
  8
0
  6
Continuous
 62
     0
370
     0
100
AcDbMText
 10
23.3863359317
 20
-1.8224485377
 30
0.0
 40
1.3229166667
 41
0.0
 71
     1
 72
     1
  1
22.86mm
  7
SLDTEXTSTYLE0
 73
     1
 44
1.0
  0
MTEXT
  5
D0
330
C9
100
AcDbEntity
  8
0
  6
Continuous
 62
     0
370
     0
100
AcDbMText
 10
0.0
 20
-1.8224485377
 30
0.0
 40
1.3229166667
 41
0.0
 71
     1
 72
     1
  1
1.
  7
SLDTEXTSTYLE0
 73
     1
 44
1.0
  0
MTEXT
  5
D1
330
C9
100
AcDbEntity
  8
0
  6
Continuous
 62
     0
370
     0
100
AcDbMText
 10
4.9999998882
 20
-3.5863374053
 30
0.0
 40
1.3229166667
 41
0.0
 71
     1
 72
     1
  1
SURFACE QUALITY: 20-10 SCRATCH-DIG
  7
SLDTEXTSTYLE0
 73
     1
 44
1.0
  0
MTEXT
  5
D2
330
C9
100
AcDbEntity
  8
0
  6
Continuous
 62
     0
370
     0
100
AcDbMText
 10
0.0
 20
-3.5863374053
 30
0.0
 40
1.3229166667
 41
0.0
 71
     1
 72
     1
  1
2.
  7
SLDTEXTSTYLE0
 73
     1
 44
1.0
  0
MTEXT
  5
D3
330
C9
100
AcDbEntity
  8
0
  6
Continuous
 62
     0
370
     0
100
AcDbMText
 10
4.9999998882
 20
-5.3502262729
 30
0.0
 40
1.3229166667
 41
0.0
 71
     1
 72
     1
  1
DIAMETER TOLERANCE: +0.00/-0.20mm
  7
SLDTEXTSTYLE0
 73
     1
 44
1.0
  0
MTEXT
  5
D4
330
C9
100
AcDbEntity
  8
0
  6
Continuous
 62
     0
370
     0
100
AcDbMText
 10
0.0
 20
-5.3502262729
 30
0.0
 40
1.3229166667
 41
0.0
 71
     1
 72
     1
  1
3.
  7
SLDTEXTSTYLE0
 73
     1
 44
1.0
  0
MTEXT
  5
D5
330
C9
100
AcDbEntity
  8
0
  6
Continuous
 62
     0
370
     0
100
AcDbMText
 10
4.9999998882
 20
-7.1141151405
 30
0.0
 40
1.3229166667
 41
0.0
 71
     1
 72
     1
  1
THICKNESS TOLERANCE:
  7
SLDTEXTSTYLE0
 73
     1
 44
1.0
  0
MTEXT
  5
D6
330
C9
100
AcDbEntity
  8
0
  6
Continuous
 62
     0
370
     0
100
AcDbMText
 10
25.4121134058
 20
-7.1141151405
 30
0.0
 40
1.3229166667
 41
0.0
 71
     1
 72
     1
  1
%%p
  7
SLDTEXTSTYLE0
 73
     1
 44
1.0
  0
MTEXT
  5
D7
330
C9
100
AcDbEntity
  8
0
  6
Continuous
 62
     0
370
     0
100
AcDbMText
 10
26.6732955351
 20
-7.1141151405
 30
0.0
 40
1.3229166667
 41
0.0
 71
     1
 72
     1
  1
0.40mm
  7
SLDTEXTSTYLE0
 73
     1
 44
1.0
  0
MTEXT
  5
D8
330
C9
100
AcDbEntity
  8
0
  6
Continuous
 62
     0
370
     0
100
AcDbMText
 10
0.0
 20
-7.1141151405
 30
0.0
 40
1.3229166667
 41
0.0
 71
     1
 72
     1
  1
4.
  7
SLDTEXTSTYLE0
 73
     1
 44
1.0
  0
MTEXT
  5
D9
330
C9
100
AcDbEntity
  8
0
  6
Continuous
 62
     0
370
     0
100
AcDbMText
 10
4.9999998882
 20
-8.878004008
 30
0.0
 40
1.3229166667
 41
0.0
 71
     1
 72
     1
  1
WEDGE TOLERANCE:
  7
SLDTEXTSTYLE0
 73
     1
 44
1.0
  0
MTEXT
  5
DA
330
C9
100
AcDbEntity
  8
0
  6
Continuous
 62
     0
370
     0
100
AcDbMText
 10
23.0063656345
 20
-8.878004008
 30
0.0
 40
1.3229166667
 41
0.0
 71
     1
 72
     1
  1
%%p
  7
SLDTEXTSTYLE0
 73
     1
 44
1.0
  0
MTEXT
  5
DB
330
C9
100
AcDbEntity
  8
0
  6
Continuous
 62
     0
370
     0
100
AcDbMText
 10
24.2675459012
 20
-8.878004008
 30
0.0
 40
1.3229166667
 41
0.0
 71
     1
 72
     1
  1
10arcmin
  7
SLDTEXTSTYLE0
 73
     1
 44
1.0
  0
MTEXT
  5
DC
330
C9
100
AcDbEntity
  8
0
  6
Continuous
 62
     0
370
     0
100
AcDbMText
 10
0.0
 20
-8.878004008
 30
0.0
 40
1.3229166667
 41
0.0
 71
     1
 72
     1
  1
5.
  7
SLDTEXTSTYLE0
 73
     1
 44
1.0
  0
MTEXT
  5
DD
330
C9
100
AcDbEntity
  8
0
  6
Continuous
 62
     0
370
     0
100
AcDbMText
 10
4.9999998882
 20
-10.6418928756
 30
0.0
 40
1.3229166667
 41
0.0
 71
     1
 72
     1
  1
FILTER COATING (S1):
  7
SLDTEXTSTYLE0
 73
     1
 44
1.0
  0
MTEXT
  5
DE
330
C9
100
AcDbEntity
  8
0
  6
Continuous
 62
     0
370
     0
100
AcDbMText
 10
0.0
 20
-10.6418928756
 30
0.0
 40
1.3229166667
 41
0.0
 71
     1
 72
     1
  1
6.
  7
SLDTEXTSTYLE0
 73
     1
 44
1.0
  0
MTEXT
  5
DF
330
C9
100
AcDbEntity
  8
0
  6
Continuous
 62
     0
370
     0
100
AcDbMText
 10
10.0
 20
-12.4057817432
 30
0.0
 40
1.3229166667
 41
0.0
 71
     1
 72
     1
  1
REFLECTION BAND (R): >97% AVERAGE, 400-690nm
  7
SLDTEXTSTYLE0
 73
     1
 44
1.0
  0
MTEXT
  5
E0
330
C9
100
AcDbEntity
  8
0
  6
Continuous
 62
     0
370
     0
100
AcDbMText
 10
10.0
 20
-14.1696706107
 30
0.0
 40
1.3229166667
 41
0.0
 71
     1
 72
     1
  1
TRANSMISSION BAND (T): >92% AVERAGE, 710-1200nm
  7
SLDTEXTSTYLE0
 73
     1
 44
1.0
  0
MTEXT
  5
E1
330
C9
100
AcDbEntity
  8
0
  6
Continuous
 62
     0
370
     0
100
AcDbMText
 10
10.0
 20
-15.9335594783
 30
0.0
 40
1.3229166667
 41
0.0
 71
     1
 72
     1
  1
0
  7
SLDTEXTSTYLE0
 73
     1
 44
1.0
  0
MTEXT
  5
E2
330
C9
100
AcDbEntity
  8
0
  6
Continuous
 62
     0
370
     0
100
AcDbMText
 10
10.9774884675
 20
-15.9335594783
 30
0.0
 40
1.3229166667
 41
0.0
 71
     1
 72
     1
  1
%%d
  7
SLDTEXTSTYLE0
 73
     1
 44
1.0
  0
MTEXT
  5
E3
330
C9
100
AcDbEntity
  8
0
  6
Continuous
 62
     0
370
     0
100
AcDbMText
 10
12.3143692948
 20
-15.9335594783
 30
0.0
 40
1.3229166667
 41
0.0
 71
     1
 72
     1
  1
AOI
  7
SLDTEXTSTYLE0
 73
     1
 44
1.0
  0
ENDBLK
  5
CB
330
C9
100
AcDbEntity
  8
0
100
AcDbBlockEnd
  0
BLOCK
  5
EA
330
E9
100
AcDbEntity
  8
0
100
AcDbBlockBegin
  2
_D
 70
     0
 10
0.0
 20
0.0
 30
0.0
  3
_D
  1

  0
SOLID
  5
EC
330
E9
100
AcDbEntity
  8
0
  6
Continuous
 62
     7
370
    18
100
AcDbTrace
 10
40.3453500644
 20
74.1095904408
 30
0.0
 11
41.6057843514
 21
75.1075772434
 31
0.0
 12
41.231476617
 22
75.4510269777
 32
0.0
 13
41.231476617
 23
75.4510269777
 33
0.0
  0
LINE
  5
ED
330
E9
100
AcDbEntity
  8
0
  6
Continuous
 62
     7
370
    18
100
AcDbLine
 10
48.6932600301
 20
79.6445071922
 30
0.0
 11
48.371350303
 21
79.6445071922
 31
0.0
  0
LINE
  5
EE
330
E9
100
AcDbEntity
  8
0
  6
Continuous
 62
     7
370
    18
100
AcDbLine
 10
48.371350303
 20
79.6445071922
 30
0.0
 11
48.371350303
 21
77.9629331539
 31
0.0
  0
LINE
  5
EF
330
E9
100
AcDbEntity
  8
0
  6
Continuous
 62
     7
370
    18
100
AcDbLine
 10
48.371350303
 20
77.9629331539
 30
0.0
 11
48.6932600301
 21
77.9629331539
 31
0.0
  0
LINE
  5
F0
330
E9
100
AcDbEntity
  8
0
  6
Continuous
 62
     7
370
    18
100
AcDbLine
 10
52.5718558032
 20
79.6445071922
 30
0.0
 11
52.8937655303
 21
79.6445071922
 31
0.0
  0
LINE
  5
F1
330
E9
100
AcDbEntity
  8
0
  6
Continuous
 62
     7
370
    18
100
AcDbLine
 10
52.8937655303
 20
79.6445071922
 30
0.0
 11
52.8937655303
 21
77.9629331539
 31
0.0
  0
LINE
  5
F2
330
E9
100
AcDbEntity
  8
0
  6
Continuous
 62
     7
370
    18
100
AcDbLine
 10
52.8937655303
 20
77.9629331539
 30
0.0
 11
52.5718558032
 21
77.9629331539
 31
0.0
  0
LINE
  5
F3
330
E9
100
AcDbEntity
  8
0
  6
Continuous
 62
     7
370
    18
100
AcDbLine
 10
40.3453500644
 20
74.1095904408
 30
0.0
 11
46.144440576
 21
80.4297130482
 31
0.0
  0
LINE
  5
F4
330
E9
100
AcDbEntity
  8
0
  6
Continuous
 62
     7
370
    18
100
AcDbLine
 10
46.144440576
 20
80.4297130482
 30
0.0
 11
48.049440576
 21
80.4297130482
 31
0.0
  0
MTEXT
  5
F5
330
E9
100
AcDbEntity
  8
0
  6
Continuous
 62
     7
370
    18
100
AcDbMText
 10
48.049440576
 20
81.2233770154
 30
0.0
 40
1.0583333333
 41
0.0
 71
     1
 72
     1
  1
%%c
  7
SLDTEXTSTYLE0
 73
     1
 44
1.0
  0
MTEXT
  5
F6
330
E9
100
AcDbEntity
  8
0
  6
Continuous
 62
     7
370
    18
100
AcDbMText
 10
49.6469359763
 20
81.2233770154
 30
0.0
 40
1.0583333333
 41
0.0
 71
     1
 72
     1
  1
25.4mm
  7
SLDTEXTSTYLE0
 73
     1
 44
1.0
  0
MTEXT
  5
F7
330
E9
100
AcDbEntity
  8
0
  6
Continuous
 62
     7
370
    18
100
AcDbMText
 10
48.6932600301
 20
79.3271964537
 30
0.0
 40
1.0583333333
 41
0.0
 71
     1
 72
     1
  1
1.00in
  7
SLDTEXTSTYLE0
 73
     1
 44
1.0
  0
ENDBLK
  5
EB
330
E9
100
AcDbEntity
  8
0
100
AcDbBlockEnd
  0
BLOCK
  5
168
330
167
100
AcDbEntity
  8
0
100
AcDbBlockBegin
  2
_D_1
 70
     0
 10
0.0
 20
0.0
 30
0.0
  3
_D_1
  1

  0
SOLID
  5
16A
330
167
100
AcDbEntity
  8
0
  6
Continuous
 62
     7
370
    18
100
AcDbTrace
 10
89.0204860584
 20
47.0265541034
 30
0.0
 11
87.4329860584
 21
47.2805541034
 31
0.0
 12
87.4329860584
 22
46.7725541034
 32
0.0
 13
87.4329860584
 23
46.7725541034
 33
0.0
  0
SOLID
  5
16B
330
167
100
AcDbEntity
  8
0
  6
Continuous
 62
     7
370
    18
100
AcDbTrace
 10
94.0192518929
 20
47.0265541034
 30
0.0
 11
95.6067518929
 21
46.7725541034
 31
0.0
 12
95.6067518929
 22
47.2805541034
 32
0.0
 13
95.6067518929
 23
47.2805541034
 33
0.0
  0
LINE
  5
16C
330
167
100
AcDbEntity
  8
0
  6
Continuous
 62
     7
370
    18
100
AcDbLine
 10
89.5805709727
 20
47.026553987
 30
0.0
 11
89.2586612456
 21
47.026553987
 31
0.0
  0
LINE
  5
16D
330
167
100
AcDbEntity
  8
0
  6
Continuous
 62
     7
370
    18
100
AcDbLine
 10
89.2586612456
 20
47.026553987
 30
0.0
 11
89.2586612456
 21
45.3449799488
 31
0.0
  0
LINE
  5
16E
330
167
100
AcDbEntity
  8
0
  6
Continuous
 62
     7
370
    18
100
AcDbLine
 10
89.2586612456
 20
45.3449799488
 30
0.0
 11
89.5805709727
 21
45.3449799488
 31
0.0
  0
LINE
  5
16F
330
167
100
AcDbEntity
  8
0
  6
Continuous
 62
     7
370
    18
100
AcDbLine
 10
93.4591667458
 20
47.026553987
 30
0.0
 11
93.7810764729
 21
47.026553987
 31
0.0
  0
LINE
  5
170
330
167
100
AcDbEntity
  8
0
  6
Continuous
 62
     7
370
    18
100
AcDbLine
 10
93.7810764729
 20
47.026553987
 30
0.0
 11
93.7810764729
 21
45.3449799488
 31
0.0
  0
LINE
  5
171
330
167
100
AcDbEntity
  8
0
  6
Continuous
 62
     7
370
    18
100
AcDbLine
 10
93.7810764729
 20
45.3449799488
 30
0.0
 11
93.4591667458
 21
45.3449799488
 31
0.0
  0
LINE
  5
172
330
167
100
AcDbEntity
  8
0
  6
Continuous
 62
     7
370
    18
100
AcDbLine
 10
89.0204860584
 20
51.5583184389
 30
0.0
 11
89.0204860584
 21
46.1375541034
 31
0.0
  0
LINE
  5
173
330
167
100
AcDbEntity
  8
0
  6
Continuous
 62
     7
370
    18
100
AcDbLine
 10
94.0192518929
 20
51.5583184389
 30
0.0
 11
94.0192518929
 21
46.1375541034
 31
0.0
  0
LINE
  5
174
330
167
100
AcDbEntity
  8
0
  6
Continuous
 62
     7
370
    18
100
AcDbLine
 10
89.0204860584
 20
47.0265541034
 30
0.0
 11
85.8454860584
 21
47.0265541034
 31
0.0
  0
LINE
  5
175
330
167
100
AcDbEntity
  8
0
  6
Continuous
 62
     7
370
    18
100
AcDbLine
 10
94.0192518929
 20
47.0265541034
 30
0.0
 11
97.1942518929
 21
47.0265541034
 31
0.0
  0
MTEXT
  5
176
330
167
100
AcDbEntity
  8
0
  6
Continuous
 62
     7
370
    18
100
AcDbMText
 10
88.9504706664
 20
48.6054238102
 30
0.0
 40
1.0583333333
 41
0.0
 71
     1
 72
     1
  1

  7
SLDTEXTSTYLE0
 73
     1
 44
1.0
  0
MTEXT
  5
177
330
167
100
AcDbEntity
  8
0
  6
Continuous
 62
     7
370
    18
100
AcDbMText
 10
89.219953675
 20
48.6054238102
 30
0.0
 40
1.0583333333
 41
0.0
 71
     1
 72
     1
  1
5.0mm
  7
SLDTEXTSTYLE0
 73
     1
 44
1.0
  0
MTEXT
  5
178
330
167
100
AcDbEntity
  8
0
  6
Continuous
 62
     7
370
    18
100
AcDbMText
 10
89.5805709727
 20
46.7092432485
 30
0.0
 40
1.0583333333
 41
0.0
 71
     1
 72
     1
  1
0.20in
  7
SLDTEXTSTYLE0
 73
     1
 44
1.0
  0
MTEXT
  5
179
330
167
100
AcDbEntity
  8
0
  6
Continuous
 62
     7
370
    18
100
AcDbMText
 10
94.8967361999
 20
48.6054238102
 30
0.0
 40
1.0583333333
 41
0.0
 71
     1
 72
     1
  1

  7
SLDTEXTSTYLE0
 73
     1
 44
1.0
  0
ENDBLK
  5
169
330
167
100
AcDbEntity
  8
0
100
AcDbBlockEnd
  0
BLOCK
  5
17D
330
17C
100
AcDbEntity
  8
0
100
AcDbBlockBegin
  2
_D_2
 70
     0
 10
0.0
 20
0.0
 30
0.0
  3
_D_2
  1

  0
ARC
  5
17F
330
17C
100
AcDbEntity
  8
0
  6
Continuous
 62
     7
370
    18
100
AcDbCircle
 10
89.0204860584
 20
624.9951477305
 30
0.0
 40
544.7749854253394
100
AcDbArc
 50
269.6660760923
 51
270.0
  0
ARC
  5
180
330
17C
100
AcDbEntity
  8
0
  6
Continuous
 62
     7
370
    18
100
AcDbCircle
 10
89.0204860584
 20
624.9951477305
 30
0.0
 40
544.7749854253394
100
AcDbArc
 50
270.5
 51
270.8339239077
  0
SOLID
  5
181
330
17C
100
AcDbEntity
  8
0
  6
Continuous
 62
     7
370
    18
100
AcDbTrace
 10
89.0204860584
 20
80.2201623051
 30
0.0
 11
87.4333578263
 21
80.4764750531
 31
0.0
 12
87.4326176606
 22
79.9684755923
 32
0.0
 13
87.4326176606
 23
79.9684755923
 33
0.0
  0
SOLID
  5
182
330
17C
100
AcDbEntity
  8
0
  6
Continuous
 62
     7
370
    18
100
AcDbTrace
 10
93.7744843073
 20
80.2409056673
 30
0.0
 11
95.3644885969
 21
80.0030851279
 31
0.0
 12
95.3593153842
 22
80.5110587865
 32
0.0
 13
95.3593153842
 23
80.5110587865
 33
0.0
  0
LINE
  5
183
330
17C
100
AcDbEntity
  8
0
  6
Continuous
 62
     7
370
    18
100
AcDbLine
 10
89.0204860584
 20
77.9454757264
 30
0.0
 11
89.0204860584
 21
81.1091623051
 31
0.0
  0
LINE
  5
184
330
17C
100
AcDbEntity
  8
0
  6
Continuous
 62
     7
370
    18
100
AcDbLine
 10
93.7945164319
 20
77.9454515476
 30
0.0
 11
93.7667264173
 21
81.1298718169
 31
0.0
  0
MTEXT
  5
185
330
17C
100
AcDbEntity
  8
0
  6
Continuous
 62
     7
370
    18
100
AcDbMText
 10
89.8031481732
 20
80.7488244509
 30
0.0
 40
1.0583333333
 41
0.0
 71
     1
 72
     1
  1
0°30'
  7
SLDTEXTSTYLE0
 73
     1
 44
1.0
  0
ENDBLK
  5
17E
330
17C
100
AcDbEntity
  8
0
100
AcDbBlockEnd
  0
ENDSEC
  0
SECTION
  2
ENTITIES
  0
LINE
  5
81
330
1F
100
AcDbEntity
  8
0
  6
Continuous
 62
     7
370
    18
100
AcDbLine
 10
0.7896750505
 20
107.3226899983
 30
0.0
 11
138.9946034245
 21
107.3226899983
 31
0.0
  0
LINE
  5
82
330
1F
100
AcDbEntity
  8
0
  6
Continuous
 62
     7
370
    18
100
AcDbLine
 10
0.7896750505
 20
107.3226899983
 30
0.0
 11
0.7896750505
 21
0.4515821298
 31
0.0
  0
LINE
  5
83
330
1F
100
AcDbEntity
  8
0
  6
Continuous
 62
     7
370
    18
100
AcDbLine
 10
138.9946034245
 20
0.4515821298
 30
0.0
 11
0.7896750505
 21
0.4515821298
 31
0.0
  0
LINE
  5
84
330
1F
100
AcDbEntity
  8
0
  6
Continuous
 62
     7
370
    18
100
AcDbLine
 10
138.9946034245
 20
0.4515821298
 30
0.0
 11
138.9946034245
 21
107.3226899983
 31
0.0
  0
LINE
  5
85
330
1F
100
AcDbEntity
  8
0
  6
Continuous
 62
     7
370
    18
100
AcDbLine
 10
107.8713820021
 20
6.1479445066
 30
0.0
 11
85.8163798342
 21
6.1479445066
 31
0.0
  0
LINE
  5
86
330
1F
100
AcDbEntity
  8
0
  6
Continuous
 62
     7
370
    18
100
AcDbLine
 10
85.8163798342
 20
6.1479445066
 30
0.0
 11
85.8163798342
 21
13.0830701253
 31
0.0
  0
LINE
  5
87
330
1F
100
AcDbEntity
  8
0
  6
Continuous
 62
     7
370
    18
100
AcDbLine
 10
85.8163798342
 20
0.4515821298
 30
0.0
 11
85.8163798342
 21
13.0830701253
 31
0.0
  0
LINE
  5
88
330
1F
100
AcDbEntity
  8
0
  6
Continuous
 62
     7
370
    18
100
AcDbLine
 10
107.8713820021
 20
8.5802289776
 30
0.0
 11
138.9946034245
 21
8.5802289776
 31
0.0
  0
LINE
  5
89
330
1F
100
AcDbEntity
  8
0
  6
Continuous
 62
     7
370
    18
100
AcDbLine
 10
107.8713820021
 20
17.6197254179
 30
0.0
 11
107.8713820021
 21
0.4515821298
 31
0.0
  0
LINE
  5
8A
330
1F
100
AcDbEntity
  8
0
  6
Continuous
 62
     7
370
    18
100
AcDbLine
 10
107.8713820021
 20
13.0830701253
 30
0.0
 11
85.8163798342
 21
13.0830701253
 31
0.0
  0
LINE
  5
8B
330
1F
100
AcDbEntity
  8
0
  6
Continuous
 62
     7
370
    18
100
AcDbLine
 10
107.8713820021
 20
4.5704600306
 30
0.0
 11
138.9946034245
 21
4.5704600306
 31
0.0
  0
LINE
  5
8C
330
1F
100
AcDbEntity
  8
0
  6
Continuous
 62
     7
370
    18
100
AcDbLine
 10
107.8713820021
 20
8.4608412015
 30
0.0
 11
85.8163798342
 21
8.4608412015
 31
0.0
  0
LINE
  5
8D
330
1F
100
AcDbEntity
  8
0
  6
Continuous
 62
     7
370
    18
100
AcDbLine
 10
107.8713820021
 20
10.7437002771
 30
0.0
 11
85.8163798342
 21
10.7437002771
 31
0.0
  0
LINE
  5
8E
330
1F
100
AcDbEntity
  8
0
  6
Continuous
 62
     7
370
    18
100
AcDbLine
 10
93.0669050353
 20
13.0830701253
 30
0.0
 11
93.0669050353
 21
6.1479445066
 31
0.0
  0
LINE
  5
8F
330
1F
100
AcDbEntity
  8
0
  6
Continuous
 62
     7
370
    18
100
AcDbLine
 10
99.1072953094
 20
13.0830701253
 30
0.0
 11
99.1072953094
 21
6.1479445066
 31
0.0
  0
LINE
  5
90
330
1F
100
AcDbEntity
  8
0
  6
Continuous
 62
     7
370
    18
100
AcDbLine
 10
126.8745204184
 20
4.5704600306
 30
0.0
 11
126.8745204184
 21
0.4515821298
 31
0.0
  0
LINE
  5
91
330
1F
100
AcDbEntity
  8
0
  6
Continuous
 62
     7
370
    18
100
AcDbLine
 10
85.8163798342
 20
6.1479445066
 30
0.0
 11
85.8163798342
 21
3.7813671264
 31
0.0
  0
LINE
  5
92
330
1F
100
AcDbEntity
  8
0
  6
Continuous
 62
     7
370
    18
100
AcDbLine
 10
85.8163798342
 20
3.7813671264
 30
0.0
 11
107.8713820021
 21
3.7813671264
 31
0.0
  0
LINE
  5
93
330
1F
100
AcDbEntity
  8
0
  6
Continuous
 62
     7
370
    18
100
AcDbLine
 10
85.8163798342
 20
3.7813671264
 30
0.0
 11
85.8163798342
 21
17.6197254179
 31
0.0
  0
LINE
  5
94
330
1F
100
AcDbEntity
  8
0
  6
Continuous
 62
     7
370
    18
100
AcDbLine
 10
85.8163798342
 20
17.6197254179
 30
0.0
 11
107.8713820021
 21
17.6197254179
 31
0.0
  0
LINE
  5
95
330
1F
100
AcDbEntity
  8
0
  6
Continuous
 62
     7
370
    18
100
AcDbLine
 10
135.0841799097
 20
8.5802289776
 30
0.0
 11
135.0841799097
 21
4.5704600306
 31
0.0
  0
LINE
  5
96
330
1F
100
AcDbEntity
  8
0
  6
Continuous
 62
     7
370
    18
100
AcDbLine
 10
107.8713820021
 20
17.6197254179
 30
0.0
 11
138.9946034245
 21
17.6197254179
 31
0.0
  0
LINE
  5
97
330
1F
100
AcDbEntity
  8
0
  6
Continuous
 62
     7
370
    18
100
AcDbLine
 10
138.9946034245
 20
17.6197254179
 30
0.0
 11
138.9946034245
 21
25.0165678073
 31
0.0
  0
LINE
  5
98
330
1F
100
AcDbEntity
  8
0
  6
Continuous
 62
     7
370
    18
100
AcDbLine
 10
107.8713820021
 20
12.4463667723
 30
0.0
 11
138.9946034245
 21
12.4463667723
 31
0.0
  0
INSERT
  5
99
330
1F
100
AcDbEntity
  8
0
  6
Continuous
 62
     7
100
AcDbBlockReference
  2
Third Angle Projection Block
 10
58.8631102118
 20
7.7581169744
 30
0.0
 41
0.8
 42
0.8
 43
0.8
  0
MTEXT
  5
9B
330
1F
100
AcDbEntity
  8
0
  6
Continuous
 62
     7
370
     0
100
AcDbMText
 10
137.1291351877
 20
6.6279693438
 30
0.0
 40
1.5875
 41
0.0
 71
     2
 72
     1
  1
C
  7
SLDTEXTSTYLE0
 73
     1
 44
1.0
  0
MTEXT
  5
9C
330
1F
100
AcDbEntity
  8
0
  6
Continuous
 62
     7
370
     0
100
AcDbMText
 10
117.248490284
 20
2.5653281949
 30
0.0
 40
1.5875
 41
0.0
 71
     2
 72
     1
  1
M254C00
  7
SLDTEXTSTYLE0
 73
     1
 44
1.0
  0
MTEXT
  5
9D
330
1F
100
AcDbEntity
  8
0
  6
Continuous
 62
     7
370
     0
100
AcDbMText
 10
108.2099883029
 20
8.41215893
 30
0.0
 40
1.0583333333
 41
0.0
 71
     1
 72
     1
  1
MATERIAL
  7
SLDTEXTSTYLE0
 73
     1
 44
1.0
  0
MTEXT
  5
9E
330
1F
100
AcDbEntity
  8
0
  6
Continuous
 62
     7
370
     0
100
AcDbMText
 10
87.115473283
 20
10.027276963
 30
0.0
 40
0.9260416667
 41
0.0
 71
     1
 72
     1
  1
DRAWN
  7
SLDTEXTSTYLE0
 73
     1
 44
1.0
  0
MTEXT
  5
9F
330
1F
100
AcDbEntity
  8
0
  6
Continuous
 62
     7
370
     0
100
AcDbMText
 10
86.1980062272
 20
7.7893584874
 30
0.0
 40
0.9260416667
 41
0.0
 71
     1
 72
     1
  1
APPROVAL
  7
SLDTEXTSTYLE0
 73
     1
 44
1.0
  0
MTEXT
  5
A0
330
1F
100
AcDbEntity
  8
0
  6
Continuous
 62
     7
370
     0
100
AcDbMText
 10
135.8580326837
 20
8.0835873154
 30
0.0
 40
1.0583333333
 41
0.0
 71
     1
 72
     1
  1
REV
  7
SLDTEXTSTYLE0
 73
     1
 44
1.0
  0
MTEXT
  5
A1
330
1F
100
AcDbEntity
  8
0
  6
Continuous
 62
     7
370
     0
100
AcDbMText
 10
94.5336360238
 20
10.1588573452
 30
0.0
 40
1.0583333333
 41
0.0
 71
     1
 72
     1
  1
KMR
  7
SLDTEXTSTYLE0
 73
     1
 44
1.0
  0
MTEXT
  5
A2
330
1F
100
AcDbEntity
  8
0
  6
Continuous
 62
     7
370
     0
100
AcDbMText
 10
94.478637002
 20
7.9209388695
 30
0.0
 40
1.0583333333
 41
0.0
 71
     1
 72
     1
  1
BAG
  7
SLDTEXTSTYLE0
 73
     1
 44
1.0
  0
MTEXT
  5
A3
330
1F
100
AcDbEntity
  8
0
  6
Continuous
 62
     7
370
     0
100
AcDbMText
 10
99.9331218436
 20
10.1588573452
 30
0.0
 40
1.0583333333
 41
0.0
 71
     1
 72
     1
  1
20/OCT/16
  7
SLDTEXTSTYLE0
 73
     1
 44
1.0
  0
MTEXT
  5
A4
330
1F
100
AcDbEntity
  8
0
  6
Continuous
 62
     7
370
     0
100
AcDbMText
 10
101.8072536927
 20
12.4110697884
 30
0.0
 40
1.0583333333
 41
0.0
 71
     1
 72
     1
  1
DATE
  7
SLDTEXTSTYLE0
 73
     1
 44
1.0
  0
MTEXT
  5
A5
330
1F
100
AcDbEntity
  8
0
  6
Continuous
 62
     7
370
     0
100
AcDbMText
 10
99.9331218436
 20
7.9209388695
 30
0.0
 40
1.0583333333
 41
0.0
 71
     1
 72
     1
  1
11/DEC/20
  7
SLDTEXTSTYLE0
 73
     1
 44
1.0
  0
MTEXT
  5
A7
330
1F
100
AcDbEntity
  8
0
  6
Continuous
 62
     7
370
     0
100
AcDbMText
 10
114.7014532385
 20
13.8978740285
 30
0.0
 40
1.0583333333
 41
0.0
 71
     1
 72
     1
  1
w w w . t h o r  l a b s . c o m
  7
SLDTEXTSTYLE1
 73
     1
 44
1.0
  0
MTEXT
  5
A8
330
1F
100
AcDbEntity
  8
0
  6
Continuous
 62
     7
370
     0
100
AcDbMText
 10
108.3502017658
 20
4.1747395936
 30
0.0
 40
1.0583333333
 41
0.0
 71
     1
 72
     1
  1
ITEM #
  7
SLDTEXTSTYLE0
 73
     1
 44
1.0
  0
MTEXT
  5
A9
330
1F
100
AcDbEntity
  8
0
  6
Continuous
 62
     7
370
     0
100
AcDbMText
 10
127.2659000457
 20
4.1747395936
 30
0.0
 40
1.0583333333
 41
0.0
 71
     1
 72
     1
  1
APPROX WEIGHT
  7
SLDTEXTSTYLE0
 73
     1
 44
1.0
  0
MTEXT
  5
AA
330
1F
100
AcDbEntity
  8
0
  6
Continuous
 62
     7
370
     0
100
AcDbMText
 10
121.6181294808
 20
6.9123825907
 30
0.0
 40
1.5875
 41
0.0
 71
     2
 72
     1
  1
UV GRADE FUSED SILICA
  7
SLDTEXTSTYLE0
 73
     1
 44
1.0
  0
MTEXT
  5
AC
330
1F
100
AcDbEntity
  8
0
  6
Continuous
 62
     7
370
     0
100
AcDbMText
 10
133.10964761
 20
2.5653281949
 30
0.0
 40
1.5875
 41
0.0
 71
     2
 72
     1
  1
5.5 g
  7
SLDTEXTSTYLE2
 73
     1
 44
1.0
  0
INSERT
  5
B2
330
1F
100
AcDbEntity
  8
0
  6
Continuous
 62
     7
370
     0
100
AcDbBlockReference
  2
SW_NOTE_0
 10
87.4215070026
 20
2.22792774
 30
0.0
  0
INSERT
  5
B8
330
1F
100
AcDbEntity
  8
0
  6
Continuous
 62
     7
370
     0
100
AcDbBlockReference
  2
SW_NOTE_1
 10
87.2741825168
 20
15.2417661357
 30
0.0
  0
MTEXT
  5
B9
330
1F
100
AcDbEntity
  8
0
  6
Continuous
 62
     7
370
     0
100
AcDbMText
 10
93.9636794138
 20
12.4110697884
 30
0.0
 40
1.0583333333
 41
0.0
 71
     1
 72
     1
  1
NAME
  7
SLDTEXTSTYLE0
 73
     1
 44
1.0
  0
INSERT
  5
BF
330
1F
100
AcDbEntity
  8
0
  6
Continuous
 62
     7
370
     0
100
AcDbBlockReference
  2
SW_NOTE_2
 10
29.3102333754
 20
4.0888304866
 30
0.0
  0
INSERT
  5
C7
330
1F
100
AcDbEntity
  8
0
  6
Continuous
 62
     7
370
     0
100
AcDbBlockReference
  2
SW_NOTE_3
 10
115.232945062
 20
10.4805777506
 30
0.0
  0
MTEXT
  5
C8
330
1F
100
AcDbEntity
  8
0
  6
Continuous
 62
     7
370
     0
100
AcDbMText
 10
88.8462915961
 20
5.3571050758
 30
0.0
 40
0.79375
 41
0.0
 71
     1
 72
     1
  1
COPYRIGHT © 2016 BY THORLABS
  7
SLDTEXTSTYLE0
 73
     1
 44
1.0
  0
INSERT
  5
E4
330
1F
100
AcDbEntity
  8
0
  6
Continuous
 62
     7
370
     0
100
AcDbBlockReference
  2
SW_NOTE_4
 10
4.9042965825
 20
27.6454382152
 30
0.0
  0
CIRCLE
  5
E5
330
1F
100
AcDbEntity
  8
0
  6
Continuous
 62
     7
370
    18
100
AcDbCircle
 10
31.7591067057
 20
64.7518970827
 30
0.0
 40
12.55857864376269
  0
CIRCLE
  5
E6
330
1F
100
AcDbEntity
  8
0
  6
Continuous
 62
     7
370
    18
100
AcDbCircle
 10
31.7591067057
 20
64.7518970827
 30
0.0
 40
12.7
  0
DIMENSION
  5
E7
330
1F
100
AcDbEntity
  8
0
  6
Continuous
 62
     7
370
    18
100
AcDbDimension
  2
_D
 10
23.172863347
 20
55.3942037245
 30
0.0
 11
51.5390988125
 21
80.4297130482
 31
0.0
 70
   163
  1
<>
 71
     1
 42
-1.0
  3
SLDDIMSTYLE0
100
AcDbDiametricDimension
 15
40.3453500644
 25
74.1095904408
 35
0.0
 40
0.0
  0
LINE
  5
F8
330
1F
100
AcDbEntity
  8
0
  6
Continuous
 62
     7
370
    18
100
AcDbLine
 10
89.1619076219
 20
52.0518970614
 30
0.0
 11
93.8826313441
 21
52.0518970614
 31
0.0
  0
LINE
  5
F9
330
1F
100
AcDbEntity
  8
0
  6
Continuous
 62
     7
370
    18
100
AcDbLine
 10
93.6586361577
 20
77.4518971037
 30
0.0
 11
89.1619076219
 21
77.4518971037
 31
0.0
  0
LWPOLYLINE
  5
FA
330
1F
100
AcDbEntity
  8
0
  6
Continuous
 62
     7
370
    18
100
AcDbPolyline
 90
        3
 70
   128
 43
0.0
 10
93.8000574906
 20
77.3104757707
 10
93.7293468241
 20
77.3811855059
 10
93.6586361577
 20
77.4518971037
  0
LWPOLYLINE
  5
FB
330
1F
100
AcDbEntity
  8
0
  6
Continuous
 62
     7
370
    18
100
AcDbPolyline
 90
        3
 70
   128
 43
0.0
 10
93.8853778143
 20
52.0546874202
 10
93.9497862209
 20
52.1213844357
 10
94.0192517091
 20
52.1933183944
  0
LINE
  5
FC
330
1F
100
AcDbEntity
  8
0
  6
Continuous
 62
     7
370
    18
100
AcDbLine
 10
89.1619076219
 20
77.4518971037
 30
0.0
 11
89.0204860561
 21
77.3104757707
 31
0.0
  0
LINE
  5
FD
330
1F
100
AcDbEntity
  8
0
  6
Continuous
 62
     7
370
    18
100
AcDbLine
 10
89.0204860561
 20
52.1933183944
 30
0.0
 11
89.1619076219
 21
52.0518970614
 31
0.0
  0
SPLINE
  5
FE
330
1F
100
AcDbEntity
  8
0
  6
Continuous
 62
     7
370
    18
100
AcDbSpline
210
0.0
220
0.0
230
1.0
 70
     8
 71
     3
 72
    14
 73
    10
 74
     0
 42
0.000000001
 43
0.00000001
 40
0.0
 40
0.0
 40
0.0
 40
0.0
 40
0.1663509234491758
 40
0.3138360108569715
 40
0.4426090258002745
 40
0.5750139390424154
 40
0.7163830601372464
 40
0.8579019933744619
 40
1.0
 40
1.0
 40
1.0
 40
1.0
 10
92.54091868296366
 20
70.97146219421809
 30
0.0
 10
92.56813153039704
 20
70.94534904020492
 30
0.0
 10
92.61947101986588
 20
70.89608422149234
 30
0.0
 10
92.69451874221862
 20
70.82843932099306
 30
0.0
 10
92.76617171621595
 20
70.76788857973202
 30
0.0
 10
92.840384701265
 20
70.71154887698012
 30
0.0
 10
92.92106261881332
 20
70.65779021791285
 30
0.0
 10
93.00813530389868
 20
70.60821064063208
 30
0.0
 10
93.06974628953661
 20
70.58063642138228
 30
0.0
 10
93.10061467930775
 20
70.56682116199916
 30
0.0
  0
LINE
  5
FF
330
1F
100
AcDbEntity
  8
0
  6
Continuous
 62
     7
370
    18
100
AcDbLine
 10
92.4367521156
 20
70.9714621942
 30
0.0
 11
92.540918683
 21
70.9714621942
 31
0.0
  0
SPLINE
  5
100
330
1F
100
AcDbEntity
  8
0
  6
Continuous
 62
     7
370
    18
100
AcDbSpline
210
0.0
220
0.0
230
1.0
 70
     8
 71
     3
 72
    12
 73
     8
 74
     0
 42
0.000000001
 43
0.00000001
 40
0.0
 40
0.0
 40
0.0
 40
0.0
 40
0.1966779473345493
 40
0.3953340564840825
 40
0.6005963283189778
 40
0.7888959205651016
 40
1.0
 40
1.0
 40
1.0
 40
1.0
 10
92.70317835852606
 20
70.60383192111438
 30
0.0
 10
92.68141599906777
 20
70.62541100224352
 30
0.0
 10
92.63767239710369
 20
70.66878620415916
 30
0.0
 10
92.5803571908071
 20
70.7409529301276
 30
0.0
 10
92.52885893341744
 20
70.81459540973437
 30
0.0
 10
92.48059364183464
 20
70.89177192064048
 30
0.0
 10
92.45191183312214
 20
70.9439065377784
 30
0.0
 10
92.43675211563807
 20
70.97146219421809
 30
0.0
  0
LINE
  5
101
330
1F
100
AcDbEntity
  8
0
  6
Continuous
 62
     7
370
    18
100
AcDbLine
 10
90.7099892583
 20
70.6038319211
 30
0.0
 11
92.7031783585
 21
70.6038319211
 31
0.0
  0
LINE
  5
102
330
1F
100
AcDbEntity
  8
0
  6
Continuous
 62
     7
370
    18
100
AcDbLine
 10
90.7099892583
 20
70.4822458964
 30
0.0
 11
90.7099892583
 21
70.6038319211
 31
0.0
  0
LINE
  5
103
330
1F
100
AcDbEntity
  8
0
  6
Continuous
 62
     7
370
    18
100
AcDbLine
 10
92.7031783585
 20
70.4822458964
 30
0.0
 11
90.7099892583
 21
70.4822458964
 31
0.0
  0
SPLINE
  5
104
330
1F
100
AcDbEntity
  8
0
  6
Continuous
 62
     7
370
    18
100
AcDbSpline
210
0.0
220
0.0
230
1.0
 70
     8
 71
     3
 72
    13
 73
     9
 74
     0
 42
0.000000001
 43
0.00000001
 40
0.0
 40
0.0
 40
0.0
 40
0.0
 40
0.1502874692940972
 40
0.3489894090050188
 40
0.5000130047929889
 40
0.6254359147389661
 40
0.7920471053958195
 40
1.0
 40
1.0
 40
1.0
 40
1.0
 10
92.43915585920315
 20
70.106297050013
 30
0.0
 10
92.45028883377326
 20
70.12641318145893
 30
0.0
 10
92.47614122342314
 20
70.17312577072379
 30
0.0
 10
92.5143012715379
 20
70.23928604099255
 30
0.0
 10
92.5528731140881
 20
70.30095015901558
 30
0.0
 10
92.59458660632474
 20
70.35506567196909
 30
0.0
 10
92.64380209047341
 20
70.4145654667584
 30
0.0
 10
92.68198160849278
 20
70.45808464143913
 30
0.0
 10
92.70317835852606
 20
70.48224589635318
 30
0.0
  0
LINE
  5
105
330
1F
100
AcDbEntity
  8
0
  6
Continuous
 62
     7
370
    18
100
AcDbLine
 10
92.5421205547
 20
70.10629705
 30
0.0
 11
92.4391558592
 21
70.10629705
 31
0.0
  0
SPLINE
  5
106
330
1F
100
AcDbEntity
  8
0
  6
Continuous
 62
     7
370
    18
100
AcDbSpline
210
0.0
220
0.0
230
1.0
 70
     8
 71
     3
 72
    13
 73
     9
 74
     0
 42
0.000000001
 43
0.00000001
 40
0.0
 40
0.0
 40
0.0
 40
0.0
 40
0.1644390688788519
 40
0.3373037456669504
 40
0.4999212680848503
 40
0.6527884235727324
 40
0.819403285571835
 40
1.0
 40
1.0
 40
1.0
 40
1.0
 10
93.10061467930775
 20
70.51118767668193
 30
0.0
 10
93.06491070056994
 20
70.49580676391452
 30
0.0
 10
92.9916733255009
 20
70.46425684379157
 30
0.0
 10
92.8923768063628
 20
70.4028455226395
 30
0.0
 10
92.79967876930415
 20
70.33788805115509
 30
0.0
 10
92.71446501860999
 20
70.26686076939338
 30
0.0
 10
92.62866718041859
 20
70.19063275324386
 30
0.0
 10
92.57173364819714
 20
70.13515364657724
 30
0.0
 10
92.5421205547462
 20
70.106297050013
 30
0.0
  0
LINE
  5
107
330
1F
100
AcDbEntity
  8
0
  6
Continuous
 62
     7
370
    18
100
AcDbLine
 10
93.1006146793
 20
70.5111876767
 30
0.0
 11
93.1006146793
 21
70.566821162
 31
0.0
  0
SPLINE
  5
108
330
1F
100
AcDbEntity
  8
0
  6
Continuous
 62
     7
370
    18
100
AcDbSpline
210
0.0
220
0.0
230
1.0
 70
     8
 71
     3
 72
    23
 73
    19
 74
     0
 42
0.000000001
 43
0.00000001
 40
0.0
 40
0.0
 40
0.0
 40
0.0
 40
0.0711313272595441
 40
0.1250484362498378
 40
0.1920474310859495
 40
0.2500964518095332
 40
0.3172390218609835
 40
0.3751351655668435
 40
0.4396950595910115
 40
0.5001618395271247
 40
0.5672666198615085
 40
0.6304410055452595
 40
0.6909146097153829
 40
0.7500832955454949
 40
0.8114341157461392
 40
0.8750175861100141
 40
0.9375029836510769
 40
1.0
 40
1.0
 40
1.0
 40
1.0
 10
91.53410775706273
 20
69.8007580529589
 30
0.0
 10
91.56628194203083
 20
69.8004031593137
 30
0.0
 10
91.62284396150775
 20
69.79977925846612
 30
0.0
 10
91.70966105637758
 20
69.79670454334571
 30
0.0
 10
91.79041497397324
 20
69.79118777860106
 30
0.0
 10
91.87679475289107
 20
69.78198358176037
 30
0.0
 10
91.95853599961096
 20
69.76954941636039
 30
0.0
 10
92.0423689921351
 20
69.75271719991719
 30
0.0
 10
92.12174953710557
 20
69.73095256890966
 30
0.0
 10
92.20294554183958
 20
69.70218791798705
 30
0.0
 10
92.28001691887674
 20
69.66599306371933
 30
0.0
 10
92.3512700275055
 20
69.62062566765862
 30
0.0
 10
92.41191241492436
 20
69.56821719758716
 30
0.0
 10
92.46247110663046
 20
69.50817268516826
 30
0.0
 10
92.50208146366744
 20
69.43968201237624
 30
0.0
 10
92.52827128566051
 20
69.36434101514973
 30
0.0
 10
92.54398795092222
 20
69.28582409384389
 30
0.0
 10
92.54541400909173
 20
69.23286584604273
 30
0.0
 10
92.5461271044622
 20
69.206384260549
 30
0.0
  0
SPLINE
  5
109
330
1F
100
AcDbEntity
  8
0
  6
Continuous
 62
     7
370
    18
100
AcDbSpline
210
0.0
220
0.0
230
1.0
 70
     8
 71
     3
 72
    22
 73
    18
 74
     0
 42
0.000000001
 43
0.00000001
 40
0.0
 40
0.0
 40
0.0
 40
0.0
 40
0.0462223172029446
 40
0.0830645617563762
 40
0.1250139228800446
 40
0.1883682154328168
 40
0.2499501673472139
 40
0.2917960916814986
 40
0.3332531983433977
 40
0.3749492338195383
 40
0.4332013168215211
 40
0.4999302626421895
 40
0.5996437003058188
 40
0.6995464620570754
 40
0.7959483812050463
 40
0.8925712432830885
 40
1.0
 40
1.0
 40
1.0
 40
1.0
 10
90.52048606917363
 20
69.206384260549
 30
0.0
 10
90.52112667772965
 20
69.22596466492314
 30
0.0
 10
90.52227789368298
 20
69.26115194688504
 30
0.0
 10
90.52862967812531
 20
69.31374336195171
 30
0.0
 10
90.54206098499104
 20
69.37251188985775
 30
0.0
 10
90.56607771999234
 20
69.43942557317742
 30
0.0
 10
90.60096274507794
 20
69.50193073764719
 30
0.0
 10
90.63899694796987
 20
69.55159796870547
 30
0.0
 10
90.67730916103142
 20
69.59030840399843
 30
0.0
 10
90.72614291225302
 20
69.62877321285403
 30
0.0
 10
90.79010127561243
 20
69.66616078836637
 30
0.0
 10
90.88195306360299
 20
69.70671512487975
 30
0.0
 10
90.99540357479671
 20
69.74488500810504
 30
0.0
 10
91.12570430767019
 20
69.77474516381083
 30
0.0
 10
91.25733416835337
 20
69.79076068165722
 30
0.0
 10
91.39310135361251
 20
69.79909497119893
 30
0.0
 10
91.48547502189638
 20
69.80018446046371
 30
0.0
 10
91.53410775706274
 20
69.8007580529589
 30
0.0
  0
SPLINE
  5
10A
330
1F
100
AcDbEntity
  8
0
  6
Continuous
 62
     7
370
    18
100
AcDbSpline
210
0.0
220
0.0
230
1.0
 70
     8
 71
     3
 72
    23
 73
    19
 74
     0
 42
0.000000001
 43
0.00000001
 40
0.0
 40
0.0
 40
0.0
 40
0.0
 40
0.0701840974668075
 40
0.1250595388178782
 40
0.1873273278497142
 40
0.2501155293307777
 40
0.3190190002880401
 40
0.3834667786070596
 40
0.4437434158661939
 40
0.5001979442036056
 40
0.568083451874392
 40
0.6315330625350387
 40
0.6917464806166651
 40
0.7501207452044467
 40
0.8111911859975228
 40
0.8750113546917813
 40
0.9374975335032285
 40
1.0
 40
1.0
 40
1.0
 40
1.0
 10
91.53410775706273
 20
68.60066416521256
 30
0.0
 10
91.50233404630123
 20
68.601039275724
 30
0.0
 10
91.44571715219294
 20
68.6017076771035
 30
0.0
 10
91.36094711828032
 20
68.60463868086609
 30
0.0
 10
91.27969617072576
 20
68.61054772342675
 30
0.0
 10
91.19242834891743
 20
68.62002844170318
 30
0.0
 10
91.10469922793592
 20
68.63342773211681
 30
0.0
 10
91.01912826279168
 20
68.6518347037596
 30
0.0
 10
90.94050465993172
 20
68.67435461858886
 30
0.0
 10
90.8626176904909
 20
68.70344112858729
 30
0.0
 10
90.78682951687641
 20
68.74048417456049
 30
0.0
 10
90.71519378608697
 20
68.78731753309371
 30
0.0
 10
90.65465425444646
 20
68.84076112055394
 30
0.0
 10
90.604473581702
 20
68.90175404196314
 30
0.0
 10
90.5652898848653
 20
68.97129461416509
 30
0.0
 10
90.53866739001252
 20
69.04747314053975
 30
0.0
 10
90.52262990881968
 20
69.12674868492093
 30
0.0
 10
90.52120074446869
 20
69.17983676264508
 30
0.0
 10
90.52048606917363
 20
69.206384260549
 30
0.0
  0
SPLINE
  5
10B
330
1F
100
AcDbEntity
  8
0
  6
Continuous
 62
     7
370
    18
100
AcDbSpline
210
0.0
220
0.0
230
1.0
 70
     8
 71
     3
 72
    17
 73
    13
 74
     0
 42
0.000000001
 43
0.00000001
 40
0.0
 40
0.0
 40
0.0
 40
0.0
 40
0.091430102110101
 40
0.1634019885612204
 40
0.2499631162295087
 40
0.3281728179317093
 40
0.4114065856788229
 40
0.4999595523124166
 40
0.6222950277797442
 40
0.7499731363535016
 40
0.8570900085986212
 40
0.9999999999999999
 40
0.9999999999999999
 40
0.9999999999999999
 40
0.9999999999999999
 10
92.35341876864534
 20
68.78537989069407
 30
0.0
 10
92.33191620705922
 20
68.77135409394803
 30
0.0
 10
92.29348727346682
 20
68.74628747992745
 30
0.0
 10
92.23029192366619
 20
68.71469147412446
 30
0.0
 10
92.16801318057881
 20
68.6897802863314
 30
0.0
 10
92.10122375068217
 20
68.66753344870585
 30
0.0
 10
92.03246637289068
 20
68.64943255881161
 30
0.0
 10
91.95049412173094
 20
68.63236702827925
 30
0.0
 10
91.85510502620694
 20
68.61780765055882
 30
0.0
 10
91.7537552949415
 20
68.6077097384992
 30
0.0
 10
91.6461466983991
 20
68.60261902785948
 30
0.0
 10
91.57485599418354
 20
68.6013751430719
 30
0.0
 10
91.53410775706273
 20
68.60066416521256
 30
0.0
  0
SPLINE
  5
10C
330
1F
100
AcDbEntity
  8
0
  6
Continuous
 62
     7
370
    18
100
AcDbSpline
210
0.0
220
0.0
230
1.0
 70
     8
 71
     3
 72
    16
 73
    12
 74
     0
 42
0.000000001
 43
0.00000001
 40
0.0
 40
0.0
 40
0.0
 40
0.0
 40
0.1410101442232589
 40
0.2499969436725241
 40
0.3765860376358478
 40
0.5000083247308088
 40
0.6221048467915374
 40
0.7499523145542232
 40
0.8149327735380231
 40
0.8749835828505436
 40
1.0
 40
1.0
 40
1.0
 40
1.0
 10
92.5461271044622
 20
69.206384260549
 30
0.0
 10
92.54523202924074
 20
69.18423472571247
 30
0.0
 10
92.54364515000624
 20
69.1449658061365
 30
0.0
 10
92.53642067211808
 20
69.0859433015644
 30
0.0
 10
92.5227973315224
 20
69.03064705331681
 30
0.0
 10
92.50266251660832
 20
68.97485698589779
 30
0.0
 10
92.47513332704669
 20
68.92158490565907
 30
0.0
 10
92.44610657495033
 20
68.87972437716466
 30
0.0
 10
92.42011189473496
 20
68.8479977608189
 30
0.0
 10
92.39232514138374
 20
68.81818933575364
 30
0.0
 10
92.36910465025905
 20
68.79860767408258
 30
0.0
 10
92.35341876864534
 20
68.78537989069407
 30
0.0
  0
SPLINE
  5
10D
330
1F
100
AcDbEntity
  8
0
  6
Continuous
 62
     7
370
    18
100
AcDbSpline
210
0.0
220
0.0
230
1.0
 70
     8
 71
     3
 72
    23
 73
    19
 74
     0
 42
0.000000001
 43
0.00000001
 40
0.0
 40
0.0
 40
0.0
 40
0.0
 40
0.0711312852411402
 40
0.1250483974036872
 40
0.1920473218732024
 40
0.2500963629257776
 40
0.3172389548355387
 40
0.3751349043618881
 40
0.4396948740241095
 40
0.5001617539275893
 40
0.5672663277132934
 40
0.630440861453352
 40
0.6909140843845655
 40
0.7500826694893618
 40
0.8114335653722214
 40
0.8750170122432023
 40
0.9375027936048124
 40
1.0
 40
1.0
 40
1.0
 40
1.0
 10
91.53410775706273
 20
68.35554472018664
 30
0.0
 10
91.56628195159466
 20
68.35517445250795
 30
0.0
 10
91.6228440037259
 20
68.35452352402164
 30
0.0
 10
91.70966099013503
 20
68.35130794274231
 30
0.0
 10
91.79041504729423
 20
68.34554538475926
 30
0.0
 10
91.87679476907337
 20
68.33592712016562
 30
0.0
 10
91.95853578605463
 20
68.3229354858644
 30
0.0
 10
92.04236922866156
 20
68.30535518899224
 30
0.0
 10
92.12174956482559
 20
68.28262522614916
 30
0.0
 10
92.20294527465455
 20
68.25259348351103
 30
0.0
 10
92.28001725462305
 20
68.21481973286264
 30
0.0
 10
92.35126962313898
 20
68.16749494017894
 30
0.0
 10
92.41191261482594
 20
68.11285786987803
 30
0.0
 10
92.46247115669004
 20
68.05029907693167
 30
0.0
 10
92.50208142079785
 20
67.97899254846126
 30
0.0
 10
92.52827137643801
 20
67.90062106835238
 30
0.0
 10
92.54398792088244
 20
67.81901238460733
 30
0.0
 10
92.54541399981503
 20
67.76403076732743
 30
0.0
 10
92.54612710446222
 20
67.73653744567817
 30
0.0
  0
SPLINE
  5
10E
330
1F
100
AcDbEntity
  8
0
  6
Continuous
 62
     7
370
    18
100
AcDbSpline
210
0.0
220
0.0
230
1.0
 70
     8
 71
     3
 72
    22
 73
    18
 74
     0
 42
0.000000001
 43
0.00000001
 40
0.0
 40
0.0
 40
0.0
 40
0.0
 40
0.0462222465446745
 40
0.0830643806323032
 40
0.1250141407110235
 40
0.1883684721546617
 40
0.249950740337694
 40
0.2917956105537698
 40
0.3332537258585339
 40
0.374949638035507
 40
0.4332011977694283
 40
0.4999301467073581
 40
0.599643828967404
 40
0.6995466421863076
 40
0.7959484399079262
 40
0.8925712541741444
 40
1.0
 40
1.0
 40
1.0
 40
1.0
 10
90.52048606917363
 20
67.73653744567817
 30
0.0
 10
90.52112667050643
 20
67.75686442577191
 30
0.0
 10
90.52227787272872
 20
67.79339332987828
 30
0.0
 10
90.52862976072454
 20
67.84803179266281
 30
0.0
 10
90.54206082684367
 20
67.90911902290108
 30
0.0
 10
90.56607805983519
 20
67.9787258033025
 30
0.0
 10
90.60096176701788
 20
68.04380021853127
 30
0.0
 10
90.63899816856332
 20
68.09554031828833
 30
0.0
 10
90.67730836727372
 20
68.13588821282059
 30
0.0
 10
90.72614284572796
 20
68.17599396553555
 30
0.0
 10
90.79010165791212
 20
68.2149941971208
 30
0.0
 10
90.88195314949111
 20
68.25731764329201
 30
0.0
 10
90.9954034357701
 20
68.29717300967567
 30
0.0
 10
91.12570417534991
 20
68.32836500247181
 30
0.0
 10
91.25733423861926
 20
68.34509715822905
 30
0.0
 10
91.39310137493618
 20
68.35380599260084
 30
0.0
 10
91.48547502331523
 20
68.35494503757323
 30
0.0
 10
91.53410775706273
 20
68.35554472018664
 30
0.0
  0
SPLINE
  5
10F
330
1F
100
AcDbEntity
  8
0
  6
Continuous
 62
     7
370
    18
100
AcDbSpline
210
0.0
220
0.0
230
1.0
 70
     8
 71
     3
 72
    23
 73
    19
 74
     0
 42
0.000000001
 43
0.00000001
 40
0.0
 40
0.0
 40
0.0
 40
0.0
 40
0.0701841004010551
 40
0.1250595522607975
 40
0.1873273589337148
 40
0.250115509010924
 40
0.3190190475204208
 40
0.3834666489847752
 40
0.4437433262181429
 40
0.5001979226309542
 40
0.5680833749385826
 40
0.6315332814477984
 40
0.6917463828619487
 40
0.7501208737418269
 40
0.8111914298773083
 40
0.8750115165991108
 40
0.9374975857381145
 40
0.9999999999999999
 40
0.9999999999999999
 40
0.9999999999999999
 40
0.9999999999999999
 10
91.53410775706273
 20
67.10992871631568
 30
0.0
 10
91.5023340462886
 20
67.11031538232025
 30
0.0
 10
91.44571714843892
 20
67.11100437423052
 30
0.0
 10
91.36094710415323
 20
67.11402724500982
 30
0.0
 10
91.27969624793369
 20
67.12012057870133
 30
0.0
 10
91.19242821130017
 20
67.12989626801546
 30
0.0
 10
91.10469947099682
 20
67.14371728303311
 30
0.0
 10
91.01912807294066
 20
67.16270320349017
 30
0.0
 10
90.94050463842524
 20
67.18593919093777
 30
0.0
 10
90.86261782488185
 20
67.21595799743459
 30
0.0
 10
90.78682917772966
 20
67.25420056258001
 30
0.0
 10
90.71519426168283
 20
67.302575306554
 30
0.0
 10
90.65465388457255
 20
67.35780503837984
 30
0.0
 10
90.6044736897491
 20
67.42087694565262
 30
0.0
 10
90.56528992501885
 20
67.4928382323668
 30
0.0
 10
90.5386673927748
 20
67.57173336164942
 30
0.0
 10
90.52262990392147
 20
67.65390293211951
 30
0.0
 10
90.5212007430548
 20
67.70899020651531
 30
0.0
 10
90.52048606917363
 20
67.73653744567817
 30
0.0
  0
SPLINE
  5
110
330
1F
100
AcDbEntity
  8
0
  6
Continuous
 62
     7
370
    18
100
AcDbSpline
210
0.0
220
0.0
230
1.0
 70
     8
 71
     3
 72
    17
 73
    13
 74
     0
 42
0.000000001
 43
0.00000001
 40
0.0
 40
0.0
 40
0.0
 40
0.0
 40
0.0914298113989422
 40
0.1634020465531225
 40
0.2499631524801496
 40
0.3281725586143651
 40
0.4114063804123483
 40
0.4999597003632189
 40
0.6222949430235581
 40
0.7499731623555154
 40
0.857090028805792
 40
0.9999999999999999
 40
0.9999999999999999
 40
0.9999999999999999
 40
0.9999999999999999
 10
92.35341876864534
 20
67.30057789792006
 30
0.0
 10
92.33191614516183
 20
67.28608947231197
 30
0.0
 10
92.29348696511971
 20
67.26019596603138
 30
0.0
 10
92.2302921277116
 20
67.2275727623615
 30
0.0
 10
92.16801330956461
 20
67.2018589585737
 30
0.0
 10
92.1012235850443
 20
67.17890235678732
 30
0.0
 10
92.03246622217615
 20
67.16022727343905
 30
0.0
 10
91.9504944809317
 20
67.142621083915
 30
0.0
 10
91.85510477177237
 20
67.12760795866123
 30
0.0
 10
91.75375538464603
 20
67.11719275667265
 30
0.0
 10
91.64614668560506
 20
67.11194400084149
 30
0.0
 10
91.57485598856064
 20
67.11066166941922
 30
0.0
 10
91.53410775706273
 20
67.10992871631568
 30
0.0
  0
SPLINE
  5
111
330
1F
100
AcDbEntity
  8
0
  6
Continuous
 62
     7
370
    18
100
AcDbSpline
210
0.0
220
0.0
230
1.0
 70
     8
 71
     3
 72
    16
 73
    12
 74
     0
 42
0.000000001
 43
0.00000001
 40
0.0
 40
0.0
 40
0.0
 40
0.0
 40
0.1410107099752263
 40
0.2499955384688991
 40
0.3765861422274671
 40
0.500008187135941
 40
0.6221047688805945
 40
0.7499531161637151
 40
0.8149328251307858
 40
0.8749841800309327
 40
1.0
 40
1.0
 40
1.0
 40
1.0
 10
92.5461271044622
 20
67.73653744567817
 30
0.0
 10
92.54523206239145
 20
67.71355255484127
 30
0.0
 10
92.54364525721566
 20
67.67280302480609
 30
0.0
 10
92.53642047052982
 20
67.61160657103248
 30
0.0
 10
92.52279749146828
 20
67.55430634269118
 30
0.0
 10
92.50266250503412
 20
67.49653094675965
 30
0.0
 10
92.47513311422854
 20
67.44139607274666
 30
0.0
 10
92.44610699449822
 20
67.39809579559721
 30
0.0
 10
92.42011161128413
 20
67.36529194496008
 30
0.0
 10
92.39232547989253
 20
67.33447795932435
 30
0.0
 10
92.36910474462543
 20
67.31424534838979
 30
0.0
 10
92.35341876864534
 20
67.30057789792006
 30
0.0
  0
SPLINE
  5
112
330
1F
100
AcDbEntity
  8
0
  6
Continuous
 62
     7
370
    18
100
AcDbSpline
210
0.0
220
0.0
230
1.0
 70
     8
 71
     3
 72
    19
 73
    15
 74
     0
 42
0.000000001
 43
0.00000001
 40
0.0
 40
0.0
 40
0.0
 40
0.0
 40
0.0456750501660624
 40
0.0836437406336322
 40
0.1251417628106394
 40
0.2500014757160555
 40
0.3747563954522556
 40
0.4995828164514289
 40
0.5825873992694154
 40
0.663096699420348
 40
0.7497388933440889
 40
0.834035070648375
 40
0.9091612080677206
 40
1.0
 40
1.0
 40
1.0
 40
1.0
 10
90.72561405718427
 20
66.02938032556956
 30
0.0
 10
90.72591668340169
 20
66.0122523074469
 30
0.0
 10
90.7264708763089
 20
65.98088613488198
 30
0.0
 10
90.73085449625094
 20
65.93409947555104
 30
0.0
 10
90.74267837746007
 20
65.85833980913831
 30
0.0
 10
90.77550060898896
 20
65.75258728074043
 30
0.0
 10
90.85437120678672
 20
65.63385703748192
 30
0.0
 10
90.94826626965938
 20
65.54898976845446
 30
0.0
 10
91.04287887306273
 20
65.49467308703498
 30
0.0
 10
91.13114018038223
 20
65.460859539716
 30
0.0
 10
91.22284073310222
 20
65.4366511829016
 30
0.0
 10
91.31389447406026
 20
65.41884521530692
 30
0.0
 10
91.4076787314007
 20
65.40787113225257
 30
0.0
 10
91.47022603129379
 20
65.40630948454371
 30
0.0
 10
91.50446049988372
 20
65.40545473654454
 30
0.0
  0
SPLINE
  5
113
330
1F
100
AcDbEntity
  8
0
  6
Continuous
 62
     7
370
    18
100
AcDbSpline
210
0.0
220
0.0
230
1.0
 70
     8
 71
     3
 72
    18
 73
    14
 74
     0
 42
0.000000001
 43
0.00000001
 40
0.0
 40
0.0
 40
0.0
 40
0.0
 40
0.0907973047063226
 40
0.1681181770833935
 40
0.250114841388855
 40
0.379172911768433
 40
0.4999892999480689
 40
0.6222601494338776
 40
0.6851238601438769
 40
0.7499433572451714
 40
0.8320956724570884
 40
0.9099997915959585
 40
1.0
 40
1.0
 40
1.0
 40
1.0
 10
91.13667190194231
 20
66.52810635824387
 30
0.0
 10
91.11638893726112
 20
66.52152364405238
 30
0.0
 10
91.07883347172084
 20
66.50933524359587
 30
0.0
 10
91.02432430084059
 20
66.48740396917435
 30
0.0
 10
90.96346739918691
 20
66.45771360971517
 30
0.0
 10
90.89779282503507
 20
66.41536630092273
 30
0.0
 10
90.83337846125916
 20
66.35595698668276
 30
0.0
 10
90.79167524787192
 20
66.29709607112449
 30
0.0
 10
90.76582217790002
 20
66.24463617605831
 30
0.0
 10
90.74843528370103
 20
66.19871495658167
 30
0.0
 10
90.7353574120936
 20
66.14769584804544
 30
0.0
 10
90.72738706323155
 20
66.08968561832485
 30
0.0
 10
90.7262327780345
 20
66.05042489113299
 30
0.0
 10
90.72561405718427
 20
66.02938032556956
 30
0.0
  0
LINE
  5
114
330
1F
100
AcDbEntity
  8
0
  6
Continuous
 62
     7
370
    18
100
AcDbLine
 10
91.0761750501
 20
66.8069247793
 30
0.0
 11
91.1366719019
 21
66.5281063582
 31
0.0
  0
SPLINE
  5
115
330
1F
100
AcDbEntity
  8
0
  6
Continuous
 62
     7
370
    18
100
AcDbSpline
210
0.0
220
0.0
230
1.0
 70
     8
 71
     3
 72
    19
 73
    15
 74
     0
 42
0.000000001
 43
0.00000001
 40
0.0
 40
0.0
 40
0.0
 40
0.0
 40
0.0651357512339083
 40
0.1242047915987282
 40
0.1878127147840961
 40
0.2502505872206682
 40
0.3743179003374498
 40
0.4994362409400988
 40
0.6241528088742951
 40
0.7490155014403995
 40
0.8126573080674921
 40
0.8751002369121288
 40
0.9304883629293806
 40
1.0
 40
1.0
 40
1.0
 40
1.0
 10
90.49484489604932
 20
66.04293200035279
 30
0.0
 10
90.49525349541818
 20
66.06550130400034
 30
0.0
 10
90.49603263741771
 20
66.10853781778837
 30
0.0
 10
90.50248920255781
 20
66.17329771159369
 30
0.0
 10
90.51285687066233
 20
66.23657180724886
 30
0.0
 10
90.53381994375556
 20
66.32059284020872
 30
0.0
 10
90.57296479149606
 20
66.42166662517802
 30
0.0
 10
90.64215010452446
 20
66.53186209852436
 30
0.0
 10
90.73047026378948
 20
66.62787425565904
 30
0.0
 10
90.81782545581304
 20
66.6934982814984
 30
0.0
 10
90.89365840410095
 20
66.73655032045465
 30
0.0
 10
90.95061344161158
 20
66.76376462628595
 30
0.0
 10
91.01151627470877
 20
66.78704462975223
 30
0.0
 10
91.05305635788488
 20
66.79981664810018
 30
0.0
 10
91.07617505014044
 20
66.80692477930968
 30
0.0
  0
SPLINE
  5
116
330
1F
100
AcDbEntity
  8
0
  6
Continuous
 62
     7
370
    18
100
AcDbSpline
210
0.0
220
0.0
230
1.0
 70
     8
 71
     3
 72
    22
 73
    18
 74
     0
 42
0.000000001
 43
0.00000001
 40
0.0
 40
0.0
 40
0.0
 40
0.0
 40
0.0531817075245469
 40
0.1003635787968119
 40
0.1506696708177181
 40
0.2009316174103148
 40
0.2501919991935886
 40
0.3772472679618191
 40
0.4999735472596726
 40
0.6216048584714816
 40
0.6844931720901362
 40
0.7498205026331085
 40
0.7992835109880781
 40
0.8494548555402809
 40
0.899094435415642
 40
0.9473723842998026
 40
1.0
 40
1.0
 40
1.0
 40
1.0
 10
91.50566237166625
 20
65.12363838811105
 30
0.0
 10
91.47835797548306
 20
65.12414427319477
 30
0.0
 10
91.42682960143519
 20
65.12509897058654
 30
0.0
 10
91.34962318347652
 20
65.13066724777444
 30
0.0
 10
91.27439697697965
 20
65.14082062724825
 30
0.0
 10
91.1988747456414
 20
65.15574401207625
 30
0.0
 10
91.08638959529351
 20
65.18560016266849
 30
0.0
 10
90.94316402789678
 20
65.24384520697198
 30
0.0
 10
90.78399452314834
 20
65.35148686948654
 30
0.0
 10
90.676484012202
 20
65.46909533138104
 30
0.0
 10
90.60869726001647
 20
65.57807811255029
 30
0.0
 10
90.56918360261027
 20
65.66032034305717
 30
0.0
 10
90.53983971739761
 20
65.73964542532484
 30
0.0
 10
90.51951343027882
 20
65.81340382923658
 30
0.0
 10
90.50536202713435
 20
65.88789940070266
 30
0.0
 10
90.49672862616805
 20
65.96448588243462
 30
0.0
 10
90.49549059507403
 20
66.01604248930822
 30
0.0
 10
90.49484489604932
 20
66.04293200035279
 30
0.0
  0
SPLINE
  5
117
330
1F
100
AcDbEntity
  8
0
  6
Continuous
 62
     7
370
    18
100
AcDbSpline
210
0.0
220
0.0
230
1.0
 70
     8
 71
     3
 72
    24
 73
    20
 74
     0
 42
0.000000001
 43
0.00000001
 40
0.0
 40
0.0
 40
0.0
 40
0.0
 40
0.053131774037766
 40
0.0998394993995261
 40
0.1516397337734375
 40
0.2023531916316497
 40
0.2500413579319352
 40
0.3123286023857558
 40
0.3750006297343118
 40
0.4373107690169033
 40
0.4999622573163192
 40
0.578891943410536
 40
0.6617574817121116
 40
0.749923828674024
 40
0.7994499249126523
 40
0.8495992622872172
 40
0.9008503710481431
 40
0.9470284651534915
 40
0.9999999999999999
 40
0.9999999999999999
 40
0.9999999999999999
 40
0.9999999999999999
 10
92.5461271044622
 20
66.04851248521989
 30
0.0
 10
92.54569170435006
 20
66.02066705057695
 30
0.0
 10
92.54487354741815
 20
65.96834291298396
 30
0.0
 10
92.53801450374422
 20
65.88904311074445
 30
0.0
 10
92.5257678367533
 20
65.81163819521424
 30
0.0
 10
92.50772155101924
 20
65.73477829205558
 30
0.0
 10
92.48127186722553
 20
65.65448602592134
 30
0.0
 10
92.44264861103045
 20
65.57201252869177
 30
0.0
 10
92.38857150476923
 20
65.48932069759348
 30
0.0
 10
92.32392021171269
 20
65.41430935380302
 30
0.0
 10
92.24337542752028
 20
65.34292498634545
 30
0.0
 10
92.14458791023291
 20
65.27730766689913
 30
0.0
 10
92.0258513816568
 20
65.2196985672618
 30
0.0
 10
91.91573377948909
 20
65.1819197333272
 30
0.0
 10
91.81985443745627
 20
65.15739125446592
 30
0.0
 10
91.74179664430275
 20
65.14215423603335
 30
0.0
 10
91.66478552141939
 20
65.13139658108513
 30
0.0
 10
91.58579143695539
 20
65.12481705241493
 30
0.0
 10
91.53356486378634
 20
65.12404882184484
 30
0.0
 10
91.50566237166625
 20
65.12363838811105
 30
0.0
  0
SPLINE
  5
118
330
1F
100
AcDbEntity
  8
0
  6
Continuous
 62
     7
370
    18
100
AcDbSpline
210
0.0
220
0.0
230
1.0
 70
     8
 71
     3
 72
    19
 73
    15
 74
     0
 42
0.000000001
 43
0.00000001
 40
0.0
 40
0.0
 40
0.0
 40
0.0
 40
0.0651520743222046
 40
0.1242329344797305
 40
0.1896295604805185
 40
0.2518538621602883
 40
0.3767011392778153
 40
0.5006874689718263
 40
0.625454588457642
 40
0.7499270007226346
 40
0.8120805876971245
 40
0.8746722440007086
 40
0.9309083194613685
 40
1.0
 40
1.0
 40
1.0
 40
1.0
 10
91.88026173159581
 20
66.85751329024022
 30
0.0
 10
91.90430838967023
 20
66.85118724830085
 30
0.0
 10
91.95016091129895
 20
66.8391246583995
 30
0.0
 10
92.01851336609892
 20
66.81534507884211
 30
0.0
 10
92.08418494875866
 20
66.78783002978274
 30
0.0
 10
92.1701758275715
 20
66.7446504719563
 30
0.0
 10
92.26909486707002
 20
66.67850800137163
 30
0.0
 10
92.37104250740398
 20
66.57857559659708
 30
0.0
 10
92.45147169473803
 20
66.46106987473595
 30
0.0
 10
92.49920558721588
 20
66.35222421492958
 30
0.0
 10
92.52394035450963
 20
66.26090264480605
 30
0.0
 10
92.53663688224242
 20
66.19335200256087
 30
0.0
 10
92.54407814565178
 20
66.12234585386523
 30
0.0
 10
92.54539895706044
 20
66.07475097047822
 30
0.0
 10
92.5461271044622
 20
66.04851248521989
 30
0.0
  0
LINE
  5
119
330
1F
100
AcDbEntity
  8
0
  6
Continuous
 62
     7
370
    18
100
AcDbLine
 10
91.8145564583
 20
66.5788699578
 30
0.0
 11
91.8802617316
 21
66.8575132902
 31
0.0
  0
SPLINE
  5
11A
330
1F
100
AcDbEntity
  8
0
  6
Continuous
 62
     7
370
    18
100
AcDbSpline
210
0.0
220
0.0
230
1.0
 70
     8
 71
     3
 72
    16
 73
    12
 74
     0
 42
0.000000001
 43
0.00000001
 40
0.0
 40
0.0
 40
0.0
 40
0.0
 40
0.0877846393834876
 40
0.168877718218863
 40
0.2513750389991053
 40
0.3755476525814015
 40
0.4986289028579602
 40
0.6229368502543176
 40
0.7458781157674725
 40
0.8701192312601437
 40
1.0
 40
1.0
 40
1.0
 40
1.0
 10
92.31535794332724
 20
66.02220541645472
 30
0.0
 10
92.314544366533
 20
66.0461447422771
 30
0.0
 10
92.3129792294706
 20
66.09219857070278
 30
0.0
 10
92.3019929406893
 20
66.16002662262265
 30
0.0
 10
92.27973705090106
 20
66.23538943043603
 30
0.0
 10
92.24032668183649
 20
66.31687756978437
 30
0.0
 10
92.17784729877941
 20
66.3974920930025
 30
0.0
 10
92.10122072667944
 20
66.46443327662895
 30
0.0
 10
92.01323940593187
 20
66.51610692338656
 30
0.0
 10
91.91701947337891
 20
66.55459708300671
 30
0.0
 10
91.84921240419432
 20
66.57066017172538
 30
0.0
 10
91.8145564582954
 20
66.57886995781844
 30
0.0
  0
SPLINE
  5
11B
330
1F
100
AcDbEntity
  8
0
  6
Continuous
 62
     7
370
    18
100
AcDbSpline
210
0.0
220
0.0
230
1.0
 70
     8
 71
     3
 72
    22
 73
    18
 74
     0
 42
0.000000001
 43
0.00000001
 40
0.0
 40
0.0
 40
0.0
 40
0.0
 40
0.0723971416029537
 40
0.1250518569326096
 40
0.187255846478445
 40
0.2501039739038827
 40
0.3407061396877305
 40
0.4236497956430328
 40
0.500121348538439
 40
0.5627073621170074
 40
0.6250814299330959
 40
0.6845931834046485
 40
0.7500285159144859
 40
0.8113659339338318
 40
0.8750030001815836
 40
0.9374866372806627
 40
1.0
 40
1.0
 40
1.0
 40
1.0
 10
91.50446049988372
 20
65.40545473654454
 30
0.0
 10
91.53227501042838
 20
65.40607619966528
 30
0.0
 10
91.58031911985412
 20
65.40714965526786
 30
0.0
 10
91.65218541244992
 20
65.4113206923379
 30
0.0
 10
91.72000791536384
 20
65.41969362658739
 30
0.0
 10
91.80163938535345
 20
65.43410415620195
 30
0.0
 10
91.88989004560108
 20
65.45626632730392
 30
0.0
 10
91.98013889321828
 20
65.48978025680513
 30
0.0
 10
92.05590158510405
 20
65.52959306271592
 30
0.0
 10
92.11860645938364
 20
65.57526190408089
 30
0.0
 10
92.16999168017794
 20
65.62435508499277
 30
0.0
 10
92.21407196115638
 20
65.68141899768082
 30
0.0
 10
92.25001706017531
 20
65.74336481274327
 30
0.0
 10
92.27932207820676
 20
65.81035054499681
 30
0.0
 10
92.30044666680189
 20
65.87912274015426
 30
0.0
 10
92.31316751478649
 20
65.9504573715033
 30
0.0
 10
92.31462768473233
 20
65.99828561011577
 30
0.0
 10
92.31535794332724
 20
66.02220541645472
 30
0.0
  0
SPLINE
  5
11C
330
1F
100
AcDbEntity
  8
0
  6
Continuous
 62
     7
370
    18
100
AcDbSpline
210
0.0
220
0.0
230
1.0
 70
     8
 71
     3
 72
    15
 73
    11
 74
     0
 42
0.000000001
 43
0.00000001
 40
0.0
 40
0.0
 40
0.0
 40
0.0
 40
0.1786180401007597
 40
0.3355835377107378
 40
0.4999359657767654
 40
0.5967059849646309
 40
0.6977170145851961
 40
0.8025335481987874
 40
0.8933006452692405
 40
1.0
 40
1.0
 40
1.0
 40
1.0
 10
91.83458874121409
 20
63.33179610629265
 30
0.0
 10
91.86451050613388
 20
63.33090215929825
 30
0.0
 10
91.92072684195676
 20
63.32922263188469
 30
0.0
 10
92.00369038072206
 20
63.31686997122725
 30
0.0
 10
92.0717497832775
 20
63.29996786315625
 30
0.0
 10
92.12890549987975
 20
63.27966450735593
 30
0.0
 10
92.17524510916638
 20
63.25920859773625
 30
0.0
 10
92.21934624925481
 20
63.23645048224945
 30
0.0
 10
92.26249242929696
 20
63.21005397093185
 30
0.0
 10
92.28901013703506
 20
63.19042472936255
 30
0.0
 10
92.30333875984054
 20
63.17981823195402
 30
0.0
  0
SPLINE
  5
11D
330
1F
100
AcDbEntity
  8
0
  6
Continuous
 62
     7
370
    18
100
AcDbSpline
210
0.0
220
0.0
230
1.0
 70
     8
 71
     3
 72
    18
 73
    14
 74
     0
 42
0.000000001
 43
0.00000001
 40
0.0
 40
0.0
 40
0.0
 40
0.0
 40
0.0463391876371504
 40
0.0832504308844522
 40
0.1251344271163666
 40
0.2500368343400734
 40
0.3729032023771052
 40
0.4999110603340274
 40
0.6250275983254656
 40
0.7497974751980352
 40
0.8336884674262804
 40
0.9088757594281703
 40
1.0
 40
1.0
 40
1.0
 40
1.0
 10
91.18715284511549
 20
62.75026245821898
 30
0.0
 10
91.1875664730847
 20
62.76514960605758
 30
0.0
 10
91.18830957430029
 20
62.7918950354749
 30
0.0
 10
91.1918487993647
 20
62.83202014049417
 30
0.0
 10
91.20302754853311
 20
62.89665112248666
 30
0.0
 10
91.23200643012662
 20
62.98633877801525
 30
0.0
 10
91.29579195848574
 20
63.09051591415957
 30
0.0
 10
91.3801495705729
 20
63.17903351094348
 30
0.0
 10
91.48037087536518
 20
63.2505993170247
 30
0.0
 10
91.58062441875316
 20
63.29402369994312
 30
0.0
 10
91.67005087789599
 20
63.31766950849831
 30
0.0
 10
91.75081489953055
 20
63.32923076673301
 30
0.0
 10
91.80493541211409
 20
63.3308880560387
 30
0.0
 10
91.83458874121409
 20
63.33179610629265
 30
0.0
  0
SPLINE
  5
11E
330
1F
100
AcDbEntity
  8
0
  6
Continuous
 62
     7
370
    18
100
AcDbSpline
210
0.0
220
0.0
230
1.0
 70
     8
 71
     3
 72
    14
 73
    10
 74
     0
 42
0.000000001
 43
0.00000001
 40
0.0
 40
0.0
 40
0.0
 40
0.0
 40
0.180040153120416
 40
0.334493036752645
 40
0.4999818905301345
 40
0.6240506505904558
 40
0.7499801552233353
 40
0.8749761114309744
 40
1.0
 40
1.0
 40
1.0
 40
1.0
 10
91.32056620091302
 20
62.39898341555779
 30
0.0
 10
91.30671672100488
 20
62.41739464900139
 30
0.0
 10
91.28098604642129
 20
62.45160051518277
 30
0.0
 10
91.24815584977524
 20
62.50654129696876
 30
0.0
 10
91.22424416872319
 20
62.55806423127182
 30
0.0
 10
91.20696265914926
 20
62.60827572238252
 30
0.0
 10
91.19578826010618
 20
62.6548446176146
 30
0.0
 10
91.18826494696582
 20
62.70234455027072
 30
0.0
 10
91.18752357334115
 20
62.73428863263245
 30
0.0
 10
91.18715284511548
 20
62.75026245821898
 30
0.0
  0
LINE
  5
11F
330
1F
100
AcDbEntity
  8
0
  6
Continuous
 62
     7
370
    18
100
AcDbLine
 10
90.8025371109
 20
62.4990586828
 30
0.0
 11
91.3205662009
 21
62.3989834156
 31
0.0
  0
LINE
  5
120
330
1F
100
AcDbEntity
  8
0
  6
Continuous
 62
     7
370
    18
100
AcDbLine
 10
90.8025371109
 20
62.4990586828
 30
0.0
 11
90.8025371109
 21
63.2299224551
 31
0.0
  0
LINE
  5
121
330
1F
100
AcDbEntity
  8
0
  6
Continuous
 62
     7
370
    18
100
AcDbLine
 10
90.5461272423
 20
63.2299224551
 30
0.0
 11
90.8025371109
 21
63.2299224551
 31
0.0
  0
LINE
  5
122
330
1F
100
AcDbEntity
  8
0
  6
Continuous
 62
     7
370
    18
100
AcDbLine
 10
90.5461272423
 20
62.2931628193
 30
0.0
 11
90.5461272423
 21
63.2299224551
 31
0.0
  0
LINE
  5
123
330
1F
100
AcDbEntity
  8
0
  6
Continuous
 62
     7
370
    18
100
AcDbLine
 10
91.5717681137
 20
62.092244875
 30
0.0
 11
90.5461272423
 21
62.2931628193
 31
0.0
  0
LINE
  5
124
330
1F
100
AcDbEntity
  8
0
  6
Continuous
 62
     7
370
    18
100
AcDbLine
 10
91.5974092868
 20
62.3434942852
 30
0.0
 11
91.5717681137
 21
62.092244875
 31
0.0
  0
SPLINE
  5
125
330
1F
100
AcDbEntity
  8
0
  6
Continuous
 62
     7
370
    18
100
AcDbSpline
210
0.0
220
0.0
230
1.0
 70
     8
 71
     3
 72
    11
 73
     7
 74
     0
 42
0.000000001
 43
0.00000001
 40
0.0
 40
0.0
 40
0.0
 40
0.0
 40
0.250278065386737
 40
0.5000443208679268
 40
0.7516547551993495
 40
0.9999999999999999
 40
0.9999999999999999
 40
0.9999999999999999
 40
0.9999999999999999
 10
91.41792200625044
 20
62.68026611615603
 30
0.0
 10
91.41942601886149
 20
62.64695383641757
 30
0.0
 10
91.42243096843028
 20
62.58039739938964
 30
0.0
 10
91.45676016394137
 20
62.48507550966715
 30
0.0
 10
91.51673527284308
 20
62.40332210927906
 30
0.0
 10
91.5706352883919
 20
62.36334987425704
 30
0.0
 10
91.59740928679805
 20
62.34349428523962
 30
0.0
  0
SPLINE
  5
126
330
1F
100
AcDbEntity
  8
0
  6
Continuous
 62
     7
370
    18
100
AcDbSpline
210
0.0
220
0.0
230
1.0
 70
     8
 71
     3
 72
    17
 73
    13
 74
     0
 42
0.000000001
 43
0.00000001
 40
0.0
 40
0.0
 40
0.0
 40
0.0
 40
0.090463072051356
 40
0.1675105425300461
 40
0.2502753141838991
 40
0.3760326542216683
 40
0.5001769000821302
 40
0.6249238918351483
 40
0.7497572582958053
 40
0.8329206372048417
 40
0.9084179702857206
 40
1.0
 40
1.0
 40
1.0
 40
1.0
 10
91.84981307134133
 20
63.07730103690808
 30
0.0
 10
91.82959011066004
 20
63.0768147260136
 30
0.0
 10
91.79214323826815
 20
63.07591422374319
 30
0.0
 10
91.73657468776148
 20
63.06885072476479
 30
0.0
 10
91.67415975233845
 20
63.05520065910351
 30
0.0
 10
91.60441083776092
 20
63.02823216302522
 30
0.0
 10
91.53407362926875
 20
62.98185854836826
 30
0.0
 10
91.47785057982185
 20
62.91936314686553
 30
0.0
 10
91.44451057880563
 20
62.8526872417752
 30
0.0
 10
91.42777804561234
 20
62.79211602660673
 30
0.0
 10
91.41976866087363
 20
62.73731683326749
 30
0.0
 10
91.41857583547842
 20
62.70046557622633
 30
0.0
 10
91.41792200625044
 20
62.68026611615603
 30
0.0
  0
SPLINE
  5
127
330
1F
100
AcDbEntity
  8
0
  6
Continuous
 62
     7
370
    18
100
AcDbSpline
210
0.0
220
0.0
230
1.0
 70
     8
 71
     3
 72
    18
 73
    14
 74
     0
 42
0.000000001
 43
0.00000001
 40
0.0
 40
0.0
 40
0.0
 40
0.0
 40
0.0897406240083185
 40
0.1683876326739002
 40
0.250058268608977
 40
0.3720297255977997
 40
0.4347925041443705
 40
0.4999519394724241
 40
0.6229181695213539
 40
0.7498427289730274
 40
0.8317142420564226
 40
0.9101220690515645
 40
1.0
 40
1.0
 40
1.0
 40
1.0
 10
92.31535794332724
 20
62.67908054251854
 30
0.0
 10
92.31461570516282
 20
62.69959267915565
 30
0.0
 10
92.31322298331843
 20
62.73808126966384
 30
0.0
 10
92.3022555770361
 20
62.79443292473925
 30
0.0
 10
92.28158967367902
 20
62.85591480534132
 30
0.0
 10
92.24950078386183
 20
62.90896299354018
 30
0.0
 10
92.21070282299355
 20
62.95157711690069
 30
0.0
 10
92.16690963460789
 20
62.98951120634659
 30
0.0
 10
92.10468526732166
 20
63.02822101540642
 30
0.0
 10
92.0321906740372
 20
63.05480654947051
 30
0.0
 10
91.96712112076074
 20
63.06865449251853
 30
0.0
 10
91.90959007771556
 20
63.07595214015917
 30
0.0
 10
91.87062402920402
 20
63.07683142768698
 30
0.0
 10
91.84981307134133
 20
63.07730103690808
 30
0.0
  0
SPLINE
  5
128
330
1F
100
AcDbEntity
  8
0
  6
Continuous
 62
     7
370
    18
100
AcDbSpline
210
0.0
220
0.0
230
1.0
 70
     8
 71
     3
 72
    17
 73
    13
 74
     0
 42
0.000000001
 43
0.00000001
 40
0.0
 40
0.0
 40
0.0
 40
0.0
 40
0.092196599911652
 40
0.1659682466729103
 40
0.2502321990059755
 40
0.3775019827241148
 40
0.5000719604840592
 40
0.624429658883081
 40
0.7498323858664071
 40
0.8325205526323777
 40
0.9082725855833341
 40
1.0
 40
1.0
 40
1.0
 40
1.0
 10
91.956383382232
 20
62.31832343001549
 30
0.0
 10
91.97358435513053
 20
62.32131973094197
 30
0.0
 10
92.00454878674485
 20
62.32671353951787
 30
0.0
 10
92.05060758089365
 20
62.33793202637906
 30
0.0
 10
92.10178500325998
 20
62.35519437604645
 30
0.0
 10
92.15902608894382
 20
62.38245501284393
 30
0.0
 10
92.2161803708766
 20
62.42442315233752
 30
0.0
 10
92.2629033648881
 20
62.477281944361
 30
0.0
 10
92.29118807133241
 20
62.53338396871222
 30
0.0
 10
92.30622363781686
 20
62.58437127094491
 30
0.0
 10
92.31365462376182
 20
62.63063471435076
 30
0.0
 10
92.31475517726392
 20
62.66193666551423
 30
0.0
 10
92.31535794332724
 20
62.67908054251854
 30
0.0
  0
LINE
  5
129
330
1F
100
AcDbEntity
  8
0
  6
Continuous
 62
     7
370
    18
100
AcDbLine
 10
91.9820245554
 20
62.0671773966
 30
0.0
 11
91.9563833822
 21
62.31832343
 31
0.0
  0
SPLINE
  5
12A
330
1F
100
AcDbEntity
  8
0
  6
Continuous
 62
     7
370
    18
100
AcDbSpline
210
0.0
220
0.0
230
1.0
 70
     8
 71
     3
 72
    18
 73
    14
 74
     0
 42
0.000000001
 43
0.00000001
 40
0.0
 40
0.0
 40
0.0
 40
0.0
 40
0.0895435273674479
 40
0.1682848238926653
 40
0.2501084187220653
 40
0.3750799229877456
 40
0.4999411565815183
 40
0.6245972847586492
 40
0.6868692936856592
 40
0.7499160744642598
 40
0.8314459486277549
 40
0.9114773400820091
 40
1.0
 40
1.0
 40
1.0
 40
1.0
 10
92.5461271044622
 20
62.67749915678684
 30
0.0
 10
92.5452989563463
 20
62.65009217082149
 30
0.0
 10
92.5437425651259
 20
62.59858448576367
 30
0.0
 10
92.53218049850263
 20
62.52282507689638
 30
0.0
 10
92.50946028297395
 20
62.43839019466088
 30
0.0
 10
92.46652447769974
 20
62.34561529374965
 30
0.0
 10
92.39677876573094
 20
62.25348826498299
 30
0.0
 10
92.32431315990209
 20
62.18964228214932
 30
0.0
 10
92.25919990854246
 20
62.1481999264004
 30
0.0
 10
92.20208616126044
 20
62.1193099213822
 30
0.0
 10
92.13664025945818
 20
62.0954283805288
 30
0.0
 10
92.06125197258505
 20
62.07671143369947
 30
0.0
 10
92.00930599083262
 20
62.07046037902623
 30
0.0
 10
91.98202455535633
 20
62.06717739660923
 30
0.0
  0
SPLINE
  5
12B
330
1F
100
AcDbEntity
  8
0
  6
Continuous
 62
     7
370
    18
100
AcDbSpline
210
0.0
220
0.0
230
1.0
 70
     8
 71
     3
 72
    12
 73
     8
 74
     0
 42
0.000000001
 43
0.00000001
 40
0.0
 40
0.0
 40
0.0
 40
0.0
 40
0.2499431111380034
 40
0.4997897395063359
 40
0.7496276104466908
 40
0.8747885992476164
 40
1.0
 40
1.0
 40
1.0
 40
1.0
 10
92.30333875984056
 20
63.17981823195402
 30
0.0
 10
92.34031470988508
 20
63.14817160093408
 30
0.0
 10
92.41425233655784
 20
63.08489055509251
 30
0.0
 10
92.49316932194422
 20
62.96060245805481
 30
0.0
 10
92.52995931807759
 20
62.84495096984021
 30
0.0
 10
92.54453949589805
 20
62.74966124082985
 30
0.0
 10
92.54559783057634
 20
62.70155641340295
 30
0.0
 10
92.5461271044622
 20
62.67749915678684
 30
0.0
  0
SPLINE
  5
12C
330
1F
100
AcDbEntity
  8
0
  6
Continuous
 62
     7
370
    18
100
AcDbSpline
210
0.0
220
0.0
230
1.0
 70
     8
 71
     3
 72
    19
 73
    15
 74
     0
 42
0.000000001
 43
0.00000001
 40
0.0
 40
0.0
 40
0.0
 40
0.0
 40
0.0625011872855552
 40
0.1249816610269325
 40
0.1872218847230418
 40
0.2499723962789085
 40
0.3066784650141318
 40
0.3670260170202703
 40
0.4313570580314657
 40
0.4999546481617269
 40
0.6148456948273824
 40
0.7499570982809374
 40
0.862016570308981
 40
1.0
 40
1.0
 40
1.0
 40
1.0
 10
91.07256943479281
 20
61.76725613732521
 30
0.0
 10
91.09391985822599
 20
61.76666303864175
 30
0.0
 10
91.13661362933973
 20
61.76547703783388
 30
0.0
 10
91.19990466820573
 20
61.75556960689149
 30
0.0
 10
91.26186945050779
 20
61.73969141377166
 30
0.0
 10
91.32026177105543
 20
61.71905529482632
 30
0.0
 10
91.37584673913042
 20
61.6935864017839
 30
0.0
 10
91.42957572017487
 20
61.66357946248748
 30
0.0
 10
91.48435544275243
 20
61.62781777729131
 30
0.0
 10
91.55160351019235
 20
61.57797670589517
 30
0.0
 10
91.63270234409198
 20
61.50761448989039
 30
0.0
 10
91.71882891081543
 20
61.4218687917059
 30
0.0
 10
91.80669560821701
 20
61.32751535396672
 30
0.0
 10
91.86236292219826
 20
61.26527564992848
 30
0.0
 10
91.89308231815797
 20
61.23092935268466
 30
0.0
  0
SPLINE
  5
12D
330
1F
100
AcDbEntity
  8
0
  6
Continuous
 62
     7
370
    18
100
AcDbSpline
210
0.0
220
0.0
230
1.0
 70
     8
 71
     3
 72
    21
 73
    17
 74
     0
 42
0.000000001
 43
0.00000001
 40
0.0
 40
0.0
 40
0.0
 40
0.0
 40
0.0898498536319867
 40
0.1681588167149322
 40
0.2500703990625155
 40
0.376637330432979
 40
0.4383777584475937
 40
0.500000046598794
 40
0.6262410589217771
 40
0.6880602425853076
 40
0.7499197607048347
 40
0.810641942052477
 40
0.8749301136876014
 40
0.9075662957727002
 40
0.9374681573235094
 40
0.9999999999999999
 40
0.9999999999999999
 40
0.9999999999999999
 40
0.9999999999999999
 10
90.52048606917363
 20
61.17284416068976
 30
0.0
 10
90.52118297064024
 20
61.1995337473248
 30
0.0
 10
90.52248725908652
 20
61.24948473918219
 30
0.0
 10
90.53310138364907
 20
61.32335892744974
 30
0.0
 10
90.55358938109667
 20
61.40664398535473
 30
0.0
 10
90.5855654534574
 20
61.48194555427135
 30
0.0
 10
90.62633071818159
 20
61.54564093178333
 30
0.0
 10
90.67411815572774
 20
61.6044774928347
 30
0.0
 10
90.73099238575061
 20
61.65610670079579
 30
0.0
 10
90.7953489666233
 20
61.69786247315455
 30
0.0
 10
90.84597887617406
 20
61.72363118965205
 30
0.0
 10
90.90011860554965
 20
61.74367519391873
 30
0.0
 10
90.94753145705644
 20
61.75517153991176
 30
0.0
 10
90.98616818385246
 20
61.76180352673511
 30
0.0
 10
91.02459962910493
 20
61.7663956884923
 30
0.0
 10
91.05321261385791
 20
61.76690892820598
 30
0.0
 10
91.07256943479281
 20
61.76725613732521
 30
0.0
  0
SPLINE
  5
12E
330
1F
100
AcDbEntity
  8
0
  6
Continuous
 62
     7
370
    18
100
AcDbSpline
210
0.0
220
0.0
230
1.0
 70
     8
 71
     3
 72
    19
 73
    15
 74
     0
 42
0.000000001
 43
0.00000001
 40
0.0
 40
0.0
 40
0.0
 40
0.0
 40
0.0709867566420733
 40
0.1250789476004126
 40
0.1881894847855138
 40
0.250164070622878
 40
0.3768502766399086
 40
0.4999076634601288
 40
0.6225537266005653
 40
0.6853063481822159
 40
0.7498738687813427
 40
0.8317219555292437
 40
0.9099440207166701
 40
0.9999999999999999
 40
0.9999999999999999
 40
0.9999999999999999
 40
0.9999999999999999
 10
91.08458861827951
 20
60.56261972372119
 30
0.0
 10
91.06217613103078
 20
60.56525532489493
 30
0.0
 10
91.02268523933793
 20
60.56989926464792
 30
0.0
 10
90.96376312744381
 20
60.58019540883265
 30
0.0
 10
90.90882590841238
 20
60.5948816148369
 30
0.0
 10
90.83375709051245
 20
60.62142075702874
 30
0.0
 10
90.74624585309822
 20
60.66739249310136
 30
0.0
 10
90.6587267133151
 20
60.74462736169961
 30
0.0
 10
90.60360539242316
 20
60.82273321079596
 30
0.0
 10
90.57028178179137
 20
60.89158773604906
 30
0.0
 10
90.54870154647793
 20
60.95171462177178
 30
0.0
 10
90.53285465901192
 20
61.01839530328567
 30
0.0
 10
90.52275450137962
 20
61.09402502255587
 30
0.0
 10
90.52127685112632
 20
61.14536758378453
 30
0.0
 10
90.52048606917363
 20
61.17284416068976
 30
0.0
  0
LINE
  5
12F
330
1F
100
AcDbEntity
  8
0
  6
Continuous
 62
     7
370
    18
100
AcDbLine
 10
91.1102297914
 20
60.8055156361
 30
0.0
 11
91.0845886183
 21
60.5626197237
 31
0.0
  0
SPLINE
  5
130
330
1F
100
AcDbEntity
  8
0
  6
Continuous
 62
     7
370
    18
100
AcDbSpline
210
0.0
220
0.0
230
1.0
 70
     8
 71
     3
 72
    16
 73
    12
 74
     0
 42
0.000000001
 43
0.00000001
 40
0.0
 40
0.0
 40
0.0
 40
0.0
 40
0.1279518960529512
 40
0.2500868212305622
 40
0.3781124232075295
 40
0.4395367364527273
 40
0.5001739676293259
 40
0.6250722639599697
 40
0.7499620282942449
 40
0.8749145625600092
 40
1.0
 40
1.0
 40
1.0
 40
1.0
 10
90.75125523030859
 20
61.16746297885363
 30
0.0
 10
90.75222182902682
 20
61.14334270166419
 30
0.0
 10
90.75411108278786
 20
61.09619870743209
 30
0.0
 10
90.77004094766592
 20
61.02633985286157
 30
0.0
 10
90.79447998141336
 20
60.97224078577105
 30
0.0
 10
90.82105379699587
 20
60.93269226089143
 30
0.0
 10
90.85187933180502
 20
60.89690324047372
 30
0.0
 10
90.89797549771589
 20
60.8578247255593
 30
0.0
 10
90.96477071632007
 20
60.82693551885355
 30
0.0
 10
91.03639549012357
 20
60.80838636904529
 30
0.0
 10
91.08560963801284
 20
60.80647288610769
 30
0.0
 10
91.11022979140382
 20
60.80551563610022
 30
0.0
  0
SPLINE
  5
131
330
1F
100
AcDbEntity
  8
0
  6
Continuous
 62
     7
370
    18
100
AcDbSpline
210
0.0
220
0.0
230
1.0
 70
     8
 71
     3
 72
    14
 73
    10
 74
     0
 42
0.000000001
 43
0.00000001
 40
0.0
 40
0.0
 40
0.0
 40
0.0
 40
0.1250808292878958
 40
0.2500322328152709
 40
0.371045230714902
 40
0.5001740696514193
 40
0.6252056105601227
 40
0.750283956008183
 40
1.0
 40
1.0
 40
1.0
 40
1.0
 10
91.0749731783579
 20
61.51865261454765
 30
0.0
 10
91.05222235525147
 20
61.51744117093502
 30
0.0
 10
91.00674425015679
 20
61.51501953723524
 30
0.0
 10
90.9421022727296
 20
61.49386315319408
 30
0.0
 10
90.88378716372124
 20
61.4591198232666
 30
0.0
 10
90.8340398174778
 20
61.41339432617342
 30
0.0
 10
90.79518867140185
 20
61.35817691203588
 30
0.0
 10
90.75858238938038
 20
61.2772294499465
 30
0.0
 10
90.75418505994658
 20
61.21135407731556
 30
0.0
 10
90.75125523030859
 20
61.16746297885363
 30
0.0
  0
SPLINE
  5
132
330
1F
100
AcDbEntity
  8
0
  6
Continuous
 62
     7
370
    18
100
AcDbSpline
210
0.0
220
0.0
230
1.0
 70
     8
 71
     3
 72
    19
 73
    15
 74
     0
 42
0.000000001
 43
0.00000001
 40
0.0
 40
0.0
 40
0.0
 40
0.0
 40
0.0997084275448253
 40
0.1928504343460648
 40
0.2794439918146353
 40
0.3595107699210561
 40
0.4330786058266263
 40
0.5001830996823425
 40
0.589527608751393
 40
0.6693201629712129
 40
0.7502287563287267
 40
0.8750586361055633
 40
0.9375362906355904
 40
1.0
 40
1.0
 40
1.0
 40
1.0
 10
91.7724890832613
 20
61.00176066939418
 30
0.0
 10
91.75303902023917
 20
61.02371118819593
 30
0.0
 10
91.71541980194196
 20
61.0661666474713
 30
0.0
 10
91.65990692163206
 20
61.12698839435786
 30
0.0
 10
91.60748379194705
 20
61.1829178134944
 30
0.0
 10
91.55808135887592
 20
61.23388658684379
 30
0.0
 10
91.51174624289155
 20
61.27992051250317
 30
0.0
 10
91.46219835601651
 20
61.3267219565308
 30
0.0
 10
91.40996529344159
 20
61.37352741959072
 30
0.0
 10
91.35120707477923
 20
61.41932494367588
 30
0.0
 10
91.27941860794147
 20
61.46561304432311
 30
0.0
 10
91.20505793878579
 20
61.49810346587535
 30
0.0
 10
91.13160954712556
 20
61.51612487144245
 30
0.0
 10
91.0938505631407
 20
61.51781009621064
 30
0.0
 10
91.0749731783579
 20
61.51865261454765
 30
0.0
  0
SPLINE
  5
133
330
1F
100
AcDbEntity
  8
0
  6
Continuous
 62
     7
370
    18
100
AcDbSpline
210
0.0
220
0.0
230
1.0
 70
     8
 71
     3
 72
    16
 73
    12
 74
     0
 42
0.000000001
 43
0.00000001
 40
0.0
 40
0.0
 40
0.0
 40
0.0
 40
0.1249793616269054
 40
0.2499659154280143
 40
0.3725117925686064
 40
0.4999163962644849
 40
0.5942289752702979
 40
0.6999390562841504
 40
0.8022802469613993
 40
0.8904861613183686
 40
0.9999999999999999
 40
0.9999999999999999
 40
0.9999999999999999
 40
0.9999999999999999
 10
92.34260145694118
 20
60.56375407461707
 30
0.0
 10
92.31348699616244
 20
60.57390724372714
 30
0.0
 10
92.25525639915814
 20
60.59421416623062
 30
0.0
 10
92.1741342243757
 20
60.63654010265204
 30
0.0
 10
92.0962409267686
 20
60.68473180352112
 30
0.0
 10
92.02958836961038
 20
60.73554310139384
 30
0.0
 10
91.97007795393125
 20
60.78804134875657
 30
0.0
 10
91.91778117011326
 20
60.83916518133358
 30
0.0
 10
91.86818678660362
 20
60.89079223213141
 30
0.0
 10
91.81991380823555
 20
60.94480071795581
 30
0.0
 10
91.78939369206815
 20
60.98145721592671
 30
0.0
 10
91.77248908326132
 20
61.00176066939418
 30
0.0
  0
SPLINE
  5
134
330
1F
100
AcDbEntity
  8
0
  6
Continuous
 62
     7
370
    18
100
AcDbSpline
210
0.0
220
0.0
230
1.0
 70
     8
 71
     3
 72
    11
 73
     7
 74
     0
 42
0.000000001
 43
0.00000001
 40
0.0
 40
0.0
 40
0.0
 40
0.0
 40
0.2673530156006112
 40
0.4999338788105463
 40
0.7499437434850245
 40
1.0
 40
1.0
 40
1.0
 40
1.0
 10
92.52048593133789
 20
60.53842210058753
 30
0.0
 10
92.50436831858096
 20
60.53859409135887
 30
0.0
 10
92.47422936299581
 20
60.53891570364082
 30
0.0
 10
92.42923067043277
 20
60.54326458346839
 30
0.0
 10
92.38569401860994
 20
60.55074519957085
 30
0.0
 10
92.35696653252725
 20
60.55941751475403
 30
0.0
 10
92.34260145694118
 20
60.56375407461707
 30
0.0
  0
LINE
  5
135
330
1F
100
AcDbEntity
  8
0
  6
Continuous
 62
     7
370
    18
100
AcDbLine
 10
92.5204859313
 20
60.5384221006
 30
0.0
 11
92.5204859313
 21
61.79218578
 31
0.0
  0
LINE
  5
136
330
1F
100
AcDbEntity
  8
0
  6
Continuous
 62
     7
370
    18
100
AcDbLine
 10
92.2640755971
 20
61.79218578
 30
0.0
 11
92.5204859313
 21
61.79218578
 31
0.0
  0
LINE
  5
137
330
1F
100
AcDbEntity
  8
0
  6
Continuous
 62
     7
370
    18
100
AcDbLine
 10
92.2640755971
 20
60.8504780274
 30
0.0
 11
92.2640755971
 21
61.79218578
 31
0.0
  0
ARC
  5
138
330
1F
100
AcDbEntity
  8
0
  6
Continuous
 62
     7
370
    18
100
AcDbCircle
 10
93.868542759
 20
62.7861688668
 30
0.0
 40
2.514202438034505
100
AcDbArc
 50
218.2126334862
 51
230.3451377055
  0
LINE
  5
139
330
1F
100
AcDbEntity
  8
0
  6
Continuous
 62
     7
370
    18
100
AcDbLine
 10
89.1619076219
 20
77.4518971037
 30
0.0
 11
89.1619076219
 21
52.0518970614
 31
0.0
  0
SPLINE
  5
13A
330
1F
100
AcDbEntity
  8
0
  6
Continuous
 62
     7
370
    18
100
AcDbSpline
210
0.0
220
0.0
230
1.0
 70
     8
 71
     3
 72
    71
 73
    67
 74
     0
 42
0.000000001
 43
0.00000001
 40
0.0
 40
0.0
 40
0.0
 40
0.0
 40
0.0192603812790737
 40
0.0433914888741604
 40
0.0678028210211257
 40
0.0924943822964724
 40
0.1174661805218753
 40
0.1384917404678328
 40
0.1597119606950062
 40
0.1811268370577054
 40
0.1992667830808541
 40
0.2175441098621103
 40
0.2216666040969965
 40
0.2257960175241733
 40
0.2299323592071755
 40
0.2340756280733731
 40
0.2382258223331155
 40
0.24238294339003
 40
0.2465469874223113
 40
0.2611005921622426
 40
0.2768134264827981
 40
0.2936854339436746
 40
0.3117165662635316
 40
0.3309067715107015
 40
0.3512559844674256
 40
0.372764133705538
 40
0.3954311527143733
 40
0.4192569754359124
 40
0.42849233800368
 40
0.4378907309692549
 40
0.4474521799683822
 40
0.4571766751576177
 40
0.4670642251338338
 40
0.4771148072232466
 40
0.4873284415869287
 40
0.497705109870491
 40
0.511992613803673
 40
0.5280933280008105
 40
0.5437965970236939
 40
0.5591023983612202
 40
0.5740107226354834
 40
0.5979710894953474
 40
0.6208278073887474
 40
0.6425808031031198
 40
0.6632299678519343
 40
0.6827753282282655
 40
0.7012167412407313
 40
0.7185542316750917
 40
0.7347876781363395
 40
0.7499170786688704
 40
0.7555819082706563
 40
0.7624709982093991
 40
0.7693419184863669
 40
0.776194663242196
 40
0.7830292635277806
 40
0.7898457389792121
 40
0.805839875374346
 40
0.8217331453481287
 40
0.8405214415662275
 40
0.859166807729031
 40
0.8776692688608021
 40
0.9026666901636853
 40
0.9273984646311179
 40
0.9518646009449518
 40
0.9760651098942248
 40
0.9999999999999999
 40
0.9999999999999999
 40
0.9999999999999999
 40
0.9999999999999999
 10
93.88263134405118
 20
52.05733761504923
 30
0.0
 10
93.8826092999587
 20
52.05955548673251
 30
0.0
 10
93.88255963707928
 20
52.06455210404113
 30
0.0
 10
93.88169916098082
 20
52.1574498915217
 30
0.0
 10
93.88020179306181
 20
52.32211013940363
 30
0.0
 10
93.87803100515674
 20
52.56383957389909
 30
0.0
 10
93.87537359835252
 20
52.86306984247441
 30
0.0
 10
93.87233984158553
 20
53.2069710144519
 30
0.0
 10
93.8690415916383
 20
53.58278314105435
 30
0.0
 10
93.86549121559612
 20
53.98832061891296
 30
0.0
 10
93.86177129477518
 20
54.41383976817853
 30
0.0
 10
93.85894563049199
 20
54.73681142560552
 30
0.0
 10
93.85701152981207
 20
54.95761377295081
 30
0.0
 10
93.85609450247263
 20
55.06234006421871
 30
0.0
 10
93.85516006124917
 20
55.16884598512389
 30
0.0
 10
93.85421007932082
 20
55.27712286636667
 30
0.0
 10
93.85324468537901
 20
55.38716015967593
 30
0.0
 10
93.85226147859674
 20
55.49894820361078
 30
0.0
 10
93.85043561821755
 20
55.70682845588482
 30
0.0
 10
93.84756452613975
 20
56.02927684697161
 30
0.0
 10
93.8433948214977
 20
56.49084119594186
 30
0.0
 10
93.83870471693878
 20
57.00849995559879
 30
0.0
 10
93.83349183933953
 20
57.58537123653443
 30
0.0
 10
93.82775485296435
 20
58.22417403312603
 30
0.0
 10
93.82149538816698
 20
58.92705956357019
 30
0.0
 10
93.8147132326112
 20
59.69545829072575
 30
0.0
 10
93.80740675261798
 20
60.52983502717623
 30
0.0
 10
93.80130199493351
 20
61.23146062846124
 30
0.0
 10
93.79659755480267
 20
61.77340699809606
 30
0.0
 10
93.7934545471465
 20
62.13583205418369
 30
0.0
 10
93.79023602628885
 20
62.50683889104129
 30
0.0
 10
93.78694584520395
 20
62.88621552527692
 30
0.0
 10
93.78358203274823
 20
63.27370754716944
 30
0.0
 10
93.78014291618092
 20
63.66902625285997
 30
0.0
 10
93.77663165118757
 20
64.07184718825029
 30
0.0
 10
93.77261718457838
 20
64.53115481578969
 30
0.0
 10
93.7678770137721
 20
65.06846137654983
 30
0.0
 10
93.76255666353939
 20
65.67532710238761
 30
0.0
 10
93.75716434506192
 20
66.29334429895142
 30
0.0
 10
93.75195160952298
 20
66.8921702325181
 30
0.0
 10
93.74585841348659
 20
67.59296997226821
 30
0.0
 10
93.73900262992306
 20
68.38109651513687
 30
0.0
 10
93.7315208617093
 20
69.23763602829811
 30
0.0
 10
93.72454545594738
 20
70.03167050946394
 30
0.0
 10
93.71806935420966
 20
70.76294836324608
 30
0.0
 10
93.71209900410305
 20
71.43219980893501
 30
0.0
 10
93.70663184654141
 20
72.0409330584884
 30
0.0
 10
93.70166603780797
 20
72.59128230971976
 30
0.0
 10
93.69720486590585
 20
73.0858480965211
 30
0.0
 10
93.69397203204696
 20
73.44624100217447
 30
0.0
 10
93.69165965991549
 20
73.70748267894284
 30
0.0
 10
93.69006883207317
 20
73.88727631458164
 30
0.0
 10
93.68841979367818
 20
74.07387878017332
 30
0.0
 10
93.68681755711944
 20
74.25574061979171
 30
0.0
 10
93.68525836352242
 20
74.43281597535804
 30
0.0
 10
93.68306134077734
 20
74.68250940434693
 30
0.0
 10
93.68032289033832
 20
74.99449718885276
 30
0.0
 10
93.6769768893963
 20
75.37623292974193
 30
0.0
 10
93.67373228438846
 20
75.74631091725898
 30
0.0
 10
93.67065483497835
 20
76.09730728624616
 30
0.0
 10
93.66759747634025
 20
76.44498200061703
 30
0.0
 10
93.66472323247771
 20
76.77080572542891
 30
0.0
 10
93.66220855653998
 20
77.05385041951227
 30
0.0
 10
93.66035776662551
 20
77.26072454144342
 30
0.0
 10
93.65910773752609
 20
77.39912212210652
 30
0.0
 10
93.65882262884776
 20
77.430908082196
 30
0.0
 10
93.65868086114627
 20
77.44671336223071
 30
0.0
  0
SPLINE
  5
13B
330
1F
100
AcDbEntity
  8
0
  6
Continuous
 62
     7
370
    18
100
AcDbSpline
210
0.0
220
0.0
230
1.0
 70
     8
 71
     3
 72
     9
 73
     5
 74
     0
 42
0.000000001
 43
0.00000001
 40
0.0
 40
0.0
 40
0.0
 40
0.0
 40
0.2696514164204453
 40
1.0
 40
1.0
 40
1.0
 40
1.0
 10
93.65868086114627
 20
77.44671336223071
 30
0.0
 10
93.65867351241685
 20
77.44758202673555
 30
0.0
 10
93.65864625971587
 20
77.45080346171393
 30
0.0
 10
93.65864042155512
 20
77.45143549734968
 30
0.0
 10
93.65863615766268
 20
77.45189710368102
 30
0.0
  0
LINE
  5
13C
330
1F
100
AcDbEntity
  8
0
  6
Continuous
 62
     7
370
    18
100
AcDbLine
 10
90.828178284
 20
58.7794056799
 30
0.0
 11
92.5204859313
 21
58.7794056799
 31
0.0
  0
LINE
  5
13D
330
1F
100
AcDbEntity
  8
0
  6
Continuous
 62
     7
370
    18
100
AcDbLine
 10
92.5204859313
 20
59.2526102144
 30
0.0
 11
90.828178284
 21
58.7794056799
 31
0.0
  0
LINE
  5
13E
330
1F
100
AcDbEntity
  8
0
  6
Continuous
 62
     7
370
    18
100
AcDbLine
 10
92.5204859313
 20
59.2526102144
 30
0.0
 11
92.5204859313
 21
59.5198620747
 31
0.0
  0
LINE
  5
13F
330
1F
100
AcDbEntity
  8
0
  6
Continuous
 62
     7
370
    18
100
AcDbLine
 10
90.828178284
 20
60.010601085
 30
0.0
 11
92.5204859313
 21
59.5198620747
 31
0.0
  0
LINE
  5
140
330
1F
100
AcDbEntity
  8
0
  6
Continuous
 62
     7
370
    18
100
AcDbLine
 10
92.5204859313
 20
60.010601085
 30
0.0
 11
90.828178284
 21
60.010601085
 31
0.0
  0
LINE
  5
141
330
1F
100
AcDbEntity
  8
0
  6
Continuous
 62
     7
370
    18
100
AcDbLine
 10
92.5204859313
 20
60.010601085
 30
0.0
 11
92.5204859313
 21
60.2734072771
 31
0.0
  0
LINE
  5
142
330
1F
100
AcDbEntity
  8
0
  6
Continuous
 62
     7
370
    18
100
AcDbLine
 10
90.5204860692
 20
60.2734072771
 30
0.0
 11
92.5204859313
 21
60.2734072771
 31
0.0
  0
LINE
  5
143
330
1F
100
AcDbEntity
  8
0
  6
Continuous
 62
     7
370
    18
100
AcDbLine
 10
90.5204860692
 20
59.8822867203
 30
0.0
 11
90.5204860692
 21
60.2734072771
 31
0.0
  0
LINE
  5
144
330
1F
100
AcDbEntity
  8
0
  6
Continuous
 62
     7
370
    18
100
AcDbLine
 10
91.8998930801
 20
59.4764563892
 30
0.0
 11
90.5204860692
 21
59.8822867203
 31
0.0
  0
LINE
  5
145
330
1F
100
AcDbEntity
  8
0
  6
Continuous
 62
     7
370
    18
100
AcDbLine
 10
92.2176016693
 20
59.3873269561
 30
0.0
 11
91.8998930801
 21
59.4764563892
 31
0.0
  0
SPLINE
  5
146
330
1F
100
AcDbEntity
  8
0
  6
Continuous
 62
     7
370
    18
100
AcDbSpline
210
0.0
220
0.0
230
1.0
 70
     8
 71
     3
 72
    11
 73
     7
 74
     0
 42
0.000000001
 43
0.00000001
 40
0.0
 40
0.0
 40
0.0
 40
0.0
 40
0.0212825351097564
 40
0.1992707893651857
 40
0.5296657781038885
 40
1.0
 40
1.0
 40
1.0
 40
1.0
 10
91.92393144711953
 20
59.30575567145531
 30
0.0
 10
91.92601222183653
 20
59.3063410269935
 30
0.0
 10
91.94549475144173
 20
59.31182177726847
 30
0.0
 10
91.99724834450525
 20
59.32648473980122
 30
0.0
 10
92.09284020303593
 20
59.35371940994422
 30
0.0
 10
92.17143592676508
 20
59.37489108654625
 30
0.0
 10
92.21760166928273
 20
59.38732695613687
 30
0.0
  0
LINE
  5
147
330
1F
100
AcDbEntity
  8
0
  6
Continuous
 62
     7
370
    18
100
AcDbLine
 10
90.5204860692
 20
58.9052962776
 30
0.0
 11
91.9239314471
 21
59.3057556715
 31
0.0
  0
LINE
  5
148
330
1F
100
AcDbEntity
  8
0
  6
Continuous
 62
     7
370
    18
100
AcDbLine
 10
90.5204860692
 20
58.5319830741
 30
0.0
 11
90.5204860692
 21
58.9052962776
 31
0.0
  0
LINE
  5
149
330
1F
100
AcDbEntity
  8
0
  6
Continuous
 62
     7
370
    18
100
AcDbLine
 10
92.5204859313
 20
58.5319830741
 30
0.0
 11
90.5204860692
 21
58.5319830741
 31
0.0
  0
LINE
  5
14A
330
1F
100
AcDbEntity
  8
0
  6
Continuous
 62
     7
370
    18
100
AcDbLine
 10
92.5204859313
 20
58.5319830741
 30
0.0
 11
92.5204859313
 21
58.7794056799
 31
0.0
  0
LINE
  5
14B
330
1F
100
AcDbEntity
  8
0
  6
Continuous
 62
     7
370
    18
100
AcDbLine
 10
92.0333064359
 20
64.6108745303
 30
0.0
 11
92.5204859313
 21
64.6108745303
 31
0.0
  0
LINE
  5
14C
330
1F
100
AcDbEntity
  8
0
  6
Continuous
 62
     7
370
    18
100
AcDbLine
 10
92.0333064359
 20
64.6108745303
 30
0.0
 11
92.0333064359
 21
64.8672797423
 31
0.0
  0
LINE
  5
14D
330
1F
100
AcDbEntity
  8
0
  6
Continuous
 62
     7
370
    18
100
AcDbLine
 10
91.7768961017
 20
64.8672797423
 30
0.0
 11
92.0333064359
 21
64.8672797423
 31
0.0
  0
LINE
  5
14E
330
1F
100
AcDbEntity
  8
0
  6
Continuous
 62
     7
370
    18
100
AcDbLine
 10
91.7768961017
 20
64.6108745303
 30
0.0
 11
91.7768961017
 21
64.8672797423
 31
0.0
  0
LINE
  5
14F
330
1F
100
AcDbEntity
  8
0
  6
Continuous
 62
     7
370
    18
100
AcDbLine
 10
90.5461272423
 20
64.6108745303
 30
0.0
 11
91.7768961017
 21
64.6108745303
 31
0.0
  0
LINE
  5
150
330
1F
100
AcDbEntity
  8
0
  6
Continuous
 62
     7
370
    18
100
AcDbLine
 10
90.5461272423
 20
64.4314179834
 30
0.0
 11
90.5461272423
 21
64.6108745303
 31
0.0
  0
SPLINE
  5
151
330
1F
100
AcDbEntity
  8
0
  6
Continuous
 62
     7
370
    18
100
AcDbSpline
210
0.0
220
0.0
230
1.0
 70
     8
 71
     3
 72
     9
 73
     5
 74
     0
 42
0.000000001
 43
0.00000001
 40
0.0
 40
0.0
 40
0.0
 40
0.0
 40
0.5000001451142373
 40
0.9999999999999999
 40
0.9999999999999999
 40
0.9999999999999999
 40
0.9999999999999999
 10
91.77689610168439
 20
63.48477794636671
 30
0.0
 10
91.57176798822034
 20
63.64227442728271
 30
0.0
 10
91.16151188036025
 20
63.95726729769478
 30
0.0
 10
90.75125541529601
 20
64.27336778538998
 30
0.0
 10
90.54612724229796
 20
64.4314179833669
 30
0.0
  0
LINE
  5
152
330
1F
100
AcDbEntity
  8
0
  6
Continuous
 62
     7
370
    18
100
AcDbLine
 10
92.0333064359
 20
63.4847779464
 30
0.0
 11
91.7768961017
 21
63.4847779464
 31
0.0
  0
LINE
  5
153
330
1F
100
AcDbEntity
  8
0
  6
Continuous
 62
     7
370
    18
100
AcDbLine
 10
92.0333064359
 20
63.4847779464
 30
0.0
 11
92.0333064359
 21
64.354526129
 31
0.0
  0
LINE
  5
154
330
1F
100
AcDbEntity
  8
0
  6
Continuous
 62
     7
370
    18
100
AcDbLine
 10
92.5204859313
 20
64.354526129
 30
0.0
 11
92.0333064359
 21
64.354526129
 31
0.0
  0
LINE
  5
155
330
1F
100
AcDbEntity
  8
0
  6
Continuous
 62
     7
370
    18
100
AcDbLine
 10
92.5204859313
 20
64.354526129
 30
0.0
 11
92.5204859313
 21
64.6108745303
 31
0.0
  0
SPLINE
  5
156
330
1F
100
AcDbEntity
  8
0
  6
Continuous
 62
     7
370
    18
100
AcDbSpline
210
0.0
220
0.0
230
1.0
 70
     8
 71
     3
 72
    59
 73
    55
 74
     0
 42
0.000000001
 43
0.00000001
 40
0.0
 40
0.0
 40
0.0
 40
0.0
 40
0.0199847971999219
 40
0.0399705796839855
 40
0.0599577400522301
 40
0.0799462831631315
 40
0.09993611065237
 40
0.1199276507569275
 40
0.1399217307915682
 40
0.1582518390330113
 40
0.1765814402751192
 40
0.1949094210807924
 40
0.2132372530814695
 40
0.2315666948663269
 40
0.2498980278269471
 40
0.2698969203483533
 40
0.2898973604126551
 40
0.309899356907848
 40
0.3299030121425972
 40
0.3499084996866056
 40
0.3699154989380899
 40
0.3899240071588422
 40
0.4082671300037484
 40
0.4266115255841571
 40
0.4449571693573555
 40
0.4633041754228756
 40
0.4816520070280188
 40
0.5000000073810471
 40
0.5200154816900824
 40
0.5400306918920406
 40
0.5600447563617688
 40
0.5800572103173353
 40
0.6000681961420846
 40
0.6200775861024184
 40
0.6400853014530452
 40
0.6584249284404261
 40
0.6767631317625022
 40
0.6950998290363216
 40
0.7134351943964174
 40
0.7317692241900371
 40
0.7501019679809194
 40
0.7700991846658163
 40
0.7900940862020801
 40
0.8100874479231063
 40
0.830081580242748
 40
0.8500774789666492
 40
0.8700727770683948
 40
0.8900655064015593
 40
0.9083907416652006
 40
0.9267147887332174
 40
0.9450377374398744
 40
0.9633595179793775
 40
0.9816801470925886
 40
1.0
 40
1.0
 40
1.0
 40
1.0
 10
94.0192517091344
 20
52.19331839435433
 30
0.0
 10
94.01920999518492
 20
52.19808376937257
 30
0.0
 10
94.01912656522943
 20
52.20761475435008
 30
0.0
 10
94.0184558225404
 20
52.28461561071074
 30
0.0
 10
94.01738579548325
 20
52.40719915879193
 30
0.0
 10
94.01588249218956
 20
52.57941866128218
 30
0.0
 10
94.01396348688168
 20
52.79937850040328
 30
0.0
 10
94.0116314456535
 20
53.06655568028172
 30
0.0
 10
94.00897319864495
 20
53.37114972034627
 30
0.0
 10
94.00603617670077
 20
53.70766057335344
 30
0.0
 10
94.00286758358278
 20
54.07083686141528
 30
0.0
 10
93.99938858328385
 20
54.46945041687461
 30
0.0
 10
93.99561275098185
 20
54.90211325222688
 30
0.0
 10
93.99155177290808
 20
55.36749018281382
 30
0.0
 10
93.98708771568569
 20
55.87902620360195
 30
0.0
 10
93.98220544080083
 20
56.43834471747332
 30
0.0
 10
93.97689825018051
 20
57.04652553891285
 30
0.0
 10
93.9713253612705
 20
57.68511509782709
 30
0.0
 10
93.96550810813144
 20
58.35170451069527
 30
0.0
 10
93.95946996089313
 20
59.04360743113423
 30
0.0
 10
93.95323572601617
 20
59.75807002795371
 30
0.0
 10
93.9470054714842
 20
60.47197843619057
 30
0.0
 10
93.94081973546135
 20
61.18072624346186
 30
0.0
 10
93.93471226748987
 20
61.8805303769041
 30
0.0
 10
93.92852269537272
 20
62.5899388788807
 30
0.0
 10
93.92226775495959
 20
63.30657282340582
 30
0.0
 10
93.91597134527085
 20
64.02802565573977
 30
0.0
 10
93.90946349861234
 20
64.77382055370428
 30
0.0
 10
93.90276266403099
 20
65.54157727250977
 30
0.0
 10
93.89589960824924
 20
66.3281091494824
 30
0.0
 10
93.88908970103829
 20
67.10839526073887
 30
0.0
 10
93.8823617807948
 20
67.8792960725676
 30
0.0
 10
93.87574399618694
 20
68.63777131098543
 30
0.0
 10
93.8692576007126
 20
69.38087119737011
 30
0.0
 10
93.86311010757431
 20
70.08548983093878
 30
0.0
 10
93.85730276045169
 20
70.75074938426272
 30
0.0
 10
93.85184269607007
 20
71.37654429603826
 30
0.0
 10
93.84657424825252
 20
71.98028814081138
 30
0.0
 10
93.84151376248346
 20
72.55999248164215
 30
0.0
 10
93.83668159769168
 20
73.1138052540156
 30
0.0
 10
93.83195261021763
 20
73.65573373397126
 30
0.0
 10
93.82736825199454
 20
74.18091234308486
 30
0.0
 10
93.82298014681562
 20
74.68386069225508
 30
0.0
 10
93.8189336988768
 20
75.14758461155846
 30
0.0
 10
93.81524355224484
 20
75.57032621528433
 30
0.0
 10
93.81192756662952
 20
75.95036736232603
 30
0.0
 10
93.80899517667862
 20
76.28629858327423
 30
0.0
 10
93.80653211137196
 20
76.56858517284007
 30
0.0
 10
93.80450655225455
 20
76.80061377078552
 30
0.0
 10
93.80289216477594
 20
76.98580166227939
 30
0.0
 10
93.80162612308649
 20
77.13069367224774
 30
0.0
 10
93.80072737876525
 20
77.233750784288
 30
0.0
 10
93.80016244167103
 20
77.29846387463513
 30
0.0
 10
93.8000924738083
 20
77.30647186191023
 30
0.0
 10
93.80005749061804
 20
77.31047577072566
 30
0.0
  0
LINE
  5
157
330
1F
100
AcDbEntity
  8
0
  6
Continuous
 62
     7
370
    18
100
AcDbLine
 10
91.7768961017
 20
64.354526129
 30
0.0
 11
91.0565437016
 21
64.354526129
 31
0.0
  0
LINE
  5
158
330
1F
100
AcDbEntity
  8
0
  6
Continuous
 62
     7
370
    18
100
AcDbLine
 10
91.0565437016
 20
64.354526129
 30
0.0
 11
91.7768961017
 21
63.8000660281
 31
0.0
  0
LINE
  5
159
330
1F
100
AcDbEntity
  8
0
  6
Continuous
 62
     7
370
    18
100
AcDbLine
 10
91.7768961017
 20
63.8000660281
 30
0.0
 11
91.7768961017
 21
64.354526129
 31
0.0
  0
LINE
  5
15A
330
1F
100
AcDbEntity
  8
0
  6
Continuous
 62
     7
370
    18
100
AcDbLine
 10
89.0204860561
 20
77.3104757707
 30
0.0
 11
89.0204860561
 21
52.1933183944
 31
0.0
  0
SPLINE
  5
15B
330
1F
100
AcDbEntity
  8
0
  6
Continuous
 62
     7
370
    18
100
AcDbSpline
210
0.0
220
0.0
230
1.0
 70
     8
 71
     3
 72
    20
 73
    16
 74
     0
 42
0.000000001
 43
0.00000001
 40
0.0
 40
0.0
 40
0.0
 40
0.0
 40
0.0967260141420448
 40
0.1801189654544653
 40
0.2502251448028515
 40
0.3449867149821293
 40
0.4282906646560657
 40
0.5004306216401528
 40
0.568746744617985
 40
0.6254918588912638
 40
0.7501025611427262
 40
0.8146562710513985
 40
0.8750486386360063
 40
0.9375009572955059
 40
1.0
 40
1.0
 40
1.0
 40
1.0
 10
91.53330635398729
 20
67.36138301749413
 30
0.0
 10
91.56470739895404
 20
67.36171364988057
 30
0.0
 10
91.62318105553727
 20
67.3623293390922
 30
0.0
 10
91.70438096113898
 20
67.36499701219125
 30
0.0
 10
91.78483843675099
 20
67.36985045929195
 30
0.0
 10
91.86501621517876
 20
67.37790191588051
 30
0.0
 10
91.94538262303806
 20
67.38974754006954
 30
0.0
 10
92.01636151063673
 20
67.40519722958648
 30
0.0
 10
92.07755291709418
 20
67.42387578133977
 30
0.0
 10
92.15211589926145
 20
67.45562497774594
 30
0.0
 10
92.21499140064165
 20
67.50632002214057
 30
0.0
 10
92.26613382203543
 20
67.5679121917326
 30
0.0
 10
92.29481677255396
 20
67.62060612019455
 30
0.0
 10
92.31237979233426
 20
67.67725866936904
 30
0.0
 10
92.31436497888411
 20
67.71677292828261
 30
0.0
 10
92.31535794332726
 20
67.73653744567817
 30
0.0
  0
SPLINE
  5
15C
330
1F
100
AcDbEntity
  8
0
  6
Continuous
 62
     7
370
    18
100
AcDbSpline
210
0.0
220
0.0
230
1.0
 70
     8
 71
     3
 72
    22
 73
    18
 74
     0
 42
0.000000001
 43
0.00000001
 40
0.0
 40
0.0
 40
0.0
 40
0.0
 40
0.0456223091785938
 40
0.0824500859927233
 40
0.1249765490202199
 40
0.1859769360738149
 40
0.2498082746874517
 40
0.3141214411052927
 40
0.3747554735764009
 40
0.4111418601718008
 40
0.452740861575203
 40
0.499801886120825
 40
0.587781667666036
 40
0.6917521171689764
 40
0.7904937814489162
 40
0.8858110970750372
 40
1.0
 40
1.0
 40
1.0
 40
1.0
 10
92.31535794332724
 20
67.73653744567817
 30
0.0
 10
92.31470962250103
 20
67.75093114749244
 30
0.0
 10
92.31353795651493
 20
67.7769439025175
 30
0.0
 10
92.30621479373507
 20
67.81583713510183
 30
0.0
 10
92.29123612520193
 20
67.85774053888606
 30
0.0
 10
92.26566382424727
 20
67.90456839204882
 30
0.0
 10
92.22690649028517
 20
67.95107260572036
 30
0.0
 10
92.18183497798157
 20
67.99151394089539
 30
0.0
 10
92.13823415434968
 20
68.02006081006066
 30
0.0
 10
92.09754538919825
 20
68.03881483800973
 30
0.0
 10
92.05946235732567
 20
68.05251087111716
 30
0.0
 10
92.00451735951161
 20
68.0684988381407
 30
0.0
 10
91.9284936240913
 20
68.08409111042403
 30
0.0
 10
91.83488405325531
 20
68.0961411500679
 30
0.0
 10
91.738426873562
 20
68.10396041093115
 30
0.0
 10
91.63839986136637
 20
68.10779163355619
 30
0.0
 10
91.57037985777514
 20
68.10854502240016
 30
0.0
 10
91.53330635398727
 20
68.10895564813798
 30
0.0
  0
SPLINE
  5
15D
330
1F
100
AcDbEntity
  8
0
  6
Continuous
 62
     7
370
    18
100
AcDbSpline
210
0.0
220
0.0
230
1.0
 70
     8
 71
     3
 72
    18
 73
    14
 74
     0
 42
0.000000001
 43
0.00000001
 40
0.0
 40
0.0
 40
0.0
 40
0.0
 40
0.1121288190037828
 40
0.2082656721120688
 40
0.3076823950238883
 40
0.4113175796478006
 40
0.5006895290738389
 40
0.5675238125159711
 40
0.625806740014167
 40
0.7505174143004094
 40
0.874968729476472
 40
0.9374634791075367
 40
1.0
 40
1.0
 40
1.0
 40
1.0
 10
91.53330635398727
 20
68.10895564813798
 30
0.0
 10
91.49682823514942
 20
68.10853953212832
 30
0.0
 10
91.42907455679405
 20
68.10776664714481
 30
0.0
 10
91.32904117272302
 20
68.10371704846445
 30
0.0
 10
91.23200851083261
 20
68.09592674113439
 30
0.0
 10
91.13767383173501
 20
68.08358334812695
 30
0.0
 10
91.05487315631596
 20
68.06663030124818
 30
0.0
 10
90.98818723023575
 20
68.0463870663836
 30
0.0
 10
90.9138571016279
 20
68.01410220737762
 30
0.0
 10
90.83367855453875
 20
67.95342048006783
 30
0.0
 10
90.7764059971238
 20
67.86966928835221
 30
0.0
 10
90.75397481483589
 20
67.79320590183434
 30
0.0
 10
90.75216196036776
 20
67.75361401931764
 30
0.0
 10
90.75125523030859
 20
67.73381146450227
 30
0.0
  0
SPLINE
  5
15E
330
1F
100
AcDbEntity
  8
0
  6
Continuous
 62
     7
370
    18
100
AcDbSpline
210
0.0
220
0.0
230
1.0
 70
     8
 71
     3
 72
    11
 73
     7
 74
     0
 42
0.000000001
 43
0.00000001
 40
0.0
 40
0.0
 40
0.0
 40
0.0
 40
0.2500132052667396
 40
0.4998355752216658
 40
0.74977546952636
 40
1.0
 40
1.0
 40
1.0
 40
1.0
 10
90.75125523030859
 20
67.73381146450227
 30
0.0
 10
90.7526475745153
 20
67.7085361074305
 30
0.0
 10
90.75543120015107
 20
67.65800468599053
 30
0.0
 10
90.78425909097366
 20
67.58664236880213
 30
0.0
 10
90.828119507751
 20
67.52312164989145
 30
0.0
 10
90.86821534134526
 20
67.490772066791
 30
0.0
 10
90.88827466711503
 20
67.47458807040637
 30
0.0
  0
SPLINE
  5
15F
330
1F
100
AcDbEntity
  8
0
  6
Continuous
 62
     7
370
    18
100
AcDbSpline
210
0.0
220
0.0
230
1.0
 70
     8
 71
     3
 72
    16
 73
    12
 74
     0
 42
0.000000001
 43
0.00000001
 40
0.0
 40
0.0
 40
0.0
 40
0.0
 40
0.0900756393956101
 40
0.1633975060036704
 40
0.2499356831479111
 40
0.3680662872226235
 40
0.4999222820067874
 40
0.6242852924265078
 40
0.7499563557383581
 40
0.8551362590366763
 40
1.0
 40
1.0
 40
1.0
 40
1.0
 10
90.88827466711503
 20
67.47458807040637
 30
0.0
 10
90.90546283152031
 20
67.46473241297431
 30
0.0
 10
90.93664221826074
 20
67.4468542179903
 30
0.0
 10
90.98795152862388
 20
67.42652158790341
 30
0.0
 10
91.04660640699517
 20
67.40859147415678
 30
0.0
 10
91.11907228364234
 20
67.39192560782296
 30
0.0
 10
91.2008477801816
 20
67.37940278510219
 30
0.0
 10
91.28475348818442
 20
67.37049360295198
 30
0.0
 10
91.36307194787898
 20
67.36511519079731
 30
0.0
 10
91.44605724407782
 20
67.36256552369179
 30
0.0
 10
91.50130079286058
 20
67.3618167958379
 30
0.0
 10
91.53330635398729
 20
67.36138301749413
 30
0.0
  0
SPLINE
  5
160
330
1F
100
AcDbEntity
  8
0
  6
Continuous
 62
     7
370
    18
100
AcDbSpline
210
0.0
220
0.0
230
1.0
 70
     8
 71
     3
 72
    20
 73
    16
 74
     0
 42
0.000000001
 43
0.00000001
 40
0.0
 40
0.0
 40
0.0
 40
0.0
 40
0.096725981383851
 40
0.1801188564792214
 40
0.250225001145143
 40
0.3449865182509183
 40
0.4282906334435988
 40
0.5004302712564671
 40
0.5687463391529282
 40
0.6254915172763298
 40
0.750102411994143
 40
0.8146554946343426
 40
0.8750478932114227
 40
0.937500772429287
 40
1.0
 40
1.0
 40
1.0
 40
1.0
 10
91.53330635398727
 20
68.84421526302283
 30
0.0
 10
91.56470739185855
 20
68.84453563982196
 30
0.0
 10
91.62318101965445
 20
68.84513223136723
 30
0.0
 10
91.70438099033474
 20
68.84771072179882
 30
0.0
 10
91.78483840488244
 20
68.85240608809647
 30
0.0
 10
91.86501640953006
 20
68.86019220752792
 30
0.0
 10
91.94538229296458
 20
68.87165054239468
 30
0.0
 10
92.01636168567298
 20
68.88658719307132
 30
0.0
 10
92.07755295319777
 20
68.9046454366019
 30
0.0
 10
92.15211595869847
 20
68.93533382534507
 30
0.0
 10
92.21499090824112
 20
68.98431476540249
 30
0.0
 10
92.26613405043369
 20
69.04377810197109
 30
0.0
 10
92.29481685572371
 20
69.09462412563302
 30
0.0
 10
92.31237974710689
 20
69.14926069251392
 30
0.0
 10
92.31436496579543
 20
69.18733836316726
 30
0.0
 10
92.31535794332724
 20
69.206384260549
 30
0.0
  0
SPLINE
  5
161
330
1F
100
AcDbEntity
  8
0
  6
Continuous
 62
     7
370
    18
100
AcDbSpline
210
0.0
220
0.0
230
1.0
 70
     8
 71
     3
 72
    22
 73
    18
 74
     0
 42
0.000000001
 43
0.00000001
 40
0.0
 40
0.0
 40
0.0
 40
0.0
 40
0.0456220857247844
 40
0.0824500498875559
 40
0.1249758603294053
 40
0.1859764870111509
 40
0.2498082789572963
 40
0.3141211513091179
 40
0.3747552286075995
 40
0.4111415802608256
 40
0.452740729866777
 40
0.4998017500070427
 40
0.5877815519494317
 40
0.6917519990626619
 40
0.7904937120321989
 40
0.8858110831362215
 40
1.0
 40
1.0
 40
1.0
 40
1.0
 10
92.31535794332726
 20
69.206384260549
 30
0.0
 10
92.3147096048059
 20
69.22024987691886
 30
0.0
 10
92.31353790161478
 20
69.24530837091919
 30
0.0
 10
92.30621493291747
 20
69.28275533423867
 30
0.0
 10
92.29123588820228
 20
69.32308446829913
 30
0.0
 10
92.26566375148413
 20
69.3681309175639
 30
0.0
 10
92.22690682389522
 20
69.412842999075
 30
0.0
 10
92.18183476877647
 20
69.45170526162845
 30
0.0
 10
92.1382342355355
 20
69.4791277572953
 30
0.0
 10
92.09754527638711
 20
69.49713798322942
 30
0.0
 10
92.05946246765102
 20
69.51028950954796
 30
0.0
 10
92.00451731059937
 20
69.52563938954921
 30
0.0
 10
91.92849365921299
 20
69.54060619793844
 30
0.0
 10
91.83488401647186
 20
69.55217012366745
 30
0.0
 10
91.73842687072137
 20
69.55967413637526
 30
0.0
 10
91.63839988872824
 20
69.56335174105604
 30
0.0
 10
91.5703798624061
 20
69.56407332425523
 30
0.0
 10
91.53330635398727
 20
69.56446661461776
 30
0.0
  0
SPLINE
  5
162
330
1F
100
AcDbEntity
  8
0
  6
Continuous
 62
     7
370
    18
100
AcDbSpline
210
0.0
220
0.0
230
1.0
 70
     8
 71
     3
 72
    18
 73
    14
 74
     0
 42
0.000000001
 43
0.00000001
 40
0.0
 40
0.0
 40
0.0
 40
0.0
 40
0.1121288945237713
 40
0.2082658048456875
 40
0.3076825319894471
 40
0.411317865858915
 40
0.5006900101493623
 40
0.5675236202509673
 40
0.6258072270659132
 40
0.7505176686525854
 40
0.8749688410420982
 40
0.9374639045231489
 40
1.0
 40
1.0
 40
1.0
 40
1.0
 10
91.53330635398727
 20
69.56446661461776
 30
0.0
 10
91.4968282347285
 20
69.56406734765137
 30
0.0
 10
91.42907455804284
 20
69.56332575774756
 30
0.0
 10
91.32904120209382
 20
69.5594397566088
 30
0.0
 10
91.2320084703263
 20
69.55196486749432
 30
0.0
 10
91.13767363835524
 20
69.54011851238187
 30
0.0
 10
91.05487387422313
 20
69.52384304872288
 30
0.0
 10
90.98818639470805
 20
69.50441183026312
 30
0.0
 10
90.9138579843251
 20
69.47340461966728
 30
0.0
 10
90.83367829807526
 20
69.41511073433645
 30
0.0
 10
90.77640589883046
 20
69.33456996436675
 30
0.0
 10
90.75397488750866
 20
69.26097234680904
 30
0.0
 10
90.75216198102497
 20
69.22283357491524
 30
0.0
 10
90.75125523030859
 20
69.20375793088859
 30
0.0
  0
SPLINE
  5
163
330
1F
100
AcDbEntity
  8
0
  6
Continuous
 62
     7
370
    18
100
AcDbSpline
210
0.0
220
0.0
230
1.0
 70
     8
 71
     3
 72
    11
 73
     7
 74
     0
 42
0.000000001
 43
0.00000001
 40
0.0
 40
0.0
 40
0.0
 40
0.0
 40
0.2500149050219453
 40
0.4998334155544937
 40
0.7497744375771939
 40
1.0
 40
1.0
 40
1.0
 40
1.0
 10
90.75125523030859
 20
69.20375793088859
 30
0.0
 10
90.75264749181189
 20
69.17939944714159
 30
0.0
 10
90.75543092115375
 20
69.13070161399472
 30
0.0
 10
90.7842595417138
 20
69.06185798225104
 30
0.0
 10
90.82811945614452
 20
69.00053936534489
 30
0.0
 10
90.86821532672803
 20
68.96928779211112
 30
0.0
 10
90.88827466711503
 20
68.95365311612075
 30
0.0
  0
SPLINE
  5
164
330
1F
100
AcDbEntity
  8
0
  6
Continuous
 62
     7
370
    18
100
AcDbSpline
210
0.0
220
0.0
230
1.0
 70
     8
 71
     3
 72
    16
 73
    12
 74
     0
 42
0.000000001
 43
0.00000001
 40
0.0
 40
0.0
 40
0.0
 40
0.0
 40
0.0900748229519901
 40
0.1633973267756126
 40
0.2499351948519212
 40
0.3680659340126933
 40
0.4999221544986078
 40
0.6242851559331145
 40
0.7499561712070253
 40
0.855136189833658
 40
1.0
 40
1.0
 40
1.0
 40
1.0
 10
90.88827466711503
 20
68.95365311612075
 30
0.0
 10
90.9054629458438
 20
68.94413077858363
 30
0.0
 10
90.93664278838041
 20
68.92685708936365
 30
0.0
 10
90.98795108328217
 20
68.9072022120083
 30
0.0
 10
91.04660669254095
 20
68.88987062643173
 30
0.0
 10
91.11907225345584
 20
68.87375490765567
 30
0.0
 10
91.20084770613786
 20
68.86164415366939
 30
0.0
 10
91.2847534686036
 20
68.85302745303856
 30
0.0
 10
91.36307202083064
 20
68.84782737416658
 30
0.0
 10
91.44605720353869
 20
68.84535824729404
 30
0.0
 10
91.50130078326428
 20
68.84463454348274
 30
0.0
 10
91.53330635398727
 20
68.84421526302283
 30
0.0
  0
DIMENSION
  5
165
330
1F
100
AcDbEntity
  8
0
  6
Continuous
 62
     7
370
    18
100
AcDbDimension
  2
_D_1
 10
94.0192518929
 20
47.0265541034
 30
0.0
 11
91.5198689756
 21
47.0265541034
 31
0.0
 70
   160
  1
<>
 71
     2
 42
-1.0
  3
SLDDIMSTYLE1
100
AcDbAlignedDimension
 13
89.0204860584
 23
52.1933184389
 33
0.0
 14
94.0192518929
 24
52.1933184389
 34
0.0
 50
0.0
100
AcDbRotatedDimension
  0
DIMENSION
  5
17A
330
1F
100
AcDbEntity
  8
0
  6
Continuous
 62
     7
370
    18
100
AcDbDimension
  2
_D_2
 10
94.0192518929
 20
52.1933184389
 30
0.0
 11
91.3975078104
 21
80.2253481703
 31
0.0
 70
   162
  1
<>
 71
     1
 42
-1.0
  3
SLDDIMSTYLE2
100
AcDb2LineAngularDimension
 13
89.0204860584
 23
77.3104757264
 33
0.0
 14
89.0204860584
 24
52.1933184389
 34
0.0
 15
93.800057782
 25
77.3104757264
 35
0.0
 16
87.4329944837
 26
80.2224753104
 36
0.0
  0
MTEXT
  5
186
330
1F
100
AcDbEntity
  8
0
  6
Continuous
 62
     7
370
     0
100
AcDbMText
 10
79.0946039736
 20
54.0854634736
 30
0.0
 40
1.0583333333
 41
0.0
 71
     1
 72
     1
  1
S1
  7
SLDTEXTSTYLE0
 73
     1
 44
1.0
  0
LEADER
  5
188
330
1F
100
AcDbEntity
  8
0
  6
Continuous
 62
     7
370
     0
100
AcDbLeader
  3
SLDDIMSTYLE3
 76
     3
 10
89.0204860584
 20
61.1236137146
 30
0.0
 10
84.0031130896
 20
53.8265891401
 30
0.0
 10
80.8281130896
 20
53.8265891401
 30
0.0
  0
MTEXT
  5
189
330
1F
100
AcDbEntity
  8
0
  6
Continuous
 62
     7
370
     0
100
AcDbMText
 10
103.0864102187
 20
54.1195780023
 30
0.0
 40
1.0583333333
 41
0.0
 71
     1
 72
     1
  1
S2
  7
SLDTEXTSTYLE0
 73
     1
 44
1.0
  0
LEADER
  5
18A
330
1F
100
AcDbEntity
  8
0
  6
Continuous
 62
     7
370
     0
100
AcDbLeader
  3
SLDDIMSTYLE3
 76
     3
 10
93.9423774461
 20
61.0022575317
 30
0.0
 10
99.6295670225
 20
53.8265891401
 30
0.0
 10
102.8045670225
 20
53.8265891401
 30
0.0
  0
LINE
  5
18B
330
1F
100
AcDbEntity
  8
0
  6
Continuous
 62
     7
370
    18
100
AcDbLine
 10
119.3804817101
 20
97.3153906929
 30
0.0
 11
119.3804817101
 21
97.2576619217
 31
0.0
  0
LINE
  5
18C
330
1F
100
AcDbEntity
  8
0
  6
Continuous
 62
     7
370
    18
100
AcDbLine
 10
123.819888125
 20
89.5675512162
 30
0.0
 11
123.8698799985
 21
89.5386821393
 31
0.0
  0
LINE
  5
18D
330
1F
100
AcDbEntity
  8
0
  6
Continuous
 62
     7
370
    18
100
AcDbLine
 10
127.0453517468
 20
89.2238846617
 30
0.0
 11
128.7027843603
 21
90.1807001431
 31
0.0
  0
LINE
  5
18E
330
1F
100
AcDbEntity
  8
0
  6
Continuous
 62
     7
370
    18
100
AcDbLine
 10
122.2972999627
 20
101.1471923264
 30
0.0
 11
120.6958677945
 21
100.222705214
 31
0.0
  0
LINE
  5
18F
330
1F
100
AcDbEntity
  8
0
  6
Continuous
 62
     7
370
    18
100
AcDbLine
 10
125.5111715064
 20
100.7968265314
 30
0.0
 11
125.4611797753
 21
100.825695526
 31
0.0
  0
LINE
  5
190
330
1F
100
AcDbEntity
  8
0
  6
Continuous
 62
     7
370
    18
100
AcDbLine
 10
129.989686483
 20
93.1155291827
 30
0.0
 11
129.9888176269
 21
93.1732525044
 31
0.0
  0
LWPOLYLINE
  5
191
330
1F
100
AcDbEntity
  8
0
  6
Continuous
 62
     7
370
    18
100
AcDbPolyline
 90
      166
 70
   128
 43
0.0
 10
119.3804817101
 20
97.2576619217
 10
119.3837005907
 20
97.4510034927
 10
119.3933525654
 20
97.6403482966
 10
119.4094236399
 20
97.8254218013
 10
119.4318905125
 20
98.0059556681
 10
119.4607206085
 20
98.18168814
 10
119.4958721269
 20
98.3523644218
 10
119.5372941015
 20
98.5177370492
 10
119.5849264743
 20
98.6775662477
 10
119.638700183
 20
98.8316202802
 10
119.6985372608
 20
98.9796757831
 10
119.7643509496
 20
99.1215180901
 10
119.8360458259
 20
99.2569415435
 10
119.9135179391
 20
99.385749792
 10
119.9966549618
 20
99.5077560762
 10
120.0853363535
 20
99.6227834985
 10
120.1794335345
 20
99.7306652802
 10
120.278810073
 20
99.831245003
 10
120.3833218824
 20
99.924376836
 10
120.4928174307
 20
100.0099257468
 10
120.6071379597
 20
100.0877676977
 10
120.7261177156
 20
100.1577898254
 10
120.8495841892
 20
100.2198906045
 10
120.9773583658
 20
100.2739799947
 10
121.1092549852
 20
100.3199795717
 10
121.2450828097
 20
100.3578226403
 10
121.3846449022
 20
100.3874543319
 10
121.5277389108
 20
100.4088316832
 10
121.674157363
 20
100.4219236992
 10
121.823687966
 20
100.4267113977
 10
121.9761139146
 20
100.423187837
 10
122.131214206
 20
100.4113581259
 10
122.2887639594
 20
100.3912394164
 10
122.4485347427
 20
100.3628608786
 10
122.6102949037
 20
100.3262636587
 10
122.7738099056
 20
100.2815008193
 10
122.9388426671
 20
100.2286372621
 10
123.1051539067
 20
100.1677496343
 10
123.2725024889
 20
100.098926217
 10
123.4406457742
 20
100.0222667977
 10
123.609339971
 20
99.9378825252
 10
123.7783404888
 20
99.8458957486
 10
123.9474022931
 20
99.7464398399
 10
124.1162802603
 20
99.6396590008
 10
124.2847295335
 20
99.5257080532
 10
124.4525058775
 20
99.404752215
 10
124.6193660325
 20
99.2769668608
 10
124.7850680673
 20
99.1425372671
 10
124.9493717298
 20
99.0016583438
 10
125.1120387953
 20
98.854534352
 10
125.2728334123
 20
98.7013786074
 10
125.4315224437
 20
98.5424131712
 10
125.5878758058
 20
98.3778685281
 10
125.7416668012
 20
98.207983252
 10
125.8926724474
 20
98.0330036605
 10
126.0406738009
 20
97.8531834571
 10
126.1854562738
 20
97.6687833639
 10
126.3268099453
 20
97.4800707436
 10
126.4645298662
 20
97.2873192112
 10
126.5984163557
 20
97.0908082382
 10
126.7282752912
 20
96.8908227467
 10
126.8539183896
 20
96.6876526964
 10
126.9751634806
 20
96.4815926646
 10
127.0918347703
 20
96.2729414186
 10
127.2037630964
 20
96.0620014827
 10
127.3107861737
 20
95.8490786998
 10
127.4127488288
 20
95.6344817873
 10
127.5095032257
 20
95.4185218905
 10
127.6009090798
 20
95.2015121305
 10
127.6868338613
 20
94.9837671506
 10
127.7671529874
 20
94.7656026604
 10
127.8417500032
 20
94.5473349773
 10
127.9105167501
 20
94.3292805689
 10
127.9733535228
 20
94.1117555929
 10
128.0301692141
 20
93.89507544
 10
128.0808814467
 20
93.6795542755
 10
128.1254166926
 20
93.4655045847
 10
128.16371038
 20
93.253236719
 10
128.1957069867
 20
93.0430584466
 10
128.2213601208
 20
92.8352745058
 10
128.2406325875
 20
92.6301861636
 10
128.2534964437
 20
92.4280907784
 10
128.2599330381
 20
92.2292813692
 10
128.2599330381
 20
92.0340461907
 10
128.2534964437
 20
91.8426683151
 10
128.2406325875
 20
91.6554252222
 10
128.2213601208
 20
91.4725883965
 10
128.1957069867
 20
91.2944229338
 10
128.16371038
 20
91.1211871572
 10
128.1254166926
 20
90.9531322419
 10
128.0808814467
 20
90.7905018515
 10
128.0301692141
 20
90.6335317845
 10
127.9733535228
 20
90.4824496324
 10
127.9105167501
 20
90.33747445
 10
127.8417500032
 20
90.1988164375
 10
127.7671529874
 20
90.0666766356
 10
127.6868338613
 20
89.9412466345
 10
127.6009090798
 20
89.8227082956
 10
127.5095032257
 20
89.7112334883
 10
127.4127488288
 20
89.6069838403
 10
127.3107861737
 20
89.5101105037
 10
127.2037630964
 20
89.4207539356
 10
127.0918347703
 20
89.3390436944
 10
126.9751634806
 20
89.2650982521
 10
126.8539183896
 20
89.1990248226
 10
126.7282752912
 20
89.1409192061
 10
126.5984163557
 20
89.0908656501
 10
126.4645298662
 20
89.0489367274
 10
126.3268099453
 20
89.0151932312
 10
126.1854562738
 20
88.9896840861
 10
126.0406738009
 20
88.972446278
 10
125.8926724474
 20
88.9635048
 10
125.7416668012
 20
88.9628726166
 10
125.5878758058
 20
88.9705506441
 10
125.4315224437
 20
88.9865277504
 10
125.2728334123
 20
89.01078077
 10
125.1120387953
 20
89.0432745385
 10
124.9493717298
 20
89.0839619429
 10
124.7850680673
 20
89.1327839904
 10
124.6193660325
 20
89.1896698938
 10
124.4525058775
 20
89.2545371738
 10
124.2847295335
 20
89.3272917792
 10
124.1162802603
 20
89.4078282227
 10
123.9474022931
 20
89.4960297342
 10
123.7783404888
 20
89.5917684299
 10
123.609339971
 20
89.6949054978
 10
123.4406457742
 20
89.8052913991
 10
123.2725024889
 20
89.9227660848
 10
123.1051539067
 20
90.0471592278
 10
122.9388426671
 20
90.1782904699
 10
122.7738099056
 20
90.3159696834
 10
122.6102949037
 20
90.4599972466
 10
122.4485347427
 20
90.6101643332
 10
122.2887639594
 20
90.7662532154
 10
122.131214206
 20
90.9280375792
 10
121.9761139146
 20
91.0952828528
 10
121.823687966
 20
91.2677465464
 10
121.674157363
 20
91.4451786042
 10
121.5277389108
 20
91.6273217668
 10
121.3846449022
 20
91.8139119438
 10
121.2450828097
 20
92.0046785975
 10
121.1092549852
 20
92.1993451343
 10
120.9773583658
 20
92.3976293065
 10
120.8495841892
 20
92.5992436209
 10
120.7261177156
 20
92.803895756
 10
120.6071379597
 20
93.0112889859
 10
120.4928174307
 20
93.2211226101
 10
120.3833218824
 20
93.43309239
 10
120.278810073
 20
93.6468909897
 10
120.1794335345
 20
93.8622084215
 10
120.0853363535
 20
94.0787324959
 10
119.9966549618
 20
94.2961492737
 10
119.9135179391
 20
94.5141435211
 10
119.8360458259
 20
94.7323991676
 10
119.7643509496
 20
94.9505997632
 10
119.6985372608
 20
95.1684289379
 10
119.638700183
 20
95.3855708603
 10
119.5849264743
 20
95.6017106953
 10
119.5372941015
 20
95.8165350608
 10
119.4958721269
 20
96.0297324821
 10
119.4607206085
 20
96.2409938432
 10
119.4318905125
 20
96.4500128354
 10
119.4094236399
 20
96.6564864012
 10
119.3933525654
 20
96.8601151735
 10
119.3837005907
 20
97.0606039102
 10
119.3804817101
 20
97.2576619217
  0
LWPOLYLINE
  5
192
330
1F
100
AcDbEntity
  8
0
  6
Continuous
 62
     7
370
    18
100
AcDbPolyline
 90
      126
 70
   128
 43
0.0
 10
119.3804817101
 20
97.3153906929
 10
119.3836977427
 20
97.509743466
 10
119.3933412336
 20
97.7001046785
 10
119.4093983685
 20
97.8862016398
 10
119.4318461457
 20
98.0677677676
 10
119.4606524091
 20
98.2445429703
 10
119.495775894
 20
98.4162740192
 10
119.5371662862
 20
98.582714911
 10
119.5847642945
 20
98.743627221
 10
119.6385017351
 20
98.8987804437
 10
119.6983016298
 20
99.0479523236
 10
119.7640783156
 20
99.1909291734
 10
119.8357375682
 20
99.3275061803
 10
119.9131767364
 20
99.4574876989
 10
119.9962848893
 20
99.5806875319
 10
120.0849429752
 20
99.6969291969
 10
120.1790239924
 20
99.8060461787
 10
120.2783931706
 20
99.9078821683
 10
120.3829081645
 20
100.0022912867
 10
120.4924192574
 20
100.0891382936
 10
120.6067695756
 20
100.1682987816
 10
120.7257953135
 20
100.239659354
 10
120.8493259678
 20
100.3031177876
 10
120.977184582
 20
100.3585831787
 10
121.109188
 20
100.4059760736
 10
121.245147128
 20
100.4452285826
 10
121.384867206
 20
100.4762844767
 10
121.5281480862
 20
100.4990992688
 10
121.6747845203
 20
100.5136402767
 10
121.8245664529
 20
100.5198866708
 10
121.9772793228
 20
100.517829503
 10
122.1327043703
 20
100.5074717203
 10
122.2906189506
 20
100.4888281601
 10
122.4507968525
 20
100.461925529
 10
122.6130086228
 20
100.4268023649
 10
122.7770218946
 20
100.3835089814
 10
122.9426017205
 20
100.3321073957
 10
123.1095109089
 20
100.2726712403
 10
123.2775103642
 20
100.2052856567
 10
123.4463594286
 20
100.1300471743
 10
123.6158162276
 20
100.0470635714
 10
123.7856380159
 20
99.9564537211
 10
123.9555815254
 20
99.8583474213
 10
124.1254033137
 20
99.7528852084
 10
124.2948601126
 20
99.6402181557
 10
124.4637091771
 20
99.520507658
 10
124.6317086323
 20
99.3939251992
 10
124.7986178208
 20
99.2606521076
 10
124.9641976467
 20
99.1208792955
 10
125.1282109185
 20
98.9748069862
 10
125.2904226887
 20
98.8226444269
 10
125.4506005906
 20
98.6646095889
 10
125.6085151709
 20
98.5009288556
 10
125.7639402185
 20
98.3318366981
 10
125.9166530884
 20
98.1575753393
 10
126.066435021
 20
97.9783944069
 10
126.213071455
 20
97.7945505759
 10
126.3563523353
 20
97.6063072008
 10
126.4960724133
 20
97.4139339383
 10
126.6320315413
 20
97.2177063614
 10
126.7640349593
 20
97.0179055642
 10
126.8918935735
 20
96.8148177594
 10
127.0154242278
 20
96.6087338682
 10
127.1344499656
 20
96.399949104
 10
127.2488002839
 20
96.1887625488
 10
127.3583113767
 20
95.9754767254
 10
127.4628263707
 20
95.7603971636
 10
127.5621955489
 20
95.5438319629
 10
127.656276566
 20
95.3260913508
 10
127.744934652
 20
95.1074872387
 10
127.8280428049
 20
94.8883327747
 10
127.905481973
 20
94.6689418957
 10
127.9771412256
 20
94.4496288769
 10
128.0429179115
 20
94.230707882
 10
128.1027178061
 20
94.0124925134
 10
128.1564552468
 20
93.7952953624
 10
128.2040532551
 20
93.5794275619
 10
128.2454436473
 20
93.3651983403
 10
128.2805671321
 20
93.1529145791
 10
128.3093733955
 20
92.9428803726
 10
128.3318211728
 20
92.7353965928
 10
128.3478783077
 20
92.5307604582
 10
128.3575217986
 20
92.3292651082
 10
128.3607378312
 20
92.1311991828
 10
128.3575217986
 20
91.9368464096
 10
128.3478783077
 20
91.7464851971
 10
128.3318211728
 20
91.5603882359
 10
128.3093733955
 20
91.3788221081
 10
128.2805671321
 20
91.2020469053
 10
128.2454436473
 20
91.0303158565
 10
128.2040532551
 20
90.8638749646
 10
128.1564552468
 20
90.7029626547
 10
128.1027178061
 20
90.547809432
 10
128.0429179115
 20
90.3986375521
 10
127.9771412256
 20
90.2556607023
 10
127.905481973
 20
90.1190836954
 10
127.8280428049
 20
89.9891021768
 10
127.744934652
 20
89.8659023437
 10
127.656276566
 20
89.7496606788
 10
127.5621955489
 20
89.640543697
 10
127.4628263707
 20
89.5387077074
 10
127.3583113767
 20
89.444298589
 10
127.2488002839
 20
89.3574515821
 10
127.1344499656
 20
89.2782910941
 10
127.0154242278
 20
89.2069305216
 10
126.8918935735
 20
89.1434720881
 10
126.7640349593
 20
89.088006697
 10
126.6320315413
 20
89.040613802
 10
126.4960724133
 20
89.0013612931
 10
126.3563523353
 20
88.9703053989
 10
126.213071455
 20
88.9474906069
 10
126.066435021
 20
88.9329495989
 10
125.9166530884
 20
88.9267032049
 10
125.7639402185
 20
88.9287603727
 10
125.6085151709
 20
88.9391181554
 10
125.4506005906
 20
88.9577617156
 10
125.2904226887
 20
88.9846643467
 10
125.1282109185
 20
89.0197875108
 10
124.9641976467
 20
89.0630808943
 10
124.7986178208
 20
89.1144824799
 10
124.6317086323
 20
89.1739186354
 10
124.4637091771
 20
89.2413042189
 10
124.2948601126
 20
89.3165427014
 10
124.1254033137
 20
89.3995263043
 10
123.9555815254
 20
89.4901361545
 10
123.8698799985
 20
89.5386821393
  0
SPLINE
  5
193
330
1F
100
AcDbEntity
  8
0
  6
Continuous
 62
     7
370
    18
100
AcDbSpline
210
0.0
220
0.0
230
1.0
 70
     8
 71
     3
 72
    13
 73
     9
 74
     0
 42
0.000000001
 43
0.00000001
 40
0.0
 40
0.0
 40
0.0
 40
0.0
 40
0.1922477914441592
 40
0.3588454107517844
 40
0.5000635866814719
 40
0.6705123530085512
 40
0.834723979543869
 40
1.0
 40
1.0
 40
1.0
 40
1.0
 10
128.9800985112103
 20
95.69224020002822
 30
0.0
 10
128.9971844554748
 20
95.68291592213674
 30
0.0
 10
129.0290766953886
 20
95.66551143439312
 30
0.0
 10
129.073932699377
 20
95.64346043705923
 30
0.0
 10
129.1173570904213
 20
95.62482100363759
 30
0.0
 10
129.1613061592879
 20
95.61024727627566
 30
0.0
 10
129.2081842173287
 20
95.59982992214823
 30
0.0
 10
129.2393394307552
 20
95.59783141690902
 30
0.0
 10
129.2549673601741
 20
95.59682893625211
 30
0.0
  0
LINE
  5
194
330
1F
100
AcDbEntity
  8
0
  6
Continuous
 62
     7
370
    18
100
AcDbLine
 10
128.943270033
 20
95.6709795721
 30
0.0
 11
128.9800985112
 21
95.6922402
 31
0.0
  0
SPLINE
  5
195
330
1F
100
AcDbEntity
  8
0
  6
Continuous
 62
     7
370
    18
100
AcDbSpline
210
0.0
220
0.0
230
1.0
 70
     8
 71
     3
 72
    12
 73
     8
 74
     0
 42
0.000000001
 43
0.00000001
 40
0.0
 40
0.0
 40
0.0
 40
0.0
 40
0.1966789810580272
 40
0.3953348052652229
 40
0.6005957993960341
 40
0.7888971239295041
 40
1.0
 40
1.0
 40
1.0
 40
1.0
 10
129.1076860463794
 20
95.53472823888396
 30
0.0
 10
129.096015462959
 20
95.5413922396786
 30
0.0
 10
129.0725569937366
 20
95.55478722190936
 30
0.0
 10
129.0387521221386
 20
95.58036997052123
 30
0.0
 10
129.0065090536522
 20
95.60802618682892
 30
0.0
 10
128.9745158974234
 20
95.63830368982735
 30
0.0
 10
128.9540743170231
 20
95.65968081245742
 30
0.0
 10
128.9432700330235
 20
95.67097957211618
 30
0.0
  0
LINE
  5
196
330
1F
100
AcDbEntity
  8
0
  6
Continuous
 62
     7
370
    18
100
AcDbLine
 10
128.4029872811
 20
95.127914301
 30
0.0
 11
129.1076860464
 21
95.5347282389
 31
0.0
  0
ARC
  5
197
330
1F
100
AcDbEntity
  8
0
  6
Continuous
 62
     7
370
    18
100
AcDbCircle
 10
119.0046002532
 20
91.773079277
 30
0.0
 40
9.979208223308866
100
AcDbArc
 50
19.2647658593
 51
19.6444603237
  0
LINE
  5
198
330
1F
100
AcDbEntity
  8
0
  6
Continuous
 62
     7
370
    18
100
AcDbLine
 10
129.1297117329
 20
95.4723726841
 30
0.0
 11
128.4250129676
 21
95.0655587461
 31
0.0
  0
SPLINE
  5
199
330
1F
100
AcDbEntity
  8
0
  6
Continuous
 62
     7
370
    18
100
AcDbSpline
210
0.0
220
0.0
230
1.0
 70
     8
 71
     3
 72
    12
 73
     8
 74
     0
 42
0.000000001
 43
0.00000001
 40
0.0
 40
0.0
 40
0.0
 40
0.0
 40
0.1882173050673183
 40
0.4168973652508407
 40
0.5703293821623948
 40
0.7554145712418027
 40
1.0
 40
1.0
 40
1.0
 40
1.0
 10
129.1008458539117
 20
95.22777313466314
 30
0.0
 10
129.1016436783294
 20
95.24330044222519
 30
0.0
 10
129.1034108426056
 20
95.27769310133662
 30
0.0
 10
129.1059576537041
 20
95.32476068030604
 30
0.0
 10
129.1112706025244
 20
95.37121643272513
 30
0.0
 10
129.1194259142763
 20
95.41829680151315
 30
0.0
 10
129.1259805666991
 20
95.4527567340374
 30
0.0
 10
129.1297117328684
 20
95.47237268407335
 30
0.0
  0
LINE
  5
19A
330
1F
100
AcDbEntity
  8
0
  6
Continuous
 62
     7
370
    18
100
AcDbLine
 10
129.1372493881
 20
95.2487884476
 30
0.0
 11
129.1008458539
 21
95.2277731347
 31
0.0
  0
SPLINE
  5
19B
330
1F
100
AcDbEntity
  8
0
  6
Continuous
 62
     7
370
    18
100
AcDbSpline
210
0.0
220
0.0
230
1.0
 70
     8
 71
     3
 72
    12
 73
     8
 74
     0
 42
0.000000001
 43
0.00000001
 40
0.0
 40
0.0
 40
0.0
 40
0.0
 40
0.1961236242072304
 40
0.405681399502577
 40
0.5899755071799786
 40
0.7849505437340352
 40
1.0
 40
1.0
 40
1.0
 40
1.0
 10
129.2650365305572
 20
95.56830243188568
 30
0.0
 10
129.2534169370677
 20
95.55006700824117
 30
0.0
 10
129.2293818267259
 20
95.51234706392272
 30
0.0
 10
129.201711996954
 20
95.45060453774585
 30
0.0
 10
129.1781137767341
 20
95.38643985105793
 30
0.0
 10
129.1570780866784
 20
95.31995092115339
 30
0.0
 10
129.1440712223197
 20
95.27327107286705
 30
0.0
 10
129.1372493881194
 20
95.24878844763775
 30
0.0
  0
ARC
  5
19C
330
1F
100
AcDbEntity
  8
0
  6
Continuous
 62
     7
370
    18
100
AcDbCircle
 10
119.8519057568
 20
92.2617338609
 30
0.0
 40
9.97699487211048
100
AcDbArc
 50
19.3549433556
 51
19.5286710705
  0
SPLINE
  5
19D
330
1F
100
AcDbEntity
  8
0
  6
Continuous
 62
     7
370
    18
100
AcDbSpline
210
0.0
220
0.0
230
1.0
 70
     8
 71
     3
 72
    19
 73
    15
 74
     0
 42
0.000000001
 43
0.00000001
 40
0.0
 40
0.0
 40
0.0
 40
0.0
 40
0.0712124459237754
 40
0.1251910398375436
 40
0.1922666891993622
 40
0.2503818258430769
 40
0.337934180409843
 40
0.4191070983616448
 40
0.5006933509978688
 40
0.6308382116068274
 40
0.7502508846418963
 40
0.8748745274095283
 40
0.9374315684317183
 40
0.9999999999999999
 40
0.9999999999999999
 40
0.9999999999999999
 40
0.9999999999999999
 10
128.8293670463892
 20
94.89030744515321
 30
0.0
 10
128.8407965673966
 20
94.8966985115852
 30
0.0
 10
128.8608895946925
 20
94.90793396687553
 30
0.0
 10
128.8920554597365
 20
94.92412305137839
 30
0.0
 10
128.9214490220215
 20
94.93787492878971
 30
0.0
 10
128.9567738870473
 20
94.95228354958248
 30
0.0
 10
128.9949370982848
 20
94.96508053171071
 30
0.0
 10
129.0376518756955
 20
94.97457858719206
 30
0.0
 10
129.0879601241158
 20
94.97919125770731
 30
0.0
 10
129.1446746783833
 20
94.97151304291174
 30
0.0
 10
129.2031441382068
 20
94.93818405664162
 30
0.0
 10
129.2392142376754
 20
94.88973371126622
 30
0.0
 10
129.2606257326525
 20
94.84333463364761
 30
0.0
 10
129.2681973345208
 20
94.81793608846232
 30
0.0
 10
129.2719834800877
 20
94.80523565981687
 30
0.0
  0
SPLINE
  5
19E
330
1F
100
AcDbEntity
  8
0
  6
Continuous
 62
     7
370
    18
100
AcDbSpline
210
0.0
220
0.0
230
1.0
 70
     8
 71
     3
 72
    20
 73
    16
 74
     0
 42
0.000000001
 43
0.00000001
 40
0.0
 40
0.0
 40
0.0
 40
0.0
 40
0.0462302192032858
 40
0.0830792590931374
 40
0.1250361452568724
 40
0.1884014392776568
 40
0.249994946204094
 40
0.31254087722153
 40
0.3749190784985807
 40
0.4331808128926888
 40
0.4999215961217512
 40
0.6245339060215493
 40
0.7499046366203459
 40
0.8703226084943987
 40
1.0
 40
1.0
 40
1.0
 40
1.0
 10
128.5558112273475
 20
94.39179821857333
 30
0.0
 10
128.5534337972976
 20
94.40142627718336
 30
0.0
 10
128.5491613726695
 20
94.41872863892017
 30
0.0
 10
128.5442907423835
 20
94.44560482955488
 30
0.0
 10
128.5409946483884
 20
94.47698281088488
 30
0.0
 10
128.5401772389071
 20
94.51458283931514
 30
0.0
 10
128.544071392332
 20
94.55700573919137
 30
0.0
 10
128.553097692377
 20
94.59827985121781
 30
0.0
 10
128.567414401851
 20
94.63637950060958
 30
0.0
 10
128.5866209695128
 20
94.67178171946311
 30
0.0
 10
128.6159832135116
 20
94.71485831960646
 30
0.0
 10
128.6573416990902
 20
94.76428510710839
 30
0.0
 10
128.7109601032662
 20
94.81307785924047
 30
0.0
 10
128.7689623897889
 20
94.85404992880187
 30
0.0
 10
128.8087412426632
 20
94.87792693580273
 30
0.0
 10
128.8293670463892
 20
94.89030744515321
 30
0.0
  0
SPLINE
  5
19F
330
1F
100
AcDbEntity
  8
0
  6
Continuous
 62
     7
370
    18
100
AcDbSpline
210
0.0
220
0.0
230
1.0
 70
     8
 71
     3
 72
    21
 73
    17
 74
     0
 42
0.000000001
 43
0.00000001
 40
0.0
 40
0.0
 40
0.0
 40
0.0
 40
0.0901997930236517
 40
0.1665608105528293
 40
0.2501771341742067
 40
0.3191002050794383
 40
0.3835659508892714
 40
0.4438596513263854
 40
0.500329851252282
 40
0.6314299093879684
 40
0.6916598012743371
 40
0.7500504641025773
 40
0.8111379613253399
 40
0.8749762926512126
 40
0.937480091337716
 40
1.0
 40
1.0
 40
1.0
 40
1.0
 10
128.9882838978899
 20
94.3086041754752
 30
0.0
 10
128.9737972922944
 20
94.30049068648881
 30
0.0
 10
128.9470466680495
 20
94.28550850907263
 30
0.0
 10
128.9063805861958
 20
94.26527574387758
 30
0.0
 10
128.8687477416029
 20
94.24927068637531
 30
0.0
 10
128.832765576771
 20
94.23647032819366
 30
0.0
 10
128.8004196535449
 20
94.22773191314775
 30
0.0
 10
128.7700377948174
 20
94.22236501889083
 30
0.0
 10
128.7286200574831
 20
94.21956622130972
 30
0.0
 10
128.6875263176648
 20
94.2252279683394
 30
0.0
 10
128.6494414092897
 20
94.24324070728218
 30
0.0
 10
128.6243087416941
 20
94.2621683214673
 30
0.0
 10
128.6018836207394
 20
94.28751014232802
 30
0.0
 10
128.5828882431067
 20
94.31871002660557
 30
0.0
 10
128.5670522887182
 20
94.35367130327063
 30
0.0
 10
128.559558569673
 20
94.3790881551065
 30
0.0
 10
128.5558112273475
 20
94.39179821857333
 30
0.0
  0
SPLINE
  5
1A0
330
1F
100
AcDbEntity
  8
0
  6
Continuous
 62
     7
370
    18
100
AcDbSpline
210
0.0
220
0.0
230
1.0
 70
     8
 71
     3
 72
    15
 73
    11
 74
     0
 42
0.000000001
 43
0.00000001
 40
0.0
 40
0.0
 40
0.0
 40
0.0
 40
0.0914373948059143
 40
0.1634152837303604
 40
0.249983397870437
 40
0.3691455563094069
 40
0.4999539804989539
 40
0.6642300082906416
 40
0.8174015494239242
 40
1.0
 40
1.0
 40
1.0
 40
1.0
 10
129.2566345379914
 20
94.56354855397684
 30
0.0
 10
129.2506874217454
 20
94.55247787556453
 30
0.0
 10
129.2400588414934
 20
94.5326925562466
 30
0.0
 10
129.2213934129521
 20
94.50477348920859
 30
0.0
 10
129.1989606401797
 20
94.47596585491974
 30
0.0
 10
129.1699746050516
 20
94.44374919459213
 30
0.0
 10
129.1320748788124
 20
94.40832317612073
 30
0.0
 10
129.0893959662507
 20
94.37390119540788
 30
0.0
 10
129.0402703988634
 20
94.33992451075201
 30
0.0
 10
129.0065964604502
 20
94.3196369549165
 30
0.0
 10
128.9882838978899
 20
94.3086041754752
 30
0.0
  0
SPLINE
  5
1A1
330
1F
100
AcDbEntity
  8
0
  6
Continuous
 62
     7
370
    18
100
AcDbSpline
210
0.0
220
0.0
230
1.0
 70
     8
 71
     3
 72
    14
 73
    10
 74
     0
 42
0.000000001
 43
0.00000001
 40
0.0
 40
0.0
 40
0.0
 40
0.0
 40
0.1809586080493442
 40
0.334939926874002
 40
0.5001722213098543
 40
0.7497991781979061
 40
0.8148186919828185
 40
0.8749072689283444
 40
1.0
 40
1.0
 40
1.0
 40
1.0
 10
129.2719834800877
 20
94.80523565981687
 30
0.0
 10
129.2753336056081
 20
94.79123927034864
 30
0.0
 10
129.2815344203077
 20
94.76533307160231
 30
0.0
 10
129.2863409664628
 20
94.72479663428766
 30
0.0
 10
129.2868769683719
 20
94.6775598121207
 30
0.0
 10
129.280684832997
 20
94.63734423534063
 30
0.0
 10
129.2727359964261
 20
94.6070435371391
 30
0.0
 10
129.2664949103885
 20
94.58713267463698
 30
0.0
 10
129.2606099299261
 20
94.57305692945023
 30
0.0
 10
129.2566345379914
 20
94.56354855397684
 30
0.0
  0
SPLINE
  5
1A2
330
1F
100
AcDbEntity
  8
0
  6
Continuous
 62
     7
370
    18
100
AcDbSpline
210
0.0
220
0.0
230
1.0
 70
     8
 71
     3
 72
    19
 73
    15
 74
     0
 42
0.000000001
 43
0.00000001
 40
0.0
 40
0.0
 40
0.0
 40
0.0
 40
0.0712124459227598
 40
0.1251910398375481
 40
0.1922666891999587
 40
0.2503818258430934
 40
0.3379341804154306
 40
0.4191070983654074
 40
0.500693350997883
 40
0.6308382116079763
 40
0.7502508846418828
 40
0.8748745274095223
 40
0.9374315684317152
 40
0.9999999999999999
 40
0.9999999999999999
 40
0.9999999999999999
 40
0.9999999999999999
 10
129.0148830895448
 20
94.19317351716326
 30
0.0
 10
129.0262970948907
 20
94.19956703514087
 30
0.0
 10
129.0463628457502
 20
94.21080680023339
 30
0.0
 10
129.0773936154785
 20
94.22701726305577
 30
0.0
 10
129.1065460488238
 20
94.24080739321383
 30
0.0
 10
129.1414221106698
 20
94.25528760659849
 30
0.0
 10
129.1788922597613
 20
94.26819599452439
 30
0.0
 10
129.2204675707338
 20
94.27787996071346
 30
0.0
 10
129.2689361142168
 20
94.28279895091616
 30
0.0
 10
129.322597689396
 20
94.27564483278337
 30
0.0
 10
129.3759680784665
 20
94.24324602871754
 30
0.0
 10
129.4067259386636
 20
94.19584403512498
 30
0.0
 10
129.423597969023
 20
94.1503971472132
 30
0.0
 10
129.4288550127539
 20
94.12550870457319
 30
0.0
 10
129.4314837739015
 20
94.1130633504185
 30
0.0
  0
SPLINE
  5
1A3
330
1F
100
AcDbEntity
  8
0
  6
Continuous
 62
     7
370
    18
100
AcDbSpline
210
0.0
220
0.0
230
1.0
 70
     8
 71
     3
 72
    20
 73
    16
 74
     0
 42
0.000000001
 43
0.00000001
 40
0.0
 40
0.0
 40
0.0
 40
0.0
 40
0.0462302192038966
 40
0.0830792590924284
 40
0.1250361452568707
 40
0.1884014392762518
 40
0.2499949462040855
 40
0.312540877222061
 40
0.3749190784986446
 40
0.4331808128955601
 40
0.499921596121813
 40
0.6245339060215045
 40
0.7499046366203468
 40
0.8703226084950844
 40
1.0
 40
1.0
 40
1.0
 40
1.0
 10
128.7153115211613
 20
93.69962590917494
 30
0.0
 10
128.7137897302954
 20
93.70906480086002
 30
0.0
 10
128.7110549550813
 20
93.72602721508505
 30
0.0
 10
128.7084834161683
 20
93.75241186500398
 30
0.0
 10
128.7077570883468
 20
93.78325304416265
 30
0.0
 10
128.7098668760459
 20
93.8202625372048
 30
0.0
 10
128.7168354278812
 20
93.86208953578546
 30
0.0
 10
128.7286095364891
 20
93.90285122208275
 30
0.0
 10
128.7451908570714
 20
93.94054316396327
 30
0.0
 10
128.7662376493666
 20
93.97562321371332
 30
0.0
 10
128.797572434991
 20
94.0183626618891
 30
0.0
 10
128.8408537010061
 20
94.0674716487762
 30
0.0
 10
128.8958109574278
 20
94.11604931775531
 30
0.0
 10
128.954374526103
 20
94.15693241604443
 30
0.0
 10
128.9942218057377
 20
94.18079861296619
 30
0.0
 10
129.0148830895448
 20
94.19317351716326
 30
0.0
  0
SPLINE
  5
1A4
330
1F
100
AcDbEntity
  8
0
  6
Continuous
 62
     7
370
    18
100
AcDbSpline
210
0.0
220
0.0
230
1.0
 70
     8
 71
     3
 72
    21
 73
    17
 74
     0
 42
0.000000001
 43
0.00000001
 40
0.0
 40
0.0
 40
0.0
 40
0.0
 40
0.0901997930290032
 40
0.1665608105554096
 40
0.2501771341742132
 40
0.3191002050820541
 40
0.383565950892754
 40
0.4438596513290189
 40
0.5003298512524145
 40
0.6314299093920189
 40
0.6916598012773795
 40
0.7500504641026092
 40
0.8111379613262611
 40
0.8749762926512074
 40
0.9374800913377133
 40
1.0
 40
1.0
 40
1.0
 40
1.0
 10
129.1213621743363
 20
93.6231565377061
 30
0.0
 10
129.1068957580826
 20
93.615037279123
 30
0.0
 10
129.0801824150015
 20
93.60004444770625
 30
0.0
 10
129.0397787709317
 20
93.57973677508606
 30
0.0
 10
129.0026085303477
 20
93.56360005893501
 30
0.0
 10
128.9672705360033
 20
93.5506172435343
 30
0.0
 10
128.9357265598721
 20
93.54165300921984
 30
0.0
 10
128.9063260171964
 20
93.53601181167127
 30
0.0
 10
128.866607512781
 20
93.53274242262562
 30
0.0
 10
128.8278728527805
 20
93.53776060242323
 30
0.0
 10
128.7929819702989
 20
93.5549296274372
 30
0.0
 10
128.770509604453
 20
93.57317020556893
 30
0.0
 10
128.7511183058662
 20
93.59774874031501
 30
0.0
 10
128.7354478518417
 20
93.62813848895635
 30
0.0
 10
128.7230733933557
 20
93.66228289511271
 30
0.0
 10
128.7178990341407
 20
93.68717716856729
 30
0.0
 10
128.7153115211613
 20
93.69962590917494
 30
0.0
  0
SPLINE
  5
1A5
330
1F
100
AcDbEntity
  8
0
  6
Continuous
 62
     7
370
    18
100
AcDbSpline
210
0.0
220
0.0
230
1.0
 70
     8
 71
     3
 72
    15
 73
    11
 74
     0
 42
0.000000001
 43
0.00000001
 40
0.0
 40
0.0
 40
0.0
 40
0.0
 40
0.0914373948064417
 40
0.163415283731444
 40
0.2499833978704397
 40
0.3691455563104662
 40
0.4999539804989356
 40
0.6642300082936717
 40
0.8174015494304163
 40
1.0
 40
1.0
 40
1.0
 40
1.0
 10
129.3977608962653
 20
93.87587722254956
 30
0.0
 10
129.3912023819682
 20
93.8649705057608
 30
0.0
 10
129.3794811220068
 20
93.84547821573672
 30
0.0
 10
129.3594391975557
 20
93.81793490363096
 30
0.0
 10
129.3357312807227
 20
93.78947845339553
 30
0.0
 10
129.3054976347992
 20
93.75760948706257
 30
0.0
 10
129.2665044548335
 20
93.72249120359055
 30
0.0
 10
129.2230346591716
 20
93.68829366482817
 30
0.0
 10
129.173454635507
 20
93.6544465884858
 30
0.0
 10
129.1397120620231
 20
93.63417864924811
 30
0.0
 10
129.1213621743363
 20
93.6231565377061
 30
0.0
  0
SPLINE
  5
1A6
330
1F
100
AcDbEntity
  8
0
  6
Continuous
 62
     7
370
    18
100
AcDbSpline
210
0.0
220
0.0
230
1.0
 70
     8
 71
     3
 72
    14
 73
    10
 74
     0
 42
0.000000001
 43
0.00000001
 40
0.0
 40
0.0
 40
0.0
 40
0.0
 40
0.1809586080467166
 40
0.3349399268752968
 40
0.5001722213098678
 40
0.7497991781979224
 40
0.8148186919807677
 40
0.8749072689283452
 40
1.0
 40
1.0
 40
1.0
 40
1.0
 10
129.4314837739015
 20
94.1130633504185
 30
0.0
 10
129.4335915356933
 20
94.09934705827824
 30
0.0
 10
129.4374928343829
 20
94.07395929730878
 30
0.0
 10
129.4388996182813
 20
94.03422586311451
 30
0.0
 10
129.4356870550995
 20
93.98790135656847
 30
0.0
 10
129.4265884782471
 20
93.94842206167183
 30
0.0
 10
129.4165926570564
 20
93.91865206004256
 30
0.0
 10
129.4090514551305
 20
93.89908118662915
 30
0.0
 10
129.402312894389
 20
93.88523233084965
 30
0.0
 10
129.3977608962653
 20
93.87587722254956
 30
0.0
  0
SPLINE
  5
1A7
330
1F
100
AcDbEntity
  8
0
  6
Continuous
 62
     7
370
    18
100
AcDbSpline
210
0.0
220
0.0
230
1.0
 70
     8
 71
     3
 72
    18
 73
    14
 74
     0
 42
0.000000001
 43
0.00000001
 40
0.0
 40
0.0
 40
0.0
 40
0.0
 40
0.0456847792001426
 40
0.0836624450043146
 40
0.1251691309312512
 40
0.250056699644328
 40
0.374838423178127
 40
0.499692378682034
 40
0.624596721050007
 40
0.7496840118936143
 40
0.8339984785584653
 40
0.9091414133918122
 40
1.0
 40
1.0
 40
1.0
 40
1.0
 10
128.8908179426306
 20
92.98506053661067
 30
0.0
 10
128.8915300979109
 20
92.97778015952885
 30
0.0
 10
128.8928342664549
 20
92.96444761950383
 30
0.0
 10
128.8959566571207
 20
92.94533262282452
 30
0.0
 10
128.9025968355292
 20
92.91539624805982
 30
0.0
 10
128.9173440386136
 20
92.87709946958941
 30
0.0
 10
128.9483360753908
 20
92.84295337450466
 30
0.0
 10
128.9878738608437
 20
92.82418341705316
 30
0.0
 10
129.0340749194543
 20
92.82268603006109
 30
0.0
 10
129.0777959460661
 20
92.83347338968476
 30
0.0
 10
129.1153820818048
 20
92.84628863340257
 30
0.0
 10
129.1487454127017
 20
92.8608423709999
 30
0.0
 10
129.1708870370596
 20
92.87295305434661
 30
0.0
 10
129.1830059422172
 20
92.87958166571224
 30
0.0
  0
SPLINE
  5
1A8
330
1F
100
AcDbEntity
  8
0
  6
Continuous
 62
     7
370
    18
100
AcDbSpline
210
0.0
220
0.0
230
1.0
 70
     8
 71
     3
 72
    12
 73
     8
 74
     0
 42
0.000000001
 43
0.00000001
 40
0.0
 40
0.0
 40
0.0
 40
0.0
 40
0.250329132619114
 40
0.4998478973007492
 40
0.6224065205805838
 40
0.7502370399518875
 40
1.0
 40
1.0
 40
1.0
 40
1.0
 10
129.0147910003521
 20
93.28490283476104
 30
0.0
 10
128.9961176723197
 20
93.26513551194438
 30
0.0
 10
128.9588314657364
 20
93.22566485728345
 30
0.0
 10
128.9208020455126
 20
93.16214713574828
 30
0.0
 10
128.9011216284377
 20
93.10681951273068
 30
0.0
 10
128.8888519917766
 20
93.05044641872922
 30
0.0
 10
128.8900352588584
 20
93.01109194465225
 30
0.0
 10
128.8908179426306
 20
92.98506053661067
 30
0.0
  0
LINE
  5
1A9
330
1F
100
AcDbEntity
  8
0
  6
Continuous
 62
     7
370
    18
100
AcDbLine
 10
128.9783601333
 20
93.3950720861
 30
0.0
 11
129.0147910004
 21
93.2849028348
 31
0.0
  0
SPLINE
  5
1AA
330
1F
100
AcDbEntity
  8
0
  6
Continuous
 62
     7
370
    18
100
AcDbSpline
210
0.0
220
0.0
230
1.0
 70
     8
 71
     3
 72
    18
 73
    14
 74
     0
 42
0.000000001
 43
0.00000001
 40
0.0
 40
0.0
 40
0.0
 40
0.0
 40
0.0651378685730901
 40
0.1242087721104337
 40
0.1878185588840048
 40
0.2502588487414231
 40
0.3743307665545041
 40
0.4994529491455166
 40
0.6241743815943316
 40
0.749040979177826
 40
0.8335844998410861
 40
0.9116650081457363
 40
1.0
 40
1.0
 40
1.0
 40
1.0
 10
128.8087416881025
 20
92.94377408140483
 30
0.0
 10
128.8080583437618
 20
92.95354972868842
 30
0.0
 10
128.8067553020235
 20
92.97219051587226
 30
0.0
 10
128.8065114050363
 20
93.00140625608468
 30
0.0
 10
128.8076029555741
 20
93.03084129431893
 30
0.0
 10
128.8114401662272
 20
93.07148636706836
 30
0.0
 10
128.8207081068257
 20
93.12338116451629
 30
0.0
 10
128.8398153598575
 20
93.18558073130899
 30
0.0
 10
128.8660855183351
 20
93.24567157836671
 30
0.0
 10
128.8952547540374
 20
93.2954344552228
 30
0.0
 10
128.9235222964805
 20
93.33456350501962
 30
0.0
 10
128.9498907810126
 20
93.36627605704402
 30
0.0
 10
128.9684883564709
 20
93.38508703380157
 30
0.0
 10
128.9783601332888
 20
93.3950720861378
 30
0.0
  0
SPLINE
  5
1AB
330
1F
100
AcDbEntity
  8
0
  6
Continuous
 62
     7
370
    18
100
AcDbSpline
210
0.0
220
0.0
230
1.0
 70
     8
 71
     3
 72
    20
 73
    16
 74
     0
 42
0.000000001
 43
0.00000001
 40
0.0
 40
0.0
 40
0.0
 40
0.0
 40
0.0625549974875557
 40
0.1250989326527822
 40
0.1884654202117162
 40
0.2501862079643405
 40
0.3772480755790316
 40
0.4999807225445208
 40
0.6216186913225963
 40
0.6845106024245274
 40
0.749841260959597
 40
0.8117594936278079
 40
0.874920766600388
 40
0.9374570977394425
 40
1.0
 40
1.0
 40
1.0
 40
1.0
 10
129.1874563673745
 20
92.7624461594361
 30
0.0
 10
129.1760943235756
 20
92.75613894035043
 30
0.0
 10
129.1533722452593
 20
92.74352561755742
 30
0.0
 10
129.1191804087555
 20
92.72762737675666
 30
0.0
 10
129.0854098072724
 20
92.71506921503546
 30
0.0
 10
129.0406686182667
 20
92.7027766092882
 30
0.0
 10
128.9871756788735
 20
92.69752857716244
 30
0.0
 10
128.9292961191364
 20
92.70991494969441
 30
0.0
 10
128.8891221864253
 20
92.73723515604337
 30
0.0
 10
128.8627798683349
 20
92.76926937042884
 30
0.0
 10
128.8456934771638
 20
92.7977935211967
 30
0.0
 10
128.8315939735608
 20
92.830050855916
 30
0.0
 10
128.8208552133587
 20
92.86518986702009
 30
0.0
 10
128.8130439256778
 20
92.90320198993199
 30
0.0
 10
128.8101758175203
 20
92.93024957725949
 30
0.0
 10
128.8087416881025
 20
92.94377408140483
 30
0.0
  0
SPLINE
  5
1AC
330
1F
100
AcDbEntity
  8
0
  6
Continuous
 62
     7
370
    18
100
AcDbSpline
210
0.0
220
0.0
230
1.0
 70
     8
 71
     3
 72
    21
 73
    17
 74
     0
 42
0.000000001
 43
0.00000001
 40
0.0
 40
0.0
 40
0.0
 40
0.0
 40
0.062543015070193
 40
0.12507231248072
 40
0.1900198833658868
 40
0.2500972573613964
 40
0.3747984055524841
 40
0.4371303505332427
 40
0.499803936404203
 40
0.5787612218493522
 40
0.6616556370854502
 40
0.7498528528224305
 40
0.8118683207244819
 40
0.8749209213021479
 40
0.9374567153820866
 40
1.0
 40
1.0
 40
1.0
 40
1.0
 10
129.5337773849714
 20
93.36483959963554
 30
0.0
 10
129.5347518327883
 20
93.35067861771279
 30
0.0
 10
129.536700514695
 20
93.32235975981814
 30
0.0
 10
129.5358562315902
 20
93.27773217458993
 30
0.0
 10
129.5317759945576
 20
93.23266065192317
 30
0.0
 10
129.5212082590306
 20
93.17153359083899
 30
0.0
 10
129.5010705464817
 20
93.10989715396141
 30
0.0
 10
129.4725871242676
 20
93.05054027227771
 30
0.0
 10
129.4453595598634
 20
93.00422446867844
 30
0.0
 10
129.4114489396952
 20
92.95668961548898
 30
0.0
 10
129.370259392168
 20
92.90847643725938
 30
0.0
 10
129.3296195621469
 20
92.8681553871
 30
0.0
 10
129.2913715146257
 20
92.8346689317308
 30
0.0
 10
129.2571213526781
 20
92.80782122923452
 30
0.0
 10
129.2223757498356
 20
92.78326235296822
 30
0.0
 10
129.1990966262293
 20
92.76938516763178
 30
0.0
 10
129.1874563673745
 20
92.7624461594361
 30
0.0
  0
SPLINE
  5
1AD
330
1F
100
AcDbEntity
  8
0
  6
Continuous
 62
     7
370
    18
100
AcDbSpline
210
0.0
220
0.0
230
1.0
 70
     8
 71
     3
 72
    19
 73
    15
 74
     0
 42
0.000000001
 43
0.00000001
 40
0.0
 40
0.0
 40
0.0
 40
0.0
 40
0.0651522014567254
 40
0.1242331508600957
 40
0.1896296338405176
 40
0.25185398511411
 40
0.3767011662382528
 40
0.5006874571178465
 40
0.6254541801821428
 40
0.749926507291139
 40
0.8120802246884584
 40
0.8746717993610532
 40
0.9309080777220688
 40
1.0
 40
1.0
 40
1.0
 40
1.0
 10
129.2596777143757
 20
93.5815564180323
 30
0.0
 10
129.2685546712543
 20
93.58366496676582
 30
0.0
 10
129.285481379768
 20
93.58768557768991
 30
0.0
 10
129.3110408558141
 20
93.59112387408764
 30
0.0
 10
129.3358516006853
 20
93.59237458700723
 30
0.0
 10
129.368714616414
 20
93.5908761998145
 30
0.0
 10
129.407365720479
 20
93.58193836168768
 30
0.0
 10
129.4487068477582
 20
93.55888861668996
 30
0.0
 10
129.4830007769468
 20
93.52394883796916
 30
0.0
 10
129.5049107217982
 20
93.48634727794442
 30
0.0
 10
129.5176105852542
 20
93.45182854159029
 30
0.0
 10
129.5248890985801
 20
93.4252307516631
 30
0.0
 10
129.5303269562076
 20
93.39613912888589
 30
0.0
 10
129.5325511911371
 20
93.3759626490908
 30
0.0
 10
129.5337773849714
 20
93.36483959963554
 30
0.0
  0
LINE
  5
1AE
330
1F
100
AcDbEntity
  8
0
  6
Continuous
 62
     7
370
    18
100
AcDbLine
 10
129.25188739
 20
93.4454704473
 30
0.0
 11
129.2596777144
 21
93.581556418
 31
0.0
  0
SPLINE
  5
1AF
330
1F
100
AcDbEntity
  8
0
  6
Continuous
 62
     7
370
    18
100
AcDbSpline
210
0.0
220
0.0
230
1.0
 70
     8
 71
     3
 72
    16
 73
    12
 74
     0
 42
0.000000001
 43
0.00000001
 40
0.0
 40
0.0
 40
0.0
 40
0.0
 40
0.0877850889710823
 40
0.1688776249394844
 40
0.2513753912942093
 40
0.3755480292693122
 40
0.4986288710392939
 40
0.6229371612170305
 40
0.7458785838317339
 40
0.8701193220976353
 40
1.0
 40
1.0
 40
1.0
 40
1.0
 10
129.4531329274531
 20
93.30645337823567
 30
0.0
 10
129.4519804679239
 20
93.31656038357623
 30
0.0
 10
129.4497634099884
 20
93.33600385714527
 30
0.0
 10
129.4432592248131
 20
93.3629662299282
 30
0.0
 10
129.432350201214
 20
93.39094743508359
 30
0.0
 10
129.4149373437795
 20
93.41818107314178
 30
0.0
 10
129.3892066319665
 20
93.44044350643323
 30
0.0
 10
129.3589486356462
 20
93.45396149941652
 30
0.0
 10
129.3253108376421
 20
93.4585632075116
 30
0.0
 10
129.2893575389724
 20
93.45575535815095
 30
0.0
 10
129.2645608842939
 20
93.44894910328142
 30
0.0
 10
129.2518873899938
 20
93.44547044725249
 30
0.0
  0
SPLINE
  5
1B0
330
1F
100
AcDbEntity
  8
0
  6
Continuous
 62
     7
370
    18
100
AcDbSpline
210
0.0
220
0.0
230
1.0
 70
     8
 71
     3
 72
    21
 73
    17
 74
     0
 42
0.000000001
 43
0.00000001
 40
0.0
 40
0.0
 40
0.0
 40
0.0
 40
0.092138469273752
 40
0.1664515113289968
 40
0.2500894166773398
 40
0.3406932272041822
 40
0.4236385472278423
 40
0.500111504195179
 40
0.562699009922287
 40
0.6250743254876787
 40
0.6845873912974216
 40
0.7500239008907331
 40
0.8113624624575568
 40
0.8750010555733675
 40
0.9374854623834584
 40
1.0
 40
1.0
 40
1.0
 40
1.0
 10
129.1830059422172
 20
92.87958166571224
 30
0.0
 10
129.1955114678154
 20
92.8871099545984
 30
0.0
 10
129.2181031567397
 20
92.90071008354234
 30
0.0
 10
129.2518077930037
 20
92.92394928677456
 30
0.0
 10
129.284834853694
 20
92.94986145133372
 30
0.0
 10
129.3183184608436
 20
92.97954076609643
 30
0.0
 10
129.3495542543308
 20
93.01203816938245
 30
0.0
 10
129.3755014839985
 20
93.04423858916846
 30
0.0
 10
129.3966522551435
 20
93.07627058691655
 30
0.0
 10
129.4136612342744
 20
93.10747042917504
 30
0.0
 10
129.4278151361709
 20
93.14059091947128
 30
0.0
 10
129.4388653561741
 20
93.17417519126867
 30
0.0
 10
129.4473107991008
 20
93.2086106893052
 30
0.0
 10
129.4526790633188
 20
93.24221221906042
 30
0.0
 10
129.454866495479
 20
93.27526606365007
 30
0.0
 10
129.4537108763151
 20
93.29605593625136
 30
0.0
 10
129.4531329274531
 20
93.30645337823567
 30
0.0
  0
SPLINE
  5
1B1
330
1F
100
AcDbEntity
  8
0
  6
Continuous
 62
     7
370
    18
100
AcDbSpline
210
0.0
220
0.0
230
1.0
 70
     8
 71
     3
 72
    14
 73
    10
 74
     0
 42
0.000000001
 43
0.00000001
 40
0.0
 40
0.0
 40
0.0
 40
0.0
 40
0.1786276334850638
 40
0.3356006393762487
 40
0.4999620389381731
 40
0.6215578230748577
 40
0.7499755803731869
 40
0.8749741658689933
 40
1.0
 40
1.0
 40
1.0
 40
1.0
 10
129.2775139223288
 20
92.11316979785386
 30
0.0
 10
129.2880574043282
 20
92.11893258423339
 30
0.0
 10
129.3078662056387
 20
92.12975954731758
 30
0.0
 10
129.3367042105168
 20
92.14193215801905
 30
0.0
 10
129.3614733184154
 20
92.14976283596847
 30
0.0
 10
129.3835433395638
 20
92.15387674943071
 30
0.0
 10
129.4024888140501
 20
92.15516045384736
 30
0.0
 10
129.420676945613
 20
92.15445730514551
 30
0.0
 10
129.4314704341274
 20
92.15180199978228
 30
0.0
 10
129.4368677665428
 20
92.15047420240789
 30
0.0
  0
SPLINE
  5
1B2
330
1F
100
AcDbEntity
  8
0
  6
Continuous
 62
     7
370
    18
100
AcDbSpline
210
0.0
220
0.0
230
1.0
 70
     8
 71
     3
 72
    17
 73
    13
 74
     0
 42
0.000000001
 43
0.00000001
 40
0.0
 40
0.0
 40
0.0
 40
0.0
 40
0.0625698012594432
 40
0.12511439295871
 40
0.2500194028050702
 40
0.3728882099863021
 40
0.4998995958073516
 40
0.6250188174491857
 40
0.7497916900726704
 40
0.8336846816522975
 40
0.9088738510889058
 40
1.0
 40
1.0
 40
1.0
 40
1.0
 10
129.0206507043922
 20
91.75974459611446
 30
0.0
 10
129.0219635272827
 20
91.76741707052742
 30
0.0
 10
129.0245886441235
 20
91.78275892809046
 30
0.0
 10
129.0331671682947
 20
91.81530472594373
 30
0.0
 10
129.0490924464823
 20
91.85802008596363
 30
0.0
 10
129.0766362942875
 20
91.91068680016906
 30
0.0
 10
129.1104680138696
 20
91.96173107045769
 30
0.0
 10
129.1489719726861
 20
92.00963196199565
 30
0.0
 10
129.1862053399183
 20
92.04679074992923
 30
0.0
 10
129.2187772986784
 20
92.07414492468244
 30
0.0
 10
129.2477934680038
 20
92.09508307044977
 30
0.0
 10
129.2669938201271
 20
92.10676766756657
 30
0.0
 10
129.2775139223288
 20
92.11316979785386
 30
0.0
  0
SPLINE
  5
1B3
330
1F
100
AcDbEntity
  8
0
  6
Continuous
 62
     7
370
    18
100
AcDbSpline
210
0.0
220
0.0
230
1.0
 70
     8
 71
     3
 72
    14
 73
    10
 74
     0
 42
0.000000001
 43
0.00000001
 40
0.0
 40
0.0
 40
0.0
 40
0.0
 40
0.1800405543680817
 40
0.3344946132015658
 40
0.4999825097941628
 40
0.6240512587213799
 40
0.7499808909271324
 40
0.8749777731247703
 40
0.9999999999999999
 40
0.9999999999999999
 40
0.9999999999999999
 40
0.9999999999999999
 10
129.0462053235042
 20
91.65603540212904
 30
0.0
 10
129.0425277685202
 20
91.66002172162712
 30
0.0
 10
129.0356952949353
 20
91.66742784411596
 30
0.0
 10
129.0276180262833
 20
91.68112040716963
 30
0.0
 10
129.0223968332946
 20
91.69540860009887
 30
0.0
 10
129.0193610974813
 20
91.71060689108312
 30
0.0
 10
129.018197829489
 20
91.72572961607304
 30
0.0
 10
129.0183208208989
 20
91.74198034403362
 30
0.0
 10
129.0198740240779
 20
91.75382277859453
 30
0.0
 10
129.0206507043922
 20
91.75974459611446
 30
0.0
  0
LINE
  5
1B4
330
1F
100
AcDbEntity
  8
0
  6
Continuous
 62
     7
370
    18
100
AcDbLine
 10
128.8695784589
 20
91.5873963319
 30
0.0
 11
129.0462053235
 21
91.6560354021
 31
0.0
  0
ARC
  5
1B5
330
1F
100
AcDbEntity
  8
0
  6
Continuous
 62
     7
370
    18
100
AcDbCircle
 10
124.2203412559
 20
92.3826318934
 30
0.0
 40
4.716758014528714
100
AcDbArc
 50
350.2936911902
 51
353.6794334042
  0
LINE
  5
1B6
330
1F
100
AcDbEntity
  8
0
  6
Continuous
 62
     7
370
    18
100
AcDbLine
 10
128.8177737496
 20
91.8110250039
 30
0.0
 11
128.9084284651
 21
91.8633588572
 31
0.0
  0
ARC
  5
1B7
330
1F
100
AcDbEntity
  8
0
  6
Continuous
 62
     7
370
    18
100
AcDbCircle
 10
124.1943123175
 20
92.3216628394
 30
0.0
 40
4.651574638038348
100
AcDbArc
 50
349.311451995
 51
353.6975153657
  0
LINE
  5
1B8
330
1F
100
AcDbEntity
  8
0
  6
Continuous
 62
     7
370
    18
100
AcDbLine
 10
129.1131857955
 20
91.5946778072
 30
0.0
 11
128.7651816101
 21
91.4589343055
 31
0.0
  0
LINE
  5
1B9
330
1F
100
AcDbEntity
  8
0
  6
Continuous
 62
     7
370
    18
100
AcDbLine
 10
129.1403401922
 20
91.6920464148
 30
0.0
 11
129.1131857955
 21
91.5946778072
 31
0.0
  0
SPLINE
  5
1BA
330
1F
100
AcDbEntity
  8
0
  6
Continuous
 62
     7
370
    18
100
AcDbSpline
210
0.0
220
0.0
230
1.0
 70
     8
 71
     3
 72
    11
 73
     7
 74
     0
 42
0.000000001
 43
0.00000001
 40
0.0
 40
0.0
 40
0.0
 40
0.0
 40
0.2502798246471836
 40
0.5000458930157002
 40
0.7516551190241667
 40
1.0
 40
1.0
 40
1.0
 40
1.0
 10
129.0982193208918
 20
91.78058899564472
 30
0.0
 10
129.0967756683219
 20
91.76843584925152
 30
0.0
 10
129.0938913266073
 20
91.74415450356294
 30
0.0
 10
129.1000224255735
 20
91.71571108439097
 30
0.0
 10
129.1158791084026
 20
91.69766210876546
 30
0.0
 10
129.1322220669027
 20
91.69391014687817
 30
0.0
 10
129.1403401922002
 20
91.69204641475693
 30
0.0
  0
SPLINE
  5
1BB
330
1F
100
AcDbEntity
  8
0
  6
Continuous
 62
     7
370
    18
100
AcDbSpline
210
0.0
220
0.0
230
1.0
 70
     8
 71
     3
 72
    13
 73
     9
 74
     0
 42
0.000000001
 43
0.00000001
 40
0.0
 40
0.0
 40
0.0
 40
0.0
 40
0.2500149326798236
 40
0.3759910897600291
 40
0.5003520053813162
 40
0.6253169543417646
 40
0.750367655729167
 40
1.0
 40
1.0
 40
1.0
 40
1.0
 10
129.2718509394083
 20
92.01875064564005
 30
0.0
 10
129.2518440864829
 20
92.00606861983249
 30
0.0
 10
129.2217562899124
 20
91.98699644421224
 30
0.0
 10
129.1827485449782
 20
91.94993787978615
 30
0.0
 10
129.155604173741
 20
91.91800117565057
 30
0.0
 10
129.1326302157136
 20
91.88286640174347
 30
0.0
 10
129.1093950216804
 20
91.83465921298829
 30
0.0
 10
129.1026879219094
 20
91.80220895781198
 30
0.0
 10
129.0982193208918
 20
91.78058899564472
 30
0.0
  0
SPLINE
  5
1BC
330
1F
100
AcDbEntity
  8
0
  6
Continuous
 62
     7
370
    18
100
AcDbSpline
210
0.0
220
0.0
230
1.0
 70
     8
 71
     3
 72
    16
 73
    12
 74
     0
 42
0.000000001
 43
0.00000001
 40
0.0
 40
0.0
 40
0.0
 40
0.0
 40
0.0897692570937985
 40
0.1684411436342606
 40
0.2501369652904176
 40
0.3721468813650028
 40
0.4998813810825241
 40
0.6228862120073793
 40
0.7498507739171688
 40
0.874913818838756
 40
1.0
 40
1.0
 40
1.0
 40
1.0
 10
129.4154414883485
 20
91.96331337628149
 30
0.0
 10
129.4163682649246
 20
91.9708499027461
 30
0.0
 10
129.418107248976
 20
91.98499128229881
 30
0.0
 10
129.4173763269226
 20
92.0039428343271
 30
0.0
 10
129.413413665201
 20
92.02289743322554
 30
0.0
 10
129.4027683546381
 20
92.03967713751909
 30
0.0
 10
129.3837003991504
 20
92.04966719529098
 30
0.0
 10
129.3596336564633
 20
92.0521006557777
 30
0.0
 10
129.3320895012204
 20
92.04672097013245
 30
0.0
 10
129.3024506649929
 20
92.03548962190824
 30
0.0
 10
129.2820514768418
 20
92.02433064842634
 30
0.0
 10
129.2718509394083
 20
92.01875064564005
 30
0.0
  0
SPLINE
  5
1BD
330
1F
100
AcDbEntity
  8
0
  6
Continuous
 62
     7
370
    18
100
AcDbSpline
210
0.0
220
0.0
230
1.0
 70
     8
 71
     3
 72
    12
 73
     8
 74
     0
 42
0.000000001
 43
0.00000001
 40
0.0
 40
0.0
 40
0.0
 40
0.0
 40
0.2504452796219912
 40
0.4998659604594773
 40
0.6245552993180271
 40
0.750293206136105
 40
1.0
 40
1.0
 40
1.0
 40
1.0
 10
129.2655286516583
 20
91.75603494392581
 30
0.0
 10
129.2826251783754
 20
91.7688919336734
 30
0.0
 10
129.3167482880658
 20
91.79455331383001
 30
0.0
 10
129.3578450419559
 20
91.83842579411424
 30
0.0
 10
129.3844536361721
 20
91.87732741166803
 30
0.0
 10
129.4051923147505
 20
91.91747160945964
 30
0.0
 10
129.4113476194203
 20
91.94500261366153
 30
0.0
 10
129.4154414883485
 20
91.96331337628149
 30
0.0
  0
LINE
  5
1BE
330
1F
100
AcDbEntity
  8
0
  6
Continuous
 62
     7
370
    18
100
AcDbLine
 10
129.2563258889
 20
91.6692790023
 30
0.0
 11
129.2655286517
 21
91.7560349439
 31
0.0
  0
SPLINE
  5
1BF
330
1F
100
AcDbEntity
  8
0
  6
Continuous
 62
     7
370
    18
100
AcDbSpline
210
0.0
220
0.0
230
1.0
 70
     8
 71
     3
 72
    17
 73
    13
 74
     0
 42
0.000000001
 43
0.00000001
 40
0.0
 40
0.0
 40
0.0
 40
0.0
 40
0.0895564886605744
 40
0.1683090099481198
 40
0.250144926246455
 40
0.3751338050604376
 40
0.5000124896553483
 40
0.6246865155077488
 40
0.6869675959086581
 40
0.7500229456614176
 40
0.8749832505153293
 40
0.9999999999999999
 40
0.9999999999999999
 40
0.9999999999999999
 40
0.9999999999999999
 10
129.4969382213822
 20
92.00982175037282
 30
0.0
 10
129.4950224277896
 20
91.99940018449016
 30
0.0
 10
129.4914219592178
 20
91.97981429560532
 30
0.0
 10
129.4826292859492
 20
91.94924000741003
 30
0.0
 10
129.4691882389592
 20
91.91325248433373
 30
0.0
 10
129.4478116792274
 20
91.87018967905901
 30
0.0
 10
129.4167295175606
 20
91.82204778576575
 30
0.0
 10
129.3864976776366
 20
91.78385947679989
 30
0.0
 10
129.3604230609313
 20
91.75539973290208
 30
0.0
 10
129.333395393092
 20
91.72857893708075
 30
0.0
 10
129.2983093164803
 20
91.69830446837186
 30
0.0
 10
129.2703224712588
 20
91.6789556139748
 30
0.0
 10
129.2563258889438
 20
91.66927900229787
 30
0.0
  0
SPLINE
  5
1C0
330
1F
100
AcDbEntity
  8
0
  6
Continuous
 62
     7
370
    18
100
AcDbSpline
210
0.0
220
0.0
230
1.0
 70
     8
 71
     3
 72
    12
 73
     8
 74
     0
 42
0.000000001
 43
0.00000001
 40
0.0
 40
0.0
 40
0.0
 40
0.0
 40
0.2499432762526226
 40
0.4997903064123639
 40
0.7496283212960839
 40
0.8747898104782085
 40
1.0
 40
1.0
 40
1.0
 40
1.0
 10
129.4368677665428
 20
92.15047420240789
 30
0.0
 10
129.4485240531953
 20
92.14591848056675
 30
0.0
 10
129.4718321379939
 20
92.13680879116419
 30
0.0
 10
129.4937132794325
 20
92.10564842589883
 30
0.0
 10
129.5006715627054
 20
92.06943216205077
 30
0.0
 10
129.5005569083461
 20
92.03654604460067
 30
0.0
 10
129.4981446067775
 20
92.01873100352955
 30
0.0
 10
129.4969382213822
 20
92.00982175037282
 30
0.0
  0
SPLINE
  5
1C1
330
1F
100
AcDbEntity
  8
0
  6
Continuous
 62
     7
370
    18
100
AcDbSpline
210
0.0
220
0.0
230
1.0
 70
     8
 71
     3
 72
    17
 73
    13
 74
     0
 42
0.000000001
 43
0.00000001
 40
0.0
 40
0.0
 40
0.0
 40
0.0
 40
0.0828733410710436
 40
0.1664151798054236
 40
0.2499285117483867
 40
0.3263189014904326
 40
0.4093958108371824
 40
0.4998979489198823
 40
0.6148022713062882
 40
0.7499287718381658
 40
0.8620011376238992
 40
1.0
 40
1.0
 40
1.0
 40
1.0
 10
128.9105024555513
 20
91.37522634115278
 30
0.0
 10
128.9204322322309
 20
91.3806501102701
 30
0.0
 10
128.9403718841166
 20
91.391541399329
 30
0.0
 10
128.9684158717297
 20
91.40214965817339
 30
0.0
 10
128.9939785524357
 20
91.4087869126968
 30
0.0
 10
129.0172469611447
 20
91.41127120212654
 30
0.0
 10
129.0389288369575
 20
91.41029795999995
 30
0.0
 10
129.0616289889324
 20
91.40593917130751
 30
0.0
 10
129.0853574306668
 20
91.39693243661736
 30
0.0
 10
129.1076820240426
 20
91.38419051876527
 30
0.0
 10
129.1295639768659
 20
91.36890505743128
 30
0.0
 10
129.1429533115723
 20
91.3584884211401
 30
0.0
 10
129.1503420582547
 20
91.35274012307103
 30
0.0
  0
SPLINE
  5
1C2
330
1F
100
AcDbEntity
  8
0
  6
Continuous
 62
     7
370
    18
100
AcDbSpline
210
0.0
220
0.0
230
1.0
 70
     8
 71
     3
 72
    18
 73
    14
 74
     0
 42
0.000000001
 43
0.00000001
 40
0.0
 40
0.0
 40
0.0
 40
0.0
 40
0.0899014083371603
 40
0.1682551645431897
 40
0.2502137652301776
 40
0.3768535888438678
 40
0.5001021036165456
 40
0.6264157134396453
 40
0.7499819517704467
 40
0.8748583597132783
 40
0.9075132859407673
 40
0.9374320138944593
 40
1.0
 40
1.0
 40
1.0
 40
1.0
 10
128.6590772335097
 20
91.0523274972793
 30
0.0
 10
128.6620761085565
 20
91.0617775115402
 30
0.0
 10
128.6676886592805
 20
91.07946370504722
 30
0.0
 10
128.6788343786596
 20
91.1075207652696
 30
0.0
 10
128.6942535435222
 20
91.14099388240584
 30
0.0
 10
128.7168804619641
 20
91.18163780213469
 30
0.0
 10
128.7492404298746
 20
91.22834791724573
 30
0.0
 10
128.7861509096542
 20
91.27306602344441
 30
0.0
 10
128.8266675659396
 20
91.31441696472652
 30
0.0
 10
128.8584766710104
 20
91.34049001275741
 30
0.0
 10
128.8794878589915
 20
91.35563265611147
 30
0.0
 10
128.8934693553887
 20
91.36512751305631
 30
0.0
 10
128.9036292245356
 20
91.37115124162112
 30
0.0
 10
128.9105024555513
 20
91.37522634115278
 30
0.0
  0
SPLINE
  5
1C3
330
1F
100
AcDbEntity
  8
0
  6
Continuous
 62
     7
370
    18
100
AcDbSpline
210
0.0
220
0.0
230
1.0
 70
     8
 71
     3
 72
    18
 73
    14
 74
     0
 42
0.000000001
 43
0.00000001
 40
0.0
 40
0.0
 40
0.0
 40
0.0
 40
0.0908838125034613
 40
0.1672852931766186
 40
0.250129239067469
 40
0.3768215123406833
 40
0.4998845431600349
 40
0.62253647085948
 40
0.6852915165686815
 40
0.7498620616913086
 40
0.8317137560084125
 40
0.9099398220501677
 40
1.0
 40
1.0
 40
1.0
 40
1.0
 10
128.789188343362
 20
90.95834819396347
 30
0.0
 10
128.7794490846191
 20
90.95361207006681
 30
0.0
 10
128.7615225176182
 20
90.94489452342401
 30
0.0
 10
128.7362052365596
 20
90.93487991515548
 30
0.0
 10
128.7094271526456
 20
90.9271753976851
 30
0.0
 10
128.6823496766989
 20
90.92467833316996
 30
0.0
 10
128.6606039719008
 20
90.93305069990674
 30
0.0
 10
128.6501899147428
 20
90.94844735745242
 30
0.0
 10
128.6462355763415
 20
90.96523910659253
 30
0.0
 10
128.6453373259103
 20
90.98149626760723
 30
0.0
 10
128.6470595142397
 20
91.00125727904387
 30
0.0
 10
128.6516354038888
 20
91.02536985732682
 30
0.0
 10
128.6564829939809
 20
91.0429299997913
 30
0.0
 10
128.6590772335097
 20
91.0523274972793
 30
0.0
  0
LINE
  5
1C4
330
1F
100
AcDbEntity
  8
0
  6
Continuous
 62
     7
370
    18
100
AcDbLine
 10
128.8272916465
 20
91.045985606
 30
0.0
 11
128.7891883434
 21
90.958348194
 31
0.0
  0
SPLINE
  5
1C5
330
1F
100
AcDbEntity
  8
0
  6
Continuous
 62
     7
370
    18
100
AcDbSpline
210
0.0
220
0.0
230
1.0
 70
     8
 71
     3
 72
    13
 73
     9
 74
     0
 42
0.000000001
 43
0.00000001
 40
0.0
 40
0.0
 40
0.0
 40
0.0
 40
0.2498719666154739
 40
0.3781432808598783
 40
0.5002442228710952
 40
0.6253825642689803
 40
0.7505120342682404
 40
1.0
 40
1.0
 40
1.0
 40
1.0
 10
128.7401071975842
 20
91.09755381080348
 30
0.0
 10
128.7362605248193
 20
91.08176245513846
 30
0.0
 10
128.7304391696693
 20
91.05786463610225
 30
0.0
 10
128.7350248919745
 20
91.03608027277345
 30
0.0
 10
128.7439957708813
 20
91.02525219491086
 30
0.0
 10
128.7582989538131
 20
91.02064343045718
 30
0.0
 10
128.7848217054439
 20
91.02421145361505
 30
0.0
 10
128.810314162919
 20
91.03728132466313
 30
0.0
 10
128.8272916464805
 20
91.04598560596224
 30
0.0
  0
SPLINE
  5
1C6
330
1F
100
AcDbEntity
  8
0
  6
Continuous
 62
     7
370
    18
100
AcDbSpline
210
0.0
220
0.0
230
1.0
 70
     8
 71
     3
 72
    14
 73
    10
 74
     0
 42
0.000000001
 43
0.00000001
 40
0.0
 40
0.0
 40
0.0
 40
0.0
 40
0.125080964289579
 40
0.2500323027214089
 40
0.3710454299447715
 40
0.5001740121576953
 40
0.6252059778119405
 40
0.7502836862479022
 40
1.0
 40
1.0
 40
1.0
 40
1.0
 10
128.8891594403138
 20
91.28703113847749
 30
0.0
 10
128.8810031644396
 20
91.28195806843163
 30
0.0
 10
128.8646990653303
 20
91.27181718574307
 30
0.0
 10
128.8398697200498
 20
91.25112610634469
 30
0.0
 10
128.8159772948077
 20
91.2269298229273
 30
0.0
 10
128.794022895394
 20
91.20062838840981
 30
0.0
 10
128.7749215426192
 20
91.17325259024534
 30
0.0
 10
128.7539850540037
 20
91.13734767178991
 30
0.0
 10
128.7456563886038
 20
91.11346575925911
 30
0.0
 10
128.7401071975842
 20
91.09755381080348
 30
0.0
  0
SPLINE
  5
1C7
330
1F
100
AcDbEntity
  8
0
  6
Continuous
 62
     7
370
    18
100
AcDbSpline
210
0.0
220
0.0
230
1.0
 70
     8
 71
     3
 72
    18
 73
    14
 74
     0
 42
0.000000001
 43
0.00000001
 40
0.0
 40
0.0
 40
0.0
 40
0.0
 40
0.1188616834565673
 40
0.2282726363402709
 40
0.3282653850566376
 40
0.4188826008898894
 40
0.5001817217164066
 40
0.5895261950463868
 40
0.6693192662741296
 40
0.750227867288428
 40
0.875058086734661
 40
0.9375361496210893
 40
1.0
 40
1.0
 40
1.0
 40
1.0
 10
129.0834977156638
 20
91.24853917315735
 30
0.0
 10
129.078133576604
 20
91.25284324275604
 30
0.0
 10
129.0678318029014
 20
91.26110916399922
 30
0.0
 10
129.0521844353559
 20
91.2724817269337
 30
0.0
 10
129.0372334950905
 20
91.2823763006949
 30
0.0
 10
129.0229901280017
 20
91.29075644082305
 30
0.0
 10
129.0084783786044
 20
91.29799523816109
 30
0.0
 10
128.9937754954572
 20
91.30413088193764
 30
0.0
 10
128.977434902619
 20
91.30827838416371
 30
0.0
 10
128.956472704015
 20
91.30997271166308
 30
0.0
 10
128.9332352325807
 20
91.30629818673722
 30
0.0
 10
128.9089483719726
 20
91.29769446225504
 30
0.0
 10
128.8957552506147
 20
91.29058531017441
 30
0.0
 10
128.8891594403138
 20
91.28703113847749
 30
0.0
  0
SPLINE
  5
1C8
330
1F
100
AcDbEntity
  8
0
  6
Continuous
 62
     7
370
    18
100
AcDbSpline
210
0.0
220
0.0
230
1.0
 70
     8
 71
     3
 72
    15
 73
    11
 74
     0
 42
0.000000001
 43
0.00000001
 40
0.0
 40
0.0
 40
0.0
 40
0.0
 40
0.1249813274495396
 40
0.2499701502241934
 40
0.3725179672971921
 40
0.4999246901328407
 40
0.619580749379823
 40
0.7522745104013148
 40
0.869040734775616
 40
1.0
 40
1.0
 40
1.0
 40
1.0
 10
129.2341031963603
 20
91.21549350357135
 30
0.0
 10
129.2250613431883
 20
91.21297391963603
 30
0.0
 10
129.2069770945902
 20
91.207934600662
 30
0.0
 10
129.1834535477197
 20
91.20567977182078
 30
0.0
 10
129.1617165987005
 20
91.20610917989323
 30
0.0
 10
129.1428874434794
 20
91.2100324198285
 30
0.0
 10
129.1258585585897
 20
91.21701122609254
 30
0.0
 10
129.1108776562771
 20
91.22582347601414
 30
0.0
 10
129.0964369233472
 20
91.23625355780179
 30
0.0
 10
129.087972438
 20
91.24429048044051
 30
0.0
 10
129.0834977156638
 20
91.24853917315735
 30
0.0
  0
LINE
  5
1C9
330
1F
100
AcDbEntity
  8
0
  6
Continuous
 62
     7
370
    18
100
AcDbLine
 10
129.293855737
 20
91.2432700246
 30
0.0
 11
129.2341031964
 21
91.2154935036
 31
0.0
  0
ARC
  5
1CA
330
1F
100
AcDbEntity
  8
0
  6
Continuous
 62
     7
370
    18
100
AcDbCircle
 10
125.7967604126
 20
92.5282137032
 30
0.0
 40
3.725688656497109
100
AcDbArc
 50
339.8250676956
 51
346.8355792946
  0
LINE
  5
1CB
330
1F
100
AcDbEntity
  8
0
  6
Continuous
 62
     7
370
    18
100
AcDbLine
 10
129.3338851764
 20
91.6273682031
 30
0.0
 11
129.4245398919
 21
91.6797020564
 31
0.0
  0
ARC
  5
1CC
330
1F
100
AcDbEntity
  8
0
  6
Continuous
 62
     7
370
    18
100
AcDbCircle
 10
125.6247835271
 20
92.4980124504
 30
0.0
 40
3.809915543727525
100
AcDbArc
 50
341.6229361218
 51
346.7900101288
  0
ARC
  5
1CD
330
1F
100
AcDbEntity
  8
0
  6
Continuous
 62
     7
370
    18
100
AcDbCircle
 10
129.2941223132
 20
91.4839642754
 30
0.0
 40
0.1946600622791034
100
AcDbArc
 50
222.3858149585
 51
253.9802146329
  0
SPLINE
  5
1CE
330
1F
100
AcDbEntity
  8
0
  6
Continuous
 62
     7
370
    18
100
AcDbSpline
210
0.0
220
0.0
230
1.0
 70
     8
 71
     3
 72
    26
 73
    22
 74
     0
 42
0.000000001
 43
0.00000001
 40
0.0
 40
0.0
 40
0.0
 40
0.0
 40
0.0792035351201466
 40
0.1590903235724255
 40
0.2396603846313642
 40
0.3209137368908985
 40
0.4028503982854229
 40
0.4854703861099709
 40
0.5687737170395726
 40
0.6527604071478182
 40
0.737430471924683
 40
0.809085393771474
 40
0.8812226040291091
 40
0.8974850414472743
 40
0.913771794035523
 40
0.9300828619252083
 40
0.9464182452470821
 40
0.9627779441313097
 40
0.979161958707465
 40
0.9955702891045387
 40
1.0
 40
1.0
 40
1.0
 40
1.0
 10
125.4604435590965
 20
100.8261206036469
 30
0.0
 10
125.3673621442353
 20
100.8779410191887
 30
0.0
 10
125.1803963429439
 20
100.982028881728
 30
0.0
 10
124.9000390173081
 20
101.1126050898679
 30
0.0
 10
124.61966046578
 20
101.2240494903393
 30
0.0
 10
124.3404706921987
 20
101.3135049589665
 30
0.0
 10
124.0637051216709
 20
101.3805323325392
 30
0.0
 10
123.7906441120967
 20
101.424128754425
 30
0.0
 10
123.5225999195342
 20
101.4435478887479
 30
0.0
 10
123.2609169416578
 20
101.4380901386353
 30
0.0
 10
123.0206444465772
 20
101.4088337130024
 30
0.0
 10
122.8013920051187
 20
101.359950922802
 30
0.0
 10
122.6541548305113
 20
101.3122289400856
 30
0.0
 10
122.5606290346165
 20
101.2756704260127
 30
0.0
 10
122.5174582292421
 20
101.2576888601301
 30
0.0
 10
122.4747090239923
 20
101.2387695829149
 30
0.0
 10
122.4324064736276
 20
101.2188843076323
 30
0.0
 10
122.3904994131801
 20
101.1981341805213
 30
0.0
 10
122.3492233130024
 20
101.1761373277406
 30
0.0
 10
122.3178559786137
 20
101.1596393740628
 30
0.0
 10
122.3011083002156
 20
101.1490293351212
 30
0.0
 10
122.2975481108277
 20
101.1467738733702
 30
0.0
  0
SPLINE
  5
1CF
330
1F
100
AcDbEntity
  8
0
  6
Continuous
 62
     7
370
    18
100
AcDbSpline
210
0.0
220
0.0
230
1.0
 70
     8
 71
     3
 72
    59
 73
    55
 74
     0
 42
0.000000001
 43
0.00000001
 40
0.0
 40
0.0
 40
0.0
 40
0.0
 40
0.011823704083754
 40
0.0328369222346989
 40
0.0554003427740303
 40
0.0795138943112433
 40
0.1051775000324142
 40
0.132391077786229
 40
0.1538201042862818
 40
0.1761211217538697
 40
0.1992941075957083
 40
0.22333903827871
 40
0.2513035022628561
 40
0.2803615452285461
 40
0.2881541421444161
 40
0.2960217903671273
 40
0.3039644898422007
 40
0.3119822405144281
 40
0.3200750423278817
 40
0.3282428952259152
 40
0.3437099989948822
 40
0.3617646187702989
 40
0.3794500837459188
 40
0.3967663907183733
 40
0.4137135365564421
 40
0.4302915182014116
 40
0.4544645299220047
 40
0.4778070821499704
 40
0.5003191533750647
 40
0.5220007228980417
 40
0.5496154771353836
 40
0.5757540199062086
 40
0.6004162752266938
 40
0.6236021717058913
 40
0.6453116426092668
 40
0.665544625945348
 40
0.6718022625744714
 40
0.6797035847216031
 40
0.6875870660277087
 40
0.6954527066145563
 40
0.7033005066047797
 40
0.7111304661218792
 40
0.7189425852902342
 40
0.740332007485764
 40
0.7615865516651189
 40
0.7867126677397768
 40
0.8116476610948443
 40
0.8363915353656908
 40
0.8642764859158135
 40
0.8919146797633627
 40
0.9193061223268866
 40
0.9464508192552414
 40
0.9733487764352996
 40
1.0
 40
1.0
 40
1.0
 40
1.0
 10
128.7020038113097
 20
90.18204350290176
 30
0.0
 10
128.7309447241537
 20
90.1985918652507
 30
0.0
 10
128.8113197485731
 20
90.24455016086725
 30
0.0
 10
128.9384567023059
 20
90.3361878569662
 30
0.0
 10
129.0859226363075
 20
90.46017532645173
 30
0.0
 10
129.2322240392578
 20
90.60920160884112
 30
0.0
 10
129.3751508870159
 20
90.7851246651173
 30
0.0
 10
129.4993492958231
 20
90.97230454044703
 30
0.0
 10
129.6054471191275
 20
91.1655558337341
 30
0.0
 10
129.6946756578321
 20
91.3597042336551
 30
0.0
 10
129.7754353671068
 20
91.57374159602672
 30
0.0
 10
129.8490845607899
 20
91.81833965668373
 30
0.0
 10
129.9119681010264
 20
92.0967839113795
 30
0.0
 10
129.9475293377131
 20
92.33135425621867
 30
0.0
 10
129.9654231259103
 20
92.49798311349178
 30
0.0
 10
129.9733775229597
 20
92.586991240909
 30
0.0
 10
129.97988532315
 20
92.67789374993268
 30
0.0
 10
129.9849009844207
 20
92.77068975836094
 30
0.0
 10
129.9883784100186
 20
92.86537551748985
 30
0.0
 10
129.9908312502898
 20
92.99041538335224
 30
0.0
 10
129.9900490646652
 20
93.15712234788658
 30
0.0
 10
129.9821367979801
 20
93.36579594899352
 30
0.0
 10
129.9662731352442
 20
93.58593961701595
 30
0.0
 10
129.943413940674
 20
93.80489857493365
 30
0.0
 10
129.9140567184268
 20
94.02211348644536
 30
0.0
 10
129.8730352151713
 20
94.27148024912017
 30
0.0
 10
129.8171336495226
 20
94.55188365402249
 30
0.0
 10
129.743088282925
 20
94.86155907352361
 30
0.0
 10
129.6598088831629
 20
95.16244917680706
 30
0.0
 10
129.5593416615408
 20
95.4837801606754
 30
0.0
 10
129.4401155623066
 20
95.82206812546828
 30
0.0
 10
129.3011852449175
 20
96.17306670322948
 30
0.0
 10
129.1572020856311
 20
96.50248263961953
 30
0.0
 10
129.0108538185444
 20
96.80963194725007
 30
0.0
 10
128.8645711086888
 20
97.09417447323534
 30
0.0
 10
128.7501788589377
 20
97.30214947421578
 30
0.0
 10
128.6659323124285
 20
97.4491326544289
 30
0.0
 10
128.6110431837575
 20
97.5428388754255
 30
0.0
 10
128.5511026033953
 20
97.642747443681
 30
0.0
 10
128.4902745137669
 20
97.74176669902866
 30
0.0
 10
128.4285863885015
 20
97.83986755709033
 30
0.0
 10
128.3660648791658
 20
97.93702287583527
 30
0.0
 10
128.2660047499671
 20
98.08899535901213
 30
0.0
 10
128.1259210427722
 20
98.29294205578252
 30
0.0
 10
127.930933178289
 20
98.55999132390366
 30
0.0
 10
127.7184325304066
 20
98.83243309151298
 30
0.0
 10
127.4880390360325
 20
99.10748259823038
 30
0.0
 10
127.2422348709984
 20
99.38068821280174
 30
0.0
 10
126.981160406481
 20
99.64930458340224
 30
0.0
 10
126.705322787837
 20
99.91017583721161
 30
0.0
 10
126.4270283722632
 20
100.1514832699052
 30
0.0
 10
126.1475203330934
 20
100.3722320805657
 30
0.0
 10
125.8680327979099
 20
100.5738584174251
 30
0.0
 10
125.6815553899812
 20
100.6914364177506
 30
0.0
 10
125.5887462933834
 20
100.749954541266
 30
0.0
  0
SPLINE
  5
1D0
330
1F
100
AcDbEntity
  8
0
  6
Continuous
 62
     7
370
    18
100
AcDbSpline
210
0.0
220
0.0
230
1.0
 70
     8
 71
     3
 72
     9
 73
     5
 74
     0
 42
0.000000001
 43
0.00000001
 40
0.0
 40
0.0
 40
0.0
 40
0.0
 40
0.2696514723222027
 40
1.0
 40
1.0
 40
1.0
 40
1.0
 10
125.5887462933834
 20
100.749954541266
 30
0.0
 10
125.5772152055899
 20
100.7569630551293
 30
0.0
 10
125.5344522727782
 20
100.7829540642008
 30
0.0
 10
125.4916812861834
 20
100.8079007953105
 30
0.0
 10
125.4604435590965
 20
100.8261206036469
 30
0.0
  0
LINE
  5
1D1
330
1F
100
AcDbEntity
  8
0
  6
Continuous
 62
     7
370
    18
100
AcDbLine
 10
128.4223532187
 20
90.337416451
 30
0.0
 11
129.0206743413
 21
90.6828198829
 31
0.0
  0
LINE
  5
1D2
330
1F
100
AcDbEntity
  8
0
  6
Continuous
 62
     7
370
    18
100
AcDbLine
 10
129.1053890044
 20
90.8271104761
 30
0.0
 11
128.4223532187
 21
90.337416451
 31
0.0
  0
ARC
  5
1D3
330
1F
100
AcDbEntity
  8
0
  6
Continuous
 62
     7
370
    18
100
AcDbCircle
 10
126.5593528556
 20
92.2207044589
 30
0.0
 40
2.90248243057378
100
AcDbArc
 50
331.3055424404
 51
333.1724131336
  0
LINE
  5
1D4
330
1F
100
AcDbEntity
  8
0
  6
Continuous
 62
     7
370
    18
100
AcDbLine
 10
128.6252103403
 20
90.7229701017
 30
0.0
 11
129.1494371134
 21
90.9107930889
 31
0.0
  0
LINE
  5
1D5
330
1F
100
AcDbEntity
  8
0
  6
Continuous
 62
     7
370
    18
100
AcDbLine
 10
129.2235314629
 20
91.0683735336
 30
0.0
 11
128.6252103403
 21
90.7229701017
 31
0.0
  0
ARC
  5
1D6
330
1F
100
AcDbEntity
  8
0
  6
Continuous
 62
     7
370
    18
100
AcDbCircle
 10
126.2688102065
 20
92.3570827373
 30
0.0
 40
3.223530535690343
100
AcDbArc
 50
336.435454492
 51
338.1005266044
  0
LINE
  5
1D7
330
1F
100
AcDbEntity
  8
0
  6
Continuous
 62
     7
370
    18
100
AcDbLine
 10
128.5526229724
 20
90.7465686643
 30
0.0
 11
129.2597297536
 21
91.1547727202
 31
0.0
  0
ARC
  5
1D8
330
1F
100
AcDbEntity
  8
0
  6
Continuous
 62
     7
370
    18
100
AcDbCircle
 10
125.5885715685
 20
91.9376995692
 30
0.0
 40
3.19443164859341
100
AcDbArc
 50
335.6083216927
 51
338.1068251293
  0
LINE
  5
1D9
330
1F
100
AcDbEntity
  8
0
  6
Continuous
 62
     7
370
    18
100
AcDbLine
 10
128.9230513254
 20
90.7704330792
 30
0.0
 11
128.4978799107
 21
90.6184882412
 31
0.0
  0
LINE
  5
1DA
330
1F
100
AcDbEntity
  8
0
  6
Continuous
 62
     7
370
    18
100
AcDbLine
 10
129.0208407744
 20
90.8072813233
 30
0.0
 11
128.9230513254
 21
90.7704330792
 31
0.0
  0
SPLINE
  5
1DB
330
1F
100
AcDbEntity
  8
0
  6
Continuous
 62
     7
370
    18
100
AcDbSpline
210
0.0
220
0.0
230
1.0
 70
     8
 71
     3
 72
    11
 73
     7
 74
     0
 42
0.000000001
 43
0.00000001
 40
0.0
 40
0.0
 40
0.0
 40
0.0
 40
0.0212823194320313
 40
0.1992707654500593
 40
0.5296656699858683
 40
0.9999999999999999
 40
0.9999999999999999
 40
0.9999999999999999
 40
0.9999999999999999
 10
128.9034479347586
 20
90.72187031735557
 30
0.0
 10
128.9042818169477
 20
90.72247728007054
 30
0.0
 10
128.9120896286222
 20
90.72816039770241
 30
0.0
 10
128.9328428883906
 20
90.74329226913049
 30
0.0
 10
128.9711808653167
 20
90.77130025519556
 30
0.0
 10
129.0024650135631
 20
90.79396717283036
 30
0.0
 10
129.0208407743954
 20
90.80728132330626
 30
0.0
  0
LINE
  5
1DC
330
1F
100
AcDbEntity
  8
0
  6
Continuous
 62
     7
370
    18
100
AcDbLine
 10
128.3369663675
 20
90.3125053763
 30
0.0
 11
128.9034479348
 21
90.7218703174
 31
0.0
  0
ARC
  5
1DD
330
1F
100
AcDbEntity
  8
0
  6
Continuous
 62
     7
370
    18
100
AcDbCircle
 10
126.0634279499
 20
91.6902332976
 30
0.0
 40
2.65840387477407
100
AcDbArc
 50
325.9365981492
 51
328.784807135
  0
LINE
  5
1DE
330
1F
100
AcDbEntity
  8
0
  6
Continuous
 62
     7
370
    18
100
AcDbLine
 10
128.9728050924
 20
90.6094388925
 30
0.0
 11
128.2656983112
 21
90.2012348365
 31
0.0
  0
ARC
  5
1DF
330
1F
100
AcDbEntity
  8
0
  6
Continuous
 62
     7
370
    18
100
AcDbCircle
 10
126.7880629247
 20
92.0869344023
 30
0.0
 40
2.637440297122773
100
AcDbArc
 50
325.9303316298
 51
327.8337492693
  0
LINE
  5
1E0
330
1F
100
AcDbEntity
  8
0
  6
Continuous
 62
     7
370
    18
100
AcDbLine
 10
129.3756539088
 20
92.6598419718
 30
0.0
 11
129.5478978683
 21
92.7592762931
 31
0.0
  0
ARC
  5
1E1
330
1F
100
AcDbEntity
  8
0
  6
Continuous
 62
     7
370
    18
100
AcDbCircle
 10
123.3975834285
 20
92.7173856865
 30
0.0
 40
5.978347426045899
100
AcDbArc
 50
359.4484992814
 51
0.4512746548
  0
LINE
  5
1E2
330
1F
100
AcDbEntity
  8
0
  6
Continuous
 62
     7
370
    18
100
AcDbLine
 10
129.2850907067
 20
92.712138177
 30
0.0
 11
129.3757454222
 21
92.7644720304
 31
0.0
  0
ARC
  5
1E3
330
1F
100
AcDbEntity
  8
0
  6
Continuous
 62
     7
370
    18
100
AcDbCircle
 10
123.3069287136
 20
92.6650518331
 30
0.0
 40
5.978347425469416
100
AcDbArc
 50
359.4484992814
 51
0.4512746548
  0
LINE
  5
1E4
330
1F
100
AcDbEntity
  8
0
  6
Continuous
 62
     7
370
    18
100
AcDbLine
 10
128.8498565587
 20
92.3563056225
 30
0.0
 11
129.2849991933
 21
92.6075081185
 31
0.0
  0
ARC
  5
1E5
330
1F
100
AcDbEntity
  8
0
  6
Continuous
 62
     7
370
    18
100
AcDbCircle
 10
123.0250672746
 20
92.412502612
 30
0.0
 40
5.825060369290873
100
AcDbArc
 50
358.7330292308
 51
359.4472331502
  0
LINE
  5
1E6
330
1F
100
AcDbEntity
  8
0
  6
Continuous
 62
     7
370
    18
100
AcDbLine
 10
129.2628712284
 20
92.1605305441
 30
0.0
 11
128.8487035433
 21
92.2837046475
 31
0.0
  0
LINE
  5
1E7
330
1F
100
AcDbEntity
  8
0
  6
Continuous
 62
     7
370
    18
100
AcDbLine
 10
129.353525944
 20
92.2128643974
 30
0.0
 11
129.2628712284
 21
92.1605305441
 31
0.0
  0
ARC
  5
1E8
330
1F
100
AcDbEntity
  8
0
  6
Continuous
 62
     7
370
    18
100
AcDbCircle
 10
123.9666720404
 20
92.7021202265
 30
0.0
 40
5.409026367535667
100
AcDbArc
 50
354.8104043008
 51
358.4551081533
  0
LINE
  5
1E9
330
1F
100
AcDbEntity
  8
0
  6
Continuous
 62
     7
370
    18
100
AcDbLine
 10
129.5459762309
 20
92.6557262112
 30
0.0
 11
129.3737322713
 21
92.5562918899
 31
0.0
  0
ARC
  5
1EA
330
1F
100
AcDbEntity
  8
0
  6
Continuous
 62
     7
370
    18
100
AcDbCircle
 10
123.7500463073
 20
92.8150774357
 30
0.0
 40
5.798120082529764
100
AcDbArc
 50
358.4251270649
 51
359.4485765605
  0
SPLINE
  5
1EB
330
1F
100
AcDbEntity
  8
0
  6
Continuous
 62
     7
370
    18
100
AcDbSpline
210
0.0
220
0.0
230
1.0
 70
     8
 71
     3
 72
    29
 73
    25
 74
     0
 42
0.000000001
 43
0.00000001
 40
0.0
 40
0.0
 40
0.0
 40
0.0
 40
0.0155055149066811
 40
0.0645725019686889
 40
0.1136355685943119
 40
0.1626941880944745
 40
0.2117484662632589
 40
0.2607979097848823
 40
0.3070418798411676
 40
0.353281497966671
 40
0.3995166674055203
 40
0.4457478813917026
 40
0.4919751229050457
 40
0.5409980789085203
 40
0.590014513759486
 40
0.63902859978931
 40
0.6880472771437539
 40
0.7370669156185261
 40
0.7860798552631463
 40
0.8322875521154268
 40
0.8784917798945215
 40
0.9246925471632815
 40
0.9708898073690262
 40
1.0
 40
1.0
 40
1.0
 40
1.0
 10
129.9791937908015
 20
93.38973860881624
 30
0.0
 10
129.9778992306715
 20
93.42974232476874
 30
0.0
 10
129.972508052949
 20
93.59633724552073
 30
0.0
 10
129.9387985501905
 20
93.90188768928229
 30
0.0
 10
129.8779503362065
 20
94.30389929357999
 30
0.0
 10
129.7920497960051
 20
94.71426905354474
 30
0.0
 10
129.6838617630328
 20
95.12960081955285
 30
0.0
 10
129.5557940839211
 20
95.5400324220741
 30
0.0
 10
129.4101397363417
 20
95.94314968283597
 30
0.0
 10
129.2489624205671
 20
96.33706664310692
 30
0.0
 10
129.0700921285618
 20
96.72785971239088
 30
0.0
 10
128.8744488801725
 20
97.11368203766712
 30
0.0
 10
128.6586611339436
 20
97.50032691735946
 30
0.0
 10
128.4226881979957
 20
97.88539097835064
 30
0.0
 10
128.1667322227505
 20
98.26611669485611
 30
0.0
 10
127.8967314776303
 20
98.63301863487293
 30
0.0
 10
127.6141113013042
 20
98.98412890588493
 30
0.0
 10
127.3204224806395
 20
99.31758182247749
 30
0.0
 10
127.0230083098164
 20
99.6255798034245
 30
0.0
 10
126.7240519836538
 20
99.90773438643988
 30
0.0
 10
126.4254354225615
 20
100.1644356910445
 30
0.0
 10
126.1226454345752
 20
100.3987908030859
 30
0.0
 10
125.8548605275581
 20
100.5878375097856
 30
0.0
 10
125.6882163097133
 20
100.6884388170845
 30
0.0
 10
125.6237997732409
 20
100.7273263816493
 30
0.0
  0
LINE
  5
1EC
330
1F
100
AcDbEntity
  8
0
  6
Continuous
 62
     7
370
    18
100
AcDbLine
 10
125.5317554723
 20
100.7841012067
 30
0.0
 11
125.5104435591
 21
100.7972468347
 31
0.0
  0
SPLINE
  5
1ED
330
1F
100
AcDbEntity
  8
0
  6
Continuous
 62
     7
370
    18
100
AcDbSpline
210
0.0
220
0.0
230
1.0
 70
     8
 71
     3
 72
    19
 73
    15
 74
     0
 42
0.000000001
 43
0.00000001
 40
0.0
 40
0.0
 40
0.0
 40
0.0
 40
0.1144715036266375
 40
0.2097542084264861
 40
0.3084710670719896
 40
0.4125319132767707
 40
0.500420861842564
 40
0.5687382048073997
 40
0.625484504240728
 40
0.7500975664733451
 40
0.8146520336193851
 40
0.8750457502050478
 40
0.9374993864566598
 40
1.0
 40
1.0
 40
1.0
 40
1.0
 10
128.9596572422987
 20
94.42423767867913
 30
0.0
 10
128.9727467695282
 20
94.43201602840395
 30
0.0
 10
128.9967316333213
 20
94.44626884712045
 30
0.0
 10
129.031667860887
 20
94.46848529610149
 30
0.0
 10
129.0648439554812
 20
94.49183980169738
 30
0.0
 10
129.0965171027534
 20
94.51656199437095
 30
0.0
 10
129.1237656404313
 20
94.54139865006988
 30
0.0
 10
129.1447467414948
 20
94.56422358960944
 30
0.0
 10
129.1673458244429
 20
94.59414274706674
 30
0.0
 10
129.1835098204444
 20
94.63047497754627
 30
0.0
 10
129.194090362341
 20
94.66952093178845
 30
0.0
 10
129.1977342083962
 20
94.69988457105549
 30
0.0
 10
129.1968735467024
 20
94.7298575139275
 30
0.0
 10
129.192554547555
 20
94.74870693700974
 30
0.0
 10
129.1903942361047
 20
94.75813519182711
 30
0.0
  0
SPLINE
  5
1EE
330
1F
100
AcDbEntity
  8
0
  6
Continuous
 62
     7
370
    18
100
AcDbSpline
210
0.0
220
0.0
230
1.0
 70
     8
 71
     3
 72
    19
 73
    15
 74
     0
 42
0.000000001
 43
0.00000001
 40
0.0
 40
0.0
 40
0.0
 40
0.0
 40
0.062515104223973
 40
0.1249700557208249
 40
0.2493648372230879
 40
0.3137191791006156
 40
0.3743918283222505
 40
0.4108015674942342
 40
0.4524272251578368
 40
0.4995181083453342
 40
0.612021682249993
 40
0.7497297732848616
 40
0.8601278936195
 40
1.0
 40
1.0
 40
1.0
 40
1.0
 10
129.1903942361047
 20
94.75813519182711
 30
0.0
 10
129.1875304504529
 20
94.76717451316169
 30
0.0
 10
129.1818056347156
 20
94.78524445809555
 30
0.0
 10
129.1633390174004
 20
94.81571820995525
 30
0.0
 10
129.1379256589472
 20
94.8375350831153
 30
0.0
 10
129.1096788172296
 20
94.85036336946457
 30
0.0
 10
129.0903855930651
 20
94.85492236877417
 30
0.0
 10
129.0734387871267
 20
94.85544603894648
 30
0.0
 10
129.0580986280862
 20
94.8541257209593
 30
0.0
 10
129.0334817073928
 20
94.84993853339564
 30
0.0
 10
128.9974590057076
 20
94.83905267509469
 30
0.0
 10
128.9545892978674
 20
94.82115824532362
 30
0.0
 10
128.9092373065074
 20
94.79851683288013
 30
0.0
 10
128.8803986733345
 20
94.7823755959109
 30
0.0
 10
128.8642812133395
 20
94.77335451160495
 30
0.0
  0
SPLINE
  5
1EF
330
1F
100
AcDbEntity
  8
0
  6
Continuous
 62
     7
370
    18
100
AcDbSpline
210
0.0
220
0.0
230
1.0
 70
     8
 71
     3
 72
    17
 73
    13
 74
     0
 42
0.000000001
 43
0.00000001
 40
0.0
 40
0.0
 40
0.0
 40
0.0
 40
0.1376625235140049
 40
0.2503691070349556
 40
0.3867648096943536
 40
0.5006718054443325
 40
0.5675083597600994
 40
0.6257932005655805
 40
0.7505086509024128
 40
0.8749645575221956
 40
0.9374618144552401
 40
0.9999999999999999
 40
0.9999999999999999
 40
0.9999999999999999
 40
0.9999999999999999
 10
128.8642812133395
 20
94.77335451160495
 30
0.0
 10
128.8485223488551
 20
94.76395895278225
 30
0.0
 10
128.819861441528
 20
94.74687109464566
 30
0.0
 10
128.7763403914664
 20
94.71811176406244
 30
0.0
 10
128.7365611812572
 20
94.68818134780312
 30
0.0
 10
128.7033633489407
 20
94.65838656926628
 30
0.0
 10
128.6801860056997
 20
94.63259111557453
 30
0.0
 10
128.6583193627279
 20
94.60221441120251
 30
0.0
 10
128.6382006393849
 20
94.55729892873451
 30
0.0
 10
128.6290743900259
 20
94.5063062370581
 30
0.0
 10
128.6311060488996
 20
94.46592925885187
 30
0.0
 10
128.6355336312435
 20
94.44706226826317
 30
0.0
 10
128.6377481470691
 20
94.43762568504543
 30
0.0
  0
SPLINE
  5
1F0
330
1F
100
AcDbEntity
  8
0
  6
Continuous
 62
     7
370
    18
100
AcDbSpline
210
0.0
220
0.0
230
1.0
 70
     8
 71
     3
 72
    11
 73
     7
 74
     0
 42
0.000000001
 43
0.00000001
 40
0.0
 40
0.0
 40
0.0
 40
0.0
 40
0.2500153453833129
 40
0.4998349868267333
 40
0.7497750665199693
 40
1.0
 40
1.0
 40
1.0
 40
1.0
 10
128.6377481470691
 20
94.43762568504543
 30
0.0
 10
128.6414460224595
 20
94.42611442808877
 30
0.0
 10
128.6488388786629
 20
94.40310092481569
 30
0.0
 10
128.6678765110029
 20
94.37577212099546
 30
0.0
 10
128.691139764056
 20
94.35521125856356
 30
0.0
 10
128.709200904275
 20
94.34839329709568
 30
0.0
 10
128.7182366174714
 20
94.34498237488035
 30
0.0
  0
SPLINE
  5
1F1
330
1F
100
AcDbEntity
  8
0
  6
Continuous
 62
     7
370
    18
100
AcDbSpline
210
0.0
220
0.0
230
1.0
 70
     8
 71
     3
 72
    10
 73
     6
 74
     0
 42
0.000000001
 43
0.00000001
 40
0.0
 40
0.0
 40
0.0
 40
0.0
 40
0.2494145624792819
 40
0.4995731878820208
 40
1.0
 40
1.0
 40
1.0
 40
1.0
 10
128.7182366174714
 20
94.34498237488035
 30
0.0
 10
128.7386414178624
 20
94.34420223551581
 30
0.0
 10
128.7795118910141
 20
94.34263962944557
 30
0.0
 10
128.8613064222379
 20
94.37129847374918
 30
0.0
 10
128.9203151915982
 20
94.40306106944384
 30
0.0
 10
128.9596572422987
 20
94.42423767867913
 30
0.0
  0
SPLINE
  5
1F2
330
1F
100
AcDbEntity
  8
0
  6
Continuous
 62
     7
370
    18
100
AcDbSpline
210
0.0
220
0.0
230
1.0
 70
     8
 71
     3
 72
    19
 73
    15
 74
     0
 42
0.000000001
 43
0.00000001
 40
0.0
 40
0.0
 40
0.0
 40
0.0
 40
0.1144715036281686
 40
0.2097542084275076
 40
0.3084710670725937
 40
0.4125319132776793
 40
0.5004208618425192
 40
0.5687382048070754
 40
0.6254845042407097
 40
0.7500975664733256
 40
0.8146520336183121
 40
0.875045750205052
 40
0.9374993864566628
 40
1.0
 40
1.0
 40
1.0
 40
1.0
 10
129.1033487918291
 20
93.73588960198802
 30
0.0
 10
129.1164560037107
 20
93.74366333992639
 30
0.0
 10
129.1404732723391
 20
93.75790770814123
 30
0.0
 10
129.175572694686
 20
93.78008163113725
 30
0.0
 10
129.2090835062673
 20
93.8033491021986
 30
0.0
 10
129.2412691082915
 20
93.82793853906766
 30
0.0
 10
129.2692418676297
 20
93.85258866757864
 30
0.0
 10
129.2910739025953
 20
93.87519613754354
 30
0.0
 10
129.3150116069037
 20
93.90477583007612
 30
0.0
 10
129.3333127527089
 20
93.94057419409303
 30
0.0
 10
129.3464888138174
 20
93.97899062132713
 30
0.0
 10
129.3523526271122
 20
94.00882718880203
 30
0.0
 10
129.3538780855099
 20
94.03824582555889
 30
0.0
 10
129.3512227145497
 20
94.0567215481196
 30
0.0
 10
129.3498945299184
 20
94.06596288242872
 30
0.0
  0
SPLINE
  5
1F3
330
1F
100
AcDbEntity
  8
0
  6
Continuous
 62
     7
370
    18
100
AcDbSpline
210
0.0
220
0.0
230
1.0
 70
     8
 71
     3
 72
    19
 73
    15
 74
     0
 42
0.000000001
 43
0.00000001
 40
0.0
 40
0.0
 40
0.0
 40
0.0
 40
0.062515104223972
 40
0.1249700557208281
 40
0.2493648372230899
 40
0.3137191791013338
 40
0.3743918283222438
 40
0.4108015674933294
 40
0.4524272251569326
 40
0.499518108345301
 40
0.6120216822491545
 40
0.7497297732848608
 40
0.8601278936216712
 40
1.0
 40
1.0
 40
1.0
 40
1.0
 10
129.3498945299184
 20
94.06596288242872
 30
0.0
 10
129.3478624274461
 20
94.07481833568414
 30
0.0
 10
129.3438001778129
 20
94.09252072137957
 30
0.0
 10
129.3285183291705
 20
94.12231482823616
 30
0.0
 10
129.3059157301412
 20
94.14355564289744
 30
0.0
 10
129.2799043793775
 20
94.15594061639962
 30
0.0
 10
129.2618128529355
 20
94.16026585440302
 30
0.0
 10
129.2456540716008
 20
94.16063798549611
 30
0.0
 10
129.2308895409985
 20
94.15920781460193
 30
0.0
 10
129.2070377037256
 20
94.154875702871
 30
0.0
 10
129.1717703587449
 20
94.14384846525066
 30
0.0
 10
129.1294225280934
 20
94.12585728137631
 30
0.0
 10
129.0843399365746
 20
94.10316614943159
 30
0.0
 10
129.0555398769283
 20
94.08701780910332
 30
0.0
 10
129.0394439750729
 20
94.07799275484149
 30
0.0
  0
SPLINE
  5
1F4
330
1F
100
AcDbEntity
  8
0
  6
Continuous
 62
     7
370
    18
100
AcDbSpline
210
0.0
220
0.0
230
1.0
 70
     8
 71
     3
 72
    17
 73
    13
 74
     0
 42
0.000000001
 43
0.00000001
 40
0.0
 40
0.0
 40
0.0
 40
0.0
 40
0.1376625235204888
 40
0.2503691070349557
 40
0.386764809698216
 40
0.5006718054443378
 40
0.5675083597617714
 40
0.6257932005655724
 40
0.7505086509024056
 40
0.8749645575221944
 40
0.9374618144552415
 40
0.9999999999999999
 40
0.9999999999999999
 40
0.9999999999999999
 40
0.9999999999999999
 10
129.0394439750729
 20
94.07799275484149
 30
0.0
 10
129.0236624237893
 20
94.0686013739051
 30
0.0
 10
128.994960255607
 20
94.05152111416018
 30
0.0
 10
128.9511625404666
 20
94.02281284807141
 30
0.0
 10
128.9108528637194
 20
93.9929807991756
 30
0.0
 10
128.8768447272615
 20
93.96333773453297
 30
0.0
 10
128.8527196301754
 20
93.93772202449927
 30
0.0
 10
128.8294959820037
 20
93.90760568047276
 30
0.0
 10
128.8068262962603
 20
93.86318898707447
 30
0.0
 10
128.7941775125623
 20
93.81291866089764
 30
0.0
 10
128.792991749101
 20
93.7732291001893
 30
0.0
 10
128.7957527355499
 20
93.7547310298525
 30
0.0
 10
128.7971336806595
 20
93.74547896714117
 30
0.0
  0
SPLINE
  5
1F5
330
1F
100
AcDbEntity
  8
0
  6
Continuous
 62
     7
370
    18
100
AcDbSpline
210
0.0
220
0.0
230
1.0
 70
     8
 71
     3
 72
    11
 73
     7
 74
     0
 42
0.000000001
 43
0.00000001
 40
0.0
 40
0.0
 40
0.0
 40
0.0
 40
0.2500153453833114
 40
0.4998349868267323
 40
0.7497750665199622
 40
1.0
 40
1.0
 40
1.0
 40
1.0
 10
128.7971336806595
 20
93.74547896714117
 30
0.0
 10
128.7997673658632
 20
93.7342076020611
 30
0.0
 10
128.8050326747067
 20
93.71167369476166
 30
0.0
 10
128.8210642025851
 20
93.68505197106376
 30
0.0
 10
128.8416507890976
 20
93.66513738200344
 30
0.0
 10
128.8583482837093
 20
93.65865799614629
 30
0.0
 10
128.8667017857905
 20
93.65541645814903
 30
0.0
  0
SPLINE
  5
1F6
330
1F
100
AcDbEntity
  8
0
  6
Continuous
 62
     7
370
    18
100
AcDbSpline
210
0.0
220
0.0
230
1.0
 70
     8
 71
     3
 72
    10
 73
     6
 74
     0
 42
0.000000001
 43
0.00000001
 40
0.0
 40
0.0
 40
0.0
 40
0.0
 40
0.2494145624792823
 40
0.4995731878820208
 40
1.0
 40
1.0
 40
1.0
 40
1.0
 10
128.8667017857905
 20
93.65541645814903
 30
0.0
 10
128.8861111271758
 20
93.6548872014138
 30
0.0
 10
128.9249877126251
 20
93.65382710904468
 30
0.0
 10
129.0053033324583
 20
93.68287147728552
 30
0.0
 10
129.0641288907532
 20
93.71468142346139
 30
0.0
 10
129.1033487918291
 20
93.73588960198802
 30
0.0
  0
LINE
  5
1F7
330
1F
100
AcDbEntity
  8
0
  6
Continuous
 62
     7
370
    18
100
AcDbLine
 10
129.2830775558
 20
92.5039580366
 30
0.0
 11
129.0283944643
 21
92.3569326174
 31
0.0
  0
LINE
  5
1F8
330
1F
100
AcDbEntity
  8
0
  6
Continuous
 62
     7
370
    18
100
AcDbLine
 10
129.0283944643
 20
92.3569326174
 30
0.0
 11
129.2726475122
 21
92.2836095716
 31
0.0
  0
ARC
  5
1F9
330
1F
100
AcDbEntity
  8
0
  6
Continuous
 62
     7
370
    18
100
AcDbCircle
 10
123.7679833804
 20
92.6545901588
 30
0.0
 40
5.51715087698554
100
AcDbArc
 50
356.1444461825
 51
358.4354864197
  0
OLE2FRAME
  5
1FA
330
1F
100
AcDbEntity
  8
0
100
AcDbOle2Frame
 70
     2
  3
Paintbrush Picture
 10
114.526212915
 20
16.849814896
 30
0.0
 11
132.5843234604
 21
14.2777398035
 31
0.0
 71
     2
 72
     0
 73
     1
 90
     7296
310
80557333EF78ADA15C40002412788DD93040000000000000000041161DC7B292
310
6040002412788DD93040000000000000000041161DC7B2926040F6DD59E9338E
310
2C4000000000000000007333EF78ADA15C40F6DD59E9338E2C40000000000000
310
00000000000001000000000100000100000001000000000001000000001C0000
310
D0CF11E0A1B11AE1000000000000000000000000000000003E000300FEFF0900
310
0600000000000000000000000100000001000000000000000010000002000000
310
01000000FEFFFFFF0000000000000000FFFFFFFFFFFFFFFFFFFFFFFFFFFFFFFF
310
FFFFFFFFFFFFFFFFFFFFFFFFFFFFFFFFFFFFFFFFFFFFFFFFFFFFFFFFFFFFFFFF
310
FFFFFFFFFFFFFFFFFFFFFFFFFFFFFFFFFFFFFFFFFFFFFFFFFFFFFFFFFFFFFFFF
310
FFFFFFFFFFFFFFFFFFFFFFFFFFFFFFFFFFFFFFFFFFFFFFFFFFFFFFFFFFFFFFFF
310
FFFFFFFFFFFFFFFFFFFFFFFFFFFFFFFFFFFFFFFFFFFFFFFFFFFFFFFFFFFFFFFF
310
FFFFFFFFFFFFFFFFFFFFFFFFFFFFFFFFFFFFFFFFFFFFFFFFFFFFFFFFFFFFFFFF
310
FFFFFFFFFFFFFFFFFFFFFFFFFFFFFFFFFFFFFFFFFFFFFFFFFFFFFFFFFFFFFFFF
310
FFFFFFFFFFFFFFFFFFFFFFFFFFFFFFFFFFFFFFFFFFFFFFFFFFFFFFFFFFFFFFFF
310
FFFFFFFFFFFFFFFFFFFFFFFFFFFFFFFFFFFFFFFFFFFFFFFFFFFFFFFFFFFFFFFF
310
FFFFFFFFFFFFFFFFFFFFFFFFFFFFFFFFFFFFFFFFFFFFFFFFFFFFFFFFFFFFFFFF
310
FFFFFFFFFFFFFFFFFFFFFFFFFFFFFFFFFFFFFFFFFFFFFFFFFFFFFFFFFFFFFFFF
310
FFFFFFFFFFFFFFFFFFFFFFFFFFFFFFFFFFFFFFFFFFFFFFFFFFFFFFFFFFFFFFFF
310
FFFFFFFFFFFFFFFFFFFFFFFFFFFFFFFFFFFFFFFFFFFFFFFFFFFFFFFFFFFFFFFF
310
FFFFFFFFFFFFFFFFFFFFFFFFFFFFFFFFFFFFFFFFFFFFFFFFFFFFFFFFFFFFFFFF
310
FDFFFFFFFEFFFFFFFEFFFFFFFEFFFFFF05000000060000000700000008000000
310
090000000A0000000B0000000C000000FEFFFFFFFFFFFFFFFFFFFFFFFFFFFFFF
310
FFFFFFFFFFFFFFFFFFFFFFFFFFFFFFFFFFFFFFFFFFFFFFFFFFFFFFFFFFFFFFFF
310
FFFFFFFFFFFFFFFFFFFFFFFFFFFFFFFFFFFFFFFFFFFFFFFFFFFFFFFFFFFFFFFF
310
FFFFFFFFFFFFFFFFFFFFFFFFFFFFFFFFFFFFFFFFFFFFFFFFFFFFFFFFFFFFFFFF
310
FFFFFFFFFFFFFFFFFFFFFFFFFFFFFFFFFFFFFFFFFFFFFFFFFFFFFFFFFFFFFFFF
310
FFFFFFFFFFFFFFFFFFFFFFFFFFFFFFFFFFFFFFFFFFFFFFFFFFFFFFFFFFFFFFFF
310
FFFFFFFFFFFFFFFFFFFFFFFFFFFFFFFFFFFFFFFFFFFFFFFFFFFFFFFFFFFFFFFF
310
FFFFFFFFFFFFFFFFFFFFFFFFFFFFFFFFFFFFFFFFFFFFFFFFFFFFFFFFFFFFFFFF
310
FFFFFFFFFFFFFFFFFFFFFFFFFFFFFFFFFFFFFFFFFFFFFFFFFFFFFFFFFFFFFFFF
310
FFFFFFFFFFFFFFFFFFFFFFFFFFFFFFFFFFFFFFFFFFFFFFFFFFFFFFFFFFFFFFFF
310
FFFFFFFFFFFFFFFFFFFFFFFFFFFFFFFFFFFFFFFFFFFFFFFFFFFFFFFFFFFFFFFF
310
FFFFFFFFFFFFFFFFFFFFFFFFFFFFFFFFFFFFFFFFFFFFFFFFFFFFFFFFFFFFFFFF
310
FFFFFFFFFFFFFFFFFFFFFFFFFFFFFFFFFFFFFFFFFFFFFFFFFFFFFFFFFFFFFFFF
310
FFFFFFFFFFFFFFFFFFFFFFFFFFFFFFFFFFFFFFFFFFFFFFFFFFFFFFFFFFFFFFFF
310
FFFFFFFFFFFFFFFFFFFFFFFFFFFFFFFFFFFFFFFFFFFFFFFFFFFFFFFFFFFFFFFF
310
52006F006F007400200045006E00740072007900000000000000000000000000
310
0000000000000000000000000000000000000000000000000000000000000000
310
16000500FFFFFFFFFFFFFFFF020000000A00030000000000C000000000000046
310
000000000000000000000000F010B9FCDCCFD60103000000C000000000000000
310
01004F006C006500000000000000000000000000000000000000000000000000
310
0000000000000000000000000000000000000000000000000000000000000000
310
0A000200FFFFFFFFFFFFFFFFFFFFFFFF00000000000000000000000000000000
310
0000000000000000000000000000000000000000000000001400000000000000
310
010043006F006D0070004F0062006A0000000000000000000000000000000000
310
0000000000000000000000000000000000000000000000000000000000000000
310
120002010100000003000000FFFFFFFF00000000000000000000000000000000
310
0000000000000000000000000000000000000000010000004D00000000000000
310
01004F006C006500310030004E00610074006900760065000000000000000000
310
0000000000000000000000000000000000000000000000000000000000000000
310
1A000200FFFFFFFFFFFFFFFFFFFFFFFF00000000000000000000000000000000
310
000000000000000000000000000000000000000004000000E411000000000000
310
FEFFFFFF02000000FEFFFFFFFFFFFFFFFFFFFFFFFFFFFFFFFFFFFFFFFFFFFFFF
310
FFFFFFFFFFFFFFFFFFFFFFFFFFFFFFFFFFFFFFFFFFFFFFFFFFFFFFFFFFFFFFFF
310
FFFFFFFFFFFFFFFFFFFFFFFFFFFFFFFFFFFFFFFFFFFFFFFFFFFFFFFFFFFFFFFF
310
FFFFFFFFFFFFFFFFFFFFFFFFFFFFFFFFFFFFFFFFFFFFFFFFFFFFFFFFFFFFFFFF
310
FFFFFFFFFFFFFFFFFFFFFFFFFFFFFFFFFFFFFFFFFFFFFFFFFFFFFFFFFFFFFFFF
310
FFFFFFFFFFFFFFFFFFFFFFFFFFFFFFFFFFFFFFFFFFFFFFFFFFFFFFFFFFFFFFFF
310
FFFFFFFFFFFFFFFFFFFFFFFFFFFFFFFFFFFFFFFFFFFFFFFFFFFFFFFFFFFFFFFF
310
FFFFFFFFFFFFFFFFFFFFFFFFFFFFFFFFFFFFFFFFFFFFFFFFFFFFFFFFFFFFFFFF
310
FFFFFFFFFFFFFFFFFFFFFFFFFFFFFFFFFFFFFFFFFFFFFFFFFFFFFFFFFFFFFFFF
310
FFFFFFFFFFFFFFFFFFFFFFFFFFFFFFFFFFFFFFFFFFFFFFFFFFFFFFFFFFFFFFFF
310
FFFFFFFFFFFFFFFFFFFFFFFFFFFFFFFFFFFFFFFFFFFFFFFFFFFFFFFFFFFFFFFF
310
FFFFFFFFFFFFFFFFFFFFFFFFFFFFFFFFFFFFFFFFFFFFFFFFFFFFFFFFFFFFFFFF
310
FFFFFFFFFFFFFFFFFFFFFFFFFFFFFFFFFFFFFFFFFFFFFFFFFFFFFFFFFFFFFFFF
310
FFFFFFFFFFFFFFFFFFFFFFFFFFFFFFFFFFFFFFFFFFFFFFFFFFFFFFFFFFFFFFFF
310
FFFFFFFFFFFFFFFFFFFFFFFFFFFFFFFFFFFFFFFFFFFFFFFFFFFFFFFFFFFFFFFF
310
FFFFFFFFFFFFFFFFFFFFFFFFFFFFFFFFFFFFFFFFFFFFFFFFFFFFFFFFFFFFFFFF
310
0100000200000000000000000000000000000000000000000000000000000000
310
0000000000000000000000000000000000000000000000000000000000000000
310
0100FEFF030A0000FFFFFFFF0A00030000000000C00000000000004607000000
310
5042727573680007000000504272757368000700000050427275736800F439B2
310
7100000000000000000000000000000000000000000000000000000000000000
310
0000000000000000000000000000000000000000000000000000000000000000
310
0000000000000000000000000000000000000000000000000000000000000000
310
0000000000000000000000000000000000000000000000000000000000000000
310
0000000000000000000000000000000000000000000000000000000000000000
310
0000000000000000000000000000000000000000000000000000000000000000
310
0000000000000000000000000000000000000000000000000000000000000000
310
0000000000000000000000000000000000000000000000000000000000000000
310
0000000000000000000000000000000000000000000000000000000000000000
310
0000000000000000000000000000000000000000000000000000000000000000
310
0000000000000000000000000000000000000000000000000000000000000000
310
0000000000000000000000000000000000000000000000000000000000000000
310
E0110000424DDE11000000000000360400002800000096000000170000000100
310
08000000000000000000E7240000E72400000001000000010000000000FF0101
310
01FF020202FF030303FF040404FF050505FF060606FF070707FF080808FF0909
310
09FF0A0A0AFF0B0B0BFF0C0C0CFF0D0D0DFF0E0E0EFF0F0F0FFF101010FF1111
310
11FF121212FF131313FF141414FF151515FF161616FF171717FF181818FF1919
310
19FF1A1A1AFF1B1B1BFF1C1C1CFF1D1D1DFF1E1E1EFF1F1F1FFF202020FF2121
310
21FF222222FF232323FF242424FF252525FF262626FF272727FF282828FF2929
310
29FF2A2A2AFF2B2B2BFF2C2C2CFF2D2D2DFF2E2E2EFF2F2F2FFF303030FF3131
310
31FF323232FF333333FF343434FF353535FF363636FF373737FF383838FF3939
310
39FF3A3A3AFF3B3B3BFF3C3C3CFF3D3D3DFF3E3E3EFF3F3F3FFF404040FF4141
310
41FF424242FF434343FF444444FF454545FF464646FF474747FF484848FF4949
310
49FF4A4A4AFF4B4B4BFF4C4C4CFF4D4D4DFF4E4E4EFF4F4F4FFF505050FF5151
310
51FF525252FF535353FF545454FF555555FF565656FF575757FF585858FF5959
310
59FF5A5A5AFF5B5B5BFF5C5C5CFF5D5D5DFF5E5E5EFF5F5F5FFF606060FF6161
310
61FF626262FF636363FF646464FF656565FF666666FF676767FF686868FF6969
310
69FF6A6A6AFF6B6B6BFF6C6C6CFF6D6D6DFF6E6E6EFF6F6F6FFF707070FF7171
310
71FF727272FF737373FF747474FF757575FF767676FF777777FF787878FF7979
310
79FF7A7A7AFF7B7B7BFF7C7C7CFF7D7D7DFF7E7E7EFF7F7F7FFF808080FF8181
310
81FF828282FF838383FF848484FF858585FF868686FF878787FF888888FF8989
310
89FF8A8A8AFF8B8B8BFF8C8C8CFF8D8D8DFF8E8E8EFF8F8F8FFF909090FF9191
310
91FF929292FF939393FF949494FF959595FF969696FF979797FF989898FF9999
310
99FF9A9A9AFF9B9B9BFF9C9C9CFF9D9D9DFF9E9E9EFF9F9F9FFFA0A0A0FFA1A1
310
A1FFA2A2A2FFA3A3A3FFA4A4A4FFA5A5A5FFA6A6A6FFA7A7A7FFA8A8A8FFA9A9
310
A9FFAAAAAAFFABABABFFACACACFFADADADFFAEAEAEFFAFAFAFFFB0B0B0FFB1B1
310
B1FFB2B2B2FFB3B3B3FFB4B4B4FFB5B5B5FFB6B6B6FFB7B7B7FFB8B8B8FFB9B9
310
B9FFBABABAFFBBBBBBFFBCBCBCFFBDBDBDFFBEBEBEFFBFBFBFFFC0C0C0FFC1C1
310
C1FFC2C2C2FFC3C3C3FFC4C4C4FFC5C5C5FFC6C6C6FFC7C7C7FFC8C8C8FFC9C9
310
C9FFCACACAFFCBCBCBFFCCCCCCFFCDCDCDFFCECECEFFCFCFCFFFD0D0D0FFD1D1
310
D1FFD2D2D2FFD3D3D3FFD4D4D4FFD5D5D5FFD6D6D6FFD7D7D7FFD8D8D8FFD9D9
310
D9FFDADADAFFDBDBDBFFDCDCDCFFDDDDDDFFDEDEDEFFDFDFDFFFE0E0E0FFE1E1
310
E1FFE2E2E2FFE3E3E3FFE4E4E4FFE5E5E5FFE6E6E6FFE7E7E7FFE8E8E8FFE9E9
310
E9FFEAEAEAFFEBEBEBFFECECECFFEDEDEDFFEEEEEEFFEFEFEFFFF0F0F0FFF1F1
310
F1FFF2F2F2FFF3F3F3FFF4F4F4FFF5F5F5FFF6F6F6FFF7F7F7FFF8F8F8FFF9F9
310
F9FFFAFAFAFFFBFBFBFFFCFCFCFFFDFDFDFFFEFEFEFFFFFFFFFFFFFFFFFFFFFF
310
C94E4E4E4F4E4EFFFFFFFFFFC94E4E4E4E4E72FFFFFFFFFFFFFF734E4D4E4E4E
310
C9FFFFFFFFFFAA683516171616265B9BE9FFFFFFFFFF4E4E4E4D4E4EFFFFFFFF
310
FFFFFFFF4E4E4F4E4D4E4E4E4F4E4E4F4D4E4E4E4E4E4D4E4F4E4D4E4E4EAAFF
310
FFFFFFFFFFEA4E4F4F4E4E4E4E4E4D4D4F4F4E4E4E4E4E5B7FAAFFFFFFFFFFFF
310
C9744E1716171616164D8DEAFFFFFFFF0000FFFFFFFFFFFFBA161617161716FF
310
FFFFFFFFB917171616174FFFFFFFFFFFFFFF4E1716161616B9FFFFFFB9341717
310
1716171617171616268CFFFFFFFF161617161617FFFFFFFFFFFFFFB917161717
310
1617167F807F7F7F7F7F7F807F7F807F7F807F7F7F414EFFFFFFFFFFFF8C167F
310
7F807F7F7F7E7F7F807F807F7F807F4E3417258EFFFFEA4E162674AABAEAEBBA
310
AA74341680FFFFFF0000FFFFFFFFFFFFB9171717171617FFFFFFFFFFBB161616
310
16164EFFFFFFFFFFFFFF4E1717171717B9FFFF9C171617171716161616171616
310
171766FFFFFF161717161617FFFFFFFFFFFFFF8E16171717161616FFFFFFFFFF
310
FFFFFFFFFFFFFFFFFFFFFFFFFFAA16D9FFFFFFFFFF3467FFFFFFFFEAFFFFFFFF
310
FFFFFFFFFFFFFFFFFFCA671667EB26278DFFFFFFFFFFFFFFFFFFFF8C2541EAFF
310
0000FFFFFFFFFFFFB9171717171716FFFFFFFFFFBA16171617174EFFFFFFFFFF
310
FFFF4E1717161616BAFF9B1617161616171716171617161616161667FFFF1616
310
16161716FFFFFFFFFFFFFF7F16161617174017FFFFFFFFFFFFFFFFFFFFFFFFFF
310
FFFFFFFFFFFF344E7F7F7F7E7417DAFFFFFFFF80FFFFFFFFFFFFFFFFFFFFFFFF
310
FFFFFF9B163425CAFFFFFFFFFFFFFFFFFFFFFFFFCA2667FF0000FFFFFFFFFFFF
310
BA171717171617FFFFFFFFFFB916171716164EFFFFFFFFFFFFFF4F1716161717
310
B9C91716171616161716161617171616161617168DFF161716161717FFFFFFFF
310
FFFFFF7F17171716164F16FFFFFFFFFFFFFFFFFFFFFFFFFFFFFFFFFFFFFF9B16
310
17161617174EFFFFFFFFFF34FFFFFFFFD9BABABABABADAFFFFFFFFFF7F16AAFF
310
FFFFFFFFFFFFFFFFFFFFFFFFFF9C16BA0000FFFFFFFFFFFFB9161717161717FF
310
FFFFFFFFB917161716174DFFFFFFFFFFFFFF4E1616161616BA4E161617171716
310
419BEAEAAA4E16161617161726E9171717161616FFFFFFFFFFFFFF4F16161717
310
164E16FFFFFFFFFFBAB9B9B9B9B9BABABACAFFFFFFFFFFFFFFFFFFFFFFFFFFFF
310
FFFFBA16FFFFFFFF7F1617161617174DEAFFFFFFEA41FFFFFFFFFFAA4D16174E
310
9BFFFFFFFFFF34730000FFFFFFFFFFFFB9161617171617FFFFFFFFFFBA161616
310
16164EFFFFFFFFFFFFFF4F16161717169B1617161716175BFFFFFFFFFFFF7417
310
16171616168D171717161617FFFFFFFFFFFFEA2616171717167416FFFFFFFFFF
310
16171616171717171717EAFFFFFFFFFFFFFFFFFFFFFFFFFFFFFF6716FFFFFFFF
310
7F4EFFFFFFFFBA2573FFFFFFFFBAFFFFFFFFAA167FB9BB9B269BFFFFFFFF664F
310
0000FFFFFFFFFFFFB9171616161616FFFFFFFFFFBA16161717164EFFFFFFFFFF
310
FFFF4E16161616174E161617171626EAFFFFFFFFFFFFFF4E16161616164E1716
310
16161617FFFFFFFFFFFF671616161716347F16FFFFFFFFFF16B9FFFFFFFFFFFF
310
D9168DFFFFFFFFFFFFFFFFFFFFFFFFFFFFEA1716FFFFFFFF7F4EFFFFFFFFFF7F
310
4EFFFFFFFFFFFFFFFFFF5B66FFFFFFEA347FFFFFFFFF7F4D0000FFFFFFFFFFFF
310
B9171616171617FFFFFFFFFFBA17161716174EFFFFFFFFFFFFFF4D1716161617
310
17161716161673FFFFFFFFFFFFFFFF9B1617161717161616171616174F4E4E4E
310
4E341616171616167E7F16FFFFFFFFFF16BAFFFFFFFFFFFFFF5B41FFFFFFFF34
310
1616171616BAFFFFFF9B1716FFFFFFFF7F4EFFFFFFFFFF4E4EFFFFFFFF734E4E
310
4E4E267EDA9B67164EEAFFFFFFFF744D0000FFFFFFFFFFFFBA171717161617FF
310
FFFFFFFFBA1616171616347F7F7F7F80807F331616161717161717161716B9FF
310
FFFFFFFFFFFFFFE9161616161616171716161716171616161616171616171734
310
EA7F16FFFFFFFFFF16BAFFFFFFFFFFFFFFAA17C9FFFFFF7326BABA5B25FFFFFF
310
FF401716FFFFFFFF7F264F4E4E4E4217AAFFFFFFEA16677F73261616164173CA
310
FFFFFFFFFFFF417F0000FFFFFFFFFFFFBA171616171617FFFFFFFFFFBA161616
310
17171616161616161616161717161616161616161617EAFFFFFFFFFFFFFFFFFF
310
261717161716161617161616161617161617161616174EEAFF8016FFFFFFFFFF
310
17BAFFFFFFFFFFFFFFFF3467FFFFFFC916C9FF3467FFFFFFDA166716FFFFFFFF
310
9C4D4E4E4E4E67AAFFFFFFFF6834FF7F262567AAEAFFFFFFFFFFFFFFFF9B17D9
310
0000FFFFFFFFFFFFB9161616161616FFFFFFFFFFBA1617161717171616161616
310
1716171716161716161617171716FFFFFFFFFFFFFFFFFFFF4E17161716171616
310
1617171616161716171717161616169BFF7F17FFFFFFFFFF17B9FFFFFFFFFFFF
310
FFFF7326FFFFFFFF3473DA16AAFFFFFF7317AA16FFFFFFFFFFFFFFFFFFFFFFFF
310
FFFFEA6725BA4E167FEAFFFFFFFFFFFFFFFFFFFF9C167FFF0000FFFFFFFFFFFF
310
B9161717171716FFFFFFFFFFBA16161716171616171717161617161716161616
310
171617171617EAFFFFFFFFFFFFFFFFFF26161717161616161616161617171616
310
1616161616171616AA8016FFFFFFFFFF16BAFFFFFFFFFFFFFFFFDA179BFFFFFF
310
74348D26FFFFFFFF2566B917FFFFFFFFD8BAB9BAB9BADAFFFFEA41169B7425C9
310
FFFFFFFFFFFFFFFFFFFFAB4F1680FFFF0000FFFFFFFFFFFFBA161717171617FF
310
FFFFFFFFBA17161717161617171617161616161617171616171716171617BBFF
310
FFFFFFFFFFFFFFE9171616161617161617161716FFFFFFFFFFD9671616161617
310
348017FFFFFFFFFF16BAFFFFFFFFFFFFFFFFFF4E5AFFFFFFC916265AFFFFFFAA
310
16AABA16FFFFFFFF7F1617161616179BFFFFEB4127168DFFFFFFFFFFFFFFD99B
310
6734175AC9FFFFFF0000FFFFFFFFFFFFB9161617171617FFFFFFFFFFBB161616
310
1616347F807F7F7F7F8033171716171617171616161672FFFFFFFFFFFFFFFF9C
310
171617171617161716161617FFFFFFFFFFFFFF4117161616174E17FFFFFFFFFF
310
16BAFFFFFFFFFFFFFFFFFF9B16DAFFFFFF34169BFFFFFF5A26FFB917FFFFFFFF
310
7F4EFFFFFFEA5B26FFFFFFEA2616EAFFFFFFFFDA743416331617414E4E4E4ECA
310
0000FFFFFFFFFFFFBA161716161616FFFFFFFFFFBA17171616164EFFFFFFFFFF
310
FFFF4E16161717174E161717171626EBFFFFFFFFFFFFFF4E16161617165B1616
310
16171617FFFFFFFFFFFFFF6716161616161617FFFFFFFFFF16BAFFFFFFFFFFFF
310
FFFFFFEA268CFFFFFF7316EAFFFFEB1774FFB916FFFFFFFF7F4EFFFFFFFF7316
310
FFFFFFFF6826FFFFFFFFEB264D9CEABA257F807F7F6616BA0000FFFFFFFFFFFF
310
BA161716161616FFFFFFFFFFBA16171616164DFFFFFFFFFFFFFF4E1617161617
310
9B1617171717165BEBFFFFFFFFFF671616161617179B171616161616FFFFFFFF
310
FFFFFF3417161617171617FFFFFFFFFF17BAFFFFFFFFFFFFFFFFFFFF6734FFFF
310
FFEBCAFFFFFF8D17C9FFBA17FFFFFFFF7F357F808066174FFFFFFFFF7F16FFFF
310
FFFFD91673B99B415BFFFFFFFFBA16DA00009B7F7F7F807F671617161616167F
310
80807F7E6617161616164EFFFFFFFFFFFFFF4E1616161617B94E171716161616
310
349BC9D9AA4E16171616161634FF161617161717B9B9BAB9BA9B411716171716
310
163416FFFFFFFFFF16B9FFFFFFFFFFFFFFFFFFFFC917CAFFFFFFFFFFFFFF3342
310
FFFFBA17FFFFFFFF9B4E4E4F4E4E66EAFFFFFFFF5B16C9FFFFFFFFAA4E164E73
310
EAFFFFFFFF8D26FF00004E161716161616171617171616171717171617161616
310
17174EFFFFFFFFFFFFFF4E1717171616B9D92616171716171716171717171716
310
16171716AAFF161717171617161617171616161617161716166717FFFFFFFFFF
310
17B9FFFFFFFFFFFFFFFFFFFFFF3467FFFFFFFFFFFFCA168CFFFFBB17FFFFFFFF
310
FFFFFFFFFFFFFFFFFFFFFFEA26265BFFFFFFFFFFFFFFFFFFFFFFFFFFEA3467FF
310
00004D16161616161617161717161617161616171617171616164EFFFFFFFFFF
310
FFFF4D1617161616BAFF9B1616161616161716161616171717161766FFFF1616
310
16171617161617161716171616171717667F16FFFFFFFFFF17BAFFFFFFFFFFFF
310
FFFFFFFFFF8C26EAFFFFFFFFFF6617EAFFFFBA17FFFFFFFFFFFFFFFFFFFFFFFF
310
FFFFEA5A25BA269BFFFFFFFFFFFFFFFFFFFFFFFF6616DAFF00004E1616171616
310
1616161616161716161617171616171616174EFFFFFFFFFFFFFF4D1717171716
310
B9FFFF9C161616161616161716161717171667FFFFFF17161717171716161617
310
1716161616161641E97E16FFFFFFFFFF16B9FFFFFFFFFFFFFFFFFFFFFFEA169B
310
FFFFFFFFEA265BFFFFFFB916FFFFFFFFFFFFFFFFFFFFFFFFFF9B3416AAFF9B17
310
67EAFFFFFFFFFFFFFFFFEA5B169BFFFF00004D17161716161616161717171616
310
161717161716171716174EFFFFFFFFFFFFFF4D1616161616BAFFFFFFBB411616
310
161716161616171634ABFFFFFFFF161716161617171716171617171617267FFF
310
FF7F164E4E4E4E4F17BAFFFFFFFFFFFFFFFFFFFFFFFF66344D4E4E4F4117AAFF
310
FFFFBA174E4E4E4D4E4D4D4E4E4E4E4116174EBBFFFFFFCA342666ABEAFFFFEA
310
AA6725269CFFFFFF0000724F4E4D4D4D4E4D4D4E4E4E4D4E4E4E4E4E4E4E4E4D
310
4E4E74FFFFFFFFFFFFFF734E4E4E4D4ECAFFFFFFFFFFAA663416171717265B9B
310
FFFFFFFFFFFF7F8080807F80807F7F7F7F7F807FBAFFFFFFFF9B4E4E4F4D4D4E
310
4DC9FFFFFFFFFFFFFFFFFFFFFFFFBA4E4E4E4E4D4E4EFFFFFFFFC94E4E4E4F4E
310
4E4E4D4E4E5A807F9CD9FFFFFFFFFFFFFF9B5B2617171716174E8DEAFFFFFFFF
310
0000000000000000000000000000000000000000000000000000000000000000
  1
OLE
  0
ENDSEC
  0
SECTION
  2
OBJECTS
  0
DICTIONARY
  5
C
330
0
100
AcDbDictionary
281
     1
  3
ACAD_GROUP
350
D
  3
ACAD_LAYOUT
350
1A
  3
ACAD_MLINESTYLE
350
17
  3
ACAD_PLOTSETTINGS
350
19
  3
ACAD_PLOTSTYLENAME
350
E
  3
ACAD_SCALELIST
350
47
  0
DICTIONARY
  5
D
102
{ACAD_REACTORS
330
C
102
}
330
C
100
AcDbDictionary
281
     1
  0
DICTIONARY
  5
1A
102
{ACAD_REACTORS
330
C
102
}
330
C
100
AcDbDictionary
281
     1
  3
Layout1
350
1E
  3
Layout2
350
26
  3
Model
350
22
  0
DICTIONARY
  5
17
102
{ACAD_REACTORS
330
C
102
}
330
C
100
AcDbDictionary
281
     1
  3
Standard
350
18
  0
DICTIONARY
  5
19
102
{ACAD_REACTORS
330
C
102
}
330
C
100
AcDbDictionary
281
     1
  0
ACDBDICTIONARYWDFLT
  5
E
102
{ACAD_REACTORS
330
C
102
}
330
C
100
AcDbDictionary
281
     1
  3
Normal
350
F
100
AcDbDictionaryWithDefault
340
F
  0
DICTIONARY
  5
47
102
{ACAD_REACTORS
330
C
102
}
330
C
100
AcDbDictionary
281
     1
  3
A0
350
48
  3
A1
350
49
  3
A2
350
4A
  3
A3
350
4B
  3
A4
350
4C
  3
A5
350
4D
  3
A6
350
4E
  3
A7
350
4F
  3
A8
350
50
  3
A9
350
51
  3
B0
350
52
  3
B1
350
53
  3
B2
350
54
  3
B3
350
55
  3
B4
350
56
  3
B5
350
57
  3
B6
350
58
  3
B7
350
59
  3
B8
350
5A
  3
B9
350
5B
  3
C0
350
5C
  3
C1
350
5D
  3
C2
350
5E
  3
C3
350
5F
  3
C4
350
60
  3
C5
350
61
  3
C6
350
62
  3
C7
350
63
  3
C8
350
64
  3
C9
350
65
  3
D0
350
66
  3
D1
350
67
  3
D2
350
68
  0
LAYOUT
  5
1E
102
{ACAD_REACTORS
330
1A
102
}
330
1A
100
AcDbPlotSettings
  1

  2
none_device
  4

  6

 40
0.0
 41
0.0
 42
0.0
 43
0.0
 44
0.0
 45
0.0
 46
0.0
 47
0.0
 48
0.0
 49
0.0
140
0.0
141
0.0
142
1.0
143
1.0
 70
   688
 72
     1
 73
     0
 74
     5
  7

 75
    16
147
1.0
148
0.0
149
0.0
100
AcDbLayout
  1
Layout1
 70
     1
 71
     1
 10
0.0
 20
0.0
 11
420.0
 21
297.0
 12
0.0
 22
0.0
 32
0.0
 14
1.0000000000E+20
 24
1.0000000000E+20
 34
1.0000000000E+20
 15
-1.0000000000E+20
 25
-1.0000000000E+20
 35
-1.0000000000E+20
146
0.0
 13
0.0
 23
0.0
 33
0.0
 16
1.0
 26
0.0
 36
0.0
 17
0.0
 27
1.0
 37
0.0
 76
     0
330
1B
  0
LAYOUT
  5
26
102
{ACAD_REACTORS
330
1A
102
}
330
1A
100
AcDbPlotSettings
  1

  2
none_device
  4

  6

 40
0.0
 41
0.0
 42
0.0
 43
0.0
 44
0.0
 45
0.0
 46
0.0
 47
0.0
 48
0.0
 49
0.0
140
0.0
141
0.0
142
1.0
143
1.0
 70
   688
 72
     1
 73
     0
 74
     5
  7

 75
    16
147
1.0
148
0.0
149
0.0
100
AcDbLayout
  1
Layout2
 70
     1
 71
     2
 10
0.0
 20
0.0
 11
0.0
 21
0.0
 12
0.0
 22
0.0
 32
0.0
 14
0.0
 24
0.0
 34
0.0
 15
0.0
 25
0.0
 35
0.0
146
0.0
 13
0.0
 23
0.0
 33
0.0
 16
1.0
 26
0.0
 36
0.0
 17
0.0
 27
1.0
 37
0.0
 76
     0
330
23
  0
LAYOUT
  5
22
102
{ACAD_REACTORS
330
1A
102
}
330
1A
100
AcDbPlotSettings
  1

  2
none_device
  4
Letter_(8.50_x_11.00_Inches)
  6

 40
6.35
 41
6.35
 42
6.35000508
 43
6.35000508
 44
215.9
 45
279.4
 46
0.0
 47
0.0
 48
0.0
 49
0.0
140
0.0
141
0.0
142
1.0
143
1.0
 70
  1712
 72
     1
 73
     0
 74
     0
  7

 75
     0
147
1.0
148
0.0
149
0.0
100
AcDbLayout
  1
Model
 70
     1
 71
     0
 10
0.0
 20
0.0
 11
139.7
 21
107.95
 12
0.0
 22
0.0
 32
0.0
 14
0.0
 24
0.0
 34
0.0
 15
139.7
 25
107.95
 35
0.0
146
0.0
 13
0.0
 23
0.0
 33
0.0
 16
1.0
 26
0.0
 36
0.0
 17
0.0
 27
1.0
 37
0.0
 76
     0
330
1F
331
29
  0
MLINESTYLE
  5
18
102
{ACAD_REACTORS
330
17
102
}
330
17
100
AcDbMlineStyle
  2
Standard
 70
     0
  3

 62
   256
 51
90.0
 52
90.0
 71
     2
 49
0.5
 62
   256
  6
BYLAYER
 49
-0.5
 62
   256
  6
BYLAYER
  0
ACDBPLACEHOLDER
  5
F
102
{ACAD_REACTORS
330
E
102
}
330
E
  0
SCALE
  5
48
102
{ACAD_REACTORS
330
47
102
}
330
47
100
AcDbScale
 70
     0
300
1:1
140
1.0
141
1.0
290
     1
  0
SCALE
  5
49
102
{ACAD_REACTORS
330
47
102
}
330
47
100
AcDbScale
 70
     0
300
1:2
140
1.0
141
2.0
290
     0
  0
SCALE
  5
4A
102
{ACAD_REACTORS
330
47
102
}
330
47
100
AcDbScale
 70
     0
300
1:4
140
1.0
141
4.0
290
     0
  0
SCALE
  5
4B
102
{ACAD_REACTORS
330
47
102
}
330
47
100
AcDbScale
 70
     0
300
1:5
140
1.0
141
5.0
290
     0
  0
SCALE
  5
4C
102
{ACAD_REACTORS
330
47
102
}
330
47
100
AcDbScale
 70
     0
300
1:8
140
1.0
141
8.0
290
     0
  0
SCALE
  5
4D
102
{ACAD_REACTORS
330
47
102
}
330
47
100
AcDbScale
 70
     0
300
1:10
140
1.0
141
10.0
290
     0
  0
SCALE
  5
4E
102
{ACAD_REACTORS
330
47
102
}
330
47
100
AcDbScale
 70
     0
300
1:16
140
1.0
141
16.0
290
     0
  0
SCALE
  5
4F
102
{ACAD_REACTORS
330
47
102
}
330
47
100
AcDbScale
 70
     0
300
1:20
140
1.0
141
20.0
290
     0
  0
SCALE
  5
50
102
{ACAD_REACTORS
330
47
102
}
330
47
100
AcDbScale
 70
     0
300
1:30
140
1.0
141
30.0
290
     0
  0
SCALE
  5
51
102
{ACAD_REACTORS
330
47
102
}
330
47
100
AcDbScale
 70
     0
300
1:40
140
1.0
141
40.0
290
     0
  0
SCALE
  5
52
102
{ACAD_REACTORS
330
47
102
}
330
47
100
AcDbScale
 70
     0
300
1:50
140
1.0
141
50.0
290
     0
  0
SCALE
  5
53
102
{ACAD_REACTORS
330
47
102
}
330
47
100
AcDbScale
 70
     0
300
1:100
140
1.0
141
100.0
290
     0
  0
SCALE
  5
54
102
{ACAD_REACTORS
330
47
102
}
330
47
100
AcDbScale
 70
     0
300
2:1
140
2.0
141
1.0
290
     0
  0
SCALE
  5
55
102
{ACAD_REACTORS
330
47
102
}
330
47
100
AcDbScale
 70
     0
300
4:1
140
4.0
141
1.0
290
     0
  0
SCALE
  5
56
102
{ACAD_REACTORS
330
47
102
}
330
47
100
AcDbScale
 70
     0
300
8:1
140
8.0
141
1.0
290
     0
  0
SCALE
  5
57
102
{ACAD_REACTORS
330
47
102
}
330
47
100
AcDbScale
 70
     0
300
10:1
140
10.0
141
1.0
290
     0
  0
SCALE
  5
58
102
{ACAD_REACTORS
330
47
102
}
330
47
100
AcDbScale
 70
     0
300
100:1
140
100.0
141
1.0
290
     0
  0
SCALE
  5
59
102
{ACAD_REACTORS
330
47
102
}
330
47
100
AcDbScale
 70
     0
300
1/128" = 1'-0"
140
0.0078125
141
12.0
290
     0
  0
SCALE
  5
5A
102
{ACAD_REACTORS
330
47
102
}
330
47
100
AcDbScale
 70
     0
300
1/64" = 1'-0"
140
0.015625
141
12.0
290
     0
  0
SCALE
  5
5B
102
{ACAD_REACTORS
330
47
102
}
330
47
100
AcDbScale
 70
     0
300
1/32" = 1'-0"
140
0.03125
141
12.0
290
     0
  0
SCALE
  5
5C
102
{ACAD_REACTORS
330
47
102
}
330
47
100
AcDbScale
 70
     0
300
1/16" = 1'-0"
140
0.0625
141
12.0
290
     0
  0
SCALE
  5
5D
102
{ACAD_REACTORS
330
47
102
}
330
47
100
AcDbScale
 70
     0
300
3/32" = 1'-0"
140
0.09375
141
12.0
290
     0
  0
SCALE
  5
5E
102
{ACAD_REACTORS
330
47
102
}
330
47
100
AcDbScale
 70
     0
300
1/8" = 1'-0"
140
0.125
141
12.0
290
     0
  0
SCALE
  5
5F
102
{ACAD_REACTORS
330
47
102
}
330
47
100
AcDbScale
 70
     0
300
3/16" = 1'-0"
140
0.1875
141
12.0
290
     0
  0
SCALE
  5
60
102
{ACAD_REACTORS
330
47
102
}
330
47
100
AcDbScale
 70
     0
300
1/4" = 1'-0"
140
0.25
141
12.0
290
     0
  0
SCALE
  5
61
102
{ACAD_REACTORS
330
47
102
}
330
47
100
AcDbScale
 70
     0
300
3/8" = 1'-0"
140
0.375
141
12.0
290
     0
  0
SCALE
  5
62
102
{ACAD_REACTORS
330
47
102
}
330
47
100
AcDbScale
 70
     0
300
1/2" = 1'-0"
140
0.5
141
12.0
290
     0
  0
SCALE
  5
63
102
{ACAD_REACTORS
330
47
102
}
330
47
100
AcDbScale
 70
     0
300
3/4" = 1'-0"
140
0.75
141
12.0
290
     0
  0
SCALE
  5
64
102
{ACAD_REACTORS
330
47
102
}
330
47
100
AcDbScale
 70
     0
300
1" = 1'-0"
140
1.0
141
12.0
290
     0
  0
SCALE
  5
65
102
{ACAD_REACTORS
330
47
102
}
330
47
100
AcDbScale
 70
     0
300
1-1/2" = 1'-0"
140
1.5
141
12.0
290
     0
  0
SCALE
  5
66
102
{ACAD_REACTORS
330
47
102
}
330
47
100
AcDbScale
 70
     0
300
3" = 1'-0"
140
3.0
141
12.0
290
     0
  0
SCALE
  5
67
102
{ACAD_REACTORS
330
47
102
}
330
47
100
AcDbScale
 70
     0
300
6" = 1'-0"
140
6.0
141
12.0
290
     0
  0
SCALE
  5
68
102
{ACAD_REACTORS
330
47
102
}
330
47
100
AcDbScale
 70
     0
300
1'-0" = 1'-0"
140
12.0
141
12.0
290
     0
  0
ENDSEC
  0
EOF
