  0
SECTION
  2
HEADER
  9
$ACADVER
  1
AC1015
  9
$ACADMAINTVER
 70
     6
  9
$DWGCODEPAGE
  3
ANSI_1252
  9
$INSBASE
 10
0.0
 20
0.0
 30
0.0
  9
$EXTMIN
 10
0.0
 20
0.0
 30
0.0
  9
$EXTMAX
 10
279.4
 20
215.9
 30
0.0
  9
$LIMMIN
 10
0.0
 20
0.0
  9
$LIMMAX
 10
279.4
 20
215.9
  9
$ORTHOMODE
 70
     0
  9
$REGENMODE
 70
     1
  9
$FILLMODE
 70
     1
  9
$QTEXTMODE
 70
     0
  9
$MIRRTEXT
 70
     1
  9
$LTSCALE
 40
1.0
  9
$ATTMODE
 70
     1
  9
$TEXTSIZE
 40
2.8222222222
  9
$TRACEWID
 40
1.0
  9
$TEXTSTYLE
  7
Standard
  9
$CLAYER
  8
0
  9
$CELTYPE
  6
ByLayer
  9
$CECOLOR
 62
   256
  9
$CELTSCALE
 40
1.0
  9
$DISPSILH
 70
     0
  9
$DIMSCALE
 40
1.0
  9
$DIMASZ
 40
3.175
  9
$DIMEXO
 40
1.27
  9
$DIMDLI
 40
3.75
  9
$DIMRND
 40
0.0
  9
$DIMDLE
 40
0.0
  9
$DIMEXE
 40
1.778
  9
$DIMTP
 40
0.0
  9
$DIMTM
 40
0.0
  9
$DIMTXT
 40
2.8222222222
  9
$DIMCEN
 40
2.5
  9
$DIMTSZ
 40
0.0
  9
$DIMTOL
 70
     0
  9
$DIMLIM
 70
     0
  9
$DIMTIH
 70
     1
  9
$DIMTOH
 70
     1
  9
$DIMSE1
 70
     0
  9
$DIMSE2
 70
     0
  9
$DIMTAD
 70
     0
  9
$DIMZIN
 70
     1
  9
$DIMBLK
  1

  9
$DIMASO
 70
     1
  9
$DIMSHO
 70
     1
  9
$DIMPOST
  1

  9
$DIMAPOST
  1

  9
$DIMALT
 70
     0
  9
$DIMALTD
 70
     3
  9
$DIMALTF
 40
0.0393700787
  9
$DIMLFAC
 40
1.0
  9
$DIMTOFL
 70
     1
  9
$DIMTVP
 40
0.0
  9
$DIMTIX
 70
     0
  9
$DIMSOXD
 70
     0
  9
$DIMSAH
 70
     0
  9
$DIMBLK1
  1

  9
$DIMBLK2
  1

  9
$DIMSTYLE
  2
ISO-25
  9
$DIMCLRD
 70
     0
  9
$DIMCLRE
 70
     0
  9
$DIMCLRT
 70
     0
  9
$DIMTFAC
 40
1.0
  9
$DIMGAP
 40
2.54
  9
$DIMJUST
 70
     0
  9
$DIMSD1
 70
     0
  9
$DIMSD2
 70
     0
  9
$DIMTOLJ
 70
     0
  9
$DIMTZIN
 70
     1
  9
$DIMALTZ
 70
     0
  9
$DIMALTTZ
 70
     0
  9
$DIMUPT
 70
     0
  9
$DIMDEC
 70
     1
  9
$DIMTDEC
 70
     1
  9
$DIMALTU
 70
     2
  9
$DIMALTTD
 70
     3
  9
$DIMTXSTY
  7
Standard
  9
$DIMAUNIT
 70
     0
  9
$DIMADEC
 70
     0
  9
$DIMALTRND
 40
0.0
  9
$DIMAZIN
 70
     0
  9
$DIMDSEP
 70
    44
  9
$DIMATFIT
 70
     3
  9
$DIMFRAC
 70
     0
  9
$DIMLDRBLK
  1

  9
$DIMLUNIT
 70
     2
  9
$DIMLWD
 70
    -2
  9
$DIMLWE
 70
    -2
  9
$DIMTMOVE
 70
     0
  9
$LUNITS
 70
     2
  9
$LUPREC
 70
     1
  9
$SKETCHINC
 40
1.0
  9
$FILLETRAD
 40
10.0
  9
$AUNITS
 70
     0
  9
$AUPREC
 70
     0
  9
$MENU
  1
.
  9
$ELEVATION
 40
0.0
  9
$PELEVATION
 40
0.0
  9
$THICKNESS
 40
0.0
  9
$LIMCHECK
 70
     0
  9
$CHAMFERA
 40
0.0
  9
$CHAMFERB
 40
0.0
  9
$CHAMFERC
 40
0.0
  9
$CHAMFERD
 40
0.0
  9
$SKPOLY
 70
     0
  9
$TDCREATE
 40
2457043.335525625
  9
$TDUCREATE
 40
2457043.543858958
  9
$TDUPDATE
 40
2457043.335527975
  9
$TDUUPDATE
 40
2457043.543861308
  9
$TDINDWG
 40
0.0000000116
  9
$TDUSRTIMER
 40
0.0000000116
  9
$USRTIMER
 70
     1
  9
$ANGBASE
 50
0.0
  9
$ANGDIR
 70
     0
  9
$PDMODE
 70
     0
  9
$PDSIZE
 40
-1.0
  9
$PLINEWID
 40
0.0
  9
$SPLFRAME
 70
     0
  9
$SPLINETYPE
 70
     6
  9
$SPLINESEGS
 70
     8
  9
$HANDSEED
  5
204
  9
$SURFTAB1
 70
     6
  9
$SURFTAB2
 70
     6
  9
$SURFTYPE
 70
     6
  9
$SURFU
 70
     6
  9
$SURFV
 70
     6
  9
$UCSBASE
  2

  9
$UCSNAME
  2

  9
$UCSORG
 10
0.0
 20
0.0
 30
0.0
  9
$UCSXDIR
 10
1.0
 20
0.0
 30
0.0
  9
$UCSYDIR
 10
0.0
 20
1.0
 30
0.0
  9
$UCSORTHOREF
  2

  9
$UCSORTHOVIEW
 70
     0
  9
$UCSORGTOP
 10
0.0
 20
0.0
 30
0.0
  9
$UCSORGBOTTOM
 10
0.0
 20
0.0
 30
0.0
  9
$UCSORGLEFT
 10
0.0
 20
0.0
 30
0.0
  9
$UCSORGRIGHT
 10
0.0
 20
0.0
 30
0.0
  9
$UCSORGFRONT
 10
0.0
 20
0.0
 30
0.0
  9
$UCSORGBACK
 10
0.0
 20
0.0
 30
0.0
  9
$PUCSBASE
  2

  9
$PUCSNAME
  2

  9
$PUCSORG
 10
0.0
 20
0.0
 30
0.0
  9
$PUCSXDIR
 10
1.0
 20
0.0
 30
0.0
  9
$PUCSYDIR
 10
0.0
 20
1.0
 30
0.0
  9
$PUCSORTHOREF
  2

  9
$PUCSORTHOVIEW
 70
     0
  9
$PUCSORGTOP
 10
0.0
 20
0.0
 30
0.0
  9
$PUCSORGBOTTOM
 10
0.0
 20
0.0
 30
0.0
  9
$PUCSORGLEFT
 10
0.0
 20
0.0
 30
0.0
  9
$PUCSORGRIGHT
 10
0.0
 20
0.0
 30
0.0
  9
$PUCSORGFRONT
 10
0.0
 20
0.0
 30
0.0
  9
$PUCSORGBACK
 10
0.0
 20
0.0
 30
0.0
  9
$USERI1
 70
     0
  9
$USERI2
 70
     0
  9
$USERI3
 70
     0
  9
$USERI4
 70
     0
  9
$USERI5
 70
     0
  9
$USERR1
 40
0.0
  9
$USERR2
 40
0.0
  9
$USERR3
 40
0.0
  9
$USERR4
 40
0.0
  9
$USERR5
 40
0.0
  9
$WORLDVIEW
 70
     1
  9
$SHADEDGE
 70
     3
  9
$SHADEDIF
 70
    70
  9
$TILEMODE
 70
     1
  9
$MAXACTVP
 70
    64
  9
$PINSBASE
 10
0.0
 20
0.0
 30
0.0
  9
$PLIMCHECK
 70
     0
  9
$PEXTMIN
 10
1.0000000000E+20
 20
1.0000000000E+20
 30
1.0000000000E+20
  9
$PEXTMAX
 10
-1.0000000000E+20
 20
-1.0000000000E+20
 30
-1.0000000000E+20
  9
$PLIMMIN
 10
0.0
 20
0.0
  9
$PLIMMAX
 10
420.0
 20
297.0
  9
$UNITMODE
 70
     0
  9
$VISRETAIN
 70
     1
  9
$PLINEGEN
 70
     0
  9
$PSLTSCALE
 70
     1
  9
$TREEDEPTH
 70
  3020
  9
$CMLSTYLE
  2
Standard
  9
$CMLJUST
 70
     0
  9
$CMLSCALE
 40
20.0
  9
$PROXYGRAPHICS
 70
     1
  9
$MEASUREMENT
 70
     1
  9
$CELWEIGHT
370
    -1
  9
$ENDCAPS
280
     0
  9
$JOINSTYLE
280
     0
  9
$LWDISPLAY
290
     1
  9
$INSUNITS
 70
     4
  9
$HYPERLINKBASE
  1

  9
$STYLESHEET
  1

  9
$XEDIT
290
     1
  9
$CEPSNTYPE
380
     0
  9
$PSTYLEMODE
290
     1
  9
$FINGERPRINTGUID
  2
{BA4B5D2A-8731-438E-8562-58915F5AB95F}
  9
$VERSIONGUID
  2
{FAEB1C32-E019-11D5-929B-00C0DF256EC4}
  9
$EXTNAMES
290
     1
  9
$PSVPSCALE
 40
0.0
  9
$OLESTARTUP
290
     0
  0
ENDSEC
  0
SECTION
  2
CLASSES
  0
CLASS
  1
ACDBDICTIONARYWDFLT
  2
AcDbDictionaryWithDefault
  3
ObjectDBX Classes
 90
        0
280
     0
281
     0
  0
CLASS
  1
VISUALSTYLE
  2
AcDbVisualStyle
  3
ObjectDBX Classes
 90
     4095
280
     0
281
     0
  0
CLASS
  1
MATERIAL
  2
AcDbMaterial
  3
ObjectDBX Classes
 90
     1153
280
     0
281
     0
  0
CLASS
  1
SCALE
  2
AcDbScale
  3
ObjectDBX Classes
 90
     1153
280
     0
281
     0
  0
CLASS
  1
SUN
  2
AcDbSun
  3
SCENEOE
 90
     1153
280
     0
281
     0
  0
CLASS
  1
ACDBPLACEHOLDER
  2
AcDbPlaceHolder
  3
ObjectDBX Classes
 90
        0
280
     0
281
     0
  0
CLASS
  1
LAYOUT
  2
AcDbLayout
  3
ObjectDBX Classes
 90
        0
280
     0
281
     0
  0
ENDSEC
  0
SECTION
  2
TABLES
  0
TABLE
  2
VPORT
  5
8
330
0
100
AcDbSymbolTable
 70
     1
  0
VPORT
  5
29
330
8
100
AcDbSymbolTableRecord
100
AcDbViewportTableRecord
  2
*Active
 70
     0
 10
0.0
 20
0.0
 11
1.0
 21
1.0
 12
139.7
 22
107.95
 13
0.0
 23
0.0
 14
10.0
 24
10.0
 15
10.0
 25
10.0
 16
0.0
 26
0.0
 36
1.0
 17
0.0
 27
0.0
 37
0.0
 40
215.9
 41
1.2941176471
 42
50.0
 43
0.0
 44
0.0
 50
0.0
 51
0.0
 71
     0
 72
  2000
 73
     1
 74
     3
 75
     0
 76
     0
 77
     0
 78
     0
281
     0
 65
     1
110
0.0
120
0.0
130
0.0
111
1.0
121
0.0
131
0.0
112
0.0
122
1.0
132
0.0
 79
     0
146
0.0
  0
ENDTAB
  0
TABLE
  2
LTYPE
  5
5
330
0
100
AcDbSymbolTable
 70
     6
  0
LTYPE
  5
14
330
5
100
AcDbSymbolTableRecord
100
AcDbLinetypeTableRecord
  2
ByBlock
 70
     0
  3

 72
    65
 73
     0
 40
0.0
  0
LTYPE
  5
15
330
5
100
AcDbSymbolTableRecord
100
AcDbLinetypeTableRecord
  2
ByLayer
 70
     0
  3

 72
    65
 73
     0
 40
0.0
  0
LTYPE
  5
16
330
5
100
AcDbSymbolTableRecord
100
AcDbLinetypeTableRecord
  2
Continuous
 70
     0
  3
Solid line
 72
    65
 73
     0
 40
0.0
  0
LTYPE
  5
6A
330
5
100
AcDbSymbolTableRecord
100
AcDbLinetypeTableRecord
  2
HIDDEN
 70
     0
  3
Hidden __ __ __ __ __ __ __ __ __ __ __ __ __ __
 72
    65
 73
     2
 40
1.905
 49
1.27
 74
     0
 49
-0.635
 74
     0
  0
LTYPE
  5
6B
330
5
100
AcDbSymbolTableRecord
100
AcDbLinetypeTableRecord
  2
PHANTOM
 70
     0
  3
Phantom ______  __  __  ______  __  __  ______
 72
    65
 73
     6
 40
12.7
 49
6.35
 74
     0
 49
-1.27
 74
     0
 49
1.27
 74
     0
 49
-1.27
 74
     0
 49
1.27
 74
     0
 49
-1.27
 74
     0
  0
LTYPE
  5
6C
330
5
100
AcDbSymbolTableRecord
100
AcDbLinetypeTableRecord
  2
CENTER
 70
     0
  3
Center ____ _ ____ _ ____ _ ____ _ ____ _ ____
 72
    65
 73
     4
 40
10.16
 49
6.35
 74
     0
 49
-1.27
 74
     0
 49
1.27
 74
     0
 49
-1.27
 74
     0
  0
LTYPE
  5
6D
330
5
100
AcDbSymbolTableRecord
100
AcDbLinetypeTableRecord
  2
CENTERX2
 70
     0
  3
Center (2x) ________  __  ________  __  _____
 72
    65
 73
     4
 40
20.32
 49
12.7
 74
     0
 49
-2.54
 74
     0
 49
2.54
 74
     0
 49
-2.54
 74
     0
  0
LTYPE
  5
6E
330
5
100
AcDbSymbolTableRecord
100
AcDbLinetypeTableRecord
  2
DOT2
 70
     0
  3
Dot (.5x) ........................................
 72
    65
 73
     2
 40
0.635
 49
0.0
 74
     0
 49
-0.635
 74
     0
  0
ENDTAB
  0
TABLE
  2
LAYER
  5
2
330
0
100
AcDbSymbolTable
 70
     2
  0
LAYER
  5
10
330
2
100
AcDbSymbolTableRecord
100
AcDbLayerTableRecord
  2
0
 70
     0
 62
     7
  6
Continuous
370
    -3
390
F
  0
LAYER
  5
6F
330
2
100
AcDbSymbolTableRecord
100
AcDbLayerTableRecord
  2
FORMAT
 70
     0
 62
     7
  6
Continuous
370
    -3
390
F
  0
ENDTAB
  0
TABLE
  2
STYLE
  5
3
330
0
100
AcDbSymbolTable
 70
     4
  0
STYLE
  5
11
330
3
100
AcDbSymbolTableRecord
100
AcDbTextStyleTableRecord
  2
Standard
 70
     0
 40
0.0
 41
1.0
 50
0.0
 71
     0
 42
2.8222222222
  3
txt
  4

  0
STYLE
  5
99
330
3
100
AcDbSymbolTableRecord
100
AcDbTextStyleTableRecord
  2
SLDTEXTSTYLE0
 70
     0
 40
0.0
 41
0.75
 50
0.0
 71
     0
 42
2.8222222222
  3
TXT
  4

  0
STYLE
  5
9B
330
3
100
AcDbSymbolTableRecord
100
AcDbTextStyleTableRecord
  2
SLDTEXTSTYLE1
 70
     0
 40
0.0
 41
0.75
 50
0.0
 71
     0
 42
2.8222222222
  3
TXT
  4
bigfont
  0
STYLE
  5
BE
330
3
100
AcDbSymbolTableRecord
100
AcDbTextStyleTableRecord
  2
SLDTEXTSTYLE2
 70
     0
 40
0.0
 41
0.6
 50
0.0
 71
     0
 42
2.8222222222
  3
TXT
  4

  0
ENDTAB
  0
TABLE
  2
VIEW
  5
6
330
0
100
AcDbSymbolTable
 70
     0
  0
ENDTAB
  0
TABLE
  2
UCS
  5
7
330
0
100
AcDbSymbolTable
 70
     0
  0
ENDTAB
  0
TABLE
  2
APPID
  5
9
330
0
100
AcDbSymbolTable
 70
     1
  0
APPID
  5
12
330
9
100
AcDbSymbolTableRecord
100
AcDbRegAppTableRecord
  2
ACAD
 70
     0
  0
ENDTAB
  0
TABLE
  2
DIMSTYLE
  5
A
330
0
100
AcDbSymbolTable
 70
     4
100
AcDbDimStyleTable
  0
DIMSTYLE
105
27
330
A
100
AcDbSymbolTableRecord
100
AcDbDimStyleTableRecord
  2
ISO-25
 70
     0
 41
2.5
 42
0.625
 43
3.75
 44
1.25
 73
     0
 74
     0
 77
     1
 78
     8
140
2.5
141
2.5
143
0.0393700787
147
0.625
171
     3
172
     1
178
     0
271
     2
272
     2
274
     3
278
    44
283
     0
284
     8
340
11
  0
DIMSTYLE
105
15C
102
{ACAD_REACTORS
330
15B
102
}
330
A
100
AcDbSymbolTableRecord
100
AcDbDimStyleTableRecord
  2
SLDDIMSTYLE0
 70
     0
 41
3.175
 44
0.0
 45
0.000000001
 78
    12
 79
     3
140
2.1166666667
141
0.0
143
0.0393700787
147
0.5291666667
148
0.000000001
170
     1
173
     1
178
     0
271
     1
272
     1
276
     2
284
    12
340
99
  0
DIMSTYLE
105
1E5
102
{ACAD_REACTORS
330
1E4
102
}
330
A
100
AcDbSymbolTableRecord
100
AcDbDimStyleTableRecord
  2
SLDDIMSTYLE1
 70
     0
 41
3.175
 44
0.0
 45
0.000000001
 78
     4
 79
     1
140
2.1166666667
143
0.0393700787
147
0.5291666667
148
0.000000001
170
     1
172
     1
173
     1
178
     0
271
     1
272
     1
276
     2
284
    12
289
     0
340
99
  0
DIMSTYLE
105
1FA
330
A
100
AcDbSymbolTableRecord
100
AcDbDimStyleTableRecord
  2
SLDDIMSTYLE2
 70
     0
 41
3.175
 44
0.0
 45
0.000000001
146
3.175
147
0.0
173
     1
178
     0
271
     0
272
     0
276
     2
340
11
  0
ENDTAB
  0
TABLE
  2
BLOCK_RECORD
  5
1
330
0
100
AcDbSymbolTable
 70
    10
  0
BLOCK_RECORD
  5
1F
330
1
100
AcDbSymbolTableRecord
100
AcDbBlockTableRecord
  2
*Model_Space
340
22
  0
BLOCK_RECORD
  5
1B
330
1
100
AcDbSymbolTableRecord
100
AcDbBlockTableRecord
  2
*Paper_Space
340
1E
  0
BLOCK_RECORD
  5
23
330
1
100
AcDbSymbolTableRecord
100
AcDbBlockTableRecord
  2
*Paper_Space0
340
26
  0
BLOCK_RECORD
  5
70
330
1
100
AcDbSymbolTableRecord
100
AcDbBlockTableRecord
  2
Third Angle Projection Block
340
0
102
{BLKREFS
331
95
102
}
  0
BLOCK_RECORD
  5
96
330
1
100
AcDbSymbolTableRecord
100
AcDbBlockTableRecord
  2
SW_NOTE_0
340
0
102
{BLKREFS
331
B2
102
}
  0
BLOCK_RECORD
  5
C2
330
1
100
AcDbSymbolTableRecord
100
AcDbBlockTableRecord
  2
SW_NOTE_1
340
0
102
{BLKREFS
331
C7
102
}
  0
BLOCK_RECORD
  5
C8
330
1
100
AcDbSymbolTableRecord
100
AcDbBlockTableRecord
  2
SW_NOTE_2
340
0
102
{BLKREFS
331
CD
102
}
  0
BLOCK_RECORD
  5
CF
330
1
100
AcDbSymbolTableRecord
100
AcDbBlockTableRecord
  2
SW_NOTE_3
340
0
102
{BLKREFS
331
D4
102
}
  0
BLOCK_RECORD
  5
D6
330
1
100
AcDbSymbolTableRecord
100
AcDbBlockTableRecord
  2
SW_NOTE_4
340
0
102
{BLKREFS
331
DC
102
}
  0
BLOCK_RECORD
  5
15D
330
1
100
AcDbSymbolTableRecord
100
AcDbBlockTableRecord
  2
_D
340
0
  0
BLOCK_RECORD
  5
1E6
330
1
100
AcDbSymbolTableRecord
100
AcDbBlockTableRecord
  2
_D_1
340
0
  0
BLOCK_RECORD
  5
1FC
330
1
100
AcDbSymbolTableRecord
100
AcDbBlockTableRecord
  2
SW_NOTE_5
340
0
102
{BLKREFS
331
201
102
}
  0
ENDTAB
  0
ENDSEC
  0
SECTION
  2
BLOCKS
  0
BLOCK
  5
20
330
1F
100
AcDbEntity
  8
0
100
AcDbBlockBegin
  2
*Model_Space
 70
     0
 10
0.0
 20
0.0
 30
0.0
  3
*Model_Space
  1
*Model_Space
  0
ENDBLK
  5
21
330
1F
100
AcDbEntity
  8
0
100
AcDbBlockEnd
  0
BLOCK
  5
1C
330
1B
100
AcDbEntity
 67
     1
  8
0
100
AcDbBlockBegin
  2
*Paper_Space
 70
     0
 10
0.0
 20
0.0
 30
0.0
  3
*Paper_Space
  1
*Paper_Space
  0
ENDBLK
  5
1D
330
1B
100
AcDbEntity
 67
     1
  8
0
100
AcDbBlockEnd
  0
BLOCK
  5
24
330
23
100
AcDbEntity
  8
0
100
AcDbBlockBegin
  2
*Paper_Space0
 70
     0
 10
0.0
 20
0.0
 30
0.0
  3
*Paper_Space0
  1
*Paper_Space0
  0
ENDBLK
  5
25
330
23
100
AcDbEntity
  8
0
100
AcDbBlockEnd
  0
BLOCK
  5
71
330
70
100
AcDbEntity
  8
0
100
AcDbBlockBegin
  2
Third Angle Projection Block
 70
     0
 10
0.0
 20
0.0
 30
0.0
  3
Third Angle Projection Block
  1
Third Angle Projection Block
  0
CIRCLE
  5
73
330
70
100
AcDbEntity
  8
0
  6
Continuous
 62
     7
370
    30
100
AcDbCircle
 10
101.4766388944
 20
18.9404083667
 30
0.0
 40
1.768227153674871
  0
CIRCLE
  5
74
330
70
100
AcDbEntity
  8
0
  6
Continuous
 62
     7
370
    30
100
AcDbCircle
 10
101.4766388944
 20
18.9404083667
 30
0.0
 40
3.901228248531818
  0
LINE
  5
75
330
70
100
AcDbEntity
  8
0
  6
CENTERX2
 62
     7
370
     0
100
AcDbLine
 10
110.1367822585
 20
18.9404083667
 30
0.0
 11
119.4527334874
 21
18.9404083667
 31
0.0
  0
LINE
  5
76
330
70
100
AcDbEntity
  8
0
  6
Continuous
 62
     7
370
    30
100
AcDbLine
 10
111.0016388944
 20
20.7086355204
 30
0.0
 11
111.0016388944
 21
17.172181213
 31
0.0
  0
LINE
  5
77
330
70
100
AcDbEntity
  8
0
  6
Continuous
 62
     7
370
    30
100
AcDbLine
 10
111.0016388944
 20
17.172181213
 30
0.0
 11
118.6216388944
 21
15.1304083667
 31
0.0
  0
LINE
  5
78
330
70
100
AcDbEntity
  8
0
  6
Continuous
 62
     7
370
    30
100
AcDbLine
 10
118.6216388944
 20
15.1304083667
 30
0.0
 11
118.6216388944
 21
22.7504083667
 31
0.0
  0
LINE
  5
79
330
70
100
AcDbEntity
  8
0
  6
Continuous
 62
     7
370
    30
100
AcDbLine
 10
118.6216388944
 20
22.7504083667
 30
0.0
 11
111.0016388944
 21
20.7086355204
 31
0.0
  0
LINE
  5
7A
330
70
100
AcDbEntity
  8
0
  6
CENTERX2
 62
     7
370
     0
100
AcDbLine
 10
96.6025854619
 20
18.9404083667
 30
0.0
 11
106.3506923269
 21
18.9404083667
 31
0.0
  0
LINE
  5
7B
330
70
100
AcDbEntity
  8
0
  6
CENTERX2
 62
     7
370
     0
100
AcDbLine
 10
101.4766388944
 20
23.8144617992
 30
0.0
 11
101.4766388944
 21
14.0663549342
 31
0.0
  0
POINT
  5
7C
330
70
100
AcDbEntity
  8
0
  6
Continuous
 62
     7
370
     0
100
AcDbPoint
 10
101.4766388944
 20
18.9404083667
 30
0.0
  0
ENDBLK
  5
72
330
70
100
AcDbEntity
  8
0
100
AcDbBlockEnd
  0
BLOCK
  5
97
330
96
100
AcDbEntity
  8
0
100
AcDbBlockBegin
  2
SW_NOTE_0
 70
     0
 10
0.0
 20
0.0
 30
0.0
  3
SW_NOTE_0
  1
SW_NOTE_0
  0
MTEXT
  5
9A
330
96
100
AcDbEntity
  8
0
  6
Continuous
 62
     0
370
     0
100
AcDbMText
 10
0.0
 20
3.4106583948
 30
0.0
 40
2.6458333333
 41
0.0
 71
     1
 72
     1
  1
NOTES/SPECIFICATIONS:
  7
SLDTEXTSTYLE0
 73
     1
 44
1.0
  0
MTEXT
  5
9C
330
96
100
AcDbEntity
  8
0
  6
Continuous
 62
     0
370
     0
100
AcDbMText
 10
9.9999997765
 20
-3.6448970755
 30
0.0
 40
2.6458333333
 41
0.0
 71
     1
 72
     1
  1
CLEAR APERTURE: \U+2265
  7
SLDTEXTSTYLE1
 73
     1
 44
1.0
  0
MTEXT
  5
9D
330
96
100
AcDbEntity
  8
0
  6
Continuous
 62
     0
370
     0
100
AcDbMText
 10
42.5780471414
 20
-3.6448970755
 30
0.0
 40
2.6458333333
 41
0.0
 71
     1
 72
     1
  1
%%c
  7
SLDTEXTSTYLE0
 73
     1
 44
1.0
  0
MTEXT
  5
9E
330
96
100
AcDbEntity
  8
0
  6
Continuous
 62
     0
370
     0
100
AcDbMText
 10
46.5717855841
 20
-3.6448970755
 30
0.0
 40
2.6458333333
 41
0.0
 71
     1
 72
     1
  1
45.72mm
  7
SLDTEXTSTYLE0
 73
     1
 44
1.0
  0
MTEXT
  5
9F
330
96
100
AcDbEntity
  8
0
  6
Continuous
 62
     0
370
     0
100
AcDbMText
 10
0.0
 20
-3.6448970755
 30
0.0
 40
2.6458333333
 41
0.0
 71
     1
 72
     1
  1
1.
  7
SLDTEXTSTYLE0
 73
     1
 44
1.0
  0
MTEXT
  5
A0
330
96
100
AcDbEntity
  8
0
  6
Continuous
 62
     0
370
     0
100
AcDbMText
 10
9.9999997765
 20
-7.1726748106
 30
0.0
 40
2.6458333333
 41
0.0
 71
     1
 72
     1
  1
SURFACE QUALITY: 40-20 SCRATCH-DIG
  7
SLDTEXTSTYLE0
 73
     1
 44
1.0
  0
MTEXT
  5
A1
330
96
100
AcDbEntity
  8
0
  6
Continuous
 62
     0
370
     0
100
AcDbMText
 10
0.0
 20
-7.1726748106
 30
0.0
 40
2.6458333333
 41
0.0
 71
     1
 72
     1
  1
2.
  7
SLDTEXTSTYLE0
 73
     1
 44
1.0
  0
MTEXT
  5
A2
330
96
100
AcDbEntity
  8
0
  6
Continuous
 62
     0
370
     0
100
AcDbMText
 10
9.9999997765
 20
-10.7004525458
 30
0.0
 40
2.6458333333
 41
0.0
 71
     1
 72
     1
  1
TRANSMITTED WAVEFRONT ERROR: <\M+183C9/4 AT 633nm
  7
SLDTEXTSTYLE1
 73
     1
 44
1.0
  0
MTEXT
  5
A3
330
96
100
AcDbEntity
  8
0
  6
Continuous
 62
     0
370
     0
100
AcDbMText
 10
0.0
 20
-10.7004525458
 30
0.0
 40
2.6458333333
 41
0.0
 71
     1
 72
     1
  1
3.
  7
SLDTEXTSTYLE0
 73
     1
 44
1.0
  0
MTEXT
  5
A4
330
96
100
AcDbEntity
  8
0
  6
Continuous
 62
     0
370
     0
100
AcDbMText
 10
9.9999997765
 20
-14.2282302809
 30
0.0
 40
2.6458333333
 41
0.0
 71
     1
 72
     1
  1
PARALLELISM: \U+22643 arcmin
  7
SLDTEXTSTYLE1
 73
     1
 44
1.0
  0
MTEXT
  5
A5
330
96
100
AcDbEntity
  8
0
  6
Continuous
 62
     0
370
     0
100
AcDbMText
 10
0.0
 20
-14.2282302809
 30
0.0
 40
2.6458333333
 41
0.0
 71
     1
 72
     1
  1
4.
  7
SLDTEXTSTYLE0
 73
     1
 44
1.0
  0
MTEXT
  5
A6
330
96
100
AcDbEntity
  8
0
  6
Continuous
 62
     0
370
     0
100
AcDbMText
 10
9.9999997765
 20
-17.7560080161
 30
0.0
 40
2.6458333333
 41
0.0
 71
     1
 72
     1
  1
FILTER COATING (S1)
  7
SLDTEXTSTYLE0
 73
     1
 44
1.0
  0
MTEXT
  5
A7
330
96
100
AcDbEntity
  8
0
  6
Continuous
 62
     0
370
     0
100
AcDbMText
 10
0.0
 20
-17.7560080161
 30
0.0
 40
2.6458333333
 41
0.0
 71
     1
 72
     1
  1
5.
  7
SLDTEXTSTYLE0
 73
     1
 44
1.0
  0
MTEXT
  5
A8
330
96
100
AcDbEntity
  8
0
  6
Continuous
 62
     0
370
     0
100
AcDbMText
 10
20.0
 20
-21.2837857512
 30
0.0
 40
2.6458333333
 41
0.0
 71
     1
 72
     1
  1
REFLECTION BAND (R): >95% AVERAGE, >90% ABSOLUTE 823-1300nm
  7
SLDTEXTSTYLE0
 73
     1
 44
1.0
  0
MTEXT
  5
A9
330
96
100
AcDbEntity
  8
0
  6
Continuous
 62
     0
370
     0
100
AcDbMText
 10
20.0
 20
-24.8115634863
 30
0.0
 40
2.6458333333
 41
0.0
 71
     1
 72
     1
  1
TRANSMISSION BAND (T): >90% AVERAGE, >85% ABSOLUTE 400-788nm
  7
SLDTEXTSTYLE0
 73
     1
 44
1.0
  0
MTEXT
  5
AA
330
96
100
AcDbEntity
  8
0
  6
Continuous
 62
     0
370
     0
100
AcDbMText
 10
20.0
 20
-28.3393412215
 30
0.0
 40
2.6458333333
 41
0.0
 71
     1
 72
     1
  1
45
  7
SLDTEXTSTYLE0
 73
     1
 44
1.0
  0
MTEXT
  5
AB
330
96
100
AcDbEntity
  8
0
  6
Continuous
 62
     0
370
     0
100
AcDbMText
 10
23.9099538699
 20
-28.3393412215
 30
0.0
 40
2.6458333333
 41
0.0
 71
     1
 72
     1
  1
%%d
  7
SLDTEXTSTYLE0
 73
     1
 44
1.0
  0
MTEXT
  5
AC
330
96
100
AcDbEntity
  8
0
  6
Continuous
 62
     0
370
     0
100
AcDbMText
 10
26.5837155245
 20
-28.3393412215
 30
0.0
 40
2.6458333333
 41
0.0
 71
     1
 72
     1
  1
AOI
  7
SLDTEXTSTYLE0
 73
     1
 44
1.0
  0
MTEXT
  5
AD
330
96
100
AcDbEntity
  8
0
  6
Continuous
 62
     0
370
     0
100
AcDbMText
 10
9.9999997765
 20
-31.8671189566
 30
0.0
 40
2.6458333333
 41
0.0
 71
     1
 72
     1
  1
AR COATING (S2)
  7
SLDTEXTSTYLE0
 73
     1
 44
1.0
  0
MTEXT
  5
AE
330
96
100
AcDbEntity
  8
0
  6
Continuous
 62
     0
370
     0
100
AcDbMText
 10
0.0
 20
-31.8671189566
 30
0.0
 40
2.6458333333
 41
0.0
 71
     1
 72
     1
  1
6.
  7
SLDTEXTSTYLE0
 73
     1
 44
1.0
  0
MTEXT
  5
AF
330
96
100
AcDbEntity
  8
0
  6
Continuous
 62
     0
370
     0
100
AcDbMText
 10
20.0
 20
-35.3948966918
 30
0.0
 40
2.6458333333
 41
0.0
 71
     1
 72
     1
  1
R: <2% ABSOLUTE 400-800nm, 45
  7
SLDTEXTSTYLE0
 73
     1
 44
1.0
  0
MTEXT
  5
B0
330
96
100
AcDbEntity
  8
0
  6
Continuous
 62
     0
370
     0
100
AcDbMText
 10
73.881905973
 20
-35.3948966918
 30
0.0
 40
2.6458333333
 41
0.0
 71
     1
 72
     1
  1
%%d
  7
SLDTEXTSTYLE0
 73
     1
 44
1.0
  0
MTEXT
  5
B1
330
96
100
AcDbEntity
  8
0
  6
Continuous
 62
     0
370
     0
100
AcDbMText
 10
76.5556671619
 20
-35.3948966918
 30
0.0
 40
2.6458333333
 41
0.0
 71
     1
 72
     1
  1
AOI
  7
SLDTEXTSTYLE0
 73
     1
 44
1.0
  0
ENDBLK
  5
98
330
96
100
AcDbEntity
  8
0
100
AcDbBlockEnd
  0
BLOCK
  5
C3
330
C2
100
AcDbEntity
  8
0
100
AcDbBlockBegin
  2
SW_NOTE_1
 70
     0
 10
0.0
 20
0.0
 30
0.0
  3
SW_NOTE_1
  1
SW_NOTE_1
  0
MTEXT
  5
C5
330
C2
100
AcDbEntity
  8
0
  6
Continuous
 62
     0
370
     0
100
AcDbMText
 10
19.90725
 20
1.9645392354
 30
0.0
 40
1.524
 41
0.0
 71
     2
 72
     1
  1
VALUES IN PARENTHESIS ARE CALCULATED
  7
SLDTEXTSTYLE0
 73
     1
 44
1.0
  0
MTEXT
  5
C6
330
C2
100
AcDbEntity
  8
0
  6
Continuous
 62
     0
370
     0
100
AcDbMText
 10
19.8778795174
 20
-0.5594606586
 30
0.0
 40
1.524
 41
0.0
 71
     2
 72
     1
  1
AND MAY CONTAIN ROUNDOFF ERRORS
  7
SLDTEXTSTYLE0
 73
     1
 44
1.0
  0
ENDBLK
  5
C4
330
C2
100
AcDbEntity
  8
0
100
AcDbBlockEnd
  0
BLOCK
  5
C9
330
C8
100
AcDbEntity
  8
0
100
AcDbBlockBegin
  2
SW_NOTE_2
 70
     0
 10
0.0
 20
0.0
 30
0.0
  3
SW_NOTE_2
  1
SW_NOTE_2
  0
MTEXT
  5
CB
330
C8
100
AcDbEntity
  8
0
  6
Continuous
 62
     0
370
     0
100
AcDbMText
 10
0.0
 20
2.7285267159
 30
0.0
 40
2.1166666667
 41
0.0
 71
     1
 72
     1
  1
DRAWING
  7
SLDTEXTSTYLE0
 73
     1
 44
1.0
  0
MTEXT
  5
CC
330
C8
100
AcDbEntity
  8
0
  6
Continuous
 62
     0
370
     0
100
AcDbMText
 10
0.0
 20
-0.0936954723
 30
0.0
 40
2.1166666667
 41
0.0
 71
     1
 72
     1
  1
PROJECTION
  7
SLDTEXTSTYLE0
 73
     1
 44
1.0
  0
ENDBLK
  5
CA
330
C8
100
AcDbEntity
  8
0
100
AcDbBlockEnd
  0
BLOCK
  5
D0
330
CF
100
AcDbEntity
  8
0
100
AcDbBlockBegin
  2
SW_NOTE_3
 70
     0
 10
0.0
 20
0.0
 30
0.0
  3
SW_NOTE_3
  1
SW_NOTE_3
  0
MTEXT
  5
D2
330
CF
100
AcDbEntity
  8
0
  6
Continuous
 62
     0
370
     0
100
AcDbMText
 10
25.052734375
 20
4.0927900738
 30
0.0
 40
3.175
 41
0.0
 71
     2
 72
     1
  1
FOR INFORMATION ONLY
  7
SLDTEXTSTYLE0
 73
     1
 44
1.0
  0
MTEXT
  5
D3
330
CF
100
AcDbEntity
  8
0
  6
Continuous
 62
     0
370
     0
100
AcDbMText
 10
25.3768468589
 20
-0.1405432084
 30
0.0
 40
3.175
 41
0.0
 71
     2
 72
     1
  1
NOT FOR MANUFACTURING PURPOSES
  7
SLDTEXTSTYLE0
 73
     1
 44
1.0
  0
ENDBLK
  5
D1
330
CF
100
AcDbEntity
  8
0
100
AcDbBlockEnd
  0
BLOCK
  5
D7
330
D6
100
AcDbEntity
  8
0
100
AcDbBlockBegin
  2
SW_NOTE_4
 70
     0
 10
0.0
 20
0.0
 30
0.0
  3
SW_NOTE_4
  1
SW_NOTE_4
  0
MTEXT
  5
D9
330
D6
100
AcDbEntity
  8
0
  6
Continuous
 62
     0
370
     0
100
AcDbMText
 10
1.9016927083
 20
3.4106583948
 30
0.0
 40
2.6458333333
 41
0.0
 71
     2
 72
     1
  1
%%c
  7
SLDTEXTSTYLE0
 73
     1
 44
1.0
  0
MTEXT
  5
DA
330
D6
100
AcDbEntity
  8
0
  6
Continuous
 62
     0
370
     0
100
AcDbMText
 10
27.3514858385
 20
3.4106583948
 30
0.0
 40
2.6458333333
 41
0.0
 71
     2
 72
     1
  1
50.8mm DICHROIC MIRROR,
  7
SLDTEXTSTYLE0
 73
     1
 44
1.0
  0
MTEXT
  5
DB
330
D6
100
AcDbEntity
  8
0
  6
Continuous
 62
     0
370
     0
100
AcDbMText
 10
25.8758270542
 20
-0.1171193403
 30
0.0
 40
2.6458333333
 41
0.0
 71
     2
 72
     1
  1
SHORTPASS, 805nm
  7
SLDTEXTSTYLE0
 73
     1
 44
1.0
  0
ENDBLK
  5
D8
330
D6
100
AcDbEntity
  8
0
100
AcDbBlockEnd
  0
BLOCK
  5
15E
330
15D
100
AcDbEntity
  8
0
100
AcDbBlockBegin
  2
_D
 70
     0
 10
0.0
 20
0.0
 30
0.0
  3
_D
  1
_D
  0
SOLID
  5
160
330
15D
100
AcDbEntity
  8
0
  6
Continuous
 62
     7
370
     0
100
AcDbTrace
 10
103.2841325944
 20
128.8384711462
 30
0.0
 11
105.8884068695
 21
130.7243249317
 31
0.0
 12
105.1699863798
 22
131.4427454214
 32
0.0
 13
105.1699863798
 23
131.4427454214
 33
0.0
  0
LINE
  5
161
330
15D
100
AcDbEntity
  8
0
  6
Continuous
 62
     7
370
     0
100
AcDbLine
 10
125.284743039
 20
144.707708826
 30
0.0
 11
124.8555300793
 21
144.707708826
 31
0.0
  0
LINE
  5
162
330
15D
100
AcDbEntity
  8
0
  6
Continuous
 62
     7
370
     0
100
AcDbLine
 10
124.8555300793
 20
144.707708826
 30
0.0
 11
124.8555300793
 21
141.3445607495
 31
0.0
  0
LINE
  5
163
330
15D
100
AcDbEntity
  8
0
  6
Continuous
 62
     7
370
     0
100
AcDbLine
 10
124.8555300793
 20
141.3445607495
 30
0.0
 11
125.284743039
 21
141.3445607495
 31
0.0
  0
LINE
  5
164
330
15D
100
AcDbEntity
  8
0
  6
Continuous
 62
     7
370
     0
100
AcDbLine
 10
134.1149670282
 20
144.707708826
 30
0.0
 11
134.544179988
 21
144.707708826
 31
0.0
  0
LINE
  5
165
330
15D
100
AcDbEntity
  8
0
  6
Continuous
 62
     7
370
     0
100
AcDbLine
 10
134.544179988
 20
144.707708826
 30
0.0
 11
134.544179988
 21
141.3445607495
 31
0.0
  0
LINE
  5
166
330
15D
100
AcDbEntity
  8
0
  6
Continuous
 62
     7
370
     0
100
AcDbLine
 10
134.544179988
 20
141.3445607495
 30
0.0
 11
134.1149670282
 21
141.3445607495
 31
0.0
  0
LINE
  5
167
330
15D
100
AcDbEntity
  8
0
  6
Continuous
 62
     7
370
     0
100
AcDbLine
 10
103.2841325944
 20
128.8384711462
 30
0.0
 11
120.7236203523
 21
146.2779589041
 31
0.0
  0
LINE
  5
168
330
15D
100
AcDbEntity
  8
0
  6
Continuous
 62
     7
370
     0
100
AcDbLine
 10
120.7236203523
 20
146.2779589041
 30
0.0
 11
124.5336203523
 21
146.2779589041
 31
0.0
  0
MTEXT
  5
169
330
15D
100
AcDbEntity
  8
0
  6
Continuous
 62
     7
370
     0
100
AcDbMText
 10
124.5336203523
 20
147.8654484724
 30
0.0
 40
2.1166666667
 41
0.0
 71
     1
 72
     1
  1
%%c
  7
SLDTEXTSTYLE0
 73
     1
 44
1.0
  0
MTEXT
  5
16A
330
15D
100
AcDbEntity
  8
0
  6
Continuous
 62
     7
370
     0
100
AcDbMText
 10
127.7286111529
 20
147.8654484724
 30
0.0
 40
2.1166666667
 41
0.0
 71
     1
 72
     1
  1
50.8mm
  7
SLDTEXTSTYLE0
 73
     1
 44
1.0
  0
MTEXT
  5
16B
330
15D
100
AcDbEntity
  8
0
  6
Continuous
 62
     7
370
     0
100
AcDbMText
 10
125.8212592605
 20
144.0730873489
 30
0.0
 40
2.1166666667
 41
0.0
 71
     1
 72
     1
  1
2.00in
  7
SLDTEXTSTYLE0
 73
     1
 44
1.0
  0
ENDBLK
  5
15F
330
15D
100
AcDbEntity
  8
0
100
AcDbBlockEnd
  0
BLOCK
  5
1E7
330
1E6
100
AcDbEntity
  8
0
100
AcDbBlockBegin
  2
_D_1
 70
     0
 10
0.0
 20
0.0
 30
0.0
  3
_D_1
  1
_D_1
  0
SOLID
  5
1E9
330
1E6
100
AcDbEntity
  8
0
  6
Continuous
 62
     7
370
     0
100
AcDbTrace
 10
176.2394520548
 20
75.4779589041
 30
0.0
 11
173.0644520548
 21
75.9859589041
 31
0.0
 12
173.0644520548
 22
74.9699589041
 32
0.0
 13
173.0644520548
 23
74.9699589041
 33
0.0
  0
SOLID
  5
1EA
330
1E6
100
AcDbEntity
  8
0
  6
Continuous
 62
     7
370
     0
100
AcDbTrace
 10
181.2394520548
 20
75.4779589041
 30
0.0
 11
184.4144520548
 21
74.9699589041
 31
0.0
 12
184.4144520548
 22
75.9859589041
 32
0.0
 13
184.4144520548
 23
75.9859589041
 33
0.0
  0
LINE
  5
1EB
330
1E6
100
AcDbEntity
  8
0
  6
Continuous
 62
     7
370
     0
100
AcDbLine
 10
158.7480432088
 20
75.4779586713
 30
0.0
 11
158.3188302491
 21
75.4779586713
 31
0.0
  0
LINE
  5
1EC
330
1E6
100
AcDbEntity
  8
0
  6
Continuous
 62
     7
370
     0
100
AcDbLine
 10
158.3188302491
 20
75.4779586713
 30
0.0
 11
158.3188302491
 21
72.1148105948
 31
0.0
  0
LINE
  5
1ED
330
1E6
100
AcDbEntity
  8
0
  6
Continuous
 62
     7
370
     0
100
AcDbLine
 10
158.3188302491
 20
72.1148105948
 30
0.0
 11
158.7480432088
 21
72.1148105948
 31
0.0
  0
LINE
  5
1EE
330
1E6
100
AcDbEntity
  8
0
  6
Continuous
 62
     7
370
     0
100
AcDbLine
 10
167.578267198
 20
75.4779586713
 30
0.0
 11
168.0074801577
 21
75.4779586713
 31
0.0
  0
LINE
  5
1EF
330
1E6
100
AcDbEntity
  8
0
  6
Continuous
 62
     7
370
     0
100
AcDbLine
 10
168.0074801577
 20
75.4779586713
 30
0.0
 11
168.0074801577
 21
72.1148105948
 31
0.0
  0
LINE
  5
1F0
330
1E6
100
AcDbEntity
  8
0
  6
Continuous
 62
     7
370
     0
100
AcDbLine
 10
168.0074801577
 20
72.1148105948
 30
0.0
 11
167.578267198
 21
72.1148105948
 31
0.0
  0
LINE
  5
1F1
330
1E6
100
AcDbEntity
  8
0
  6
Continuous
 62
     7
370
     0
100
AcDbLine
 10
176.2394520548
 20
84.5079589041
 30
0.0
 11
176.2394520548
 21
73.6999589041
 31
0.0
  0
LINE
  5
1F2
330
1E6
100
AcDbEntity
  8
0
  6
Continuous
 62
     7
370
     0
100
AcDbLine
 10
181.2394520548
 20
84.5079589041
 30
0.0
 11
181.2394520548
 21
73.6999589041
 31
0.0
  0
LINE
  5
1F3
330
1E6
100
AcDbEntity
  8
0
  6
Continuous
 62
     7
370
     0
100
AcDbLine
 10
176.2394520548
 20
75.4779589041
 30
0.0
 11
170.3185610082
 21
75.4779589041
 31
0.0
  0
LINE
  5
1F4
330
1E6
100
AcDbEntity
  8
0
  6
Continuous
 62
     7
370
     0
100
AcDbLine
 10
181.2394520548
 20
75.4779589041
 30
0.0
 11
187.5894520548
 21
75.4779589041
 31
0.0
  0
MTEXT
  5
1F5
330
1E6
100
AcDbEntity
  8
0
  6
Continuous
 62
     7
370
     0
100
AcDbMText
 10
158.0243588176
 20
78.6356983177
 30
0.0
 40
2.1166666667
 41
0.0
 71
     1
 72
     1
  1

  7
SLDTEXTSTYLE0
 73
     1
 44
1.0
  0
MTEXT
  5
1F6
330
1E6
100
AcDbEntity
  8
0
  6
Continuous
 62
     7
370
     0
100
AcDbMText
 10
158.5633248348
 20
78.6356983177
 30
0.0
 40
2.1166666667
 41
0.0
 71
     1
 72
     1
  1
5.0mm
  7
SLDTEXTSTYLE0
 73
     1
 44
1.0
  0
MTEXT
  5
1F7
330
1E6
100
AcDbEntity
  8
0
  6
Continuous
 62
     7
370
     0
100
AcDbMText
 10
159.2845594303
 20
74.8433371943
 30
0.0
 40
2.1166666667
 41
0.0
 71
     1
 72
     1
  1
0.20in
  7
SLDTEXTSTYLE0
 73
     1
 44
1.0
  0
MTEXT
  5
1F8
330
1E6
100
AcDbEntity
  8
0
  6
Continuous
 62
     7
370
     0
100
AcDbMText
 10
169.9168898848
 20
78.6356983177
 30
0.0
 40
2.1166666667
 41
0.0
 71
     1
 72
     1
  1

  7
SLDTEXTSTYLE0
 73
     1
 44
1.0
  0
ENDBLK
  5
1E8
330
1E6
100
AcDbEntity
  8
0
100
AcDbBlockEnd
  0
BLOCK
  5
1FD
330
1FC
100
AcDbEntity
  8
0
100
AcDbBlockBegin
  2
SW_NOTE_5
 70
     0
 10
0.0
 20
0.0
 30
0.0
  3
SW_NOTE_5
  1
SW_NOTE_5
  0
MTEXT
  5
1FF
330
1FC
100
AcDbEntity
  8
0
  6
Continuous
 62
     0
370
     0
100
AcDbMText
 10
0.6079044289
 20
0.9928175084
 30
0.0
 40
2.1166666667
 41
0.0
 71
     1
 72
     1
  1
S2, INDICATED BY
  7
SLDTEXTSTYLE0
 73
     1
 44
1.0
  0
MTEXT
  5
200
330
1FC
100
AcDbEntity
  8
0
  6
Continuous
 62
     0
370
     0
100
AcDbMText
 10
0.6079044289
 20
-1.8294046797
 30
0.0
 40
2.1166666667
 41
0.0
 71
     1
 72
     1
  1
ENGRAVED ARROW
  7
SLDTEXTSTYLE0
 73
     1
 44
1.0
  0
ENDBLK
  5
1FE
330
1FC
100
AcDbEntity
  8
0
100
AcDbBlockEnd
  0
ENDSEC
  0
SECTION
  2
ENTITIES
  0
LINE
  5
7D
330
1F
100
AcDbEntity
  8
0
  6
Continuous
 62
     7
370
     0
100
AcDbLine
 10
1.5793501011
 20
214.6453799966
 30
0.0
 11
277.9892068491
 21
214.6453799966
 31
0.0
  0
LINE
  5
7E
330
1F
100
AcDbEntity
  8
0
  6
Continuous
 62
     7
370
     0
100
AcDbLine
 10
1.5793501011
 20
214.6453799966
 30
0.0
 11
1.5793501011
 21
0.9031642596
 31
0.0
  0
LINE
  5
7F
330
1F
100
AcDbEntity
  8
0
  6
Continuous
 62
     7
370
     0
100
AcDbLine
 10
277.9892068491
 20
0.9031642596
 30
0.0
 11
1.5793501011
 21
0.9031642596
 31
0.0
  0
LINE
  5
80
330
1F
100
AcDbEntity
  8
0
  6
Continuous
 62
     7
370
     0
100
AcDbLine
 10
277.9892068491
 20
0.9031642596
 30
0.0
 11
277.9892068491
 21
214.6453799966
 31
0.0
  0
LINE
  5
81
330
1F
100
AcDbEntity
  8
0
  6
Continuous
 62
     7
370
     0
100
AcDbLine
 10
215.7427640041
 20
12.2958890132
 30
0.0
 11
171.6327596684
 21
12.2958890132
 31
0.0
  0
LINE
  5
82
330
1F
100
AcDbEntity
  8
0
  6
Continuous
 62
     7
370
     0
100
AcDbLine
 10
171.6327596684
 20
12.2958890132
 30
0.0
 11
171.6327596684
 21
26.1661402506
 31
0.0
  0
LINE
  5
83
330
1F
100
AcDbEntity
  8
0
  6
Continuous
 62
     7
370
     0
100
AcDbLine
 10
171.6327596684
 20
0.9031642596
 30
0.0
 11
171.6327596684
 21
26.1661402506
 31
0.0
  0
LINE
  5
84
330
1F
100
AcDbEntity
  8
0
  6
Continuous
 62
     7
370
     0
100
AcDbLine
 10
215.7427640041
 20
17.1604579552
 30
0.0
 11
277.9892068491
 21
17.1604579552
 31
0.0
  0
LINE
  5
85
330
1F
100
AcDbEntity
  8
0
  6
Continuous
 62
     7
370
     0
100
AcDbLine
 10
215.7427640041
 20
35.2394508358
 30
0.0
 11
215.7427640041
 21
0.9031642596
 31
0.0
  0
LINE
  5
86
330
1F
100
AcDbEntity
  8
0
  6
Continuous
 62
     7
370
     0
100
AcDbLine
 10
215.7427640041
 20
26.1661402506
 30
0.0
 11
171.6327596684
 21
26.1661402506
 31
0.0
  0
LINE
  5
87
330
1F
100
AcDbEntity
  8
0
  6
Continuous
 62
     7
370
     0
100
AcDbLine
 10
215.7427640041
 20
9.1409200612
 30
0.0
 11
277.9892068491
 21
9.1409200612
 31
0.0
  0
LINE
  5
88
330
1F
100
AcDbEntity
  8
0
  6
Continuous
 62
     7
370
     0
100
AcDbLine
 10
215.7427640041
 20
16.9216824031
 30
0.0
 11
171.6327596684
 21
16.9216824031
 31
0.0
  0
LINE
  5
89
330
1F
100
AcDbEntity
  8
0
  6
Continuous
 62
     7
370
     0
100
AcDbLine
 10
215.7427640041
 20
21.4874005542
 30
0.0
 11
171.6327596684
 21
21.4874005542
 31
0.0
  0
LINE
  5
8A
330
1F
100
AcDbEntity
  8
0
  6
Continuous
 62
     7
370
     0
100
AcDbLine
 10
186.1338100705
 20
26.1661402506
 30
0.0
 11
186.1338100705
 21
12.2958890132
 31
0.0
  0
LINE
  5
8B
330
1F
100
AcDbEntity
  8
0
  6
Continuous
 62
     7
370
     0
100
AcDbLine
 10
198.2145906188
 20
26.1661402506
 30
0.0
 11
198.2145906188
 21
12.2958890132
 31
0.0
  0
LINE
  5
8C
330
1F
100
AcDbEntity
  8
0
  6
Continuous
 62
     7
370
     0
100
AcDbLine
 10
253.7490408369
 20
9.1409200612
 30
0.0
 11
253.7490408369
 21
0.9031642596
 31
0.0
  0
LINE
  5
8D
330
1F
100
AcDbEntity
  8
0
  6
Continuous
 62
     7
370
     0
100
AcDbLine
 10
171.6327596684
 20
12.2958890132
 30
0.0
 11
171.6327596684
 21
7.5627342528
 31
0.0
  0
LINE
  5
8E
330
1F
100
AcDbEntity
  8
0
  6
Continuous
 62
     7
370
     0
100
AcDbLine
 10
171.6327596684
 20
7.5627342528
 30
0.0
 11
215.7427640041
 21
7.5627342528
 31
0.0
  0
LINE
  5
8F
330
1F
100
AcDbEntity
  8
0
  6
Continuous
 62
     7
370
     0
100
AcDbLine
 10
171.6327596684
 20
7.5627342528
 30
0.0
 11
171.6327596684
 21
35.2394508358
 31
0.0
  0
LINE
  5
90
330
1F
100
AcDbEntity
  8
0
  6
Continuous
 62
     7
370
     0
100
AcDbLine
 10
171.6327596684
 20
35.2394508358
 30
0.0
 11
215.7427640041
 21
35.2394508358
 31
0.0
  0
LINE
  5
91
330
1F
100
AcDbEntity
  8
0
  6
Continuous
 62
     7
370
     0
100
AcDbLine
 10
270.1683598194
 20
17.1604579552
 30
0.0
 11
270.1683598194
 21
9.1409200612
 31
0.0
  0
LINE
  5
92
330
1F
100
AcDbEntity
  8
0
  6
Continuous
 62
     7
370
     0
100
AcDbLine
 10
215.7427640041
 20
35.2394508358
 30
0.0
 11
277.9892068491
 21
35.2394508358
 31
0.0
  0
LINE
  5
93
330
1F
100
AcDbEntity
  8
0
  6
Continuous
 62
     7
370
     0
100
AcDbLine
 10
277.9892068491
 20
35.2394508358
 30
0.0
 11
277.9892068491
 21
50.0331356147
 31
0.0
  0
LINE
  5
94
330
1F
100
AcDbEntity
  8
0
  6
Continuous
 62
     7
370
     0
100
AcDbLine
 10
215.7427640041
 20
24.8927335446
 30
0.0
 11
277.9892068491
 21
24.8927335446
 31
0.0
  0
INSERT
  5
95
330
1F
100
AcDbEntity
  8
0
  6
Continuous
 62
     7
100
AcDbBlockReference
  2
Third Angle Projection Block
 10
117.7262204235
 20
15.5162339489
 30
0.0
 41
0.8
 42
0.8
 43
0.8
  0
INSERT
  5
B2
330
1F
100
AcDbEntity
  8
0
  6
Continuous
 62
     7
370
     0
100
AcDbBlockReference
  2
SW_NOTE_0
 10
7.8242281509
 20
61.8182203667
 30
0.0
  0
MTEXT
  5
B3
330
1F
100
AcDbEntity
  8
0
  6
Continuous
 62
     7
370
     0
100
AcDbMText
 10
273.8841058072
 20
13.1125292762
 30
0.0
 40
3.175
 41
0.0
 71
     2
 72
     1
  1
G
  7
SLDTEXTSTYLE0
 73
     1
 44
1.0
  0
MTEXT
  5
B4
330
1F
100
AcDbEntity
  8
0
  6
Continuous
 62
     7
370
     0
100
AcDbMText
 10
234.5594523571
 20
5.1306563898
 30
0.0
 40
3.175
 41
0.0
 71
     2
 72
     1
  1
DMSP805L
  7
SLDTEXTSTYLE0
 73
     1
 44
1.0
  0
MTEXT
  5
B5
330
1F
100
AcDbEntity
  8
0
  6
Continuous
 62
     7
370
     0
100
AcDbMText
 10
216.4199766059
 20
16.8243178599
 30
0.0
 40
2.1166666667
 41
0.0
 71
     1
 72
     1
  1
MATERIAL
  7
SLDTEXTSTYLE0
 73
     1
 44
1.0
  0
MTEXT
  5
B6
330
1F
100
AcDbEntity
  8
0
  6
Continuous
 62
     7
370
     0
100
AcDbMText
 10
174.230946566
 20
20.054553926
 30
0.0
 40
1.8520833333
 41
0.0
 71
     1
 72
     1
  1
DRAWN
  7
SLDTEXTSTYLE0
 73
     1
 44
1.0
  0
MTEXT
  5
B7
330
1F
100
AcDbEntity
  8
0
  6
Continuous
 62
     7
370
     0
100
AcDbMText
 10
172.3960124543
 20
15.5787169747
 30
0.0
 40
1.8520833333
 41
0.0
 71
     1
 72
     1
  1
APPROVAL
  7
SLDTEXTSTYLE0
 73
     1
 44
1.0
  0
MTEXT
  5
B8
330
1F
100
AcDbEntity
  8
0
  6
Continuous
 62
     7
370
     0
100
AcDbMText
 10
271.321689486
 20
16.0237652193
 30
0.0
 40
2.1166666667
 41
0.0
 71
     1
 72
     1
  1
REV
  7
SLDTEXTSTYLE0
 73
     1
 44
1.0
  0
MTEXT
  5
B9
330
1F
100
AcDbEntity
  8
0
  6
Continuous
 62
     7
370
     0
100
AcDbMText
 10
190.2958696448
 20
20.3177146903
 30
0.0
 40
2.1166666667
 41
0.0
 71
     1
 72
     1
  1
TW
  7
SLDTEXTSTYLE0
 73
     1
 44
1.0
  0
MTEXT
  5
BA
330
1F
100
AcDbEntity
  8
0
  6
Continuous
 62
     7
370
     0
100
AcDbMText
 10
190.2958696448
 20
15.841877739
 30
0.0
 40
2.1166666667
 41
0.0
 71
     1
 72
     1
  1
MI
  7
SLDTEXTSTYLE0
 73
     1
 44
1.0
  0
MTEXT
  5
BB
330
1F
100
AcDbEntity
  8
0
  6
Continuous
 62
     7
370
     0
100
AcDbMText
 10
199.8662436873
 20
20.3177146903
 30
0.0
 40
2.1166666667
 41
0.0
 71
     1
 72
     1
  1
17/OCT/11
  7
SLDTEXTSTYLE0
 73
     1
 44
1.0
  0
MTEXT
  5
BC
330
1F
100
AcDbEntity
  8
0
  6
Continuous
 62
     7
370
     0
100
AcDbMText
 10
203.6145073853
 20
24.8221395769
 30
0.0
 40
2.1166666667
 41
0.0
 71
     1
 72
     1
  1
DATE
  7
SLDTEXTSTYLE0
 73
     1
 44
1.0
  0
MTEXT
  5
BD
330
1F
100
AcDbEntity
  8
0
  6
Continuous
 62
     7
370
     0
100
AcDbMText
 10
199.8662436873
 20
15.841877739
 30
0.0
 40
2.1166666667
 41
0.0
 71
     1
 72
     1
  1
19/JAN/15
  7
SLDTEXTSTYLE0
 73
     1
 44
1.0
  0
MTEXT
  5
BF
330
1F
100
AcDbEntity
  8
0
  6
Continuous
 62
     7
370
     0
100
AcDbMText
 10
229.402906477
 20
27.7957480569
 30
0.0
 40
2.1166666667
 41
0.0
 71
     1
 72
     1
  1
w w w . t h o r  l a b s . c o m
  7
SLDTEXTSTYLE2
 73
     1
 44
1.0
  0
MTEXT
  5
C0
330
1F
100
AcDbEntity
  8
0
  6
Continuous
 62
     7
370
     0
100
AcDbMText
 10
216.7004035316
 20
8.3494791871
 30
0.0
 40
2.1166666667
 41
0.0
 71
     1
 72
     1
  1
ITEM #
  7
SLDTEXTSTYLE0
 73
     1
 44
1.0
  0
MTEXT
  5
C1
330
1F
100
AcDbEntity
  8
0
  6
Continuous
 62
     7
370
     0
100
AcDbMText
 10
266.1678480997
 20
5.1306563898
 30
0.0
 40
3.175
 41
0.0
 71
     2
 72
     1
  1
0.12 kg
  7
SLDTEXTSTYLE0
 73
     1
 44
1.0
  0
INSERT
  5
C7
330
1F
100
AcDbEntity
  8
0
  6
Continuous
 62
     7
370
     0
100
AcDbBlockReference
  2
SW_NOTE_1
 10
174.8430140051
 20
4.4558554801
 30
0.0
  0
INSERT
  5
CD
330
1F
100
AcDbEntity
  8
0
  6
Continuous
 62
     7
370
     0
100
AcDbBlockReference
  2
SW_NOTE_2
 10
174.5483650337
 20
30.4835322715
 30
0.0
  0
MTEXT
  5
CE
330
1F
100
AcDbEntity
  8
0
  6
Continuous
 62
     7
370
     0
100
AcDbMText
 10
187.9273588276
 20
24.8221395769
 30
0.0
 40
2.1166666667
 41
0.0
 71
     1
 72
     1
  1
NAME
  7
SLDTEXTSTYLE0
 73
     1
 44
1.0
  0
INSERT
  5
D4
330
1F
100
AcDbEntity
  8
0
  6
Continuous
 62
     7
370
     0
100
AcDbBlockReference
  2
SW_NOTE_3
 10
58.6204667508
 20
8.1776609732
 30
0.0
  0
MTEXT
  5
D5
330
1F
100
AcDbEntity
  8
0
  6
Continuous
 62
     7
370
     0
100
AcDbMText
 10
179.1174811218
 20
10.6680638482
 30
0.0
 40
1.5875
 41
0.0
 71
     1
 72
     1
  1
COPYRIGHT © 2015 BY THORLABS
  7
SLDTEXTSTYLE0
 73
     1
 44
1.0
  0
INSERT
  5
DC
330
1F
100
AcDbEntity
  8
0
  6
Continuous
 62
     7
370
     0
100
AcDbBlockReference
  2
SW_NOTE_4
 10
220.9702853407
 20
20.9611555011
 30
0.0
  0
MTEXT
  5
DD
330
1F
100
AcDbEntity
  8
0
  6
Continuous
 62
     7
370
     0
100
AcDbMText
 10
254.5318000914
 20
8.3494791871
 30
0.0
 40
2.1166666667
 41
0.0
 71
     1
 72
     1
  1
APPROX WEIGHT
  7
SLDTEXTSTYLE0
 73
     1
 44
1.0
  0
MTEXT
  5
DE
330
1F
100
AcDbEntity
  8
0
  6
Continuous
 62
     7
370
     0
100
AcDbMText
 10
242.9471389622
 20
13.2188100831
 30
0.0
 40
3.175
 41
0.0
 71
     2
 72
     1
  1
UV GRADE FUSED SILICA
  7
SLDTEXTSTYLE0
 73
     1
 44
1.0
  0
LINE
  5
DF
330
1F
100
AcDbEntity
  8
0
  6
Continuous
 62
     7
370
     0
100
AcDbLine
 10
216.2422348533
 20
187.2814203967
 30
0.0
 11
216.2422348533
 21
187.0364979632
 31
0.0
  0
LINE
  5
E0
330
1F
100
AcDbEntity
  8
0
  6
Continuous
 62
     7
370
     0
100
AcDbLine
 10
233.9877304502
 20
156.2970673026
 30
0.0
 11
234.1998280071
 21
156.1745861825
 31
0.0
  0
LINE
  5
E1
330
1F
100
AcDbEntity
  8
0
  6
Continuous
 62
     7
370
     0
100
AcDbLine
 10
246.9017149999
 20
154.9153962721
 30
0.0
 11
250.0129848372
 21
156.7114941181
 31
0.0
  0
LINE
  5
E2
330
1F
100
AcDbEntity
  8
0
  6
Continuous
 62
     7
370
     0
100
AcDbLine
 10
224.6150490282
 20
200.7067763271
 30
0.0
 11
221.503779191
 21
198.9106784811
 31
0.0
  0
LINE
  5
E3
330
1F
100
AcDbEntity
  8
0
  6
Continuous
 62
     7
370
     0
100
AcDbLine
 10
255.2745291748
 20
168.3407522024
 30
0.0
 11
255.2745291748
 21
168.585674636
 31
0.0
  0
LINE
  5
E4
330
1F
100
AcDbEntity
  8
0
  6
Continuous
 62
     7
370
     0
100
AcDbLine
 10
237.529033578
 20
199.3251052966
 30
0.0
 11
237.316936021
 21
199.4475864167
 31
0.0
  0
LWPOLYLINE
  5
E5
330
1F
100
AcDbEntity
  8
0
  6
Continuous
 62
     7
370
     0
100
AcDbPolyline
 90
      170
 70
   128
 43
0.0
 10
251.7389952689
 20
166.5446543564
 10
251.7267303401
 20
167.3135413411
 10
251.6899525051
 20
168.0955264402
 10
251.6287125941
 20
168.8895288799
 10
251.5430952462
 20
169.6944512774
 10
251.4332187922
 20
170.5091811577
 10
251.2992350913
 20
171.3325924907
 10
251.141329321
 20
172.163547248
 10
250.9597197213
 20
173.0008969753
 10
250.754657293
 20
173.84348438
 10
250.5264254508
 20
174.6901449306
 10
250.2753396316
 20
175.5397084661
 10
250.0017468586
 20
176.3910008132
 10
249.7060252617
 20
177.2428454093
 10
249.3885835546
 20
178.0940649287
 10
249.0498604704
 20
178.9434829094
 10
248.6903241548
 20
179.7899253793
 10
248.3104715193
 20
180.6322224789
 10
247.9108275545
 20
181.4692100779
 10
247.4919446042
 20
182.299731384
 10
247.0544016023
 20
183.1226385422
 10
246.5988032727
 20
183.9367942207
 10
246.1257792931
 20
184.7410731832
 10
245.6359834253
 20
185.5343638439
 10
245.1300926112
 20
186.3155698038
 10
244.6088060373
 20
187.0836113658
 10
244.0728441687
 20
187.8374270276
 10
243.5229477528
 20
188.5759749481
 10
242.9598767959
 20
189.2982343876
 10
242.3844095128
 20
190.0032071187
 10
241.7973412508
 20
190.6899188056
 10
241.1994833912
 20
191.3574203511
 10
240.5916622274
 20
192.0047892079
 10
239.9747178227
 20
192.6311306542
 10
239.3495028499
 20
193.2355790296
 10
238.7168814122
 20
193.8172989323
 10
238.0777278495
 20
194.3754863729
 10
237.4329255293
 20
194.9093698862
 10
236.7833656265
 20
195.4182115973
 10
236.1299458913
 20
195.901308241
 10
235.4735694085
 20
196.3579921345
 10
234.8151433494
 20
196.7876320994
 10
234.1555777181
 20
197.1896343348
 10
233.4957840935
 20
197.5634432373
 10
232.8366743699
 20
197.9085421696
 10
232.179159496
 20
198.2244541737
 10
231.5241482167
 20
198.5107426309
 10
230.8725458163
 20
198.7670118648
 10
230.225252868
 20
198.9929076884
 10
229.5831639889
 20
199.1881178931
 10
228.9471666035
 20
199.3523726811
 10
228.3181397174
 20
199.4854450374
 10
227.6969527023
 20
199.587151044
 10
227.0844640946
 20
199.657350134
 10
226.4815204086
 20
199.6959452862
 10
225.8889549667
 20
199.7028831583
 10
225.3075867475
 20
199.6781541618
 10
224.7382192544
 20
199.6217924743
 10
224.1816394042
 20
199.5338759927
 10
223.6386164405
 20
199.4145262255
 10
223.1099008699
 20
199.2639081248
 10
222.5962234247
 20
199.0822298584
 10
222.0982940534
 20
198.8697425219
 10
221.6168009392
 20
198.6267397921
 10
221.1524095488
 20
198.3535575204
 10
220.705761713
 20
198.0505732694
 10
220.2774747391
 20
197.7182057906
 10
219.8681405583
 20
197.3569144457
 10
219.4783249073
 20
196.9671985717
 10
219.1085665464
 20
196.5495967912
 10
218.7593765147
 20
196.1046862674
 10
218.4312374245
 20
195.6330819065
 10
218.1246027933
 20
195.1354355082
 10
217.8398964179
 20
194.6124348646
 10
217.577511788
 20
194.0648028096
 10
217.3378115428
 20
193.49329622
 10
217.1211269696
 20
192.8987049692
 10
216.9277575459
 20
192.2818508358
 10
216.7579705258
 20
191.6435863678
 10
216.6120005701
 20
190.984793704
 10
216.4900494224
 20
190.3063833551
 10
216.3922856302
 20
189.6092929452
 10
216.3188443118
 20
188.894485916
 10
216.2698269698
 20
188.1629501951
 10
216.2453013504
 20
187.4156968305
 10
216.2453013504
 20
186.6537585937
 10
216.2698269698
 20
185.8781885518
 10
216.3188443118
 20
185.0900586123
 10
216.3922856302
 20
184.2904580418
 10
216.4900494224
 20
183.4804919601
 10
216.6120005701
 20
182.6612798131
 10
216.7579705258
 20
181.8339538257
 10
216.9277575459
 20
180.9996574369
 10
217.1211269696
 20
180.1595437193
 10
217.3378115428
 20
179.3147737855
 10
217.577511788
 20
178.4665151836
 10
217.8398964179
 20
177.6159402832
 10
218.1246027933
 20
176.7642246555
 10
218.4312374245
 20
175.9125454478
 10
218.7593765147
 20
175.0620797576
 10
219.1085665464
 20
174.2140030048
 10
219.4783249073
 20
173.3694873079
 10
219.8681405583
 20
172.5296998633
 10
220.2774747391
 20
171.695801333
 10
220.705761713
 20
170.8689442397
 10
221.1524095488
 20
170.0502713742
 10
221.6168009392
 20
169.240914216
 10
222.0982940534
 20
168.4419913695
 10
222.5962234247
 20
167.654607018
 10
223.1099008699
 20
166.8798493975
 10
223.6386164405
 20
166.1187892925
 10
224.1816394042
 20
165.3724785567
 10
224.7382192544
 20
164.6419486585
 10
225.3075867475
 20
163.928209256
 10
225.8889549667
 20
163.2322468013
 10
226.4815204086
 20
162.555023177
 10
227.0844640946
 20
161.8974743671
 10
227.6969527023
 20
161.2605091631
 10
228.3181397174
 20
160.6450079083
 10
228.9471666035
 20
160.0518212808
 10
229.5831639889
 20
159.4817691177
 10
230.225252868
 20
158.9356392825
 10
230.8725458163
 20
158.4141865757
 10
231.5241482167
 20
157.9181316919
 10
232.179159496
 20
157.4481602234
 10
232.8366743699
 20
157.0049217131
 10
233.4957840935
 20
156.5890287566
 10
234.1555777181
 20
156.2010561552
 10
234.8151433494
 20
155.841540122
 10
235.4735694085
 20
155.5109775405
 10
236.1299458913
 20
155.2098252779
 10
236.7833656265
 20
154.9384995537
 10
237.4329255293
 20
154.6973753645
 10
238.0777278495
 20
154.4867859655
 10
238.7168814122
 20
154.3070224103
 10
239.3495028499
 20
154.1583331482
 10
239.9747178227
 20
154.0409236812
 10
240.5916622274
 20
153.9549562798
 10
241.1994833912
 20
153.9005497585
 10
241.7973412508
 20
153.8777793122
 10
242.3844095128
 20
153.8866764115
 10
242.9598767959
 20
153.92722876
 10
243.5229477528
 20
153.9993803107
 10
244.0728441687
 20
154.1030313435
 10
244.6088060373
 20
154.2380386035
 10
245.1300926112
 20
154.4042154985
 10
245.6359834253
 20
154.601332357
 10
246.1257792931
 20
154.8291167458
 10
246.5988032727
 20
155.0872538465
 10
247.0544016023
 20
155.3753868904
 10
247.4919446042
 20
155.6931176516
 10
247.9108275545
 20
156.0400069977
 10
248.3104715193
 20
156.4155754964
 10
248.6903241548
 20
156.8193040783
 10
249.0498604704
 20
157.2506347541
 10
249.3885835546
 20
157.7089713862
 10
249.7060252617
 20
158.193680512
 10
250.0017468586
 20
158.7040922199
 10
250.2753396316
 20
159.2395010751
 10
250.5264254508
 20
159.7991670943
 10
250.754657293
 20
160.3823167689
 10
250.9597197213
 20
160.9881441335
 10
251.141329321
 20
161.6158118802
 10
251.2992350913
 20
162.2644525157
 10
251.4332187922
 20
162.9331695605
 10
251.5430952462
 20
163.6210387873
 10
251.6287125941
 20
164.327109499
 10
251.6899525051
 20
165.0504058425
 10
251.7267303401
 20
165.7899281571
 10
251.7389952689
 20
166.5446543564
  0
LWPOLYLINE
  5
E6
330
1F
100
AcDbEntity
  8
0
  6
Continuous
 62
     7
370
     0
100
AcDbPolyline
 90
       44
 70
   128
 43
0.0
 10
252.1632593376
 20
166.5446543564
 10
252.1509933879
 20
165.7853561927
 10
252.1142122928
 20
165.041257103
 10
252.0529662906
 20
164.3133734372
 10
251.9673390362
 20
163.6026993967
 10
251.857447486
 20
162.9102056768
 10
251.7234417387
 20
162.2368381407
 10
251.56550483
 20
161.5835165275
 10
251.3838524828
 20
160.9511331957
 10
251.1787328122
 20
160.3405519051
 10
250.9504259871
 20
159.7526066362
 10
250.6992438472
 20
159.1881004516
 10
250.425529477
 20
158.6478043987
 10
250.1296567374
 20
158.132456457
 10
249.8120297551
 20
157.6427605298
 10
249.4730823702
 20
157.1793854828
 10
249.1132775442
 20
156.7429642306
 10
248.733106727
 20
156.3340928722
 10
248.3330891865
 20
155.9533298766
 10
247.9137712983
 20
155.6011953203
 10
247.4757258003
 20
155.2781701767
 10
247.0195510099
 20
154.9846956594
 10
246.5458700071
 20
154.7211726191
 10
246.055329783
 20
154.4879609968
 10
245.5486003568
 20
154.2853793313
 10
245.0263738597
 20
154.113704325
 10
244.4893635904
 20
153.9731704651
 10
243.9383030403
 20
153.8639697041
 10
243.3739448918
 20
153.7862511971
 10
242.7970599903
 20
153.7401210982
 10
242.2084362912
 20
153.7256424155
 10
241.6088777836
 20
153.7428349252
 10
240.9992033923
 20
153.7916751444
 10
240.3802458593
 20
153.8720963633
 10
239.752850606
 20
153.9839887361
 10
239.1178745789
 20
154.1271994312
 10
238.4761850789
 20
154.3015328402
 10
237.8286585766
 20
154.5067508445
 10
237.1761795154
 20
154.7425731411
 10
236.5196391032
 20
155.008677625
 10
235.8599340952
 20
155.3047008296
 10
235.1979655691
 20
155.6302384227
 10
234.5346376942
 20
155.9848457591
 10
234.1998280071
 20
156.1745861825
  0
LWPOLYLINE
  5
E7
330
1F
100
AcDbEntity
  8
0
  6
Continuous
 62
     7
370
     0
100
AcDbPolyline
 90
       86
 70
   128
 43
0.0
 10
216.2422348533
 20
187.2814203967
 10
216.254500803
 20
188.0407185604
 10
216.2912818982
 20
188.7848176501
 10
216.3525279003
 20
189.512701316
 10
216.4381551547
 20
190.2233753565
 10
216.5480467049
 20
190.9158690763
 10
216.6820524522
 20
191.5892366124
 10
216.8399893609
 20
192.2425582257
 10
217.0216417081
 20
192.8749415574
 10
217.2267613787
 20
193.485522848
 10
217.4550682038
 20
194.0734681169
 10
217.7062503437
 20
194.6379743016
 10
217.9799647139
 20
195.1782703545
 10
218.2758374535
 20
195.6936182962
 10
218.5934644358
 20
196.1833142234
 10
218.9324118207
 20
196.6466892704
 10
219.2922166468
 20
197.0831105225
 10
219.6723874639
 20
197.491981881
 10
220.0724050045
 20
197.8727448766
 10
220.4917228927
 20
198.2248794329
 10
220.9297683907
 20
198.5479045764
 10
221.385943181
 20
198.8413790938
 10
221.8596241839
 20
199.104902134
 10
222.3501644079
 20
199.3381137564
 10
222.8568938342
 20
199.5406954218
 10
223.3791203312
 20
199.7123704282
 10
223.9161306005
 20
199.852904288
 10
224.4671911507
 20
199.962105049
 10
225.0315492991
 20
200.039823556
 10
225.6084342006
 20
200.085953655
 10
226.1970578998
 20
200.1004323377
 10
226.7966164074
 20
200.0832398279
 10
227.4062907986
 20
200.0343996087
 10
228.0252483317
 20
199.9539783899
 10
228.652643585
 20
199.8420860171
 10
229.2876196121
 20
199.6988753219
 10
229.9293091121
 20
199.524541913
 10
230.5768356143
 20
199.3193239086
 10
231.2293146755
 20
199.0835016121
 10
231.8858550878
 20
198.8173971281
 10
232.5455600958
 20
198.5213739236
 10
233.2075286219
 20
198.1958363305
 10
233.8708564967
 20
197.8412289941
 10
234.5346376942
 20
197.4580362652
 10
235.1979655691
 20
197.0467815392
 10
235.8599340952
 20
196.6080265405
 10
236.5196391032
 20
196.1423705556
 10
237.1761795154
 20
195.6504496146
 10
237.8286585766
 20
195.1329356223
 10
238.4761850789
 20
194.5905354406
 10
239.1178745789
 20
194.0239899229
 10
239.752850606
 20
193.4340729023
 10
240.3802458593
 20
192.8215901343
 10
240.9992033923
 20
192.1873781969
 10
241.6088777836
 20
191.5323033472
 10
242.2084362912
 20
190.8572603387
 10
242.7970599903
 20
190.163171199
 10
243.3739448918
 20
189.4509839702
 10
243.9383030403
 20
188.7216714145
 10
244.4893635904
 20
187.9762296851
 10
245.0263738597
 20
187.2156769658
 10
245.5486003568
 20
186.4410520801
 10
246.055329783
 20
185.6534130724
 10
246.5458700071
 20
184.8538357628
 10
247.0195510099
 20
184.0434122778
 10
247.4757258003
 20
183.2232495583
 10
247.9137712983
 20
182.3944678481
 10
248.3330891865
 20
181.5581991632
 10
248.733106727
 20
180.715585746
 10
249.1132775442
 20
179.8677785051
 10
249.4730823702
 20
179.0159354433
 10
249.8120297551
 20
178.1612200756
 10
250.1296567374
 20
177.3047998406
 10
250.425529477
 20
176.4478445051
 10
250.6992438472
 20
175.5915245671
 10
250.9504259871
 20
174.7370096567
 10
251.1787328122
 20
173.8854669384
 10
251.3838524828
 20
173.0380595171
 10
251.56550483
 20
172.1959448495
 10
251.7234417387
 20
171.3602731629
 10
251.857447486
 20
170.5321858843
 10
251.9673390362
 20
169.7128140813
 10
252.0529662906
 20
168.9032769172
 10
252.1142122928
 20
168.1046801224
 10
252.1509933879
 20
167.3181144842
 10
252.1632593376
 20
166.5446543564
  0
ARC
  5
E8
330
1F
100
AcDbEntity
  8
0
  6
Continuous
 62
     7
370
     0
100
AcDbCircle
 10
216.0826907375
 20
168.2294031131
 30
0.0
 40
35.39882604732618
100
AcDbArc
 50
45.2680292638
 51
47.1449472375
  0
LINE
  5
E9
330
1F
100
AcDbEntity
  8
0
  6
Continuous
 62
     7
370
     0
100
AcDbLine
 10
242.032434357
 20
195.2609327882
 30
0.0
 11
240.1590605471
 21
194.1794571076
 31
0.0
  0
ARC
  5
EA
330
1F
100
AcDbEntity
  8
0
  6
Continuous
 62
     7
370
     0
100
AcDbCircle
 10
218.6541482656
 20
170.0573298411
 30
0.0
 40
34.37682158213324
100
AcDbArc
 50
47.1517027071
 51
47.6301953262
  0
LINE
  5
EB
330
1F
100
AcDbEntity
  8
0
  6
Continuous
 62
     7
370
     0
100
AcDbLine
 10
239.6998190855
 20
194.2306778773
 30
0.0
 11
241.821139429
 21
195.455290045
 31
0.0
  0
ARC
  5
EC
330
1F
100
AcDbEntity
  8
0
  6
Continuous
 62
     7
370
     0
100
AcDbCircle
 10
215.9768990972
 20
168.2333297917
 30
0.0
 40
35.19430408818636
100
AcDbArc
 50
45.2639365909
 51
47.6191400904
  0
LINE
  5
ED
330
1F
100
AcDbEntity
  8
0
  6
Continuous
 62
     7
370
     0
100
AcDbLine
 10
240.9960735508
 20
193.3769724256
 30
0.0
 11
240.7481270171
 21
193.2338359385
 31
0.0
  0
SPLINE
  5
EE
330
1F
100
AcDbEntity
  8
0
  6
Continuous
 62
     7
370
     0
100
AcDbSpline
210
0.0
220
0.0
230
1.0
 70
     8
 71
     3
 72
    14
 73
    10
 74
     0
 42
0.000000001
 43
0.00000001
 40
0.0
 40
0.0
 40
0.0
 40
0.0
 40
0.1249642785198642
 40
0.2499282715641074
 40
0.3720998993845893
 40
0.4999250557765876
 40
0.6246427517330048
 40
0.7499738496850359
 40
1.0
 40
1.0
 40
1.0
 40
1.0
 10
239.8482625036258
 20
196.8509656358498
 30
0.0
 10
239.8341758834962
 20
196.8179117087349
 30
0.0
 10
239.8060026754173
 20
196.7518039300153
 30
0.0
 10
239.7380968997663
 20
196.6621569074853
 30
0.0
 10
239.6593157022194
 20
196.5769964511886
 30
0.0
 10
239.5696806998067
 20
196.4975866450649
 30
0.0
 10
239.4722710287228
 20
196.4218859263737
 30
0.0
 10
239.3370594768611
 20
196.3257864858435
 30
0.0
 10
239.226653967869
 20
196.2601686551521
 30
0.0
 10
239.1531126561871
 20
196.2164604979885
 30
0.0
  0
SPLINE
  5
EF
330
1F
100
AcDbEntity
  8
0
  6
Continuous
 62
     7
370
     0
100
AcDbSpline
210
0.0
220
0.0
230
1.0
 70
     8
 71
     3
 72
    13
 73
     9
 74
     0
 42
0.000000001
 43
0.00000001
 40
0.0
 40
0.0
 40
0.0
 40
0.0
 40
0.1251948774509707
 40
0.2503112808433222
 40
0.499907482430525
 40
0.7496464708871743
 40
0.8747928721822861
 40
1.0
 40
1.0
 40
1.0
 40
1.0
 10
239.6872893118017
 20
197.2784758708496
 30
0.0
 10
239.7060724381851
 20
197.2632964255425
 30
0.0
 10
239.7436269174019
 20
197.2329470496363
 30
0.0
 10
239.8063104842633
 20
197.1662305626799
 30
0.0
 10
239.8593082368084
 20
197.0742517719256
 30
0.0
 10
239.8736391262724
 20
196.9788407797913
 30
0.0
 10
239.8644062936379
 20
196.9048201605796
 30
0.0
 10
239.85364463709
 20
196.8689200467738
 30
0.0
 10
239.8482625036258
 20
196.8509656358498
 30
0.0
  0
SPLINE
  5
F0
330
1F
100
AcDbEntity
  8
0
  6
Continuous
 62
     7
370
     0
100
AcDbSpline
210
0.0
220
0.0
230
1.0
 70
     8
 71
     3
 72
    16
 73
    12
 74
     0
 42
0.000000001
 43
0.00000001
 40
0.0
 40
0.0
 40
0.0
 40
0.0
 40
0.1251729595269888
 40
0.2503372774080768
 40
0.500244995441973
 40
0.6352206015971817
 40
0.7500261309021271
 40
0.813410294434108
 40
0.8749697478553887
 40
0.9374576207513587
 40
1.0
 40
1.0
 40
1.0
 40
1.0
 10
238.0379669181764
 20
197.0663935247159
 30
0.0
 10
238.0955635258623
 20
197.0988370180802
 30
0.0
 10
238.2107527649002
 20
197.1637217649867
 30
0.0
 10
238.455695865334
 20
197.2815560509568
 30
0.0
 10
238.7265756247796
 20
197.3852565369607
 30
0.0
 10
239.0254917542917
 20
197.4424958354781
 30
0.0
 10
239.2267813548037
 20
197.4467987120187
 30
0.0
 10
239.3803138872981
 20
197.4233229946458
 30
0.0
 10
239.4947457790472
 20
197.3889067072167
 30
0.0
 10
239.5992791758804
 20
197.3406338045927
 30
0.0
 10
239.657944074932
 20
197.2992012028801
 30
0.0
 10
239.6872893118017
 20
197.2784758708496
 30
0.0
  0
SPLINE
  5
F1
330
1F
100
AcDbEntity
  8
0
  6
Continuous
 62
     7
370
     0
100
AcDbSpline
210
0.0
220
0.0
230
1.0
 70
     8
 71
     3
 72
    18
 73
    14
 74
     0
 42
0.000000001
 43
0.00000001
 40
0.0
 40
0.0
 40
0.0
 40
0.0
 40
0.0624950322413429
 40
0.1249340560767622
 40
0.1865917156235645
 40
0.2498536395941782
 40
0.3120654852453805
 40
0.3748805468664022
 40
0.4997120087598804
 40
0.6247329320280508
 40
0.7498001999826684
 40
0.8748958867715081
 40
1.0
 40
1.0
 40
1.0
 40
1.0
 10
237.5083194423549
 20
196.0239993595932
 30
0.0
 10
237.4815393948486
 20
196.0461222444517
 30
0.0
 10
237.4280033002678
 20
196.0903481875124
 30
0.0
 10
237.3719971980856
 20
196.1657335771085
 30
0.0
 10
237.3369901920371
 20
196.2447898211118
 30
0.0
 10
237.3251005887421
 20
196.3247505396886
 30
0.0
 10
237.3315829713616
 20
196.4036138014893
 30
0.0
 10
237.3604487419494
 20
196.505005016465
 30
0.0
 10
237.4372025808118
 20
196.6217661173164
 30
0.0
 10
237.5649876361118
 20
196.7456192133857
 30
0.0
 10
237.7104131260784
 20
196.8602163168815
 30
0.0
 10
237.8695602969362
 20
196.9664962399801
 30
0.0
 10
237.9818301173905
 20
197.0330936821624
 30
0.0
 10
238.0379669181764
 20
197.0663935247159
 30
0.0
  0
SPLINE
  5
F2
330
1F
100
AcDbEntity
  8
0
  6
Continuous
 62
     7
370
     0
100
AcDbSpline
210
0.0
220
0.0
230
1.0
 70
     8
 71
     3
 72
    16
 73
    12
 74
     0
 42
0.000000001
 43
0.00000001
 40
0.0
 40
0.0
 40
0.0
 40
0.0
 40
0.1251681795783307
 40
0.2503286224454799
 40
0.5002403576315791
 40
0.633807133447006
 40
0.750015507137962
 40
0.8124974968692499
 40
0.8749673844674256
 40
0.9374604080777232
 40
1.0
 40
1.0
 40
1.0
 40
1.0
 10
239.1531126561871
 20
196.2164604979885
 30
0.0
 10
239.0955652182057
 20
196.1841118503785
 30
0.0
 10
238.9804738992804
 20
196.1194165546456
 30
0.0
 10
238.7359096201653
 20
196.0029312779861
 30
0.0
 10
238.465966863647
 20
195.9027839070888
 30
0.0
 10
238.168538599493
 20
195.849912365609
 30
0.0
 10
237.9685268054929
 20
195.8488188857501
 30
0.0
 10
237.8147930680261
 20
195.87556787536
 30
0.0
 10
237.7006182964804
 20
195.9116067646114
 30
0.0
 10
237.5961978465231
 20
195.9616966224241
 30
0.0
 10
237.5376195162307
 20
196.0032266245966
 30
0.0
 10
237.5083194423549
 20
196.0239993595932
 30
0.0
  0
ARC
  5
F3
330
1F
100
AcDbEntity
  8
0
  6
Continuous
 62
     7
370
     0
100
AcDbCircle
 10
223.7419530396
 20
177.9754559482
 30
0.0
 40
23.62074351979142
100
AcDbArc
 50
59.8278142374
 51
61.0760232038
  0
SPLINE
  5
F4
330
1F
100
AcDbEntity
  8
0
  6
Continuous
 62
     7
370
     0
100
AcDbSpline
210
0.0
220
0.0
230
1.0
 70
     8
 71
     3
 72
    17
 73
    13
 74
     0
 42
0.000000001
 43
0.00000001
 40
0.0
 40
0.0
 40
0.0
 40
0.0
 40
0.0625867507144373
 40
0.1251607877735512
 40
0.250205491525529
 40
0.3751630122568474
 40
0.4405101568604569
 40
0.5002773891343772
 40
0.6183058012602899
 40
0.7498302131143927
 40
0.8748618907254742
 40
1.0
 40
1.0
 40
1.0
 40
1.0
 10
236.9204415262786
 20
198.3787823366229
 30
0.0
 10
236.8980167744582
 20
198.3662312390977
 30
0.0
 10
236.8531718261037
 20
198.3411315936338
 30
0.0
 10
236.7565893868002
 20
198.2957193975231
 30
0.0
 10
236.625303137124
 20
198.247288808711
 30
0.0
 10
236.4783621327941
 20
198.2147424516339
 30
0.0
 10
236.356607933518
 20
198.2002346453072
 30
0.0
 10
236.2357218874855
 20
198.1941137190031
 30
0.0
 10
236.0799934452745
 20
198.2085774629872
 30
0.0
 10
235.9070137793503
 20
198.2553465702976
 30
0.0
 10
235.749751880448
 20
198.3206581175416
 30
0.0
 10
235.6590944252173
 20
198.3709022099793
 30
0.0
 10
235.6137464130516
 20
198.3960349440641
 30
0.0
  0
SPLINE
  5
F5
330
1F
100
AcDbEntity
  8
0
  6
Continuous
 62
     7
370
     0
100
AcDbSpline
210
0.0
220
0.0
230
1.0
 70
     8
 71
     3
 72
    16
 73
    12
 74
     0
 42
0.000000001
 43
0.00000001
 40
0.0
 40
0.0
 40
0.0
 40
0.0
 40
0.0625716166060404
 40
0.125133344283446
 40
0.2500890908636997
 40
0.3712225297593276
 40
0.500165032383158
 40
0.7497016235417578
 40
0.8498037792774775
 40
0.9248985296235334
 40
1.0
 40
1.0
 40
1.0
 40
1.0
 10
237.1655346427068
 20
198.9114631607897
 30
0.0
 10
237.1738877119164
 20
198.9001068878104
 30
0.0
 10
237.1905925302018
 20
198.877396136617
 30
0.0
 10
237.2129769667509
 20
198.8296126923658
 30
0.0
 10
237.227581620043
 20
198.7687206911174
 30
0.0
 10
237.2190873643396
 20
198.6944135215476
 30
0.0
 10
237.1822077855953
 20
198.5981328354156
 30
0.0
 10
237.110236115334
 20
198.5129397447598
 30
0.0
 10
237.0263078288319
 20
198.4467655273527
 30
0.0
 10
236.9728208999907
 20
198.4097011238798
 30
0.0
 10
236.9379018382951
 20
198.3890889064502
 30
0.0
 10
236.9204415262786
 20
198.3787823366229
 30
0.0
  0
SPLINE
  5
F6
330
1F
100
AcDbEntity
  8
0
  6
Continuous
 62
     7
370
     0
100
AcDbSpline
210
0.0
220
0.0
230
1.0
 70
     8
 71
     3
 72
    13
 73
     9
 74
     0
 42
0.000000001
 43
0.00000001
 40
0.0
 40
0.0
 40
0.0
 40
0.0
 40
0.2716161760946789
 40
0.5000373570164289
 40
0.6342271489773762
 40
0.7500701523405253
 40
0.8670131673665186
 40
1.0
 40
1.0
 40
1.0
 40
1.0
 10
236.8663930315315
 20
199.136121866374
 30
0.0
 10
236.897301969514
 20
199.1178491407051
 30
0.0
 10
236.9542044113316
 20
199.0842095925002
 30
0.0
 10
237.0220001161369
 20
199.0386301587425
 30
0.0
 10
237.0700619019855
 20
199.0026140637238
 30
0.0
 10
237.1054521799408
 20
198.9742138883259
 30
0.0
 10
237.1371283556321
 20
198.9443604187369
 30
0.0
 10
237.1556691488817
 20
198.9228883672691
 30
0.0
 10
237.1655346427068
 20
198.9114631607897
 30
0.0
  0
ARC
  5
F7
330
1F
100
AcDbEntity
  8
0
  6
Continuous
 62
     7
370
     0
100
AcDbCircle
 10
225.1248305997
 20
178.9104591724
 30
0.0
 40
23.38678515208088
100
AcDbArc
 50
59.8636372623
 51
61.6976738149
  0
LINE
  5
F8
330
1F
100
AcDbEntity
  8
0
  6
Continuous
 62
     7
370
     0
100
AcDbLine
 10
234.0917453429
 20
198.2769315417
 30
0.0
 11
236.2130656865
 21
199.5015437094
 31
0.0
  0
ARC
  5
F9
330
1F
100
AcDbEntity
  8
0
  6
Continuous
 62
     7
370
     0
100
AcDbCircle
 10
223.2086515857
 20
178.060412965
 30
0.0
 40
22.95973329747036
100
AcDbArc
 50
61.0789879749
 51
61.7052292884
  0
LINE
  5
FA
330
1F
100
AcDbEntity
  8
0
  6
Continuous
 62
     7
370
     0
100
AcDbLine
 10
235.1660949384
 20
198.6498001047
 30
0.0
 11
234.3120568781
 21
198.1567744268
 31
0.0
  0
SPLINE
  5
FB
330
1F
100
AcDbEntity
  8
0
  6
Continuous
 62
     7
370
     0
100
AcDbSpline
210
0.0
220
0.0
230
1.0
 70
     8
 71
     3
 72
     8
 73
     4
 74
     0
 42
0.000000001
 43
0.00000001
 40
0.0
 40
0.0
 40
0.0
 40
0.0
 40
1.0
 40
1.0
 40
1.0
 40
1.0
 10
231.1758313426803
 20
199.5694067558306
 30
0.0
 10
231.6279281150173
 20
199.9828395501708
 30
0.0
 10
232.0804888515962
 20
200.3933253095476
 30
0.0
 10
232.5335785838794
 20
200.8008426102473
 30
0.0
  0
ARC
  5
FC
330
1F
100
AcDbEntity
  8
0
  6
Continuous
 62
     7
370
     0
100
AcDbCircle
 10
225.4250902655
 20
182.9676270815
 30
0.0
 40
17.56957914386172
100
AcDbArc
 50
70.1281905854
 51
70.894270087
  0
SPLINE
  5
FD
330
1F
100
AcDbEntity
  8
0
  6
Continuous
 62
     7
370
     0
100
AcDbSpline
210
0.0
220
0.0
230
1.0
 70
     8
 71
     3
 72
     8
 73
     4
 74
     0
 42
0.000000001
 43
0.00000001
 40
0.0
 40
0.0
 40
0.0
 40
0.0
 40
1.0
 40
1.0
 40
1.0
 40
1.0
 10
233.6502340847461
 20
200.3120898625869
 30
0.0
 10
232.8988541865767
 20
200.0413746744942
 30
0.0
 10
232.1478492834307
 20
199.7676979252275
 30
0.0
 10
231.3972866125821
 20
199.4910341782121
 30
0.0
  0
LINE
  5
FE
330
1F
100
AcDbEntity
  8
0
  6
Continuous
 62
     7
370
     0
100
AcDbLine
 10
231.8991116908
 20
199.3011884222
 30
0.0
 11
233.6502340847
 21
200.3120898626
 31
0.0
  0
ARC
  5
FF
330
1F
100
AcDbEntity
  8
0
  6
Continuous
 62
     7
370
     0
100
AcDbCircle
 10
224.9797465151
 20
181.7905547066
 30
0.0
 40
18.8281679288394
100
AcDbArc
 50
67.723643214
 51
68.4384377582
  0
LINE
  5
100
330
1F
100
AcDbEntity
  8
0
  6
Continuous
 62
     7
370
     0
100
AcDbLine
 10
234.2383421456
 20
200.4381175152
 30
0.0
 11
232.117021802
 21
199.2135053475
 31
0.0
  0
ARC
  5
101
330
1F
100
AcDbEntity
  8
0
  6
Continuous
 62
     7
370
     0
100
AcDbCircle
 10
227.1312952864
 20
183.0900281494
 30
0.0
 40
18.74743501663761
100
AcDbArc
 50
67.7224035543
 51
68.7374684865
  0
SPLINE
  5
102
330
1F
100
AcDbEntity
  8
0
  6
Continuous
 62
     7
370
     0
100
AcDbSpline
210
0.0
220
0.0
230
1.0
 70
     8
 71
     3
 72
     8
 73
     4
 74
     0
 42
0.000000001
 43
0.00000001
 40
0.0
 40
0.0
 40
0.0
 40
0.0
 40
1.0
 40
1.0
 40
1.0
 40
1.0
 10
232.028164844032
 20
199.8687289917778
 30
0.0
 10
232.6617704343187
 20
200.1017323033516
 30
0.0
 10
233.2956959360424
 20
200.3325836961705
 30
0.0
 10
233.9299002686786
 20
200.5612985667752
 30
0.0
  0
SPLINE
  5
103
330
1F
100
AcDbEntity
  8
0
  6
Continuous
 62
     7
370
     0
100
AcDbSpline
210
0.0
220
0.0
230
1.0
 70
     8
 71
     3
 72
    12
 73
     8
 74
     0
 42
0.000000001
 43
0.00000001
 40
0.0
 40
0.0
 40
0.0
 40
0.0
 40
0.249993638657377
 40
0.4999942819844614
 40
0.6249956604535661
 40
0.7499971038686578
 40
1.0
 40
1.0
 40
1.0
 40
1.0
 10
231.5938029621879
 20
199.7060998526307
 30
0.0
 10
231.629863093328
 20
199.719770841952
 30
0.0
 10
231.7019843659912
 20
199.7471132036473
 30
0.0
 10
231.7920801201404
 20
199.7813007239018
 30
0.0
 10
231.864831671383
 20
199.8081374605347
 30
0.0
 10
231.9375322973238
 20
199.8349996785984
 30
0.0
 10
231.991911825079
 20
199.8552372664057
 30
0.0
 10
232.028164844032
 20
199.8687289917778
 30
0.0
  0
SPLINE
  5
104
330
1F
100
AcDbEntity
  8
0
  6
Continuous
 62
     7
370
     0
100
AcDbSpline
210
0.0
220
0.0
230
1.0
 70
     8
 71
     3
 72
     8
 73
     4
 74
     0
 42
0.000000001
 43
0.00000001
 40
0.0
 40
0.0
 40
0.0
 40
0.0
 40
1.0
 40
1.0
 40
1.0
 40
1.0
 10
231.8269308085039
 20
199.9159981043034
 30
0.0
 10
231.7492093038436
 20
199.8461109001866
 30
0.0
 10
231.6715001171579
 20
199.7761447827764
 30
0.0
 10
231.5938029621879
 20
199.7060998526307
 30
0.0
  0
SPLINE
  5
105
330
1F
100
AcDbEntity
  8
0
  6
Continuous
 62
     7
370
     0
100
AcDbSpline
210
0.0
220
0.0
230
1.0
 70
     8
 71
     3
 72
     8
 73
     4
 74
     0
 42
0.000000001
 43
0.00000001
 40
0.0
 40
0.0
 40
0.0
 40
0.0
 40
1.0
 40
1.0
 40
1.0
 40
1.0
 10
232.9248286710299
 20
200.9182320343007
 30
0.0
 10
232.5585316814043
 20
200.586130802443
 30
0.0
 10
232.1925775840751
 20
200.2520488572862
 30
0.0
 10
231.8269308085039
 20
199.9159981043034
 30
0.0
  0
ARC
  5
106
330
1F
100
AcDbEntity
  8
0
  6
Continuous
 62
     7
370
     0
100
AcDbCircle
 10
227.8882508092
 20
185.2218214396
 30
0.0
 40
16.48467233874291
100
AcDbArc
 50
72.2098890711
 51
73.4317734787
  0
LINE
  5
107
330
1F
100
AcDbEntity
  8
0
  6
Continuous
 62
     7
370
     0
100
AcDbLine
 10
230.4676482632
 20
199.7974521277
 30
0.0
 11
232.5889686067
 21
201.0220642954
 31
0.0
  0
ARC
  5
108
330
1F
100
AcDbEntity
  8
0
  6
Continuous
 62
     7
370
     0
100
AcDbCircle
 10
225.7955148022
 20
184.0912832433
 30
0.0
 40
16.38635322764532
100
AcDbArc
 50
72.6496233432
 51
73.4337724549
  0
LINE
  5
109
330
1F
100
AcDbEntity
  8
0
  6
Continuous
 62
     7
370
     0
100
AcDbLine
 10
232.5335785839
 20
200.8008426102
 30
0.0
 11
230.6821583733
 21
199.7320404728
 31
0.0
  0
LWPOLYLINE
  5
10A
330
1F
100
AcDbEntity
  8
0
  6
Continuous
 62
     7
370
     0
100
AcDbPolyline
 90
       65
 70
   128
 43
0.0
 10
255.2745291748
 20
168.3407522024
 10
255.2622632252
 20
169.1142123302
 10
255.22548213
 20
169.9007779684
 10
255.1642361279
 20
170.6993747632
 10
255.0786088734
 20
171.5089119273
 10
254.9687173233
 20
172.3282837303
 10
254.834711576
 20
173.1563710089
 10
254.6767746673
 20
173.9920426955
 10
254.49512232
 20
174.8341573632
 10
254.2900026494
 20
175.6815647844
 10
254.0616958244
 20
176.5331075027
 10
253.8105136844
 20
177.3876224131
 10
253.5367993142
 20
178.2439423511
 10
253.2409265747
 20
179.1008976866
 10
252.9232995923
 20
179.9573179217
 10
252.5843522074
 20
180.8120332893
 10
252.2245473814
 20
181.6638763511
 10
251.8443765643
 20
182.511683592
 10
251.4443590237
 20
183.3542970092
 10
251.0250411355
 20
184.1905656941
 10
250.5869956375
 20
185.0193474044
 10
250.1308208471
 20
185.8395101238
 10
249.6571398443
 20
186.6499336088
 10
249.1665996203
 20
187.4495109184
 10
248.659870194
 20
188.2371499261
 10
248.1376436969
 20
189.0117748118
 10
247.6006334276
 20
189.7723275311
 10
247.0495728775
 20
190.5177692605
 10
246.485214729
 20
191.2470818162
 10
245.9083298275
 20
191.959269045
 10
245.3197061284
 20
192.6533581847
 10
244.7201476208
 20
193.3284011933
 10
244.1104732295
 20
193.9834760429
 10
243.4915156965
 20
194.6176879804
 10
242.8641204432
 20
195.2301707483
 10
242.2291444161
 20
195.8200877689
 10
241.5874549161
 20
196.3866332866
 10
240.9399284138
 20
196.9290334683
 10
240.2874493526
 20
197.4465474606
 10
239.6309089404
 20
197.9384684016
 10
238.9712039324
 20
198.4041243865
 10
238.3092354063
 20
198.8428793852
 10
237.6459075314
 20
199.2541341113
 10
236.9821263339
 20
199.6373268401
 10
236.3187984591
 20
199.9919341765
 10
235.656829933
 20
200.3174717696
 10
234.997124925
 20
200.6134949742
 10
234.3405845128
 20
200.8795994581
 10
233.6881054516
 20
201.1154217546
 10
233.0405789493
 20
201.320639759
 10
232.3988894493
 20
201.4949731679
 10
231.7639134222
 20
201.6381838631
 10
231.1365181689
 20
201.7500762359
 10
230.5175606358
 20
201.8304974547
 10
229.9078862446
 20
201.8793376739
 10
229.308327737
 20
201.8965301837
 10
228.7197040378
 20
201.882051501
 10
228.1428191363
 20
201.8359214021
 10
227.5784609879
 20
201.758202895
 10
227.0274004378
 20
201.649002134
 10
226.4903901685
 20
201.5084682742
 10
225.9681636714
 20
201.3367932679
 10
225.4614342451
 20
201.1342116024
 10
224.9708940211
 20
200.9009999801
 10
224.6150490282
 20
200.7067763271
  0
LWPOLYLINE
  5
10B
330
1F
100
AcDbEntity
  8
0
  6
Continuous
 62
     7
370
     0
100
AcDbPolyline
 90
       23
 70
   128
 43
0.0
 10
250.0129848372
 20
156.7114941181
 10
250.1308208471
 20
156.7807935054
 10
250.5869956375
 20
157.0742680227
 10
251.0250411355
 20
157.3972931663
 10
251.4443590237
 20
157.7494277226
 10
251.8443765643
 20
158.1301907182
 10
252.2245473814
 20
158.5390620767
 10
252.5843522074
 20
158.9754833288
 10
252.9232995923
 20
159.4388583758
 10
253.2409265747
 20
159.928554303
 10
253.5367993142
 20
160.4439022447
 10
253.8105136844
 20
160.9841982976
 10
254.0616958244
 20
161.5487044822
 10
254.2900026494
 20
162.1366497511
 10
254.49512232
 20
162.7472310417
 10
254.6767746673
 20
163.3796143735
 10
254.834711576
 20
164.0329359868
 10
254.9687173233
 20
164.7063035228
 10
255.0786088734
 20
165.3987972427
 10
255.1642361279
 20
166.1094712832
 10
255.22548213
 20
166.837354949
 10
255.2622632252
 20
167.5814540387
 10
255.2745291748
 20
168.3407522024
  0
SPLINE
  5
10C
330
1F
100
AcDbEntity
  8
0
  6
Continuous
 62
     7
370
     0
100
AcDbSpline
210
0.0
220
0.0
230
1.0
 70
     8
 71
     3
 72
    14
 73
    10
 74
     0
 42
0.000000001
 43
0.00000001
 40
0.0
 40
0.0
 40
0.0
 40
0.0
 40
0.0626209035518782
 40
0.1251971369841665
 40
0.2501776311320311
 40
0.49950041154777
 40
0.7494942445745888
 40
0.8747342129769949
 40
1.0
 40
1.0
 40
1.0
 40
1.0
 10
231.7500793950088
 20
201.2146609323558
 30
0.0
 10
231.7636216847219
 20
201.2040844756079
 30
0.0
 10
231.7906966038643
 20
201.1829391067427
 30
0.0
 10
231.8227543501836
 20
201.13291333527
 30
0.0
 10
231.8299697744841
 20
201.0326318060524
 30
0.0
 10
231.7292796844678
 20
200.8724951350573
 30
0.0
 10
231.5453240592017
 20
200.715850748873
 30
0.0
 10
231.3669407003356
 20
200.5954452318772
 30
0.0
 10
231.2685637080137
 20
200.5372849512258
 30
0.0
 10
231.2193701421924
 20
200.508201813727
 30
0.0
  0
SPLINE
  5
10D
330
1F
100
AcDbEntity
  8
0
  6
Continuous
 62
     7
370
     0
100
AcDbSpline
210
0.0
220
0.0
230
1.0
 70
     8
 71
     3
 72
    13
 73
     9
 74
     0
 42
0.000000001
 43
0.00000001
 40
0.0
 40
0.0
 40
0.0
 40
0.0
 40
0.2621623226432789
 40
0.5000242273424856
 40
0.6219901488741719
 40
0.7500545430443251
 40
0.8623234327952117
 40
1.0
 40
1.0
 40
1.0
 40
1.0
 10
231.4661796593525
 20
201.3111336163018
 30
0.0
 10
231.4943237767022
 20
201.3047305335281
 30
0.0
 10
231.5480032695833
 20
201.2925178841885
 30
0.0
 10
231.6110178478305
 20
201.2746060003967
 30
0.0
 10
231.6574254585712
 20
201.2587914662924
 30
0.0
 10
231.6905761114367
 20
201.2462593202516
 30
0.0
 10
231.7219920925468
 20
201.2315878882966
 30
0.0
 10
231.7401032761508
 20
201.2206730912165
 30
0.0
 10
231.7500793950088
 20
201.2146609323558
 30
0.0
  0
ARC
  5
10E
330
1F
100
AcDbEntity
  8
0
  6
Continuous
 62
     7
370
     0
100
AcDbCircle
 10
228.4802636883
 20
187.547763176
 30
0.0
 40
14.08353862009419
100
AcDbArc
 50
77.7595601852
 51
80.112898675
  0
LINE
  5
10F
330
1F
100
AcDbEntity
  8
0
  6
Continuous
 62
     7
370
     0
100
AcDbLine
 10
228.7771900713
 20
200.197521006
 30
0.0
 11
230.8985104148
 21
201.4221331737
 31
0.0
  0
ARC
  5
110
330
1F
100
AcDbEntity
  8
0
  6
Continuous
 62
     7
370
     0
100
AcDbCircle
 10
226.3554985017
 20
186.3048993451
 30
0.0
 40
14.10211071687353
100
AcDbArc
 50
77.6522299409
 51
80.1118433876
  0
SPLINE
  5
111
330
1F
100
AcDbEntity
  8
0
  6
Continuous
 62
     7
370
     0
100
AcDbSpline
210
0.0
220
0.0
230
1.0
 70
     8
 71
     3
 72
    17
 73
    13
 74
     0
 42
0.000000001
 43
0.00000001
 40
0.0
 40
0.0
 40
0.0
 40
0.0
 40
0.0715357051320334
 40
0.1430647354858063
 40
0.2860245204547984
 40
0.4289089802452743
 40
0.5716729696068854
 40
0.6786677761034723
 40
0.7855971142383407
 40
0.8927121774632338
 40
0.9463509865938893
 40
0.9999999999999999
 40
0.9999999999999999
 40
0.9999999999999999
 40
0.9999999999999999
 10
231.2193701421924
 20
200.508201813727
 30
0.0
 10
231.1825042233551
 20
200.4873215593377
 30
0.0
 10
231.1087758255267
 20
200.4455629988319
 30
0.0
 10
230.9533866657234
 20
200.3645526709502
 30
0.0
 10
230.7447305757104
 20
200.2684776411933
 30
0.0
 10
230.4698499892263
 20
200.1667092834718
 30
0.0
 10
230.1991684244299
 20
200.0903684455176
 30
0.0
 10
229.9437180768742
 20
200.0445997575439
 30
0.0
 10
229.7255229021638
 20
200.0352919912673
 30
0.0
 10
229.5659984070488
 20
200.0472002074978
 30
0.0
 10
229.4508889133241
 20
200.0644154924947
 30
0.0
 10
229.3977401382136
 20
200.0753346210966
 30
0.0
 10
229.371163223136
 20
200.0807947046633
 30
0.0
  0
SPLINE
  5
112
330
1F
100
AcDbEntity
  8
0
  6
Continuous
 62
     7
370
     0
100
AcDbSpline
210
0.0
220
0.0
230
1.0
 70
     8
 71
     3
 72
    13
 73
     9
 74
     0
 42
0.000000001
 43
0.00000001
 40
0.0
 40
0.0
 40
0.0
 40
0.0
 40
0.1252811271759513
 40
0.2504738718290422
 40
0.4999736990848827
 40
0.7495186620198482
 40
0.8747168909573869
 40
1.0
 40
1.0
 40
1.0
 40
1.0
 10
234.5592279588862
 20
199.2361131302968
 30
0.0
 10
234.5716454243196
 20
199.2173723823604
 30
0.0
 10
234.5964715949928
 20
199.1799041075899
 30
0.0
 10
234.6235902576239
 20
199.1003267646819
 30
0.0
 10
234.615421723225
 20
198.9956678791366
 30
0.0
 10
234.542952401597
 20
198.896189908042
 30
0.0
 10
234.4569056889388
 20
198.825344995918
 30
0.0
 10
234.4050658503457
 20
198.79355602356
 30
0.0
 10
234.3791371476185
 20
198.7776561512486
 30
0.0
  0
SPLINE
  5
113
330
1F
100
AcDbEntity
  8
0
  6
Continuous
 62
     7
370
     0
100
AcDbSpline
210
0.0
220
0.0
230
1.0
 70
     8
 71
     3
 72
    11
 73
     7
 74
     0
 42
0.000000001
 43
0.00000001
 40
0.0
 40
0.0
 40
0.0
 40
0.0
 40
0.5000226720966714
 40
0.750010632600604
 40
0.8750211364987093
 40
1.0
 40
1.0
 40
1.0
 40
1.0
 10
234.3012477353437
 20
199.4776623246474
 30
0.0
 10
234.3482709597838
 20
199.4393069428098
 30
0.0
 10
234.4188035981568
 20
199.3817756631279
 30
0.0
 10
234.4923236261023
 20
199.3102341824548
 30
0.0
 10
234.533401049287
 20
199.2687982154814
 30
0.0
 10
234.5506197154579
 20
199.2470072393524
 30
0.0
 10
234.5592279588862
 20
199.2361131302968
 30
0.0
  0
SPLINE
  5
114
330
1F
100
AcDbEntity
  8
0
  6
Continuous
 62
     7
370
     0
100
AcDbSpline
210
0.0
220
0.0
230
1.0
 70
     8
 71
     3
 72
    12
 73
     8
 74
     0
 42
0.000000001
 43
0.00000001
 40
0.0
 40
0.0
 40
0.0
 40
0.0
 40
0.0684070120992512
 40
0.1249521065050951
 40
0.249972416195281
 40
0.499961241972828
 40
1.0
 40
1.0
 40
1.0
 40
1.0
 10
234.1070336000536
 20
199.7144309457825
 30
0.0
 10
234.1071770888584
 20
199.7083225101136
 30
0.0
 10
234.1074391852118
 20
199.6971648541825
 30
0.0
 10
234.1132413227799
 20
199.6753263357143
 30
0.0
 10
234.1326627669332
 20
199.6390807605932
 30
0.0
 10
234.191108805623
 20
199.5697627333014
 30
0.0
 10
234.2571910866803
 20
199.5145033885302
 30
0.0
 10
234.3012477353437
 20
199.4776623246474
 30
0.0
  0
SPLINE
  5
115
330
1F
100
AcDbEntity
  8
0
  6
Continuous
 62
     7
370
     0
100
AcDbSpline
210
0.0
220
0.0
230
1.0
 70
     8
 71
     3
 72
    11
 73
     7
 74
     0
 42
0.000000001
 43
0.00000001
 40
0.0
 40
0.0
 40
0.0
 40
0.0
 40
0.2502289237422095
 40
0.5002032682721509
 40
0.7499928847035038
 40
0.9999999999999999
 40
0.9999999999999999
 40
0.9999999999999999
 40
0.9999999999999999
 10
234.2533797231466
 20
199.8696587883874
 30
0.0
 10
234.2346987246116
 20
199.8582505644473
 30
0.0
 10
234.1973557333137
 20
199.835445723126
 30
0.0
 10
234.151442890061
 20
199.7976690053557
 30
0.0
 10
234.1176213457709
 20
199.7568499443656
 30
0.0
 10
234.1105638723705
 20
199.7285747135314
 30
0.0
 10
234.1070336000536
 20
199.7144309457825
 30
0.0
  0
SPLINE
  5
116
330
1F
100
AcDbEntity
  8
0
  6
Continuous
 62
     7
370
     0
100
AcDbSpline
210
0.0
220
0.0
230
1.0
 70
     8
 71
     3
 72
    15
 73
    11
 74
     0
 42
0.000000001
 43
0.00000001
 40
0.0
 40
0.0
 40
0.0
 40
0.0
 40
0.0777526257259027
 40
0.1432281142729366
 40
0.2506300153014094
 40
0.4995926731139607
 40
0.6246817606491045
 40
0.7496818425173599
 40
0.8748013780954851
 40
1.0
 40
1.0
 40
1.0
 40
1.0
 10
234.9921559117352
 20
199.880570578109
 30
0.0
 10
234.976572086893
 20
199.8876422935011
 30
0.0
 10
234.9478651226657
 20
199.9006691006453
 30
0.0
 10
234.8940990674243
 20
199.9210658326665
 30
0.0
 10
234.7981856421655
 20
199.9509667827424
 30
0.0
 10
234.6689967285831
 20
199.9695677684845
 30
0.0
 10
234.5286140588299
 20
199.9608499696977
 30
0.0
 10
234.4257932607629
 20
199.9419939022385
 30
0.0
 10
234.3314117427556
 20
199.9109189314621
 30
0.0
 10
234.27939587437
 20
199.8834150659656
 30
0.0
 10
234.2533797231466
 20
199.8696587883874
 30
0.0
  0
SPLINE
  5
117
330
1F
100
AcDbEntity
  8
0
  6
Continuous
 62
     7
370
     0
100
AcDbSpline
210
0.0
220
0.0
230
1.0
 70
     8
 71
     3
 72
    14
 73
    10
 74
     0
 42
0.000000001
 43
0.00000001
 40
0.0
 40
0.0
 40
0.0
 40
0.0
 40
0.1253630775418423
 40
0.2506826249695307
 40
0.3937251744239492
 40
0.5010193669162346
 40
0.7494139240249061
 40
0.8746544750575744
 40
1.0
 40
1.0
 40
1.0
 40
1.0
 10
235.0016263597282
 20
199.4360166076715
 30
0.0
 10
235.0263162228037
 20
199.4534807169622
 30
0.0
 10
235.075687375836
 20
199.4884028714402
 30
0.0
 10
235.1388502617923
 20
199.5483146354372
 30
0.0
 10
235.1795375851047
 20
199.6099785143195
 30
0.0
 10
235.1987538436854
 20
199.6945551880385
 30
0.0
 10
235.1576345791266
 20
199.7738885799822
 30
0.0
 10
235.0723653135329
 20
199.8393644850569
 30
0.0
 10
235.0188998448047
 20
199.8668313783401
 30
0.0
 10
234.9921559117352
 20
199.880570578109
 30
0.0
  0
SPLINE
  5
118
330
1F
100
AcDbEntity
  8
0
  6
Continuous
 62
     7
370
     0
100
AcDbSpline
210
0.0
220
0.0
230
1.0
 70
     8
 71
     3
 72
     8
 73
     4
 74
     0
 42
0.000000001
 43
0.00000001
 40
0.0
 40
0.0
 40
0.0
 40
0.0
 40
1.0
 40
1.0
 40
1.0
 40
1.0
 10
235.2491772656361
 20
199.3401325337765
 30
0.0
 10
235.1666342683536
 20
199.3726285628976
 30
0.0
 10
235.0841154592533
 20
199.4045908560483
 30
0.0
 10
235.0016263597282
 20
199.4360166076715
 30
0.0
  0
SPLINE
  5
119
330
1F
100
AcDbEntity
  8
0
  6
Continuous
 62
     7
370
     0
100
AcDbSpline
210
0.0
220
0.0
230
1.0
 70
     8
 71
     3
 72
    15
 73
    11
 74
     0
 42
0.000000001
 43
0.00000001
 40
0.0
 40
0.0
 40
0.0
 40
0.0
 40
0.0627787189007926
 40
0.1255404537924009
 40
0.250921799751138
 40
0.4999930802217175
 40
0.7490704743254035
 40
0.8744612101315473
 40
0.9372214876468202
 40
1.0
 40
1.0
 40
1.0
 40
1.0
 10
235.2328140446584
 20
200.0271570032839
 30
0.0
 10
235.2534611002176
 20
200.0167608750188
 30
0.0
 10
235.2947496255295
 20
199.9959714310331
 30
0.0
 10
235.3712363721782
 20
199.9507159685498
 30
0.0
 10
235.4812354116642
 20
199.8606687226708
 30
0.0
 10
235.5601253266704
 20
199.7026303770676
 30
0.0
 10
235.4889487460073
 20
199.5359546537845
 30
0.0
 10
235.3835988499635
 20
199.4330766756026
 30
0.0
 10
235.3096387442548
 20
199.3787312521651
 30
0.0
 10
235.2693330433452
 20
199.3530000190823
 30
0.0
 10
235.2491772656361
 20
199.3401325337765
 30
0.0
  0
SPLINE
  5
11A
330
1F
100
AcDbEntity
  8
0
  6
Continuous
 62
     7
370
     0
100
AcDbSpline
210
0.0
220
0.0
230
1.0
 70
     8
 71
     3
 72
    16
 73
    12
 74
     0
 42
0.000000001
 43
0.00000001
 40
0.0
 40
0.0
 40
0.0
 40
0.0
 40
0.0626827915024328
 40
0.1253483298378036
 40
0.2504777186787207
 40
0.499163760494237
 40
0.6242589209323784
 40
0.7494133056485491
 40
0.8746428196545928
 40
0.9373144782055619
 40
1.0
 40
1.0
 40
1.0
 40
1.0
 10
234.0396852156425
 20
199.9689962599925
 30
0.0
 10
234.0600026458291
 20
199.9802734263982
 30
0.0
 10
234.1006319139174
 20
200.0028246552185
 30
0.0
 10
234.1893411586956
 20
200.0441182279864
 30
0.0
 10
234.359975419613
 20
200.1058310054949
 30
0.0
 10
234.5881218604012
 20
200.1430289666231
 30
0.0
 10
234.8096585848829
 20
200.1405326050032
 30
0.0
 10
234.9676445557855
 20
200.1194294111081
 30
0.0
 10
235.0853359025499
 20
200.086479484346
 30
0.0
 10
235.1723374879815
 20
200.0545340067069
 30
0.0
 10
235.2126537062433
 20
200.0362833438715
 30
0.0
 10
235.2328140446584
 20
200.0271570032839
 30
0.0
  0
SPLINE
  5
11B
330
1F
100
AcDbEntity
  8
0
  6
Continuous
 62
     7
370
     0
100
AcDbSpline
210
0.0
220
0.0
230
1.0
 70
     8
 71
     3
 72
    15
 73
    11
 74
     0
 42
0.000000001
 43
0.00000001
 40
0.0
 40
0.0
 40
0.0
 40
0.0
 40
0.1002638719455936
 40
0.2506188090589285
 40
0.3758439836045986
 40
0.5008774064868291
 40
0.7495964227322608
 40
0.8747064182623573
 40
0.9373398676134688
 40
1.0
 40
1.0
 40
1.0
 40
1.0
 10
234.0255467072549
 20
199.3756334924501
 30
0.0
 10
234.005180239267
 20
199.3937423395246
 30
0.0
 10
233.9542723713298
 20
199.4390070754578
 30
0.0
 10
233.8855279264212
 20
199.5084461268757
 30
0.0
 10
233.8256931603648
 20
199.5858218745372
 30
0.0
 10
233.7925255658965
 20
199.6899778104354
 30
0.0
 10
233.8299942617705
 20
199.8014607081614
 30
0.0
 10
233.9211102844292
 20
199.8891429855093
 30
0.0
 10
233.9849172223781
 20
199.936199651268
 30
0.0
 10
234.0214266261569
 20
199.9580625050833
 30
0.0
 10
234.0396852156425
 20
199.9689962599925
 30
0.0
  0
SPLINE
  5
11C
330
1F
100
AcDbEntity
  8
0
  6
Continuous
 62
     7
370
     0
100
AcDbSpline
210
0.0
220
0.0
230
1.0
 70
     8
 71
     3
 72
    16
 73
    12
 74
     0
 42
0.000000001
 43
0.00000001
 40
0.0
 40
0.0
 40
0.0
 40
0.0
 40
0.0625795252929866
 40
0.1251155320466017
 40
0.2498237836924319
 40
0.374467179211314
 40
0.4993284528219167
 40
0.6205760330363682
 40
0.7853909342520001
 40
0.8873882838057245
 40
1.0
 40
1.0
 40
1.0
 40
1.0
 10
234.1526395275844
 20
198.8865189474083
 30
0.0
 10
234.1673413864786
 20
198.8955112835844
 30
0.0
 10
234.1967348804212
 20
198.9134897025601
 30
0.0
 10
234.2453579315593
 20
198.9535218118407
 30
0.0
 10
234.2862386803093
 20
199.0094810950237
 30
0.0
 10
234.2923703534887
 20
199.0798658192749
 30
0.0
 10
234.2615494293495
 20
199.1452503324344
 30
0.0
 10
234.2031709647384
 20
199.2109806529723
 30
0.0
 10
234.1426227382498
 20
199.2706709737164
 30
0.0
 10
234.0804094579244
 20
199.3275260590859
 30
0.0
 10
234.0444275022685
 20
199.3590775127208
 30
0.0
 10
234.0255467072549
 20
199.3756334924501
 30
0.0
  0
SPLINE
  5
11D
330
1F
100
AcDbEntity
  8
0
  6
Continuous
 62
     7
370
     0
100
AcDbSpline
210
0.0
220
0.0
230
1.0
 70
     8
 71
     3
 72
    16
 73
    12
 74
     0
 42
0.000000001
 43
0.00000001
 40
0.0
 40
0.0
 40
0.0
 40
0.0
 40
0.1251298534570193
 40
0.2501927365502815
 40
0.3929614418558045
 40
0.5001165276216132
 40
0.6428346219243659
 40
0.7499384737279058
 40
0.8748622099567014
 40
0.9374171835512063
 40
1.0
 40
1.0
 40
1.0
 40
1.0
 10
233.3617979216032
 20
198.8865824228337
 30
0.0
 10
233.3889411078474
 20
198.8744529975122
 30
0.0
 10
233.4432129531146
 20
198.8502006386214
 30
0.0
 10
233.5395518033617
 20
198.8190129973691
 30
0.0
 10
233.6415908275797
 20
198.7980714712016
 30
0.0
 10
233.7564158658485
 20
198.7890148770642
 30
0.0
 10
233.8642303055315
 20
198.7936613259516
 30
0.0
 10
233.9734851225436
 20
198.812498453349
 30
0.0
 10
234.0522622277873
 20
198.8376195165984
 30
0.0
 10
234.112042504582
 20
198.8641082753764
 30
0.0
 10
234.1391051794571
 20
198.8790476154087
 30
0.0
 10
234.1526395275844
 20
198.8865189474083
 30
0.0
  0
SPLINE
  5
11E
330
1F
100
AcDbEntity
  8
0
  6
Continuous
 62
     7
370
     0
100
AcDbSpline
210
0.0
220
0.0
230
1.0
 70
     8
 71
     3
 72
    15
 73
    11
 74
     0
 42
0.000000001
 43
0.00000001
 40
0.0
 40
0.0
 40
0.0
 40
0.0
 40
0.1251442851864203
 40
0.2502017963495106
 40
0.3751051540460504
 40
0.5000187501400094
 40
0.6249636838007124
 40
0.7499233596452589
 40
0.8749319668218593
 40
1.0
 40
1.0
 40
1.0
 40
1.0
 10
233.3523453571765
 20
199.4055028745996
 30
0.0
 10
233.3232602514331
 20
199.3848310788599
 30
0.0
 10
233.2651102073206
 20
199.3435018210346
 30
0.0
 10
233.1940740591514
 20
199.2767485234605
 30
0.0
 10
233.1442034089209
 20
199.205821636586
 30
0.0
 10
233.1319493408909
 20
199.1326720095622
 30
0.0
 10
233.1506760115469
 20
199.0618977740006
 30
0.0
 10
233.1963123653216
 20
198.9956069905777
 30
0.0
 10
233.2673417184806
 20
198.9360909037797
 30
0.0
 10
233.3303075330159
 20
198.9030878639992
 30
0.0
 10
233.3617979216032
 20
198.8865824228337
 30
0.0
  0
SPLINE
  5
11F
330
1F
100
AcDbEntity
  8
0
  6
Continuous
 62
     7
370
     0
100
AcDbSpline
210
0.0
220
0.0
230
1.0
 70
     8
 71
     3
 72
     8
 73
     4
 74
     0
 42
0.000000001
 43
0.00000001
 40
0.0
 40
0.0
 40
0.0
 40
0.0
 40
1.0
 40
1.0
 40
1.0
 40
1.0
 10
233.1060163840217
 20
199.4851325066668
 30
0.0
 10
233.1880706388714
 20
199.459137846317
 30
0.0
 10
233.2701821268317
 20
199.432593836422
 30
0.0
 10
233.3523453571765
 20
199.4055028745996
 30
0.0
  0
SPLINE
  5
120
330
1F
100
AcDbEntity
  8
0
  6
Continuous
 62
     7
370
     0
100
AcDbSpline
210
0.0
220
0.0
230
1.0
 70
     8
 71
     3
 72
    17
 73
    13
 74
     0
 42
0.000000001
 43
0.00000001
 40
0.0
 40
0.0
 40
0.0
 40
0.0
 40
0.0625856100871909
 40
0.1251549030271025
 40
0.2501430453663078
 40
0.3756899044279641
 40
0.499944964669345
 40
0.6248671745802231
 40
0.7498239565756938
 40
0.8748397203247772
 40
0.9374129209274165
 40
1.0
 40
1.0
 40
1.0
 40
1.0
 10
233.0949831386933
 20
198.7524316270981
 30
0.0
 10
233.0718931961382
 20
198.7638874654309
 30
0.0
 10
233.025719330974
 20
198.7867961553618
 30
0.0
 10
232.9424663339748
 20
198.8366981555689
 30
0.0
 10
232.8556319831997
 20
198.9061998292811
 30
0.0
 10
232.7903149305481
 20
199.0001795359259
 30
0.0
 10
232.7719348580943
 20
199.1014097693727
 30
0.0
 10
232.7975388015796
 20
199.2045536355211
 30
0.0
 10
232.8686263178187
 20
199.3050396296763
 30
0.0
 10
232.9552069814723
 20
199.3838549435822
 30
0.0
 10
233.038084316928
 20
199.4429032314948
 30
0.0
 10
233.0833706877887
 20
199.4710550410662
 30
0.0
 10
233.1060163840217
 20
199.4851325066668
 30
0.0
  0
SPLINE
  5
121
330
1F
100
AcDbEntity
  8
0
  6
Continuous
 62
     7
370
     0
100
AcDbSpline
210
0.0
220
0.0
230
1.0
 70
     8
 71
     3
 72
    16
 73
    12
 74
     0
 42
0.000000001
 43
0.00000001
 40
0.0
 40
0.0
 40
0.0
 40
0.0
 40
0.0625855665553846
 40
0.1251419478590782
 40
0.2500971494983076
 40
0.3750709526752726
 40
0.49998807433553
 40
0.6248991864886235
 40
0.7498369235043448
 40
0.8748857555372332
 40
1.0
 40
1.0
 40
1.0
 40
1.0
 10
234.3791371476185
 20
198.7776561512486
 30
0.0
 10
234.357146476829
 20
198.7656815256043
 30
0.0
 10
234.3131753900627
 20
198.7417378583901
 30
0.0
 10
234.2173263164191
 20
198.6986465636619
 30
0.0
 10
234.0830886354969
 20
198.6557073485283
 30
0.0
 10
233.9084128235071
 20
198.6227960449775
 30
0.0
 10
233.7269075643451
 20
198.608755383827
 30
0.0
 10
233.5471839790208
 20
198.6182376731284
 30
0.0
 10
233.3788746732274
 20
198.6479067622233
 30
0.0
 10
233.2267259672332
 20
198.6938833957642
 30
0.0
 10
233.138905069318
 20
198.7329121482518
 30
0.0
 10
233.0949831386933
 20
198.7524316270981
 30
0.0
  0
SPLINE
  5
122
330
1F
100
AcDbEntity
  8
0
  6
Continuous
 62
     7
370
     0
100
AcDbSpline
210
0.0
220
0.0
230
1.0
 70
     8
 71
     3
 72
    16
 73
    12
 74
     0
 42
0.000000001
 43
0.00000001
 40
0.0
 40
0.0
 40
0.0
 40
0.0
 40
0.1251211158362837
 40
0.2501811140306917
 40
0.375546589345489
 40
0.5001494650777396
 40
0.666549479328141
 40
0.7499242508552415
 40
0.8748533350169856
 40
0.9374120666503226
 40
1.0
 40
1.0
 40
1.0
 40
1.0
 10
237.375380483126
 20
196.9672527369925
 30
0.0
 10
237.334220837779
 20
196.9451026693168
 30
0.0
 10
237.2519216522484
 20
196.900813353561
 30
0.0
 10
237.1083703903477
 20
196.851547099495
 30
0.0
 10
236.9520232203873
 20
196.8191888833856
 30
0.0
 10
236.7670991764151
 20
196.807861338732
 30
0.0
 10
236.5966963088752
 20
196.821631741286
 30
0.0
 10
236.4331847014701
 20
196.8575468210962
 30
0.0
 10
236.3232438288612
 20
196.8982431391849
 30
0.0
 10
236.2327234507955
 20
196.9448340817453
 30
0.0
 10
236.1916876040652
 20
196.9709120779494
 30
0.0
 10
236.1711648930489
 20
196.9839541185706
 30
0.0
  0
SPLINE
  5
123
330
1F
100
AcDbEntity
  8
0
  6
Continuous
 62
     7
370
     0
100
AcDbSpline
210
0.0
220
0.0
230
1.0
 70
     8
 71
     3
 72
    16
 73
    12
 74
     0
 42
0.000000001
 43
0.00000001
 40
0.0
 40
0.0
 40
0.0
 40
0.0
 40
0.0625698984382212
 40
0.1251290334456577
 40
0.2501086358182236
 40
0.3750849225922321
 40
0.5001003749486007
 40
0.6997810841216565
 40
0.8498368638193778
 40
0.9249143285961038
 40
0.9999999999999999
 40
0.9999999999999999
 40
0.9999999999999999
 40
0.9999999999999999
 10
237.5873348566367
 20
197.5187199415892
 30
0.0
 10
237.5951916375807
 20
197.5064658878433
 30
0.0
 10
237.6109038479256
 20
197.4819598883246
 30
0.0
 10
237.6350347763362
 20
197.4314820382487
 30
0.0
 10
237.6533432932921
 20
197.3667842975696
 30
0.0
 10
237.6542429676848
 20
197.28872864209
 30
0.0
 10
237.6278906317453
 20
197.1981145156622
 30
0.0
 10
237.5672953161854
 20
197.1097811848792
 30
0.0
 10
237.4884774537349
 20
197.0418868314633
 30
0.0
 10
237.4265010645171
 20
196.9975344523596
 30
0.0
 10
237.3924212977588
 20
196.9773470098723
 30
0.0
 10
237.375380483126
 20
196.9672527369925
 30
0.0
  0
SPLINE
  5
124
330
1F
100
AcDbEntity
  8
0
  6
Continuous
 62
     7
370
     0
100
AcDbSpline
210
0.0
220
0.0
230
1.0
 70
     8
 71
     3
 72
    13
 73
     9
 74
     0
 42
0.000000001
 43
0.00000001
 40
0.0
 40
0.0
 40
0.0
 40
0.0
 40
0.1252840493845651
 40
0.2504984224740349
 40
0.5001336699049004
 40
0.7495724329694106
 40
0.874736835167876
 40
1.0
 40
1.0
 40
1.0
 40
1.0
 10
238.26911542939
 20
197.5887506183177
 30
0.0
 10
238.2464835880045
 20
197.5763670276434
 30
0.0
 10
238.2012324918547
 20
197.5516067333863
 30
0.0
 10
238.1002514890338
 20
197.5109348034964
 30
0.0
 10
237.9573849834898
 20
197.4765785582089
 30
0.0
 10
237.7996208838045
 20
197.4768942183611
 30
0.0
 10
237.6761178329373
 20
197.4952170648199
 30
0.0
 10
237.6169369619095
 20
197.510883589832
 30
0.0
 10
237.5873348566367
 20
197.5187199415892
 30
0.0
  0
SPLINE
  5
125
330
1F
100
AcDbEntity
  8
0
  6
Continuous
 62
     7
370
     0
100
AcDbSpline
210
0.0
220
0.0
230
1.0
 70
     8
 71
     3
 72
    16
 73
    12
 74
     0
 42
0.000000001
 43
0.00000001
 40
0.0
 40
0.0
 40
0.0
 40
0.0
 40
0.0625805693480136
 40
0.1251378661615828
 40
0.2500256142483723
 40
0.3749099005374583
 40
0.4998790156666243
 40
0.6249115350621564
 40
0.7498531354868925
 40
0.8749004598437079
 40
1.0
 40
1.0
 40
1.0
 40
1.0
 10
238.3441527837921
 20
198.2426874194921
 30
0.0
 10
238.3607794734986
 20
198.2308025618034
 30
0.0
 10
238.394026669759
 20
198.2070372661806
 30
0.0
 10
238.4512145309367
 20
198.1548652952621
 30
0.0
 10
238.5066208164204
 20
198.0831452772991
 30
0.0
 10
238.5361526952967
 20
197.9903854026741
 30
0.0
 10
238.5350463126939
 20
197.897367438097
 30
0.0
 10
238.5059908316844
 20
197.8074241884813
 30
0.0
 10
238.4488019008291
 20
197.7246309378614
 30
0.0
 10
238.3688784906703
 20
197.6508566977843
 30
0.0
 10
238.3023744105166
 20
197.6094555255081
 30
0.0
 10
238.26911542939
 20
197.5887506183177
 30
0.0
  0
SPLINE
  5
126
330
1F
100
AcDbEntity
  8
0
  6
Continuous
 62
     7
370
     0
100
AcDbSpline
210
0.0
220
0.0
230
1.0
 70
     8
 71
     3
 72
    16
 73
    12
 74
     0
 42
0.000000001
 43
0.00000001
 40
0.0
 40
0.0
 40
0.0
 40
0.0
 40
0.1250889871004341
 40
0.2501467135631002
 40
0.3929270099957524
 40
0.5000907602932222
 40
0.6274342659816174
 40
0.7499795038187509
 40
0.8748689312895639
 40
0.9374208143943441
 40
1.0
 40
1.0
 40
1.0
 40
1.0
 10
237.3169708962923
 20
198.2413153192676
 30
0.0
 10
237.352168533108
 20
198.2601987075414
 30
0.0
 10
237.4225550105969
 20
198.2979607649945
 30
0.0
 10
237.5500084515173
 20
198.3440974909745
 30
0.0
 10
237.6845656601013
 20
198.3730485123805
 30
0.0
 10
237.8277506939923
 20
198.3838350873045
 30
0.0
 10
237.9659015644905
 20
198.378936043349
 30
0.0
 10
238.1071185622725
 20
198.3529015531495
 30
0.0
 10
238.2148054637783
 20
198.3153065165939
 30
0.0
 10
238.2916050780775
 20
198.2759006723978
 30
0.0
 10
238.3266343341951
 20
198.2537601140858
 30
0.0
 10
238.3441527837921
 20
198.2426874194921
 30
0.0
  0
SPLINE
  5
127
330
1F
100
AcDbEntity
  8
0
  6
Continuous
 62
     7
370
     0
100
AcDbSpline
210
0.0
220
0.0
230
1.0
 70
     8
 71
     3
 72
    13
 73
     9
 74
     0
 42
0.000000001
 43
0.00000001
 40
0.0
 40
0.0
 40
0.0
 40
0.0
 40
0.1252653966353248
 40
0.2504280287003157
 40
0.4998107605113103
 40
0.7494990940726852
 40
0.8747146500223176
 40
0.9999999999999999
 40
0.9999999999999999
 40
0.9999999999999999
 40
0.9999999999999999
 10
237.137799875488
 20
197.8217659243236
 30
0.0
 10
237.1278427440755
 20
197.8408212890823
 30
0.0
 10
237.1079366498297
 20
197.8789163860593
 30
0.0
 10
237.0892499726582
 20
197.9570902402197
 30
0.0
 10
237.1050822827067
 20
198.0552656429673
 30
0.0
 10
237.1757313456586
 20
198.1412699464942
 30
0.0
 10
237.250889476357
 20
198.2014156068639
 30
0.0
 10
237.2949396652573
 20
198.2280129449685
 30
0.0
 10
237.3169708962923
 20
198.2413153192676
 30
0.0
  0
SPLINE
  5
128
330
1F
100
AcDbEntity
  8
0
  6
Continuous
 62
     7
370
     0
100
AcDbSpline
210
0.0
220
0.0
230
1.0
 70
     8
 71
     3
 72
    14
 73
    10
 74
     0
 42
0.000000001
 43
0.00000001
 40
0.0
 40
0.0
 40
0.0
 40
0.0
 40
0.1253177412709348
 40
0.250615269476727
 40
0.5002779589291654
 40
0.7495301291181958
 40
0.874665416895858
 40
0.9373257528056922
 40
1.0
 40
1.0
 40
1.0
 40
1.0
 10
236.2572942266605
 20
197.7300542527716
 30
0.0
 10
236.2866315764749
 20
197.7462257950224
 30
0.0
 10
236.3453015441499
 20
197.7785662711428
 30
0.0
 10
236.4765989924555
 20
197.8325123567588
 30
0.0
 10
236.6617863544795
 20
197.8805223980874
 30
0.0
 10
236.8683565967057
 20
197.8843082142965
 30
0.0
 10
237.0073433918156
 20
197.8609998396618
 30
0.0
 10
237.0833230436999
 20
197.8406016245667
 30
0.0
 10
237.119639587929
 20
197.8280449556396
 30
0.0
 10
237.137799875488
 20
197.8217659243236
 30
0.0
  0
SPLINE
  5
129
330
1F
100
AcDbEntity
  8
0
  6
Continuous
 62
     7
370
     0
100
AcDbSpline
210
0.0
220
0.0
230
1.0
 70
     8
 71
     3
 72
    17
 73
    13
 74
     0
 42
0.000000001
 43
0.00000001
 40
0.0
 40
0.0
 40
0.0
 40
0.0
 40
0.0625793915239979
 40
0.1251304534509945
 40
0.2500366663791496
 40
0.3749355344688458
 40
0.4998839605297372
 40
0.6426305843103128
 40
0.7497974123321112
 40
0.8748426961108017
 40
0.9374152445515298
 40
1.0
 40
1.0
 40
1.0
 40
1.0
 10
236.1711648930489
 20
196.9839541185706
 30
0.0
 10
236.1517387895474
 20
196.9978321839294
 30
0.0
 10
236.1128953767126
 20
197.0255820320675
 30
0.0
 10
236.0452872588948
 20
197.0855361626677
 30
0.0
 10
235.9810351780528
 20
197.1676888179529
 30
0.0
 10
235.9450270647108
 20
197.2726028908843
 30
0.0
 10
235.944483835065
 20
197.382759143921
 30
0.0
 10
235.9815618563324
 20
197.4841480195802
 30
0.0
 10
236.0509011198988
 20
197.5773299036108
 30
0.0
 10
236.1256224035948
 20
197.6432050833403
 30
0.0
 10
236.1980065024761
 20
197.6944583137617
 30
0.0
 10
236.2375303669677
 20
197.7181881682845
 30
0.0
 10
236.2572942266605
 20
197.7300542527716
 30
0.0
  0
SPLINE
  5
12A
330
1F
100
AcDbEntity
  8
0
  6
Continuous
 62
     7
370
     0
100
AcDbSpline
210
0.0
220
0.0
230
1.0
 70
     8
 71
     3
 72
    16
 73
    12
 74
     0
 42
0.000000001
 43
0.00000001
 40
0.0
 40
0.0
 40
0.0
 40
0.0
 40
0.062564798547447
 40
0.1251035349199321
 40
0.2498538211251517
 40
0.3714414588608156
 40
0.4997975618923142
 40
0.6202135167835358
 40
0.7497910752833418
 40
0.8748595856835107
 40
1.0
 40
1.0
 40
1.0
 40
1.0
 10
240.3119050704692
 20
195.742536346812
 30
0.0
 10
240.3304400732723
 20
195.7255301195004
 30
0.0
 10
240.3675023578836
 20
195.6915247490409
 30
0.0
 10
240.4271110314819
 20
195.6169011901855
 30
0.0
 10
240.4743875882124
 20
195.5170873165678
 30
0.0
 10
240.4905716583816
 20
195.3945253614906
 30
0.0
 10
240.4731819959346
 20
195.2774084637319
 30
0.0
 10
240.4235664130914
 20
195.1664955905137
 30
0.0
 10
240.3462499872165
 20
195.0686639606804
 30
0.0
 10
240.2465558605129
 20
194.982284566748
 30
0.0
 10
240.1691138216848
 20
194.9345727562034
 30
0.0
 10
240.1303816747983
 20
194.9107099953282
 30
0.0
  0
SPLINE
  5
12B
330
1F
100
AcDbEntity
  8
0
  6
Continuous
 62
     7
370
     0
100
AcDbSpline
210
0.0
220
0.0
230
1.0
 70
     8
 71
     3
 72
    11
 73
     7
 74
     0
 42
0.000000001
 43
0.00000001
 40
0.0
 40
0.0
 40
0.0
 40
0.0
 40
0.2500771941306491
 40
0.5000175858752958
 40
0.7499382381823037
 40
1.0
 40
1.0
 40
1.0
 40
1.0
 10
239.9227105888999
 20
195.9532427523606
 30
0.0
 10
239.959009365172
 20
195.9405503265627
 30
0.0
 10
240.0315870608108
 20
195.9151724182397
 30
0.0
 10
240.134006972018
 20
195.866295894522
 30
0.0
 10
240.2290333142863
 20
195.8090844872403
 30
0.0
 10
240.2842759547175
 20
195.7647232336314
 30
0.0
 10
240.3119050704692
 20
195.742536346812
 30
0.0
  0
SPLINE
  5
12C
330
1F
100
AcDbEntity
  8
0
  6
Continuous
 62
     7
370
     0
100
AcDbSpline
210
0.0
220
0.0
230
1.0
 70
     8
 71
     3
 72
     8
 73
     4
 74
     0
 42
0.000000001
 43
0.00000001
 40
0.0
 40
0.0
 40
0.0
 40
0.0
 40
1.0
 40
1.0
 40
1.0
 40
1.0
 10
240.5242775992948
 20
196.190633550936
 30
0.0
 10
240.3237682209988
 20
196.1115620934589
 30
0.0
 10
240.1232457993427
 20
196.0324318982985
 30
0.0
 10
239.9227105888999
 20
195.9532427523606
 30
0.0
  0
ARC
  5
12D
330
1F
100
AcDbEntity
  8
0
  6
Continuous
 62
     7
370
     0
100
AcDbCircle
 10
219.4469610758
 20
171.0957774796
 30
0.0
 40
32.77201661585529
100
AcDbArc
 50
48.4726179947
 51
49.9729034917
  0
LINE
  5
12E
330
1F
100
AcDbEntity
  8
0
  6
Continuous
 62
     7
370
     0
100
AcDbLine
 10
241.4220304651
 20
195.7733225696
 30
0.0
 11
241.1740839314
 21
195.6301860824
 31
0.0
  0
ARC
  5
12F
330
1F
100
AcDbEntity
  8
0
  6
Continuous
 62
     7
370
     0
100
AcDbCircle
 10
219.8148659703
 20
171.3771146348
 30
0.0
 40
32.58902451899578
100
AcDbArc
 50
48.4694208578
 51
50.3907599097
  0
SPLINE
  5
130
330
1F
100
AcDbEntity
  8
0
  6
Continuous
 62
     7
370
     0
100
AcDbSpline
210
0.0
220
0.0
230
1.0
 70
     8
 71
     3
 72
     8
 73
     4
 74
     0
 42
0.000000001
 43
0.00000001
 40
0.0
 40
0.0
 40
0.0
 40
0.0
 40
1.0
 40
1.0
 40
1.0
 40
1.0
 10
239.3433094567992
 20
195.9894608712532
 30
0.0
 10
239.7595721892236
 20
196.1545767558771
 30
0.0
 10
240.1757835529618
 20
196.31943557461
 30
0.0
 10
240.5919412650894
 20
196.4840392034213
 30
0.0
  0
SPLINE
  5
131
330
1F
100
AcDbEntity
  8
0
  6
Continuous
 62
     7
370
     0
100
AcDbSpline
210
0.0
220
0.0
230
1.0
 70
     8
 71
     3
 72
     8
 73
     4
 74
     0
 42
0.000000001
 43
0.00000001
 40
0.0
 40
0.0
 40
0.0
 40
0.0
 40
1.0
 40
1.0
 40
1.0
 40
1.0
 10
239.5274326983286
 20
195.7937977637962
 30
0.0
 10
239.4661532135139
 20
195.8594728379394
 30
0.0
 10
239.4047769964695
 20
195.9246953588584
 30
0.0
 10
239.3433094567992
 20
195.9894608712532
 30
0.0
  0
SPLINE
  5
132
330
1F
100
AcDbEntity
  8
0
  6
Continuous
 62
     7
370
     0
100
AcDbSpline
210
0.0
220
0.0
230
1.0
 70
     8
 71
     3
 72
    13
 73
     9
 74
     0
 42
0.000000001
 43
0.00000001
 40
0.0
 40
0.0
 40
0.0
 40
0.0
 40
0.1251847097082084
 40
0.250262499704328
 40
0.499926532985883
 40
0.7496170513301638
 40
0.8747749619545573
 40
1.0
 40
1.0
 40
1.0
 40
1.0
 10
240.0316416634717
 20
195.6664043259356
 30
0.0
 10
240.0151615133343
 20
195.6793923426495
 30
0.0
 10
239.9822152886834
 20
195.705357283069
 30
0.0
 10
239.9046405323342
 20
195.7478018846511
 30
0.0
 10
239.7958803655877
 20
195.7852136105065
 30
0.0
 10
239.6818285691702
 20
195.8005648797204
 30
0.0
 10
239.5924228396857
 20
195.8004466417004
 30
0.0
 10
239.5490999503889
 20
195.7960144525194
 30
0.0
 10
239.5274326983286
 20
195.7937977637962
 30
0.0
  0
SPLINE
  5
133
330
1F
100
AcDbEntity
  8
0
  6
Continuous
 62
     7
370
     0
100
AcDbSpline
210
0.0
220
0.0
230
1.0
 70
     8
 71
     3
 72
    15
 73
    11
 74
     0
 42
0.000000001
 43
0.00000001
 40
0.0
 40
0.0
 40
0.0
 40
0.0
 40
0.1253495801705154
 40
0.250659919426428
 40
0.375906679596472
 40
0.5010417308309505
 40
0.7496862051623807
 40
0.8746835149766056
 40
0.9373192359432202
 40
1.0
 40
1.0
 40
1.0
 40
1.0
 10
239.9052970577453
 20
195.0919710651026
 30
0.0
 10
239.9323571514566
 20
195.1086634083356
 30
0.0
 10
239.9864688676677
 20
195.1420428692334
 30
0.0
 10
240.0575246340733
 20
195.2000593543927
 30
0.0
 10
240.1136251606763
 20
195.2671152650595
 30
0.0
 10
240.1645501754532
 20
195.3665110196206
 30
0.0
 10
240.166052843493
 20
195.4827760433595
 30
0.0
 10
240.1141818279893
 20
195.579678215463
 30
0.0
 10
240.0706380862392
 20
195.6309328047079
 30
0.0
 10
240.0446435855025
 20
195.6545776526003
 30
0.0
 10
240.0316416634717
 20
195.6664043259356
 30
0.0
  0
SPLINE
  5
134
330
1F
100
AcDbEntity
  8
0
  6
Continuous
 62
     7
370
     0
100
AcDbSpline
210
0.0
220
0.0
230
1.0
 70
     8
 71
     3
 72
    16
 73
    12
 74
     0
 42
0.000000001
 43
0.00000001
 40
0.0
 40
0.0
 40
0.0
 40
0.0
 40
0.0625568803557656
 40
0.1250886456959733
 40
0.249823695431128
 40
0.3746883977337565
 40
0.4996668591645551
 40
0.6247035305831705
 40
0.7497357800776755
 40
0.8748599883283994
 40
1.0
 40
1.0
 40
1.0
 40
1.0
 10
239.0344106934106
 20
195.0984935199526
 30
0.0
 10
239.0492537400037
 20
195.0866632008521
 30
0.0
 10
239.0789338740797
 20
195.0630073122271
 30
0.0
 10
239.1478504500778
 20
195.0229061453276
 30
0.0
 10
239.2455202374163
 20
194.9863293630521
 30
0.0
 10
239.3684835329192
 20
194.9656190504094
 30
0.0
 10
239.490793397207
 20
194.9606817948945
 30
0.0
 10
239.6070790297451
 20
194.9755018986846
 30
0.0
 10
239.7156510990327
 20
195.003380935789
 30
0.0
 10
239.8151252146548
 20
195.0431397117061
 30
0.0
 10
239.8752385113914
 20
195.0756932620847
 30
0.0
 10
239.9052970577453
 20
195.0919710651026
 30
0.0
  0
SPLINE
  5
135
330
1F
100
AcDbEntity
  8
0
  6
Continuous
 62
     7
370
     0
100
AcDbSpline
210
0.0
220
0.0
230
1.0
 70
     8
 71
     3
 72
    16
 73
    12
 74
     0
 42
0.000000001
 43
0.00000001
 40
0.0
 40
0.0
 40
0.0
 40
0.0
 40
0.1379233981933645
 40
0.2502472527040959
 40
0.3818701388740407
 40
0.5003541146048737
 40
0.6430936768241643
 40
0.7502097280840425
 40
0.874910398510878
 40
0.937446223605817
 40
1.0
 40
1.0
 40
1.0
 40
1.0
 10
239.1311833712761
 20
195.6029233988209
 30
0.0
 10
239.1086755947592
 20
195.5846873298916
 30
0.0
 10
239.0678376418692
 20
195.5515999334855
 30
0.0
 10
239.0128765273223
 20
195.4965757253266
 30
0.0
 10
238.9704170280557
 20
195.4393700167171
 30
0.0
 10
238.9374966887333
 20
195.3720459102598
 30
0.0
 10
238.9270499224336
 20
195.3029848396084
 30
0.0
 10
238.938115786985
 20
195.2305766758695
 30
0.0
 10
238.9647982185862
 20
195.1738814452404
 30
0.0
 10
239.0008540697544
 20
195.1292348584309
 30
0.0
 10
239.0232240821035
 20
195.1087416130903
 30
0.0
 10
239.0344106934106
 20
195.0984935199526
 30
0.0
  0
SPLINE
  5
136
330
1F
100
AcDbEntity
  8
0
  6
Continuous
 62
     7
370
     0
100
AcDbSpline
210
0.0
220
0.0
230
1.0
 70
     8
 71
     3
 72
     8
 73
     4
 74
     0
 42
0.000000001
 43
0.00000001
 40
0.0
 40
0.0
 40
0.0
 40
0.0
 40
1.0
 40
1.0
 40
1.0
 40
1.0
 10
238.8880164684867
 20
195.7642005960501
 30
0.0
 10
238.9691645519739
 20
195.7108976086795
 30
0.0
 10
239.0502219900262
 20
195.6571370606916
 30
0.0
 10
239.1311833712761
 20
195.6029233988209
 30
0.0
  0
SPLINE
  5
137
330
1F
100
AcDbEntity
  8
0
  6
Continuous
 62
     7
370
     0
100
AcDbSpline
210
0.0
220
0.0
230
1.0
 70
     8
 71
     3
 72
    15
 73
    11
 74
     0
 42
0.000000001
 43
0.00000001
 40
0.0
 40
0.0
 40
0.0
 40
0.0
 40
0.0626601510106924
 40
0.1252967808132954
 40
0.2503298908546951
 40
0.499131164955492
 40
0.6215999564257687
 40
0.7494646694161398
 40
0.8747197951606078
 40
0.9999999999999999
 40
0.9999999999999999
 40
0.9999999999999999
 40
0.9999999999999999
 10
238.8161079897
 20
194.9694785441372
 30
0.0
 10
238.7982778555108
 20
194.9854272807504
 30
0.0
 10
238.7626242801628
 20
195.0173187671807
 30
0.0
 10
238.7009882840771
 20
195.0853849989348
 30
0.0
 10
238.6203341880952
 20
195.2127475615506
 30
0.0
 10
238.5998052292327
 20
195.3667735014984
 30
0.0
 10
238.6418846196004
 20
195.5071289143491
 30
0.0
 10
238.703737750987
 20
195.6030006334626
 30
0.0
 10
238.7865382403144
 20
195.6898538258608
 30
0.0
 10
238.854188135132
 20
195.7394166855394
 30
0.0
 10
238.8880164684867
 20
195.7642005960501
 30
0.0
  0
SPLINE
  5
138
330
1F
100
AcDbEntity
  8
0
  6
Continuous
 62
     7
370
     0
100
AcDbSpline
210
0.0
220
0.0
230
1.0
 70
     8
 71
     3
 72
    16
 73
    12
 74
     0
 42
0.000000001
 43
0.00000001
 40
0.0
 40
0.0
 40
0.0
 40
0.0
 40
0.0626482196101812
 40
0.1252863497981883
 40
0.2504883340935483
 40
0.4999565017260356
 40
0.6664476492180228
 40
0.749874313015434
 40
0.8747603764964884
 40
0.9373645182863886
 40
1.0
 40
1.0
 40
1.0
 40
1.0
 10
240.1303816747983
 20
194.9107099953282
 30
0.0
 10
240.1078647866858
 20
194.8983402787661
 30
0.0
 10
240.0628346367791
 20
194.8736028377703
 30
0.0
 10
239.9675112536617
 20
194.8292181203505
 30
0.0
 10
239.7876985239113
 20
194.7664085253039
 30
0.0
 10
239.5349052510871
 20
194.7299965375748
 30
0.0
 10
239.2869407312088
 20
194.7482668974708
 30
0.0
 10
239.1052599649066
 20
194.7963354372804
 30
0.0
 10
238.9825556129553
 20
194.8518636923335
 30
0.0
 10
238.8825577666507
 20
194.9156378595203
 30
0.0
 10
238.8382616102356
 20
194.9515286554977
 30
0.0
 10
238.8161079897
 20
194.9694785441372
 30
0.0
  0
LINE
  5
139
330
1F
100
AcDbEntity
  8
0
  6
Continuous
 62
     7
370
     0
100
AcDbLine
 10
243.4611236866
 20
193.8587667811
 30
0.0
 11
242.116310522
 21
193.0824226661
 31
0.0
  0
ARC
  5
13A
330
1F
100
AcDbEntity
  8
0
  6
Continuous
 62
     7
370
     0
100
AcDbCircle
 10
215.4229128793
 20
167.3399594942
 30
0.0
 40
37.08384942088139
100
AcDbArc
 50
43.9610438534
 51
44.4671790805
  0
SPLINE
  5
13B
330
1F
100
AcDbEntity
  8
0
  6
Continuous
 62
     7
370
     0
100
AcDbSpline
210
0.0
220
0.0
230
1.0
 70
     8
 71
     3
 72
     8
 73
     4
 74
     0
 42
0.000000001
 43
0.00000001
 40
0.0
 40
0.0
 40
0.0
 40
0.0
 40
1.0
 40
1.0
 40
1.0
 40
1.0
 10
241.8878701097726
 20
193.3172173683542
 30
0.0
 10
241.7350738621476
 20
193.0597662097993
 30
0.0
 10
241.5818932436302
 20
192.8013759354246
 30
0.0
 10
241.428309260025
 20
192.5420661349283
 30
0.0
  0
SPLINE
  5
13C
330
1F
100
AcDbEntity
  8
0
  6
Continuous
 62
     7
370
     0
100
AcDbSpline
210
0.0
220
0.0
230
1.0
 70
     8
 71
     3
 72
     8
 73
     4
 74
     0
 42
0.000000001
 43
0.00000001
 40
0.0
 40
0.0
 40
0.0
 40
0.0
 40
1.0
 40
1.0
 40
1.0
 40
1.0
 10
241.428309260025
 20
192.5420661349283
 30
0.0
 10
241.7923967290446
 20
192.5816017029298
 30
0.0
 10
242.156080832523
 20
192.6202177452834
 30
0.0
 10
242.5193427212952
 20
192.6579341823036
 30
0.0
  0
ARC
  5
13D
330
1F
100
AcDbEntity
  8
0
  6
Continuous
 62
     7
370
     0
100
AcDbCircle
 10
214.8974063772
 20
166.8365630726
 30
0.0
 40
37.81156666132188
100
AcDbArc
 50
43.0703705234
 51
43.5699906934
  0
LINE
  5
13E
330
1F
100
AcDbEntity
  8
0
  6
Continuous
 62
     7
370
     0
100
AcDbLine
 10
242.293132619
 20
192.8978131782
 30
0.0
 11
243.6379457836
 21
193.6741572932
 31
0.0
  0
ARC
  5
13F
330
1F
100
AcDbEntity
  8
0
  6
Continuous
 62
     7
370
     0
100
AcDbCircle
 10
216.5031659483
 20
167.8609915332
 30
0.0
 40
37.45151269662051
100
AcDbArc
 50
43.5701581483
 51
43.9612385012
  0
ARC
  5
140
330
1F
100
AcDbEntity
  8
0
  6
Continuous
 62
     7
370
     0
100
AcDbCircle
 10
216.793020048
 20
166.8626158813
 30
0.0
 40
38.5200658897196
100
AcDbArc
 50
2.5637792864
 51
57.4308441809
  0
SPLINE
  5
141
330
1F
100
AcDbEntity
  8
0
  6
Continuous
 62
     7
370
     0
100
AcDbSpline
210
0.0
220
0.0
230
1.0
 70
     8
 71
     3
 72
    16
 73
    12
 74
     0
 42
0.000000001
 43
0.00000001
 40
0.0
 40
0.0
 40
0.0
 40
0.0
 40
0.2502666070979148
 40
0.5003870414468585
 40
0.6253978040240676
 40
0.7501183366664407
 40
0.8126309605029056
 40
0.8750812198716654
 40
0.9374681530762627
 40
0.9687217402228872
 40
1.0
 40
1.0
 40
1.0
 40
1.0
 10
238.257263811733
 20
196.9069273974639
 30
0.0
 10
238.1726888255143
 20
196.8566982641595
 30
0.0
 10
238.003588250631
 20
196.7562693347865
 30
0.0
 10
237.8126106938198
 20
196.6165306891755
 30
0.0
 10
237.6866831003951
 20
196.4898967637933
 30
0.0
 10
237.6423845828974
 20
196.3968441828648
 30
0.0
 10
237.6323518693329
 20
196.3179364385329
 30
0.0
 10
237.6428568188715
 20
196.2569343976174
 30
0.0
 10
237.6718030642772
 20
196.2077450793776
 30
0.0
 10
237.7042500807786
 20
196.1710822715123
 30
0.0
 10
237.7248086507001
 20
196.1546106904026
 30
0.0
 10
237.7350919914662
 20
196.1463716503257
 30
0.0
  0
SPLINE
  5
142
330
1F
100
AcDbEntity
  8
0
  6
Continuous
 62
     7
370
     0
100
AcDbSpline
210
0.0
220
0.0
230
1.0
 70
     8
 71
     3
 72
    15
 73
    11
 74
     0
 42
0.000000001
 43
0.00000001
 40
0.0
 40
0.0
 40
0.0
 40
0.0
 40
0.0312914406377342
 40
0.0625559738335187
 40
0.1249665424421818
 40
0.249428395954142
 40
0.374271455065192
 40
0.4993601535802129
 40
0.7496086004653207
 40
1.0
 40
1.0
 40
1.0
 40
1.0
 10
237.7350919914662
 20
196.1463716503257
 30
0.0
 10
237.7459269694691
 20
196.1385641219801
 30
0.0
 10
237.7675876085009
 20
196.1229557789657
 30
0.0
 10
237.8182667290672
 20
196.097299444299
 30
0.0
 10
237.9167627676613
 20
196.063732720102
 30
0.0
 10
238.0694618877827
 20
196.0543740082851
 30
0.0
 10
238.2408034629615
 20
196.0747366258663
 30
0.0
 10
238.4463271198713
 20
196.1391443520329
 30
0.0
 10
238.679353318153
 20
196.2442535170801
 30
0.0
 10
238.8513021571188
 20
196.3404899422746
 30
0.0
 10
238.9373011257285
 20
196.3886218945412
 30
0.0
  0
SPLINE
  5
143
330
1F
100
AcDbEntity
  8
0
  6
Continuous
 62
     7
370
     0
100
AcDbSpline
210
0.0
220
0.0
230
1.0
 70
     8
 71
     3
 72
    16
 73
    12
 74
     0
 42
0.000000001
 43
0.00000001
 40
0.0
 40
0.0
 40
0.0
 40
0.0
 40
0.2503496394344891
 40
0.5005495143908344
 40
0.6255888818189826
 40
0.6881323128788699
 40
0.7506868671567922
 40
0.8750305488322885
 40
0.937439902118373
 40
0.9687083653526501
 40
1.0
 40
1.0
 40
1.0
 40
1.0
 10
238.9373011257285
 20
196.3886218945412
 30
0.0
 10
239.0220736729555
 20
196.4390209251282
 30
0.0
 10
239.1915680546692
 20
196.5397888365302
 30
0.0
 10
239.3834508048966
 20
196.6806259495485
 30
0.0
 10
239.493323904705
 20
196.7934650048497
 30
0.0
 10
239.5367175699258
 20
196.8660751695753
 30
0.0
 10
239.5622404662797
 20
196.9432716613562
 30
0.0
 10
239.5625145822099
 20
197.0269161690797
 30
0.0
 10
239.5226298235458
 20
197.0967466774308
 30
0.0
 10
239.4886397598571
 20
197.1331672595283
 30
0.0
 10
239.4681931774567
 20
197.149750312272
 30
0.0
 10
239.4579660996878
 20
197.1580449097129
 30
0.0
  0
SPLINE
  5
144
330
1F
100
AcDbEntity
  8
0
  6
Continuous
 62
     7
370
     0
100
AcDbSpline
210
0.0
220
0.0
230
1.0
 70
     8
 71
     3
 72
    15
 73
    11
 74
     0
 42
0.000000001
 43
0.00000001
 40
0.0
 40
0.0
 40
0.0
 40
0.0
 40
0.0312909998794813
 40
0.0625538939250205
 40
0.1249573530937525
 40
0.2494428287818881
 40
0.3742794951282852
 40
0.4993614316828262
 40
0.7496082157734059
 40
1.0
 40
1.0
 40
1.0
 40
1.0
 10
239.4579660996878
 20
197.1580449097129
 30
0.0
 10
239.4471568647293
 20
197.1658253977339
 30
0.0
 10
239.425548103756
 20
197.1813793852773
 30
0.0
 10
239.3748139384655
 20
197.2066313491293
 30
0.0
 10
239.2760205328894
 20
197.2388137575138
 30
0.0
 10
239.1235022657958
 20
197.2456765916608
 30
0.0
 10
238.9523209634967
 20
197.2233053356504
 30
0.0
 10
238.747782552753
 20
197.1566140313468
 30
0.0
 10
238.514656924902
 20
197.051295243136
 30
0.0
 10
238.3430780809376
 20
196.9550593036383
 30
0.0
 10
238.257263811733
 20
196.9069273974639
 30
0.0
  0
SPLINE
  5
145
330
1F
100
AcDbEntity
  8
0
  6
Continuous
 62
     7
370
     0
100
AcDbSpline
210
0.0
220
0.0
230
1.0
 70
     8
 71
     3
 72
    13
 73
     9
 74
     0
 42
0.000000001
 43
0.00000001
 40
0.0
 40
0.0
 40
0.0
 40
0.0
 40
0.1254854509395132
 40
0.2508717548292367
 40
0.5005437881486969
 40
0.7496100251974626
 40
0.8746824297346196
 40
1.0
 40
1.0
 40
1.0
 40
1.0
 10
237.5429572070852
 20
198.1018190092643
 30
0.0
 10
237.523610403651
 20
198.0898540441559
 30
0.0
 10
237.4849320828455
 20
198.0659335675528
 30
0.0
 10
237.4188239214972
 20
198.0119630099827
 30
0.0
 10
237.3651035792757
 20
197.9318124030296
 30
0.0
 10
237.367438673835
 20
197.8418034990952
 30
0.0
 10
237.409761741698
 20
197.773884161565
 30
0.0
 10
237.4472395426606
 20
197.7456003934108
 30
0.0
 10
237.4659967910658
 20
197.7314446625121
 30
0.0
  0
SPLINE
  5
146
330
1F
100
AcDbEntity
  8
0
  6
Continuous
 62
     7
370
     0
100
AcDbSpline
210
0.0
220
0.0
230
1.0
 70
     8
 71
     3
 72
    13
 73
     9
 74
     0
 42
0.000000001
 43
0.00000001
 40
0.0
 40
0.0
 40
0.0
 40
0.0
 40
0.12531275251104
 40
0.2504463542530743
 40
0.4994972475177267
 40
0.749156612419328
 40
0.8745209453086616
 40
0.9999999999999999
 40
0.9999999999999999
 40
0.9999999999999999
 40
0.9999999999999999
 10
237.4659967910658
 20
197.7314446625121
 30
0.0
 10
237.486530268442
 20
197.7190887220679
 30
0.0
 10
237.5275678679358
 20
197.6943945055924
 30
0.0
 10
237.6298828787378
 20
197.6632161337851
 30
0.0
 10
237.7695481268717
 20
197.652975269974
 30
0.0
 10
237.9001587436693
 20
197.6756303288703
 30
0.0
 10
237.9902885542699
 20
197.7099521063028
 30
0.0
 10
238.0303221971207
 20
197.7313389763715
 30
0.0
 10
238.050348173126
 20
197.7420373019878
 30
0.0
  0
SPLINE
  5
147
330
1F
100
AcDbEntity
  8
0
  6
Continuous
 62
     7
370
     0
100
AcDbSpline
210
0.0
220
0.0
230
1.0
 70
     8
 71
     3
 72
    13
 73
     9
 74
     0
 42
0.000000001
 43
0.00000001
 40
0.0
 40
0.0
 40
0.0
 40
0.0
 40
0.125459413634036
 40
0.250805847752771
 40
0.50039498657676
 40
0.7496402696056393
 40
0.8747301922451511
 40
1.0
 40
1.0
 40
1.0
 40
1.0
 10
238.050348173126
 20
197.7420373019878
 30
0.0
 10
238.0694673415071
 20
197.7538961207686
 30
0.0
 10
238.1076884609532
 20
197.7776030791505
 30
0.0
 10
238.1716239461539
 20
197.8322175501622
 30
0.0
 10
238.2200054411261
 20
197.9139419951554
 30
0.0
 10
238.2190089000946
 20
198.0039003542666
 30
0.0
 10
238.1795205905127
 20
198.0724228966822
 30
0.0
 10
238.1429248221223
 20
198.1007187209802
 30
0.0
 10
238.1246137907769
 20
198.1148767984972
 30
0.0
  0
SPLINE
  5
148
330
1F
100
AcDbEntity
  8
0
  6
Continuous
 62
     7
370
     0
100
AcDbSpline
210
0.0
220
0.0
230
1.0
 70
     8
 71
     3
 72
    13
 73
     9
 74
     0
 42
0.000000001
 43
0.00000001
 40
0.0
 40
0.0
 40
0.0
 40
0.0
 40
0.1252921387848875
 40
0.250368104860778
 40
0.4996528103417628
 40
0.7492268595677015
 40
0.8745537364249395
 40
1.0
 40
1.0
 40
1.0
 40
1.0
 10
238.1246137907769
 20
198.1148767984972
 30
0.0
 10
238.1042472792634
 20
198.1270904141864
 30
0.0
 10
238.0635493955837
 20
198.1514965728109
 30
0.0
 10
237.9617012553294
 20
198.1812900612466
 30
0.0
 10
237.8232003953199
 20
198.1895580420395
 30
0.0
 10
237.6933765147928
 20
198.1668625102338
 30
0.0
 10
237.602427098663
 20
198.1337982520511
 30
0.0
 10
237.5627867948581
 20
198.1124821395464
 30
0.0
 10
237.5429572070852
 20
198.1018190092643
 30
0.0
  0
SPLINE
  5
149
330
1F
100
AcDbEntity
  8
0
  6
Continuous
 62
     7
370
     0
100
AcDbSpline
210
0.0
220
0.0
230
1.0
 70
     8
 71
     3
 72
    15
 73
    11
 74
     0
 42
0.000000001
 43
0.00000001
 40
0.0
 40
0.0
 40
0.0
 40
0.0
 40
0.1252769592109945
 40
0.2504893215106085
 40
0.4997180923027247
 40
0.6426531291474422
 40
0.7853776591259637
 40
0.8926169015178662
 40
0.9462953635232982
 40
1.0
 40
1.0
 40
1.0
 40
1.0
 10
236.4781763960176
 20
197.5887094838843
 30
0.0
 10
236.4533205588015
 20
197.5733256083065
 30
0.0
 10
236.4036217008548
 20
197.5425657895819
 30
0.0
 10
236.321041585668
 20
197.4721626374652
 30
0.0
 10
236.2677003399432
 20
197.3853214785787
 30
0.0
 10
236.261662673317
 20
197.2892174129467
 30
0.0
 10
236.2837160794597
 20
197.2181828899203
 30
0.0
 10
236.3230628186108
 20
197.1670034086261
 30
0.0
 10
236.3594274352195
 20
197.1338263217149
 30
0.0
 10
236.3808486125199
 20
197.1187343678401
 30
0.0
 10
236.3915618118602
 20
197.1111865515819
 30
0.0
  0
SPLINE
  5
14A
330
1F
100
AcDbEntity
  8
0
  6
Continuous
 62
     7
370
     0
100
AcDbSpline
210
0.0
220
0.0
230
1.0
 70
     8
 71
     3
 72
    17
 73
    13
 74
     0
 42
0.000000001
 43
0.00000001
 40
0.0
 40
0.0
 40
0.0
 40
0.0
 40
0.0625585655731052
 40
0.125099409496992
 40
0.2499259470216731
 40
0.3747629568250868
 40
0.4997011588805036
 40
0.5711911304207297
 40
0.6426637601587388
 40
0.7498260757951613
 40
0.8748745084348661
 40
1.0
 40
1.0
 40
1.0
 40
1.0
 10
236.3915618118602
 20
197.1111865515819
 30
0.0
 10
236.4045370445882
 20
197.1028368501566
 30
0.0
 10
236.430483834408
 20
197.0861398126173
 30
0.0
 10
236.4897608356194
 20
197.057956184147
 30
0.0
 10
236.571650232901
 20
197.0299992693597
 30
0.0
 10
236.6785062534826
 20
197.0133325688607
 30
0.0
 10
236.7707429385
 20
197.0114541323753
 30
0.0
 10
236.8462624059338
 20
197.0161781922835
 30
0.0
 10
236.9140809777443
 20
197.0272688375581
 30
0.0
 10
236.9926122510086
 20
197.0467808047807
 30
0.0
 10
237.0777734186679
 20
197.0785626996706
 30
0.0
 10
237.1298259389527
 20
197.1069477354646
 30
0.0
 10
237.1558602157405
 20
197.121144624961
 30
0.0
  0
SPLINE
  5
14B
330
1F
100
AcDbEntity
  8
0
  6
Continuous
 62
     7
370
     0
100
AcDbSpline
210
0.0
220
0.0
230
1.0
 70
     8
 71
     3
 72
    16
 73
    12
 74
     0
 42
0.000000001
 43
0.00000001
 40
0.0
 40
0.0
 40
0.0
 40
0.0
 40
0.1251302078352149
 40
0.2501967679339955
 40
0.3786924357566012
 40
0.5001275909753619
 40
0.6291666256631719
 40
0.7500341205787916
 40
0.8748902692403022
 40
0.9374274165517058
 40
1.0
 40
1.0
 40
1.0
 40
1.0
 10
237.1558602157405
 20
197.121144624961
 30
0.0
 10
237.1808949725134
 20
197.1365607535385
 30
0.0
 10
237.2309517520788
 20
197.1673851692481
 30
0.0
 10
237.2926760932281
 20
197.2222679673886
 30
0.0
 10
237.3396145389571
 20
197.2825905303246
 30
0.0
 10
237.3657621651678
 20
197.3495399998408
 30
0.0
 10
237.370797451791
 20
197.4179471399906
 30
0.0
 10
237.3541547958477
 20
197.487330407146
 30
0.0
 10
237.3183671446747
 20
197.5415060979296
 30
0.0
 10
237.2775694086781
 20
197.5813812488049
 30
0.0
 10
237.2525410727017
 20
197.5991057597148
 30
0.0
 10
237.2400233601949
 20
197.607970525319
 30
0.0
  0
SPLINE
  5
14C
330
1F
100
AcDbEntity
  8
0
  6
Continuous
 62
     7
370
     0
100
AcDbSpline
210
0.0
220
0.0
230
1.0
 70
     8
 71
     3
 72
    15
 73
    11
 74
     0
 42
0.000000001
 43
0.00000001
 40
0.0
 40
0.0
 40
0.0
 40
0.0
 40
0.0626592737439242
 40
0.1252783759597215
 40
0.2502968459658541
 40
0.4991786019196633
 40
0.5826921588068408
 40
0.7494807581770941
 40
0.8746886697912929
 40
1.0
 40
1.0
 40
1.0
 40
1.0
 10
237.2400233601949
 20
197.607970525319
 30
0.0
 10
237.2271239851833
 20
197.6162466636702
 30
0.0
 10
237.2013335050869
 20
197.6327936344522
 30
0.0
 10
237.1422627946475
 20
197.6603469150111
 30
0.0
 10
237.0276710977012
 20
197.6968052839265
 30
0.0
 10
236.8926154049722
 20
197.7038510146119
 30
0.0
 10
236.7538331016819
 20
197.691108733268
 30
0.0
 10
236.6550505849983
 20
197.6679835546445
 30
0.0
 10
236.5560490947735
 20
197.6309632344757
 30
0.0
 10
236.5041411051025
 20
197.6027979431182
 30
0.0
 10
236.4781763960176
 20
197.5887094838843
 30
0.0
  0
ARC
  5
14D
330
1F
100
AcDbEntity
  8
0
  6
Continuous
 62
     7
370
     0
100
AcDbCircle
 10
223.9831944851
 20
178.106666572
 30
0.0
 40
23.63442468469644
100
AcDbArc
 50
59.7896600488
 51
61.0757788828
  0
SPLINE
  5
14E
330
1F
100
AcDbEntity
  8
0
  6
Continuous
 62
     7
370
     0
100
AcDbSpline
210
0.0
220
0.0
230
1.0
 70
     8
 71
     3
 72
    15
 73
    11
 74
     0
 42
0.000000001
 43
0.00000001
 40
0.0
 40
0.0
 40
0.0
 40
0.0
 40
0.1253687344043231
 40
0.2506537146082075
 40
0.4990061076881818
 40
0.5824744486737373
 40
0.6659284924138823
 40
0.7494593542610664
 40
0.8746717774612645
 40
1.0
 40
1.0
 40
1.0
 40
1.0
 10
235.8754676525213
 20
198.5311584650012
 30
0.0
 10
235.903799660532
 20
198.5154230593699
 30
0.0
 10
235.9604447489897
 20
198.4839627603479
 30
0.0
 10
236.0863230457266
 20
198.4301457100802
 30
0.0
 10
236.225457795725
 20
198.396537209622
 30
0.0
 10
236.3554963514686
 20
198.3988991332415
 30
0.0
 10
236.4317866398763
 20
198.408518143084
 30
0.0
 10
236.5152547009834
 20
198.429209387929
 30
0.0
 10
236.6030795624472
 20
198.4616213110002
 30
0.0
 10
236.6600503938101
 20
198.4924149186579
 30
0.0
 10
236.6885489753883
 20
198.5078188388559
 30
0.0
  0
SPLINE
  5
14F
330
1F
100
AcDbEntity
  8
0
  6
Continuous
 62
     7
370
     0
100
AcDbSpline
210
0.0
220
0.0
230
1.0
 70
     8
 71
     3
 72
    15
 73
    11
 74
     0
 42
0.000000001
 43
0.00000001
 40
0.0
 40
0.0
 40
0.0
 40
0.0
 40
0.1251540318599127
 40
0.2502318117948254
 40
0.3752377208699182
 40
0.5001643140107033
 40
0.624688758092533
 40
0.7495887405035497
 40
0.8622797430452334
 40
1.0
 40
1.0
 40
1.0
 40
1.0
 10
236.6885489753883
 20
198.5078188388559
 30
0.0
 10
236.7151998568258
 20
198.5243234694564
 30
0.0
 10
236.7684853822613
 20
198.5573226749698
 30
0.0
 10
236.8305516724492
 20
198.6158368694786
 30
0.0
 10
236.8692268072184
 20
198.6809323762398
 30
0.0
 10
236.887334480421
 20
198.7494327987636
 30
0.0
 10
236.8652079946814
 20
198.8191646327719
 30
0.0
 10
236.8011491061608
 20
198.8752570046084
 30
0.0
 10
236.7270133053693
 20
198.9283900550837
 30
0.0
 10
236.6725214861146
 20
198.9610275124934
 30
0.0
 10
236.6425522772029
 20
198.9789773404278
 30
0.0
  0
ARC
  5
150
330
1F
100
AcDbEntity
  8
0
  6
Continuous
 62
     7
370
     0
100
AcDbCircle
 10
224.7566794295
 20
178.555706938
 30
0.0
 40
23.63014911679987
100
AcDbArc
 50
59.8015808645
 51
61.0758560059
  0
LINE
  5
151
330
1F
100
AcDbEntity
  8
0
  6
Continuous
 62
     7
370
     0
100
AcDbLine
 10
236.1854306879
 20
199.2382501074
 30
0.0
 11
235.4140414721
 21
198.7929365919
 31
0.0
  0
ARC
  5
152
330
1F
100
AcDbEntity
  8
0
  6
Continuous
 62
     7
370
     0
100
AcDbCircle
 10
226.5768242889
 20
186.3197810568
 30
0.0
 40
14.23308896217648
100
AcDbArc
 50
77.7629356699
 51
79.2417323128
  0
SPLINE
  5
153
330
1F
100
AcDbEntity
  8
0
  6
Continuous
 62
     7
370
     0
100
AcDbSpline
210
0.0
220
0.0
230
1.0
 70
     8
 71
     3
 72
    15
 73
    11
 74
     0
 42
0.000000001
 43
0.00000001
 40
0.0
 40
0.0
 40
0.0
 40
0.0
 40
0.1397214989324525
 40
0.250177157475833
 40
0.3752386258444357
 40
0.5002314506201463
 40
0.6214276674161611
 40
0.7499576434759534
 40
0.8749319569283704
 40
1.0
 40
1.0
 40
1.0
 40
1.0
 10
229.5936276562433
 20
200.2294797900212
 30
0.0
 10
229.6237921663617
 20
200.2234649620111
 30
0.0
 10
229.6778029768363
 20
200.2126951621894
 30
0.0
 10
229.7655532113238
 20
200.2000260869874
 30
0.0
 10
229.8564312335249
 20
200.1920280843181
 30
0.0
 10
229.9595532319826
 20
200.191361231463
 30
0.0
 10
230.0724338327187
 20
200.2018141795807
 30
0.0
 10
230.187793989347
 20
200.2232744072625
 30
0.0
 10
230.3025739063055
 20
200.2522498414946
 30
0.0
 10
230.374150736499
 20
200.2764164153946
 30
0.0
 10
230.4099525670609
 20
200.2885042318248
 30
0.0
  0
SPLINE
  5
154
330
1F
100
AcDbEntity
  8
0
  6
Continuous
 62
     7
370
     0
100
AcDbSpline
210
0.0
220
0.0
230
1.0
 70
     8
 71
     3
 72
    12
 73
     8
 74
     0
 42
0.000000001
 43
0.00000001
 40
0.0
 40
0.0
 40
0.0
 40
0.0
 40
0.1250178846381804
 40
0.2500201696718609
 40
0.4999844141952983
 40
0.7499868018933621
 40
0.9999999999999999
 40
0.9999999999999999
 40
0.9999999999999999
 40
0.9999999999999999
 10
230.4099525670609
 20
200.2885042318248
 30
0.0
 10
230.4379340485648
 20
200.2985626396853
 30
0.0
 10
230.4938935200719
 20
200.3186782003284
 30
0.0
 10
230.6016080599839
 20
200.3617635472145
 30
0.0
 10
230.7301271821155
 20
200.4188857345497
 30
0.0
 10
230.8754532620353
 20
200.4911324836235
 30
0.0
 10
230.9648344690201
 20
200.5415960247528
 30
0.0
 10
231.0095260387297
 20
200.5668283408319
 30
0.0
  0
SPLINE
  5
155
330
1F
100
AcDbEntity
  8
0
  6
Continuous
 62
     7
370
     0
100
AcDbSpline
210
0.0
220
0.0
230
1.0
 70
     8
 71
     3
 72
    15
 73
    11
 74
     0
 42
0.000000001
 43
0.00000001
 40
0.0
 40
0.0
 40
0.0
 40
0.0
 40
0.1251268274281156
 40
0.2502484251834719
 40
0.5001030853491308
 40
0.6251006234200792
 40
0.7501052843047122
 40
0.8749559266229155
 40
0.9374630657903251
 40
1.0
 40
1.0
 40
1.0
 40
1.0
 10
231.0095260387297
 20
200.5668283408319
 30
0.0
 10
231.0451694572294
 20
200.5877602757954
 30
0.0
 10
231.116454804513
 20
200.6296232708728
 30
0.0
 10
231.2484445886342
 20
200.7155095540707
 30
0.0
 10
231.3655134558327
 20
200.8047165284091
 30
0.0
 10
231.4444319563542
 20
200.8953686666449
 30
0.0
 10
231.4836444142693
 20
200.9625742124781
 30
0.0
 10
231.4920094143428
 20
201.0158007864553
 30
0.0
 10
231.4808161717145
 20
201.0545889943954
 30
0.0
 10
231.4657554052232
 20
201.0712326387834
 30
0.0
 10
231.4582232276655
 20
201.0795564438706
 30
0.0
  0
SPLINE
  5
156
330
1F
100
AcDbEntity
  8
0
  6
Continuous
 62
     7
370
     0
100
AcDbSpline
210
0.0
220
0.0
230
1.0
 70
     8
 71
     3
 72
    12
 73
     8
 74
     0
 42
0.000000001
 43
0.00000001
 40
0.0
 40
0.0
 40
0.0
 40
0.0
 40
0.1428151998865818
 40
0.2856721884586098
 40
0.4999151269693825
 40
0.7499378388271197
 40
1.0
 40
1.0
 40
1.0
 40
1.0
 10
231.4582232276655
 20
201.0795564438706
 30
0.0
 10
231.4505407922331
 20
201.0856847387191
 30
0.0
 10
231.4351736734361
 20
201.0979431215963
 30
0.0
 10
231.3989668795149
 20
201.1155957258511
 30
0.0
 10
231.3492655776053
 20
201.1340893623747
 30
0.0
 10
231.2852434487042
 20
201.1527147127662
 30
0.0
 10
231.2372841062063
 20
201.1636145502314
 30
0.0
 10
231.2133025433152
 20
201.1690648988821
 30
0.0
  0
ARC
  5
157
330
1F
100
AcDbEntity
  8
0
  6
Continuous
 62
     7
370
     0
100
AcDbCircle
 10
228.2030526956
 20
187.2621490141
 30
0.0
 40
14.22898146646762
100
AcDbArc
 50
77.7863499914
 51
79.2418733155
  0
LINE
  5
158
330
1F
100
AcDbEntity
  8
0
  6
Continuous
 62
     7
370
     0
100
AcDbLine
 10
230.8590825034
 20
201.2410409313
 30
0.0
 11
229.2336552272
 21
200.3027017378
 31
0.0
  0
CIRCLE
  5
159
330
1F
100
AcDbEntity
  8
0
  6
Continuous
 62
     7
370
     0
100
AcDbCircle
 10
85.3236203523
 20
110.8779589041
 30
0.0
 40
25.40000000000001
  0
CIRCLE
  5
15A
330
1F
100
AcDbEntity
  8
0
  6
Continuous
 62
     7
370
     0
100
AcDbCircle
 10
85.3236203523
 20
110.8779589041
 30
0.0
 40
25.10000000000002
  0
DIMENSION
  5
15B
330
1F
100
AcDbEntity
  8
0
  6
Continuous
 62
     7
370
     0
100
AcDbDimension
  2
_D
 10
67.3631081101
 20
92.917446662
 30
0.0
 11
131.5129368253
 21
146.2779589041
 31
0.0
 70
   163
  1
<>
 71
     1
 42
-1.0
  3
SLDDIMSTYLE0
100
AcDbDiametricDimension
 15
103.2841325944
 25
128.8384711462
 35
0.0
 40
0.0
  0
LINE
  5
16C
330
1F
100
AcDbEntity
  8
0
  6
Continuous
 62
     7
370
     0
100
AcDbLine
 10
180.9394520548
 20
85.4779589041
 30
0.0
 11
181.2394520548
 21
85.7779589041
 31
0.0
  0
LINE
  5
16D
330
1F
100
AcDbEntity
  8
0
  6
Continuous
 62
     7
370
     0
100
AcDbLine
 10
181.2394520548
 20
135.9779589041
 30
0.0
 11
180.9394520548
 21
136.2779589041
 31
0.0
  0
LINE
  5
16E
330
1F
100
AcDbEntity
  8
0
  6
Continuous
 62
     7
370
     0
100
AcDbLine
 10
180.9394520548
 20
136.2779589041
 30
0.0
 11
176.5394520548
 21
136.2779589041
 31
0.0
  0
LINE
  5
16F
330
1F
100
AcDbEntity
  8
0
  6
Continuous
 62
     7
370
     0
100
AcDbLine
 10
176.5394520548
 20
85.4779589041
 30
0.0
 11
180.9394520548
 21
85.4779589041
 31
0.0
  0
LINE
  5
170
330
1F
100
AcDbEntity
  8
0
  6
Continuous
 62
     7
370
     0
100
AcDbLine
 10
176.5394520548
 20
136.2779589041
 30
0.0
 11
176.2394520548
 21
135.9779589041
 31
0.0
  0
LINE
  5
171
330
1F
100
AcDbEntity
  8
0
  6
Continuous
 62
     7
370
     0
100
AcDbLine
 10
176.2394520548
 20
85.7779589041
 30
0.0
 11
176.5394520548
 21
85.4779589041
 31
0.0
  0
LINE
  5
172
330
1F
100
AcDbEntity
  8
0
  6
Continuous
 62
     7
370
     0
100
AcDbLine
 10
181.2394520548
 20
135.9779589041
 30
0.0
 11
181.2394520548
 21
85.7779589041
 31
0.0
  0
LINE
  5
173
330
1F
100
AcDbEntity
  8
0
  6
Continuous
 62
     7
370
     0
100
AcDbLine
 10
180.9394520548
 20
85.4779589041
 30
0.0
 11
180.9394520548
 21
136.2779589041
 31
0.0
  0
LINE
  5
174
330
1F
100
AcDbEntity
  8
0
  6
Continuous
 62
     7
370
     0
100
AcDbLine
 10
179.8888027041
 20
119.4345239602
 30
0.0
 11
179.8888027041
 21
118.2508088185
 31
0.0
  0
LINE
  5
175
330
1F
100
AcDbEntity
  8
0
  6
Continuous
 62
     7
370
     0
100
AcDbLine
 10
177.2394520548
 20
118.2508088185
 30
0.0
 11
179.8888027041
 21
118.2508088185
 31
0.0
  0
LINE
  5
176
330
1F
100
AcDbEntity
  8
0
  6
Continuous
 62
     7
370
     0
100
AcDbLine
 10
177.2394520548
 20
118.2508088185
 30
0.0
 11
177.2394520548
 21
117.9519926657
 31
0.0
  0
LINE
  5
177
330
1F
100
AcDbEntity
  8
0
  6
Continuous
 62
     7
370
     0
100
AcDbLine
 10
180.2394520548
 20
117.9519926657
 30
0.0
 11
177.2394520548
 21
117.9519926657
 31
0.0
  0
LINE
  5
178
330
1F
100
AcDbEntity
  8
0
  6
Continuous
 62
     7
370
     0
100
AcDbLine
 10
180.2394520548
 20
119.4345239602
 30
0.0
 11
180.2394520548
 21
117.9519926657
 31
0.0
  0
LINE
  5
179
330
1F
100
AcDbEntity
  8
0
  6
Continuous
 62
     7
370
     0
100
AcDbLine
 10
179.8888027041
 20
119.4345239602
 30
0.0
 11
180.2394520548
 21
119.4345239602
 31
0.0
  0
SPLINE
  5
17A
330
1F
100
AcDbEntity
  8
0
  6
Continuous
 62
     7
370
     0
100
AcDbSpline
210
0.0
220
0.0
230
1.0
 70
     8
 71
     3
 72
    14
 73
    10
 74
     0
 42
0.000000001
 43
0.00000001
 40
0.0
 40
0.0
 40
0.0
 40
0.0
 40
0.1249642785198642
 40
0.2499282715641074
 40
0.3720998993845893
 40
0.4999250557765876
 40
0.6246427517330048
 40
0.7499738496850359
 40
1.0
 40
1.0
 40
1.0
 40
1.0
 10
177.5170494573919
 20
115.4395207635103
 30
0.0
 10
177.5627610704065
 20
115.4653108872895
 30
0.0
 10
177.6541841920092
 20
115.5168910759315
 30
0.0
 10
177.8022513650687
 20
115.5689249801019
 30
0.0
 10
177.9545502102875
 20
115.6098103872898
 30
0.0
 10
178.1097778455191
 20
115.6382749864461
 30
0.0
 10
178.2675518786897
 20
115.6582909416636
 30
0.0
 10
178.4773099303809
 20
115.6768309829224
 30
0.0
 10
178.6353792944472
 20
115.6787633788114
 30
0.0
 10
178.7406695872621
 20
115.6800505512511
 30
0.0
  0
SPLINE
  5
17B
330
1F
100
AcDbEntity
  8
0
  6
Continuous
 62
     7
370
     0
100
AcDbSpline
210
0.0
220
0.0
230
1.0
 70
     8
 71
     3
 72
    13
 73
     9
 74
     0
 42
0.000000001
 43
0.00000001
 40
0.0
 40
0.0
 40
0.0
 40
0.0
 40
0.1251948774509707
 40
0.2503112808433222
 40
0.499907482430525
 40
0.7496464708871743
 40
0.8747928721822861
 40
1.0
 40
1.0
 40
1.0
 40
1.0
 10
177.2004910158335
 20
114.8953118508957
 30
0.0
 10
177.2013777123017
 20
114.9227618994391
 30
0.0
 10
177.2031505494433
 20
114.9776447904168
 30
0.0
 10
177.2226542428134
 20
115.0857964341804
 30
0.0
 10
177.2759962108745
 20
115.214088542666
 30
0.0
 10
177.3636865791016
 20
115.3220458491339
 30
0.0
 10
177.4480711251016
 20
115.393373198003
 30
0.0
 10
177.4940529621299
 20
115.4241357543877
 30
0.0
 10
177.5170494573919
 20
115.4395207635103
 30
0.0
  0
SPLINE
  5
17C
330
1F
100
AcDbEntity
  8
0
  6
Continuous
 62
     7
370
     0
100
AcDbSpline
210
0.0
220
0.0
230
1.0
 70
     8
 71
     3
 72
    16
 73
    12
 74
     0
 42
0.000000001
 43
0.00000001
 40
0.0
 40
0.0
 40
0.0
 40
0.0
 40
0.1251729595269888
 40
0.2503372774080768
 40
0.500244995441973
 40
0.6352206015971817
 40
0.7500261309021271
 40
0.813410294434108
 40
0.8749697478553887
 40
0.9374576207513587
 40
1.0
 40
1.0
 40
1.0
 40
1.0
 10
178.7406695872621
 20
114.1029963245337
 30
0.0
 10
178.6600916807674
 20
114.1038723217751
 30
0.0
 10
178.4989414306866
 20
114.1056242557811
 30
0.0
 10
178.1781183894137
 20
114.1312030691513
 30
0.0
 10
177.8521947311517
 20
114.1883612404697
 30
0.0
 10
177.5540323217979
 20
114.3129300754841
 30
0.0
 10
177.3897178942673
 20
114.4332821309622
 30
0.0
 10
177.2926114256863
 20
114.5533034521003
 30
0.0
 10
177.2379494753522
 20
114.6604726350458
 30
0.0
 10
177.2055479278661
 20
114.775903635082
 30
0.0
 10
177.2021771430037
 20
114.8554975460936
 30
0.0
 10
177.2004910158335
 20
114.8953118508957
 30
0.0
  0
SPLINE
  5
17D
330
1F
100
AcDbEntity
  8
0
  6
Continuous
 62
     7
370
     0
100
AcDbSpline
210
0.0
220
0.0
230
1.0
 70
     8
 71
     3
 72
    18
 73
    14
 74
     0
 42
0.000000001
 43
0.00000001
 40
0.0
 40
0.0
 40
0.0
 40
0.0
 40
0.0624950322413429
 40
0.1249340560767622
 40
0.1865917156235645
 40
0.2498536395941782
 40
0.3120654852453805
 40
0.3748805468664022
 40
0.4997120087598804
 40
0.6247329320280508
 40
0.7498001999826684
 40
0.8748958867715081
 40
1.0
 40
1.0
 40
1.0
 40
1.0
 10
180.2784130937556
 20
114.8917051874438
 30
0.0
 10
180.2765544339688
 20
114.8519738212725
 30
0.0
 10
180.2728387801367
 20
114.7725466964078
 30
0.0
 10
180.237558114133
 20
114.6580614411223
 30
0.0
 10
180.1811811271391
 20
114.5521770713967
 30
0.0
 10
180.1050426302399
 20
114.4592241362664
 30
0.0
 10
180.0152072901715
 20
114.3785562696149
 30
0.0
 10
179.8831556328099
 20
114.2873269765071
 30
0.0
 10
179.6963165241797
 20
114.2090341877602
 30
0.0
 10
179.4613526015514
 20
114.1547856234057
 30
0.0
 10
179.2224489431763
 20
114.1215446652561
 30
0.0
 10
178.9817407285913
 20
114.1059045381116
 30
0.0
 10
178.8210284385731
 20
114.1039657508251
 30
0.0
 10
178.7406695872621
 20
114.1029963245337
 30
0.0
  0
SPLINE
  5
17E
330
1F
100
AcDbEntity
  8
0
  6
Continuous
 62
     7
370
     0
100
AcDbSpline
210
0.0
220
0.0
230
1.0
 70
     8
 71
     3
 72
    16
 73
    12
 74
     0
 42
0.000000001
 43
0.00000001
 40
0.0
 40
0.0
 40
0.0
 40
0.0
 40
0.1251681795783307
 40
0.2503286224454799
 40
0.5002403576315791
 40
0.633807133447006
 40
0.750015507137962
 40
0.8124974968692499
 40
0.8749673844674256
 40
0.9374604080777232
 40
1.0
 40
1.0
 40
1.0
 40
1.0
 10
178.7406695872621
 20
115.6800505512511
 30
0.0
 10
178.8211579357052
 20
115.679154532421
 30
0.0
 10
178.982129657564
 20
115.6773625501442
 30
0.0
 10
179.3026154995679
 20
115.6519822717515
 30
0.0
 10
179.6271354984091
 20
115.5947455632601
 30
0.0
 10
179.9250889638625
 20
115.4720719437139
 30
0.0
 10
180.0893901190389
 20
115.3535137071808
 30
0.0
 10
180.1865290886361
 20
115.2332403402581
 30
0.0
 10
180.2414418274409
 20
115.1266855686622
 30
0.0
 10
180.2733382995147
 20
115.0109092242172
 30
0.0
 10
180.2767210757044
 20
114.9314497312462
 30
0.0
 10
180.2784130937556
 20
114.8917051874438
 30
0.0
  0
LINE
  5
17F
330
1F
100
AcDbEntity
  8
0
  6
Continuous
 62
     7
370
     0
100
AcDbLine
 10
179.031659847
 20
110.9656210677
 30
0.0
 11
179.031659847
 21
110.3325462811
 31
0.0
  0
SPLINE
  5
180
330
1F
100
AcDbEntity
  8
0
  6
Continuous
 62
     7
370
     0
100
AcDbSpline
210
0.0
220
0.0
230
1.0
 70
     8
 71
     3
 72
    17
 73
    13
 74
     0
 42
0.000000001
 43
0.00000001
 40
0.0
 40
0.0
 40
0.0
 40
0.0
 40
0.0625867507144373
 40
0.1251607877735512
 40
0.250205491525529
 40
0.3751630122568474
 40
0.4405101568604569
 40
0.5002773891343772
 40
0.6183058012602899
 40
0.7498302131143927
 40
0.8748618907254742
 40
1.0
 40
1.0
 40
1.0
 40
1.0
 10
178.1087702366127
 20
111.8906774083662
 30
0.0
 10
178.1400190828408
 20
111.890212866437
 30
0.0
 10
178.2025104275147
 20
111.889283876944
 30
0.0
 10
178.326912992929
 20
111.8770982468081
 30
0.0
 10
178.4803343613814
 20
111.8448528204153
 30
0.0
 10
178.6263945994223
 20
111.7831070972643
 30
0.0
 10
178.7325136258613
 20
111.7170396838112
 30
0.0
 10
178.8279103109972
 20
111.6414776831462
 30
0.0
 10
178.9238741419518
 20
111.5172082390788
 30
0.0
 10
178.9927489527666
 20
111.3414528603288
 30
0.0
 10
179.0267690309022
 20
111.1530710281921
 30
0.0
 10
179.0300291126484
 20
111.028122107221
 30
0.0
 10
179.0316598470023
 20
110.9656210677435
 30
0.0
  0
SPLINE
  5
181
330
1F
100
AcDbEntity
  8
0
  6
Continuous
 62
     7
370
     0
100
AcDbSpline
210
0.0
220
0.0
230
1.0
 70
     8
 71
     3
 72
    16
 73
    12
 74
     0
 42
0.000000001
 43
0.00000001
 40
0.0
 40
0.0
 40
0.0
 40
0.0
 40
0.0625716166060404
 40
0.125133344283446
 40
0.2500890908636997
 40
0.3712225297593276
 40
0.500165032383158
 40
0.7497016235417578
 40
0.8498037792774775
 40
0.9248985296235334
 40
1.0
 40
1.0
 40
1.0
 40
1.0
 10
177.2972848470023
 20
111.4258060280528
 30
0.0
 10
177.3048568412398
 20
111.4451910460539
 30
0.0
 10
177.3199996330234
 20
111.4839580184136
 30
0.0
 10
177.3608788368907
 20
111.5564935960348
 30
0.0
 10
177.4228091598318
 20
111.6390780177354
 30
0.0
 10
177.5172105500419
 20
111.7214667163275
 30
0.0
 10
177.6581335893988
 20
111.8102341552495
 30
0.0
 10
177.8113834698474
 20
111.8617007235081
 30
0.0
 10
177.9509626844429
 20
111.8825874170655
 30
0.0
 10
178.0338927299622
 20
111.8898755224078
 30
0.0
 10
178.0838103232636
 20
111.890410105074
 30
0.0
 10
178.1087702366127
 20
111.8906774083662
 30
0.0
  0
SPLINE
  5
182
330
1F
100
AcDbEntity
  8
0
  6
Continuous
 62
     7
370
     0
100
AcDbSpline
210
0.0
220
0.0
230
1.0
 70
     8
 71
     3
 72
    13
 73
     9
 74
     0
 42
0.000000001
 43
0.00000001
 40
0.0
 40
0.0
 40
0.0
 40
0.0
 40
0.2716161760946789
 40
0.5000373570164289
 40
0.6342271489773762
 40
0.7500701523405253
 40
0.8670131673665186
 40
1.0
 40
1.0
 40
1.0
 40
1.0
 10
177.2394520547946
 20
110.9449231122508
 30
0.0
 10
177.2397966383458
 20
110.9889795350953
 30
0.0
 10
177.2404310064849
 20
111.0700861081851
 30
0.0
 10
177.2472613460293
 20
111.1727940529358
 30
0.0
 10
177.2563571641564
 20
111.2498595004419
 30
0.0
 10
177.2651825579444
 20
111.3087343052903
 30
0.0
 10
177.2783116799854
 20
111.3666603045981
 30
0.0
 10
177.2906954725601
 20
111.4052647384437
 30
0.0
 10
177.2972848470023
 20
111.4258060280528
 30
0.0
  0
LINE
  5
183
330
1F
100
AcDbEntity
  8
0
  6
Continuous
 62
     7
370
     0
100
AcDbLine
 10
177.2394520548
 20
110.9449231123
 30
0.0
 11
177.2394520548
 21
110.0209787202
 31
0.0
  0
LINE
  5
184
330
1F
100
AcDbEntity
  8
0
  6
Continuous
 62
     7
370
     0
100
AcDbLine
 10
180.2394520548
 20
110.0209787202
 30
0.0
 11
177.2394520548
 21
110.0209787202
 31
0.0
  0
LINE
  5
185
330
1F
100
AcDbEntity
  8
0
  6
Continuous
 62
     7
370
     0
100
AcDbLine
 10
180.2394520548
 20
110.3325462811
 30
0.0
 11
180.2394520548
 21
110.0209787202
 31
0.0
  0
LINE
  5
186
330
1F
100
AcDbEntity
  8
0
  6
Continuous
 62
     7
370
     0
100
AcDbLine
 10
179.031659847
 20
110.3325462811
 30
0.0
 11
180.2394520548
 21
110.3325462811
 31
0.0
  0
SPLINE
  5
187
330
1F
100
AcDbEntity
  8
0
  6
Continuous
 62
     7
370
     0
100
AcDbSpline
210
0.0
220
0.0
230
1.0
 70
     8
 71
     3
 72
     8
 73
     4
 74
     0
 42
0.000000001
 43
0.00000001
 40
0.0
 40
0.0
 40
0.0
 40
0.0
 40
1.0
 40
1.0
 40
1.0
 40
1.0
 10
180.2394520547946
 20
105.8972535943565
 30
0.0
 10
179.3666841976517
 20
105.6638471241578
 30
0.0
 10
178.4939163405088
 20
105.4310967984824
 30
0.0
 10
177.621148483366
 20
105.1990945857064
 30
0.0
  0
LINE
  5
188
330
1F
100
AcDbEntity
  8
0
  6
Continuous
 62
     7
370
     0
100
AcDbLine
 10
180.2394520548
 20
106.2104386405
 30
0.0
 11
180.2394520548
 21
105.8972535944
 31
0.0
  0
SPLINE
  5
189
330
1F
100
AcDbEntity
  8
0
  6
Continuous
 62
     7
370
     0
100
AcDbSpline
210
0.0
220
0.0
230
1.0
 70
     8
 71
     3
 72
     8
 73
     4
 74
     0
 42
0.000000001
 43
0.00000001
 40
0.0
 40
0.0
 40
0.0
 40
0.0
 40
1.0
 40
1.0
 40
1.0
 40
1.0
 10
177.7629910158335
 20
106.9201264719983
 30
0.0
 10
178.5884780288205
 20
106.6830018424995
 30
0.0
 10
179.4139650418075
 20
106.4464075360488
 30
0.0
 10
180.2394520547946
 20
106.2104386405107
 30
0.0
  0
LINE
  5
18A
330
1F
100
AcDbEntity
  8
0
  6
Continuous
 62
     7
370
     0
100
AcDbLine
 10
180.2394520548
 20
106.920126472
 30
0.0
 11
177.7629910158
 21
106.920126472
 31
0.0
  0
LINE
  5
18B
330
1F
100
AcDbEntity
  8
0
  6
Continuous
 62
     7
370
     0
100
AcDbLine
 10
180.2394520548
 20
107.2282979067
 30
0.0
 11
180.2394520548
 21
106.920126472
 31
0.0
  0
LINE
  5
18C
330
1F
100
AcDbEntity
  8
0
  6
Continuous
 62
     7
370
     0
100
AcDbLine
 10
177.2394520548
 20
107.2282979067
 30
0.0
 11
180.2394520548
 21
107.2282979067
 31
0.0
  0
LINE
  5
18D
330
1F
100
AcDbEntity
  8
0
  6
Continuous
 62
     7
370
     0
100
AcDbLine
 10
177.2394520548
 20
107.2282979067
 30
0.0
 11
177.2394520548
 21
106.7920952212
 31
0.0
  0
SPLINE
  5
18E
330
1F
100
AcDbEntity
  8
0
  6
Continuous
 62
     7
370
     0
100
AcDbSpline
210
0.0
220
0.0
230
1.0
 70
     8
 71
     3
 72
     8
 73
     4
 74
     0
 42
0.000000001
 43
0.00000001
 40
0.0
 40
0.0
 40
0.0
 40
0.0
 40
1.0
 40
1.0
 40
1.0
 40
1.0
 10
179.326911470379
 20
106.1900946072176
 30
0.0
 10
178.6310916651842
 20
106.3903284210016
 30
0.0
 10
177.9352718599894
 20
106.5910146578786
 30
0.0
 10
177.2394520547946
 20
106.7920952212137
 30
0.0
  0
SPLINE
  5
18F
330
1F
100
AcDbEntity
  8
0
  6
Continuous
 62
     7
370
     0
100
AcDbSpline
210
0.0
220
0.0
230
1.0
 70
     8
 71
     3
 72
    12
 73
     8
 74
     0
 42
0.000000001
 43
0.00000001
 40
0.0
 40
0.0
 40
0.0
 40
0.0
 40
0.249993638657377
 40
0.4999942819844614
 40
0.6249956604535661
 40
0.7499971038686578
 40
1.0
 40
1.0
 40
1.0
 40
1.0
 10
179.8078367950543
 20
106.056739467611
 30
0.0
 10
179.7676860047488
 20
106.0675854038249
 30
0.0
 10
179.6873832991372
 20
106.0892775801491
 30
0.0
 10
179.5869638061115
 20
106.1162727245536
 30
0.0
 10
179.5070136135806
 20
106.1392087624735
 30
0.0
 10
179.4270332466946
 20
106.1620426067861
 30
0.0
 10
179.3669601812032
 20
106.1788738069615
 30
0.0
 10
179.326911470379
 20
106.1900946072176
 30
0.0
  0
SPLINE
  5
190
330
1F
100
AcDbEntity
  8
0
  6
Continuous
 62
     7
370
     0
100
AcDbSpline
210
0.0
220
0.0
230
1.0
 70
     8
 71
     3
 72
     8
 73
     4
 74
     0
 42
0.000000001
 43
0.00000001
 40
0.0
 40
0.0
 40
0.0
 40
0.0
 40
1.0
 40
1.0
 40
1.0
 40
1.0
 10
179.363437444405
 20
105.9420326789887
 30
0.0
 10
179.511570561288
 20
105.9802509898931
 30
0.0
 10
179.6597036781712
 20
106.0184867210443
 30
0.0
 10
179.8078367950543
 20
106.056739467611
 30
0.0
  0
SPLINE
  5
191
330
1F
100
AcDbEntity
  8
0
  6
Continuous
 62
     7
370
     0
100
AcDbSpline
210
0.0
220
0.0
230
1.0
 70
     8
 71
     3
 72
     8
 73
     4
 74
     0
 42
0.000000001
 43
0.00000001
 40
0.0
 40
0.0
 40
0.0
 40
0.0
 40
1.0
 40
1.0
 40
1.0
 40
1.0
 10
177.2394520547946
 20
105.370709336663
 30
0.0
 10
177.9474471846647
 20
105.5606822959481
 30
0.0
 10
178.6554423145348
 20
105.7511401781692
 30
0.0
 10
179.363437444405
 20
105.9420326789887
 30
0.0
  0
LINE
  5
192
330
1F
100
AcDbEntity
  8
0
  6
Continuous
 62
     7
370
     0
100
AcDbLine
 10
177.2394520548
 20
105.3707093367
 30
0.0
 11
177.2394520548
 21
104.8957314787
 31
0.0
  0
LINE
  5
193
330
1F
100
AcDbEntity
  8
0
  6
Continuous
 62
     7
370
     0
100
AcDbLine
 10
180.2394520548
 20
104.8957314787
 30
0.0
 11
177.2394520548
 21
104.8957314787
 31
0.0
  0
LINE
  5
194
330
1F
100
AcDbEntity
  8
0
  6
Continuous
 62
     7
370
     0
100
AcDbLine
 10
180.2394520548
 20
105.1990945857
 30
0.0
 11
180.2394520548
 21
104.8957314787
 31
0.0
  0
LINE
  5
195
330
1F
100
AcDbEntity
  8
0
  6
Continuous
 62
     7
370
     0
100
AcDbLine
 10
177.6211484834
 20
105.1990945857
 30
0.0
 11
180.2394520548
 21
105.1990945857
 31
0.0
  0
LINE
  5
196
330
1F
100
AcDbEntity
  8
0
  6
Continuous
 62
     7
370
     0
100
AcDbLine
 10
176.5394520548
 20
136.2779589041
 30
0.0
 11
176.5394520548
 21
85.4779589041
 31
0.0
  0
SPLINE
  5
197
330
1F
100
AcDbEntity
  8
0
  6
Continuous
 62
     7
370
     0
100
AcDbSpline
210
0.0
220
0.0
230
1.0
 70
     8
 71
     3
 72
    14
 73
    10
 74
     0
 42
0.000000001
 43
0.00000001
 40
0.0
 40
0.0
 40
0.0
 40
0.0
 40
0.0626209035518782
 40
0.1251971369841665
 40
0.2501776311320311
 40
0.49950041154777
 40
0.7494942445745888
 40
0.8747342129769949
 40
1.0
 40
1.0
 40
1.0
 40
1.0
 10
177.2948497820673
 20
103.7647607053986
 30
0.0
 10
177.3074538802693
 20
103.7965164933785
 30
0.0
 10
177.3326530856409
 20
103.8600054166014
 30
0.0
 10
177.4047569737021
 20
103.9774458042866
 30
0.0
 10
177.5721546672249
 20
104.1550476487134
 30
0.0
 10
177.8856273080208
 20
104.3261229986117
 30
0.0
 10
178.2297011922001
 20
104.4100443426648
 30
0.0
 10
178.5109134639848
 20
104.4389844490394
 30
0.0
 10
178.6523098745971
 20
104.4412547828847
 30
0.0
 10
178.7230153664829
 20
104.4423900668044
 30
0.0
  0
SPLINE
  5
198
330
1F
100
AcDbEntity
  8
0
  6
Continuous
 62
     7
370
     0
100
AcDbSpline
210
0.0
220
0.0
230
1.0
 70
     8
 71
     3
 72
    13
 73
     9
 74
     0
 42
0.000000001
 43
0.00000001
 40
0.0
 40
0.0
 40
0.0
 40
0.0
 40
0.2621623226432789
 40
0.5000242273424856
 40
0.6219901488741719
 40
0.7500545430443251
 40
0.8623234327952117
 40
1.0
 40
1.0
 40
1.0
 40
1.0
 10
177.2394520547946
 20
103.3078681216067
 30
0.0
 10
177.2399005046467
 20
103.3481183639158
 30
0.0
 10
177.2407558365211
 20
103.4248879626439
 30
0.0
 10
177.2471863262921
 20
103.5204345235994
 30
0.0
 10
177.2561819019985
 20
103.5950603718125
 30
0.0
 10
177.2645594702993
 20
103.6503200429973
 30
0.0
 10
177.2771915625304
 20
103.7073810417895
 30
0.0
 10
177.28857789116
 20
103.7443804519025
 30
0.0
 10
177.2948497820673
 20
103.7647607053986
 30
0.0
  0
LINE
  5
199
330
1F
100
AcDbEntity
  8
0
  6
Continuous
 62
     7
370
     0
100
AcDbLine
 10
177.2394520548
 20
103.3078681216
 30
0.0
 11
177.2394520548
 21
102.5050625771
 31
0.0
  0
LINE
  5
19A
330
1F
100
AcDbEntity
  8
0
  6
Continuous
 62
     7
370
     0
100
AcDbLine
 10
180.2394520548
 20
102.5050625771
 30
0.0
 11
177.2394520548
 21
102.5050625771
 31
0.0
  0
LINE
  5
19B
330
1F
100
AcDbEntity
  8
0
  6
Continuous
 62
     7
370
     0
100
AcDbLine
 10
180.2394520548
 20
103.3450674641
 30
0.0
 11
180.2394520548
 21
102.5050625771
 31
0.0
  0
SPLINE
  5
19C
330
1F
100
AcDbEntity
  8
0
  6
Continuous
 62
     7
370
     0
100
AcDbSpline
210
0.0
220
0.0
230
1.0
 70
     8
 71
     3
 72
    17
 73
    13
 74
     0
 42
0.000000001
 43
0.00000001
 40
0.0
 40
0.0
 40
0.0
 40
0.0
 40
0.0715357051320334
 40
0.1430647354858063
 40
0.2860245204547984
 40
0.4289089802452743
 40
0.5716729696068854
 40
0.6786677761034723
 40
0.7855971142383407
 40
0.8927121774632338
 40
0.9463509865938893
 40
0.9999999999999999
 40
0.9999999999999999
 40
0.9999999999999999
 40
0.9999999999999999
 10
178.7230153664829
 20
104.4423900668044
 30
0.0
 10
178.7744846132238
 20
104.4417230311362
 30
0.0
 10
178.8774183042674
 20
104.4403890220389
 30
0.0
 10
179.0827379108443
 20
104.4259551713763
 30
0.0
 10
179.3373166586523
 20
104.3854496468162
 30
0.0
 10
179.6310978933583
 20
104.2904910280832
 30
0.0
 10
179.8796317287557
 20
104.1562233234612
 30
0.0
 10
180.0683744566602
 20
103.9837047053395
 30
0.0
 10
180.1768354402604
 20
103.7835911136199
 30
0.0
 10
180.2215554205308
 20
103.602709389368
 30
0.0
 10
180.2373436046736
 20
103.4557081663273
 30
0.0
 10
180.2387491935251
 20
103.3819500365941
 30
0.0
 10
180.2394520547946
 20
103.3450674641147
 30
0.0
  0
SPLINE
  5
19D
330
1F
100
AcDbEntity
  8
0
  6
Continuous
 62
     7
370
     0
100
AcDbSpline
210
0.0
220
0.0
230
1.0
 70
     8
 71
     3
 72
    13
 73
     9
 74
     0
 42
0.000000001
 43
0.00000001
 40
0.0
 40
0.0
 40
0.0
 40
0.0
 40
0.1252811271759513
 40
0.2504738718290422
 40
0.4999736990848827
 40
0.7495186620198482
 40
0.8747168909573869
 40
1.0
 40
1.0
 40
1.0
 40
1.0
 10
178.6883156911582
 20
109.130962612246
 30
0.0
 10
178.7047962525405
 20
109.1650041216544
 30
0.0
 10
178.7377457487049
 20
109.2330631250866
 30
0.0
 10
178.8238454554611
 20
109.3575144123292
 30
0.0
 10
178.9652590447406
 20
109.4873759494771
 30
0.0
 10
179.1422308283977
 20
109.5618606356319
 30
0.0
 10
179.2912480804028
 20
109.5891894595981
 30
0.0
 10
179.3669631731948
 20
109.5915919495805
 30
0.0
 10
179.4048335483011
 20
109.5927936016352
 30
0.0
  0
SPLINE
  5
19E
330
1F
100
AcDbEntity
  8
0
  6
Continuous
 62
     7
370
     0
100
AcDbSpline
210
0.0
220
0.0
230
1.0
 70
     8
 71
     3
 72
    11
 73
     7
 74
     0
 42
0.000000001
 43
0.00000001
 40
0.0
 40
0.0
 40
0.0
 40
0.0
 40
0.5000226720966714
 40
0.750010632600604
 40
0.8750211364987093
 40
1.0
 40
1.0
 40
1.0
 40
1.0
 10
178.5336890677816
 20
108.6114968579113
 30
0.0
 10
178.5550361460534
 20
108.699344817933
 30
0.0
 10
178.5870557655072
 20
108.8311126511639
 30
0.0
 10
178.6341959691948
 20
108.9822258754781
 30
0.0
 10
178.6621786225629
 20
109.0683007778212
 30
0.0
 10
178.6796040701218
 20
109.1100770966051
 30
0.0
 10
178.6883156911582
 20
109.1309626122459
 30
0.0
  0
SPLINE
  5
19F
330
1F
100
AcDbEntity
  8
0
  6
Continuous
 62
     7
370
     0
100
AcDbSpline
210
0.0
220
0.0
230
1.0
 70
     8
 71
     3
 72
    12
 73
     8
 74
     0
 42
0.000000001
 43
0.00000001
 40
0.0
 40
0.0
 40
0.0
 40
0.0
 40
0.0684070120992512
 40
0.1249521065050951
 40
0.249972416195281
 40
0.499961241972828
 40
1.0
 40
1.0
 40
1.0
 40
1.0
 10
178.3340137431062
 20
108.1371612691043
 30
0.0
 10
178.3423151969131
 20
108.145665646725
 30
0.0
 10
178.3574786152294
 20
108.1611997252589
 30
0.0
 10
178.3838244753073
 20
108.1957510469763
 30
0.0
 10
178.4213424437399
 20
108.2607350851315
 30
0.0
 10
178.4793402322085
 20
108.4013880541821
 30
0.0
 10
178.51194900221
 20
108.5274512822874
 30
0.0
 10
178.5336890677816
 20
108.6114968579113
 30
0.0
  0
SPLINE
  5
1A0
330
1F
100
AcDbEntity
  8
0
  6
Continuous
 62
     7
370
     0
100
AcDbSpline
210
0.0
220
0.0
230
1.0
 70
     8
 71
     3
 72
    11
 73
     7
 74
     0
 42
0.000000001
 43
0.00000001
 40
0.0
 40
0.0
 40
0.0
 40
0.0
 40
0.2502289237422095
 40
0.5002032682721509
 40
0.7499928847035038
 40
0.9999999999999999
 40
0.9999999999999999
 40
0.9999999999999999
 40
0.9999999999999999
 10
178.0296306262231
 20
108.0397428243
 30
0.0
 10
178.0569108614764
 20
108.0406041380664
 30
0.0
 10
178.1114435774743
 20
108.0423258893112
 30
0.0
 10
178.191923256952
 20
108.0578750031739
 30
0.0
 10
178.2691155270733
 20
108.0872363866596
 30
0.0
 10
178.3123747293259
 20
108.1205148143135
 30
0.0
 10
178.3340137431062
 20
108.1371612691043
 30
0.0
  0
SPLINE
  5
1A1
330
1F
100
AcDbEntity
  8
0
  6
Continuous
 62
     7
370
     0
100
AcDbSpline
210
0.0
220
0.0
230
1.0
 70
     8
 71
     3
 72
    15
 73
    11
 74
     0
 42
0.000000001
 43
0.00000001
 40
0.0
 40
0.0
 40
0.0
 40
0.0
 40
0.0777526257259027
 40
0.1432281142729366
 40
0.2506300153014094
 40
0.4995926731139607
 40
0.6246817606491045
 40
0.7496818425173599
 40
0.8748013780954851
 40
1.0
 40
1.0
 40
1.0
 40
1.0
 10
177.5511403664829
 20
108.60603987002
 30
0.0
 10
177.5515380029823
 20
108.584398650074
 30
0.0
 10
177.5522704891902
 20
108.544533358137
 30
0.0
 10
177.5587969541853
 20
108.4750231386144
 30
0.0
 10
177.5788653325881
 20
108.3594494502027
 30
0.0
 10
177.6343831593508
 20
108.2322665632688
 30
0.0
 10
177.7336543883714
 20
108.1330067168024
 30
0.0
 10
177.8233183518688
 20
108.0772601131793
 30
0.0
 10
177.9245038271472
 20
108.0449699656546
 30
0.0
 10
177.9945809797306
 20
108.0414855717084
 30
0.0
 10
178.0296306262231
 20
108.0397428243
 30
0.0
  0
SPLINE
  5
1A2
330
1F
100
AcDbEntity
  8
0
  6
Continuous
 62
     7
370
     0
100
AcDbSpline
210
0.0
220
0.0
230
1.0
 70
     8
 71
     3
 72
    14
 73
    10
 74
     0
 42
0.000000001
 43
0.00000001
 40
0.0
 40
0.0
 40
0.0
 40
0.0
 40
0.1253630775418423
 40
0.2506826249695307
 40
0.3937251744239492
 40
0.5010193669162346
 40
0.7494139240249061
 40
0.8746544750575744
 40
1.0
 40
1.0
 40
1.0
 40
1.0
 10
178.1355559508984
 20
109.2038486904291
 30
0.0
 10
178.0964277129441
 20
109.1996371916893
 30
0.0
 10
178.018184823625
 20
109.1912156565784
 30
0.0
 10
177.8980780004939
 20
109.1604346434052
 30
0.0
 10
177.7903381797181
 20
109.1102353870746
 30
0.0
 10
177.6662795873644
 20
109.0133526882238
 30
0.0
 10
177.5878499967008
 20
108.8767716759464
 30
0.0
 10
177.5552964326187
 20
108.7236291600081
 30
0.0
 10
177.5525261087036
 20
108.6452472450988
 30
0.0
 10
177.5511403664829
 20
108.60603987002
 30
0.0
  0
SPLINE
  5
1A3
330
1F
100
AcDbEntity
  8
0
  6
Continuous
 62
     7
370
     0
100
AcDbSpline
210
0.0
220
0.0
230
1.0
 70
     8
 71
     3
 72
     8
 73
     4
 74
     0
 42
0.000000001
 43
0.00000001
 40
0.0
 40
0.0
 40
0.0
 40
0.0
 40
1.0
 40
1.0
 40
1.0
 40
1.0
 10
178.0965949119374
 20
109.5149774999808
 30
0.0
 10
178.1095819249244
 20
109.411231086732
 30
0.0
 10
178.1225689379114
 20
109.3075188807384
 30
0.0
 10
178.1355559508984
 20
109.2038486904291
 30
0.0
  0
SPLINE
  5
1A4
330
1F
100
AcDbEntity
  8
0
  6
Continuous
 62
     7
370
     0
100
AcDbSpline
210
0.0
220
0.0
230
1.0
 70
     8
 71
     3
 72
    15
 73
    11
 74
     0
 42
0.000000001
 43
0.00000001
 40
0.0
 40
0.0
 40
0.0
 40
0.0
 40
0.0627787189007926
 40
0.1255404537924009
 40
0.250921799751138
 40
0.4999930802217175
 40
0.7490704743254035
 40
0.8744612101315473
 40
0.9372214876468202
 40
1.0
 40
1.0
 40
1.0
 40
1.0
 10
177.2004910158335
 20
108.595732514846
 30
0.0
 10
177.2013020527947
 20
108.6257428978022
 30
0.0
 10
177.2029239073011
 20
108.685755544775
 30
0.0
 10
177.2144003239398
 20
108.8054005558662
 30
0.0
 10
177.2631834243208
 20
109.0097457897363
 30
0.0
 10
177.4192804209577
 20
109.2774099741093
 30
0.0
 10
177.6831285605224
 20
109.4405992279769
 30
0.0
 10
177.8866270208944
 20
109.4951104365692
 30
0.0
 10
178.0063062311499
 20
109.510194262257
 30
0.0
 10
178.0664957707788
 20
109.5133829330186
 30
0.0
 10
178.0965949119374
 20
109.5149774999808
 30
0.0
  0
SPLINE
  5
1A5
330
1F
100
AcDbEntity
  8
0
  6
Continuous
 62
     7
370
     0
100
AcDbSpline
210
0.0
220
0.0
230
1.0
 70
     8
 71
     3
 72
    16
 73
    12
 74
     0
 42
0.000000001
 43
0.00000001
 40
0.0
 40
0.0
 40
0.0
 40
0.0
 40
0.0626827915024328
 40
0.1253483298378036
 40
0.2504777186787207
 40
0.499163760494237
 40
0.6242589209323784
 40
0.7494133056485491
 40
0.8746428196545928
 40
0.9373144782055619
 40
1.0
 40
1.0
 40
1.0
 40
1.0
 10
178.0223254314179
 20
107.730227958778
 30
0.0
 10
177.9942247624267
 20
107.7308604751091
 30
0.0
 10
177.9380311590318
 20
107.7321253336739
 30
0.0
 10
177.8264550704227
 20
107.7460030621381
 30
0.0
 10
177.6365955130152
 20
107.7974567907254
 30
0.0
 10
177.4456566421024
 20
107.9291657105825
 30
0.0
 10
177.3123455494793
 20
108.1091548582852
 30
0.0
 10
177.242932104707
 20
108.2631673162279
 30
0.0
 10
177.2138372518384
 20
108.4005131621276
 30
0.0
 10
177.2020640211322
 20
108.5117787534866
 30
0.0
 10
177.2010153895891
 20
108.567745864593
 30
0.0
 10
177.2004910158335
 20
108.595732514846
 30
0.0
  0
SPLINE
  5
1A6
330
1F
100
AcDbEntity
  8
0
  6
Continuous
 62
     7
370
     0
100
AcDbSpline
210
0.0
220
0.0
230
1.0
 70
     8
 71
     3
 72
    15
 73
    11
 74
     0
 42
0.000000001
 43
0.00000001
 40
0.0
 40
0.0
 40
0.0
 40
0.0
 40
0.1002638719455936
 40
0.2506188090589285
 40
0.3758439836045986
 40
0.5008774064868291
 40
0.7495964227322608
 40
0.8747064182623573
 40
0.9373398676134688
 40
1.0
 40
1.0
 40
1.0
 40
1.0
 10
178.8465949119374
 20
108.5345025689839
 30
0.0
 10
178.8350143695994
 20
108.4941194913997
 30
0.0
 10
178.8060677343589
 20
108.393178258891
 30
0.0
 10
178.7545260469592
 20
108.2444172451637
 30
0.0
 10
178.6855361632113
 20
108.0908082237575
 30
0.0
 10
178.5621163259926
 20
107.9204823246104
 30
0.0
 10
178.3838906669851
 20
107.7952454034723
 30
0.0
 10
178.2059710657303
 20
107.746183317211
 30
0.0
 10
178.1014306138478
 20
107.7318795023492
 30
0.0
 10
178.0486975689765
 20
107.730778551456
 30
0.0
 10
178.0223254314179
 20
107.730227958778
 30
0.0
  0
SPLINE
  5
1A7
330
1F
100
AcDbEntity
  8
0
  6
Continuous
 62
     7
370
     0
100
AcDbSpline
210
0.0
220
0.0
230
1.0
 70
     8
 71
     3
 72
    16
 73
    12
 74
     0
 42
0.000000001
 43
0.00000001
 40
0.0
 40
0.0
 40
0.0
 40
0.0
 40
0.0625795252929866
 40
0.1251155320466017
 40
0.2498237836924319
 40
0.374467179211314
 40
0.4993284528219167
 40
0.6205760330363682
 40
0.7853909342520001
 40
0.8873882838057245
 40
1.0
 40
1.0
 40
1.0
 40
1.0
 10
179.4139650418075
 20
109.2816090890443
 30
0.0
 10
179.3925132397272
 20
109.2809488552042
 30
0.0
 10
179.3496245534024
 20
109.2796288466586
 30
0.0
 10
179.2652196900784
 20
109.263987361698
 30
0.0
 10
179.1650662094191
 20
109.2216479903609
 30
0.0
 10
179.0686681829945
 20
109.1339214593067
 30
0.0
 10
179.0026076524549
 20
109.0242735598445
 30
0.0
 10
178.9534329108579
 20
108.892539201844
 30
0.0
 10
178.9129000617099
 20
108.7663782296181
 30
0.0
 10
178.8765567018164
 20
108.6420520049288
 30
0.0
 10
178.8569061414336
 20
108.5715152748567
 30
0.0
 10
178.8465949119374
 20
108.5345025689839
 30
0.0
  0
SPLINE
  5
1A8
330
1F
100
AcDbEntity
  8
0
  6
Continuous
 62
     7
370
     0
100
AcDbSpline
210
0.0
220
0.0
230
1.0
 70
     8
 71
     3
 72
    16
 73
    12
 74
     0
 42
0.000000001
 43
0.00000001
 40
0.0
 40
0.0
 40
0.0
 40
0.0
 40
0.1251298534570193
 40
0.2501927365502815
 40
0.3929614418558045
 40
0.5001165276216132
 40
0.6428346219243659
 40
0.7499384737279058
 40
0.8748622099567014
 40
0.9374171835512063
 40
1.0
 40
1.0
 40
1.0
 40
1.0
 10
179.9277637431062
 20
108.6769888654755
 30
0.0
 10
179.9266194430622
 20
108.7142308275439
 30
0.0
 10
179.9243314554113
 20
108.7886948195249
 30
0.0
 10
179.9036653142338
 20
108.9042723869503
 30
0.0
 10
179.8651738284014
 20
109.0100858730583
 30
0.0
 10
179.8021933684611
 20
109.1094925395377
 30
0.0
 10
179.7254128435944
 20
109.1851846574904
 30
0.0
 10
179.628873470158
 20
109.2431549280271
 30
0.0
 10
179.5440918391506
 20
109.2697809476598
 30
0.0
 10
179.4700374807398
 20
109.2802686674545
 30
0.0
 10
179.4326586270197
 20
109.2811622155769
 30
0.0
 10
179.4139650418075
 20
109.2816090890443
 30
0.0
  0
SPLINE
  5
1A9
330
1F
100
AcDbEntity
  8
0
  6
Continuous
 62
     7
370
     0
100
AcDbSpline
210
0.0
220
0.0
230
1.0
 70
     8
 71
     3
 72
    15
 73
    11
 74
     0
 42
0.000000001
 43
0.00000001
 40
0.0
 40
0.0
 40
0.0
 40
0.0
 40
0.1251442851864203
 40
0.2502017963495106
 40
0.3751051540460504
 40
0.5000187501400094
 40
0.6249636838007124
 40
0.7499233596452589
 40
0.8749319668218593
 40
1.0
 40
1.0
 40
1.0
 40
1.0
 10
179.2264650418075
 20
107.9623222193652
 30
0.0
 10
179.2729725897957
 20
107.9676972163481
 30
0.0
 10
179.3659554378189
 20
107.9784434833348
 30
0.0
 10
179.5020256305483
 20
108.0140533919046
 30
0.0
 10
179.6307246635682
 20
108.072224675004
 30
0.0
 10
179.738961557111
 20
108.1631316993447
 30
0.0
 10
179.8241993099219
 20
108.2748529637755
 30
0.0
 10
179.8858183362478
 20
108.4010115405466
 30
0.0
 10
179.9215225863672
 20
108.5371664652301
 30
0.0
 10
179.9256830279764
 20
108.630374015721
 30
0.0
 10
179.9277637431062
 20
108.6769888654755
 30
0.0
  0
SPLINE
  5
1AA
330
1F
100
AcDbEntity
  8
0
  6
Continuous
 62
     7
370
     0
100
AcDbSpline
210
0.0
220
0.0
230
1.0
 70
     8
 71
     3
 72
     8
 73
     4
 74
     0
 42
0.000000001
 43
0.00000001
 40
0.0
 40
0.0
 40
0.0
 40
0.0
 40
1.0
 40
1.0
 40
1.0
 40
1.0
 10
179.2654260807686
 20
107.6529214836854
 30
0.0
 10
179.2524390677816
 20
107.7559767107572
 30
0.0
 10
179.2394520547946
 20
107.8591128776703
 30
0.0
 10
179.2264650418075
 20
107.9623222193652
 30
0.0
  0
SPLINE
  5
1AB
330
1F
100
AcDbEntity
  8
0
  6
Continuous
 62
     7
370
     0
100
AcDbSpline
210
0.0
220
0.0
230
1.0
 70
     8
 71
     3
 72
    17
 73
    13
 74
     0
 42
0.000000001
 43
0.00000001
 40
0.0
 40
0.0
 40
0.0
 40
0.0
 40
0.0625856100871909
 40
0.1251549030271025
 40
0.2501430453663078
 40
0.3756899044279641
 40
0.499944964669345
 40
0.6248671745802231
 40
0.7498239565756938
 40
0.8748397203247772
 40
0.9374129209274165
 40
1.0
 40
1.0
 40
1.0
 40
1.0
 10
180.2784130937556
 20
108.6503051314919
 30
0.0
 10
180.2777344098641
 20
108.6169723376846
 30
0.0
 10
180.2763772190256
 20
108.5503154405037
 30
0.0
 10
180.2616379217866
 20
108.4178386258003
 30
0.0
 10
180.2216350739563
 20
108.2550334614239
 30
0.0
 10
180.1332258639924
 20
108.074251989746
 30
0.0
 10
180.0045024109512
 20
107.919535188963
 30
0.0
 10
179.8452652321342
 20
107.7965074542732
 30
0.0
 10
179.6615661570773
 20
107.7133413087971
 30
0.0
 10
179.498668181724
 20
107.672886882222
 30
0.0
 10
179.3657288698828
 20
107.6571538221957
 30
0.0
 10
179.2988628153004
 20
107.654332367475
 30
0.0
 10
179.2654260807686
 20
107.6529214836854
 30
0.0
  0
SPLINE
  5
1AC
330
1F
100
AcDbEntity
  8
0
  6
Continuous
 62
     7
370
     0
100
AcDbSpline
210
0.0
220
0.0
230
1.0
 70
     8
 71
     3
 72
    16
 73
    12
 74
     0
 42
0.000000001
 43
0.00000001
 40
0.0
 40
0.0
 40
0.0
 40
0.0
 40
0.0625855665553846
 40
0.1251419478590782
 40
0.2500971494983076
 40
0.3750709526752726
 40
0.49998807433553
 40
0.6248991864886235
 40
0.7498369235043448
 40
0.8748857555372332
 40
1.0
 40
1.0
 40
1.0
 40
1.0
 10
179.4048335483011
 20
109.5927936016352
 30
0.0
 10
179.4350037041769
 20
109.5918642526348
 30
0.0
 10
179.4953299468127
 20
109.5900059880134
 30
0.0
 10
179.6150827555878
 20
109.5742077369009
 30
0.0
 10
179.760294182972
 20
109.5295784153434
 30
0.0
 10
179.9193257829479
 20
109.4415811129848
 30
0.0
 10
180.0579508725167
 20
109.3235190034047
 30
0.0
 10
180.163954332447
 20
109.1753549314911
 30
0.0
 10
180.234854525382
 20
109.0082298214995
 30
0.0
 10
180.2724795952266
 20
108.8306841278295
 30
0.0
 10
180.2764349161679
 20
108.7104419438793
 30
0.0
 10
180.2784130937556
 20
108.6503051314919
 30
0.0
  0
SPLINE
  5
1AD
330
1F
100
AcDbEntity
  8
0
  6
Continuous
 62
     7
370
     0
100
AcDbSpline
210
0.0
220
0.0
230
1.0
 70
     8
 71
     3
 72
    16
 73
    12
 74
     0
 42
0.000000001
 43
0.00000001
 40
0.0
 40
0.0
 40
0.0
 40
0.0
 40
0.1251211158362837
 40
0.2501811140306917
 40
0.375546589345489
 40
0.5001494650777396
 40
0.666549479328141
 40
0.7499242508552415
 40
0.8748533350169856
 40
0.9374120666503226
 40
1.0
 40
1.0
 40
1.0
 40
1.0
 10
179.3683075742751
 20
113.7935955888539
 30
0.0
 10
179.4247478634723
 20
113.791827349379
 30
0.0
 10
179.5376008726004
 20
113.7882917341575
 30
0.0
 10
179.7036968733371
 20
113.7513755934183
 30
0.0
 10
179.8610859272795
 20
113.6876563591642
 30
0.0
 10
180.0172866267729
 20
113.5823349676632
 30
0.0
 10
180.1339486007072
 20
113.4580108952553
 30
0.0
 10
180.2199613453554
 20
113.3127833071058
 30
0.0
 10
180.2588066449899
 20
113.1961487336377
 30
0.0
 10
180.2756491327101
 20
113.0849760750262
 30
0.0
 10
180.2774916300977
 20
113.0287851214243
 30
0.0
 10
180.2784130937556
 20
113.0006830888262
 30
0.0
  0
SPLINE
  5
1AE
330
1F
100
AcDbEntity
  8
0
  6
Continuous
 62
     7
370
     0
100
AcDbSpline
210
0.0
220
0.0
230
1.0
 70
     8
 71
     3
 72
    16
 73
    12
 74
     0
 42
0.000000001
 43
0.00000001
 40
0.0
 40
0.0
 40
0.0
 40
0.0
 40
0.0625698984382212
 40
0.1251290334456577
 40
0.2501086358182236
 40
0.3750849225922321
 40
0.5001003749486007
 40
0.6997810841216565
 40
0.8498368638193778
 40
0.9249143285961038
 40
0.9999999999999999
 40
0.9999999999999999
 40
0.9999999999999999
 40
0.9999999999999999
 10
178.5933481586906
 20
113.3183849228926
 30
0.0
 10
178.600980351417
 20
113.3371282817866
 30
0.0
 10
178.6162434239608
 20
113.374611775295
 30
0.0
 10
178.6538362009836
 20
113.4463308385487
 30
0.0
 10
178.7115212041362
 20
113.5299079946873
 30
0.0
 10
178.7971936626217
 20
113.6168527849007
 30
0.0
 10
178.9176574117619
 20
113.700048703155
 30
0.0
 10
179.0620387213993
 20
113.7587352957113
 30
0.0
 10
179.1981030423117
 20
113.783334326589
 30
0.0
 10
179.2951663303515
 20
113.7927497644501
 30
0.0
 10
179.3439262713674
 20
113.7933136371138
 30
0.0
 10
179.3683075742751
 20
113.7935955888539
 30
0.0
  0
SPLINE
  5
1AF
330
1F
100
AcDbEntity
  8
0
  6
Continuous
 62
     7
370
     0
100
AcDbSpline
210
0.0
220
0.0
230
1.0
 70
     8
 71
     3
 72
    13
 73
     9
 74
     0
 42
0.000000001
 43
0.00000001
 40
0.0
 40
0.0
 40
0.0
 40
0.0
 40
0.1252840493845651
 40
0.2504984224740349
 40
0.5001336699049004
 40
0.7495724329694106
 40
0.874736835167876
 40
1.0
 40
1.0
 40
1.0
 40
1.0
 10
177.988234522327
 20
113.6774546190792
 30
0.0
 10
178.0194895397948
 20
113.6767033795181
 30
0.0
 10
178.0819821923593
 20
113.6752013181954
 30
0.0
 10
178.2053537578068
 20
113.6557641799116
 30
0.0
 10
178.35429964994
 20
113.6026663222955
 30
0.0
 10
178.4761998925093
 20
113.5014544354343
 30
0.0
 10
178.5512187880982
 20
113.4018136414923
 30
0.0
 10
178.5793013434641
 20
113.3462018064177
 30
0.0
 10
178.5933481586906
 20
113.3183849228926
 30
0.0
  0
SPLINE
  5
1B0
330
1F
100
AcDbEntity
  8
0
  6
Continuous
 62
     7
370
     0
100
AcDbSpline
210
0.0
220
0.0
230
1.0
 70
     8
 71
     3
 72
    16
 73
    12
 74
     0
 42
0.000000001
 43
0.00000001
 40
0.0
 40
0.0
 40
0.0
 40
0.0
 40
0.0625805693480136
 40
0.1251378661615828
 40
0.2500256142483723
 40
0.3749099005374583
 40
0.4998790156666243
 40
0.6249115350621564
 40
0.7498531354868925
 40
0.8749004598437079
 40
1.0
 40
1.0
 40
1.0
 40
1.0
 10
177.2004910158335
 20
112.9958299568657
 30
0.0
 10
177.2012406845228
 20
113.0200933156353
 30
0.0
 10
177.2027397431138
 20
113.0686110100887
 30
0.0
 10
177.2177514939614
 20
113.1644986098169
 30
0.0
 10
177.2556826813303
 20
113.2807861175576
 30
0.0
 10
177.3364410086352
 20
113.4033088284918
 30
0.0
 10
177.4406624107837
 20
113.5059655693582
 30
0.0
 10
177.5627886041373
 20
113.5870011074068
 30
0.0
 10
177.6986592632116
 20
113.641994404848
 30
0.0
 10
177.8421718764403
 20
113.672478247479
 30
0.0
 10
177.9395401987917
 20
113.6757955977239
 30
0.0
 10
177.988234522327
 20
113.6774546190792
 30
0.0
  0
SPLINE
  5
1B1
330
1F
100
AcDbEntity
  8
0
  6
Continuous
 62
     7
370
     0
100
AcDbSpline
210
0.0
220
0.0
230
1.0
 70
     8
 71
     3
 72
    16
 73
    12
 74
     0
 42
0.000000001
 43
0.00000001
 40
0.0
 40
0.0
 40
0.0
 40
0.0
 40
0.1250889871004341
 40
0.2501467135631002
 40
0.3929270099957524
 40
0.5000907602932222
 40
0.6274342659816174
 40
0.7499795038187509
 40
0.8748689312895639
 40
0.9374208143943441
 40
1.0
 40
1.0
 40
1.0
 40
1.0
 10
177.9760591976517
 20
112.3187435823578
 30
0.0
 10
177.9279466151964
 20
112.3204079752508
 30
0.0
 10
177.8317334739664
 20
112.3237363450931
 30
0.0
 10
177.6832763931167
 20
112.3555256489642
 30
0.0
 10
177.5493434990986
 20
112.4118853842407
 30
0.0
 10
177.4297456663483
 20
112.4947817683479
 30
0.0
 10
177.3316982241573
 20
112.592109160869
 30
0.0
 10
177.2551300361025
 20
112.7152519663151
 30
0.0
 10
177.2164916553841
 20
112.8289058621962
 30
0.0
 10
177.2029215535118
 20
112.9239468164508
 30
0.0
 10
177.2013013129004
 20
112.9718654249208
 30
0.0
 10
177.2004910158335
 20
112.9958299568657
 30
0.0
  0
SPLINE
  5
1B2
330
1F
100
AcDbEntity
  8
0
  6
Continuous
 62
     7
370
     0
100
AcDbSpline
210
0.0
220
0.0
230
1.0
 70
     8
 71
     3
 72
    13
 73
     9
 74
     0
 42
0.000000001
 43
0.00000001
 40
0.0
 40
0.0
 40
0.0
 40
0.0
 40
0.1252653966353248
 40
0.2504280287003157
 40
0.4998107605113103
 40
0.7494990940726852
 40
0.8747146500223176
 40
0.9999999999999999
 40
0.9999999999999999
 40
0.9999999999999999
 40
0.9999999999999999
 10
178.5933481586906
 20
112.6826464557911
 30
0.0
 10
178.5790419097401
 20
112.6542586965546
 30
0.0
 10
178.5504411483246
 20
112.5975064666828
 30
0.0
 10
178.4746498089251
 20
112.4952881749917
 30
0.0
 10
178.3495309049677
 20
112.3925595386287
 30
0.0
 10
178.1972491923105
 20
112.3401906889668
 30
0.0
 10
178.0715432770573
 20
112.32077442147
 30
0.0
 10
178.0078931354758
 20
112.3194206544564
 30
0.0
 10
177.9760591976517
 20
112.3187435823578
 30
0.0
  0
SPLINE
  5
1B3
330
1F
100
AcDbEntity
  8
0
  6
Continuous
 62
     7
370
     0
100
AcDbSpline
210
0.0
220
0.0
230
1.0
 70
     8
 71
     3
 72
    14
 73
    10
 74
     0
 42
0.000000001
 43
0.00000001
 40
0.0
 40
0.0
 40
0.0
 40
0.0
 40
0.1253177412709348
 40
0.250615269476727
 40
0.5002779589291654
 40
0.7495301291181958
 40
0.874665416895858
 40
0.9373257528056922
 40
1.0
 40
1.0
 40
1.0
 40
1.0
 10
179.357958548301
 20
112.2020338150835
 30
0.0
 10
179.3173595529602
 20
112.2029240977342
 30
0.0
 10
179.236168110674
 20
112.204704519438
 30
0.0
 10
179.0759117013888
 20
112.2301307422515
 30
0.0
 10
178.8824991511279
 20
112.2986126709452
 30
0.0
 10
178.7240105331082
 20
112.4322584910643
 30
0.0
 10
178.6465894200422
 20
112.5513943886335
 30
0.0
 10
178.6128577521642
 20
112.6251141749146
 30
0.0
 10
178.5998518377044
 20
112.6634676098423
 30
0.0
 10
178.5933481586906
 20
112.6826464557911
 30
0.0
  0
SPLINE
  5
1B4
330
1F
100
AcDbEntity
  8
0
  6
Continuous
 62
     7
370
     0
100
AcDbSpline
210
0.0
220
0.0
230
1.0
 70
     8
 71
     3
 72
    17
 73
    13
 74
     0
 42
0.000000001
 43
0.00000001
 40
0.0
 40
0.0
 40
0.0
 40
0.0
 40
0.0625793915239979
 40
0.1251304534509945
 40
0.2500366663791496
 40
0.3749355344688458
 40
0.4998839605297372
 40
0.6426305843103128
 40
0.7497974123321112
 40
0.8748426961108017
 40
0.9374152445515298
 40
1.0
 40
1.0
 40
1.0
 40
1.0
 10
180.2784130937556
 20
113.0006830888262
 30
0.0
 10
180.2775031992141
 20
112.972300535249
 30
0.0
 10
180.275683822039
 20
112.915548276834
 30
0.0
 10
180.2588920678587
 20
112.8031442055093
 30
0.0
 10
180.2137315239299
 20
112.667117497443
 30
0.0
 10
180.1204157004907
 20
112.5228785117601
 30
0.0
 10
179.9937929489312
 20
112.395487517468
 30
0.0
 10
179.8487073155609
 20
112.30283812464
 30
0.0
 10
179.6889121416843
 20
112.2411034777039
 30
0.0
 10
179.5567837706573
 20
112.2146469594778
 30
0.0
 10
179.4433988388418
 20
112.2036286020003
 30
0.0
 10
179.3864404969268
 20
112.2025654452868
 30
0.0
 10
179.357958548301
 20
112.2020338150835
 30
0.0
  0
SPLINE
  5
1B5
330
1F
100
AcDbEntity
  8
0
  6
Continuous
 62
     7
370
     0
100
AcDbSpline
210
0.0
220
0.0
230
1.0
 70
     8
 71
     3
 72
    16
 73
    12
 74
     0
 42
0.000000001
 43
0.00000001
 40
0.0
 40
0.0
 40
0.0
 40
0.0
 40
0.062564798547447
 40
0.1251035349199321
 40
0.2498538211251517
 40
0.3714414588608156
 40
0.4997975618923142
 40
0.6202135167835358
 40
0.7497910752833418
 40
0.8748595856835107
 40
1.0
 40
1.0
 40
1.0
 40
1.0
 10
178.2524390677816
 20
116.8305999800233
 30
0.0
 10
178.2535479744302
 20
116.8579213390147
 30
0.0
 10
178.2557653257981
 20
116.9125526759324
 30
0.0
 10
178.278603759478
 20
117.0196905042501
 30
0.0
 10
178.3361380164877
 20
117.1440839089704
 30
0.0
 10
178.4417112652343
 20
117.2725448892446
 30
0.0
 10
178.5701661973233
 20
117.376407124856
 30
0.0
 10
178.719880719865
 20
117.4559546172358
 30
0.0
 10
178.8805433705457
 20
117.50727532985
 30
0.0
 10
179.0493055997152
 20
117.5350487729463
 30
0.0
 10
179.1617193079462
 20
117.5379428995689
 30
0.0
 10
179.2179423145348
 20
117.5393903787307
 30
0.0
  0
SPLINE
  5
1B6
330
1F
100
AcDbEntity
  8
0
  6
Continuous
 62
     7
370
     0
100
AcDbSpline
210
0.0
220
0.0
230
1.0
 70
     8
 71
     3
 72
    11
 73
     7
 74
     0
 42
0.000000001
 43
0.00000001
 40
0.0
 40
0.0
 40
0.0
 40
0.0
 40
0.2500771941306491
 40
0.5000175858752958
 40
0.7499382381823037
 40
1.0
 40
1.0
 40
1.0
 40
1.0
 10
178.3699309508985
 20
116.397687748904
 30
0.0
 10
178.3522722699518
 20
116.4313632896589
 30
0.0
 10
178.3169645680744
 20
116.4986959492796
 30
0.0
 10
178.2797217239043
 20
116.606296732596
 30
0.0
 10
178.2566173557729
 20
116.717579906483
 30
0.0
 10
178.2538320924727
 20
116.7929195345019
 30
0.0
 10
178.2524390677816
 20
116.8305999800233
 30
0.0
  0
SPLINE
  5
1B7
330
1F
100
AcDbEntity
  8
0
  6
Continuous
 62
     7
370
     0
100
AcDbSpline
210
0.0
220
0.0
230
1.0
 70
     8
 71
     3
 72
     8
 73
     4
 74
     0
 42
0.000000001
 43
0.00000001
 40
0.0
 40
0.0
 40
0.0
 40
0.0
 40
1.0
 40
1.0
 40
1.0
 40
1.0
 10
177.6290624444049
 20
116.5075634671873
 30
0.0
 10
177.8760186132361
 20
116.4709565538492
 30
0.0
 10
178.1229747820673
 20
116.4343311944145
 30
0.0
 10
178.3699309508985
 20
116.397687748904
 30
0.0
  0
LINE
  5
1B8
330
1F
100
AcDbEntity
  8
0
  6
Continuous
 62
     7
370
     0
100
AcDbLine
 10
177.6290624444
 20
117.426528395
 30
0.0
 11
177.6290624444
 21
116.5075634672
 31
0.0
  0
LINE
  5
1B9
330
1F
100
AcDbEntity
  8
0
  6
Continuous
 62
     7
370
     0
100
AcDbLine
 10
177.2784130938
 20
117.426528395
 30
0.0
 11
177.6290624444
 21
117.426528395
 31
0.0
  0
LINE
  5
1BA
330
1F
100
AcDbEntity
  8
0
  6
Continuous
 62
     7
370
     0
100
AcDbLine
 10
177.2784130938
 20
117.426528395
 30
0.0
 11
177.2784130938
 21
116.2526049904
 31
0.0
  0
SPLINE
  5
1BB
330
1F
100
AcDbEntity
  8
0
  6
Continuous
 62
     7
370
     0
100
AcDbSpline
210
0.0
220
0.0
230
1.0
 70
     8
 71
     3
 72
     8
 73
     4
 74
     0
 42
0.000000001
 43
0.00000001
 40
0.0
 40
0.0
 40
0.0
 40
0.0
 40
1.0
 40
1.0
 40
1.0
 40
1.0
 10
178.8155478340153
 20
116.0239076929498
 30
0.0
 10
178.3031695872621
 20
116.1002138479016
 30
0.0
 10
177.7907913405089
 20
116.1764473565607
 30
0.0
 10
177.2784130937556
 20
116.2526049903845
 30
0.0
  0
SPLINE
  5
1BC
330
1F
100
AcDbEntity
  8
0
  6
Continuous
 62
     7
370
     0
100
AcDbSpline
210
0.0
220
0.0
230
1.0
 70
     8
 71
     3
 72
     8
 73
     4
 74
     0
 42
0.000000001
 43
0.00000001
 40
0.0
 40
0.0
 40
0.0
 40
0.0
 40
1.0
 40
1.0
 40
1.0
 40
1.0
 10
178.8599877690803
 20
116.3287372133338
 30
0.0
 10
178.8451744573919
 20
116.2272616231252
 30
0.0
 10
178.8303611457036
 20
116.1256492328855
 30
0.0
 10
178.8155478340153
 20
116.0239076929498
 30
0.0
  0
SPLINE
  5
1BD
330
1F
100
AcDbEntity
  8
0
  6
Continuous
 62
     7
370
     0
100
AcDbSpline
210
0.0
220
0.0
230
1.0
 70
     8
 71
     3
 72
    13
 73
     9
 74
     0
 42
0.000000001
 43
0.00000001
 40
0.0
 40
0.0
 40
0.0
 40
0.0
 40
0.1251847097082084
 40
0.250262499704328
 40
0.499926532985883
 40
0.7496170513301638
 40
0.8747749619545573
 40
1.0
 40
1.0
 40
1.0
 40
1.0
 10
178.5641273794699
 20
116.7459359804989
 30
0.0
 10
178.5651462019012
 20
116.7236483510959
 30
0.0
 10
178.5671829765921
 20
116.6790921280564
 30
0.0
 10
178.5902412557576
 20
116.5924431346951
 30
0.0
 10
178.6441937067437
 20
116.4925854828225
 30
0.0
 10
178.7242525032094
 20
116.4113506819814
 30
0.0
 10
178.7990681964844
 20
116.3597275800656
 30
0.0
 10
178.8396776157666
 20
116.3390691817431
 30
0.0
 10
178.8599877690803
 20
116.3287372133338
 30
0.0
  0
SPLINE
  5
1BE
330
1F
100
AcDbEntity
  8
0
  6
Continuous
 62
     7
370
     0
100
AcDbSpline
210
0.0
220
0.0
230
1.0
 70
     8
 71
     3
 72
    15
 73
    11
 74
     0
 42
0.000000001
 43
0.00000001
 40
0.0
 40
0.0
 40
0.0
 40
0.0
 40
0.1253495801705154
 40
0.250659919426428
 40
0.375906679596472
 40
0.5010417308309505
 40
0.7496862051623807
 40
0.8746835149766056
 40
0.9373192359432202
 40
1.0
 40
1.0
 40
1.0
 40
1.0
 10
179.2349877690802
 20
117.2381181151582
 30
0.0
 10
179.1956769192335
 20
117.2370760168371
 30
0.0
 10
179.1170675258732
 20
117.2349921464258
 30
0.0
 10
179.000035765113
 20
117.2184484142012
 30
0.0
 10
178.8869227407384
 20
117.1846735154049
 30
0.0
 10
178.7466167383073
 20
117.1163863595353
 30
0.0
 10
178.6315976520679
 20
117.0034923668175
 30
0.0
 10
178.5801394471179
 20
116.8786774682481
 30
0.0
 10
178.5663379644056
 20
116.8032958353963
 30
0.0
 10
178.5648644176631
 20
116.7650605131649
 30
0.0
 10
178.5641273794699
 20
116.7459359804989
 30
0.0
  0
SPLINE
  5
1BF
330
1F
100
AcDbEntity
  8
0
  6
Continuous
 62
     7
370
     0
100
AcDbSpline
210
0.0
220
0.0
230
1.0
 70
     8
 71
     3
 72
    16
 73
    12
 74
     0
 42
0.000000001
 43
0.00000001
 40
0.0
 40
0.0
 40
0.0
 40
0.0
 40
0.0625568803557656
 40
0.1250886456959733
 40
0.249823695431128
 40
0.3746883977337565
 40
0.4996668591645551
 40
0.6247035305831705
 40
0.7497357800776755
 40
0.8748599883283994
 40
1.0
 40
1.0
 40
1.0
 40
1.0
 10
179.9667247820673
 20
116.7382358204173
 30
0.0
 10
179.9659177840187
 20
116.7584200601676
 30
0.0
 10
179.9643041119109
 20
116.7987804362032
 30
0.0
 10
179.9456783916992
 20
116.8776174724403
 30
0.0
 10
179.8990195199833
 20
116.9690845386126
 30
0.0
 10
179.8150279498159
 20
117.0589893286195
 30
0.0
 10
179.7159180063076
 20
117.1328516539991
 30
0.0
 10
179.6024976683593
 20
117.1838840346953
 30
0.0
 10
179.482855016709
 20
117.2177854759263
 30
0.0
 10
179.3593729534635
 20
117.2349810560988
 30
0.0
 10
179.2764512426256
 20
117.2370723847848
 30
0.0
 10
179.2349877690802
 20
117.2381181151582
 30
0.0
  0
SPLINE
  5
1C0
330
1F
100
AcDbEntity
  8
0
  6
Continuous
 62
     7
370
     0
100
AcDbSpline
210
0.0
220
0.0
230
1.0
 70
     8
 71
     3
 72
    16
 73
    12
 74
     0
 42
0.000000001
 43
0.00000001
 40
0.0
 40
0.0
 40
0.0
 40
0.0
 40
0.1379233981933645
 40
0.2502472527040959
 40
0.3818701388740407
 40
0.5003541146048737
 40
0.6430936768241643
 40
0.7502097280840425
 40
0.874910398510878
 40
0.937446223605817
 40
1.0
 40
1.0
 40
1.0
 40
1.0
 10
179.3823091976517
 20
116.2906774695063
 30
0.0
 10
179.4194109938648
 20
116.2959484629103
 30
0.0
 10
179.4867282344079
 20
116.3055121166169
 30
0.0
 10
179.5878599810948
 20
116.3289171097084
 30
0.0
 10
179.6807246129413
 20
116.3617349418405
 30
0.0
 10
179.7757165901522
 20
116.4101705287037
 30
0.0
 10
179.8535513682923
 20
116.4732313482598
 30
0.0
 10
179.9165328227353
 20
116.5518622984308
 30
0.0
 10
179.9505466475495
 20
116.6236107798926
 30
0.0
 10
179.9645403805668
 20
116.6885951866348
 30
0.0
 10
179.9659965785753
 20
116.7216873594978
 30
0.0
 10
179.9667247820673
 20
116.7382358204173
 30
0.0
  0
SPLINE
  5
1C1
330
1F
100
AcDbEntity
  8
0
  6
Continuous
 62
     7
370
     0
100
AcDbSpline
210
0.0
220
0.0
230
1.0
 70
     8
 71
     3
 72
     8
 73
     4
 74
     0
 42
0.000000001
 43
0.00000001
 40
0.0
 40
0.0
 40
0.0
 40
0.0
 40
1.0
 40
1.0
 40
1.0
 40
1.0
 10
179.4212702366127
 20
115.9857485766223
 30
0.0
 10
179.4082832236257
 20
116.0875222838635
 30
0.0
 10
179.3952962106387
 20
116.1891677991012
 30
0.0
 10
179.3823091976517
 20
116.2906774695063
 30
0.0
  0
SPLINE
  5
1C2
330
1F
100
AcDbEntity
  8
0
  6
Continuous
 62
     7
370
     0
100
AcDbSpline
210
0.0
220
0.0
230
1.0
 70
     8
 71
     3
 72
    15
 73
    11
 74
     0
 42
0.000000001
 43
0.00000001
 40
0.0
 40
0.0
 40
0.0
 40
0.0
 40
0.0626601510106924
 40
0.1252967808132954
 40
0.2503298908546951
 40
0.499131164955492
 40
0.6215999564257687
 40
0.7494646694161398
 40
0.8747197951606078
 40
0.9999999999999999
 40
0.9999999999999999
 40
0.9999999999999999
 40
0.9999999999999999
 10
180.2784130937556
 20
116.7411974878153
 30
0.0
 10
180.2776295888339
 20
116.7151983653044
 30
0.0
 10
180.2760628731008
 20
116.663209879767
 30
0.0
 10
180.2601904143304
 20
116.5601709594019
 30
0.0
 10
180.2006817953156
 20
116.3866002239885
 30
0.0
 10
180.0628316897383
 20
116.2197177863665
 30
0.0
 10
179.8859964187388
 20
116.1023917599214
 30
0.0
 10
179.7375473531674
 20
116.0414162316321
 30
0.0
 10
179.5808021125958
 20
116.0017685660386
 30
0.0
 10
179.4744510772586
 20
115.9910889294455
 30
0.0
 10
179.4212702366127
 20
115.9857485766223
 30
0.0
  0
SPLINE
  5
1C3
330
1F
100
AcDbEntity
  8
0
  6
Continuous
 62
     7
370
     0
100
AcDbSpline
210
0.0
220
0.0
230
1.0
 70
     8
 71
     3
 72
    16
 73
    12
 74
     0
 42
0.000000001
 43
0.00000001
 40
0.0
 40
0.0
 40
0.0
 40
0.0
 40
0.0626482196101812
 40
0.1252863497981883
 40
0.2504883340935483
 40
0.4999565017260356
 40
0.6664476492180228
 40
0.749874313015434
 40
0.8747603764964884
 40
0.9373645182863886
 40
1.0
 40
1.0
 40
1.0
 40
1.0
 10
179.2179423145348
 20
117.5393903787307
 30
0.0
 10
179.2491802184119
 20
117.5387845940566
 30
0.0
 10
179.3116509953383
 20
117.5375731222693
 30
0.0
 10
179.4362059801824
 20
117.5273204858974
 30
0.0
 10
179.6509947989279
 20
117.4878157035427
 30
0.0
 10
179.902777966141
 20
117.3820951958511
 30
0.0
 10
180.0966810313232
 20
117.225323474034
 30
0.0
 10
180.2043098921466
 20
117.0760169311306
 30
0.0
 10
180.2539119424769
 20
116.9520888227692
 30
0.0
 10
180.2756320669762
 20
116.8323906368164
 30
0.0
 10
180.2774859301924
 20
116.7716002748693
 30
0.0
 10
180.2784130937556
 20
116.7411974878153
 30
0.0
  0
LINE
  5
1C4
330
1F
100
AcDbEntity
  8
0
  6
Continuous
 62
     7
370
     0
100
AcDbLine
 10
177.2394520548
 20
120.2712806449
 30
0.0
 11
179.1413050711
 21
120.2712806449
 31
0.0
  0
LINE
  5
1C5
330
1F
100
AcDbEntity
  8
0
  6
Continuous
 62
     7
370
     0
100
AcDbLine
 10
179.1413050711
 20
120.2712806449
 30
0.0
 11
179.1413050711
 21
119.9482171157
 31
0.0
  0
SPLINE
  5
1C6
330
1F
100
AcDbEntity
  8
0
  6
Continuous
 62
     7
370
     0
100
AcDbSpline
210
0.0
220
0.0
230
1.0
 70
     8
 71
     3
 72
     8
 73
     4
 74
     0
 42
0.000000001
 43
0.00000001
 40
0.0
 40
0.0
 40
0.0
 40
0.0
 40
1.0
 40
1.0
 40
1.0
 40
1.0
 10
179.1413050710614
 20
119.9482171157119
 30
0.0
 10
179.5073540656391
 20
120.0981795846186
 30
0.0
 10
179.8734030602168
 20
120.2475984709962
 30
0.0
 10
180.2394520547946
 20
120.3964469129962
 30
0.0
  0
SPLINE
  5
1C7
330
1F
100
AcDbEntity
  8
0
  6
Continuous
 62
     7
370
     0
100
AcDbSpline
210
0.0
220
0.0
230
1.0
 70
     8
 71
     3
 72
     8
 73
     4
 74
     0
 42
0.000000001
 43
0.00000001
 40
0.0
 40
0.0
 40
0.0
 40
0.0
 40
1.0
 40
1.0
 40
1.0
 40
1.0
 10
180.2394520547946
 20
120.3964469129962
 30
0.0
 10
179.8734030602168
 20
120.5452953549961
 30
0.0
 10
179.5073540656391
 20
120.693573351977
 30
0.0
 10
179.1413050710614
 20
120.8412542471942
 30
0.0
  0
LINE
  5
1C8
330
1F
100
AcDbEntity
  8
0
  6
Continuous
 62
     7
370
     0
100
AcDbLine
 10
179.1413050711
 20
120.8412542472
 30
0.0
 11
179.1413050711
 21
120.5213448526
 31
0.0
  0
LINE
  5
1C9
330
1F
100
AcDbEntity
  8
0
  6
Continuous
 62
     7
370
     0
100
AcDbLine
 10
179.1413050711
 20
120.5213448526
 30
0.0
 11
177.2394520548
 21
120.5213448526
 31
0.0
  0
LINE
  5
1CA
330
1F
100
AcDbEntity
  8
0
  6
Continuous
 62
     7
370
     0
100
AcDbLine
 10
177.2394520548
 20
120.5213448526
 30
0.0
 11
177.2394520548
 21
120.2712806449
 31
0.0
  0
LINE
  5
1CB
330
1F
100
AcDbEntity
  8
0
  6
Continuous
 62
     7
370
     0
100
AcDbLine
 10
176.2394520548
 20
85.7779589041
 30
0.0
 11
176.2394520548
 21
135.9779589041
 31
0.0
  0
LINE
  5
1CC
330
1F
100
AcDbEntity
  8
0
  6
Continuous
 62
     7
370
     0
100
AcDbLine
 10
178.6810104964
 20
110.9851014435
 30
0.0
 11
178.6810104964
 21
110.3325462811
 31
0.0
  0
SPLINE
  5
1CD
330
1F
100
AcDbEntity
  8
0
  6
Continuous
 62
     7
370
     0
100
AcDbSpline
210
0.0
220
0.0
230
1.0
 70
     8
 71
     3
 72
    15
 73
    11
 74
     0
 42
0.000000001
 43
0.00000001
 40
0.0
 40
0.0
 40
0.0
 40
0.0
 40
0.1253687344043231
 40
0.2506537146082075
 40
0.4990061076881818
 40
0.5824744486737373
 40
0.6659284924138823
 40
0.7494593542610664
 40
0.8746717774612645
 40
1.0
 40
1.0
 40
1.0
 40
1.0
 10
178.681010496353
 20
110.9851014435134
 30
0.0
 10
178.6800325456073
 20
111.0241910027455
 30
0.0
 10
178.6780772974485
 20
111.1023440069254
 30
0.0
 10
178.6532559957812
 20
111.255541499712
 30
0.0
 10
178.5935305747323
 20
111.3925823291082
 30
0.0
 10
178.4966909651631
 20
111.4796450087031
 30
0.0
 10
178.4299497526835
 20
111.5207945567669
 30
0.0
 10
178.3447297738648
 20
111.5536162419909
 30
0.0
 10
178.2423332829923
 20
111.5754228613141
 30
0.0
 10
178.1642610725487
 20
111.5779195732434
 30
0.0
 10
178.1252069249244
 20
111.5791685061955
 30
0.0
  0
SPLINE
  5
1CE
330
1F
100
AcDbEntity
  8
0
  6
Continuous
 62
     7
370
     0
100
AcDbSpline
210
0.0
220
0.0
230
1.0
 70
     8
 71
     3
 72
    15
 73
    11
 74
     0
 42
0.000000001
 43
0.00000001
 40
0.0
 40
0.0
 40
0.0
 40
0.0
 40
0.1251540318599127
 40
0.2502318117948254
 40
0.3752377208699182
 40
0.5001643140107033
 40
0.624688758092533
 40
0.7495887405035497
 40
0.8622797430452334
 40
1.0
 40
1.0
 40
1.0
 40
1.0
 10
178.1252069249244
 20
111.5791685061955
 30
0.0
 10
178.0861827343109
 20
111.5778343535601
 30
0.0
 10
178.0081581291431
 20
111.5751668611413
 30
0.0
 10
177.8933357939542
 20
111.5481195153023
 30
0.0
 10
177.7875635668344
 20
111.4970421882998
 30
0.0
 10
177.6924766636836
 20
111.4275634021751
 30
0.0
 10
177.6246975250291
 20
111.3284926873
 30
0.0
 10
177.6030247949038
 20
111.2162270082384
 30
0.0
 10
177.5916839574614
 20
111.1000423158591
 30
0.0
 10
177.5906629405454
 20
111.0219582291148
 30
0.0
 10
177.5901014054439
 20
110.9790138323167
 30
0.0
  0
LINE
  5
1CF
330
1F
100
AcDbEntity
  8
0
  6
Continuous
 62
     7
370
     0
100
AcDbLine
 10
177.5901014054
 20
110.9790138323
 30
0.0
 11
177.5901014054
 21
110.3325462811
 31
0.0
  0
LINE
  5
1D0
330
1F
100
AcDbEntity
  8
0
  6
Continuous
 62
     7
370
     0
100
AcDbLine
 10
177.5901014054
 20
110.3325462811
 30
0.0
 11
178.6810104964
 21
110.3325462811
 31
0.0
  0
SPLINE
  5
1D1
330
1F
100
AcDbEntity
  8
0
  6
Continuous
 62
     7
370
     0
100
AcDbSpline
210
0.0
220
0.0
230
1.0
 70
     8
 71
     3
 72
    13
 73
     9
 74
     0
 42
0.000000001
 43
0.00000001
 40
0.0
 40
0.0
 40
0.0
 40
0.0
 40
0.1254854509395132
 40
0.2508717548292367
 40
0.5005437881486969
 40
0.7496100251974626
 40
0.8746824297346196
 40
1.0
 40
1.0
 40
1.0
 40
1.0
 10
177.967536470379
 20
112.629813760719
 30
0.0
 10
177.9958093783325
 20
112.6307261568673
 30
0.0
 10
178.0523328555909
 20
112.6325502282727
 30
0.0
 10
178.1639281308909
 20
112.6506544452103
 30
0.0
 10
178.296148748684
 20
112.7069030264586
 30
0.0
 10
178.3970279971115
 20
112.8110845972813
 30
0.0
 10
178.4420471827717
 20
112.9159576395145
 30
0.0
 10
178.4455107722072
 20
112.9724228433593
 30
0.0
 10
178.4472442625868
 20
113.0006830888262
 30
0.0
  0
SPLINE
  5
1D2
330
1F
100
AcDbEntity
  8
0
  6
Continuous
 62
     7
370
     0
100
AcDbSpline
210
0.0
220
0.0
230
1.0
 70
     8
 71
     3
 72
    13
 73
     9
 74
     0
 42
0.000000001
 43
0.00000001
 40
0.0
 40
0.0
 40
0.0
 40
0.0
 40
0.12531275251104
 40
0.2504463542530743
 40
0.4994972475177267
 40
0.749156612419328
 40
0.8745209453086616
 40
0.9999999999999999
 40
0.9999999999999999
 40
0.9999999999999999
 40
0.9999999999999999
 10
178.4472442625868
 20
113.0006830888262
 30
0.0
 10
178.445540176025
 20
113.0280177244526
 30
0.0
 10
178.4421344391133
 20
113.0826479173123
 30
0.0
 10
178.3989467331548
 20
113.1841554872643
 30
0.0
 10
178.3032301728071
 20
113.2859554150197
 30
0.0
 10
178.1773900738847
 20
113.3448266217624
 30
0.0
 10
178.0696791510857
 20
113.3645784994888
 30
0.0
 10
178.014985225743
 20
113.3665006948171
 30
0.0
 10
177.9876257560933
 20
113.3674622320338
 30
0.0
  0
SPLINE
  5
1D3
330
1F
100
AcDbEntity
  8
0
  6
Continuous
 62
     7
370
     0
100
AcDbSpline
210
0.0
220
0.0
230
1.0
 70
     8
 71
     3
 72
    13
 73
     9
 74
     0
 42
0.000000001
 43
0.00000001
 40
0.0
 40
0.0
 40
0.0
 40
0.0
 40
0.125459413634036
 40
0.250805847752771
 40
0.50039498657676
 40
0.7496402696056393
 40
0.8747301922451511
 40
1.0
 40
1.0
 40
1.0
 40
1.0
 10
177.9876257560933
 20
113.3674622320338
 30
0.0
 10
177.9596711846617
 20
113.3665462478281
 30
0.0
 10
177.9037872156285
 20
113.3647151042847
 30
0.0
 10
177.7936215493033
 20
113.3449678682471
 30
0.0
 10
177.6651550505989
 20
113.2849231359003
 30
0.0
 10
177.5651361008116
 20
113.1834948642709
 30
0.0
 10
177.5182610024638
 20
113.080774862957
 30
0.0
 10
177.5142075233196
 20
113.0249671518298
 30
0.0
 10
177.5121793275218
 20
112.9970432471622
 30
0.0
  0
SPLINE
  5
1D4
330
1F
100
AcDbEntity
  8
0
  6
Continuous
 62
     7
370
     0
100
AcDbSpline
210
0.0
220
0.0
230
1.0
 70
     8
 71
     3
 72
    13
 73
     9
 74
     0
 42
0.000000001
 43
0.00000001
 40
0.0
 40
0.0
 40
0.0
 40
0.0
 40
0.1252921387848875
 40
0.250368104860778
 40
0.4996528103417628
 40
0.7492268595677015
 40
0.8745537364249395
 40
1.0
 40
1.0
 40
1.0
 40
1.0
 10
177.5121793275218
 20
112.9970432471622
 30
0.0
 10
177.5138650224806
 20
112.9699263453204
 30
0.0
 10
177.5172335039854
 20
112.9157393277654
 30
0.0
 10
177.5606744858362
 20
112.8151452883661
 30
0.0
 10
177.6559641733115
 20
112.7145651812157
 30
0.0
 10
177.7797711333123
 20
112.6547734486551
 30
0.0
 10
177.8861283597798
 20
112.6325087773421
 30
0.0
 10
177.9403918223609
 20
112.6307123846656
 30
0.0
 10
177.967536470379
 20
112.629813760719
 30
0.0
  0
SPLINE
  5
1D5
330
1F
100
AcDbEntity
  8
0
  6
Continuous
 62
     7
370
     0
100
AcDbSpline
210
0.0
220
0.0
230
1.0
 70
     8
 71
     3
 72
    15
 73
    11
 74
     0
 42
0.000000001
 43
0.00000001
 40
0.0
 40
0.0
 40
0.0
 40
0.0
 40
0.1252769592109945
 40
0.2504893215106085
 40
0.4997180923027247
 40
0.6426531291474422
 40
0.7853776591259637
 40
0.8926169015178662
 40
0.9462953635232982
 40
1.0
 40
1.0
 40
1.0
 40
1.0
 10
179.3567410158335
 20
112.5131908422071
 30
0.0
 10
179.3930834507522
 20
112.5143818150307
 30
0.0
 10
179.4657495812375
 20
112.5167631465733
 30
0.0
 10
179.6086809138828
 20
112.5429085603391
 30
0.0
 10
179.7485191519955
 20
112.6073108853138
 30
0.0
 10
179.8630352014308
 20
112.7132883847214
 30
0.0
 10
179.9273557344125
 20
112.8087971437665
 30
0.0
 10
179.9556455288002
 20
112.8927316302969
 30
0.0
 10
179.9655975466371
 20
112.9541109821323
 30
0.0
 10
179.9663489758706
 20
112.9851565308261
 30
0.0
 10
179.9667247820673
 20
113.0006830888262
 30
0.0
  0
SPLINE
  5
1D6
330
1F
100
AcDbEntity
  8
0
  6
Continuous
 62
     7
370
     0
100
AcDbSpline
210
0.0
220
0.0
230
1.0
 70
     8
 71
     3
 72
    17
 73
    13
 74
     0
 42
0.000000001
 43
0.00000001
 40
0.0
 40
0.0
 40
0.0
 40
0.0
 40
0.0625585655731052
 40
0.125099409496992
 40
0.2499259470216731
 40
0.3747629568250868
 40
0.4997011588805036
 40
0.5711911304207297
 40
0.6426637601587388
 40
0.7498260757951613
 40
0.8748745084348661
 40
1.0
 40
1.0
 40
1.0
 40
1.0
 10
179.9667247820673
 20
113.0006830888262
 30
0.0
 10
179.9662654771622
 20
113.01857353402
 30
0.0
 10
179.9653469974645
 20
113.0543493563854
 30
0.0
 10
179.9518235279622
 20
113.1246562259332
 30
0.0
 10
179.9205354161412
 20
113.2091772103624
 30
0.0
 10
179.8571320127997
 20
113.2968910405486
 30
0.0
 10
179.7882240607314
 20
113.3584254593802
 30
0.0
 10
179.7247379430185
 20
113.4017399967353
 30
0.0
 10
179.6600593875673
 20
113.4329713853194
 30
0.0
 10
179.5777086810982
 20
113.4616806705711
 30
0.0
 10
179.4765759655947
 20
113.4809840333589
 30
0.0
 10
179.4048102506631
 20
113.4828316985698
 30
0.0
 10
179.3689163405088
 20
113.4837558157354
 30
0.0
  0
SPLINE
  5
1D7
330
1F
100
AcDbEntity
  8
0
  6
Continuous
 62
     7
370
     0
100
AcDbSpline
210
0.0
220
0.0
230
1.0
 70
     8
 71
     3
 72
    16
 73
    12
 74
     0
 42
0.000000001
 43
0.00000001
 40
0.0
 40
0.0
 40
0.0
 40
0.0
 40
0.1251302078352149
 40
0.2501967679339955
 40
0.3786924357566012
 40
0.5001275909753619
 40
0.6291666256631719
 40
0.7500341205787916
 40
0.8748902692403022
 40
0.9374274165517058
 40
1.0
 40
1.0
 40
1.0
 40
1.0
 10
179.3689163405088
 20
113.4837558157354
 30
0.0
 10
179.3324417899823
 20
113.4826857577678
 30
0.0
 10
179.2595112417841
 20
113.4805461861196
 30
0.0
 10
179.1508388027374
 20
113.4591651474548
 30
0.0
 10
179.047516870468
 20
113.4222242017321
 30
0.0
 10
178.9527854427022
 20
113.3644711015775
 30
0.0
 10
178.8725372346
 20
113.2913438641082
 30
0.0
 10
178.8076232698589
 20
113.2028936296181
 30
0.0
 10
178.7741414996649
 20
113.1188004777698
 30
0.0
 10
178.7603610743121
 20
113.0473233408565
 30
0.0
 10
178.7594088308587
 20
113.0109756852216
 30
0.0
 10
178.7589325742751
 20
112.9927967098409
 30
0.0
  0
SPLINE
  5
1D8
330
1F
100
AcDbEntity
  8
0
  6
Continuous
 62
     7
370
     0
100
AcDbSpline
210
0.0
220
0.0
230
1.0
 70
     8
 71
     3
 72
    15
 73
    11
 74
     0
 42
0.000000001
 43
0.00000001
 40
0.0
 40
0.0
 40
0.0
 40
0.0
 40
0.0626592737439242
 40
0.1252783759597215
 40
0.2502968459658541
 40
0.4991786019196633
 40
0.5826921588068408
 40
0.7494807581770941
 40
0.8746886697912929
 40
1.0
 40
1.0
 40
1.0
 40
1.0
 10
178.7589325742751
 20
112.9927967098409
 30
0.0
 10
178.7593916005811
 20
112.9750132650594
 30
0.0
 10
178.7603093589065
 20
112.9394577766524
 30
0.0
 10
178.7739413897687
 20
112.8695512076723
 30
0.0
 10
178.8193241577398
 20
112.7528768436865
 30
0.0
 10
178.913105955176
 20
112.6556610487896
 30
0.0
 10
179.0321227044573
 20
112.5784099825405
 30
0.0
 10
179.1328686194471
 20
112.539456322711
 30
0.0
 10
179.2497210683843
 20
112.516299521477
 30
0.0
 10
179.3210578836678
 20
112.5142273537724
 30
0.0
 10
179.3567410158335
 20
112.5131908422071
 30
0.0
  0
SPLINE
  5
1D9
330
1F
100
AcDbEntity
  8
0
  6
Continuous
 62
     7
370
     0
100
AcDbSpline
210
0.0
220
0.0
230
1.0
 70
     8
 71
     3
 72
    16
 73
    12
 74
     0
 42
0.000000001
 43
0.00000001
 40
0.0
 40
0.0
 40
0.0
 40
0.0
 40
0.2502666070979148
 40
0.5003870414468585
 40
0.6253978040240676
 40
0.7501183366664407
 40
0.8126309605029056
 40
0.8750812198716654
 40
0.9374681530762627
 40
0.9687217402228872
 40
1.0
 40
1.0
 40
1.0
 40
1.0
 10
178.7394520547946
 20
114.4119114331202
 30
0.0
 10
178.8605681435275
 20
114.4134204293052
 30
0.0
 10
179.1027295809461
 20
114.4164375403187
 30
0.0
 10
179.4044738078148
 20
114.4480987162362
 30
0.0
 10
179.6403639035643
 20
114.5059003014874
 30
0.0
 10
179.7751667367333
 20
114.5780555704181
 30
0.0
 10
179.8672929709236
 20
114.6559934050181
 30
0.0
 10
179.9237651033922
 20
114.7273217795962
 30
0.0
 10
179.9527172389445
 20
114.797210087981
 30
0.0
 10
179.9654444480661
 20
114.8558243078975
 30
0.0
 10
179.9662978918217
 20
114.885751960059
 30
0.0
 10
179.9667247820673
 20
114.9007216902825
 30
0.0
  0
SPLINE
  5
1DA
330
1F
100
AcDbEntity
  8
0
  6
Continuous
 62
     7
370
     0
100
AcDbSpline
210
0.0
220
0.0
230
1.0
 70
     8
 71
     3
 72
    15
 73
    11
 74
     0
 42
0.000000001
 43
0.00000001
 40
0.0
 40
0.0
 40
0.0
 40
0.0
 40
0.0312914406377342
 40
0.0625559738335187
 40
0.1249665424421818
 40
0.249428395954142
 40
0.374271455065192
 40
0.4993601535802129
 40
0.7496086004653207
 40
1.0
 40
1.0
 40
1.0
 40
1.0
 10
179.9667247820673
 20
114.9007216902825
 30
0.0
 10
179.9662384406179
 20
114.9155583216729
 30
0.0
 10
179.9652661759231
 20
114.9452188264665
 30
0.0
 10
179.9514174025063
 20
115.0030411526837
 30
0.0
 10
179.9071274966522
 20
115.0980456804495
 30
0.0
 10
179.7931846842374
 20
115.2000520346728
 30
0.0
 10
179.6327632465545
 20
115.2819441764061
 30
0.0
 10
179.3985341112771
 20
115.338369384119
 30
0.0
 10
179.0995303519207
 20
115.3689144347609
 30
0.0
 10
178.859500999822
 20
115.3720574627619
 30
0.0
 10
178.7394520547946
 20
115.3736294254923
 30
0.0
  0
SPLINE
  5
1DB
330
1F
100
AcDbEntity
  8
0
  6
Continuous
 62
     7
370
     0
100
AcDbSpline
210
0.0
220
0.0
230
1.0
 70
     8
 71
     3
 72
    16
 73
    12
 74
     0
 42
0.000000001
 43
0.00000001
 40
0.0
 40
0.0
 40
0.0
 40
0.0
 40
0.2503496394344891
 40
0.5005495143908344
 40
0.6255888818189826
 40
0.6881323128788699
 40
0.7506868671567922
 40
0.8750305488322885
 40
0.937439902118373
 40
0.9687083653526501
 40
1.0
 40
1.0
 40
1.0
 40
1.0
 10
178.7394520547946
 20
115.3736294254923
 30
0.0
 10
178.618048848753
 20
115.3721127054562
 30
0.0
 10
178.3753150626494
 20
115.3690801727182
 30
0.0
 10
178.0727317338267
 20
115.3378600316524
 30
0.0
 10
177.8659408232182
 20
115.286453148933
 30
0.0
 10
177.755001874253
 20
115.2368821098441
 30
0.0
 10
177.6537010876183
 20
115.1716761493841
 30
0.0
 10
177.5659424583444
 20
115.0843051785764
 30
0.0
 10
177.5247369505652
 20
114.9866941041625
 30
0.0
 10
177.5137583963901
 20
114.9276463409329
 30
0.0
 10
177.5127058137654
 20
114.8976779241733
 30
0.0
 10
177.5121793275218
 20
114.8826881658456
 30
0.0
  0
SPLINE
  5
1DC
330
1F
100
AcDbEntity
  8
0
  6
Continuous
 62
     7
370
     0
100
AcDbSpline
210
0.0
220
0.0
230
1.0
 70
     8
 71
     3
 72
    15
 73
    11
 74
     0
 42
0.000000001
 43
0.00000001
 40
0.0
 40
0.0
 40
0.0
 40
0.0
 40
0.0312909998794813
 40
0.0625538939250205
 40
0.1249573530937525
 40
0.2494428287818881
 40
0.3742794951282852
 40
0.4993614316828262
 40
0.7496082157734059
 40
1.0
 40
1.0
 40
1.0
 40
1.0
 10
177.5121793275218
 20
114.8826881658456
 30
0.0
 10
177.5126504396056
 20
114.867872711252
 30
0.0
 10
177.5135922406162
 20
114.8382551094283
 30
0.0
 10
177.5275953741738
 20
114.7805092983564
 30
0.0
 10
177.5726385842476
 20
114.6858375343913
 30
0.0
 10
177.6871825437406
 20
114.5846880920509
 30
0.0
 10
177.8475136265434
 20
114.5029322555177
 30
0.0
 10
178.0817035559172
 20
114.4478611903914
 30
0.0
 10
178.3799780411964
 20
114.4164462510271
 30
0.0
 10
178.6196042492524
 20
114.4134233309323
 30
0.0
 10
178.7394520547946
 20
114.4119114331202
 30
0.0
  0
LINE
  5
1DD
330
1F
100
AcDbEntity
  8
0
  6
Continuous
 62
     7
370
     0
100
AcDbLine
 10
179.8888027041
 20
103.3090303319
 30
0.0
 11
179.8888027041
 21
102.7999524406
 31
0.0
  0
SPLINE
  5
1DE
330
1F
100
AcDbEntity
  8
0
  6
Continuous
 62
     7
370
     0
100
AcDbSpline
210
0.0
220
0.0
230
1.0
 70
     8
 71
     3
 72
    15
 73
    11
 74
     0
 42
0.000000001
 43
0.00000001
 40
0.0
 40
0.0
 40
0.0
 40
0.0
 40
0.1397214989324525
 40
0.250177157475833
 40
0.3752386258444357
 40
0.5002314506201463
 40
0.6214276674161611
 40
0.7499576434759534
 40
0.8749319569283704
 40
1.0
 40
1.0
 40
1.0
 40
1.0
 10
179.8888027041452
 20
103.3090303319113
 30
0.0
 10
179.887770545651
 20
103.3506572327289
 30
0.0
 10
179.8859224229202
 20
103.4251919306861
 30
0.0
 10
179.8732844520915
 20
103.5366515315711
 30
0.0
 10
179.8505185280268
 20
103.6424065390247
 30
0.0
 10
179.8092308399195
 20
103.7469553797154
 30
0.0
 10
179.7440169808795
 20
103.8413787971651
 30
0.0
 10
179.6583476992791
 20
103.918853413626
 30
0.0
 10
179.5597487117044
 20
103.982577741302
 30
0.0
 10
179.4877309348426
 20
104.0117848884516
 30
0.0
 10
179.451708548301
 20
104.0263939362485
 30
0.0
  0
SPLINE
  5
1DF
330
1F
100
AcDbEntity
  8
0
  6
Continuous
 62
     7
370
     0
100
AcDbSpline
210
0.0
220
0.0
230
1.0
 70
     8
 71
     3
 72
    12
 73
     8
 74
     0
 42
0.000000001
 43
0.00000001
 40
0.0
 40
0.0
 40
0.0
 40
0.0
 40
0.1250178846381804
 40
0.2500201696718609
 40
0.4999844141952983
 40
0.7499868018933621
 40
0.9999999999999999
 40
0.9999999999999999
 40
0.9999999999999999
 40
0.9999999999999999
 10
179.451708548301
 20
104.0263939362485
 30
0.0
 10
179.4225019001983
 20
104.0367590787839
 30
0.0
 10
179.3640922483686
 20
104.0574880705028
 30
0.0
 10
179.2441620401568
 20
104.0898892254992
 30
0.0
 10
179.0913159442756
 20
104.1187966151608
 30
0.0
 10
178.9054848892306
 20
104.1384876733049
 30
0.0
 10
178.7809985287788
 20
104.1404054279923
 30
0.0
 10
178.7187540028465
 20
104.1413643260671
 30
0.0
  0
SPLINE
  5
1E0
330
1F
100
AcDbEntity
  8
0
  6
Continuous
 62
     7
370
     0
100
AcDbSpline
210
0.0
220
0.0
230
1.0
 70
     8
 71
     3
 72
    15
 73
    11
 74
     0
 42
0.000000001
 43
0.00000001
 40
0.0
 40
0.0
 40
0.0
 40
0.0
 40
0.1251268274281156
 40
0.2502484251834719
 40
0.5001030853491308
 40
0.6251006234200792
 40
0.7501052843047122
 40
0.8749559266229155
 40
0.9374630657903251
 40
1.0
 40
1.0
 40
1.0
 40
1.0
 10
178.7187540028465
 20
104.1413643260671
 30
0.0
 10
178.6677463315621
 20
104.1407640606342
 30
0.0
 10
178.5657331208575
 20
104.1395635548566
 30
0.0
 10
178.3626878415927
 20
104.1231800183907
 30
0.0
 10
178.1605608398408
 20
104.0866133963626
 30
0.0
 10
177.9723113485025
 20
104.009971518784
 30
0.0
 10
177.84079824107
 20
103.933913201149
 30
0.0
 10
177.745918412588
 20
103.8508632692202
 30
0.0
 10
177.6837037999793
 20
103.7728190210795
 30
0.0
 10
177.6610767280603
 20
103.7288928089288
 30
0.0
 10
177.649760496353
 20
103.7069244695653
 30
0.0
  0
SPLINE
  5
1E1
330
1F
100
AcDbEntity
  8
0
  6
Continuous
 62
     7
370
     0
100
AcDbSpline
210
0.0
220
0.0
230
1.0
 70
     8
 71
     3
 72
    12
 73
     8
 74
     0
 42
0.000000001
 43
0.00000001
 40
0.0
 40
0.0
 40
0.0
 40
0.0
 40
0.1428151998865818
 40
0.2856721884586098
 40
0.4999151269693825
 40
0.7499378388271197
 40
1.0
 40
1.0
 40
1.0
 40
1.0
 10
177.649760496353
 20
103.7069244695653
 30
0.0
 10
177.6422712708728
 20
103.6885706397045
 30
0.0
 10
177.6272906285149
 20
103.6518576095293
 30
0.0
 10
177.6112069987977
 20
103.5845698407987
 30
0.0
 10
177.598768151496
 20
103.5018427382689
 30
0.0
 10
177.591296425508
 20
103.4038300492968
 30
0.0
 10
177.5904997664135
 20
103.3352086375993
 30
0.0
 10
177.5901014054439
 20
103.3008952251423
 30
0.0
  0
LINE
  5
1E2
330
1F
100
AcDbEntity
  8
0
  6
Continuous
 62
     7
370
     0
100
AcDbLine
 10
177.5901014054
 20
103.3008952251
 30
0.0
 11
177.5901014054
 21
102.7999524406
 31
0.0
  0
LINE
  5
1E3
330
1F
100
AcDbEntity
  8
0
  6
Continuous
 62
     7
370
     0
100
AcDbLine
 10
177.5901014054
 20
102.7999524406
 30
0.0
 11
179.8888027041
 21
102.7999524406
 31
0.0
  0
DIMENSION
  5
1E4
330
1F
100
AcDbEntity
  8
0
  6
Continuous
 62
     7
370
     0
100
AcDbDimension
  2
_D_1
 10
181.2394520548
 20
75.4779589041
 30
0.0
 11
163.1631554362
 21
75.4779589041
 31
0.0
 70
   160
  1
<>
 71
     2
 42
-1.0
  3
SLDDIMSTYLE1
100
AcDbAlignedDimension
 13
176.2394520548
 23
85.7779589041
 33
0.0
 14
181.2394520548
 24
85.7779589041
 34
0.0
100
AcDbRotatedDimension
  0
MTEXT
  5
1F9
330
1F
100
AcDbEntity
  8
0
  6
Continuous
 62
     7
370
     0
100
AcDbMText
 10
152.4840480107
 20
128.2244559265
 30
0.0
 40
2.1166666667
 41
0.0
 71
     1
 72
     1
  1
S1
  7
SLDTEXTSTYLE0
 73
     1
 44
1.0
  0
LEADER
  5
1FB
330
1F
100
AcDbEntity
  8
0
  6
Continuous
 62
     7
370
     0
100
AcDbLeader
  3
SLDDIMSTYLE2
 76
     3
 10
176.2394520548
 20
109.4910810386
 30
0.0
 10
162.2172316384
 20
127.1186440678
 30
0.0
 10
155.8672316384
 20
127.1186440678
 30
0.0
  0
INSERT
  5
201
102
{ACAD_REACTORS
330
202
102
}
330
1F
100
AcDbEntity
  8
0
  6
Continuous
 62
     7
370
     0
100
AcDbBlockReference
  2
SW_NOTE_5
 10
194.9802259887
 20
127.2316384181
 30
0.0
  0
LEADER
  5
202
330
1F
100
AcDbEntity
  8
0
  6
Continuous
 62
     7
370
     0
100
AcDbLeader
  3
SLDDIMSTYLE2
 73
     2
 76
     3
 10
181.2394520548
 20
109.391991194
 30
0.0
 10
188.6302259887
 20
127.2316384181
 30
0.0
 10
194.9802259887
 20
127.2316384181
 30
0.0
340
201
  0
OLE2FRAME
  5
203
330
1F
100
AcDbEntity
  8
0
100
AcDbOle2Frame
 70
     2
  3
Paintbrush Picture
 10
229.0524258301
 20
33.6996297921
 30
0.0
 11
265.1686469208
 21
28.555479607
 31
0.0
 71
     2
 72
     0
 73
     1
 90
     7296
310
80557333EF78ADA16C40002412788DD94040000000000000000041161DC7B292
310
7040002412788DD94040000000000000000041161DC7B2927040F6DD59E9338E
310
3C4000000000000000007333EF78ADA16C40F6DD59E9338E3C40000000000000
310
00000000000001000000000100000100000001000000000001000000001C0000
310
D0CF11E0A1B11AE1000000000000000000000000000000003E000300FEFF0900
310
0600000000000000000000000100000001000000000000000010000002000000
310
01000000FEFFFFFF0000000000000000FFFFFFFFFFFFFFFFFFFFFFFFFFFFFFFF
310
FFFFFFFFFFFFFFFFFFFFFFFFFFFFFFFFFFFFFFFFFFFFFFFFFFFFFFFFFFFFFFFF
310
FFFFFFFFFFFFFFFFFFFFFFFFFFFFFFFFFFFFFFFFFFFFFFFFFFFFFFFFFFFFFFFF
310
FFFFFFFFFFFFFFFFFFFFFFFFFFFFFFFFFFFFFFFFFFFFFFFFFFFFFFFFFFFFFFFF
310
FFFFFFFFFFFFFFFFFFFFFFFFFFFFFFFFFFFFFFFFFFFFFFFFFFFFFFFFFFFFFFFF
310
FFFFFFFFFFFFFFFFFFFFFFFFFFFFFFFFFFFFFFFFFFFFFFFFFFFFFFFFFFFFFFFF
310
FFFFFFFFFFFFFFFFFFFFFFFFFFFFFFFFFFFFFFFFFFFFFFFFFFFFFFFFFFFFFFFF
310
FFFFFFFFFFFFFFFFFFFFFFFFFFFFFFFFFFFFFFFFFFFFFFFFFFFFFFFFFFFFFFFF
310
FFFFFFFFFFFFFFFFFFFFFFFFFFFFFFFFFFFFFFFFFFFFFFFFFFFFFFFFFFFFFFFF
310
FFFFFFFFFFFFFFFFFFFFFFFFFFFFFFFFFFFFFFFFFFFFFFFFFFFFFFFFFFFFFFFF
310
FFFFFFFFFFFFFFFFFFFFFFFFFFFFFFFFFFFFFFFFFFFFFFFFFFFFFFFFFFFFFFFF
310
FFFFFFFFFFFFFFFFFFFFFFFFFFFFFFFFFFFFFFFFFFFFFFFFFFFFFFFFFFFFFFFF
310
FFFFFFFFFFFFFFFFFFFFFFFFFFFFFFFFFFFFFFFFFFFFFFFFFFFFFFFFFFFFFFFF
310
FFFFFFFFFFFFFFFFFFFFFFFFFFFFFFFFFFFFFFFFFFFFFFFFFFFFFFFFFFFFFFFF
310
FDFFFFFFFEFFFFFFFEFFFFFFFEFFFFFF05000000060000000700000008000000
310
090000000A0000000B0000000C000000FEFFFFFFFFFFFFFFFFFFFFFFFFFFFFFF
310
FFFFFFFFFFFFFFFFFFFFFFFFFFFFFFFFFFFFFFFFFFFFFFFFFFFFFFFFFFFFFFFF
310
FFFFFFFFFFFFFFFFFFFFFFFFFFFFFFFFFFFFFFFFFFFFFFFFFFFFFFFFFFFFFFFF
310
FFFFFFFFFFFFFFFFFFFFFFFFFFFFFFFFFFFFFFFFFFFFFFFFFFFFFFFFFFFFFFFF
310
FFFFFFFFFFFFFFFFFFFFFFFFFFFFFFFFFFFFFFFFFFFFFFFFFFFFFFFFFFFFFFFF
310
FFFFFFFFFFFFFFFFFFFFFFFFFFFFFFFFFFFFFFFFFFFFFFFFFFFFFFFFFFFFFFFF
310
FFFFFFFFFFFFFFFFFFFFFFFFFFFFFFFFFFFFFFFFFFFFFFFFFFFFFFFFFFFFFFFF
310
FFFFFFFFFFFFFFFFFFFFFFFFFFFFFFFFFFFFFFFFFFFFFFFFFFFFFFFFFFFFFFFF
310
FFFFFFFFFFFFFFFFFFFFFFFFFFFFFFFFFFFFFFFFFFFFFFFFFFFFFFFFFFFFFFFF
310
FFFFFFFFFFFFFFFFFFFFFFFFFFFFFFFFFFFFFFFFFFFFFFFFFFFFFFFFFFFFFFFF
310
FFFFFFFFFFFFFFFFFFFFFFFFFFFFFFFFFFFFFFFFFFFFFFFFFFFFFFFFFFFFFFFF
310
FFFFFFFFFFFFFFFFFFFFFFFFFFFFFFFFFFFFFFFFFFFFFFFFFFFFFFFFFFFFFFFF
310
FFFFFFFFFFFFFFFFFFFFFFFFFFFFFFFFFFFFFFFFFFFFFFFFFFFFFFFFFFFFFFFF
310
FFFFFFFFFFFFFFFFFFFFFFFFFFFFFFFFFFFFFFFFFFFFFFFFFFFFFFFFFFFFFFFF
310
FFFFFFFFFFFFFFFFFFFFFFFFFFFFFFFFFFFFFFFFFFFFFFFFFFFFFFFFFFFFFFFF
310
52006F006F007400200045006E00740072007900000000000000000000000000
310
0000000000000000000000000000000000000000000000000000000000000000
310
16000500FFFFFFFFFFFFFFFF020000000A00030000000000C000000000000046
310
000000000000000000000000104A9170B134D00103000000C000000000000000
310
01004F006C006500000000000000000000000000000000000000000000000000
310
0000000000000000000000000000000000000000000000000000000000000000
310
0A000200FFFFFFFFFFFFFFFFFFFFFFFF00000000000000000000000000000000
310
0000000000000000000000000000000000000000000000001400000000000000
310
010043006F006D0070004F0062006A0000000000000000000000000000000000
310
0000000000000000000000000000000000000000000000000000000000000000
310
120002010100000003000000FFFFFFFF00000000000000000000000000000000
310
0000000000000000000000000000000000000000010000004D00000000000000
310
01004F006C006500310030004E00610074006900760065000000000000000000
310
0000000000000000000000000000000000000000000000000000000000000000
310
1A000200FFFFFFFFFFFFFFFFFFFFFFFF00000000000000000000000000000000
310
000000000000000000000000000000000000000004000000E411000000000000
310
FEFFFFFF02000000FEFFFFFFFFFFFFFFFFFFFFFFFFFFFFFFFFFFFFFFFFFFFFFF
310
FFFFFFFFFFFFFFFFFFFFFFFFFFFFFFFFFFFFFFFFFFFFFFFFFFFFFFFFFFFFFFFF
310
FFFFFFFFFFFFFFFFFFFFFFFFFFFFFFFFFFFFFFFFFFFFFFFFFFFFFFFFFFFFFFFF
310
FFFFFFFFFFFFFFFFFFFFFFFFFFFFFFFFFFFFFFFFFFFFFFFFFFFFFFFFFFFFFFFF
310
FFFFFFFFFFFFFFFFFFFFFFFFFFFFFFFFFFFFFFFFFFFFFFFFFFFFFFFFFFFFFFFF
310
FFFFFFFFFFFFFFFFFFFFFFFFFFFFFFFFFFFFFFFFFFFFFFFFFFFFFFFFFFFFFFFF
310
FFFFFFFFFFFFFFFFFFFFFFFFFFFFFFFFFFFFFFFFFFFFFFFFFFFFFFFFFFFFFFFF
310
FFFFFFFFFFFFFFFFFFFFFFFFFFFFFFFFFFFFFFFFFFFFFFFFFFFFFFFFFFFFFFFF
310
FFFFFFFFFFFFFFFFFFFFFFFFFFFFFFFFFFFFFFFFFFFFFFFFFFFFFFFFFFFFFFFF
310
FFFFFFFFFFFFFFFFFFFFFFFFFFFFFFFFFFFFFFFFFFFFFFFFFFFFFFFFFFFFFFFF
310
FFFFFFFFFFFFFFFFFFFFFFFFFFFFFFFFFFFFFFFFFFFFFFFFFFFFFFFFFFFFFFFF
310
FFFFFFFFFFFFFFFFFFFFFFFFFFFFFFFFFFFFFFFFFFFFFFFFFFFFFFFFFFFFFFFF
310
FFFFFFFFFFFFFFFFFFFFFFFFFFFFFFFFFFFFFFFFFFFFFFFFFFFFFFFFFFFFFFFF
310
FFFFFFFFFFFFFFFFFFFFFFFFFFFFFFFFFFFFFFFFFFFFFFFFFFFFFFFFFFFFFFFF
310
FFFFFFFFFFFFFFFFFFFFFFFFFFFFFFFFFFFFFFFFFFFFFFFFFFFFFFFFFFFFFFFF
310
FFFFFFFFFFFFFFFFFFFFFFFFFFFFFFFFFFFFFFFFFFFFFFFFFFFFFFFFFFFFFFFF
310
0100000200000000000000000000000000000000000000000000000000000000
310
0000000000000000000000000000000000000000000000000000000000000000
310
0100FEFF030A0000FFFFFFFF0A00030000000000C00000000000004607000000
310
5042727573680007000000504272757368000700000050427275736800F439B2
310
7100000000000000000000000000000000000000000000000000000000000000
310
0000000000000000000000000000000000000000000000000000000000000000
310
0000000000000000000000000000000000000000000000000000000000000000
310
0000000000000000000000000000000000000000000000000000000000000000
310
0000000000000000000000000000000000000000000000000000000000000000
310
0000000000000000000000000000000000000000000000000000000000000000
310
0000000000000000000000000000000000000000000000000000000000000000
310
0000000000000000000000000000000000000000000000000000000000000000
310
0000000000000000000000000000000000000000000000000000000000000000
310
0000000000000000000000000000000000000000000000000000000000000000
310
0000000000000000000000000000000000000000000000000000000000000000
310
0000000000000000000000000000000000000000000000000000000000000000
310
E0110000424DDE11000000000000360400002800000096000000170000000100
310
08000000000000000000E7240000E72400000001000000010000000000FF0101
310
01FF020202FF030303FF040404FF050505FF060606FF070707FF080808FF0909
310
09FF0A0A0AFF0B0B0BFF0C0C0CFF0D0D0DFF0E0E0EFF0F0F0FFF101010FF1111
310
11FF121212FF131313FF141414FF151515FF161616FF171717FF181818FF1919
310
19FF1A1A1AFF1B1B1BFF1C1C1CFF1D1D1DFF1E1E1EFF1F1F1FFF202020FF2121
310
21FF222222FF232323FF242424FF252525FF262626FF272727FF282828FF2929
310
29FF2A2A2AFF2B2B2BFF2C2C2CFF2D2D2DFF2E2E2EFF2F2F2FFF303030FF3131
310
31FF323232FF333333FF343434FF353535FF363636FF373737FF383838FF3939
310
39FF3A3A3AFF3B3B3BFF3C3C3CFF3D3D3DFF3E3E3EFF3F3F3FFF404040FF4141
310
41FF424242FF434343FF444444FF454545FF464646FF474747FF484848FF4949
310
49FF4A4A4AFF4B4B4BFF4C4C4CFF4D4D4DFF4E4E4EFF4F4F4FFF505050FF5151
310
51FF525252FF535353FF545454FF555555FF565656FF575757FF585858FF5959
310
59FF5A5A5AFF5B5B5BFF5C5C5CFF5D5D5DFF5E5E5EFF5F5F5FFF606060FF6161
310
61FF626262FF636363FF646464FF656565FF666666FF676767FF686868FF6969
310
69FF6A6A6AFF6B6B6BFF6C6C6CFF6D6D6DFF6E6E6EFF6F6F6FFF707070FF7171
310
71FF727272FF737373FF747474FF757575FF767676FF777777FF787878FF7979
310
79FF7A7A7AFF7B7B7BFF7C7C7CFF7D7D7DFF7E7E7EFF7F7F7FFF808080FF8181
310
81FF828282FF838383FF848484FF858585FF868686FF878787FF888888FF8989
310
89FF8A8A8AFF8B8B8BFF8C8C8CFF8D8D8DFF8E8E8EFF8F8F8FFF909090FF9191
310
91FF929292FF939393FF949494FF959595FF969696FF979797FF989898FF9999
310
99FF9A9A9AFF9B9B9BFF9C9C9CFF9D9D9DFF9E9E9EFF9F9F9FFFA0A0A0FFA1A1
310
A1FFA2A2A2FFA3A3A3FFA4A4A4FFA5A5A5FFA6A6A6FFA7A7A7FFA8A8A8FFA9A9
310
A9FFAAAAAAFFABABABFFACACACFFADADADFFAEAEAEFFAFAFAFFFB0B0B0FFB1B1
310
B1FFB2B2B2FFB3B3B3FFB4B4B4FFB5B5B5FFB6B6B6FFB7B7B7FFB8B8B8FFB9B9
310
B9FFBABABAFFBBBBBBFFBCBCBCFFBDBDBDFFBEBEBEFFBFBFBFFFC0C0C0FFC1C1
310
C1FFC2C2C2FFC3C3C3FFC4C4C4FFC5C5C5FFC6C6C6FFC7C7C7FFC8C8C8FFC9C9
310
C9FFCACACAFFCBCBCBFFCCCCCCFFCDCDCDFFCECECEFFCFCFCFFFD0D0D0FFD1D1
310
D1FFD2D2D2FFD3D3D3FFD4D4D4FFD5D5D5FFD6D6D6FFD7D7D7FFD8D8D8FFD9D9
310
D9FFDADADAFFDBDBDBFFDCDCDCFFDDDDDDFFDEDEDEFFDFDFDFFFE0E0E0FFE1E1
310
E1FFE2E2E2FFE3E3E3FFE4E4E4FFE5E5E5FFE6E6E6FFE7E7E7FFE8E8E8FFE9E9
310
E9FFEAEAEAFFEBEBEBFFECECECFFEDEDEDFFEEEEEEFFEFEFEFFFF0F0F0FFF1F1
310
F1FFF2F2F2FFF3F3F3FFF4F4F4FFF5F5F5FFF6F6F6FFF7F7F7FFF8F8F8FFF9F9
310
F9FFFAFAFAFFFBFBFBFFFCFCFCFFFDFDFDFFFEFEFEFFFFFFFFFFFFFFFFFFFFFF
310
C94E4E4E4F4E4EFFFFFFFFFFC94E4E4E4E4E72FFFFFFFFFFFFFF734E4D4E4E4E
310
C9FFFFFFFFFFAA683516171616265B9BE9FFFFFFFFFF4E4E4E4D4E4EFFFFFFFF
310
FFFFFFFF4E4E4F4E4D4E4E4E4F4E4E4F4D4E4E4E4E4E4D4E4F4E4D4E4E4EAAFF
310
FFFFFFFFFFEA4E4F4F4E4E4E4E4E4D4D4F4F4E4E4E4E4E5B7FAAFFFFFFFFFFFF
310
C9744E1716171616164D8DEAFFFFFFFF0000FFFFFFFFFFFFBA161617161716FF
310
FFFFFFFFB917171616174FFFFFFFFFFFFFFF4E1716161616B9FFFFFFB9341717
310
1716171617171616268CFFFFFFFF161617161617FFFFFFFFFFFFFFB917161717
310
1617167F807F7F7F7F7F7F807F7F807F7F807F7F7F414EFFFFFFFFFFFF8C167F
310
7F807F7F7F7E7F7F807F807F7F807F4E3417258EFFFFEA4E162674AABAEAEBBA
310
AA74341680FFFFFF0000FFFFFFFFFFFFB9171717171617FFFFFFFFFFBB161616
310
16164EFFFFFFFFFFFFFF4E1717171717B9FFFF9C171617171716161616171616
310
171766FFFFFF161717161617FFFFFFFFFFFFFF8E16171717161616FFFFFFFFFF
310
FFFFFFFFFFFFFFFFFFFFFFFFFFAA16D9FFFFFFFFFF3467FFFFFFFFEAFFFFFFFF
310
FFFFFFFFFFFFFFFFFFCA671667EB26278DFFFFFFFFFFFFFFFFFFFF8C2541EAFF
310
0000FFFFFFFFFFFFB9171717171716FFFFFFFFFFBA16171617174EFFFFFFFFFF
310
FFFF4E1717161616BAFF9B1617161616171716171617161616161667FFFF1616
310
16161716FFFFFFFFFFFFFF7F16161617174017FFFFFFFFFFFFFFFFFFFFFFFFFF
310
FFFFFFFFFFFF344E7F7F7F7E7417DAFFFFFFFF80FFFFFFFFFFFFFFFFFFFFFFFF
310
FFFFFF9B163425CAFFFFFFFFFFFFFFFFFFFFFFFFCA2667FF0000FFFFFFFFFFFF
310
BA171717171617FFFFFFFFFFB916171716164EFFFFFFFFFFFFFF4F1716161717
310
B9C91716171616161716161617171616161617168DFF161716161717FFFFFFFF
310
FFFFFF7F17171716164F16FFFFFFFFFFFFFFFFFFFFFFFFFFFFFFFFFFFFFF9B16
310
17161617174EFFFFFFFFFF34FFFFFFFFD9BABABABABADAFFFFFFFFFF7F16AAFF
310
FFFFFFFFFFFFFFFFFFFFFFFFFF9C16BA0000FFFFFFFFFFFFB9161717161717FF
310
FFFFFFFFB917161716174DFFFFFFFFFFFFFF4E1616161616BA4E161617171716
310
419BEAEAAA4E16161617161726E9171717161616FFFFFFFFFFFFFF4F16161717
310
164E16FFFFFFFFFFBAB9B9B9B9B9BABABACAFFFFFFFFFFFFFFFFFFFFFFFFFFFF
310
FFFFBA16FFFFFFFF7F1617161617174DEAFFFFFFEA41FFFFFFFFFFAA4D16174E
310
9BFFFFFFFFFF34730000FFFFFFFFFFFFB9161617171617FFFFFFFFFFBA161616
310
16164EFFFFFFFFFFFFFF4F16161717169B1617161716175BFFFFFFFFFFFF7417
310
16171616168D171717161617FFFFFFFFFFFFEA2616171717167416FFFFFFFFFF
310
16171616171717171717EAFFFFFFFFFFFFFFFFFFFFFFFFFFFFFF6716FFFFFFFF
310
7F4EFFFFFFFFBA2573FFFFFFFFBAFFFFFFFFAA167FB9BB9B269BFFFFFFFF664F
310
0000FFFFFFFFFFFFB9171616161616FFFFFFFFFFBA16161717164EFFFFFFFFFF
310
FFFF4E16161616174E161617171626EAFFFFFFFFFFFFFF4E16161616164E1716
310
16161617FFFFFFFFFFFF671616161716347F16FFFFFFFFFF16B9FFFFFFFFFFFF
310
D9168DFFFFFFFFFFFFFFFFFFFFFFFFFFFFEA1716FFFFFFFF7F4EFFFFFFFFFF7F
310
4EFFFFFFFFFFFFFFFFFF5B66FFFFFFEA347FFFFFFFFF7F4D0000FFFFFFFFFFFF
310
B9171616171617FFFFFFFFFFBA17161716174EFFFFFFFFFFFFFF4D1716161617
310
17161716161673FFFFFFFFFFFFFFFF9B1617161717161616171616174F4E4E4E
310
4E341616171616167E7F16FFFFFFFFFF16BAFFFFFFFFFFFFFF5B41FFFFFFFF34
310
1616171616BAFFFFFF9B1716FFFFFFFF7F4EFFFFFFFFFF4E4EFFFFFFFF734E4E
310
4E4E267EDA9B67164EEAFFFFFFFF744D0000FFFFFFFFFFFFBA171717161617FF
310
FFFFFFFFBA1616171616347F7F7F7F80807F331616161717161717161716B9FF
310
FFFFFFFFFFFFFFE9161616161616171716161716171616161616171616171734
310
EA7F16FFFFFFFFFF16BAFFFFFFFFFFFFFFAA17C9FFFFFF7326BABA5B25FFFFFF
310
FF401716FFFFFFFF7F264F4E4E4E4217AAFFFFFFEA16677F73261616164173CA
310
FFFFFFFFFFFF417F0000FFFFFFFFFFFFBA171616171617FFFFFFFFFFBA161616
310
17171616161616161616161717161616161616161617EAFFFFFFFFFFFFFFFFFF
310
261717161716161617161616161617161617161616174EEAFF8016FFFFFFFFFF
310
17BAFFFFFFFFFFFFFFFF3467FFFFFFC916C9FF3467FFFFFFDA166716FFFFFFFF
310
9C4D4E4E4E4E67AAFFFFFFFF6834FF7F262567AAEAFFFFFFFFFFFFFFFF9B17D9
310
0000FFFFFFFFFFFFB9161616161616FFFFFFFFFFBA1617161717171616161616
310
1716171716161716161617171716FFFFFFFFFFFFFFFFFFFF4E17161716171616
310
1617171616161716171717161616169BFF7F17FFFFFFFFFF17B9FFFFFFFFFFFF
310
FFFF7326FFFFFFFF3473DA16AAFFFFFF7317AA16FFFFFFFFFFFFFFFFFFFFFFFF
310
FFFFEA6725BA4E167FEAFFFFFFFFFFFFFFFFFFFF9C167FFF0000FFFFFFFFFFFF
310
B9161717171716FFFFFFFFFFBA16161716171616171717161617161716161616
310
171617171617EAFFFFFFFFFFFFFFFFFF26161717161616161616161617171616
310
1616161616171616AA8016FFFFFFFFFF16BAFFFFFFFFFFFFFFFFDA179BFFFFFF
310
74348D26FFFFFFFF2566B917FFFFFFFFD8BAB9BAB9BADAFFFFEA41169B7425C9
310
FFFFFFFFFFFFFFFFFFFFAB4F1680FFFF0000FFFFFFFFFFFFBA161717171617FF
310
FFFFFFFFBA17161717161617171617161616161617171616171716171617BBFF
310
FFFFFFFFFFFFFFE9171616161617161617161716FFFFFFFFFFD9671616161617
310
348017FFFFFFFFFF16BAFFFFFFFFFFFFFFFFFF4E5AFFFFFFC916265AFFFFFFAA
310
16AABA16FFFFFFFF7F1617161616179BFFFFEB4127168DFFFFFFFFFFFFFFD99B
310
6734175AC9FFFFFF0000FFFFFFFFFFFFB9161617171617FFFFFFFFFFBB161616
310
1616347F807F7F7F7F8033171716171617171616161672FFFFFFFFFFFFFFFF9C
310
171617171617161716161617FFFFFFFFFFFFFF4117161616174E17FFFFFFFFFF
310
16BAFFFFFFFFFFFFFFFFFF9B16DAFFFFFF34169BFFFFFF5A26FFB917FFFFFFFF
310
7F4EFFFFFFEA5B26FFFFFFEA2616EAFFFFFFFFDA743416331617414E4E4E4ECA
310
0000FFFFFFFFFFFFBA161716161616FFFFFFFFFFBA17171616164EFFFFFFFFFF
310
FFFF4E16161717174E161717171626EBFFFFFFFFFFFFFF4E16161617165B1616
310
16171617FFFFFFFFFFFFFF6716161616161617FFFFFFFFFF16BAFFFFFFFFFFFF
310
FFFFFFEA268CFFFFFF7316EAFFFFEB1774FFB916FFFFFFFF7F4EFFFFFFFF7316
310
FFFFFFFF6826FFFFFFFFEB264D9CEABA257F807F7F6616BA0000FFFFFFFFFFFF
310
BA161716161616FFFFFFFFFFBA16171616164DFFFFFFFFFFFFFF4E1617161617
310
9B1617171717165BEBFFFFFFFFFF671616161617179B171616161616FFFFFFFF
310
FFFFFF3417161617171617FFFFFFFFFF17BAFFFFFFFFFFFFFFFFFFFF6734FFFF
310
FFEBCAFFFFFF8D17C9FFBA17FFFFFFFF7F357F808066174FFFFFFFFF7F16FFFF
310
FFFFD91673B99B415BFFFFFFFFBA16DA00009B7F7F7F807F671617161616167F
310
80807F7E6617161616164EFFFFFFFFFFFFFF4E1616161617B94E171716161616
310
349BC9D9AA4E16171616161634FF161617161717B9B9BAB9BA9B411716171716
310
163416FFFFFFFFFF16B9FFFFFFFFFFFFFFFFFFFFC917CAFFFFFFFFFFFFFF3342
310
FFFFBA17FFFFFFFF9B4E4E4F4E4E66EAFFFFFFFF5B16C9FFFFFFFFAA4E164E73
310
EAFFFFFFFF8D26FF00004E161716161616171617171616171717171617161616
310
17174EFFFFFFFFFFFFFF4E1717171616B9D92616171716171716171717171716
310
16171716AAFF161717171617161617171616161617161716166717FFFFFFFFFF
310
17B9FFFFFFFFFFFFFFFFFFFFFF3467FFFFFFFFFFFFCA168CFFFFBB17FFFFFFFF
310
FFFFFFFFFFFFFFFFFFFFFFEA26265BFFFFFFFFFFFFFFFFFFFFFFFFFFEA3467FF
310
00004D16161616161617161717161617161616171617171616164EFFFFFFFFFF
310
FFFF4D1617161616BAFF9B1616161616161716161616171717161766FFFF1616
310
16171617161617161716171616171717667F16FFFFFFFFFF17BAFFFFFFFFFFFF
310
FFFFFFFFFF8C26EAFFFFFFFFFF6617EAFFFFBA17FFFFFFFFFFFFFFFFFFFFFFFF
310
FFFFEA5A25BA269BFFFFFFFFFFFFFFFFFFFFFFFF6616DAFF00004E1616171616
310
1616161616161716161617171616171616174EFFFFFFFFFFFFFF4D1717171716
310
B9FFFF9C161616161616161716161717171667FFFFFF17161717171716161617
310
1716161616161641E97E16FFFFFFFFFF16B9FFFFFFFFFFFFFFFFFFFFFFEA169B
310
FFFFFFFFEA265BFFFFFFB916FFFFFFFFFFFFFFFFFFFFFFFFFF9B3416AAFF9B17
310
67EAFFFFFFFFFFFFFFFFEA5B169BFFFF00004D17161716161616161717171616
310
161717161716171716174EFFFFFFFFFFFFFF4D1616161616BAFFFFFFBB411616
310
161716161616171634ABFFFFFFFF161716161617171716171617171617267FFF
310
FF7F164E4E4E4E4F17BAFFFFFFFFFFFFFFFFFFFFFFFF66344D4E4E4F4117AAFF
310
FFFFBA174E4E4E4D4E4D4D4E4E4E4E4116174EBBFFFFFFCA342666ABEAFFFFEA
310
AA6725269CFFFFFF0000724F4E4D4D4D4E4D4D4E4E4E4D4E4E4E4E4E4E4E4E4D
310
4E4E74FFFFFFFFFFFFFF734E4E4E4D4ECAFFFFFFFFFFAA663416171717265B9B
310
FFFFFFFFFFFF7F8080807F80807F7F7F7F7F807FBAFFFFFFFF9B4E4E4F4D4D4E
310
4DC9FFFFFFFFFFFFFFFFFFFFFFFFBA4E4E4E4E4D4E4EFFFFFFFFC94E4E4E4F4E
310
4E4E4D4E4E5A807F9CD9FFFFFFFFFFFFFF9B5B2617171716174E8DEAFFFFFFFF
310
0000000000000000000000000000000000000000000000000000000000000000
  1
OLE
  0
ENDSEC
  0
SECTION
  2
OBJECTS
  0
DICTIONARY
  5
C
330
0
100
AcDbDictionary
281
     1
  3
ACAD_GROUP
350
D
  3
ACAD_LAYOUT
350
1A
  3
ACAD_MLINESTYLE
350
17
  3
ACAD_PLOTSETTINGS
350
19
  3
ACAD_PLOTSTYLENAME
350
E
  3
ACAD_SCALELIST
350
47
  0
DICTIONARY
  5
D
102
{ACAD_REACTORS
330
C
102
}
330
C
100
AcDbDictionary
281
     1
  0
DICTIONARY
  5
1A
102
{ACAD_REACTORS
330
C
102
}
330
C
100
AcDbDictionary
281
     1
  3
Layout1
350
1E
  3
Layout2
350
26
  3
Model
350
22
  0
DICTIONARY
  5
17
102
{ACAD_REACTORS
330
C
102
}
330
C
100
AcDbDictionary
281
     1
  3
Standard
350
18
  0
DICTIONARY
  5
19
102
{ACAD_REACTORS
330
C
102
}
330
C
100
AcDbDictionary
281
     1
  0
ACDBDICTIONARYWDFLT
  5
E
102
{ACAD_REACTORS
330
C
102
}
330
C
100
AcDbDictionary
281
     1
  3
Normal
350
F
100
AcDbDictionaryWithDefault
340
F
  0
DICTIONARY
  5
47
102
{ACAD_REACTORS
330
C
102
}
330
C
100
AcDbDictionary
281
     1
  3
A0
350
48
  3
A1
350
49
  3
A2
350
4A
  3
A3
350
4B
  3
A4
350
4C
  3
A5
350
4D
  3
A6
350
4E
  3
A7
350
4F
  3
A8
350
50
  3
A9
350
51
  3
B0
350
52
  3
B1
350
53
  3
B2
350
54
  3
B3
350
55
  3
B4
350
56
  3
B5
350
57
  3
B6
350
58
  3
B7
350
59
  3
B8
350
5A
  3
B9
350
5B
  3
C0
350
5C
  3
C1
350
5D
  3
C2
350
5E
  3
C3
350
5F
  3
C4
350
60
  3
C5
350
61
  3
C6
350
62
  3
C7
350
63
  3
C8
350
64
  3
C9
350
65
  3
D0
350
66
  3
D1
350
67
  3
D2
350
68
  0
LAYOUT
  5
1E
102
{ACAD_REACTORS
330
1A
102
}
330
1A
100
AcDbPlotSettings
  1

  2
none_device
  4

  6

 40
0.0
 41
0.0
 42
0.0
 43
0.0
 44
0.0
 45
0.0
 46
0.0
 47
0.0
 48
0.0
 49
0.0
140
0.0
141
0.0
142
1.0
143
1.0
 70
   688
 72
     1
 73
     0
 74
     5
  7

 75
    16
147
1.0
148
0.0
149
0.0
100
AcDbLayout
  1
Layout1
 70
     1
 71
     1
 10
0.0
 20
0.0
 11
420.0
 21
297.0
 12
0.0
 22
0.0
 32
0.0
 14
1.0000000000E+20
 24
1.0000000000E+20
 34
1.0000000000E+20
 15
-1.0000000000E+20
 25
-1.0000000000E+20
 35
-1.0000000000E+20
146
0.0
 13
0.0
 23
0.0
 33
0.0
 16
1.0
 26
0.0
 36
0.0
 17
0.0
 27
1.0
 37
0.0
 76
     0
330
1B
  0
LAYOUT
  5
26
102
{ACAD_REACTORS
330
1A
102
}
330
1A
100
AcDbPlotSettings
  1

  2
none_device
  4

  6

 40
0.0
 41
0.0
 42
0.0
 43
0.0
 44
0.0
 45
0.0
 46
0.0
 47
0.0
 48
0.0
 49
0.0
140
0.0
141
0.0
142
1.0
143
1.0
 70
   688
 72
     1
 73
     0
 74
     5
  7

 75
    16
147
1.0
148
0.0
149
0.0
100
AcDbLayout
  1
Layout2
 70
     1
 71
     2
 10
0.0
 20
0.0
 11
0.0
 21
0.0
 12
0.0
 22
0.0
 32
0.0
 14
0.0
 24
0.0
 34
0.0
 15
0.0
 25
0.0
 35
0.0
146
0.0
 13
0.0
 23
0.0
 33
0.0
 16
1.0
 26
0.0
 36
0.0
 17
0.0
 27
1.0
 37
0.0
 76
     0
330
23
  0
LAYOUT
  5
22
102
{ACAD_REACTORS
330
1A
102
}
330
1A
100
AcDbPlotSettings
  1

  2
none_device
  4
Letter_(8.50_x_11.00_Inches)
  6

 40
6.35
 41
6.35
 42
6.35000508
 43
6.35000508
 44
215.9
 45
279.4
 46
0.0
 47
0.0
 48
0.0
 49
0.0
140
0.0
141
0.0
142
1.0
143
1.0
 70
  1712
 72
     1
 73
     0
 74
     0
  7

 75
     0
147
1.0
148
0.0
149
0.0
100
AcDbLayout
  1
Model
 70
     1
 71
     0
 10
0.0
 20
0.0
 11
279.4
 21
215.9
 12
0.0
 22
0.0
 32
0.0
 14
0.0
 24
0.0
 34
0.0
 15
279.4
 25
215.9
 35
0.0
146
0.0
 13
0.0
 23
0.0
 33
0.0
 16
1.0
 26
0.0
 36
0.0
 17
0.0
 27
1.0
 37
0.0
 76
     0
330
1F
331
29
  0
MLINESTYLE
  5
18
102
{ACAD_REACTORS
330
17
102
}
330
17
100
AcDbMlineStyle
  2
Standard
 70
     0
  3

 62
   256
 51
90.0
 52
90.0
 71
     2
 49
0.5
 62
   256
  6
BYLAYER
 49
-0.5
 62
   256
  6
BYLAYER
  0
ACDBPLACEHOLDER
  5
F
102
{ACAD_REACTORS
330
E
102
}
330
E
  0
SCALE
  5
48
102
{ACAD_REACTORS
330
47
102
}
330
47
100
AcDbScale
 70
     0
300
1:1
140
1.0
141
1.0
290
     1
  0
SCALE
  5
49
102
{ACAD_REACTORS
330
47
102
}
330
47
100
AcDbScale
 70
     0
300
1:2
140
1.0
141
2.0
290
     0
  0
SCALE
  5
4A
102
{ACAD_REACTORS
330
47
102
}
330
47
100
AcDbScale
 70
     0
300
1:4
140
1.0
141
4.0
290
     0
  0
SCALE
  5
4B
102
{ACAD_REACTORS
330
47
102
}
330
47
100
AcDbScale
 70
     0
300
1:5
140
1.0
141
5.0
290
     0
  0
SCALE
  5
4C
102
{ACAD_REACTORS
330
47
102
}
330
47
100
AcDbScale
 70
     0
300
1:8
140
1.0
141
8.0
290
     0
  0
SCALE
  5
4D
102
{ACAD_REACTORS
330
47
102
}
330
47
100
AcDbScale
 70
     0
300
1:10
140
1.0
141
10.0
290
     0
  0
SCALE
  5
4E
102
{ACAD_REACTORS
330
47
102
}
330
47
100
AcDbScale
 70
     0
300
1:16
140
1.0
141
16.0
290
     0
  0
SCALE
  5
4F
102
{ACAD_REACTORS
330
47
102
}
330
47
100
AcDbScale
 70
     0
300
1:20
140
1.0
141
20.0
290
     0
  0
SCALE
  5
50
102
{ACAD_REACTORS
330
47
102
}
330
47
100
AcDbScale
 70
     0
300
1:30
140
1.0
141
30.0
290
     0
  0
SCALE
  5
51
102
{ACAD_REACTORS
330
47
102
}
330
47
100
AcDbScale
 70
     0
300
1:40
140
1.0
141
40.0
290
     0
  0
SCALE
  5
52
102
{ACAD_REACTORS
330
47
102
}
330
47
100
AcDbScale
 70
     0
300
1:50
140
1.0
141
50.0
290
     0
  0
SCALE
  5
53
102
{ACAD_REACTORS
330
47
102
}
330
47
100
AcDbScale
 70
     0
300
1:100
140
1.0
141
100.0
290
     0
  0
SCALE
  5
54
102
{ACAD_REACTORS
330
47
102
}
330
47
100
AcDbScale
 70
     0
300
2:1
140
2.0
141
1.0
290
     0
  0
SCALE
  5
55
102
{ACAD_REACTORS
330
47
102
}
330
47
100
AcDbScale
 70
     0
300
4:1
140
4.0
141
1.0
290
     0
  0
SCALE
  5
56
102
{ACAD_REACTORS
330
47
102
}
330
47
100
AcDbScale
 70
     0
300
8:1
140
8.0
141
1.0
290
     0
  0
SCALE
  5
57
102
{ACAD_REACTORS
330
47
102
}
330
47
100
AcDbScale
 70
     0
300
10:1
140
10.0
141
1.0
290
     0
  0
SCALE
  5
58
102
{ACAD_REACTORS
330
47
102
}
330
47
100
AcDbScale
 70
     0
300
100:1
140
100.0
141
1.0
290
     0
  0
SCALE
  5
59
102
{ACAD_REACTORS
330
47
102
}
330
47
100
AcDbScale
 70
     0
300
1/128" = 1'-0"
140
0.0078125
141
12.0
290
     0
  0
SCALE
  5
5A
102
{ACAD_REACTORS
330
47
102
}
330
47
100
AcDbScale
 70
     0
300
1/64" = 1'-0"
140
0.015625
141
12.0
290
     0
  0
SCALE
  5
5B
102
{ACAD_REACTORS
330
47
102
}
330
47
100
AcDbScale
 70
     0
300
1/32" = 1'-0"
140
0.03125
141
12.0
290
     0
  0
SCALE
  5
5C
102
{ACAD_REACTORS
330
47
102
}
330
47
100
AcDbScale
 70
     0
300
1/16" = 1'-0"
140
0.0625
141
12.0
290
     0
  0
SCALE
  5
5D
102
{ACAD_REACTORS
330
47
102
}
330
47
100
AcDbScale
 70
     0
300
3/32" = 1'-0"
140
0.09375
141
12.0
290
     0
  0
SCALE
  5
5E
102
{ACAD_REACTORS
330
47
102
}
330
47
100
AcDbScale
 70
     0
300
1/8" = 1'-0"
140
0.125
141
12.0
290
     0
  0
SCALE
  5
5F
102
{ACAD_REACTORS
330
47
102
}
330
47
100
AcDbScale
 70
     0
300
3/16" = 1'-0"
140
0.1875
141
12.0
290
     0
  0
SCALE
  5
60
102
{ACAD_REACTORS
330
47
102
}
330
47
100
AcDbScale
 70
     0
300
1/4" = 1'-0"
140
0.25
141
12.0
290
     0
  0
SCALE
  5
61
102
{ACAD_REACTORS
330
47
102
}
330
47
100
AcDbScale
 70
     0
300
3/8" = 1'-0"
140
0.375
141
12.0
290
     0
  0
SCALE
  5
62
102
{ACAD_REACTORS
330
47
102
}
330
47
100
AcDbScale
 70
     0
300
1/2" = 1'-0"
140
0.5
141
12.0
290
     0
  0
SCALE
  5
63
102
{ACAD_REACTORS
330
47
102
}
330
47
100
AcDbScale
 70
     0
300
3/4" = 1'-0"
140
0.75
141
12.0
290
     0
  0
SCALE
  5
64
102
{ACAD_REACTORS
330
47
102
}
330
47
100
AcDbScale
 70
     0
300
1" = 1'-0"
140
1.0
141
12.0
290
     0
  0
SCALE
  5
65
102
{ACAD_REACTORS
330
47
102
}
330
47
100
AcDbScale
 70
     0
300
1-1/2" = 1'-0"
140
1.5
141
12.0
290
     0
  0
SCALE
  5
66
102
{ACAD_REACTORS
330
47
102
}
330
47
100
AcDbScale
 70
     0
300
3" = 1'-0"
140
3.0
141
12.0
290
     0
  0
SCALE
  5
67
102
{ACAD_REACTORS
330
47
102
}
330
47
100
AcDbScale
 70
     0
300
6" = 1'-0"
140
6.0
141
12.0
290
     0
  0
SCALE
  5
68
102
{ACAD_REACTORS
330
47
102
}
330
47
100
AcDbScale
 70
     0
300
1'-0" = 1'-0"
140
12.0
141
12.0
290
     0
  0
ENDSEC
  0
EOF
