  0
SECTION
  2
HEADER
  9
$ACADVER
  1
AC1015
  9
$ACADMAINTVER
 70
     6
  9
$DWGCODEPAGE
  3
ANSI_1252
  9
$INSBASE
 10
0.0
 20
0.0
 30
0.0
  9
$EXTMIN
 10
0.0
 20
0.0
 30
0.0
  9
$EXTMAX
 10
11.0
 20
8.5
 30
0.0
  9
$LIMMIN
 10
0.0
 20
0.0
  9
$LIMMAX
 10
11.0
 20
8.5
  9
$ORTHOMODE
 70
     0
  9
$REGENMODE
 70
     1
  9
$FILLMODE
 70
     1
  9
$QTEXTMODE
 70
     0
  9
$MIRRTEXT
 70
     1
  9
$LTSCALE
 40
1.0
  9
$ATTMODE
 70
     1
  9
$TEXTSIZE
 40
0.1111111111
  9
$TRACEWID
 40
0.05
  9
$TEXTSTYLE
  7
Standard
  9
$CLAYER
  8
0
  9
$CELTYPE
  6
ByLayer
  9
$CECOLOR
 62
   256
  9
$CELTSCALE
 40
1.0
  9
$DISPSILH
 70
     0
  9
$DIMSCALE
 40
1.0
  9
$DIMASZ
 40
0.125
  9
$DIMEXO
 40
0.05
  9
$DIMDLI
 40
0.38
  9
$DIMRND
 40
0.0
  9
$DIMDLE
 40
0.0
  9
$DIMEXE
 40
0.07
  9
$DIMTP
 40
0.0
  9
$DIMTM
 40
0.0
  9
$DIMTXT
 40
0.1111111111
  9
$DIMCEN
 40
0.09
  9
$DIMTSZ
 40
0.0
  9
$DIMTOL
 70
     0
  9
$DIMLIM
 70
     0
  9
$DIMTIH
 70
     1
  9
$DIMTOH
 70
     1
  9
$DIMSE1
 70
     0
  9
$DIMSE2
 70
     0
  9
$DIMTAD
 70
     0
  9
$DIMZIN
 70
     1
  9
$DIMBLK
  1

  9
$DIMASO
 70
     1
  9
$DIMSHO
 70
     1
  9
$DIMPOST
  1

  9
$DIMAPOST
  1

  9
$DIMALT
 70
     0
  9
$DIMALTD
 70
     2
  9
$DIMALTF
 40
25.4
  9
$DIMLFAC
 40
1.0
  9
$DIMTOFL
 70
     0
  9
$DIMTVP
 40
0.0
  9
$DIMTIX
 70
     0
  9
$DIMSOXD
 70
     0
  9
$DIMSAH
 70
     0
  9
$DIMBLK1
  1

  9
$DIMBLK2
  1

  9
$DIMSTYLE
  2
Standard
  9
$DIMCLRD
 70
     0
  9
$DIMCLRE
 70
     0
  9
$DIMCLRT
 70
     0
  9
$DIMTFAC
 40
1.0
  9
$DIMGAP
 40
0.1
  9
$DIMJUST
 70
     0
  9
$DIMSD1
 70
     0
  9
$DIMSD2
 70
     0
  9
$DIMTOLJ
 70
     1
  9
$DIMTZIN
 70
     1
  9
$DIMALTZ
 70
     0
  9
$DIMALTTZ
 70
     0
  9
$DIMUPT
 70
     0
  9
$DIMDEC
 70
     2
  9
$DIMTDEC
 70
     2
  9
$DIMALTU
 70
     2
  9
$DIMALTTD
 70
     2
  9
$DIMTXSTY
  7
Standard
  9
$DIMAUNIT
 70
     0
  9
$DIMADEC
 70
     0
  9
$DIMALTRND
 40
0.0
  9
$DIMAZIN
 70
     0
  9
$DIMDSEP
 70
    46
  9
$DIMATFIT
 70
     3
  9
$DIMFRAC
 70
     0
  9
$DIMLDRBLK
  1

  9
$DIMLUNIT
 70
     2
  9
$DIMLWD
 70
    -2
  9
$DIMLWE
 70
    -2
  9
$DIMTMOVE
 70
     0
  9
$LUNITS
 70
     2
  9
$LUPREC
 70
     2
  9
$SKETCHINC
 40
0.1
  9
$FILLETRAD
 40
0.5
  9
$AUNITS
 70
     0
  9
$AUPREC
 70
     0
  9
$MENU
  1
.
  9
$ELEVATION
 40
0.0
  9
$PELEVATION
 40
0.0
  9
$THICKNESS
 40
0.0
  9
$LIMCHECK
 70
     0
  9
$CHAMFERA
 40
0.0
  9
$CHAMFERB
 40
0.0
  9
$CHAMFERC
 40
0.0
  9
$CHAMFERD
 40
0.0
  9
$SKPOLY
 70
     0
  9
$TDCREATE
 40
2457427.491215185
  9
$TDUCREATE
 40
2457427.699548519
  9
$TDUPDATE
 40
2457427.491218264
  9
$TDUUPDATE
 40
2457427.699551597
  9
$TDINDWG
 40
0.0000000116
  9
$TDUSRTIMER
 40
0.0000000116
  9
$USRTIMER
 70
     1
  9
$ANGBASE
 50
0.0
  9
$ANGDIR
 70
     0
  9
$PDMODE
 70
     0
  9
$PDSIZE
 40
-1.0
  9
$PLINEWID
 40
0.0
  9
$SPLFRAME
 70
     0
  9
$SPLINETYPE
 70
     6
  9
$SPLINESEGS
 70
     8
  9
$HANDSEED
  5
214
  9
$SURFTAB1
 70
     6
  9
$SURFTAB2
 70
     6
  9
$SURFTYPE
 70
     6
  9
$SURFU
 70
     6
  9
$SURFV
 70
     6
  9
$UCSBASE
  2

  9
$UCSNAME
  2

  9
$UCSORG
 10
0.0
 20
0.0
 30
0.0
  9
$UCSXDIR
 10
1.0
 20
0.0
 30
0.0
  9
$UCSYDIR
 10
0.0
 20
1.0
 30
0.0
  9
$UCSORTHOREF
  2

  9
$UCSORTHOVIEW
 70
     0
  9
$UCSORGTOP
 10
0.0
 20
0.0
 30
0.0
  9
$UCSORGBOTTOM
 10
0.0
 20
0.0
 30
0.0
  9
$UCSORGLEFT
 10
0.0
 20
0.0
 30
0.0
  9
$UCSORGRIGHT
 10
0.0
 20
0.0
 30
0.0
  9
$UCSORGFRONT
 10
0.0
 20
0.0
 30
0.0
  9
$UCSORGBACK
 10
0.0
 20
0.0
 30
0.0
  9
$PUCSBASE
  2

  9
$PUCSNAME
  2

  9
$PUCSORG
 10
0.0
 20
0.0
 30
0.0
  9
$PUCSXDIR
 10
1.0
 20
0.0
 30
0.0
  9
$PUCSYDIR
 10
0.0
 20
1.0
 30
0.0
  9
$PUCSORTHOREF
  2

  9
$PUCSORTHOVIEW
 70
     0
  9
$PUCSORGTOP
 10
0.0
 20
0.0
 30
0.0
  9
$PUCSORGBOTTOM
 10
0.0
 20
0.0
 30
0.0
  9
$PUCSORGLEFT
 10
0.0
 20
0.0
 30
0.0
  9
$PUCSORGRIGHT
 10
0.0
 20
0.0
 30
0.0
  9
$PUCSORGFRONT
 10
0.0
 20
0.0
 30
0.0
  9
$PUCSORGBACK
 10
0.0
 20
0.0
 30
0.0
  9
$USERI1
 70
     0
  9
$USERI2
 70
     0
  9
$USERI3
 70
     0
  9
$USERI4
 70
     0
  9
$USERI5
 70
     0
  9
$USERR1
 40
0.0
  9
$USERR2
 40
0.0
  9
$USERR3
 40
0.0
  9
$USERR4
 40
0.0
  9
$USERR5
 40
0.0
  9
$WORLDVIEW
 70
     1
  9
$SHADEDGE
 70
     3
  9
$SHADEDIF
 70
    70
  9
$TILEMODE
 70
     1
  9
$MAXACTVP
 70
    64
  9
$PINSBASE
 10
0.0
 20
0.0
 30
0.0
  9
$PLIMCHECK
 70
     0
  9
$PEXTMIN
 10
1.0000000000E+20
 20
1.0000000000E+20
 30
1.0000000000E+20
  9
$PEXTMAX
 10
-1.0000000000E+20
 20
-1.0000000000E+20
 30
-1.0000000000E+20
  9
$PLIMMIN
 10
0.0
 20
0.0
  9
$PLIMMAX
 10
12.0
 20
9.0
  9
$UNITMODE
 70
     0
  9
$VISRETAIN
 70
     1
  9
$PLINEGEN
 70
     0
  9
$PSLTSCALE
 70
     1
  9
$TREEDEPTH
 70
  3020
  9
$CMLSTYLE
  2
Standard
  9
$CMLJUST
 70
     0
  9
$CMLSCALE
 40
1.0
  9
$PROXYGRAPHICS
 70
     1
  9
$MEASUREMENT
 70
     0
  9
$CELWEIGHT
370
    -1
  9
$ENDCAPS
280
     0
  9
$JOINSTYLE
280
     0
  9
$LWDISPLAY
290
     1
  9
$INSUNITS
 70
     1
  9
$HYPERLINKBASE
  1

  9
$STYLESHEET
  1

  9
$XEDIT
290
     1
  9
$CEPSNTYPE
380
     0
  9
$PSTYLEMODE
290
     1
  9
$FINGERPRINTGUID
  2
{8FA49979-5A9C-4656-A819-7B6D9B27FDCF}
  9
$VERSIONGUID
  2
{FAEB1C32-E019-11D5-929B-00C0DF256EC4}
  9
$EXTNAMES
290
     1
  9
$PSVPSCALE
 40
0.0
  9
$OLESTARTUP
290
     0
  0
ENDSEC
  0
SECTION
  2
CLASSES
  0
CLASS
  1
ACDBDICTIONARYWDFLT
  2
AcDbDictionaryWithDefault
  3
ObjectDBX Classes
 90
        0
280
     0
281
     0
  0
CLASS
  1
VISUALSTYLE
  2
AcDbVisualStyle
  3
ObjectDBX Classes
 90
     4095
280
     0
281
     0
  0
CLASS
  1
MATERIAL
  2
AcDbMaterial
  3
ObjectDBX Classes
 90
     1153
280
     0
281
     0
  0
CLASS
  1
SCALE
  2
AcDbScale
  3
ObjectDBX Classes
 90
     1153
280
     0
281
     0
  0
CLASS
  1
SUN
  2
AcDbSun
  3
SCENEOE
 90
     1153
280
     0
281
     0
  0
CLASS
  1
ACDBPLACEHOLDER
  2
AcDbPlaceHolder
  3
ObjectDBX Classes
 90
        0
280
     0
281
     0
  0
CLASS
  1
LAYOUT
  2
AcDbLayout
  3
ObjectDBX Classes
 90
        0
280
     0
281
     0
  0
ENDSEC
  0
SECTION
  2
TABLES
  0
TABLE
  2
VPORT
  5
8
330
0
100
AcDbSymbolTable
 70
     1
  0
VPORT
  5
29
330
8
100
AcDbSymbolTableRecord
100
AcDbViewportTableRecord
  2
*Active
 70
     0
 10
0.0
 20
0.0
 11
1.0
 21
1.0
 12
5.5
 22
4.25
 13
0.0
 23
0.0
 14
0.5
 24
0.5
 15
0.5
 25
0.5
 16
0.0
 26
0.0
 36
1.0
 17
0.0
 27
0.0
 37
0.0
 40
8.5
 41
1.2941176471
 42
50.0
 43
0.0
 44
0.0
 50
0.0
 51
0.0
 71
     0
 72
  2000
 73
     1
 74
     3
 75
     0
 76
     0
 77
     0
 78
     0
281
     0
 65
     1
110
0.0
120
0.0
130
0.0
111
1.0
121
0.0
131
0.0
112
0.0
122
1.0
132
0.0
 79
     0
146
0.0
  0
ENDTAB
  0
TABLE
  2
LTYPE
  5
5
330
0
100
AcDbSymbolTable
 70
     6
  0
LTYPE
  5
14
330
5
100
AcDbSymbolTableRecord
100
AcDbLinetypeTableRecord
  2
ByBlock
 70
     0
  3

 72
    65
 73
     0
 40
0.0
  0
LTYPE
  5
15
330
5
100
AcDbSymbolTableRecord
100
AcDbLinetypeTableRecord
  2
ByLayer
 70
     0
  3

 72
    65
 73
     0
 40
0.0
  0
LTYPE
  5
16
330
5
100
AcDbSymbolTableRecord
100
AcDbLinetypeTableRecord
  2
Continuous
 70
     0
  3
Solid line
 72
    65
 73
     0
 40
0.0
  0
LTYPE
  5
6A
330
5
100
AcDbSymbolTableRecord
100
AcDbLinetypeTableRecord
  2
HIDDEN
 70
     0
  3
Hidden __ __ __ __ __ __ __ __ __ __ __ __ __ __
 72
    65
 73
     2
 40
0.075
 49
0.05
 74
     0
 49
-0.025
 74
     0
  0
LTYPE
  5
6B
330
5
100
AcDbSymbolTableRecord
100
AcDbLinetypeTableRecord
  2
PHANTOM
 70
     0
  3
Phantom ______  __  __  ______  __  __  ______
 72
    65
 73
     6
 40
0.5
 49
0.25
 74
     0
 49
-0.05
 74
     0
 49
0.05
 74
     0
 49
-0.05
 74
     0
 49
0.05
 74
     0
 49
-0.05
 74
     0
  0
LTYPE
  5
6C
330
5
100
AcDbSymbolTableRecord
100
AcDbLinetypeTableRecord
  2
CENTER
 70
     0
  3
Center ____ _ ____ _ ____ _ ____ _ ____ _ ____
 72
    65
 73
     4
 40
0.4
 49
0.25
 74
     0
 49
-0.05
 74
     0
 49
0.05
 74
     0
 49
-0.05
 74
     0
  0
LTYPE
  5
6D
330
5
100
AcDbSymbolTableRecord
100
AcDbLinetypeTableRecord
  2
CENTERX2
 70
     0
  3
Center (2x) ________  __  ________  __  _____
 72
    65
 73
     4
 40
0.8
 49
0.5
 74
     0
 49
-0.1
 74
     0
 49
0.1
 74
     0
 49
-0.1
 74
     0
  0
LTYPE
  5
6E
330
5
100
AcDbSymbolTableRecord
100
AcDbLinetypeTableRecord
  2
DOT2
 70
     0
  3
Dot (.5x) ........................................
 72
    65
 73
     2
 40
0.025
 49
0.0
 74
     0
 49
-0.025
 74
     0
  0
ENDTAB
  0
TABLE
  2
LAYER
  5
2
330
0
100
AcDbSymbolTable
 70
     2
  0
LAYER
  5
10
330
2
100
AcDbSymbolTableRecord
100
AcDbLayerTableRecord
  2
0
 70
     0
 62
     7
  6
Continuous
370
    -3
390
F
  0
LAYER
  5
6F
330
2
100
AcDbSymbolTableRecord
100
AcDbLayerTableRecord
  2
FORMAT
 70
     0
 62
     7
  6
Continuous
370
    -3
390
F
  0
ENDTAB
  0
TABLE
  2
STYLE
  5
3
330
0
100
AcDbSymbolTable
 70
     5
  0
STYLE
  5
11
330
3
100
AcDbSymbolTableRecord
100
AcDbTextStyleTableRecord
  2
Standard
 70
     0
 40
0.0
 41
1.0
 50
0.0
 71
     0
 42
0.1111111111
  3
txt
  4

  0
STYLE
  5
96
330
3
100
AcDbSymbolTableRecord
100
AcDbTextStyleTableRecord
  2
SLDTEXTSTYLE0
 70
     0
 40
0.0
 41
0.75
 50
0.0
 71
     0
 42
0.1111111111
  3
TXT
  4

  0
STYLE
  5
A2
330
3
100
AcDbSymbolTableRecord
100
AcDbTextStyleTableRecord
  2
SLDTEXTSTYLE1
 70
     0
 40
0.0
 41
0.6
 50
0.0
 71
     0
 42
0.1111111111
  3
TXT
  4

  0
STYLE
  5
A7
330
3
100
AcDbSymbolTableRecord
100
AcDbTextStyleTableRecord
  2
SLDTEXTSTYLE2
 70
     0
 40
0.0
 41
0.6875
 50
0.0
 71
     0
 42
0.1111111111
  3
TXT
  4

  0
STYLE
  5
1EF
330
3
100
AcDbSymbolTableRecord
100
AcDbTextStyleTableRecord
  2
SLDTEXTSTYLE3
 70
     0
 40
0.0
 41
0.7
 50
0.0
 71
     0
 42
0.1111111111
  3
TXT
  4

  0
ENDTAB
  0
TABLE
  2
VIEW
  5
6
330
0
100
AcDbSymbolTable
 70
     0
  0
ENDTAB
  0
TABLE
  2
UCS
  5
7
330
0
100
AcDbSymbolTable
 70
     0
  0
ENDTAB
  0
TABLE
  2
APPID
  5
9
330
0
100
AcDbSymbolTable
 70
     1
  0
APPID
  5
12
330
9
100
AcDbSymbolTableRecord
100
AcDbRegAppTableRecord
  2
ACAD
 70
     0
  0
ENDTAB
  0
TABLE
  2
DIMSTYLE
  5
A
330
0
100
AcDbSymbolTable
 70
     5
100
AcDbDimStyleTable
  0
DIMSTYLE
105
27
330
A
100
AcDbSymbolTableRecord
100
AcDbDimStyleTableRecord
  2
Standard
 70
     0
178
     0
340
11
  0
DIMSTYLE
105
11D
102
{ACAD_REACTORS
330
11C
102
}
330
A
100
AcDbSymbolTableRecord
100
AcDbDimStyleTableRecord
  2
SLDDIMSTYLE0
 70
     0
 41
0.125
 44
0.0
 45
0.000000001
 78
     4
 79
     1
140
0.0833333333
141
0.0
147
0.0208333333
148
0.000000001
170
     1
171
     1
173
     1
178
     0
271
     2
272
     2
274
     1
276
     2
284
    12
340
96
  0
DIMSTYLE
105
1B0
102
{ACAD_REACTORS
330
1AF
330
1D8
102
}
330
A
100
AcDbSymbolTableRecord
100
AcDbDimStyleTableRecord
  2
SLDDIMSTYLE1
 70
     0
 41
0.125
 44
0.0
 45
0.000000001
 78
     8
 79
     2
140
0.0833333333
147
0.0208333333
148
0.000000001
170
     1
171
     1
172
     1
173
     1
178
     0
271
     2
272
     2
274
     1
276
     2
284
    12
289
     0
340
96
  0
DIMSTYLE
105
1C5
102
{ACAD_REACTORS
330
1C4
102
}
330
A
100
AcDbSymbolTableRecord
100
AcDbDimStyleTableRecord
  2
SLDDIMSTYLE2
 70
     0
 41
0.125
 44
0.0
 45
0.000000001
 78
     4
 79
     1
140
0.0833333333
147
0.0208333333
148
0.000000001
170
     1
171
     1
173
     1
178
     0
271
     2
272
     2
274
     1
276
     2
284
    12
340
96
  0
DIMSTYLE
105
1F4
330
A
100
AcDbSymbolTableRecord
100
AcDbDimStyleTableRecord
  2
SLDDIMSTYLE3
 70
     0
 41
0.125
 44
0.0
 45
0.000000001
146
0.125
147
0.0
173
     1
178
     0
271
     0
272
     0
276
     2
340
11
  0
ENDTAB
  0
TABLE
  2
BLOCK_RECORD
  5
1
330
0
100
AcDbSymbolTable
 70
    20
  0
BLOCK_RECORD
  5
1F
330
1
100
AcDbSymbolTableRecord
100
AcDbBlockTableRecord
  2
*Model_Space
340
22
  0
BLOCK_RECORD
  5
1B
330
1
100
AcDbSymbolTableRecord
100
AcDbBlockTableRecord
  2
*Paper_Space
340
1E
  0
BLOCK_RECORD
  5
23
330
1
100
AcDbSymbolTableRecord
100
AcDbBlockTableRecord
  2
*Paper_Space0
340
26
  0
BLOCK_RECORD
  5
70
330
1
100
AcDbSymbolTableRecord
100
AcDbBlockTableRecord
  2
Third Angle Projection Block
340
0
102
{BLKREFS
331
95
102
}
  0
BLOCK_RECORD
  5
A9
330
1
100
AcDbSymbolTableRecord
100
AcDbBlockTableRecord
  2
SW_NOTE_0
340
0
102
{BLKREFS
331
AE
102
}
  0
BLOCK_RECORD
  5
AF
330
1
100
AcDbSymbolTableRecord
100
AcDbBlockTableRecord
  2
SW_NOTE_1
340
0
102
{BLKREFS
331
B4
102
}
  0
BLOCK_RECORD
  5
B6
330
1
100
AcDbSymbolTableRecord
100
AcDbBlockTableRecord
  2
SW_NOTE_2
340
0
102
{BLKREFS
331
BC
102
}
  0
BLOCK_RECORD
  5
BE
330
1
100
AcDbSymbolTableRecord
100
AcDbBlockTableRecord
  2
SW_NOTE_3
340
0
102
{BLKREFS
331
C3
102
}
  0
BLOCK_RECORD
  5
C4
330
1
100
AcDbSymbolTableRecord
100
AcDbBlockTableRecord
  2
SW_NOTE_4
340
0
102
{BLKREFS
331
D9
102
}
  0
BLOCK_RECORD
  5
DA
330
1
100
AcDbSymbolTableRecord
100
AcDbBlockTableRecord
  2
SW_TABLEANNOTATION_0
340
0
102
{BLKREFS
331
103
102
}
  0
BLOCK_RECORD
  5
E8
330
1
100
AcDbSymbolTableRecord
100
AcDbBlockTableRecord
  2
SW_SYMBOL_C#_1
340
0
102
{BLKREFS
331
ED
102
}
  0
BLOCK_RECORD
  5
F1
330
1
100
AcDbSymbolTableRecord
100
AcDbBlockTableRecord
  2
SW_SYMBOL_C#_2
340
0
102
{BLKREFS
331
F6
102
}
  0
BLOCK_RECORD
  5
F9
330
1
100
AcDbSymbolTableRecord
100
AcDbBlockTableRecord
  2
SW_SYMBOL_C#_3
340
0
102
{BLKREFS
331
FE
102
}
  0
BLOCK_RECORD
  5
11E
330
1
100
AcDbSymbolTableRecord
100
AcDbBlockTableRecord
  2
_D
340
0
  0
BLOCK_RECORD
  5
1B1
330
1
100
AcDbSymbolTableRecord
100
AcDbBlockTableRecord
  2
_D_1
340
0
  0
BLOCK_RECORD
  5
1C6
330
1
100
AcDbSymbolTableRecord
100
AcDbBlockTableRecord
  2
_D_2
340
0
  0
BLOCK_RECORD
  5
1D9
330
1
100
AcDbSymbolTableRecord
100
AcDbBlockTableRecord
  2
_D_3
340
0
  0
BLOCK_RECORD
  5
1EC
330
1
100
AcDbSymbolTableRecord
100
AcDbBlockTableRecord
  2
SW_NOTE_5
340
0
102
{BLKREFS
331
1F3
102
}
  0
BLOCK_RECORD
  5
1F6
330
1
100
AcDbSymbolTableRecord
100
AcDbBlockTableRecord
  2
SW_NOTE_6
340
0
102
{BLKREFS
331
1FC
102
}
  0
BLOCK_RECORD
  5
1FE
330
1
100
AcDbSymbolTableRecord
100
AcDbBlockTableRecord
  2
SW_NOTE_7
340
0
102
{BLKREFS
331
203
102
}
  0
BLOCK_RECORD
  5
205
330
1
100
AcDbSymbolTableRecord
100
AcDbBlockTableRecord
  2
SW_NOTE_8
340
0
102
{BLKREFS
331
20A
102
}
  0
BLOCK_RECORD
  5
20C
330
1
100
AcDbSymbolTableRecord
100
AcDbBlockTableRecord
  2
SW_NOTE_9
340
0
102
{BLKREFS
331
211
102
}
  0
ENDTAB
  0
ENDSEC
  0
SECTION
  2
BLOCKS
  0
BLOCK
  5
20
330
1F
100
AcDbEntity
  8
0
100
AcDbBlockBegin
  2
*Model_Space
 70
     0
 10
0.0
 20
0.0
 30
0.0
  3
*Model_Space
  1
*Model_Space
  0
ENDBLK
  5
21
330
1F
100
AcDbEntity
  8
0
100
AcDbBlockEnd
  0
BLOCK
  5
1C
330
1B
100
AcDbEntity
 67
     1
  8
0
100
AcDbBlockBegin
  2
*Paper_Space
 70
     0
 10
0.0
 20
0.0
 30
0.0
  3
*Paper_Space
  1
*Paper_Space
  0
ENDBLK
  5
1D
330
1B
100
AcDbEntity
 67
     1
  8
0
100
AcDbBlockEnd
  0
BLOCK
  5
24
330
23
100
AcDbEntity
  8
0
100
AcDbBlockBegin
  2
*Paper_Space0
 70
     0
 10
0.0
 20
0.0
 30
0.0
  3
*Paper_Space0
  1
*Paper_Space0
  0
ENDBLK
  5
25
330
23
100
AcDbEntity
  8
0
100
AcDbBlockEnd
  0
BLOCK
  5
71
330
70
100
AcDbEntity
  8
0
100
AcDbBlockBegin
  2
Third Angle Projection Block
 70
     0
 10
0.0
 20
0.0
 30
0.0
  3
Third Angle Projection Block
  1
Third Angle Projection Block
  0
CIRCLE
  5
73
330
70
100
AcDbEntity
  8
0
  6
Continuous
 62
     7
370
    30
100
AcDbCircle
 10
3.9951432636
 20
0.7456853688
 30
0.0
 40
0.0696152422706639
  0
CIRCLE
  5
74
330
70
100
AcDbEntity
  8
0
  6
Continuous
 62
     7
370
    30
100
AcDbCircle
 10
3.9951432636
 20
0.7456853688
 30
0.0
 40
0.1535916633280245
  0
LINE
  5
75
330
70
100
AcDbEntity
  8
0
  6
CENTERX2
 62
     7
370
     0
100
AcDbLine
 10
4.3360937897
 20
0.7456853688
 30
0.0
 11
4.7028635231
 21
0.7456853688
 31
0.0
  0
LINE
  5
76
330
70
100
AcDbEntity
  8
0
  6
Continuous
 62
     7
370
    30
100
AcDbLine
 10
4.3701432636
 20
0.815300611
 30
0.0
 11
4.3701432636
 21
0.6760701265
 31
0.0
  0
LINE
  5
77
330
70
100
AcDbEntity
  8
0
  6
Continuous
 62
     7
370
    30
100
AcDbLine
 10
4.3701432636
 20
0.6760701265
 30
0.0
 11
4.6701432636
 21
0.5956853688
 31
0.0
  0
LINE
  5
78
330
70
100
AcDbEntity
  8
0
  6
Continuous
 62
     7
370
    30
100
AcDbLine
 10
4.6701432636
 20
0.5956853688
 30
0.0
 11
4.6701432636
 21
0.8956853688
 31
0.0
  0
LINE
  5
79
330
70
100
AcDbEntity
  8
0
  6
Continuous
 62
     7
370
    30
100
AcDbLine
 10
4.6701432636
 20
0.8956853688
 30
0.0
 11
4.3701432636
 21
0.815300611
 31
0.0
  0
LINE
  5
7A
330
70
100
AcDbEntity
  8
0
  6
CENTERX2
 62
     7
370
     0
100
AcDbLine
 10
3.8032513961
 20
0.7456853688
 30
0.0
 11
4.187035131
 21
0.7456853688
 31
0.0
  0
LINE
  5
7B
330
70
100
AcDbEntity
  8
0
  6
CENTERX2
 62
     7
370
     0
100
AcDbLine
 10
3.9951432636
 20
0.9375772362
 30
0.0
 11
3.9951432636
 21
0.5537935013
 31
0.0
  0
POINT
  5
7C
330
70
100
AcDbEntity
  8
0
  6
Continuous
 62
     7
370
     0
100
AcDbPoint
 10
3.9951432636
 20
0.7456853688
 30
0.0
  0
ENDBLK
  5
72
330
70
100
AcDbEntity
  8
0
100
AcDbBlockEnd
  0
BLOCK
  5
AA
330
A9
100
AcDbEntity
  8
0
100
AcDbBlockBegin
  2
SW_NOTE_0
 70
     0
 10
0.0
 20
0.0
 30
0.0
  3
SW_NOTE_0
  1
SW_NOTE_0
  0
MTEXT
  5
AC
330
A9
100
AcDbEntity
  8
0
  6
Continuous
 62
     0
370
     0
100
AcDbMText
 10
0.78375
 20
0.0773440644
 30
0.0
 40
0.06
 41
0.0
 71
     2
 72
     1
  1
VALUES IN PARENTHESIS ARE CALCULATED
  7
SLDTEXTSTYLE0
 73
     1
 44
1.0
  0
MTEXT
  5
AD
330
A9
100
AcDbEntity
  8
0
  6
Continuous
 62
     0
370
     0
100
AcDbMText
 10
0.7825936818
 20
-0.0220260102
 30
0.0
 40
0.06
 41
0.0
 71
     2
 72
     1
  1
AND MAY CONTAIN ROUNDOFF ERRORS
  7
SLDTEXTSTYLE0
 73
     1
 44
1.0
  0
ENDBLK
  5
AB
330
A9
100
AcDbEntity
  8
0
100
AcDbBlockEnd
  0
BLOCK
  5
B0
330
AF
100
AcDbEntity
  8
0
100
AcDbBlockBegin
  2
SW_NOTE_1
 70
     0
 10
0.0
 20
0.0
 30
0.0
  3
SW_NOTE_1
  1
SW_NOTE_1
  0
MTEXT
  5
B2
330
AF
100
AcDbEntity
  8
0
  6
Continuous
 62
     0
370
     0
100
AcDbMText
 10
0.0
 20
0.1074223116
 30
0.0
 40
0.0833333333
 41
0.0
 71
     1
 72
     1
  1
DRAWING
  7
SLDTEXTSTYLE0
 73
     1
 44
1.0
  0
MTEXT
  5
B3
330
AF
100
AcDbEntity
  8
0
  6
Continuous
 62
     0
370
     0
100
AcDbMText
 10
0.0
 20
-0.0036887981
 30
0.0
 40
0.0833333333
 41
0.0
 71
     1
 72
     1
  1
PROJECTION
  7
SLDTEXTSTYLE0
 73
     1
 44
1.0
  0
ENDBLK
  5
B1
330
AF
100
AcDbEntity
  8
0
100
AcDbBlockEnd
  0
BLOCK
  5
B7
330
B6
100
AcDbEntity
  8
0
100
AcDbBlockBegin
  2
SW_NOTE_2
 70
     0
 10
0.0
 20
0.0
 30
0.0
  3
SW_NOTE_2
  1
SW_NOTE_2
  0
MTEXT
  5
B9
330
B6
100
AcDbEntity
  8
0
  6
Continuous
 62
     0
370
     0
100
AcDbMText
 10
0.0823567708
 20
0.1477056785
 30
0.0
 40
0.1145833333
 41
0.0
 71
     2
 72
     1
  1
%%c
  7
SLDTEXTSTYLE0
 73
     1
 44
1.0
  0
MTEXT
  5
BA
330
B6
100
AcDbEntity
  8
0
  6
Continuous
 62
     0
370
     0
100
AcDbMText
 10
1.2471759303
 20
0.1477056785
 30
0.0
 40
0.1145833333
 41
0.0
 71
     2
 72
     1
  1
2" MOUNTED PLANO-CONVEX
  7
SLDTEXTSTYLE0
 73
     1
 44
1.0
  0
MTEXT
  5
BB
330
B6
100
AcDbEntity
  8
0
  6
Continuous
 62
     0
370
     0
100
AcDbMText
 10
1.1579654396
 20
-0.0050720974
 30
0.0
 40
0.1145833333
 41
0.0
 71
     2
 72
     1
  1
LENS, f=150mm, -UV COAT
  7
SLDTEXTSTYLE0
 73
     1
 44
1.0
  0
ENDBLK
  5
B8
330
B6
100
AcDbEntity
  8
0
100
AcDbBlockEnd
  0
BLOCK
  5
BF
330
BE
100
AcDbEntity
  8
0
100
AcDbBlockBegin
  2
SW_NOTE_3
 70
     0
 10
0.0
 20
0.0
 30
0.0
  3
SW_NOTE_3
  1
SW_NOTE_3
  0
MTEXT
  5
C1
330
BE
100
AcDbEntity
  8
0
  6
Continuous
 62
     0
370
     0
100
AcDbMText
 10
0.986328125
 20
0.1611334675
 30
0.0
 40
0.125
 41
0.0
 71
     2
 72
     1
  1
FOR INFORMATION ONLY
  7
SLDTEXTSTYLE0
 73
     1
 44
1.0
  0
MTEXT
  5
C2
330
BE
100
AcDbEntity
  8
0
  6
Continuous
 62
     0
370
     0
100
AcDbMText
 10
0.999088459
 20
-0.0055331972
 30
0.0
 40
0.125
 41
0.0
 71
     2
 72
     1
  1
NOT FOR MANUFACTURING PURPOSES
  7
SLDTEXTSTYLE0
 73
     1
 44
1.0
  0
ENDBLK
  5
C0
330
BE
100
AcDbEntity
  8
0
100
AcDbBlockEnd
  0
BLOCK
  5
C5
330
C4
100
AcDbEntity
  8
0
100
AcDbBlockBegin
  2
SW_NOTE_4
 70
     0
 10
0.0
 20
0.0
 30
0.0
  3
SW_NOTE_4
  1
SW_NOTE_4
  0
MTEXT
  5
C7
330
C4
100
AcDbEntity
  8
0
  6
Continuous
 62
     0
370
     0
100
AcDbMText
 10
0.0
 20
0.1074223116
 30
0.0
 40
0.0833333333
 41
0.0
 71
     1
 72
     1
  1
NOTES/SPECIFICATIONS:
  7
SLDTEXTSTYLE0
 73
     1
 44
1.0
  0
MTEXT
  5
C8
330
C4
100
AcDbEntity
  8
0
  6
Continuous
 62
     0
370
     0
100
AcDbMText
 10
0.4183921567
 20
-0.1147999079
 30
0.0
 40
0.0833333333
 41
0.0
 71
     1
 72
     1
  1
DESIGN WAVELENGTH: 546nm
  7
SLDTEXTSTYLE0
 73
     1
 44
1.0
  0
MTEXT
  5
C9
330
C4
100
AcDbEntity
  8
0
  6
Continuous
 62
     0
370
     0
100
AcDbMText
 10
0.0
 20
-0.1147999079
 30
0.0
 40
0.0833333333
 41
0.0
 71
     1
 72
     1
  1
1.
  7
SLDTEXTSTYLE0
 73
     1
 44
1.0
  0
MTEXT
  5
CA
330
C4
100
AcDbEntity
  8
0
  6
Continuous
 62
     0
370
     0
100
AcDbMText
 10
0.4183921567
 20
-0.2259110177
 30
0.0
 40
0.0833333333
 41
0.0
 71
     1
 72
     1
  1
FOCAL LENGTH: f=150.0mm
  7
SLDTEXTSTYLE0
 73
     1
 44
1.0
  0
MTEXT
  5
CB
330
C4
100
AcDbEntity
  8
0
  6
Continuous
 62
     0
370
     0
100
AcDbMText
 10
1.8858304981
 20
-0.2259110177
 30
0.0
 40
0.0833333333
 41
0.0
 71
     1
 72
     1
  1
%%p
  7
SLDTEXTSTYLE0
 73
     1
 44
1.0
  0
MTEXT
  5
CC
330
C4
100
AcDbEntity
  8
0
  6
Continuous
 62
     0
370
     0
100
AcDbMText
 10
1.9652749536
 20
-0.2259110177
 30
0.0
 40
0.0833333333
 41
0.0
 71
     1
 72
     1
  1
1%
  7
SLDTEXTSTYLE0
 73
     1
 44
1.0
  0
MTEXT
  5
CD
330
C4
100
AcDbEntity
  8
0
  6
Continuous
 62
     0
370
     0
100
AcDbMText
 10
0.0
 20
-0.2259110177
 30
0.0
 40
0.0833333333
 41
0.0
 71
     1
 72
     1
  1
2.
  7
SLDTEXTSTYLE0
 73
     1
 44
1.0
  0
MTEXT
  5
CE
330
C4
100
AcDbEntity
  8
0
  6
Continuous
 62
     0
370
     0
100
AcDbMText
 10
0.4183921567
 20
-0.3370221274
 30
0.0
 40
0.0833333333
 41
0.0
 71
     1
 72
     1
  1
WORKING DISTANCE (REF): 140.8mm
  7
SLDTEXTSTYLE0
 73
     1
 44
1.0
  0
MTEXT
  5
CF
330
C4
100
AcDbEntity
  8
0
  6
Continuous
 62
     0
370
     0
100
AcDbMText
 10
0.0
 20
-0.3370221274
 30
0.0
 40
0.0833333333
 41
0.0
 71
     1
 72
     1
  1
3.
  7
SLDTEXTSTYLE0
 73
     1
 44
1.0
  0
MTEXT
  5
D0
330
C4
100
AcDbEntity
  8
0
  6
Continuous
 62
     0
370
     0
100
AcDbMText
 10
0.4183921567
 20
-0.4481332372
 30
0.0
 40
0.0833333333
 41
0.0
 71
     1
 72
     1
  1
CLEAR APERTURE: >
  7
SLDTEXTSTYLE0
 73
     1
 44
1.0
  0
MTEXT
  5
D1
330
C4
100
AcDbEntity
  8
0
  6
Continuous
 62
     0
370
     0
100
AcDbMText
 10
1.4507996036
 20
-0.4481332372
 30
0.0
 40
0.0833333333
 41
0.0
 71
     1
 72
     1
  1
%%c
  7
SLDTEXTSTYLE0
 73
     1
 44
1.0
  0
MTEXT
  5
D2
330
C4
100
AcDbEntity
  8
0
  6
Continuous
 62
     0
370
     0
100
AcDbMText
 10
1.5765865971
 20
-0.4481332372
 30
0.0
 40
0.0833333333
 41
0.0
 71
     1
 72
     1
  1
45.72mm
  7
SLDTEXTSTYLE0
 73
     1
 44
1.0
  0
MTEXT
  5
D3
330
C4
100
AcDbEntity
  8
0
  6
Continuous
 62
     0
370
     0
100
AcDbMText
 10
0.0
 20
-0.4481332372
 30
0.0
 40
0.0833333333
 41
0.0
 71
     1
 72
     1
  1
4.
  7
SLDTEXTSTYLE0
 73
     1
 44
1.0
  0
MTEXT
  5
D4
330
C4
100
AcDbEntity
  8
0
  6
Continuous
 62
     0
370
     0
100
AcDbMText
 10
0.4183921567
 20
-0.559244347
 30
0.0
 40
0.0833333333
 41
0.0
 71
     1
 72
     1
  1
SURFACE QUALITY: 40-20 SCRATCH-DIG
  7
SLDTEXTSTYLE0
 73
     1
 44
1.0
  0
MTEXT
  5
D5
330
C4
100
AcDbEntity
  8
0
  6
Continuous
 62
     0
370
     0
100
AcDbMText
 10
0.0
 20
-0.559244347
 30
0.0
 40
0.0833333333
 41
0.0
 71
     1
 72
     1
  1
5.
  7
SLDTEXTSTYLE0
 73
     1
 44
1.0
  0
MTEXT
  5
D6
330
C4
100
AcDbEntity
  8
0
  6
Continuous
 62
     0
370
     0
100
AcDbMText
 10
0.4183921567
 20
-0.6703554567
 30
0.0
 40
0.0833333333
 41
0.0
 71
     1
 72
     1
  1
COATING: BBAR Ravg<0.5% FROM 245-400nm, AOI: 0°,
  7
SLDTEXTSTYLE0
 73
     1
 44
1.0
  0
MTEXT
  5
D7
330
C4
100
AcDbEntity
  8
0
  6
Continuous
 62
     0
370
     0
100
AcDbMText
 10
0.0
 20
-0.6703554567
 30
0.0
 40
0.0833333333
 41
0.0
 71
     1
 72
     1
  1
6.
  7
SLDTEXTSTYLE0
 73
     1
 44
1.0
  0
MTEXT
  5
D8
330
C4
100
AcDbEntity
  8
0
  6
Continuous
 62
     0
370
     0
100
AcDbMText
 10
0.4249507874
 20
-0.7814665665
 30
0.0
 40
0.0833333333
 41
0.0
 71
     1
 72
     1
  1
ON OUTER OPTICAL SURFACES
  7
SLDTEXTSTYLE0
 73
     1
 44
1.0
  0
ENDBLK
  5
C6
330
C4
100
AcDbEntity
  8
0
100
AcDbBlockEnd
  0
BLOCK
  5
DB
330
DA
100
AcDbEntity
  8
0
100
AcDbBlockBegin
  2
SW_TABLEANNOTATION_0
 70
     0
 10
0.0
 20
0.0
 30
0.0
  3
SW_TABLEANNOTATION_0
  1
SW_TABLEANNOTATION_0
  0
LINE
  5
DD
330
DA
100
AcDbEntity
  8
0
  6
Continuous
 62
     0
370
     0
100
AcDbLine
 10
0.0
 20
0.0
 30
0.0
 11
0.0
 21
-1.2444444391
 31
0.0
  0
LINE
  5
DE
330
DA
100
AcDbEntity
  8
0
  6
Continuous
 62
     0
370
     0
100
AcDbLine
 10
0.0
 20
-1.2444444391
 30
0.0
 11
3.3
 21
-1.2444444391
 31
0.0
  0
LINE
  5
DF
330
DA
100
AcDbEntity
  8
0
  6
Continuous
 62
     0
370
     0
100
AcDbLine
 10
3.3
 20
-1.2444444391
 30
0.0
 11
3.3
 21
0.0
 31
0.0
  0
LINE
  5
E0
330
DA
100
AcDbEntity
  8
0
  6
Continuous
 62
     0
370
     0
100
AcDbLine
 10
3.3
 20
0.0
 30
0.0
 11
0.0
 21
0.0
 31
0.0
  0
LINE
  5
E1
330
DA
100
AcDbEntity
  8
0
  6
Continuous
 62
     0
370
     0
100
AcDbLine
 10
1.1
 20
0.0
 30
0.0
 11
1.1
 21
-1.2444444391
 31
0.0
  0
LINE
  5
E2
330
DA
100
AcDbEntity
  8
0
  6
Continuous
 62
     0
370
     0
100
AcDbLine
 10
2.2
 20
0.0
 30
0.0
 11
2.2
 21
-1.2444444391
 31
0.0
  0
LINE
  5
E3
330
DA
100
AcDbEntity
  8
0
  6
Continuous
 62
     0
370
     0
100
AcDbLine
 10
0.0
 20
-0.3111111098
 30
0.0
 11
3.3
 21
-0.3111111098
 31
0.0
  0
LINE
  5
E4
330
DA
100
AcDbEntity
  8
0
  6
Continuous
 62
     0
370
     0
100
AcDbLine
 10
0.0
 20
-0.6222222195
 30
0.0
 11
3.3
 21
-0.6222222195
 31
0.0
  0
LINE
  5
E5
330
DA
100
AcDbEntity
  8
0
  6
Continuous
 62
     0
370
     0
100
AcDbLine
 10
0.0
 20
-0.9333333293
 30
0.0
 11
3.3
 21
-0.9333333293
 31
0.0
  0
MTEXT
  5
E6
330
DA
100
AcDbEntity
  8
0
  6
Continuous
 62
     0
370
     0
100
AcDbMText
 10
1.1543981952
 20
-0.1141206209
 30
0.0
 40
0.0833333333
 41
0.0
 71
     1
 72
     1
  1
PART DESCRIPTION
  7
SLDTEXTSTYLE0
 73
     1
 44
1.0
  0
MTEXT
  5
E7
330
DA
100
AcDbEntity
  8
0
  6
Continuous
 62
     0
370
     0
100
AcDbMText
 10
2.491203698
 20
-0.1141206209
 30
0.0
 40
0.0833333333
 41
0.0
 71
     1
 72
     1
  1
MATERIAL
  7
SLDTEXTSTYLE0
 73
     1
 44
1.0
  0
INSERT
  5
ED
330
DA
100
AcDbEntity
  8
0
  6
Continuous
 62
     0
370
     0
100
AcDbBlockReference
  2
SW_SYMBOL_C#_1
 10
0.4374537001
 20
-0.5210980527
 30
0.0
 41
0.0027037109
 42
0.0027037109
 43
0.0027037109
  0
MTEXT
  5
EE
330
DA
100
AcDbEntity
  8
0
  6
Continuous
 62
     0
370
     0
100
AcDbMText
 10
1.4729938215
 20
-0.4252317307
 30
0.0
 40
0.0833333333
 41
0.0
 71
     1
 72
     1
  1
SM2RR
  7
SLDTEXTSTYLE0
 73
     1
 44
1.0
  0
MTEXT
  5
EF
330
DA
100
AcDbEntity
  8
0
  6
Continuous
 62
     0
370
     0
100
AcDbMText
 10
2.4676697448
 20
-0.3696761758
 30
0.0
 40
0.0833333333
 41
0.0
 71
     1
 72
     1
  1
ANODIZED
  7
SLDTEXTSTYLE0
 73
     1
 44
1.0
  0
MTEXT
  5
F0
330
DA
100
AcDbEntity
  8
0
  6
Continuous
 62
     0
370
     0
100
AcDbMText
 10
2.4546296155
 20
-0.4807872855
 30
0.0
 40
0.0833333333
 41
0.0
 71
     1
 72
     1
  1
ALUMINUM
  7
SLDTEXTSTYLE0
 73
     1
 44
1.0
  0
INSERT
  5
F6
330
DA
100
AcDbEntity
  8
0
  6
Continuous
 62
     0
370
     0
100
AcDbBlockReference
  2
SW_SYMBOL_C#_2
 10
0.4374537001
 20
-0.8322091625
 30
0.0
 41
0.0027037109
 42
0.0027037109
 43
0.0027037109
  0
MTEXT
  5
F7
330
DA
100
AcDbEntity
  8
0
  6
Continuous
 62
     0
370
     0
100
AcDbMText
 10
1.3662037001
 20
-0.7363428404
 30
0.0
 40
0.0833333333
 41
0.0
 71
     1
 72
     1
  1
LA4904-UV
  7
SLDTEXTSTYLE0
 73
     1
 44
1.0
  0
MTEXT
  5
F8
330
DA
100
AcDbEntity
  8
0
  6
Continuous
 62
     0
370
     0
100
AcDbMText
 10
2.3169753357
 20
-0.7363428404
 30
0.0
 40
0.0833333333
 41
0.0
 71
     1
 72
     1
  1
UV FUSED SILICA
  7
SLDTEXTSTYLE0
 73
     1
 44
1.0
  0
INSERT
  5
FE
330
DA
100
AcDbEntity
  8
0
  6
Continuous
 62
     0
370
     0
100
AcDbBlockReference
  2
SW_SYMBOL_C#_3
 10
0.4374537001
 20
-1.1433202723
 30
0.0
 41
0.0027037109
 42
0.0027037109
 43
0.0027037109
  0
MTEXT
  5
FF
330
DA
100
AcDbEntity
  8
0
  6
Continuous
 62
     0
370
     0
100
AcDbMText
 10
1.3456018548
 20
-0.9918983953
 30
0.0
 40
0.0833333333
 41
0.0
 71
     1
 72
     1
  1
ENGRAVED
  7
SLDTEXTSTYLE0
 73
     1
 44
1.0
  0
MTEXT
  5
100
330
DA
100
AcDbEntity
  8
0
  6
Continuous
 62
     0
370
     0
100
AcDbMText
 10
1.3975308615
 20
-1.1030095051
 30
0.0
 40
0.0833333333
 41
0.0
 71
     1
 72
     1
  1
HOUSING
  7
SLDTEXTSTYLE0
 73
     1
 44
1.0
  0
MTEXT
  5
101
330
DA
100
AcDbEntity
  8
0
  6
Continuous
 62
     0
370
     0
100
AcDbMText
 10
2.4676697448
 20
-0.9918983953
 30
0.0
 40
0.0833333333
 41
0.0
 71
     1
 72
     1
  1
ANODIZED
  7
SLDTEXTSTYLE0
 73
     1
 44
1.0
  0
MTEXT
  5
102
330
DA
100
AcDbEntity
  8
0
  6
Continuous
 62
     0
370
     0
100
AcDbMText
 10
2.4546296155
 20
-1.1030095051
 30
0.0
 40
0.0833333333
 41
0.0
 71
     1
 72
     1
  1
ALUMINUM
  7
SLDTEXTSTYLE0
 73
     1
 44
1.0
  0
ENDBLK
  5
DC
330
DA
100
AcDbEntity
  8
0
100
AcDbBlockEnd
  0
BLOCK
  5
E9
330
E8
100
AcDbEntity
  8
0
100
AcDbBlockBegin
  2
SW_SYMBOL_C#_1
 70
     0
 10
0.0
 20
0.0
 30
0.0
  3
SW_SYMBOL_C#_1
  1
SW_SYMBOL_C#_1
  0
CIRCLE
  5
EB
330
E8
100
AcDbEntity
  8
0
  6
Continuous
 62
     0
370
     0
100
AcDbCircle
 10
31.4960629921
 20
19.6850393701
 30
0.0
 40
31.49606299212599
  0
MTEXT
  5
EC
330
E8
100
AcDbEntity
  8
0
  6
Continuous
 62
     0
370
     0
100
AcDbMText
 10
31.4960629921
 20
19.6850393701
 30
0.0
 40
30.821835344
 41
0.0
 71
     5
 72
     1
  1
1
  7
SLDTEXTSTYLE0
 73
     1
 44
1.0
  0
ENDBLK
  5
EA
330
E8
100
AcDbEntity
  8
0
100
AcDbBlockEnd
  0
BLOCK
  5
F2
330
F1
100
AcDbEntity
  8
0
100
AcDbBlockBegin
  2
SW_SYMBOL_C#_2
 70
     0
 10
0.0
 20
0.0
 30
0.0
  3
SW_SYMBOL_C#_2
  1
SW_SYMBOL_C#_2
  0
CIRCLE
  5
F4
330
F1
100
AcDbEntity
  8
0
  6
Continuous
 62
     0
370
     0
100
AcDbCircle
 10
31.4960629921
 20
19.6850393701
 30
0.0
 40
31.49606299212599
  0
MTEXT
  5
F5
330
F1
100
AcDbEntity
  8
0
  6
Continuous
 62
     0
370
     0
100
AcDbMText
 10
31.4960629921
 20
19.6850393701
 30
0.0
 40
30.821835344
 41
0.0
 71
     5
 72
     1
  1
2
  7
SLDTEXTSTYLE0
 73
     1
 44
1.0
  0
ENDBLK
  5
F3
330
F1
100
AcDbEntity
  8
0
100
AcDbBlockEnd
  0
BLOCK
  5
FA
330
F9
100
AcDbEntity
  8
0
100
AcDbBlockBegin
  2
SW_SYMBOL_C#_3
 70
     0
 10
0.0
 20
0.0
 30
0.0
  3
SW_SYMBOL_C#_3
  1
SW_SYMBOL_C#_3
  0
CIRCLE
  5
FC
330
F9
100
AcDbEntity
  8
0
  6
Continuous
 62
     0
370
     0
100
AcDbCircle
 10
31.4960629921
 20
19.6850393701
 30
0.0
 40
31.49606299212599
  0
MTEXT
  5
FD
330
F9
100
AcDbEntity
  8
0
  6
Continuous
 62
     0
370
     0
100
AcDbMText
 10
31.4960629921
 20
19.6850393701
 30
0.0
 40
30.821835344
 41
0.0
 71
     5
 72
     1
  1
3
  7
SLDTEXTSTYLE0
 73
     1
 44
1.0
  0
ENDBLK
  5
FB
330
F9
100
AcDbEntity
  8
0
100
AcDbBlockEnd
  0
BLOCK
  5
11F
330
11E
100
AcDbEntity
  8
0
100
AcDbBlockBegin
  2
_D
 70
     0
 10
0.0
 20
0.0
 30
0.0
  3
_D
  1
_D
  0
SOLID
  5
121
330
11E
100
AcDbEntity
  8
0
  6
Continuous
 62
     7
370
     0
100
AcDbTrace
 10
3.5187761331
 20
5.0967547487
 30
0.0
 11
3.6213066164
 21
5.1710009608
 31
0.0
 12
3.5930223451
 22
5.199285232
 32
0.0
 13
3.5930223451
 23
5.199285232
 33
0.0
  0
LINE
  5
122
330
11E
100
AcDbEntity
  8
0
  6
Continuous
 62
     7
370
     0
100
AcDbLine
 10
4.1790273479
 20
5.5094923727
 30
0.0
 11
4.1621291998
 21
5.5094923727
 31
0.0
  0
LINE
  5
123
330
11E
100
AcDbEntity
  8
0
  6
Continuous
 62
     7
370
     0
100
AcDbLine
 10
4.1621291998
 20
5.5094923727
 30
0.0
 11
4.1621291998
 21
5.3770849681
 31
0.0
  0
LINE
  5
124
330
11E
100
AcDbEntity
  8
0
  6
Continuous
 62
     7
370
     0
100
AcDbLine
 10
4.1621291998
 20
5.3770849681
 30
0.0
 11
4.1790273479
 21
5.3770849681
 31
0.0
  0
LINE
  5
125
330
11E
100
AcDbEntity
  8
0
  6
Continuous
 62
     7
370
     0
100
AcDbLine
 10
4.6450381676
 20
5.5094923727
 30
0.0
 11
4.6619363156
 21
5.5094923727
 31
0.0
  0
LINE
  5
126
330
11E
100
AcDbEntity
  8
0
  6
Continuous
 62
     7
370
     0
100
AcDbLine
 10
4.6619363156
 20
5.5094923727
 30
0.0
 11
4.6619363156
 21
5.3770849681
 31
0.0
  0
LINE
  5
127
330
11E
100
AcDbEntity
  8
0
  6
Continuous
 62
     7
370
     0
100
AcDbLine
 10
4.6619363156
 20
5.3770849681
 30
0.0
 11
4.6450381676
 21
5.3770849681
 31
0.0
  0
LINE
  5
128
330
11E
100
AcDbEntity
  8
0
  6
Continuous
 62
     7
370
     0
100
AcDbLine
 10
3.5187761331
 20
5.0967547487
 30
0.0
 11
3.9994555885
 21
5.5774342042
 31
0.0
  0
LINE
  5
129
330
11E
100
AcDbEntity
  8
0
  6
Continuous
 62
     7
370
     0
100
AcDbLine
 10
3.9994555885
 20
5.5774342042
 30
0.0
 11
4.1494555885
 21
5.5774342042
 31
0.0
  0
MTEXT
  5
12A
330
11E
100
AcDbEntity
  8
0
  6
Continuous
 62
     7
370
     0
100
AcDbMText
 10
4.1494555885
 20
5.6338128312
 30
0.0
 40
0.0833333333
 41
0.0
 71
     1
 72
     1
  1
%%c
  7
SLDTEXTSTYLE0
 73
     1
 44
1.0
  0
MTEXT
  5
12B
330
11E
100
AcDbEntity
  8
0
  6
Continuous
 62
     7
370
     0
100
AcDbMText
 10
4.2752426279
 20
5.6338128312
 30
0.0
 40
0.0833333333
 41
0.0
 71
     1
 72
     1
  1
2.20in
  7
SLDTEXTSTYLE0
 73
     1
 44
1.0
  0
MTEXT
  5
12C
330
11E
100
AcDbEntity
  8
0
  6
Continuous
 62
     7
370
     0
100
AcDbMText
 10
4.2001500337
 20
5.4845072752
 30
0.0
 40
0.0833333333
 41
0.0
 71
     1
 72
     1
  1
55.9mm
  7
SLDTEXTSTYLE0
 73
     1
 44
1.0
  0
ENDBLK
  5
120
330
11E
100
AcDbEntity
  8
0
100
AcDbBlockEnd
  0
BLOCK
  5
1B2
330
1B1
100
AcDbEntity
  8
0
100
AcDbBlockBegin
  2
_D_1
 70
     0
 10
0.0
 20
0.0
 30
0.0
  3
_D_1
  1
_D_1
  0
SOLID
  5
1B4
330
1B1
100
AcDbEntity
  8
0
  6
Continuous
 62
     7
370
     0
100
AcDbTrace
 10
7.0494323362
 20
5.9611290323
 30
0.0
 11
6.9244323362
 21
5.9811290323
 31
0.0
 12
6.9244323362
 22
5.9411290323
 32
0.0
 13
6.9244323362
 23
5.9411290323
 33
0.0
  0
SOLID
  5
1B5
330
1B1
100
AcDbEntity
  8
0
  6
Continuous
 62
     7
370
     0
100
AcDbTrace
 10
7.5594323362
 20
5.9611290323
 30
0.0
 11
7.6844323362
 21
5.9411290323
 31
0.0
 12
7.6844323362
 22
5.9811290323
 32
0.0
 13
7.6844323362
 23
5.9811290323
 33
0.0
  0
LINE
  5
1B6
330
1B1
100
AcDbEntity
  8
0
  6
Continuous
 62
     7
370
     0
100
AcDbLine
 10
8.0923107819
 20
5.9611290231
 30
0.0
 11
8.0754126339
 21
5.9611290231
 31
0.0
  0
LINE
  5
1B7
330
1B1
100
AcDbEntity
  8
0
  6
Continuous
 62
     7
370
     0
100
AcDbLine
 10
8.0754126339
 20
5.9611290231
 30
0.0
 11
8.0754126339
 21
5.8287216185
 31
0.0
  0
LINE
  5
1B8
330
1B1
100
AcDbEntity
  8
0
  6
Continuous
 62
     7
370
     0
100
AcDbLine
 10
8.0754126339
 20
5.8287216185
 30
0.0
 11
8.0923107819
 21
5.8287216185
 31
0.0
  0
LINE
  5
1B9
330
1B1
100
AcDbEntity
  8
0
  6
Continuous
 62
     7
370
     0
100
AcDbLine
 10
8.5583216016
 20
5.9611290231
 30
0.0
 11
8.5752197497
 21
5.9611290231
 31
0.0
  0
LINE
  5
1BA
330
1B1
100
AcDbEntity
  8
0
  6
Continuous
 62
     7
370
     0
100
AcDbLine
 10
8.5752197497
 20
5.9611290231
 30
0.0
 11
8.5752197497
 21
5.8287216185
 31
0.0
  0
LINE
  5
1BB
330
1B1
100
AcDbEntity
  8
0
  6
Continuous
 62
     7
370
     0
100
AcDbLine
 10
8.5752197497
 20
5.8287216185
 30
0.0
 11
8.5583216016
 21
5.8287216185
 31
0.0
  0
LINE
  5
1BC
330
1B1
100
AcDbEntity
  8
0
  6
Continuous
 62
     7
370
     0
100
AcDbLine
 10
7.0494323362
 20
5.4589372894
 30
0.0
 11
7.0494323362
 21
6.0311290323
 31
0.0
  0
LINE
  5
1BD
330
1B1
100
AcDbEntity
  8
0
  6
Continuous
 62
     7
370
     0
100
AcDbLine
 10
7.5594323362
 20
5.3691167813
 30
0.0
 11
7.5594323362
 21
6.0311290323
 31
0.0
  0
LINE
  5
1BE
330
1B1
100
AcDbEntity
  8
0
  6
Continuous
 62
     7
370
     0
100
AcDbLine
 10
7.0494323362
 20
5.9611290323
 30
0.0
 11
6.7994323362
 21
5.9611290323
 31
0.0
  0
LINE
  5
1BF
330
1B1
100
AcDbEntity
  8
0
  6
Continuous
 62
     7
370
     0
100
AcDbLine
 10
7.5594323362
 20
5.9611290323
 30
0.0
 11
7.9844030934
 21
5.9611290323
 31
0.0
  0
MTEXT
  5
1C0
330
1B1
100
AcDbEntity
  8
0
  6
Continuous
 62
     7
370
     0
100
AcDbMText
 10
8.0638192705
 20
6.0854494817
 30
0.0
 40
0.0833333333
 41
0.0
 71
     1
 72
     1
  1

  7
SLDTEXTSTYLE0
 73
     1
 44
1.0
  0
MTEXT
  5
1C1
330
1B1
100
AcDbEntity
  8
0
  6
Continuous
 62
     7
370
     0
100
AcDbMText
 10
8.1726155616
 20
6.0854494817
 30
0.0
 40
0.0833333333
 41
0.0
 71
     1
 72
     1
  1
0.51in
  7
SLDTEXTSTYLE0
 73
     1
 44
1.0
  0
MTEXT
  5
1C2
330
1B1
100
AcDbEntity
  8
0
  6
Continuous
 62
     7
370
     0
100
AcDbMText
 10
8.1134334678
 20
5.9361439256
 30
0.0
 40
0.0833333333
 41
0.0
 71
     1
 72
     1
  1
13.0mm
  7
SLDTEXTSTYLE0
 73
     1
 44
1.0
  0
MTEXT
  5
1C3
330
1B1
100
AcDbEntity
  8
0
  6
Continuous
 62
     7
370
     0
100
AcDbMText
 10
8.650393361
 20
6.0854494817
 30
0.0
 40
0.0833333333
 41
0.0
 71
     1
 72
     1
  1

  7
SLDTEXTSTYLE0
 73
     1
 44
1.0
  0
ENDBLK
  5
1B3
330
1B1
100
AcDbEntity
  8
0
100
AcDbBlockEnd
  0
BLOCK
  5
1C7
330
1C6
100
AcDbEntity
  8
0
100
AcDbBlockBegin
  2
_D_2
 70
     0
 10
0.0
 20
0.0
 30
0.0
  3
_D_2
  1
_D_2
  0
SOLID
  5
1C9
330
1C6
100
AcDbEntity
  8
0
  6
Continuous
 62
     7
370
     0
100
AcDbTrace
 10
8.325316201
 20
5.2689372894
 30
0.0
 11
8.305316201
 21
5.1439372894
 31
0.0
 12
8.345316201
 22
5.1439372894
 32
0.0
 13
8.345316201
 23
5.1439372894
 33
0.0
  0
SOLID
  5
1CA
330
1C6
100
AcDbEntity
  8
0
  6
Continuous
 62
     7
370
     0
100
AcDbTrace
 10
8.325316201
 20
3.3689372894
 30
0.0
 11
8.345316201
 21
3.4939372894
 31
0.0
 12
8.305316201
 22
3.4939372894
 32
0.0
 13
8.305316201
 23
3.4939372894
 33
0.0
  0
LINE
  5
1CB
330
1C6
100
AcDbEntity
  8
0
  6
Continuous
 62
     7
370
     0
100
AcDbLine
 10
8.0923108003
 20
4.3295854322
 30
0.0
 11
8.0754126522
 21
4.3295854322
 31
0.0
  0
LINE
  5
1CC
330
1C6
100
AcDbEntity
  8
0
  6
Continuous
 62
     7
370
     0
100
AcDbLine
 10
8.0754126522
 20
4.3295854322
 30
0.0
 11
8.0754126522
 21
4.1971780277
 31
0.0
  0
LINE
  5
1CD
330
1C6
100
AcDbEntity
  8
0
  6
Continuous
 62
     7
370
     0
100
AcDbLine
 10
8.0754126522
 20
4.1971780277
 30
0.0
 11
8.0923108003
 21
4.1971780277
 31
0.0
  0
LINE
  5
1CE
330
1C6
100
AcDbEntity
  8
0
  6
Continuous
 62
     7
370
     0
100
AcDbLine
 10
8.55832162
 20
4.3295854322
 30
0.0
 11
8.575219768
 21
4.3295854322
 31
0.0
  0
LINE
  5
1CF
330
1C6
100
AcDbEntity
  8
0
  6
Continuous
 62
     7
370
     0
100
AcDbLine
 10
8.575219768
 20
4.3295854322
 30
0.0
 11
8.575219768
 21
4.1971780277
 31
0.0
  0
LINE
  5
1D0
330
1C6
100
AcDbEntity
  8
0
  6
Continuous
 62
     7
370
     0
100
AcDbLine
 10
8.575219768
 20
4.1971780277
 30
0.0
 11
8.55832162
 21
4.1971780277
 31
0.0
  0
LINE
  5
1D1
330
1C6
100
AcDbEntity
  8
0
  6
Continuous
 62
     7
370
     0
100
AcDbLine
 10
7.6094323362
 20
5.2689372894
 30
0.0
 11
8.395316201
 21
5.2689372894
 31
0.0
  0
LINE
  5
1D2
330
1C6
100
AcDbEntity
  8
0
  6
Continuous
 62
     7
370
     0
100
AcDbLine
 10
7.6094323362
 20
3.3689372894
 30
0.0
 11
8.395316201
 21
3.3689372894
 31
0.0
  0
LINE
  5
1D3
330
1C6
100
AcDbEntity
  8
0
  6
Continuous
 62
     7
370
     0
100
AcDbLine
 10
8.325316201
 20
5.2689372894
 30
0.0
 11
8.325316201
 21
4.4575946935
 31
0.0
  0
LINE
  5
1D4
330
1C6
100
AcDbEntity
  8
0
  6
Continuous
 62
     7
370
     0
100
AcDbLine
 10
8.325316201
 20
3.3689372894
 30
0.0
 11
8.325316201
 21
4.1802798854
 31
0.0
  0
MTEXT
  5
1D5
330
1C6
100
AcDbEntity
  8
0
  6
Continuous
 62
     7
370
     0
100
AcDbMText
 10
8.1097220648
 20
4.4539058908
 30
0.0
 40
0.0833333333
 41
0.0
 71
     1
 72
     1
  1
%%c
  7
SLDTEXTSTYLE0
 73
     1
 44
1.0
  0
MTEXT
  5
1D6
330
1C6
100
AcDbEntity
  8
0
  6
Continuous
 62
     7
370
     0
100
AcDbMText
 10
8.2355091042
 20
4.4539058908
 30
0.0
 40
0.0833333333
 41
0.0
 71
     1
 72
     1
  1
1.90in
  7
SLDTEXTSTYLE0
 73
     1
 44
1.0
  0
MTEXT
  5
1D7
330
1C6
100
AcDbEntity
  8
0
  6
Continuous
 62
     7
370
     0
100
AcDbMText
 10
8.1134334861
 20
4.3046003347
 30
0.0
 40
0.0833333333
 41
0.0
 71
     1
 72
     1
  1
48.3mm
  7
SLDTEXTSTYLE0
 73
     1
 44
1.0
  0
ENDBLK
  5
1C8
330
1C6
100
AcDbEntity
  8
0
100
AcDbBlockEnd
  0
BLOCK
  5
1DA
330
1D9
100
AcDbEntity
  8
0
100
AcDbBlockBegin
  2
_D_3
 70
     0
 10
0.0
 20
0.0
 30
0.0
  3
_D_3
  1
_D_3
  0
SOLID
  5
1DC
330
1D9
100
AcDbEntity
  8
0
  6
Continuous
 62
     7
370
     0
100
AcDbTrace
 10
7.4394323362
 20
5.5344720565
 30
0.0
 11
7.3144323362
 21
5.5544720565
 31
0.0
 12
7.3144323362
 22
5.5144720565
 32
0.0
 13
7.3144323362
 23
5.5144720565
 33
0.0
  0
SOLID
  5
1DD
330
1D9
100
AcDbEntity
  8
0
  6
Continuous
 62
     7
370
     0
100
AcDbTrace
 10
7.5594323362
 20
5.5344720565
 30
0.0
 11
7.6844323362
 21
5.5144720565
 31
0.0
 12
7.6844323362
 22
5.5544720565
 32
0.0
 13
7.6844323362
 23
5.5544720565
 33
0.0
  0
LINE
  5
1DE
330
1D9
100
AcDbEntity
  8
0
  6
Continuous
 62
     7
370
     0
100
AcDbLine
 10
8.1230978496
 20
5.5344720474
 30
0.0
 11
8.1061997016
 21
5.5344720474
 31
0.0
  0
LINE
  5
1DF
330
1D9
100
AcDbEntity
  8
0
  6
Continuous
 62
     7
370
     0
100
AcDbLine
 10
8.1061997016
 20
5.5344720474
 30
0.0
 11
8.1061997016
 21
5.4020646428
 31
0.0
  0
LINE
  5
1E0
330
1D9
100
AcDbEntity
  8
0
  6
Continuous
 62
     7
370
     0
100
AcDbLine
 10
8.1061997016
 20
5.4020646428
 30
0.0
 11
8.1230978496
 21
5.4020646428
 31
0.0
  0
LINE
  5
1E1
330
1D9
100
AcDbEntity
  8
0
  6
Continuous
 62
     7
370
     0
100
AcDbLine
 10
8.5275345706
 20
5.5344720474
 30
0.0
 11
8.5444327187
 21
5.5344720474
 31
0.0
  0
LINE
  5
1E2
330
1D9
100
AcDbEntity
  8
0
  6
Continuous
 62
     7
370
     0
100
AcDbLine
 10
8.5444327187
 20
5.5344720474
 30
0.0
 11
8.5444327187
 21
5.4020646428
 31
0.0
  0
LINE
  5
1E3
330
1D9
100
AcDbEntity
  8
0
  6
Continuous
 62
     7
370
     0
100
AcDbLine
 10
8.5444327187
 20
5.4020646428
 30
0.0
 11
8.5275345706
 21
5.4020646428
 31
0.0
  0
LINE
  5
1E4
330
1D9
100
AcDbEntity
  8
0
  6
Continuous
 62
     7
370
     0
100
AcDbLine
 10
7.4394323362
 20
5.4589372894
 30
0.0
 11
7.4394323362
 21
5.6044720565
 31
0.0
  0
LINE
  5
1E5
330
1D9
100
AcDbEntity
  8
0
  6
Continuous
 62
     7
370
     0
100
AcDbLine
 10
7.5594323362
 20
5.3691167813
 30
0.0
 11
7.5594323362
 21
5.6044720565
 31
0.0
  0
LINE
  5
1E6
330
1D9
100
AcDbEntity
  8
0
  6
Continuous
 62
     7
370
     0
100
AcDbLine
 10
7.4394323362
 20
5.5344720565
 30
0.0
 11
7.1894323362
 21
5.5344720565
 31
0.0
  0
LINE
  5
1E7
330
1D9
100
AcDbEntity
  8
0
  6
Continuous
 62
     7
370
     0
100
AcDbLine
 10
7.5594323362
 20
5.5344720565
 30
0.0
 11
8.015190161
 21
5.5344720565
 31
0.0
  0
MTEXT
  5
1E8
330
1D9
100
AcDbEntity
  8
0
  6
Continuous
 62
     7
370
     0
100
AcDbMText
 10
8.0946063381
 20
5.6587925059
 30
0.0
 40
0.0833333333
 41
0.0
 71
     1
 72
     1
  1

  7
SLDTEXTSTYLE0
 73
     1
 44
1.0
  0
MTEXT
  5
1E9
330
1D9
100
AcDbEntity
  8
0
  6
Continuous
 62
     7
370
     0
100
AcDbMText
 10
8.17261558
 20
5.6587925059
 30
0.0
 40
0.0833333333
 41
0.0
 71
     1
 72
     1
  1
0.12in
  7
SLDTEXTSTYLE0
 73
     1
 44
1.0
  0
MTEXT
  5
1EA
330
1D9
100
AcDbEntity
  8
0
  6
Continuous
 62
     7
370
     0
100
AcDbMText
 10
8.1442205355
 20
5.5094869498
 30
0.0
 40
0.0833333333
 41
0.0
 71
     1
 72
     1
  1
3.0mm
  7
SLDTEXTSTYLE0
 73
     1
 44
1.0
  0
MTEXT
  5
1EB
330
1D9
100
AcDbEntity
  8
0
  6
Continuous
 62
     7
370
     0
100
AcDbMText
 10
8.6196062933
 20
5.6587925059
 30
0.0
 40
0.0833333333
 41
0.0
 71
     1
 72
     1
  1

  7
SLDTEXTSTYLE0
 73
     1
 44
1.0
  0
ENDBLK
  5
1DB
330
1D9
100
AcDbEntity
  8
0
100
AcDbBlockEnd
  0
BLOCK
  5
1ED
330
1EC
100
AcDbEntity
  8
0
100
AcDbBlockBegin
  2
SW_NOTE_5
 70
     0
 10
0.0
 20
0.0
 30
0.0
  3
SW_NOTE_5
  1
SW_NOTE_5
  0
MTEXT
  5
1F0
330
1EC
100
AcDbEntity
  8
0
  6
Continuous
 62
     0
370
     0
100
AcDbMText
 10
-2.2712079356
 20
0.0383736677
 30
0.0
 40
0.0833333333
 41
0.0
 71
     1
 72
     1
  1
SM2 (
  7
SLDTEXTSTYLE3
 73
     1
 44
1.0
  0
MTEXT
  5
1F1
330
1EC
100
AcDbEntity
  8
0
  6
Continuous
 62
     0
370
     0
100
AcDbMText
 10
-1.9496030008
 20
0.0383736677
 30
0.0
 40
0.0833333333
 41
0.0
 71
     1
 72
     1
  1
%%c
  7
SLDTEXTSTYLE0
 73
     1
 44
1.0
  0
MTEXT
  5
1F2
330
1EC
100
AcDbEntity
  8
0
  6
Continuous
 62
     0
370
     0
100
AcDbMText
 10
-1.8238159706
 20
0.0383736677
 30
0.0
 40
0.0833333333
 41
0.0
 71
     1
 72
     1
  1
2.035-40) SERIES INTERNAL THREAD
  7
SLDTEXTSTYLE0
 73
     1
 44
1.0
  0
ENDBLK
  5
1EE
330
1EC
100
AcDbEntity
  8
0
100
AcDbBlockEnd
  0
BLOCK
  5
1F7
330
1F6
100
AcDbEntity
  8
0
100
AcDbBlockBegin
  2
SW_NOTE_6
 70
     0
 10
0.0
 20
0.0
 30
0.0
  3
SW_NOTE_6
  1
SW_NOTE_6
  0
MTEXT
  5
1F9
330
1F6
100
AcDbEntity
  8
0
  6
Continuous
 62
     0
370
     0
100
AcDbMText
 10
0.0206860708
 20
0.0394736806
 30
0.0
 40
0.0833333333
 41
0.0
 71
     1
 72
     1
  1
SM2 (
  7
SLDTEXTSTYLE3
 73
     1
 44
1.0
  0
MTEXT
  5
1FA
330
1F6
100
AcDbEntity
  8
0
  6
Continuous
 62
     0
370
     0
100
AcDbMText
 10
0.3422910056
 20
0.0394736806
 30
0.0
 40
0.0833333333
 41
0.0
 71
     1
 72
     1
  1
%%c
  7
SLDTEXTSTYLE0
 73
     1
 44
1.0
  0
MTEXT
  5
1FB
330
1F6
100
AcDbEntity
  8
0
  6
Continuous
 62
     0
370
     0
100
AcDbMText
 10
0.4680780359
 20
0.0394736806
 30
0.0
 40
0.0833333333
 41
0.0
 71
     1
 72
     1
  1
2.035-40) SERIES EXTERNAL THREAD
  7
SLDTEXTSTYLE0
 73
     1
 44
1.0
  0
ENDBLK
  5
1F8
330
1F6
100
AcDbEntity
  8
0
100
AcDbBlockEnd
  0
BLOCK
  5
1FF
330
1FE
100
AcDbEntity
  8
0
100
AcDbBlockBegin
  2
SW_NOTE_7
 70
     0
 10
0.0
 20
0.0
 30
0.0
  3
SW_NOTE_7
  1
SW_NOTE_7
  0
CIRCLE
  5
201
330
1FE
100
AcDbEntity
  8
0
  6
Continuous
 62
     0
370
     0
100
AcDbCircle
 10
-0.1778468128
 20
0.0
 30
0.0
 40
0.1778468128131543
  0
MTEXT
  5
202
330
1FE
100
AcDbEntity
  8
0
  6
Continuous
 62
     0
370
     0
100
AcDbMText
 10
-0.1791054935
 20
0.0644701083
 30
0.0
 40
0.125
 41
0.0
 71
     2
 72
     1
  1
1
  7
SLDTEXTSTYLE0
 73
     1
 44
1.0
  0
ENDBLK
  5
200
330
1FE
100
AcDbEntity
  8
0
100
AcDbBlockEnd
  0
BLOCK
  5
206
330
205
100
AcDbEntity
  8
0
100
AcDbBlockBegin
  2
SW_NOTE_8
 70
     0
 10
0.0
 20
0.0
 30
0.0
  3
SW_NOTE_8
  1
SW_NOTE_8
  0
CIRCLE
  5
208
330
205
100
AcDbEntity
  8
0
  6
Continuous
 62
     0
370
     0
100
AcDbCircle
 10
-0.1778468128
 20
0.0
 30
0.0
 40
0.1778468128131545
  0
MTEXT
  5
209
330
205
100
AcDbEntity
  8
0
  6
Continuous
 62
     0
370
     0
100
AcDbMText
 10
-0.1791054935
 20
0.0644701083
 30
0.0
 40
0.125
 41
0.0
 71
     2
 72
     1
  1
3
  7
SLDTEXTSTYLE0
 73
     1
 44
1.0
  0
ENDBLK
  5
207
330
205
100
AcDbEntity
  8
0
100
AcDbBlockEnd
  0
BLOCK
  5
20D
330
20C
100
AcDbEntity
  8
0
100
AcDbBlockBegin
  2
SW_NOTE_9
 70
     0
 10
0.0
 20
0.0
 30
0.0
  3
SW_NOTE_9
  1
SW_NOTE_9
  0
CIRCLE
  5
20F
330
20C
100
AcDbEntity
  8
0
  6
Continuous
 62
     0
370
     0
100
AcDbCircle
 10
0.1778468128
 20
0.0
 30
0.0
 40
0.1778468128131555
  0
MTEXT
  5
210
330
20C
100
AcDbEntity
  8
0
  6
Continuous
 62
     0
370
     0
100
AcDbMText
 10
0.1765881321
 20
0.0644701083
 30
0.0
 40
0.125
 41
0.0
 71
     2
 72
     1
  1
2
  7
SLDTEXTSTYLE0
 73
     1
 44
1.0
  0
ENDBLK
  5
20E
330
20C
100
AcDbEntity
  8
0
100
AcDbBlockEnd
  0
ENDSEC
  0
SECTION
  2
ENTITIES
  0
LINE
  5
7D
330
1F
100
AcDbEntity
  8
0
  6
Continuous
 62
     7
370
     0
100
AcDbLine
 10
0.0621791378
 20
8.4506055117
 30
0.0
 11
10.9444569626
 21
8.4506055117
 31
0.0
  0
LINE
  5
7E
330
1F
100
AcDbEntity
  8
0
  6
Continuous
 62
     7
370
     0
100
AcDbLine
 10
0.0621791378
 20
8.4506055117
 30
0.0
 11
0.0621791378
 21
0.035557648
 31
0.0
  0
LINE
  5
7F
330
1F
100
AcDbEntity
  8
0
  6
Continuous
 62
     7
370
     0
100
AcDbLine
 10
10.9444569626
 20
0.035557648
 30
0.0
 11
0.0621791378
 21
0.035557648
 31
0.0
  0
LINE
  5
80
330
1F
100
AcDbEntity
  8
0
  6
Continuous
 62
     7
370
     0
100
AcDbLine
 10
10.9444569626
 20
0.035557648
 30
0.0
 11
10.9444569626
 21
8.4506055117
 31
0.0
  0
LINE
  5
81
330
1F
100
AcDbEntity
  8
0
  6
Continuous
 62
     7
370
     0
100
AcDbLine
 10
8.4938096065
 20
0.4840901186
 30
0.0
 11
6.7571952625
 21
0.4840901186
 31
0.0
  0
LINE
  5
82
330
1F
100
AcDbEntity
  8
0
  6
Continuous
 62
     7
370
     0
100
AcDbLine
 10
6.7571952625
 20
0.4840901186
 30
0.0
 11
6.7571952625
 21
1.030163002
 31
0.0
  0
LINE
  5
83
330
1F
100
AcDbEntity
  8
0
  6
Continuous
 62
     7
370
     0
100
AcDbLine
 10
6.7571952625
 20
0.035557648
 30
0.0
 11
6.7571952625
 21
1.030163002
 31
0.0
  0
LINE
  5
84
330
1F
100
AcDbEntity
  8
0
  6
Continuous
 62
     7
370
     0
100
AcDbLine
 10
8.4938096065
 20
0.6756085809
 30
0.0
 11
10.9444569626
 21
0.6756085809
 31
0.0
  0
LINE
  5
85
330
1F
100
AcDbEntity
  8
0
  6
Continuous
 62
     7
370
     0
100
AcDbLine
 10
8.4938096065
 20
1.3873799542
 30
0.0
 11
8.4938096065
 21
0.035557648
 31
0.0
  0
LINE
  5
86
330
1F
100
AcDbEntity
  8
0
  6
Continuous
 62
     7
370
     0
100
AcDbLine
 10
8.4938096065
 20
1.030163002
 30
0.0
 11
6.7571952625
 21
1.030163002
 31
0.0
  0
LINE
  5
87
330
1F
100
AcDbEntity
  8
0
  6
Continuous
 62
     7
370
     0
100
AcDbLine
 10
8.4938096065
 20
0.3598787426
 30
0.0
 11
10.9444569626
 21
0.3598787426
 31
0.0
  0
LINE
  5
88
330
1F
100
AcDbEntity
  8
0
  6
Continuous
 62
     7
370
     0
100
AcDbLine
 10
8.4938096065
 20
0.6662079686
 30
0.0
 11
6.7571952625
 21
0.6662079686
 31
0.0
  0
LINE
  5
89
330
1F
100
AcDbEntity
  8
0
  6
Continuous
 62
     7
370
     0
100
AcDbLine
 10
8.4938096065
 20
0.8459606517
 30
0.0
 11
6.7571952625
 21
0.8459606517
 31
0.0
  0
LINE
  5
8A
330
1F
100
AcDbEntity
  8
0
  6
Continuous
 62
     7
370
     0
100
AcDbLine
 10
7.3281027587
 20
1.030163002
 30
0.0
 11
7.3281027587
 21
0.4840901186
 31
0.0
  0
LINE
  5
8B
330
1F
100
AcDbEntity
  8
0
  6
Continuous
 62
     7
370
     0
100
AcDbLine
 10
7.8037240401
 20
1.030163002
 30
0.0
 11
7.8037240401
 21
0.4840901186
 31
0.0
  0
LINE
  5
8C
330
1F
100
AcDbEntity
  8
0
  6
Continuous
 62
     7
370
     0
100
AcDbLine
 10
9.990119718
 20
0.3598787426
 30
0.0
 11
9.990119718
 21
0.035557648
 31
0.0
  0
LINE
  5
8D
330
1F
100
AcDbEntity
  8
0
  6
Continuous
 62
     7
370
     0
100
AcDbLine
 10
6.7571952625
 20
0.4840901186
 30
0.0
 11
6.7571952625
 21
0.297745443
 31
0.0
  0
LINE
  5
8E
330
1F
100
AcDbEntity
  8
0
  6
Continuous
 62
     7
370
     0
100
AcDbLine
 10
6.7571952625
 20
0.297745443
 30
0.0
 11
8.4938096065
 21
0.297745443
 31
0.0
  0
LINE
  5
8F
330
1F
100
AcDbEntity
  8
0
  6
Continuous
 62
     7
370
     0
100
AcDbLine
 10
6.7571952625
 20
0.297745443
 30
0.0
 11
6.7571952625
 21
1.3873799542
 31
0.0
  0
LINE
  5
90
330
1F
100
AcDbEntity
  8
0
  6
Continuous
 62
     7
370
     0
100
AcDbLine
 10
6.7571952625
 20
1.3873799542
 30
0.0
 11
8.4938096065
 21
1.3873799542
 31
0.0
  0
LINE
  5
91
330
1F
100
AcDbEntity
  8
0
  6
Continuous
 62
     7
370
     0
100
AcDbLine
 10
10.6365495992
 20
0.6756085809
 30
0.0
 11
10.6365495992
 21
0.3598787426
 31
0.0
  0
LINE
  5
92
330
1F
100
AcDbEntity
  8
0
  6
Continuous
 62
     7
370
     0
100
AcDbLine
 10
8.4938096065
 20
1.3873799542
 30
0.0
 11
10.9444569626
 21
1.3873799542
 31
0.0
  0
LINE
  5
93
330
1F
100
AcDbEntity
  8
0
  6
Continuous
 62
     7
370
     0
100
AcDbLine
 10
10.9444569626
 20
1.3873799542
 30
0.0
 11
10.9444569626
 21
1.9698084888
 31
0.0
  0
LINE
  5
94
330
1F
100
AcDbEntity
  8
0
  6
Continuous
 62
     7
370
     0
100
AcDbLine
 10
8.4938096065
 20
0.9800288797
 30
0.0
 11
10.9444569626
 21
0.9800288797
 31
0.0
  0
INSERT
  5
95
330
1F
100
AcDbEntity
  8
0
  6
Continuous
 62
     7
100
AcDbBlockReference
  2
Third Angle Projection Block
 10
4.6348905679
 20
0.6108753523
 30
0.0
 41
0.8
 42
0.8
 43
0.8
  0
MTEXT
  5
97
330
1F
100
AcDbEntity
  8
0
  6
Continuous
 62
     7
370
     0
100
AcDbMText
 10
10.7943805235
 20
0.5227176726
 30
0.0
 40
0.125
 41
0.0
 71
     2
 72
     1
  1
B
  7
SLDTEXTSTYLE0
 73
     1
 44
1.0
  0
MTEXT
  5
98
330
1F
100
AcDbEntity
  8
0
  6
Continuous
 62
     7
370
     0
100
AcDbMText
 10
9.2294736088
 20
0.2019943461
 30
0.0
 40
0.125
 41
0.0
 71
     2
 72
     1
  1
LA4904-UV-ML
  7
SLDTEXTSTYLE0
 73
     1
 44
1.0
  0
MTEXT
  5
99
330
1F
100
AcDbEntity
  8
0
  6
Continuous
 62
     7
370
     0
100
AcDbMText
 10
8.5204715199
 20
0.6623747189
 30
0.0
 40
0.0833333333
 41
0.0
 71
     1
 72
     1
  1
MATERIAL
  7
SLDTEXTSTYLE0
 73
     1
 44
1.0
  0
MTEXT
  5
9A
330
1F
100
AcDbEntity
  8
0
  6
Continuous
 62
     7
370
     0
100
AcDbMText
 10
6.8594860853
 20
0.7895493672
 30
0.0
 40
0.0729166667
 41
0.0
 71
     1
 72
     1
  1
DRAWN
  7
SLDTEXTSTYLE0
 73
     1
 44
1.0
  0
MTEXT
  5
9B
330
1F
100
AcDbEntity
  8
0
  6
Continuous
 62
     7
370
     0
100
AcDbMText
 10
6.7872445848
 20
0.613335314
 30
0.0
 40
0.0729166667
 41
0.0
 71
     1
 72
     1
  1
APPROVAL
  7
SLDTEXTSTYLE0
 73
     1
 44
1.0
  0
MTEXT
  5
9C
330
1F
100
AcDbEntity
  8
0
  6
Continuous
 62
     7
370
     0
100
AcDbMText
 10
10.6936137314
 20
0.6373332609
 30
0.0
 40
0.0833333333
 41
0.0
 71
     1
 72
     1
  1
REV
  7
SLDTEXTSTYLE0
 73
     1
 44
1.0
  0
MTEXT
  5
9D
330
1F
100
AcDbEntity
  8
0
  6
Continuous
 62
     7
370
     0
100
AcDbMText
 10
7.4919633718
 20
0.7999100272
 30
0.0
 40
0.0833333333
 41
0.0
 71
     1
 72
     1
  1
GG
  7
SLDTEXTSTYLE0
 73
     1
 44
1.0
  0
MTEXT
  5
9E
330
1F
100
AcDbEntity
  8
0
  6
Continuous
 62
     7
370
     0
100
AcDbMText
 10
7.4919633718
 20
0.623695974
 30
0.0
 40
0.0833333333
 41
0.0
 71
     1
 72
     1
  1
DD
  7
SLDTEXTSTYLE0
 73
     1
 44
1.0
  0
MTEXT
  5
9F
330
1F
100
AcDbEntity
  8
0
  6
Continuous
 62
     7
370
     0
100
AcDbMText
 10
7.8687497515
 20
0.7999100272
 30
0.0
 40
0.0833333333
 41
0.0
 71
     1
 72
     1
  1
08/FEB/16
  7
SLDTEXTSTYLE0
 73
     1
 44
1.0
  0
MTEXT
  5
A0
330
1F
100
AcDbEntity
  8
0
  6
Continuous
 62
     7
370
     0
100
AcDbMText
 10
8.0163191884
 20
0.9772495896
 30
0.0
 40
0.0833333333
 41
0.0
 71
     1
 72
     1
  1
DATE
  7
SLDTEXTSTYLE0
 73
     1
 44
1.0
  0
MTEXT
  5
A1
330
1F
100
AcDbEntity
  8
0
  6
Continuous
 62
     7
370
     0
100
AcDbMText
 10
7.8687497515
 20
0.623695974
 30
0.0
 40
0.0833333333
 41
0.0
 71
     1
 72
     1
  1
08/FEB/16
  7
SLDTEXTSTYLE0
 73
     1
 44
1.0
  0
MTEXT
  5
A3
330
1F
100
AcDbEntity
  8
0
  6
Continuous
 62
     7
370
     0
100
AcDbMText
 10
9.0316104912
 20
1.0943207896
 30
0.0
 40
0.0833333333
 41
0.0
 71
     1
 72
     1
  1
w w w . t h o r  l a b s . c o m
  7
SLDTEXTSTYLE1
 73
     1
 44
1.0
  0
MTEXT
  5
A4
330
1F
100
AcDbEntity
  8
0
  6
Continuous
 62
     7
370
     0
100
AcDbMText
 10
8.5315119501
 20
0.328719653
 30
0.0
 40
0.0833333333
 41
0.0
 71
     1
 72
     1
  1
ITEM #
  7
SLDTEXTSTYLE0
 73
     1
 44
1.0
  0
MTEXT
  5
A5
330
1F
100
AcDbEntity
  8
0
  6
Continuous
 62
     7
370
     0
100
AcDbMText
 10
10.0209370115
 20
0.328719653
 30
0.0
 40
0.0833333333
 41
0.0
 71
     1
 72
     1
  1
APPROX WEIGHT
  7
SLDTEXTSTYLE0
 73
     1
 44
1.0
  0
MTEXT
  5
A6
330
1F
100
AcDbEntity
  8
0
  6
Continuous
 62
     7
370
     0
100
AcDbMText
 10
9.5949135982
 20
0.5414715262
 30
0.0
 40
0.125
 41
0.0
 71
     2
 72
     1
  1
SEE TABLE
  7
SLDTEXTSTYLE0
 73
     1
 44
1.0
  0
MTEXT
  5
A8
330
1F
100
AcDbEntity
  8
0
  6
Continuous
 62
     7
370
     0
100
AcDbMText
 10
10.4826226539
 20
0.2019943461
 30
0.0
 40
0.125
 41
0.0
 71
     2
 72
     1
  1
38 g
  7
SLDTEXTSTYLE2
 73
     1
 44
1.0
  0
INSERT
  5
AE
330
1F
100
AcDbEntity
  8
0
  6
Continuous
 62
     7
370
     0
100
AcDbBlockReference
  2
SW_NOTE_0
 10
6.8835832285
 20
0.1754273811
 30
0.0
  0
INSERT
  5
B4
330
1F
100
AcDbEntity
  8
0
  6
Continuous
 62
     7
370
     0
100
AcDbBlockReference
  2
SW_NOTE_1
 10
6.8719828753
 20
1.2001390658
 30
0.0
  0
MTEXT
  5
B5
330
1F
100
AcDbEntity
  8
0
  6
Continuous
 62
     7
370
     0
100
AcDbMText
 10
7.3987149145
 20
0.9772495896
 30
0.0
 40
0.0833333333
 41
0.0
 71
     1
 72
     1
  1
NAME
  7
SLDTEXTSTYLE0
 73
     1
 44
1.0
  0
INSERT
  5
BC
330
1F
100
AcDbEntity
  8
0
  6
Continuous
 62
     7
370
     0
100
AcDbBlockReference
  2
SW_NOTE_2
 10
8.5755302951
 20
0.8160048101
 30
0.0
  0
MTEXT
  5
BD
330
1F
100
AcDbEntity
  8
0
  6
Continuous
 62
     7
370
     0
100
AcDbMText
 10
7.0281258754
 20
0.4200025137
 30
0.0
 40
0.0625
 41
0.0
 71
     1
 72
     1
  1
COPYRIGHT © 2016 BY THORLABS
  7
SLDTEXTSTYLE0
 73
     1
 44
1.0
  0
INSERT
  5
C3
330
1F
100
AcDbEntity
  8
0
  6
Continuous
 62
     7
370
     0
100
AcDbBlockReference
  2
SW_NOTE_3
 10
2.1096529316
 20
0.3219551564
 30
0.0
  0
INSERT
  5
D9
330
1F
100
AcDbEntity
  8
0
  6
Continuous
 62
     7
370
     0
100
AcDbBlockReference
  2
SW_NOTE_4
 10
0.2229009106
 20
1.7636814979
 30
0.0
  0
INSERT
  5
103
330
1F
100
AcDbEntity
  8
0
  6
Continuous
 62
     7
370
     0
100
AcDbBlockReference
  2
SW_TABLEANNOTATION_0
 10
0.0612779343
 20
8.4504327236
 30
0.0
  0
ARC
  5
104
330
1F
100
AcDbEntity
  8
0
  6
Continuous
 62
     7
370
     0
100
AcDbCircle
 10
2.7409586738
 20
4.3189372894
 30
0.0
 40
1.000179491924312
100
AcDbArc
 50
0.8593146732
 51
179.1406853268
  0
LINE
  5
105
330
1F
100
AcDbEntity
  8
0
  6
Continuous
 62
     7
370
     0
100
AcDbLine
 10
1.74089166
 20
4.3339372891
 30
0.0
 11
1.7235692801
 21
4.3339372891
 31
0.0
  0
LINE
  5
106
330
1F
100
AcDbEntity
  8
0
  6
Continuous
 62
     7
370
     0
100
AcDbLine
 10
3.7583480675
 20
4.3339372891
 30
0.0
 11
3.7410256876
 21
4.3339372891
 31
0.0
  0
ARC
  5
107
330
1F
100
AcDbEntity
  8
0
  6
Continuous
 62
     7
370
     0
100
AcDbCircle
 10
2.7409586738
 20
4.3189372894
 30
0.0
 40
0.9500000000000001
100
AcDbArc
 50
0.9047077972
 51
179.0952922028
  0
ARC
  5
108
330
1F
100
AcDbEntity
  8
0
  6
Continuous
 62
     7
370
     0
100
AcDbCircle
 10
2.7409586738
 20
4.3189372894
 30
0.0
 40
0.9600000000000013
100
AcDbArc
 50
0.8952829866
 51
179.1047170134
  0
LINE
  5
109
330
1F
100
AcDbEntity
  8
0
  6
Continuous
 62
     7
370
     0
100
AcDbLine
 10
3.7008414652
 20
4.3339372891
 30
0.0
 11
3.690840234
 21
4.3339372891
 31
0.0
  0
LINE
  5
10A
330
1F
100
AcDbEntity
  8
0
  6
Continuous
 62
     7
370
     0
100
AcDbLine
 10
1.7910771136
 20
4.3339372891
 30
0.0
 11
1.7810758824
 21
4.3339372891
 31
0.0
  0
ARC
  5
10B
330
1F
100
AcDbEntity
  8
0
  6
Continuous
 62
     7
370
     0
100
AcDbCircle
 10
2.7409586738
 20
4.3189372894
 30
0.0
 40
0.9500000000000001
100
AcDbArc
 50
180.9047077972
 51
359.0952922028
  0
LINE
  5
10C
330
1F
100
AcDbEntity
  8
0
  6
Continuous
 62
     7
370
     0
100
AcDbLine
 10
3.690840234
 20
4.3039372898
 30
0.0
 11
3.7008414652
 21
4.3039372898
 31
0.0
  0
ARC
  5
10D
330
1F
100
AcDbEntity
  8
0
  6
Continuous
 62
     7
370
     0
100
AcDbCircle
 10
2.7409586738
 20
4.3189372894
 30
0.0
 40
0.9600000000000013
100
AcDbArc
 50
180.8952829866
 51
359.1047170134
  0
LINE
  5
10E
330
1F
100
AcDbEntity
  8
0
  6
Continuous
 62
     7
370
     0
100
AcDbLine
 10
1.7810758824
 20
4.3039372898
 30
0.0
 11
1.7910771136
 21
4.3039372898
 31
0.0
  0
ARC
  5
10F
330
1F
100
AcDbEntity
  8
0
  6
Continuous
 62
     7
370
     0
100
AcDbCircle
 10
2.7409586738
 20
4.3189372894
 30
0.0
 40
1.000179491924312
100
AcDbArc
 50
180.8593146732
 51
359.1406853268
  0
LINE
  5
110
330
1F
100
AcDbEntity
  8
0
  6
Continuous
 62
     7
370
     0
100
AcDbLine
 10
3.7410256876
 20
4.3039372898
 30
0.0
 11
3.7583480675
 21
4.3039372898
 31
0.0
  0
LINE
  5
111
330
1F
100
AcDbEntity
  8
0
  6
Continuous
 62
     7
370
     0
100
AcDbLine
 10
1.7235692801
 20
4.3039372898
 30
0.0
 11
1.74089166
 21
4.3039372898
 31
0.0
  0
LINE
  5
112
330
1F
100
AcDbEntity
  8
0
  6
Continuous
 62
     7
370
     0
100
AcDbLine
 10
3.7008414652
 20
4.3039372898
 30
0.0
 11
3.7410256876
 21
4.3039372898
 31
0.0
  0
LINE
  5
113
330
1F
100
AcDbEntity
  8
0
  6
Continuous
 62
     7
370
     0
100
AcDbLine
 10
1.74089166
 20
4.3039372898
 30
0.0
 11
1.7810758824
 21
4.3039372898
 31
0.0
  0
LINE
  5
114
330
1F
100
AcDbEntity
  8
0
  6
Continuous
 62
     7
370
     0
100
AcDbLine
 10
3.7410256876
 20
4.3339372891
 30
0.0
 11
3.7008414652
 21
4.3339372891
 31
0.0
  0
LINE
  5
115
330
1F
100
AcDbEntity
  8
0
  6
Continuous
 62
     7
370
     0
100
AcDbLine
 10
1.7810758824
 20
4.3339372891
 30
0.0
 11
1.74089166
 21
4.3339372891
 31
0.0
  0
ARC
  5
116
330
1F
100
AcDbEntity
  8
0
  6
Continuous
 62
     7
370
     0
100
AcDbCircle
 10
2.7409586738
 20
4.3189372894
 30
0.0
 40
0.9500000000000001
100
AcDbArc
 50
179.0952922028
 51
180.9047077972
  0
ARC
  5
117
330
1F
100
AcDbEntity
  8
0
  6
Continuous
 62
     7
370
     0
100
AcDbCircle
 10
2.7409586738
 20
4.3189372894
 30
0.0
 40
0.9500000000000001
100
AcDbArc
 50
359.0952922028
 51
0.9047077972
  0
CIRCLE
  5
118
330
1F
100
AcDbEntity
  8
0
  6
Continuous
 62
     7
370
     0
100
AcDbCircle
 10
2.7409586738
 20
4.3189372894
 30
0.0
 40
1.034820508075689
  0
CIRCLE
  5
119
330
1F
100
AcDbEntity
  8
0
  6
Continuous
 62
     7
370
     0
100
AcDbCircle
 10
2.7409586738
 20
4.3189372894
 30
0.0
 40
1.0175
  0
CIRCLE
  5
11A
330
1F
100
AcDbEntity
  8
0
  6
Continuous
 62
     7
370
     0
100
AcDbCircle
 10
2.7409586738
 20
4.3189372894
 30
0.0
 40
1.090000000000001
  0
CIRCLE
  5
11B
330
1F
100
AcDbEntity
  8
0
  6
Continuous
 62
     7
370
     0
100
AcDbCircle
 10
2.7409586738
 20
4.3189372894
 30
0.0
 40
1.1
  0
DIMENSION
  5
11C
330
1F
100
AcDbEntity
  8
0
  6
Continuous
 62
     7
370
     0
100
AcDbDimension
  2
_D
 10
1.9631412145
 20
3.5411198301
 30
0.0
 11
4.4120327485
 21
5.5712999463
 31
0.0
 70
   163
  1
<>
 71
     1
 42
-1.0
  3
SLDDIMSTYLE0
100
AcDbDiametricDimension
 15
3.5187761331
 25
5.0967547487
 35
0.0
 40
0.0
  0
LINE
  5
12D
330
1F
100
AcDbEntity
  8
0
  6
PHANTOM
 62
     7
370
    30
100
AcDbLine
 10
2.7409586738
 20
5.7862065323
 30
0.0
 11
2.7409586738
 21
2.8944701041
 31
0.0
  0
LINE
  5
12E
330
1F
100
AcDbEntity
  8
0
  6
Continuous
 62
     7
370
    30
100
AcDbLine
 10
2.7409586738
 20
5.7862065323
 30
0.0
 11
2.359212225
 21
5.7862065323
 31
0.0
  0
SOLID
  5
12F
330
1F
100
AcDbEntity
  8
0
  6
Continuous
 62
     7
370
    30
100
AcDbTrace
 10
2.359212225
 20
5.7862065323
 30
0.0
 11
2.509212225
 21
5.7612065323
 31
0.0
 12
2.509212225
 22
5.8112065323
 32
0.0
 13
2.509212225
 23
5.8112065323
 33
0.0
  0
LINE
  5
130
330
1F
100
AcDbEntity
  8
0
  6
Continuous
 62
     7
370
    30
100
AcDbLine
 10
2.7409586738
 20
2.8944701041
 30
0.0
 11
2.3491364883
 21
2.8944701041
 31
0.0
  0
SOLID
  5
131
330
1F
100
AcDbEntity
  8
0
  6
Continuous
 62
     7
370
    30
100
AcDbTrace
 10
2.3491364883
 20
2.8944701041
 30
0.0
 11
2.4991364883
 21
2.8694701041
 31
0.0
 12
2.4991364883
 22
2.9194701041
 32
0.0
 13
2.4991364883
 23
2.9194701041
 33
0.0
  0
MTEXT
  5
132
330
1F
100
AcDbEntity
  8
0
  6
Continuous
 62
     7
100
AcDbMText
 10
2.22970734
 20
5.8414614831
 30
0.0
 40
0.1041666667
 41
0.0
 71
     1
 72
     1
  1
A
  7
SLDTEXTSTYLE0
 73
     1
 44
1.0
  0
MTEXT
  5
133
330
1F
100
AcDbEntity
  8
0
  6
Continuous
 62
     7
100
AcDbMText
 10
2.2067925592
 20
2.9576453587
 30
0.0
 40
0.1041666667
 41
0.0
 71
     1
 72
     1
  1
A
  7
SLDTEXTSTYLE0
 73
     1
 44
1.0
  0
LINE
  5
134
330
1F
100
AcDbEntity
  8
0
  6
Continuous
 62
     7
370
     0
100
AcDbLine
 10
9.0016888534
 20
7.6026449592
 30
0.0
 11
9.0016888534
 21
7.5944808781
 31
0.0
  0
LINE
  5
135
330
1F
100
AcDbEntity
  8
0
  6
Continuous
 62
     7
370
     0
100
AcDbLine
 10
9.7723099769
 20
6.2595812996
 30
0.0
 11
9.7793798955
 21
6.2554985956
 31
0.0
  0
LINE
  5
136
330
1F
100
AcDbEntity
  8
0
  6
Continuous
 62
     7
370
     0
100
AcDbLine
 10
9.4911805188
 20
8.257309747
 30
0.0
 11
9.2295510097
 21
8.1062742464
 31
0.0
  0
LINE
  5
137
330
1F
100
AcDbEntity
  8
0
  6
Continuous
 62
     7
370
     0
100
AcDbLine
 10
10.3294616156
 20
6.2009667491
 30
0.0
 11
10.5910911247
 21
6.3520022498
 31
0.0
  0
LINE
  5
138
330
1F
100
AcDbEntity
  8
0
  6
Continuous
 62
     7
370
     0
100
AcDbLine
 10
10.818953281
 20
6.8556315369
 30
0.0
 11
10.818953281
 21
6.863795618
 31
0.0
  0
LINE
  5
139
330
1F
100
AcDbEntity
  8
0
  6
Continuous
 62
     7
370
     0
100
AcDbLine
 10
10.0483321575
 20
8.1986951965
 30
0.0
 11
10.0412622389
 21
8.2027779005
 31
0.0
  0
LWPOLYLINE
  5
13A
330
1F
100
AcDbEntity
  8
0
  6
Continuous
 62
     7
370
     0
100
AcDbPolyline
 90
       21
 70
   128
 43
0.0
 10
9.3735248492
 20
8.0739141669
 10
9.3575613026
 20
8.0648227082
 10
9.3382694583
 20
8.0521900001
 10
9.3198138875
 20
8.0382049679
 10
9.3022239562
 20
8.0228898643
 10
9.2855276533
 20
8.0062690584
 10
9.2697515456
 20
7.9883689969
 10
9.2549207358
 20
7.9692181622
 10
9.2410588224
 20
7.9488470266
 10
9.2281878622
 20
7.9272880043
 10
9.2163283353
 20
7.9045753997
 10
9.2054991123
 20
7.8807453527
 10
9.1957174245
 20
7.8558357811
 10
9.1869988363
 20
7.8298863208
 10
9.1793572207
 20
7.8029382619
 10
9.1728047368
 20
7.7750344837
 10
9.1673518107
 20
7.7462193864
 10
9.1630071192
 20
7.7165388198
 10
9.1597775753
 20
7.6860400112
 10
9.1576683179
 20
7.6547714897
 10
9.1566827033
 20
7.6227830093
  0
LINE
  5
13B
330
1F
100
AcDbEntity
  8
0
  6
Continuous
 62
     7
370
     0
100
AcDbLine
 10
9.1566827033
 20
7.6227830093
 30
0.0
 11
9.1515049682
 21
7.6339361332
 31
0.0
  0
LWPOLYLINE
  5
13C
330
1F
100
AcDbEntity
  8
0
  6
Continuous
 62
     7
370
     0
100
AcDbPolyline
 90
       19
 70
   128
 43
0.0
 10
9.1515049682
 20
7.6339361332
 10
9.1525005852
 20
7.6664883757
 10
9.1546396941
 20
7.6983082705
 10
9.1579188903
 20
7.7293451698
 10
9.1623329542
 20
7.759549672
 10
9.1678748599
 20
7.7888737005
 10
9.1745357863
 20
7.8172705801
 10
9.1823051312
 20
7.8446951114
 10
9.1911705281
 20
7.8711036425
 10
9.2011178659
 20
7.8964541391
 10
9.2121313115
 20
7.9207062505
 10
9.2241933345
 20
7.9438213746
 10
9.237284736
 20
7.9657627189
 10
9.2513846782
 20
7.9864953593
 10
9.2664707182
 20
8.0059862955
 10
9.2825188434
 20
8.0242045039
 10
9.2995035101
 20
8.0411209863
 10
9.3173976837
 20
8.0567088167
 10
9.3185547658
 20
8.0576457319
  0
LWPOLYLINE
  5
13D
330
1F
100
AcDbEntity
  8
0
  6
Continuous
 62
     7
370
     0
100
AcDbPolyline
 90
        3
 70
   128
 43
0.0
 10
9.1620681042
 20
7.6196740835
 10
9.1620773641
 20
7.6186445988
 10
9.1621115699
 20
7.6155629697
  0
LINE
  5
13E
330
1F
100
AcDbEntity
  8
0
  6
Continuous
 62
     7
370
     0
100
AcDbLine
 10
9.1515049682
 20
7.6094399088
 30
0.0
 11
9.1621115699
 21
7.6155629697
 31
0.0
  0
LWPOLYLINE
  5
13F
330
1F
100
AcDbEntity
  8
0
  6
Continuous
 62
     7
370
     0
100
AcDbPolyline
 90
       58
 70
   128
 43
0.0
 10
10.3318594794
 20
6.3023602955
 10
10.3223496566
 20
6.298845129
 10
10.2996439409
 20
6.2916736564
 10
10.2762558042
 20
6.2859581346
 10
10.2522224735
 20
6.2817076609
 10
10.2275822029
 20
6.278929001
 10
10.2023742124
 20
6.2776265775
 10
10.1766386255
 20
6.2778024637
 10
10.1504164058
 20
6.2794563794
 10
10.1237492913
 20
6.2825856922
 10
10.0966797281
 20
6.2871854212
 10
10.069250803
 20
6.2932482448
 10
10.0415061747
 20
6.300764513
 10
10.0134900045
 20
6.309722262
 10
9.9852468857
 20
6.3201072337
 10
9.9568217732
 20
6.3319028983
 10
9.9282599112
 20
6.3450904807
 10
9.8996067619
 20
6.3596489901
 10
9.8709079325
 20
6.3755552536
 10
9.8422091031
 20
6.3927839532
 10
9.8135559537
 20
6.4113076659
 10
9.7849940918
 20
6.4310969074
 10
9.7565689792
 20
6.4521201791
 10
9.7283258605
 20
6.4743440182
 10
9.7003096903
 20
6.4977330509
 10
9.672565062
 20
6.5222500487
 10
9.6451361368
 20
6.5478559879
 10
9.6180665737
 20
6.5745101113
 10
9.5913994591
 20
6.6021699936
 10
9.5651772395
 20
6.6307916083
 10
9.5394416526
 20
6.6603293982
 10
9.5142336621
 20
6.6907363481
 10
9.4895933914
 20
6.7219640589
 10
9.4655600608
 20
6.7539628254
 10
9.4421719241
 20
6.7866817151
 10
9.4194662083
 20
6.8200686492
 10
9.3974790543
 20
6.8540704854
 10
9.376245459
 20
6.8886331031
 10
9.35579922
 20
6.9237014886
 10
9.3361728818
 20
6.9592198234
 10
9.3173976837
 20
6.995131573
 10
9.2995035101
 20
7.0313795765
 10
9.2825188434
 20
7.0679061376
 10
9.2664707182
 20
7.104653117
 10
9.2513846782
 20
7.1415620243
 10
9.237284736
 20
7.1785741114
 10
9.2241933345
 20
7.2156304661
 10
9.2121313115
 20
7.2526721056
 10
9.2011178659
 20
7.2896400705
 10
9.1911705281
 20
7.3264755189
 10
9.1823051312
 20
7.3631198195
 10
9.1745357863
 20
7.3995146454
 10
9.1678748599
 20
7.435602067
 10
9.1623329542
 20
7.4713246436
 10
9.1579188903
 20
7.5066255154
 10
9.1546396941
 20
7.541448494
 10
9.1525005852
 20
7.5757381515
 10
9.1515049682
 20
7.6094399088
  0
LWPOLYLINE
  5
140
330
1F
100
AcDbEntity
  8
0
  6
Continuous
 62
     7
370
     0
100
AcDbPolyline
 90
       27
 70
   128
 43
0.0
 10
9.1850972239
 20
7.6063796557
 10
9.1860995149
 20
7.637858602
 10
9.1882367899
 20
7.6686081389
 10
9.1915054697
 20
7.698576771
 10
9.1959000803
 20
7.7277143109
 10
9.2014132622
 20
7.7559719629
 10
9.2080357827
 20
7.7833024049
 10
9.2157565513
 20
7.8096598676
 10
9.2245626382
 20
7.8350002109
 10
9.2344392961
 20
7.8592809982
 10
9.2453699851
 20
7.8824615674
 10
9.2573363998
 20
7.9045030986
 10
9.2703185004
 20
7.9253686798
 10
9.2842945464
 20
7.9450233679
 10
9.2992411324
 20
7.963434248
 10
9.3151332279
 20
7.980570488
 10
9.331944219
 20
7.9964033903
 10
9.3496459528
 20
8.0109064402
 10
9.3682087849
 20
8.0240553499
 10
9.3876016287
 20
8.0358280993
 10
9.4077920077
 20
8.0462049731
 10
9.4287461096
 20
8.0551685933
 10
9.4504288435
 20
8.062703949
 10
9.4728038979
 20
8.0687984209
 10
9.4958338021
 20
8.0734418029
 10
9.5194799886
 20
8.0766263187
 10
9.5272192029
 20
8.0773403163
  0
LINE
  5
141
330
1F
100
AcDbEntity
  8
0
  6
Continuous
 62
     7
370
     0
100
AcDbLine
 10
9.1850972239
 20
7.6063796557
 30
0.0
 11
9.1566827033
 21
7.6227830093
 31
0.0
  0
LWPOLYLINE
  5
142
330
1F
100
AcDbEntity
  8
0
  6
Continuous
 62
     7
370
     0
100
AcDbPolyline
 90
       27
 70
   128
 43
0.0
 10
9.5411183098
 20
8.0751387976
 10
9.5353470659
 20
8.0745924275
 10
9.5119488255
 20
8.0714434826
 10
9.4891602617
 20
8.0668511638
 10
9.4670195295
 20
8.0608231601
 10
9.4455636994
 20
8.0533695644
 10
9.4248286953
 20
8.0445028562
 10
9.4048492341
 20
8.0342378812
 10
9.3856587674
 20
8.0225918262
 10
9.3672894263
 20
8.0095841903
 10
9.3497719667
 20
7.9952367523
 10
9.3331357182
 20
7.9795735343
 10
9.3174085353
 20
7.9626207615
 10
9.30261675
 20
7.9444068181
 10
9.2887851285
 20
7.9249621998
 10
9.2759368292
 20
7.9043194632
 10
9.2640933641
 20
7.8825131705
 10
9.253274563
 20
7.8595798323
 10
9.2434985399
 20
7.8355578462
 10
9.2347816629
 20
7.8104874324
 10
9.2271385268
 20
7.7844105668
 10
9.2205819285
 20
7.75737091
 10
9.2151228459
 20
7.7294137349
 10
9.2107704191
 20
7.7005858506
 10
9.2075319356
 20
7.670935524
 10
9.2054128175
 20
7.6405123989
 10
9.2044166128
 20
7.6093674131
  0
LINE
  5
143
330
1F
100
AcDbEntity
  8
0
  6
Continuous
 62
     7
370
     0
100
AcDbLine
 10
9.2044166128
 20
7.6093674131
 30
0.0
 11
9.1850972239
 21
7.6063796557
 31
0.0
  0
LWPOLYLINE
  5
144
330
1F
100
AcDbEntity
  8
0
  6
Continuous
 62
     7
370
     0
100
AcDbPolyline
 90
       65
 70
   128
 43
0.0
 10
9.2044166128
 20
7.5848711888
 10
9.2054128175
 20
7.5525760096
 10
9.2075319356
 20
7.5197062028
 10
9.2107704191
 20
7.4863168026
 10
9.2151228459
 20
7.4524637134
 10
9.2205819285
 20
7.4182036157
 10
9.2271385268
 20
7.3835938717
 10
9.2347816629
 20
7.3486924289
 10
9.2434985399
 20
7.3135577232
 10
9.253274563
 20
7.278248581
 10
9.2640933641
 20
7.2428241209
 10
9.2759368292
 20
7.2073436546
 10
9.2887851285
 20
7.1718665873
 10
9.30261675
 20
7.1364523188
 10
9.3174085353
 20
7.1011601436
 10
9.3331357182
 20
7.0660491519
 10
9.3497719667
 20
7.0311781303
 10
9.3672894263
 20
6.9966054639
 10
9.3856587674
 20
6.9623890382
 10
9.4048492341
 20
6.928586142
 10
9.4248286953
 20
6.895253372
 10
9.4455636994
 20
6.8624465377
 10
9.4670195295
 20
6.8302205679
 10
9.4891602617
 20
6.798629419
 10
9.5119488255
 20
6.7677259844
 10
9.5353470659
 20
6.7375620062
 10
9.5593158068
 20
6.7081879881
 10
9.5838149171
 20
6.6796531117
 10
9.6088033776
 20
6.652005153
 10
9.6342393499
 20
6.6252904034
 10
9.6600802461
 20
6.5995535918
 10
9.6862828006
 20
6.5748378097
 10
9.7128031421
 20
6.5511844389
 10
9.7395968672
 20
6.5286330825
 10
9.766619115
 20
6.5072214987
 10
9.7938246417
 20
6.486985537
 10
9.8211678967
 20
6.4679590789
 10
9.848603099
 20
6.4501739804
 10
9.8760843134
 20
6.4336600195
 10
9.9035655278
 20
6.4184448456
 10
9.9310007301
 20
6.4045539338
 10
9.9583439851
 20
6.3920105417
 10
9.9855495118
 20
6.3808356708
 10
10.0125717596
 20
6.3710480315
 10
10.0393654847
 20
6.3626640113
 10
10.0658858262
 20
6.3556976475
 10
10.0920883807
 20
6.3501606042
 10
10.1179292769
 20
6.3460621521
 10
10.1433652492
 20
6.3434091532
 10
10.1683537097
 20
6.3422060494
 10
10.19285282
 20
6.3424548553
 10
10.2168215609
 20
6.3441551541
 10
10.2402198013
 20
6.347304099
 10
10.2630083651
 20
6.3518964178
 10
10.2851490973
 20
6.3579244215
 10
10.3066049274
 20
6.3653780172
 10
10.3273399314
 20
6.3742447254
 10
10.3473193927
 20
6.3845097004
 10
10.3665098594
 20
6.3961557554
 10
10.3848792005
 20
6.4091633913
 10
10.4023966601
 20
6.4235108293
 10
10.4190329086
 20
6.4391740473
 10
10.4347600915
 20
6.4561268201
 10
10.4495518768
 20
6.4743407635
 10
10.4583079563
 20
6.4863475809
  0
LINE
  5
145
330
1F
100
AcDbEntity
  8
0
  6
Continuous
 62
     7
370
     0
100
AcDbLine
 10
9.2098468336
 20
7.5880059885
 30
0.0
 11
9.2044166128
 21
7.5848711888
 31
0.0
  0
ARC
  5
146
330
1F
100
AcDbEntity
  8
0
  6
Continuous
 62
     7
370
     0
100
AcDbCircle
 10
10.1055008055
 20
7.6002541007
 30
0.0
 40
0.8957377147082899
100
AcDbArc
 50
179.2165262291
 51
180.7834737709
  0
LINE
  5
147
330
1F
100
AcDbEntity
  8
0
  6
Continuous
 62
     7
370
     0
100
AcDbLine
 10
9.2044166128
 20
7.6093674131
 30
0.0
 11
9.2098468336
 21
7.6125022129
 31
0.0
  0
LWPOLYLINE
  5
148
330
1F
100
AcDbEntity
  8
0
  6
Continuous
 62
     7
370
     0
100
AcDbPolyline
 90
       58
 70
   128
 43
0.0
 10
9.927476475
 20
6.4633280829
 10
9.9000766835
 20
6.4797911954
 10
9.8727224962
 20
6.4975180056
 10
9.8454594416
 20
6.5164790091
 10
9.8183328961
 20
6.5366426472
 10
9.7913880095
 20
6.5579753594
 10
9.7646696286
 20
6.5804416396
 10
9.7382222236
 20
6.6040040949
 10
9.7120898137
 20
6.6286235078
 10
9.6863158936
 20
6.6542589018
 10
9.6609433616
 20
6.6808676094
 10
9.6360144475
 20
6.7084053428
 10
9.6115706433
 20
6.7368262684
 10
9.5876526331
 20
6.7660830823
 10
9.5643002262
 20
6.7961270894
 10
9.5415522903
 20
6.8269082844
 10
9.5194466871
 20
6.858375435
 10
9.4980202093
 20
6.8904761673
 10
9.477308519
 20
6.9231570528
 10
9.4573460888
 20
6.9563636974
 10
9.4381661443
 20
6.9900408319
 10
9.4198006085
 20
7.024132404
 10
9.4022800491
 20
7.0585816717
 10
9.3856336274
 20
7.0933312975
 10
9.3698890495
 20
7.1283234442
 10
9.355072521
 20
7.1634998708
 10
9.3412087023
 20
7.1988020295
 10
9.3283206684
 20
7.2341711635
 10
9.3164298703
 20
7.2695484042
 10
9.3055560989
 20
7.3048748698
 10
9.2957174527
 20
7.3400917628
 10
9.2869303069
 20
7.3751404682
 10
9.2792092871
 20
7.409962651
 10
9.272567244
 20
7.4445003529
 10
9.2670152327
 20
7.4786960894
 10
9.262562494
 20
7.5124929451
 10
9.2592164389
 20
7.5458346685
 10
9.2569826367
 20
7.5786657655
 10
9.2558648054
 20
7.610931592
 10
9.2558648054
 20
7.6425784447
 10
9.2569826367
 20
7.6735536506
 10
9.2592164389
 20
7.7038056545
 10
9.262562494
 20
7.7332841049
 10
9.2670152327
 20
7.7619399379
 10
9.272567244
 20
7.7897254586
 10
9.2792092871
 20
7.8165944208
 10
9.2869303069
 20
7.8425021038
 10
9.2957174527
 20
7.8674053867
 10
9.3055560989
 20
7.8912628206
 10
9.3164298703
 20
7.914034697
 10
9.3283206684
 20
7.9356831144
 10
9.3412087023
 20
7.9561720412
 10
9.355072521
 20
7.9754673756
 10
9.3698890495
 20
7.9935370024
 10
9.3856336274
 20
8.0103508464
 10
9.4022800491
 20
8.0258809228
 10
9.4198006085
 20
8.0401013832
 10
9.4275143764
 20
8.0457496774
  0
LWPOLYLINE
  5
149
330
1F
100
AcDbEntity
  8
0
  6
Continuous
 62
     7
370
     0
100
AcDbPolyline
 90
       19
 70
   128
 43
0.0
 10
10.376046412
 20
6.4026659676
 10
10.3569327407
 20
6.3946365172
 10
10.3355062629
 20
6.3872742696
 10
10.3134006597
 20
6.3813297051
 10
10.2906527238
 20
6.3768127179
 10
10.2673003169
 20
6.3737308259
 10
10.2433823067
 20
6.3720891588
 10
10.2189385025
 20
6.3718904489
 10
10.1940095884
 20
6.3731350269
 10
10.1686370563
 20
6.3758208213
 10
10.1428631363
 20
6.379943362
 10
10.1167307263
 20
6.3854957873
 10
10.0902833214
 20
6.3924688559
 10
10.0635649405
 20
6.4008509616
 10
10.0366200538
 20
6.4106281533
 10
10.0094935084
 20
6.421784158
 10
9.9822304538
 20
6.4343004073
 10
9.9548762665
 20
6.4481560694
 10
9.927476475
 20
6.4633280829
  0
LWPOLYLINE
  5
14A
330
1F
100
AcDbEntity
  8
0
  6
Continuous
 62
     7
370
     0
100
AcDbPolyline
 90
       61
 70
   128
 43
0.0
 10
9.1566827033
 20
7.5982867849
 10
9.1576683179
 20
7.565160338
 10
9.1597775753
 20
7.5314565198
 10
9.1630071192
 20
7.4972289593
 10
9.1673518107
 20
7.4625321186
 10
9.1728047368
 20
7.4274212068
 10
9.1793572207
 20
7.3919520917
 10
9.1869988363
 20
7.3561812112
 10
9.1957174245
 20
7.3201654832
 10
9.2054991123
 20
7.2839622154
 10
9.2163283353
 20
7.2476290136
 10
9.2281878622
 20
7.2112236907
 10
9.2410588224
 20
7.1748041741
 10
9.2549207358
 20
7.1384284139
 10
9.2697515456
 20
7.1021542906
 10
9.2855276533
 20
7.066039523
 10
9.3022239562
 20
7.030141576
 10
9.3198138875
 20
6.9945175701
 10
9.3382694583
 20
6.9592241893
 10
9.3575613026
 20
6.924317592
 10
9.3776587234
 20
6.8898533208
 10
9.3985297422
 20
6.8558862147
 10
9.4201411492
 20
6.8224703215
 10
9.442458557
 20
6.7896588121
 10
9.4654464543
 20
6.7575038954
 10
9.4890682632
 20
6.7260567359
 10
9.5132863973
 20
6.6953673716
 10
9.5380623209
 20
6.665484635
 10
9.5633566111
 20
6.6364560749
 10
9.5891290201
 20
6.608327881
 10
9.6153385393
 20
6.5811448104
 10
9.6419434646
 20
6.5549501163
 10
9.6689014626
 20
6.5297854793
 10
9.6961696384
 20
6.5056909409
 10
9.7237046032
 20
6.4827048398
 10
9.751462544
 20
6.4608637512
 10
9.7793992928
 20
6.4402024281
 10
9.8074703971
 20
6.4207537466
 10
9.8356311907
 20
6.4025486529
 10
9.8638368647
 20
6.3856161148
 10
9.8920425387
 20
6.3699830749
 10
9.9202033323
 20
6.3556744083
 10
9.9482744366
 20
6.3427128827
 10
9.9762111854
 20
6.3311191222
 10
10.0039691261
 20
6.3209115746
 10
10.031504091
 20
6.312106482
 10
10.0587722667
 20
6.3047178548
 10
10.0857302648
 20
6.2987574498
 10
10.11233519
 20
6.294234751
 10
10.1385447092
 20
6.2911569548
 10
10.1643171182
 20
6.2895289587
 10
10.1896114085
 20
6.2893533529
 10
10.2143873321
 20
6.290630417
 10
10.2386054661
 20
6.2933581189
 10
10.2622272751
 20
6.2975321183
 10
10.2852151724
 20
6.3031457737
 10
10.3075325801
 20
6.3101901527
 10
10.3291439872
 20
6.3186540463
 10
10.350015006
 20
6.3285239871
 10
10.3701124268
 20
6.3397842701
 10
10.3734371028
 20
6.3418276653
  0
LINE
  5
14B
330
1F
100
AcDbEntity
  8
0
  6
Continuous
 62
     7
370
     0
100
AcDbLine
 10
9.1515049682
 20
7.6094399088
 30
0.0
 11
9.1566827033
 21
7.5982867849
 31
0.0
  0
LINE
  5
14C
330
1F
100
AcDbEntity
  8
0
  6
Continuous
 62
     7
370
     0
100
AcDbLine
 10
9.1566827033
 20
7.5982867849
 30
0.0
 11
9.1850972239
 21
7.5818834313
 31
0.0
  0
LWPOLYLINE
  5
14D
330
1F
100
AcDbEntity
  8
0
  6
Continuous
 62
     7
370
     0
100
AcDbPolyline
 90
       65
 70
   128
 43
0.0
 10
10.4532637411
 20
6.4732103151
 10
10.443379183
 20
6.4595836104
 10
10.428432597
 20
6.4411727303
 10
10.4125405015
 20
6.4240364903
 10
10.3957295104
 20
6.408203588
 10
10.3780277766
 20
6.3937005381
 10
10.3594649445
 20
6.3805516284
 10
10.3400721007
 20
6.368778879
 10
10.3198817217
 20
6.3584020052
 10
10.2989276197
 20
6.349438385
 10
10.2772448859
 20
6.3419030293
 10
10.2548698315
 20
6.3358085574
 10
10.2318399273
 20
6.3311651754
 10
10.2081937407
 20
6.3279806596
 10
10.1839708713
 20
6.3262603428
 10
10.1592118841
 20
6.3260071061
 10
10.1339582424
 20
6.3272213735
 10
10.1082522374
 20
6.3299011116
 10
10.0821369182
 20
6.3340418326
 10
10.0556560193
 20
6.3396366023
 10
10.0288538872
 20
6.3466760513
 10
10.0017754067
 20
6.3551483908
 10
9.9744659251
 20
6.3650394325
 10
9.9469711768
 20
6.3763326122
 10
9.9193372062
 20
6.3890090177
 10
9.8916102911
 20
6.40304742
 10
9.8638368647
 20
6.4184243097
 10
9.8360634383
 20
6.4351139356
 10
9.8083365232
 20
6.453088348
 10
9.7807025526
 20
6.4723174459
 10
9.7532078042
 20
6.4927690269
 10
9.7258983227
 20
6.5144088414
 10
9.6988198421
 20
6.5372006501
 10
9.6720177101
 20
6.5611062841
 10
9.6455368111
 20
6.5860857095
 10
9.619421492
 20
6.6120970942
 10
9.593715487
 20
6.6390968777
 10
9.5684618452
 20
6.6670398445
 10
9.5437028581
 20
6.6958791992
 10
9.5194799886
 20
6.7255666458
 10
9.4958338021
 20
6.7560524675
 10
9.4728038979
 20
6.7872856109
 10
9.4504288435
 20
6.8192137707
 10
9.4287461096
 20
6.851783478
 10
9.4077920077
 20
6.8849401895
 10
9.3876016287
 20
6.9186283786
 10
9.3682087849
 20
6.9527916289
 10
9.3496459528
 20
6.9873727283
 10
9.331944219
 20
7.022313765
 10
9.3151332279
 20
7.0575562245
 10
9.2992411324
 20
7.0930410874
 10
9.2842945464
 20
7.1287089284
 10
9.2703185004
 20
7.1645000157
 10
9.2573363998
 20
7.2003544112
 10
9.2453699851
 20
7.2362120707
 10
9.2344392961
 20
7.2720129447
 10
9.2245626382
 20
7.3076970787
 10
9.2157565513
 20
7.3432047135
 10
9.2080357827
 20
7.3784763857
 10
9.2014132622
 20
7.4134530272
 10
9.1959000803
 20
7.4480760635
 10
9.1915054697
 20
7.4822875128
 10
9.1882367899
 20
7.5160300823
 10
9.1860995149
 20
7.5492472643
 10
9.1850972239
 20
7.5818834313
  0
LINE
  5
14E
330
1F
100
AcDbEntity
  8
0
  6
Continuous
 62
     7
370
     0
100
AcDbLine
 10
9.1850972239
 20
7.5818834313
 30
0.0
 11
9.2044166128
 21
7.5848711888
 31
0.0
  0
LINE
  5
14F
330
1F
100
AcDbEntity
  8
0
  6
Continuous
 62
     7
370
     0
100
AcDbLine
 10
9.1621115699
 20
7.6155629697
 30
0.0
 11
9.2098468336
 21
7.5880059885
 31
0.0
  0
LWPOLYLINE
  5
150
330
1F
100
AcDbEntity
  8
0
  6
Continuous
 62
     7
370
     0
100
AcDbPolyline
 90
      125
 70
   128
 43
0.0
 10
9.0016888534
 20
7.6026449592
 10
9.0022527339
 20
7.6365143539
 10
9.0039435577
 20
7.6696835986
 10
9.0067588734
 20
7.7021046012
 10
9.0106945991
 20
7.7337303542
 10
9.0157450282
 20
7.7645150034
 10
9.0219028381
 20
7.794413914
 10
9.0291591007
 20
7.8233837354
 10
9.037503295
 20
7.8513824642
 10
9.0469233227
 20
7.8783695047
 10
9.0574055257
 20
7.9043057286
 10
9.0689347059
 20
7.9291535305
 10
9.0814941469
 20
7.9528768838
 10
9.0950656388
 20
7.9754413917
 10
9.1096295043
 20
7.9968143378
 10
9.1251646272
 20
8.0169647335
 10
9.1416484829
 20
8.0358633626
 10
9.1590571714
 20
8.0534828239
 10
9.177365452
 20
8.0697975708
 10
9.1965467792
 20
8.0847839486
 10
9.216573342
 20
8.0984202284
 10
9.2374161037
 20
8.1106866389
 10
9.2590448445
 20
8.121565395
 10
9.2814282046
 20
8.1310407235
 10
9.3045337304
 20
8.1390988862
 10
9.328327921
 20
8.1457281993
 10
9.3527762772
 20
8.1509190512
 10
9.3778433511
 20
8.1546639155
 10
9.4034927979
 20
8.1569573626
 10
9.4296874283
 20
8.1577960671
 10
9.4563892627
 20
8.1571788131
 10
9.4835595859
 20
8.1551064954
 10
9.5111590036
 20
8.1515821188
 10
9.5391474992
 20
8.1466107932
 10
9.5674844922
 20
8.1401997266
 10
9.5961288965
 20
8.1323582145
 10
9.6250391805
 20
8.1230976262
 10
9.6541734271
 20
8.1124313888
 10
9.6834893944
 20
8.1003749673
 10
9.712944577
 20
8.0869458423
 10
9.7424962678
 20
8.0721634848
 10
9.7721016196
 20
8.0560493277
 10
9.8017177076
 20
8.0386267352
 10
9.8313015911
 20
8.0199209681
 10
9.8608103764
 20
7.9999591483
 10
9.8902012786
 20
7.9787702183
 10
9.9194316837
 20
7.9563849001
 10
9.9484592104
 20
7.9328356502
 10
9.9772417715
 20
7.9081566129
 10
10.0057376351
 20
7.8823835703
 10
10.0339054849
 20
7.855553891
 10
10.0617044803
 20
7.8277064753
 10
10.0890943153
 20
7.7988816994
 10
10.1160352772
 20
7.7691213565
 10
10.1424883044
 20
7.7384685961
 10
10.1684150423
 20
7.7069678619
 10
10.1937778998
 20
7.674664827
 10
10.2185401031
 20
7.6416063276
 10
10.2426657494
 20
7.6078402953
 10
10.2661198587
 20
7.5734156878
 10
10.288868425
 20
7.5383824174
 10
10.3108784648
 20
7.502791279
 10
10.3321180659
 20
7.4666938764
 10
10.3525564327
 20
7.4301425473
 10
10.3721639317
 20
7.3931902876
 10
10.3909121337
 20
7.3558906747
 10
10.4087738558
 20
7.3182977893
 10
10.4257232001
 20
7.2804661376
 10
10.4417355917
 20
7.2424505719
 10
10.4567878141
 20
7.204306211
 10
10.4708580431
 20
7.1660883607
 10
10.4839258782
 20
7.1278524332
 10
10.4959723723
 20
7.0896538669
 10
10.506980059
 20
7.0515480462
 10
10.5169329784
 20
7.0135902207
 10
10.5258166997
 20
6.9758354257
 10
10.5336183422
 20
6.9383384021
 10
10.5403265943
 20
6.9011535169
 10
10.5459317298
 20
6.8643346848
 10
10.5504256217
 20
6.8279352894
 10
10.5538017543
 20
6.7920081064
 10
10.5560552326
 20
6.7566052268
 10
10.5571827891
 20
6.7217779814
 10
10.5571827891
 20
6.6875768664
 10
10.5560552326
 20
6.6540514701
 10
10.5538017543
 20
6.6212504011
 10
10.5504256217
 20
6.5892212179
 10
10.5459317298
 20
6.5580103596
 10
10.5403265943
 20
6.5276630791
 10
10.5336183422
 20
6.4982233771
 10
10.5258166997
 20
6.4697339382
 10
10.5169329784
 20
6.4422360694
 10
10.506980059
 20
6.41576964
 10
10.4959723723
 20
6.3903730239
 10
10.4839258782
 20
6.3660830436
 10
10.4708580431
 20
6.3429349174
 10
10.4567878141
 20
6.3209622077
 10
10.4417355917
 20
6.3001967729
 10
10.4257232001
 20
6.280668721
 10
10.4087738558
 20
6.2624063657
 10
10.3909121337
 20
6.2454361856
 10
10.3721639317
 20
6.229782786
 10
10.3525564327
 20
6.2154688628
 10
10.3321180659
 20
6.2025151697
 10
10.3108784648
 20
6.1909404885
 10
10.288868425
 20
6.1807616012
 10
10.2661198587
 20
6.1719932663
 10
10.2426657494
 20
6.1646481971
 10
10.2185401031
 20
6.1587370431
 10
10.1937778998
 20
6.154268375
 10
10.1684150423
 20
6.151248672
 10
10.1424883044
 20
6.1496823123
 10
10.1160352772
 20
6.149571567
 10
10.0890943153
 20
6.1509165967
 10
10.0617044803
 20
6.1537154511
 10
10.0339054849
 20
6.1579640723
 10
10.0057376351
 20
6.1636563001
 10
9.9772417715
 20
6.1707838814
 10
9.9484592104
 20
6.1793364818
 10
9.9194316837
 20
6.1893017008
 10
9.8902012786
 20
6.20066509
 10
9.8608103764
 20
6.2134101733
 10
9.8313015911
 20
6.2275184718
 10
9.8017177076
 20
6.2429695296
 10
9.7793798955
 20
6.2554985956
  0
LWPOLYLINE
  5
151
330
1F
100
AcDbEntity
  8
0
  6
Continuous
 62
     7
370
     0
100
AcDbPolyline
 90
      165
 70
   128
 43
0.0
 10
9.0016888534
 20
7.5944808781
 10
9.0022544417
 20
7.5600638086
 10
9.0039503765
 20
7.5250442365
 10
9.0067741689
 20
7.4894735579
 10
9.0107216745
 20
7.4534039777
 10
9.0157870997
 20
7.4168884329
 10
9.0219630105
 20
7.3799805152
 10
9.0292403428
 20
7.3427343919
 10
9.037608416
 20
7.305204727
 10
9.047054949
 20
7.2674466004
 10
9.0575660776
 20
7.2295154273
 10
9.0691263753
 20
7.191466877
 10
9.0817188757
 20
7.1533567909
 10
9.0953250976
 20
7.1152411009
 10
9.1099250721
 20
7.077175747
 10
9.1254973715
 20
7.0392165954
 10
9.1420191416
 20
7.0014193563
 10
9.1594661342
 20
6.9638395024
 10
9.1778127435
 20
6.9265321873
 10
9.1970320433
 20
6.8895521647
 10
9.2170958266
 20
6.8529537078
 10
9.2379746472
 20
6.81679053
 10
9.2596378623
 20
6.7811157056
 10
9.2820536783
 20
6.7459815924
 10
9.3051891969
 20
6.7114397546
 10
9.3290104636
 20
6.677540887
 10
9.3534825172
 20
6.6443347409
 10
9.3785694417
 20
6.611870051
 10
9.4042344186
 20
6.5801944636
 10
9.430439781
 20
6.549354467
 10
9.4571470689
 20
6.5193953231
 10
9.4843170857
 20
6.4903610013
 10
9.5119099556
 20
6.4622941132
 10
9.5398851823
 20
6.435235851
 10
9.5682017083
 20
6.4092259263
 10
9.5968179751
 20
6.3843025124
 10
9.6256919845
 20
6.3605021878
 10
9.6547813599
 20
6.3378598827
 10
9.6840434086
 20
6.3164088278
 10
9.7134351845
 20
6.2961805056
 10
9.7429135511
 20
6.2772046038
 10
9.7724352449
 20
6.2595089722
 10
9.8019569387
 20
6.2431195817
 10
9.8314353053
 20
6.2280604858
 10
9.8608270812
 20
6.2143537859
 10
9.8900891299
 20
6.2020195985
 10
9.9191785052
 20
6.1910760257
 10
9.9480525147
 20
6.1815391287
 10
9.9766687815
 20
6.1734229042
 10
10.0049853075
 20
6.1667392638
 10
10.0329605342
 20
6.1614980168
 10
10.0605534041
 20
6.1577068554
 10
10.0877234209
 20
6.1553713436
 10
10.1144307088
 20
6.1544949092
 10
10.1406360711
 20
6.1550788384
 10
10.1663010481
 20
6.1571222742
 10
10.1913879726
 20
6.1606222176
 10
10.2158600262
 20
6.165573532
 10
10.2396812928
 20
6.1719689506
 10
10.2628168114
 20
6.1797990872
 10
10.2852326275
 20
6.1890524501
 10
10.3068958426
 20
6.1997154587
 10
10.3277746631
 20
6.2117724634
 10
10.3478384465
 20
6.2252057691
 10
10.3670577463
 20
6.2399956605
 10
10.3854043556
 20
6.2561204314
 10
10.4028513482
 20
6.2735564164
 10
10.4193731182
 20
6.2922780258
 10
10.4349454177
 20
6.3122577832
 10
10.4495453922
 20
6.3334663654
 10
10.4631516141
 20
6.3558726459
 10
10.4757441145
 20
6.3794437405
 10
10.4873044122
 20
6.4041450552
 10
10.4978155408
 20
6.4299403376
 10
10.5072620737
 20
6.4567917294
 10
10.515630147
 20
6.4846598226
 10
10.5229074792
 20
6.5135037168
 10
10.52908339
 20
6.5432810798
 10
10.5341488153
 20
6.573948209
 10
10.5380963209
 20
6.6054600963
 10
10.5409201132
 20
6.6377704937
 10
10.5426160481
 20
6.6708319811
 10
10.5431816364
 20
6.7045960362
 10
10.5426160481
 20
6.7390131057
 10
10.5409201132
 20
6.7740326778
 10
10.5380963209
 20
6.8096033564
 10
10.5341488153
 20
6.8456729367
 10
10.52908339
 20
6.8821884814
 10
10.5229074792
 20
6.9190963992
 10
10.515630147
 20
6.9563425224
 10
10.5072620737
 20
6.9938721873
 10
10.4978155408
 20
7.031630314
 10
10.4873044122
 20
7.0695614871
 10
10.4757441145
 20
7.1076100374
 10
10.4631516141
 20
7.1457201235
 10
10.4495453922
 20
7.1838358134
 10
10.4349454177
 20
7.2219011673
 10
10.4193731182
 20
7.259860319
 10
10.4028513482
 20
7.2976575581
 10
10.3854043556
 20
7.335237412
 10
10.3670577463
 20
7.372544727
 10
10.3478384465
 20
7.4095247496
 10
10.3277746631
 20
7.4461232065
 10
10.3068958426
 20
7.4822863844
 10
10.2852326275
 20
7.5179612088
 10
10.2628168114
 20
7.5530953219
 10
10.2396812928
 20
7.5876371598
 10
10.2158600262
 20
7.6215360274
 10
10.1913879726
 20
7.6547421734
 10
10.1663010481
 20
7.6872068634
 10
10.1406360711
 20
7.7188824508
 10
10.1144307088
 20
7.7497224474
 10
10.0877234209
 20
7.7796815912
 10
10.0605534041
 20
7.8087159131
 10
10.0329605342
 20
7.8367828012
 10
10.0049853075
 20
7.8638410634
 10
9.9766687815
 20
7.889850988
 10
9.9480525147
 20
7.9147744019
 10
9.9191785052
 20
7.9385747266
 10
9.8900891299
 20
7.9612170317
 10
9.8608270812
 20
7.9826680865
 10
9.8314353053
 20
8.0028964088
 10
9.8019569387
 20
8.0218723106
 10
9.7724352449
 20
8.0395679421
 10
9.7429135511
 20
8.0559573327
 10
9.7134351845
 20
8.0710164285
 10
9.6840434086
 20
8.0847231284
 10
9.6547813599
 20
8.0970573158
 10
9.6256919845
 20
8.1080008886
 10
9.5968179751
 20
8.1175377857
 10
9.5682017083
 20
8.1256540102
 10
9.5398851823
 20
8.1323376505
 10
9.5119099556
 20
8.1375788975
 10
9.4843170857
 20
8.141370059
 10
9.4571470689
 20
8.1437055707
 10
9.430439781
 20
8.1445820052
 10
9.4042344186
 20
8.143998076
 10
9.3785694417
 20
8.1419546401
 10
9.3534825172
 20
8.1384546967
 10
9.3290104636
 20
8.1335033824
 10
9.3051891969
 20
8.1271079638
 10
9.2820536783
 20
8.1192778271
 10
9.2596378623
 20
8.1100244642
 10
9.2379746472
 20
8.0993614557
 10
9.2170958266
 20
8.0873044509
 10
9.1970320433
 20
8.0738711452
 10
9.1778127435
 20
8.0590812538
 10
9.1594661342
 20
8.042956483
 10
9.1420191416
 20
8.025520498
 10
9.1254973715
 20
8.0067988885
 10
9.1099250721
 20
7.9868191311
 10
9.0953250976
 20
7.9656105489
 10
9.0817188757
 20
7.9432042684
 10
9.0691263753
 20
7.9196331739
 10
9.0575660776
 20
7.8949318591
 10
9.047054949
 20
7.8691365768
 10
9.037608416
 20
7.8422851849
 10
9.0292403428
 20
7.8144170918
 10
9.0219630105
 20
7.7855731975
 10
9.0157870997
 20
7.7557958346
 10
9.0107216745
 20
7.7251287053
 10
9.0067741689
 20
7.693616818
 10
9.0039503765
 20
7.6613064207
 10
9.0022544417
 20
7.6282449333
 10
9.0016888534
 20
7.5944808781
  0
LWPOLYLINE
  5
152
330
1F
100
AcDbEntity
  8
0
  6
Continuous
 62
     7
370
     0
100
AcDbPolyline
 90
       63
 70
   128
 43
0.0
 10
10.818953281
 20
6.8556315369
 10
10.8183894006
 20
6.8901519741
 10
10.8166985767
 20
6.9252734025
 10
10.813883261
 20
6.9609448994
 10
10.8099475354
 20
6.9971147445
 10
10.8048971063
 20
7.0337304951
 10
10.7987392963
 20
7.0707390617
 10
10.7914830337
 20
7.1080867855
 10
10.7831388394
 20
7.1457195159
 10
10.7737188117
 20
7.183582689
 10
10.7632366087
 20
7.2216214068
 10
10.7517074286
 20
7.2597805169
 10
10.7391479875
 20
7.2980046921
 10
10.7255764956
 20
7.336238511
 10
10.7110126301
 20
7.3744265384
 10
10.6954775073
 20
7.4125134051
 10
10.6789936516
 20
7.4504438889
 10
10.661584963
 20
7.4881629942
 10
10.6432766825
 20
7.5256160318
 10
10.6240953553
 20
7.5627486986
 10
10.6040687925
 20
7.5995071556
 10
10.5832260307
 20
7.6358381067
 10
10.5615972899
 20
7.6716888753
 10
10.5392139298
 20
7.7070074813
 10
10.516108404
 20
7.7417427162
 10
10.4923142134
 20
7.7758442171
 10
10.4678658572
 20
7.8092625402
 10
10.4427987833
 20
7.8419492319
 10
10.4171493365
 20
7.8738568999
 10
10.3909547061
 20
7.904939281
 10
10.3642528717
 20
7.9351513087
 10
10.3370825485
 20
7.9644491785
 10
10.3094831308
 20
7.9927904112
 10
10.2814946352
 20
8.0201339149
 10
10.2531576423
 20
8.0464400439
 10
10.224513238
 20
8.0716706571
 10
10.1956029539
 20
8.0957891722
 10
10.1664687073
 20
8.11876062
 10
10.1371527401
 20
8.1405516938
 10
10.1076975574
 20
8.1611307988
 10
10.0781458666
 20
8.1804680972
 10
10.0485405148
 20
8.1985355518
 10
10.0189244269
 20
8.2153069665
 10
9.9893405433
 20
8.2307580244
 10
9.959831758
 20
8.2448663228
 10
9.9304408558
 20
8.2576114062
 10
9.9012104507
 20
8.2689747953
 10
9.872182924
 20
8.2789400144
 10
9.8434003629
 20
8.2874926148
 10
9.8149044993
 20
8.294620196
 10
9.7867366495
 20
8.3003124238
 10
9.7589376541
 20
8.304561045
 10
9.7315478192
 20
8.3073598995
 10
9.7046068572
 20
8.3087049291
 10
9.67815383
 20
8.3085941838
 10
9.6522270921
 20
8.3070278241
 10
9.6268642346
 20
8.3040081211
 10
9.6021020313
 20
8.299539453
 10
9.577976385
 20
8.2936282991
 10
9.5545222757
 20
8.2862832299
 10
9.5317737095
 20
8.277514895
 10
9.5097636696
 20
8.2673360077
 10
9.4911805188
 20
8.257309747
  0
LWPOLYLINE
  5
153
330
1F
100
AcDbEntity
  8
0
  6
Continuous
 62
     7
370
     0
100
AcDbPolyline
 90
       22
 70
   128
 43
0.0
 10
10.5910911247
 20
6.3520022498
 10
10.6040687925
 20
6.3598562678
 10
10.6240953553
 20
6.3734925475
 10
10.6432766825
 20
6.3884789253
 10
10.661584963
 20
6.4047936723
 10
10.6789936516
 20
6.4224131335
 10
10.6954775073
 20
6.4413117626
 10
10.7110126301
 20
6.4614621583
 10
10.7255764956
 20
6.4828351045
 10
10.7391479875
 20
6.5053996124
 10
10.7517074286
 20
6.5291229656
 10
10.7632366087
 20
6.5539707676
 10
10.7737188117
 20
6.5799069914
 10
10.7831388394
 20
6.606894032
 10
10.7914830337
 20
6.6348927607
 10
10.7987392963
 20
6.6638625821
 10
10.8048971063
 20
6.6937614927
 10
10.8099475354
 20
6.7245461419
 10
10.813883261
 20
6.756171895
 10
10.8166985767
 20
6.7885928975
 10
10.8183894006
 20
6.8217621423
 10
10.818953281
 20
6.8556315369
  0
LWPOLYLINE
  5
154
330
1F
100
AcDbEntity
  8
0
  6
Continuous
 62
     7
370
     0
100
AcDbPolyline
 90
      161
 70
   128
 43
0.0
 10
9.0407066463
 20
7.5719563857
 10
9.0412707825
 20
7.6048042081
 10
9.0429623214
 20
7.6369500437
 10
9.0457786546
 20
7.6683443259
 10
9.0497154396
 20
7.6989386471
 10
9.0547666062
 20
7.728685833
 10
9.0609243657
 20
7.7575400157
 10
9.0681792235
 20
7.785456704
 10
9.0765199931
 20
7.8123928524
 10
9.0859338135
 20
7.8383069275
 10
9.0964061693
 20
7.8631589715
 10
9.107920913
 20
7.8869106643
 10
9.1204602896
 20
7.9095253827
 10
9.1340049644
 20
7.9309682563
 10
9.1485340523
 20
7.9512062218
 10
9.1640251507
 20
7.9702080737
 10
9.1804543734
 20
7.9879445126
 10
9.1977963876
 20
8.0043881901
 10
9.2160244533
 20
8.0195137512
 10
9.2351104642
 20
8.0332978735
 10
9.2550249908
 20
8.0457193029
 10
9.2757373266
 20
8.0567588863
 10
9.2972155346
 20
8.0663996016
 10
9.319426497
 20
8.0746265835
 10
9.342335966
 20
8.0814271465
 10
9.3659086169
 20
8.0867908047
 10
9.3901081024
 20
8.0907092878
 10
9.4148971086
 20
8.0931765536
 10
9.4402374127
 20
8.0941887979
 10
9.4660899419
 20
8.0937444598
 10
9.4924148332
 20
8.0918442245
 10
9.5191714958
 20
8.088491022
 10
9.5463186727
 20
8.0836900227
 10
9.5738145049
 20
8.0774486294
 10
9.6016165959
 20
8.0697764659
 10
9.629682077
 20
8.060685362
 10
9.657967673
 20
8.0501893357
 10
9.6864297698
 20
8.038304571
 10
9.7150244807
 20
8.0250493934
 10
9.7437077149
 20
8.0104442413
 10
9.7724352449
 20
7.994511635
 10
9.8011627748
 20
7.9772761412
 10
9.829846009
 20
7.958764336
 10
9.85844072
 20
7.9390047631
 10
9.8869028168
 20
7.9180278903
 10
9.9151884128
 20
7.8958660626
 10
9.9432538938
 20
7.8725534518
 10
9.9710559849
 20
7.8481260043
 10
9.9985518171
 20
7.8226213854
 10
10.025698994
 20
7.7960789214
 10
10.0524556565
 20
7.7685395389
 10
10.0787805479
 20
7.7400457016
 10
10.104633077
 20
7.7106413449
 10
10.1299733812
 20
7.6803718082
 10
10.1547623874
 20
7.649283765
 10
10.1789618729
 20
7.6174251508
 10
10.2025345238
 20
7.5848450891
 10
10.2254439928
 20
7.5515938162
 10
10.2476549551
 20
7.5177226031
 10
10.2691331631
 20
7.4832836767
 10
10.2898454989
 20
7.4483301394
 10
10.3097600256
 20
7.4129158869
 10
10.3288460364
 20
7.3770955256
 10
10.3470741021
 20
7.3409242877
 10
10.3644161164
 20
7.3044579468
 10
10.380845339
 20
7.2677527312
 10
10.3963364374
 20
7.2308652378
 10
10.4108655254
 20
7.1938523444
 10
10.4244102001
 20
7.1567711222
 10
10.4369495768
 20
7.1196787477
 10
10.4484643205
 20
7.0826324148
 10
10.4589366763
 20
7.0456892461
 10
10.4683504967
 20
7.0089062054
 10
10.4766912662
 20
6.9723400094
 10
10.483946124
 20
6.9360470406
 10
10.4901038836
 20
6.90008326
 10
10.4951550502
 20
6.8645041213
 10
10.4990918352
 20
6.8293644849
 10
10.5019081684
 20
6.7947185336
 10
10.5035997072
 20
6.7606196888
 10
10.5041638435
 20
6.7271205286
 10
10.5035997072
 20
6.6942727063
 10
10.5019081684
 20
6.6621268707
 10
10.4990918352
 20
6.6307325885
 10
10.4951550502
 20
6.6001382673
 10
10.4901038836
 20
6.5703910813
 10
10.483946124
 20
6.5415368987
 10
10.4766912662
 20
6.5136202104
 10
10.4683504967
 20
6.4866840619
 10
10.4589366763
 20
6.4607699869
 10
10.4484643205
 20
6.4359179429
 10
10.4369495768
 20
6.41216625
 10
10.4244102001
 20
6.3895515316
 10
10.4108655254
 20
6.368108658
 10
10.3963364374
 20
6.3478706925
 10
10.380845339
 20
6.3288688406
 10
10.3644161164
 20
6.3111324018
 10
10.3470741021
 20
6.2946887243
 10
10.3288460364
 20
6.2795631631
 10
10.3097600256
 20
6.2657790408
 10
10.2898454989
 20
6.2533576115
 10
10.2691331631
 20
6.242318028
 10
10.2476549551
 20
6.2326773127
 10
10.2254439928
 20
6.2244503309
 10
10.2025345238
 20
6.2176497678
 10
10.1789618729
 20
6.2122861096
 10
10.1547623874
 20
6.2083676266
 10
10.1299733812
 20
6.2059003608
 10
10.104633077
 20
6.2048881165
 10
10.0787805479
 20
6.2053324546
 10
10.0524556565
 20
6.2072326899
 10
10.025698994
 20
6.2105858924
 10
9.9985518171
 20
6.2153868917
 10
9.9710559849
 20
6.221628285
 10
9.9432538938
 20
6.2293004485
 10
9.9151884128
 20
6.2383915523
 10
9.8869028168
 20
6.2488875787
 10
9.85844072
 20
6.2607723433
 10
9.829846009
 20
6.274027521
 10
9.8011627748
 20
6.288632673
 10
9.7724352449
 20
6.3045652794
 10
9.7437077149
 20
6.3218007731
 10
9.7150244807
 20
6.3403125784
 10
9.6864297698
 20
6.3600721513
 10
9.657967673
 20
6.381049024
 10
9.629682077
 20
6.4032108517
 10
9.6016165959
 20
6.4265234625
 10
9.5738145049
 20
6.4509509101
 10
9.5463186727
 20
6.476455529
 10
9.5191714958
 20
6.5029979929
 10
9.4924148332
 20
6.5305373755
 10
9.4660899419
 20
6.5590312128
 10
9.4402374127
 20
6.5884355694
 10
9.4148971086
 20
6.6187051061
 10
9.3901081024
 20
6.6497931493
 10
9.3659086169
 20
6.6816517636
 10
9.342335966
 20
6.7142318252
 10
9.319426497
 20
6.7474830981
 10
9.2972155346
 20
6.7813543113
 10
9.2757373266
 20
6.8157932376
 10
9.2550249908
 20
6.850746775
 10
9.2351104642
 20
6.8861610274
 10
9.2160244533
 20
6.9219813888
 10
9.1977963876
 20
6.9581526266
 10
9.1804543734
 20
6.9946189676
 10
9.1640251507
 20
7.0313241831
 10
9.1485340523
 20
7.0682116766
 10
9.1340049644
 20
7.10522457
 10
9.1204602896
 20
7.1423057922
 10
9.107920913
 20
7.1793981666
 10
9.0964061693
 20
7.2164444996
 10
9.0859338135
 20
7.2533876682
 10
9.0765199931
 20
7.290170709
 10
9.0681792235
 20
7.326736905
 10
9.0609243657
 20
7.3630298738
 10
9.0547666062
 20
7.3989936543
 10
9.0497154396
 20
7.434572793
 10
9.0457786546
 20
7.4697124294
 10
9.0429623214
 20
7.5043583808
 10
9.0412707825
 20
7.5384572255
 10
9.0407066463
 20
7.5719563857
  0
LWPOLYLINE
  5
155
330
1F
100
AcDbEntity
  8
0
  6
Continuous
 62
     7
370
     0
100
AcDbPolyline
 90
      160
 70
   128
 43
0.0
 10
9.0600251628
 20
7.5689681246
 10
9.060586855
 20
7.5358205833
 10
9.0622710546
 20
7.502076282
 10
9.0650751319
 20
7.4677879083
 10
9.0689947087
 20
7.4330089994
 10
9.0740236651
 20
7.3977938586
 10
9.0801541488
 20
7.3621974701
 10
9.0873765879
 20
7.3262754134
 10
9.0956797054
 20
7.2900837766
 10
9.105050537
 20
7.2536790685
 10
9.1154744512
 20
7.2171181308
 10
9.1269351724
 20
7.1804580492
 10
9.1394148059
 20
7.1437560638
 10
9.1528938663
 20
7.1070694807
 10
9.1673513077
 20
7.0704555814
 10
9.1827645564
 20
7.0339715342
 10
9.1991095466
 20
6.9976743048
 10
9.2163607574
 20
6.9616205667
 10
9.2344912532
 20
6.9258666138
 10
9.2534727252
 20
6.8904682715
 10
9.2732755363
 20
6.8554808102
 10
9.2938687666
 20
6.8209588587
 10
9.3152202623
 20
6.7869563188
 10
9.3372966856
 20
6.7535262814
 10
9.3600635667
 20
6.7207209437
 10
9.3834853579
 20
6.6885915273
 10
9.4075254888
 20
6.6571881984
 10
9.4321464235
 20
6.6265599896
 10
9.4573097195
 20
6.5967547232
 10
9.4829760873
 20
6.5678189367
 10
9.5091054518
 20
6.5397978097
 10
9.5356570151
 20
6.512735094
 10
9.5625893202
 20
6.4866730447
 10
9.5898603154
 20
6.4616523548
 10
9.6174274203
 20
6.437712091
 10
9.6452475921
 20
6.4148896331
 10
9.6732773931
 20
6.3932206158
 10
9.7014730578
 20
6.3727388727
 10
9.7297905622
 20
6.3534763835
 10
9.7581856919
 20
6.3354632244
 10
9.7866141112
 20
6.3187275207
 10
9.8150314325
 20
6.3032954033
 10
9.8433932856
 20
6.2891909676
 10
9.8716553867
 20
6.276436236
 10
9.899773608
 20
6.2650511235
 10
9.9277040462
 20
6.2550534066
 10
9.9554030912
 20
6.2464586955
 10
9.9828274942
 20
6.2392804099
 10
10.0099344354
 20
6.2335297578
 10
10.0366815904
 20
6.2292157182
 10
10.0630271968
 20
6.2263450269
 10
10.0889301189
 20
6.2249221662
 10
10.1143499125
 20
6.2249493577
 10
10.1392468876
 20
6.226426559
 10
10.1635821705
 20
6.2293514635
 10
10.1873177645
 20
6.2337195044
 10
10.2104166093
 20
6.2395238614
 10
10.2328426389
 20
6.2467554719
 10
10.2545608376
 20
6.2554030445
 10
10.2755372951
 20
6.265453077
 10
10.295739259
 20
6.2768898775
 10
10.3151351865
 20
6.2896955887
 10
10.3336947931
 20
6.3038502162
 10
10.3513891002
 20
6.3193316591
 10
10.3681904801
 20
6.336115745
 10
10.3840726997
 20
6.3541762675
 10
10.3990109606
 20
6.3734850272
 10
10.4129819385
 20
6.3940118759
 10
10.4259638194
 20
6.4157247633
 10
10.4379363337
 20
6.4385897873
 10
10.4488807876
 20
6.4625712469
 10
10.4587800928
 20
6.4876316978
 10
10.4676187926
 20
6.5137320112
 10
10.4753830864
 20
6.5408314345
 10
10.4820608513
 20
6.5688876552
 10
10.4876416606
 20
6.5978568668
 10
10.4921168007
 20
6.6276938373
 10
10.4954792841
 20
6.6583519799
 10
10.4977238607
 20
6.6897834255
 10
10.4988470258
 20
6.7219390976
 10
10.4988470258
 20
6.7547687889
 10
10.4977238607
 20
6.7882212399
 10
10.4954792841
 20
6.8222442185
 10
10.4921168007
 20
6.8567846017
 10
10.4876416606
 20
6.891788459
 10
10.4820608513
 20
6.9272011359
 10
10.4753830864
 20
6.9629673398
 10
10.4676187926
 20
6.9990312259
 10
10.4587800928
 20
7.0353364849
 10
10.4488807876
 20
7.0718264303
 10
10.4379363337
 20
7.1084440874
 10
10.4259638194
 20
7.1451322821
 10
10.4129819385
 20
7.1818337302
 10
10.3990109606
 20
7.2184911266
 10
10.3840726997
 20
7.2550472353
 10
10.3681904801
 20
7.2914449782
 10
10.3513891002
 20
7.3276275245
 10
10.3336947931
 20
7.3635383794
 10
10.3151351865
 20
7.3991214725
 10
10.295739259
 20
7.434321245
 10
10.2755372951
 20
7.4690827366
 10
10.2545608376
 20
7.5033516714
 10
10.2328426389
 20
7.5370745424
 10
10.2104166093
 20
7.5701986955
 10
10.1873177645
 20
7.6026724112
 10
10.1635821705
 20
7.6344449856
 10
10.1392468876
 20
7.6654668096
 10
10.1143499125
 20
7.6956894464
 10
10.0889301189
 20
7.7250657069
 10
10.0630271968
 20
7.7535497235
 10
10.0366815904
 20
7.7810970219
 10
10.0099344354
 20
7.8076645901
 10
9.9828274942
 20
7.8332109461
 10
9.9554030912
 20
7.8576962023
 10
9.9277040462
 20
7.8810821279
 10
9.899773608
 20
7.9033322085
 10
9.8716553867
 20
7.9244117033
 10
9.8433932856
 20
7.9442876991
 10
9.8150314325
 20
7.9629291619
 10
9.7866141112
 20
7.9803069853
 10
9.7581856919
 20
7.9963940359
 10
9.7297905622
 20
8.0111651956
 10
9.7014730578
 20
8.0245974011
 10
9.6732773931
 20
8.0366696796
 10
9.6452475921
 20
8.0473631816
 10
9.6174274203
 20
8.0566612105
 10
9.5898603154
 20
8.0645492485
 10
9.5625893202
 20
8.0710149794
 10
9.5356570151
 20
8.0760483077
 10
9.5091054518
 20
8.0796413745
 10
9.4829760873
 20
8.0817885696
 10
9.4573097195
 20
8.0824865404
 10
9.4321464235
 20
8.0817341972
 10
9.4075254888
 20
8.0795327146
 10
9.3834853579
 20
8.0758855301
 10
9.3600635667
 20
8.0707983381
 10
9.3372966856
 20
8.0642790818
 10
9.3152202623
 20
8.0563379402
 10
9.2938687666
 20
8.0469873125
 10
9.2732755363
 20
8.0362417986
 10
9.2534727252
 20
8.0241181763
 10
9.2344912532
 20
8.0106353752
 10
9.2163607574
 20
7.9958144471
 10
9.1991095466
 20
7.9796785331
 10
9.1827645564
 20
7.9622528276
 10
9.1673513077
 20
7.9435645387
 10
9.1528938663
 20
7.9236428459
 10
9.1394148059
 20
7.9025188546
 10
9.1269351724
 20
7.8802255474
 10
9.1154744512
 20
7.8567977328
 10
9.105050537
 20
7.8322719903
 10
9.0956797054
 20
7.8066866141
 10
9.0873765879
 20
7.7800815526
 10
9.0801541488
 20
7.7524983466
 10
9.0740236651
 20
7.723980064
 10
9.0689947087
 20
7.6945712325
 10
9.0650751319
 20
7.6643177708
 10
9.0622710546
 20
7.6332669158
 10
9.060586855
 20
7.6014671499
 10
9.0600251628
 20
7.5689681246
  0
ARC
  5
156
330
1F
100
AcDbEntity
  8
0
  6
Continuous
 62
     7
370
     0
100
AcDbCircle
 10
9.146912892
 20
6.7884320892
 30
0.0
 40
1.673737949627866
100
AcDbArc
 50
2.5807340673
 51
57.4138894
  0
LWPOLYLINE
  5
157
330
1F
100
AcDbEntity
  8
0
  6
Continuous
 62
     7
370
     0
100
AcDbPolyline
 90
       50
 70
   128
 43
0.0
 10
10.8454697853
 20
6.9382928582
 10
10.8449080931
 20
6.9714403995
 10
10.8432238935
 20
7.0051847009
 10
10.8404198162
 20
7.0394730746
 10
10.8365002394
 20
7.0742519834
 10
10.8314712831
 20
7.1094671242
 10
10.8253407994
 20
7.1450635128
 10
10.8181183603
 20
7.1809855695
 10
10.8098152428
 20
7.2171772063
 10
10.8004444112
 20
7.2535819144
 10
10.7900204969
 20
7.290142852
 10
10.7785597758
 20
7.3268029337
 10
10.7660801423
 20
7.363504919
 10
10.7526010819
 20
7.4001915022
 10
10.7381436405
 20
7.4368054015
 10
10.7227303917
 20
7.4732894486
 10
10.7063854016
 20
7.5095866781
 10
10.6891341908
 20
7.5456404161
 10
10.671003695
 20
7.5813943691
 10
10.6520222229
 20
7.6167927113
 10
10.6322194119
 20
7.6517801726
 10
10.6116261815
 20
7.6863021242
 10
10.5902746858
 20
7.7203046641
 10
10.5681982626
 20
7.7537347014
 10
10.5454313815
 20
7.7865400391
 10
10.5220095903
 20
7.8186694556
 10
10.4979694594
 20
7.8500727845
 10
10.4733485246
 20
7.8807009933
 10
10.4481852286
 20
7.9105062596
 10
10.4225188609
 20
7.9394420462
 10
10.3963894964
 20
7.9674631732
 10
10.3698379331
 20
7.9945258889
 10
10.342905628
 20
8.0205879381
 10
10.3156346328
 20
8.0456086281
 10
10.2880675279
 20
8.0695488919
 10
10.260247356
 20
8.0923713498
 10
10.2322175551
 20
8.1140403671
 10
10.2040218904
 20
8.1345221102
 10
10.1757043859
 20
8.1537845994
 10
10.1473092563
 20
8.1717977585
 10
10.118880837
 20
8.1885334622
 10
10.0904635157
 20
8.2039655796
 10
10.0621016626
 20
8.2180700153
 10
10.0338395615
 20
8.2308247469
 10
10.0057213402
 20
8.2422098594
 10
9.977790902
 20
8.2522075763
 10
9.950091857
 20
8.2608022873
 10
9.9226674539
 20
8.2679805729
 10
9.8955605128
 20
8.273731225
 10
9.8798772518
 20
8.2764282091
  0
ARC
  5
158
330
1F
100
AcDbEntity
  8
0
  6
Continuous
 62
     7
370
     0
100
AcDbCircle
 10
10.1208920733
 20
6.926447074
 30
0.0
 40
0.7246745362101578
100
AcDbArc
 50
340.0379154229
 51
0.9366186332
  0
LINE
  5
159
330
1F
100
AcDbEntity
  8
0
  6
Continuous
 62
     7
370
     0
100
AcDbLine
 10
7.102342002
 20
4.3234330014
 30
0.0
 11
7.102342002
 21
4.3144415774
 31
0.0
  0
LINE
  5
15A
330
1F
100
AcDbEntity
  8
0
  6
Continuous
 62
     7
370
     0
100
AcDbLine
 10
7.4094323362
 20
5.3090947697
 30
0.0
 11
7.3995898165
 21
5.3189372894
 31
0.0
  0
LINE
  5
15B
330
1F
100
AcDbEntity
  8
0
  6
Continuous
 62
     7
370
     0
100
AcDbLine
 10
7.3995898165
 20
3.3189372894
 30
0.0
 11
7.4094323362
 21
3.3287798091
 31
0.0
  0
ARC
  5
15C
330
1F
100
AcDbEntity
  8
0
  6
Continuous
 62
     7
370
     0
100
AcDbCircle
 10
9.818877435
 20
4.3234330014
 30
0.0
 40
2.716535433070866
100
AcDbArc
 50
158.7095217029
 51
180.0948213072
  0
LINE
  5
15D
330
1F
100
AcDbEntity
  8
0
  6
Continuous
 62
     7
370
     0
100
AcDbLine
 10
7.3011646197
 20
5.3189372894
 30
0.0
 11
7.2877412487
 21
5.3097972167
 31
0.0
  0
LINE
  5
15E
330
1F
100
AcDbEntity
  8
0
  6
Continuous
 62
     7
370
     0
100
AcDbLine
 10
7.3011646197
 20
5.3189372894
 30
0.0
 11
7.3995898165
 21
5.3189372894
 31
0.0
  0
LINE
  5
15F
330
1F
100
AcDbEntity
  8
0
  6
Continuous
 62
     7
370
     0
100
AcDbLine
 10
7.3995898165
 20
3.3189372894
 30
0.0
 11
7.3011646197
 21
3.3189372894
 31
0.0
  0
LINE
  5
160
330
1F
100
AcDbEntity
  8
0
  6
Continuous
 62
     7
370
     0
100
AcDbLine
 10
7.2877412487
 20
3.3280773622
 30
0.0
 11
7.3011646197
 21
3.3189372894
 31
0.0
  0
ARC
  5
161
330
1F
100
AcDbEntity
  8
0
  6
Continuous
 62
     7
370
     0
100
AcDbCircle
 10
9.818877435
 20
4.3144415774
 30
0.0
 40
2.716535433070866
100
AcDbArc
 50
179.9051786928
 51
201.2904782971
  0
LINE
  5
162
330
1F
100
AcDbEntity
  8
0
  6
Continuous
 62
     7
370
     0
100
AcDbLine
 10
7.4094323362
 20
5.3090947697
 30
0.0
 11
7.4094323362
 21
3.3287798091
 31
0.0
  0
LINE
  5
163
330
1F
100
AcDbEntity
  8
0
  6
Continuous
 62
     7
370
     0
100
AcDbLine
 10
7.2786937466
 20
5.3264372894
 30
0.0
 11
7.2613732385
 21
5.3364372894
 31
0.0
  0
LINE
  5
164
330
1F
100
AcDbEntity
  8
0
  6
Continuous
 62
     7
370
     0
100
AcDbLine
 10
7.2613732385
 20
3.3014372894
 30
0.0
 11
7.2786937466
 21
3.3114372894
 31
0.0
  0
LINE
  5
165
330
1F
100
AcDbEntity
  8
0
  6
Continuous
 62
     7
370
     0
100
AcDbLine
 10
7.2786937466
 20
3.3516167813
 30
0.0
 11
7.2686937466
 21
3.3689372894
 31
0.0
  0
LINE
  5
166
330
1F
100
AcDbEntity
  8
0
  6
Continuous
 62
     7
370
     0
100
AcDbLine
 10
7.2686937466
 20
3.3689372894
 30
0.0
 11
7.2686937466
 21
3.3784245294
 31
0.0
  0
LINE
  5
167
330
1F
100
AcDbEntity
  8
0
  6
Continuous
 62
     7
370
     0
100
AcDbLine
 10
7.2686937466
 20
5.2594500494
 30
0.0
 11
7.2686937466
 21
5.2689372894
 31
0.0
  0
LINE
  5
168
330
1F
100
AcDbEntity
  8
0
  6
Continuous
 62
     7
370
     0
100
AcDbLine
 10
7.2686937466
 20
5.2689372894
 30
0.0
 11
7.2786937466
 21
5.2862577975
 31
0.0
  0
LINE
  5
169
330
1F
100
AcDbEntity
  8
0
  6
Continuous
 62
     7
370
     0
100
AcDbLine
 10
7.1960142547
 20
5.2689372894
 30
0.0
 11
7.1960142547
 21
5.0306483124
 31
0.0
  0
LINE
  5
16A
330
1F
100
AcDbEntity
  8
0
  6
Continuous
 62
     7
370
     0
100
AcDbLine
 10
7.2686937466
 20
5.2689372894
 30
0.0
 11
7.1960142547
 21
5.2689372894
 31
0.0
  0
LINE
  5
16B
330
1F
100
AcDbEntity
  8
0
  6
Continuous
 62
     7
370
     0
100
AcDbLine
 10
7.1960142547
 20
3.3689372894
 30
0.0
 11
7.2686937466
 21
3.3689372894
 31
0.0
  0
LINE
  5
16C
330
1F
100
AcDbEntity
  8
0
  6
Continuous
 62
     7
370
     0
100
AcDbLine
 10
7.1960142547
 20
3.6072262665
 30
0.0
 11
7.1960142547
 21
3.3689372894
 31
0.0
  0
LINE
  5
16D
330
1F
100
AcDbEntity
  8
0
  6
Continuous
 62
     7
370
     0
100
AcDbLine
 10
7.1886937466
 20
5.3364372894
 30
0.0
 11
7.2613732385
 21
5.3364372894
 31
0.0
  0
LINE
  5
16E
330
1F
100
AcDbEntity
  8
0
  6
Continuous
 62
     7
370
     0
100
AcDbLine
 10
7.2613732385
 20
3.3014372894
 30
0.0
 11
7.1886937466
 21
3.3014372894
 31
0.0
  0
LINE
  5
16F
330
1F
100
AcDbEntity
  8
0
  6
Continuous
 62
     7
370
     0
100
AcDbLine
 10
7.1786937466
 20
3.3187577975
 30
0.0
 11
7.1886937466
 21
3.3014372894
 31
0.0
  0
LINE
  5
170
330
1F
100
AcDbEntity
  8
0
  6
Continuous
 62
     7
370
     0
100
AcDbLine
 10
7.1786937466
 20
3.3187577975
 30
0.0
 11
7.1786937466
 21
3.3589372894
 31
0.0
  0
LINE
  5
171
330
1F
100
AcDbEntity
  8
0
  6
Continuous
 62
     7
370
     0
100
AcDbLine
 10
7.1960142547
 20
3.3689372894
 30
0.0
 11
7.1786937466
 21
3.3589372894
 31
0.0
  0
LINE
  5
172
330
1F
100
AcDbEntity
  8
0
  6
Continuous
 62
     7
370
     0
100
AcDbLine
 10
7.2786937466
 20
3.3516167813
 30
0.0
 11
7.2786937466
 21
3.3114372894
 31
0.0
  0
LINE
  5
173
330
1F
100
AcDbEntity
  8
0
  6
Continuous
 62
     7
370
     0
100
AcDbLine
 10
7.1786937466
 20
5.2789372894
 30
0.0
 11
7.1960142547
 21
5.2689372894
 31
0.0
  0
LINE
  5
174
330
1F
100
AcDbEntity
  8
0
  6
Continuous
 62
     7
370
     0
100
AcDbLine
 10
7.1786937466
 20
5.2789372894
 30
0.0
 11
7.1786937466
 21
5.3191167813
 31
0.0
  0
LINE
  5
175
330
1F
100
AcDbEntity
  8
0
  6
Continuous
 62
     7
370
     0
100
AcDbLine
 10
7.1886937466
 20
5.3364372894
 30
0.0
 11
7.1786937466
 21
5.3191167813
 31
0.0
  0
LINE
  5
176
330
1F
100
AcDbEntity
  8
0
  6
Continuous
 62
     7
370
     0
100
AcDbLine
 10
7.2786937466
 20
5.3264372894
 30
0.0
 11
7.2786937466
 21
5.2862577975
 31
0.0
  0
LINE
  5
177
330
1F
100
AcDbEntity
  8
0
  6
Continuous
 62
     7
370
     0
100
AcDbLine
 10
7.1786937466
 20
4.9629600534
 30
0.0
 11
7.1786937466
 21
5.2789372894
 31
0.0
  0
LINE
  5
178
330
1F
100
AcDbEntity
  8
0
  6
Continuous
 62
     7
370
     0
100
AcDbLine
 10
7.1786937466
 20
3.3589372894
 30
0.0
 11
7.1786937466
 21
3.6749145254
 31
0.0
  0
LINE
  5
179
330
1F
100
AcDbEntity
  8
0
  6
Continuous
 62
     7
370
     0
100
AcDbLine
 10
7.0594323362
 20
3.3014372894
 30
0.0
 11
7.0494323362
 21
3.2841167813
 31
0.0
  0
LINE
  5
17A
330
1F
100
AcDbEntity
  8
0
  6
Continuous
 62
     7
370
     0
100
AcDbLine
 10
7.0594323362
 20
3.3014372894
 30
0.0
 11
7.3994323362
 21
3.3014372894
 31
0.0
  0
LINE
  5
17B
330
1F
100
AcDbEntity
  8
0
  6
Continuous
 62
     7
370
     0
100
AcDbLine
 10
7.3994323362
 20
3.3014372894
 30
0.0
 11
7.3994323362
 21
3.2914372894
 31
0.0
  0
LINE
  5
17C
330
1F
100
AcDbEntity
  8
0
  6
Continuous
 62
     7
370
     0
100
AcDbLine
 10
7.3994323362
 20
3.2914372894
 30
0.0
 11
7.4094323362
 21
3.2914372894
 31
0.0
  0
LINE
  5
17D
330
1F
100
AcDbEntity
  8
0
  6
Continuous
 62
     7
370
     0
100
AcDbLine
 10
7.4094323362
 20
3.2914372894
 30
0.0
 11
7.4094323362
 21
3.3689372894
 31
0.0
  0
LINE
  5
17E
330
1F
100
AcDbEntity
  8
0
  6
Continuous
 62
     7
370
     0
100
AcDbLine
 10
7.4094323362
 20
3.3689372894
 30
0.0
 11
7.5594323362
 21
3.3689372894
 31
0.0
  0
LINE
  5
17F
330
1F
100
AcDbEntity
  8
0
  6
Continuous
 62
     7
370
     0
100
AcDbLine
 10
7.5594323362
 20
3.3689372894
 30
0.0
 11
7.5594323362
 21
3.3187577975
 31
0.0
  0
LINE
  5
180
330
1F
100
AcDbEntity
  8
0
  6
Continuous
 62
     7
370
     0
100
AcDbLine
 10
7.5494323362
 20
3.3014372894
 30
0.0
 11
7.5594323362
 21
3.3187577975
 31
0.0
  0
LINE
  5
181
330
1F
100
AcDbEntity
  8
0
  6
Continuous
 62
     7
370
     0
100
AcDbLine
 10
7.5494323362
 20
3.3014372894
 30
0.0
 11
7.4494323362
 21
3.3014372894
 31
0.0
  0
LINE
  5
182
330
1F
100
AcDbEntity
  8
0
  6
Continuous
 62
     7
370
     0
100
AcDbLine
 10
7.4494323362
 20
3.3014372894
 30
0.0
 11
7.4494323362
 21
3.3114372894
 31
0.0
  0
LINE
  5
183
330
1F
100
AcDbEntity
  8
0
  6
Continuous
 62
     7
370
     0
100
AcDbLine
 10
7.4494323362
 20
3.3114372894
 30
0.0
 11
7.4394323362
 21
3.3114372894
 31
0.0
  0
LINE
  5
184
330
1F
100
AcDbEntity
  8
0
  6
Continuous
 62
     7
370
     0
100
AcDbLine
 10
7.4394323362
 20
3.3114372894
 30
0.0
 11
7.4394323362
 21
3.2289372894
 31
0.0
  0
LINE
  5
185
330
1F
100
AcDbEntity
  8
0
  6
Continuous
 62
     7
370
     0
100
AcDbLine
 10
7.4294323362
 20
3.2189372894
 30
0.0
 11
7.4394323362
 21
3.2289372894
 31
0.0
  0
LINE
  5
186
330
1F
100
AcDbEntity
  8
0
  6
Continuous
 62
     7
370
     0
100
AcDbLine
 10
7.4294323362
 20
3.2189372894
 30
0.0
 11
7.2844323362
 21
3.2189372894
 31
0.0
  0
LINE
  5
187
330
1F
100
AcDbEntity
  8
0
  6
Continuous
 62
     7
370
     0
100
AcDbLine
 10
7.2844323362
 20
3.2189372894
 30
0.0
 11
7.263912902
 21
3.2189372894
 31
0.0
  0
LINE
  5
188
330
1F
100
AcDbEntity
  8
0
  6
Continuous
 62
     7
370
     0
100
AcDbLine
 10
7.263912902
 20
3.2189372894
 30
0.0
 11
7.2406462155
 21
3.2189372894
 31
0.0
  0
LINE
  5
189
330
1F
100
AcDbEntity
  8
0
  6
Continuous
 62
     7
370
     0
100
AcDbLine
 10
7.2406462155
 20
3.2189372894
 30
0.0
 11
7.2106344835
 21
3.2189372894
 31
0.0
  0
LINE
  5
18A
330
1F
100
AcDbEntity
  8
0
  6
Continuous
 62
     7
370
     0
100
AcDbLine
 10
7.2106344835
 20
3.2189372894
 30
0.0
 11
7.0594323362
 21
3.2189372894
 31
0.0
  0
LINE
  5
18B
330
1F
100
AcDbEntity
  8
0
  6
Continuous
 62
     7
370
     0
100
AcDbLine
 10
7.0494323362
 20
3.2289372894
 30
0.0
 11
7.0594323362
 21
3.2189372894
 31
0.0
  0
LINE
  5
18C
330
1F
100
AcDbEntity
  8
0
  6
Continuous
 62
     7
370
     0
100
AcDbLine
 10
7.0494323362
 20
3.2289372894
 30
0.0
 11
7.0494323362
 21
3.2841167813
 31
0.0
  0
LINE
  5
18D
330
1F
100
AcDbEntity
  8
0
  6
Continuous
 62
     7
370
     0
100
AcDbLine
 10
7.2044323362
 20
5.4189372894
 30
0.0
 11
7.2136631055
 21
5.4189372894
 31
0.0
  0
LINE
  5
18E
330
1F
100
AcDbEntity
  8
0
  6
Continuous
 62
     7
370
     0
100
AcDbLine
 10
7.2136631055
 20
5.4189372894
 30
0.0
 11
7.2382784901
 21
5.4189372894
 31
0.0
  0
LINE
  5
18F
330
1F
100
AcDbEntity
  8
0
  6
Continuous
 62
     7
370
     0
100
AcDbLine
 10
7.2382784901
 20
5.4189372894
 30
0.0
 11
7.2475092593
 21
5.4189372894
 31
0.0
  0
LINE
  5
190
330
1F
100
AcDbEntity
  8
0
  6
Continuous
 62
     7
370
     0
100
AcDbLine
 10
7.2475092593
 20
5.4189372894
 30
0.0
 11
7.275201567
 21
5.4189372894
 31
0.0
  0
LINE
  5
191
330
1F
100
AcDbEntity
  8
0
  6
Continuous
 62
     7
370
     0
100
AcDbLine
 10
7.275201567
 20
5.4189372894
 30
0.0
 11
7.2844323362
 21
5.4189372894
 31
0.0
  0
LINE
  5
192
330
1F
100
AcDbEntity
  8
0
  6
Continuous
 62
     7
370
     0
100
AcDbLine
 10
7.2844323362
 20
5.4189372894
 30
0.0
 11
7.3393711815
 21
5.4189372894
 31
0.0
  0
LINE
  5
193
330
1F
100
AcDbEntity
  8
0
  6
Continuous
 62
     7
370
     0
100
AcDbLine
 10
7.3393711815
 20
5.4189372894
 30
0.0
 11
7.3606739214
 21
5.4189372894
 31
0.0
  0
LINE
  5
194
330
1F
100
AcDbEntity
  8
0
  6
Continuous
 62
     7
370
     0
100
AcDbLine
 10
7.3606739214
 20
5.4189372894
 30
0.0
 11
7.4294323362
 21
5.4189372894
 31
0.0
  0
LINE
  5
195
330
1F
100
AcDbEntity
  8
0
  6
Continuous
 62
     7
370
     0
100
AcDbLine
 10
7.4394323362
 20
5.4089372894
 30
0.0
 11
7.4294323362
 21
5.4189372894
 31
0.0
  0
LINE
  5
196
330
1F
100
AcDbEntity
  8
0
  6
Continuous
 62
     7
370
     0
100
AcDbLine
 10
7.4394323362
 20
5.4089372894
 30
0.0
 11
7.4394323362
 21
5.3264372894
 31
0.0
  0
LINE
  5
197
330
1F
100
AcDbEntity
  8
0
  6
Continuous
 62
     7
370
     0
100
AcDbLine
 10
7.4394323362
 20
5.3264372894
 30
0.0
 11
7.4494323362
 21
5.3264372894
 31
0.0
  0
LINE
  5
198
330
1F
100
AcDbEntity
  8
0
  6
Continuous
 62
     7
370
     0
100
AcDbLine
 10
7.4494323362
 20
5.3264372894
 30
0.0
 11
7.4494323362
 21
5.3364372894
 31
0.0
  0
LINE
  5
199
330
1F
100
AcDbEntity
  8
0
  6
Continuous
 62
     7
370
     0
100
AcDbLine
 10
7.4494323362
 20
5.3364372894
 30
0.0
 11
7.5494323362
 21
5.3364372894
 31
0.0
  0
LINE
  5
19A
330
1F
100
AcDbEntity
  8
0
  6
Continuous
 62
     7
370
     0
100
AcDbLine
 10
7.5594323362
 20
5.3191167813
 30
0.0
 11
7.5494323362
 21
5.3364372894
 31
0.0
  0
LINE
  5
19B
330
1F
100
AcDbEntity
  8
0
  6
Continuous
 62
     7
370
     0
100
AcDbLine
 10
7.5594323362
 20
5.3191167813
 30
0.0
 11
7.5594323362
 21
5.2689372894
 31
0.0
  0
LINE
  5
19C
330
1F
100
AcDbEntity
  8
0
  6
Continuous
 62
     7
370
     0
100
AcDbLine
 10
7.5594323362
 20
5.2689372894
 30
0.0
 11
7.4094323362
 21
5.2689372894
 31
0.0
  0
LINE
  5
19D
330
1F
100
AcDbEntity
  8
0
  6
Continuous
 62
     7
370
     0
100
AcDbLine
 10
7.4094323362
 20
5.2689372894
 30
0.0
 11
7.4094323362
 21
5.3464372894
 31
0.0
  0
LINE
  5
19E
330
1F
100
AcDbEntity
  8
0
  6
Continuous
 62
     7
370
     0
100
AcDbLine
 10
7.4094323362
 20
5.3464372894
 30
0.0
 11
7.3994323362
 21
5.3464372894
 31
0.0
  0
LINE
  5
19F
330
1F
100
AcDbEntity
  8
0
  6
Continuous
 62
     7
370
     0
100
AcDbLine
 10
7.3994323362
 20
5.3464372894
 30
0.0
 11
7.3994323362
 21
5.3364372894
 31
0.0
  0
LINE
  5
1A0
330
1F
100
AcDbEntity
  8
0
  6
Continuous
 62
     7
370
     0
100
AcDbLine
 10
7.3994323362
 20
5.3364372894
 30
0.0
 11
7.0594323362
 21
5.3364372894
 31
0.0
  0
LINE
  5
1A1
330
1F
100
AcDbEntity
  8
0
  6
Continuous
 62
     7
370
     0
100
AcDbLine
 10
7.0494323362
 20
5.3537577975
 30
0.0
 11
7.0594323362
 21
5.3364372894
 31
0.0
  0
LINE
  5
1A2
330
1F
100
AcDbEntity
  8
0
  6
Continuous
 62
     7
370
     0
100
AcDbLine
 10
7.0494323362
 20
5.3537577975
 30
0.0
 11
7.0494323362
 21
5.4089372894
 31
0.0
  0
LINE
  5
1A3
330
1F
100
AcDbEntity
  8
0
  6
Continuous
 62
     7
370
     0
100
AcDbLine
 10
7.0594323362
 20
5.4189372894
 30
0.0
 11
7.0494323362
 21
5.4089372894
 31
0.0
  0
LINE
  5
1A4
330
1F
100
AcDbEntity
  8
0
  6
Continuous
 62
     7
370
     0
100
AcDbLine
 10
7.0594323362
 20
5.4189372894
 30
0.0
 11
7.2044323362
 21
5.4189372894
 31
0.0
  0
LINE
  5
1A5
330
1F
100
AcDbEntity
  8
0
  6
Continuous
 62
     7
370
     0
100
AcDbLine
 10
7.5594323362
 20
3.3689372894
 30
0.0
 11
7.5594323362
 21
5.2689372894
 31
0.0
  0
LINE
  5
1A6
330
1F
100
AcDbEntity
  8
0
  6
Continuous
 62
     7
370
     0
100
AcDbLine
 10
7.0594323362
 20
5.3364372894
 30
0.0
 11
7.0594323362
 21
3.3014372894
 31
0.0
  0
LINE
  5
1A7
330
1F
100
AcDbEntity
  8
0
  6
Continuous
 62
     7
370
     0
100
AcDbLine
 10
7.3994323362
 20
3.3014372894
 30
0.0
 11
7.3994323362
 21
3.3189372894
 31
0.0
  0
LINE
  5
1A8
330
1F
100
AcDbEntity
  8
0
  6
Continuous
 62
     7
370
     0
100
AcDbLine
 10
7.3994323362
 20
5.3189372894
 30
0.0
 11
7.3994323362
 21
5.3364372894
 31
0.0
  0
LINE
  5
1A9
330
1F
100
AcDbEntity
  8
0
  6
Continuous
 62
     7
370
     0
100
AcDbLine
 10
7.0494323362
 20
3.2841167813
 30
0.0
 11
7.0494323362
 21
5.3537577975
 31
0.0
  0
HATCH
  5
1AA
330
1F
100
AcDbEntity
  8
0
  6
Continuous
 62
     7
370
     0
100
AcDbHatch
 10
0.0
 20
0.0
 30
0.0
210
0.0
220
0.0
230
1.0
  2
ANSI31
 70
     0
 71
     0
 91
        1
 92
        0
 93
       24
 72
     1
 10
7.204432336226961
 20
5.418937289423173
 11
7.05943233622696
 21
5.418937289423173
 72
     1
 10
7.05943233622696
 20
5.418937289423173
 11
7.049432336226961
 21
5.408937289423173
 72
     1
 10
7.049432336226961
 20
5.408937289423173
 11
7.049432336226961
 21
5.353757797498861
 72
     1
 10
7.049432336226961
 20
5.353757797498861
 11
7.059432336226961
 21
5.336437289423173
 72
     1
 10
7.059432336226961
 20
5.336437289423173
 11
7.399432336226961
 21
5.336437289423173
 72
     1
 10
7.399432336226961
 20
5.336437289423173
 11
7.399432336226961
 21
5.346437289423172
 72
     1
 10
7.399432336226961
 20
5.346437289423172
 11
7.409432336226962
 21
5.346437289423172
 72
     1
 10
7.409432336226962
 20
5.346437289423172
 11
7.409432336226962
 21
5.268937289423174
 72
     1
 10
7.409432336226962
 20
5.268937289423174
 11
7.559432336226962
 21
5.268937289423174
 72
     1
 10
7.559432336226962
 20
5.268937289423174
 11
7.559432336226962
 21
5.319116781347484
 72
     1
 10
7.559432336226962
 20
5.319116781347484
 11
7.549432336226961
 21
5.336437289423173
 72
     1
 10
7.549432336226961
 20
5.336437289423173
 11
7.449432336226961
 21
5.336437289423173
 72
     1
 10
7.449432336226961
 20
5.336437289423173
 11
7.449432336226961
 21
5.326437289423173
 72
     1
 10
7.449432336226961
 20
5.326437289423173
 11
7.439432336226961
 21
5.326437289423173
 72
     1
 10
7.439432336226961
 20
5.326437289423173
 11
7.439432336226961
 21
5.408937289423173
 72
     1
 10
7.439432336226961
 20
5.408937289423173
 11
7.429432336226962
 21
5.418937289423173
 72
     1
 10
7.429432336226962
 20
5.418937289423173
 11
7.360673921425485
 21
5.418937289423173
 72
     1
 10
7.360673921425485
 20
5.418937289423173
 11
7.339371181523248
 21
5.418937289423173
 72
     1
 10
7.339371181523248
 20
5.418937289423173
 11
7.284432336226961
 21
5.418937289423173
 72
     1
 10
7.284432336226961
 20
5.418937289423173
 11
7.275201566996191
 21
5.418937289423173
 72
     1
 10
7.275201566996191
 20
5.418937289423173
 11
7.247509259303884
 21
5.418937289423173
 72
     1
 10
7.247509259303884
 20
5.418937289423173
 11
7.238278490073115
 21
5.418937289423173
 72
     1
 10
7.238278490073115
 20
5.418937289423173
 11
7.21366310545773
 21
5.418937289423173
 72
     1
 10
7.21366310545773
 20
5.418937289423173
 11
7.204432336226961
 21
5.418937289423173
 97
        0
 75
     0
 76
     1
 52
0.0
 41
1.0
 77
     0
 78
     1
 53
45.0
 43
0.0
 44
0.0
 45
-0.0883883476483184
 46
0.0883883476483184
 79
     0
 98
        1
 10
0.0
 20
0.0
  0
HATCH
  5
1AB
330
1F
100
AcDbEntity
  8
0
  6
Continuous
 62
     7
370
     0
100
AcDbHatch
 10
0.0
 20
0.0
 30
0.0
210
0.0
220
0.0
230
1.0
  2
ANSI31
 70
     0
 71
     0
 91
        1
 92
        0
 93
       20
 72
     1
 10
7.049432336226961
 20
3.284116781347484
 11
7.049432336226961
 21
3.228937289423172
 72
     1
 10
7.049432336226961
 20
3.228937289423172
 11
7.05943233622696
 21
3.218937289423173
 72
     1
 10
7.05943233622696
 20
3.218937289423173
 11
7.210634483451499
 21
3.218937289423173
 72
     1
 10
7.210634483451499
 20
3.218937289423173
 11
7.240646215518939
 21
3.218937289423173
 72
     1
 10
7.240646215518939
 20
3.218937289423173
 11
7.263912901957553
 21
3.218937289423173
 72
     1
 10
7.263912901957553
 20
3.218937289423173
 11
7.284432336226961
 21
3.218937289423173
 72
     1
 10
7.284432336226961
 20
3.218937289423173
 11
7.429432336226962
 21
3.218937289423172
 72
     1
 10
7.429432336226962
 20
3.218937289423172
 11
7.439432336226961
 21
3.228937289423172
 72
     1
 10
7.439432336226961
 20
3.228937289423172
 11
7.439432336226961
 21
3.311437289423173
 72
     1
 10
7.439432336226961
 20
3.311437289423173
 11
7.449432336226961
 21
3.311437289423173
 72
     1
 10
7.449432336226961
 20
3.311437289423173
 11
7.449432336226961
 21
3.301437289423173
 72
     1
 10
7.449432336226961
 20
3.301437289423173
 11
7.549432336226961
 21
3.301437289423173
 72
     1
 10
7.549432336226961
 20
3.301437289423173
 11
7.559432336226962
 21
3.318757797498862
 72
     1
 10
7.559432336226962
 20
3.318757797498862
 11
7.559432336226962
 21
3.368937289423173
 72
     1
 10
7.559432336226962
 20
3.368937289423173
 11
7.409432336226962
 21
3.368937289423173
 72
     1
 10
7.409432336226962
 20
3.368937289423173
 11
7.409432336226962
 21
3.291437289423173
 72
     1
 10
7.409432336226962
 20
3.291437289423173
 11
7.399432336226961
 21
3.291437289423173
 72
     1
 10
7.399432336226961
 20
3.291437289423173
 11
7.399432336226961
 21
3.301437289423173
 72
     1
 10
7.399432336226961
 20
3.301437289423173
 11
7.059432336226961
 21
3.301437289423173
 72
     1
 10
7.059432336226961
 20
3.301437289423173
 11
7.049432336226961
 21
3.284116781347484
 97
        0
 75
     0
 76
     1
 52
0.0
 41
1.0
 77
     0
 78
     1
 53
45.0
 43
0.0
 44
0.0
 45
-0.0883883476483184
 46
0.0883883476483184
 79
     0
 98
        1
 10
0.0
 20
0.0
  0
HATCH
  5
1AC
330
1F
100
AcDbEntity
  8
0
  6
Continuous
 62
     7
370
     0
100
AcDbHatch
 10
0.0
 20
0.0
 30
0.0
210
0.0
220
0.0
230
1.0
  2
ANSI31
 70
     0
 71
     0
 91
        1
 92
        0
 93
        8
 72
     1
 10
7.278693746574818
 20
3.311437289423173
 11
7.278693746574818
 21
3.351616781347484
 72
     1
 10
7.278693746574818
 20
3.351616781347484
 11
7.268693746574819
 21
3.368937289423173
 72
     1
 10
7.268693746574819
 20
3.368937289423173
 11
7.196014254650509
 21
3.368937289423173
 72
     1
 10
7.196014254650509
 20
3.368937289423173
 11
7.178693746574818
 21
3.358937289423172
 72
     1
 10
7.178693746574818
 20
3.358937289423172
 11
7.178693746574818
 21
3.318757797498861
 72
     1
 10
7.178693746574818
 20
3.318757797498861
 11
7.188693746574817
 21
3.301437289423173
 72
     1
 10
7.188693746574817
 20
3.301437289423173
 11
7.261373238499129
 21
3.301437289423173
 72
     1
 10
7.261373238499129
 20
3.301437289423173
 11
7.278693746574818
 21
3.311437289423173
 97
        0
 75
     0
 76
     1
 52
90.0
 41
0.25
 77
     0
 78
     1
 53
135.0000000000002
 43
0.0
 44
0.0
 45
-0.0220970869120795
 46
-0.0220970869120797
 79
     0
 98
        1
 10
0.0
 20
0.0
  0
HATCH
  5
1AD
330
1F
100
AcDbEntity
  8
0
  6
Continuous
 62
     7
370
     0
100
AcDbHatch
 10
0.0
 20
0.0
 30
0.0
210
0.0
220
0.0
230
1.0
  2
ANSI31
 70
     0
 71
     0
 91
        1
 92
        0
 93
        8
 72
     1
 10
7.196014254650509
 20
5.268937289423174
 11
7.268693746574819
 21
5.268937289423174
 72
     1
 10
7.268693746574819
 20
5.268937289423174
 11
7.278693746574818
 21
5.286257797498862
 72
     1
 10
7.278693746574818
 20
5.286257797498862
 11
7.278693746574818
 21
5.326437289423173
 72
     1
 10
7.278693746574818
 20
5.326437289423173
 11
7.261373238499129
 21
5.336437289423173
 72
     1
 10
7.261373238499129
 20
5.336437289423173
 11
7.188693746574817
 21
5.336437289423173
 72
     1
 10
7.188693746574817
 20
5.336437289423173
 11
7.178693746574818
 21
5.319116781347485
 72
     1
 10
7.178693746574818
 20
5.319116781347485
 11
7.178693746574818
 21
5.278937289423173
 72
     1
 10
7.178693746574818
 20
5.278937289423173
 11
7.196014254650509
 21
5.268937289423174
 97
        0
 75
     0
 76
     1
 52
90.0
 41
0.25
 77
     0
 78
     1
 53
135.0000000000002
 43
0.0
 44
0.0
 45
-0.0220970869120795
 46
-0.0220970869120797
 79
     0
 98
        1
 10
0.0
 20
0.0
  0
HATCH
  5
1AE
330
1F
100
AcDbEntity
  8
0
  6
Continuous
 62
     7
370
     0
100
AcDbHatch
 10
0.0
 20
0.0
 30
0.0
210
0.0
220
0.0
230
1.0
  2
ANSI31
 70
     0
 71
     0
 91
        1
 92
        0
 93
        9
 72
     2
 10
9.818877435047925
 20
4.31444157742654
 40
2.716535433070867
 50
179.9051786927723
 51
201.2904782971101
 73
     1
 72
     1
 10
7.287741248677389
 20
3.328077362151505
 11
7.301164619691546
 21
3.318937289423173
 72
     1
 10
7.301164619691546
 20
3.318937289423173
 11
7.399589816541922
 21
3.318937289423173
 72
     1
 10
7.399589816541922
 20
3.318937289423173
 11
7.409432336226962
 21
3.328779809108213
 72
     1
 10
7.409432336226962
 20
3.328779809108213
 11
7.409432336226962
 21
5.309094769738133
 72
     1
 10
7.409432336226962
 20
5.309094769738133
 11
7.399589816541922
 21
5.318937289423173
 72
     1
 10
7.399589816541922
 20
5.318937289423173
 11
7.301164619691546
 21
5.318937289423173
 72
     1
 10
7.301164619691546
 20
5.318937289423173
 11
7.287741248677389
 21
5.309797216694841
 72
     2
 10
9.818877435047925
 20
4.323433001419806
 40
2.716535433070867
 50
158.7095217028908
 51
180.0948213072286
 73
     1
 97
        0
 75
     0
 76
     1
 52
0.0
 41
1.0
 77
     0
 78
     1
 53
45.0
 43
0.0
 44
0.0
 45
-0.0883883476483184
 46
0.0883883476483184
 79
     0
 98
        1
 10
0.0
 20
0.0
  0
DIMENSION
  5
1AF
330
1F
100
AcDbEntity
  8
0
  6
Continuous
 62
     7
370
     0
100
AcDbDimension
  2
_D_1
 10
7.5594323362
 20
5.9611290323
 30
0.0
 11
8.325316201
 21
5.9611290323
 31
0.0
 70
   160
  1
<>
 71
     2
 42
-1.0
  3
SLDDIMSTYLE1
100
AcDbAlignedDimension
 13
7.0494323362
 23
5.4089372894
 33
0.0
 14
7.5594323362
 24
5.3191167813
 34
0.0
100
AcDbRotatedDimension
  0
DIMENSION
  5
1C4
330
1F
100
AcDbEntity
  8
0
  6
Continuous
 62
     7
370
     0
100
AcDbDimension
  2
_D_2
 10
8.325316201
 20
3.3689372894
 30
0.0
 11
8.325316201
 21
4.3189372894
 31
0.0
 70
   160
  1
%%c<>
 71
     2
 42
-1.0
  3
SLDDIMSTYLE2
100
AcDbAlignedDimension
 13
7.5594323362
 23
5.2689372894
 33
0.0
 14
7.5594323362
 24
3.3689372894
 34
0.0
 50
90.0
100
AcDbRotatedDimension
  0
DIMENSION
  5
1D8
330
1F
100
AcDbEntity
  8
0
  6
Continuous
 62
     7
370
     0
100
AcDbDimension
  2
_D_3
 10
7.5594323362
 20
5.5344720565
 30
0.0
 11
8.325316201
 21
5.5344720565
 31
0.0
 70
   160
  1
<>
 71
     2
 42
-1.0
  3
SLDDIMSTYLE1
100
AcDbAlignedDimension
 13
7.4394323362
 23
5.4089372894
 33
0.0
 14
7.5594323362
 24
5.3191167813
 34
0.0
100
AcDbRotatedDimension
  0
INSERT
  5
1F3
102
{ACAD_REACTORS
330
1F5
102
}
330
1F
100
AcDbEntity
  8
0
  6
Continuous
 62
     7
370
     0
100
AcDbBlockReference
  2
SW_NOTE_5
 10
6.4126105358
 20
3.6829517265
 30
0.0
  0
LEADER
  5
1F5
330
1F
100
AcDbEntity
  8
0
  6
Continuous
 62
     7
370
     0
100
AcDbLeader
  3
SLDDIMSTYLE3
 73
     2
 76
     3
 10
7.1053875001
 20
3.3014372894
 30
0.0
 10
6.6626105358
 20
3.6829517265
 30
0.0
 10
6.4126105358
 20
3.6829517265
 30
0.0
340
1F3
  0
INSERT
  5
1FC
102
{ACAD_REACTORS
330
1FD
102
}
330
1F
100
AcDbEntity
  8
0
  6
Continuous
 62
     7
370
     0
100
AcDbBlockReference
  2
SW_NOTE_6
 10
8.3911954188
 20
2.6131990819
 30
0.0
  0
LEADER
  5
1FD
330
1F
100
AcDbEntity
  8
0
  6
Continuous
 62
     7
370
     0
100
AcDbLeader
  3
SLDDIMSTYLE3
 73
     2
 76
     3
 10
7.485264969
 20
3.3014372894
 30
0.0
 10
8.1411954188
 20
2.6131990819
 30
0.0
 10
8.3911954188
 20
2.6131990819
 30
0.0
340
1FC
  0
INSERT
  5
203
102
{ACAD_REACTORS
330
204
102
}
330
1F
100
AcDbEntity
  8
0
  6
Continuous
 62
     7
370
     0
100
AcDbBlockReference
  2
SW_NOTE_7
 10
6.4174077768
 20
4.1504135847
 30
0.0
  0
LEADER
  5
204
330
1F
100
AcDbEntity
  8
0
  6
Continuous
 62
     7
370
     0
100
AcDbLeader
  3
SLDDIMSTYLE3
 73
     2
 76
     3
 10
7.1786937466
 20
3.5192691691
 30
0.0
 10
6.6634707689
 20
4.1504135847
 30
0.0
 10
6.4174077768
 20
4.1504135847
 30
0.0
340
203
  0
INSERT
  5
20A
102
{ACAD_REACTORS
330
20B
102
}
330
1F
100
AcDbEntity
  8
0
  6
Continuous
 62
     7
370
     0
100
AcDbBlockReference
  2
SW_NOTE_8
 10
6.576478802
 20
2.6710530502
 30
0.0
  0
LEADER
  5
20B
330
1F
100
AcDbEntity
  8
0
  6
Continuous
 62
     7
370
     0
100
AcDbLeader
  3
SLDDIMSTYLE3
 73
     2
 76
     3
 10
7.2027555313
 20
3.2189372894
 30
0.0
 10
6.8225417941
 20
2.6710530502
 30
0.0
 10
6.576478802
 20
2.6710530502
 30
0.0
340
20A
  0
INSERT
  5
211
102
{ACAD_REACTORS
330
212
102
}
330
1F
100
AcDbEntity
  8
0
  6
Continuous
 62
     7
370
     0
100
AcDbBlockReference
  2
SW_NOTE_9
 10
8.2290568697
 20
3.01703253
 30
0.0
  0
LEADER
  5
212
330
1F
100
AcDbEntity
  8
0
  6
Continuous
 62
     7
370
     0
100
AcDbLeader
  3
SLDDIMSTYLE3
 73
     2
 76
     3
 10
7.4094323362
 20
3.5638634806
 30
0.0
 10
7.9829938776
 20
3.01703253
 30
0.0
 10
8.2290568697
 20
3.01703253
 30
0.0
340
211
  0
OLE2FRAME
  5
213
330
1F
100
AcDbEntity
  8
0
100
AcDbOle2Frame
 70
     2
  3
Paintbrush Picture
 10
9.0178120406
 20
1.3267570784
 30
0.0
 11
10.4397105087
 21
1.1242314806
 31
0.0
 71
     2
 72
     0
 73
     1
 90
     7296
310
8055C64EE7A81E092240C05F59A1653AF53F0000000000000000FD155DBC21E1
310
2440C05F59A1653AF53F0000000000000000FD155DBC21E12440A1732426DAFC
310
F13F0000000000000000C64EE7A81E092240A1732426DAFCF13F000000000000
310
00000000000001000000000100000100000001000000000001000000001C0000
310
D0CF11E0A1B11AE1000000000000000000000000000000003E000300FEFF0900
310
0600000000000000000000000100000001000000000000000010000002000000
310
01000000FEFFFFFF0000000000000000FFFFFFFFFFFFFFFFFFFFFFFFFFFFFFFF
310
FFFFFFFFFFFFFFFFFFFFFFFFFFFFFFFFFFFFFFFFFFFFFFFFFFFFFFFFFFFFFFFF
310
FFFFFFFFFFFFFFFFFFFFFFFFFFFFFFFFFFFFFFFFFFFFFFFFFFFFFFFFFFFFFFFF
310
FFFFFFFFFFFFFFFFFFFFFFFFFFFFFFFFFFFFFFFFFFFFFFFFFFFFFFFFFFFFFFFF
310
FFFFFFFFFFFFFFFFFFFFFFFFFFFFFFFFFFFFFFFFFFFFFFFFFFFFFFFFFFFFFFFF
310
FFFFFFFFFFFFFFFFFFFFFFFFFFFFFFFFFFFFFFFFFFFFFFFFFFFFFFFFFFFFFFFF
310
FFFFFFFFFFFFFFFFFFFFFFFFFFFFFFFFFFFFFFFFFFFFFFFFFFFFFFFFFFFFFFFF
310
FFFFFFFFFFFFFFFFFFFFFFFFFFFFFFFFFFFFFFFFFFFFFFFFFFFFFFFFFFFFFFFF
310
FFFFFFFFFFFFFFFFFFFFFFFFFFFFFFFFFFFFFFFFFFFFFFFFFFFFFFFFFFFFFFFF
310
FFFFFFFFFFFFFFFFFFFFFFFFFFFFFFFFFFFFFFFFFFFFFFFFFFFFFFFFFFFFFFFF
310
FFFFFFFFFFFFFFFFFFFFFFFFFFFFFFFFFFFFFFFFFFFFFFFFFFFFFFFFFFFFFFFF
310
FFFFFFFFFFFFFFFFFFFFFFFFFFFFFFFFFFFFFFFFFFFFFFFFFFFFFFFFFFFFFFFF
310
FFFFFFFFFFFFFFFFFFFFFFFFFFFFFFFFFFFFFFFFFFFFFFFFFFFFFFFFFFFFFFFF
310
FFFFFFFFFFFFFFFFFFFFFFFFFFFFFFFFFFFFFFFFFFFFFFFFFFFFFFFFFFFFFFFF
310
FDFFFFFFFEFFFFFFFEFFFFFFFEFFFFFF05000000060000000700000008000000
310
090000000A0000000B0000000C000000FEFFFFFFFFFFFFFFFFFFFFFFFFFFFFFF
310
FFFFFFFFFFFFFFFFFFFFFFFFFFFFFFFFFFFFFFFFFFFFFFFFFFFFFFFFFFFFFFFF
310
FFFFFFFFFFFFFFFFFFFFFFFFFFFFFFFFFFFFFFFFFFFFFFFFFFFFFFFFFFFFFFFF
310
FFFFFFFFFFFFFFFFFFFFFFFFFFFFFFFFFFFFFFFFFFFFFFFFFFFFFFFFFFFFFFFF
310
FFFFFFFFFFFFFFFFFFFFFFFFFFFFFFFFFFFFFFFFFFFFFFFFFFFFFFFFFFFFFFFF
310
FFFFFFFFFFFFFFFFFFFFFFFFFFFFFFFFFFFFFFFFFFFFFFFFFFFFFFFFFFFFFFFF
310
FFFFFFFFFFFFFFFFFFFFFFFFFFFFFFFFFFFFFFFFFFFFFFFFFFFFFFFFFFFFFFFF
310
FFFFFFFFFFFFFFFFFFFFFFFFFFFFFFFFFFFFFFFFFFFFFFFFFFFFFFFFFFFFFFFF
310
FFFFFFFFFFFFFFFFFFFFFFFFFFFFFFFFFFFFFFFFFFFFFFFFFFFFFFFFFFFFFFFF
310
FFFFFFFFFFFFFFFFFFFFFFFFFFFFFFFFFFFFFFFFFFFFFFFFFFFFFFFFFFFFFFFF
310
FFFFFFFFFFFFFFFFFFFFFFFFFFFFFFFFFFFFFFFFFFFFFFFFFFFFFFFFFFFFFFFF
310
FFFFFFFFFFFFFFFFFFFFFFFFFFFFFFFFFFFFFFFFFFFFFFFFFFFFFFFFFFFFFFFF
310
FFFFFFFFFFFFFFFFFFFFFFFFFFFFFFFFFFFFFFFFFFFFFFFFFFFFFFFFFFFFFFFF
310
FFFFFFFFFFFFFFFFFFFFFFFFFFFFFFFFFFFFFFFFFFFFFFFFFFFFFFFFFFFFFFFF
310
FFFFFFFFFFFFFFFFFFFFFFFFFFFFFFFFFFFFFFFFFFFFFFFFFFFFFFFFFFFFFFFF
310
52006F006F007400200045006E00740072007900000000000000000000000000
310
0000000000000000000000000000000000000000000000000000000000000000
310
16000500FFFFFFFFFFFFFFFF020000000A00030000000000C000000000000046
310
000000000000000000000000A0D0FE609062D10103000000C000000000000000
310
01004F006C006500000000000000000000000000000000000000000000000000
310
0000000000000000000000000000000000000000000000000000000000000000
310
0A000200FFFFFFFFFFFFFFFFFFFFFFFF00000000000000000000000000000000
310
0000000000000000000000000000000000000000000000001400000000000000
310
010043006F006D0070004F0062006A0000000000000000000000000000000000
310
0000000000000000000000000000000000000000000000000000000000000000
310
120002010100000003000000FFFFFFFF00000000000000000000000000000000
310
0000000000000000000000000000000000000000010000004D00000000000000
310
01004F006C006500310030004E00610074006900760065000000000000000000
310
0000000000000000000000000000000000000000000000000000000000000000
310
1A000200FFFFFFFFFFFFFFFFFFFFFFFF00000000000000000000000000000000
310
000000000000000000000000000000000000000004000000E411000000000000
310
FEFFFFFF02000000FEFFFFFFFFFFFFFFFFFFFFFFFFFFFFFFFFFFFFFFFFFFFFFF
310
FFFFFFFFFFFFFFFFFFFFFFFFFFFFFFFFFFFFFFFFFFFFFFFFFFFFFFFFFFFFFFFF
310
FFFFFFFFFFFFFFFFFFFFFFFFFFFFFFFFFFFFFFFFFFFFFFFFFFFFFFFFFFFFFFFF
310
FFFFFFFFFFFFFFFFFFFFFFFFFFFFFFFFFFFFFFFFFFFFFFFFFFFFFFFFFFFFFFFF
310
FFFFFFFFFFFFFFFFFFFFFFFFFFFFFFFFFFFFFFFFFFFFFFFFFFFFFFFFFFFFFFFF
310
FFFFFFFFFFFFFFFFFFFFFFFFFFFFFFFFFFFFFFFFFFFFFFFFFFFFFFFFFFFFFFFF
310
FFFFFFFFFFFFFFFFFFFFFFFFFFFFFFFFFFFFFFFFFFFFFFFFFFFFFFFFFFFFFFFF
310
FFFFFFFFFFFFFFFFFFFFFFFFFFFFFFFFFFFFFFFFFFFFFFFFFFFFFFFFFFFFFFFF
310
FFFFFFFFFFFFFFFFFFFFFFFFFFFFFFFFFFFFFFFFFFFFFFFFFFFFFFFFFFFFFFFF
310
FFFFFFFFFFFFFFFFFFFFFFFFFFFFFFFFFFFFFFFFFFFFFFFFFFFFFFFFFFFFFFFF
310
FFFFFFFFFFFFFFFFFFFFFFFFFFFFFFFFFFFFFFFFFFFFFFFFFFFFFFFFFFFFFFFF
310
FFFFFFFFFFFFFFFFFFFFFFFFFFFFFFFFFFFFFFFFFFFFFFFFFFFFFFFFFFFFFFFF
310
FFFFFFFFFFFFFFFFFFFFFFFFFFFFFFFFFFFFFFFFFFFFFFFFFFFFFFFFFFFFFFFF
310
FFFFFFFFFFFFFFFFFFFFFFFFFFFFFFFFFFFFFFFFFFFFFFFFFFFFFFFFFFFFFFFF
310
FFFFFFFFFFFFFFFFFFFFFFFFFFFFFFFFFFFFFFFFFFFFFFFFFFFFFFFFFFFFFFFF
310
FFFFFFFFFFFFFFFFFFFFFFFFFFFFFFFFFFFFFFFFFFFFFFFFFFFFFFFFFFFFFFFF
310
0100000200000000000000000000000000000000000000000000000000000000
310
0000000000000000000000000000000000000000000000000000000000000000
310
0100FEFF030A0000FFFFFFFF0A00030000000000C00000000000004607000000
310
5042727573680007000000504272757368000700000050427275736800F439B2
310
7100000000000000000000000000000000000000000000000000000000000000
310
0000000000000000000000000000000000000000000000000000000000000000
310
0000000000000000000000000000000000000000000000000000000000000000
310
0000000000000000000000000000000000000000000000000000000000000000
310
0000000000000000000000000000000000000000000000000000000000000000
310
0000000000000000000000000000000000000000000000000000000000000000
310
0000000000000000000000000000000000000000000000000000000000000000
310
0000000000000000000000000000000000000000000000000000000000000000
310
0000000000000000000000000000000000000000000000000000000000000000
310
0000000000000000000000000000000000000000000000000000000000000000
310
0000000000000000000000000000000000000000000000000000000000000000
310
0000000000000000000000000000000000000000000000000000000000000000
310
E0110000424DDE11000000000000360400002800000096000000170000000100
310
08000000000000000000E7240000E72400000001000000010000000000FF0101
310
01FF020202FF030303FF040404FF050505FF060606FF070707FF080808FF0909
310
09FF0A0A0AFF0B0B0BFF0C0C0CFF0D0D0DFF0E0E0EFF0F0F0FFF101010FF1111
310
11FF121212FF131313FF141414FF151515FF161616FF171717FF181818FF1919
310
19FF1A1A1AFF1B1B1BFF1C1C1CFF1D1D1DFF1E1E1EFF1F1F1FFF202020FF2121
310
21FF222222FF232323FF242424FF252525FF262626FF272727FF282828FF2929
310
29FF2A2A2AFF2B2B2BFF2C2C2CFF2D2D2DFF2E2E2EFF2F2F2FFF303030FF3131
310
31FF323232FF333333FF343434FF353535FF363636FF373737FF383838FF3939
310
39FF3A3A3AFF3B3B3BFF3C3C3CFF3D3D3DFF3E3E3EFF3F3F3FFF404040FF4141
310
41FF424242FF434343FF444444FF454545FF464646FF474747FF484848FF4949
310
49FF4A4A4AFF4B4B4BFF4C4C4CFF4D4D4DFF4E4E4EFF4F4F4FFF505050FF5151
310
51FF525252FF535353FF545454FF555555FF565656FF575757FF585858FF5959
310
59FF5A5A5AFF5B5B5BFF5C5C5CFF5D5D5DFF5E5E5EFF5F5F5FFF606060FF6161
310
61FF626262FF636363FF646464FF656565FF666666FF676767FF686868FF6969
310
69FF6A6A6AFF6B6B6BFF6C6C6CFF6D6D6DFF6E6E6EFF6F6F6FFF707070FF7171
310
71FF727272FF737373FF747474FF757575FF767676FF777777FF787878FF7979
310
79FF7A7A7AFF7B7B7BFF7C7C7CFF7D7D7DFF7E7E7EFF7F7F7FFF808080FF8181
310
81FF828282FF838383FF848484FF858585FF868686FF878787FF888888FF8989
310
89FF8A8A8AFF8B8B8BFF8C8C8CFF8D8D8DFF8E8E8EFF8F8F8FFF909090FF9191
310
91FF929292FF939393FF949494FF959595FF969696FF979797FF989898FF9999
310
99FF9A9A9AFF9B9B9BFF9C9C9CFF9D9D9DFF9E9E9EFF9F9F9FFFA0A0A0FFA1A1
310
A1FFA2A2A2FFA3A3A3FFA4A4A4FFA5A5A5FFA6A6A6FFA7A7A7FFA8A8A8FFA9A9
310
A9FFAAAAAAFFABABABFFACACACFFADADADFFAEAEAEFFAFAFAFFFB0B0B0FFB1B1
310
B1FFB2B2B2FFB3B3B3FFB4B4B4FFB5B5B5FFB6B6B6FFB7B7B7FFB8B8B8FFB9B9
310
B9FFBABABAFFBBBBBBFFBCBCBCFFBDBDBDFFBEBEBEFFBFBFBFFFC0C0C0FFC1C1
310
C1FFC2C2C2FFC3C3C3FFC4C4C4FFC5C5C5FFC6C6C6FFC7C7C7FFC8C8C8FFC9C9
310
C9FFCACACAFFCBCBCBFFCCCCCCFFCDCDCDFFCECECEFFCFCFCFFFD0D0D0FFD1D1
310
D1FFD2D2D2FFD3D3D3FFD4D4D4FFD5D5D5FFD6D6D6FFD7D7D7FFD8D8D8FFD9D9
310
D9FFDADADAFFDBDBDBFFDCDCDCFFDDDDDDFFDEDEDEFFDFDFDFFFE0E0E0FFE1E1
310
E1FFE2E2E2FFE3E3E3FFE4E4E4FFE5E5E5FFE6E6E6FFE7E7E7FFE8E8E8FFE9E9
310
E9FFEAEAEAFFEBEBEBFFECECECFFEDEDEDFFEEEEEEFFEFEFEFFFF0F0F0FFF1F1
310
F1FFF2F2F2FFF3F3F3FFF4F4F4FFF5F5F5FFF6F6F6FFF7F7F7FFF8F8F8FFF9F9
310
F9FFFAFAFAFFFBFBFBFFFCFCFCFFFDFDFDFFFEFEFEFFFFFFFFFFFFFFFFFFFFFF
310
C94E4E4E4F4E4EFFFFFFFFFFC94E4E4E4E4E72FFFFFFFFFFFFFF734E4D4E4E4E
310
C9FFFFFFFFFFAA683516171616265B9BE9FFFFFFFFFF4E4E4E4D4E4EFFFFFFFF
310
FFFFFFFF4E4E4F4E4D4E4E4E4F4E4E4F4D4E4E4E4E4E4D4E4F4E4D4E4E4EAAFF
310
FFFFFFFFFFEA4E4F4F4E4E4E4E4E4D4D4F4F4E4E4E4E4E5B7FAAFFFFFFFFFFFF
310
C9744E1716171616164D8DEAFFFFFFFF0000FFFFFFFFFFFFBA161617161716FF
310
FFFFFFFFB917171616174FFFFFFFFFFFFFFF4E1716161616B9FFFFFFB9341717
310
1716171617171616268CFFFFFFFF161617161617FFFFFFFFFFFFFFB917161717
310
1617167F807F7F7F7F7F7F807F7F807F7F807F7F7F414EFFFFFFFFFFFF8C167F
310
7F807F7F7F7E7F7F807F807F7F807F4E3417258EFFFFEA4E162674AABAEAEBBA
310
AA74341680FFFFFF0000FFFFFFFFFFFFB9171717171617FFFFFFFFFFBB161616
310
16164EFFFFFFFFFFFFFF4E1717171717B9FFFF9C171617171716161616171616
310
171766FFFFFF161717161617FFFFFFFFFFFFFF8E16171717161616FFFFFFFFFF
310
FFFFFFFFFFFFFFFFFFFFFFFFFFAA16D9FFFFFFFFFF3467FFFFFFFFEAFFFFFFFF
310
FFFFFFFFFFFFFFFFFFCA671667EB26278DFFFFFFFFFFFFFFFFFFFF8C2541EAFF
310
0000FFFFFFFFFFFFB9171717171716FFFFFFFFFFBA16171617174EFFFFFFFFFF
310
FFFF4E1717161616BAFF9B1617161616171716171617161616161667FFFF1616
310
16161716FFFFFFFFFFFFFF7F16161617174017FFFFFFFFFFFFFFFFFFFFFFFFFF
310
FFFFFFFFFFFF344E7F7F7F7E7417DAFFFFFFFF80FFFFFFFFFFFFFFFFFFFFFFFF
310
FFFFFF9B163425CAFFFFFFFFFFFFFFFFFFFFFFFFCA2667FF0000FFFFFFFFFFFF
310
BA171717171617FFFFFFFFFFB916171716164EFFFFFFFFFFFFFF4F1716161717
310
B9C91716171616161716161617171616161617168DFF161716161717FFFFFFFF
310
FFFFFF7F17171716164F16FFFFFFFFFFFFFFFFFFFFFFFFFFFFFFFFFFFFFF9B16
310
17161617174EFFFFFFFFFF34FFFFFFFFD9BABABABABADAFFFFFFFFFF7F16AAFF
310
FFFFFFFFFFFFFFFFFFFFFFFFFF9C16BA0000FFFFFFFFFFFFB9161717161717FF
310
FFFFFFFFB917161716174DFFFFFFFFFFFFFF4E1616161616BA4E161617171716
310
419BEAEAAA4E16161617161726E9171717161616FFFFFFFFFFFFFF4F16161717
310
164E16FFFFFFFFFFBAB9B9B9B9B9BABABACAFFFFFFFFFFFFFFFFFFFFFFFFFFFF
310
FFFFBA16FFFFFFFF7F1617161617174DEAFFFFFFEA41FFFFFFFFFFAA4D16174E
310
9BFFFFFFFFFF34730000FFFFFFFFFFFFB9161617171617FFFFFFFFFFBA161616
310
16164EFFFFFFFFFFFFFF4F16161717169B1617161716175BFFFFFFFFFFFF7417
310
16171616168D171717161617FFFFFFFFFFFFEA2616171717167416FFFFFFFFFF
310
16171616171717171717EAFFFFFFFFFFFFFFFFFFFFFFFFFFFFFF6716FFFFFFFF
310
7F4EFFFFFFFFBA2573FFFFFFFFBAFFFFFFFFAA167FB9BB9B269BFFFFFFFF664F
310
0000FFFFFFFFFFFFB9171616161616FFFFFFFFFFBA16161717164EFFFFFFFFFF
310
FFFF4E16161616174E161617171626EAFFFFFFFFFFFFFF4E16161616164E1716
310
16161617FFFFFFFFFFFF671616161716347F16FFFFFFFFFF16B9FFFFFFFFFFFF
310
D9168DFFFFFFFFFFFFFFFFFFFFFFFFFFFFEA1716FFFFFFFF7F4EFFFFFFFFFF7F
310
4EFFFFFFFFFFFFFFFFFF5B66FFFFFFEA347FFFFFFFFF7F4D0000FFFFFFFFFFFF
310
B9171616171617FFFFFFFFFFBA17161716174EFFFFFFFFFFFFFF4D1716161617
310
17161716161673FFFFFFFFFFFFFFFF9B1617161717161616171616174F4E4E4E
310
4E341616171616167E7F16FFFFFFFFFF16BAFFFFFFFFFFFFFF5B41FFFFFFFF34
310
1616171616BAFFFFFF9B1716FFFFFFFF7F4EFFFFFFFFFF4E4EFFFFFFFF734E4E
310
4E4E267EDA9B67164EEAFFFFFFFF744D0000FFFFFFFFFFFFBA171717161617FF
310
FFFFFFFFBA1616171616347F7F7F7F80807F331616161717161717161716B9FF
310
FFFFFFFFFFFFFFE9161616161616171716161716171616161616171616171734
310
EA7F16FFFFFFFFFF16BAFFFFFFFFFFFFFFAA17C9FFFFFF7326BABA5B25FFFFFF
310
FF401716FFFFFFFF7F264F4E4E4E4217AAFFFFFFEA16677F73261616164173CA
310
FFFFFFFFFFFF417F0000FFFFFFFFFFFFBA171616171617FFFFFFFFFFBA161616
310
17171616161616161616161717161616161616161617EAFFFFFFFFFFFFFFFFFF
310
261717161716161617161616161617161617161616174EEAFF8016FFFFFFFFFF
310
17BAFFFFFFFFFFFFFFFF3467FFFFFFC916C9FF3467FFFFFFDA166716FFFFFFFF
310
9C4D4E4E4E4E67AAFFFFFFFF6834FF7F262567AAEAFFFFFFFFFFFFFFFF9B17D9
310
0000FFFFFFFFFFFFB9161616161616FFFFFFFFFFBA1617161717171616161616
310
1716171716161716161617171716FFFFFFFFFFFFFFFFFFFF4E17161716171616
310
1617171616161716171717161616169BFF7F17FFFFFFFFFF17B9FFFFFFFFFFFF
310
FFFF7326FFFFFFFF3473DA16AAFFFFFF7317AA16FFFFFFFFFFFFFFFFFFFFFFFF
310
FFFFEA6725BA4E167FEAFFFFFFFFFFFFFFFFFFFF9C167FFF0000FFFFFFFFFFFF
310
B9161717171716FFFFFFFFFFBA16161716171616171717161617161716161616
310
171617171617EAFFFFFFFFFFFFFFFFFF26161717161616161616161617171616
310
1616161616171616AA8016FFFFFFFFFF16BAFFFFFFFFFFFFFFFFDA179BFFFFFF
310
74348D26FFFFFFFF2566B917FFFFFFFFD8BAB9BAB9BADAFFFFEA41169B7425C9
310
FFFFFFFFFFFFFFFFFFFFAB4F1680FFFF0000FFFFFFFFFFFFBA161717171617FF
310
FFFFFFFFBA17161717161617171617161616161617171616171716171617BBFF
310
FFFFFFFFFFFFFFE9171616161617161617161716FFFFFFFFFFD9671616161617
310
348017FFFFFFFFFF16BAFFFFFFFFFFFFFFFFFF4E5AFFFFFFC916265AFFFFFFAA
310
16AABA16FFFFFFFF7F1617161616179BFFFFEB4127168DFFFFFFFFFFFFFFD99B
310
6734175AC9FFFFFF0000FFFFFFFFFFFFB9161617171617FFFFFFFFFFBB161616
310
1616347F807F7F7F7F8033171716171617171616161672FFFFFFFFFFFFFFFF9C
310
171617171617161716161617FFFFFFFFFFFFFF4117161616174E17FFFFFFFFFF
310
16BAFFFFFFFFFFFFFFFFFF9B16DAFFFFFF34169BFFFFFF5A26FFB917FFFFFFFF
310
7F4EFFFFFFEA5B26FFFFFFEA2616EAFFFFFFFFDA743416331617414E4E4E4ECA
310
0000FFFFFFFFFFFFBA161716161616FFFFFFFFFFBA17171616164EFFFFFFFFFF
310
FFFF4E16161717174E161717171626EBFFFFFFFFFFFFFF4E16161617165B1616
310
16171617FFFFFFFFFFFFFF6716161616161617FFFFFFFFFF16BAFFFFFFFFFFFF
310
FFFFFFEA268CFFFFFF7316EAFFFFEB1774FFB916FFFFFFFF7F4EFFFFFFFF7316
310
FFFFFFFF6826FFFFFFFFEB264D9CEABA257F807F7F6616BA0000FFFFFFFFFFFF
310
BA161716161616FFFFFFFFFFBA16171616164DFFFFFFFFFFFFFF4E1617161617
310
9B1617171717165BEBFFFFFFFFFF671616161617179B171616161616FFFFFFFF
310
FFFFFF3417161617171617FFFFFFFFFF17BAFFFFFFFFFFFFFFFFFFFF6734FFFF
310
FFEBCAFFFFFF8D17C9FFBA17FFFFFFFF7F357F808066174FFFFFFFFF7F16FFFF
310
FFFFD91673B99B415BFFFFFFFFBA16DA00009B7F7F7F807F671617161616167F
310
80807F7E6617161616164EFFFFFFFFFFFFFF4E1616161617B94E171716161616
310
349BC9D9AA4E16171616161634FF161617161717B9B9BAB9BA9B411716171716
310
163416FFFFFFFFFF16B9FFFFFFFFFFFFFFFFFFFFC917CAFFFFFFFFFFFFFF3342
310
FFFFBA17FFFFFFFF9B4E4E4F4E4E66EAFFFFFFFF5B16C9FFFFFFFFAA4E164E73
310
EAFFFFFFFF8D26FF00004E161716161616171617171616171717171617161616
310
17174EFFFFFFFFFFFFFF4E1717171616B9D92616171716171716171717171716
310
16171716AAFF161717171617161617171616161617161716166717FFFFFFFFFF
310
17B9FFFFFFFFFFFFFFFFFFFFFF3467FFFFFFFFFFFFCA168CFFFFBB17FFFFFFFF
310
FFFFFFFFFFFFFFFFFFFFFFEA26265BFFFFFFFFFFFFFFFFFFFFFFFFFFEA3467FF
310
00004D16161616161617161717161617161616171617171616164EFFFFFFFFFF
310
FFFF4D1617161616BAFF9B1616161616161716161616171717161766FFFF1616
310
16171617161617161716171616171717667F16FFFFFFFFFF17BAFFFFFFFFFFFF
310
FFFFFFFFFF8C26EAFFFFFFFFFF6617EAFFFFBA17FFFFFFFFFFFFFFFFFFFFFFFF
310
FFFFEA5A25BA269BFFFFFFFFFFFFFFFFFFFFFFFF6616DAFF00004E1616171616
310
1616161616161716161617171616171616174EFFFFFFFFFFFFFF4D1717171716
310
B9FFFF9C161616161616161716161717171667FFFFFF17161717171716161617
310
1716161616161641E97E16FFFFFFFFFF16B9FFFFFFFFFFFFFFFFFFFFFFEA169B
310
FFFFFFFFEA265BFFFFFFB916FFFFFFFFFFFFFFFFFFFFFFFFFF9B3416AAFF9B17
310
67EAFFFFFFFFFFFFFFFFEA5B169BFFFF00004D17161716161616161717171616
310
161717161716171716174EFFFFFFFFFFFFFF4D1616161616BAFFFFFFBB411616
310
161716161616171634ABFFFFFFFF161716161617171716171617171617267FFF
310
FF7F164E4E4E4E4F17BAFFFFFFFFFFFFFFFFFFFFFFFF66344D4E4E4F4117AAFF
310
FFFFBA174E4E4E4D4E4D4D4E4E4E4E4116174EBBFFFFFFCA342666ABEAFFFFEA
310
AA6725269CFFFFFF0000724F4E4D4D4D4E4D4D4E4E4E4D4E4E4E4E4E4E4E4E4D
310
4E4E74FFFFFFFFFFFFFF734E4E4E4D4ECAFFFFFFFFFFAA663416171717265B9B
310
FFFFFFFFFFFF7F8080807F80807F7F7F7F7F807FBAFFFFFFFF9B4E4E4F4D4D4E
310
4DC9FFFFFFFFFFFFFFFFFFFFFFFFBA4E4E4E4E4D4E4EFFFFFFFFC94E4E4E4F4E
310
4E4E4D4E4E5A807F9CD9FFFFFFFFFFFFFF9B5B2617171716174E8DEAFFFFFFFF
310
0000000000000000000000000000000000000000000000000000000000000000
  1
OLE
  0
ENDSEC
  0
SECTION
  2
OBJECTS
  0
DICTIONARY
  5
C
330
0
100
AcDbDictionary
281
     1
  3
ACAD_GROUP
350
D
  3
ACAD_LAYOUT
350
1A
  3
ACAD_MLINESTYLE
350
17
  3
ACAD_PLOTSETTINGS
350
19
  3
ACAD_PLOTSTYLENAME
350
E
  3
ACAD_SCALELIST
350
47
  0
DICTIONARY
  5
D
102
{ACAD_REACTORS
330
C
102
}
330
C
100
AcDbDictionary
281
     1
  0
DICTIONARY
  5
1A
102
{ACAD_REACTORS
330
C
102
}
330
C
100
AcDbDictionary
281
     1
  3
Layout1
350
1E
  3
Layout2
350
26
  3
Model
350
22
  0
DICTIONARY
  5
17
102
{ACAD_REACTORS
330
C
102
}
330
C
100
AcDbDictionary
281
     1
  3
Standard
350
18
  0
DICTIONARY
  5
19
102
{ACAD_REACTORS
330
C
102
}
330
C
100
AcDbDictionary
281
     1
  0
ACDBDICTIONARYWDFLT
  5
E
102
{ACAD_REACTORS
330
C
102
}
330
C
100
AcDbDictionary
281
     1
  3
Normal
350
F
100
AcDbDictionaryWithDefault
340
F
  0
DICTIONARY
  5
47
102
{ACAD_REACTORS
330
C
102
}
330
C
100
AcDbDictionary
281
     1
  3
A0
350
48
  3
A1
350
49
  3
A2
350
4A
  3
A3
350
4B
  3
A4
350
4C
  3
A5
350
4D
  3
A6
350
4E
  3
A7
350
4F
  3
A8
350
50
  3
A9
350
51
  3
B0
350
52
  3
B1
350
53
  3
B2
350
54
  3
B3
350
55
  3
B4
350
56
  3
B5
350
57
  3
B6
350
58
  3
B7
350
59
  3
B8
350
5A
  3
B9
350
5B
  3
C0
350
5C
  3
C1
350
5D
  3
C2
350
5E
  3
C3
350
5F
  3
C4
350
60
  3
C5
350
61
  3
C6
350
62
  3
C7
350
63
  3
C8
350
64
  3
C9
350
65
  3
D0
350
66
  3
D1
350
67
  3
D2
350
68
  0
LAYOUT
  5
1E
102
{ACAD_REACTORS
330
1A
102
}
330
1A
100
AcDbPlotSettings
  1

  2
none_device
  4

  6

 40
0.0
 41
0.0
 42
0.0
 43
0.0
 44
0.0
 45
0.0
 46
0.0
 47
0.0
 48
0.0
 49
0.0
140
0.0
141
0.0
142
1.0
143
1.0
 70
   688
 72
     0
 73
     0
 74
     5
  7

 75
    16
147
1.0
148
0.0
149
0.0
100
AcDbLayout
  1
Layout1
 70
     1
 71
     1
 10
0.0
 20
0.0
 11
12.0
 21
9.0
 12
0.0
 22
0.0
 32
0.0
 14
1.0000000000E+20
 24
1.0000000000E+20
 34
1.0000000000E+20
 15
-1.0000000000E+20
 25
-1.0000000000E+20
 35
-1.0000000000E+20
146
0.0
 13
0.0
 23
0.0
 33
0.0
 16
1.0
 26
0.0
 36
0.0
 17
0.0
 27
1.0
 37
0.0
 76
     0
330
1B
  0
LAYOUT
  5
26
102
{ACAD_REACTORS
330
1A
102
}
330
1A
100
AcDbPlotSettings
  1

  2
none_device
  4

  6

 40
0.0
 41
0.0
 42
0.0
 43
0.0
 44
0.0
 45
0.0
 46
0.0
 47
0.0
 48
0.0
 49
0.0
140
0.0
141
0.0
142
1.0
143
1.0
 70
   688
 72
     0
 73
     0
 74
     5
  7

 75
    16
147
1.0
148
0.0
149
0.0
100
AcDbLayout
  1
Layout2
 70
     1
 71
     2
 10
0.0
 20
0.0
 11
0.0
 21
0.0
 12
0.0
 22
0.0
 32
0.0
 14
0.0
 24
0.0
 34
0.0
 15
0.0
 25
0.0
 35
0.0
146
0.0
 13
0.0
 23
0.0
 33
0.0
 16
1.0
 26
0.0
 36
0.0
 17
0.0
 27
1.0
 37
0.0
 76
     0
330
23
  0
LAYOUT
  5
22
102
{ACAD_REACTORS
330
1A
102
}
330
1A
100
AcDbPlotSettings
  1

  2
none_device
  4
Letter_(8.50_x_11.00_Inches)
  6

 40
6.35
 41
6.35
 42
6.35000508
 43
6.35000508
 44
215.9
 45
279.4
 46
0.0
 47
0.0
 48
0.0
 49
0.0
140
0.0
141
0.0
142
1.0
143
1.0
 70
  1712
 72
     0
 73
     0
 74
     0
  7

 75
     0
147
1.0
148
0.0
149
0.0
100
AcDbLayout
  1
Model
 70
     1
 71
     0
 10
0.0
 20
0.0
 11
11.0
 21
8.5
 12
0.0
 22
0.0
 32
0.0
 14
0.0
 24
0.0
 34
0.0
 15
11.0
 25
8.5
 35
0.0
146
0.0
 13
0.0
 23
0.0
 33
0.0
 16
1.0
 26
0.0
 36
0.0
 17
0.0
 27
1.0
 37
0.0
 76
     0
330
1F
331
29
  0
MLINESTYLE
  5
18
102
{ACAD_REACTORS
330
17
102
}
330
17
100
AcDbMlineStyle
  2
Standard
 70
     0
  3

 62
   256
 51
90.0
 52
90.0
 71
     2
 49
0.5
 62
   256
  6
BYLAYER
 49
-0.5
 62
   256
  6
BYLAYER
  0
ACDBPLACEHOLDER
  5
F
102
{ACAD_REACTORS
330
E
102
}
330
E
  0
SCALE
  5
48
102
{ACAD_REACTORS
330
47
102
}
330
47
100
AcDbScale
 70
     0
300
1:1
140
1.0
141
1.0
290
     1
  0
SCALE
  5
49
102
{ACAD_REACTORS
330
47
102
}
330
47
100
AcDbScale
 70
     0
300
1:2
140
1.0
141
2.0
290
     0
  0
SCALE
  5
4A
102
{ACAD_REACTORS
330
47
102
}
330
47
100
AcDbScale
 70
     0
300
1:4
140
1.0
141
4.0
290
     0
  0
SCALE
  5
4B
102
{ACAD_REACTORS
330
47
102
}
330
47
100
AcDbScale
 70
     0
300
1:5
140
1.0
141
5.0
290
     0
  0
SCALE
  5
4C
102
{ACAD_REACTORS
330
47
102
}
330
47
100
AcDbScale
 70
     0
300
1:8
140
1.0
141
8.0
290
     0
  0
SCALE
  5
4D
102
{ACAD_REACTORS
330
47
102
}
330
47
100
AcDbScale
 70
     0
300
1:10
140
1.0
141
10.0
290
     0
  0
SCALE
  5
4E
102
{ACAD_REACTORS
330
47
102
}
330
47
100
AcDbScale
 70
     0
300
1:16
140
1.0
141
16.0
290
     0
  0
SCALE
  5
4F
102
{ACAD_REACTORS
330
47
102
}
330
47
100
AcDbScale
 70
     0
300
1:20
140
1.0
141
20.0
290
     0
  0
SCALE
  5
50
102
{ACAD_REACTORS
330
47
102
}
330
47
100
AcDbScale
 70
     0
300
1:30
140
1.0
141
30.0
290
     0
  0
SCALE
  5
51
102
{ACAD_REACTORS
330
47
102
}
330
47
100
AcDbScale
 70
     0
300
1:40
140
1.0
141
40.0
290
     0
  0
SCALE
  5
52
102
{ACAD_REACTORS
330
47
102
}
330
47
100
AcDbScale
 70
     0
300
1:50
140
1.0
141
50.0
290
     0
  0
SCALE
  5
53
102
{ACAD_REACTORS
330
47
102
}
330
47
100
AcDbScale
 70
     0
300
1:100
140
1.0
141
100.0
290
     0
  0
SCALE
  5
54
102
{ACAD_REACTORS
330
47
102
}
330
47
100
AcDbScale
 70
     0
300
2:1
140
2.0
141
1.0
290
     0
  0
SCALE
  5
55
102
{ACAD_REACTORS
330
47
102
}
330
47
100
AcDbScale
 70
     0
300
4:1
140
4.0
141
1.0
290
     0
  0
SCALE
  5
56
102
{ACAD_REACTORS
330
47
102
}
330
47
100
AcDbScale
 70
     0
300
8:1
140
8.0
141
1.0
290
     0
  0
SCALE
  5
57
102
{ACAD_REACTORS
330
47
102
}
330
47
100
AcDbScale
 70
     0
300
10:1
140
10.0
141
1.0
290
     0
  0
SCALE
  5
58
102
{ACAD_REACTORS
330
47
102
}
330
47
100
AcDbScale
 70
     0
300
100:1
140
100.0
141
1.0
290
     0
  0
SCALE
  5
59
102
{ACAD_REACTORS
330
47
102
}
330
47
100
AcDbScale
 70
     0
300
1/128" = 1'-0"
140
0.0078125
141
12.0
290
     0
  0
SCALE
  5
5A
102
{ACAD_REACTORS
330
47
102
}
330
47
100
AcDbScale
 70
     0
300
1/64" = 1'-0"
140
0.015625
141
12.0
290
     0
  0
SCALE
  5
5B
102
{ACAD_REACTORS
330
47
102
}
330
47
100
AcDbScale
 70
     0
300
1/32" = 1'-0"
140
0.03125
141
12.0
290
     0
  0
SCALE
  5
5C
102
{ACAD_REACTORS
330
47
102
}
330
47
100
AcDbScale
 70
     0
300
1/16" = 1'-0"
140
0.0625
141
12.0
290
     0
  0
SCALE
  5
5D
102
{ACAD_REACTORS
330
47
102
}
330
47
100
AcDbScale
 70
     0
300
3/32" = 1'-0"
140
0.09375
141
12.0
290
     0
  0
SCALE
  5
5E
102
{ACAD_REACTORS
330
47
102
}
330
47
100
AcDbScale
 70
     0
300
1/8" = 1'-0"
140
0.125
141
12.0
290
     0
  0
SCALE
  5
5F
102
{ACAD_REACTORS
330
47
102
}
330
47
100
AcDbScale
 70
     0
300
3/16" = 1'-0"
140
0.1875
141
12.0
290
     0
  0
SCALE
  5
60
102
{ACAD_REACTORS
330
47
102
}
330
47
100
AcDbScale
 70
     0
300
1/4" = 1'-0"
140
0.25
141
12.0
290
     0
  0
SCALE
  5
61
102
{ACAD_REACTORS
330
47
102
}
330
47
100
AcDbScale
 70
     0
300
3/8" = 1'-0"
140
0.375
141
12.0
290
     0
  0
SCALE
  5
62
102
{ACAD_REACTORS
330
47
102
}
330
47
100
AcDbScale
 70
     0
300
1/2" = 1'-0"
140
0.5
141
12.0
290
     0
  0
SCALE
  5
63
102
{ACAD_REACTORS
330
47
102
}
330
47
100
AcDbScale
 70
     0
300
3/4" = 1'-0"
140
0.75
141
12.0
290
     0
  0
SCALE
  5
64
102
{ACAD_REACTORS
330
47
102
}
330
47
100
AcDbScale
 70
     0
300
1" = 1'-0"
140
1.0
141
12.0
290
     0
  0
SCALE
  5
65
102
{ACAD_REACTORS
330
47
102
}
330
47
100
AcDbScale
 70
     0
300
1-1/2" = 1'-0"
140
1.5
141
12.0
290
     0
  0
SCALE
  5
66
102
{ACAD_REACTORS
330
47
102
}
330
47
100
AcDbScale
 70
     0
300
3" = 1'-0"
140
3.0
141
12.0
290
     0
  0
SCALE
  5
67
102
{ACAD_REACTORS
330
47
102
}
330
47
100
AcDbScale
 70
     0
300
6" = 1'-0"
140
6.0
141
12.0
290
     0
  0
SCALE
  5
68
102
{ACAD_REACTORS
330
47
102
}
330
47
100
AcDbScale
 70
     0
300
1'-0" = 1'-0"
140
12.0
141
12.0
290
     0
  0
ENDSEC
  0
EOF
