  0
SECTION
  2
HEADER
  9
$ACADVER
  1
AC1015
  9
$ACADMAINTVER
 70
     6
  9
$DWGCODEPAGE
  3
ANSI_1252
  9
$INSBASE
 10
0.0
 20
0.0
 30
0.0
  9
$EXTMIN
 10
0.0
 20
0.0
 30
0.0
  9
$EXTMAX
 10
11.0
 20
8.5
 30
0.0
  9
$LIMMIN
 10
0.0
 20
0.0
  9
$LIMMAX
 10
11.0
 20
8.5
  9
$ORTHOMODE
 70
     0
  9
$REGENMODE
 70
     1
  9
$FILLMODE
 70
     1
  9
$QTEXTMODE
 70
     0
  9
$MIRRTEXT
 70
     1
  9
$LTSCALE
 40
1.0
  9
$ATTMODE
 70
     1
  9
$TEXTSIZE
 40
0.1111111111
  9
$TRACEWID
 40
0.05
  9
$TEXTSTYLE
  7
Standard
  9
$CLAYER
  8
0
  9
$CELTYPE
  6
ByLayer
  9
$CECOLOR
 62
   256
  9
$CELTSCALE
 40
1.0
  9
$DISPSILH
 70
     0
  9
$DIMSCALE
 40
1.0
  9
$DIMASZ
 40
0.125
  9
$DIMEXO
 40
0.05
  9
$DIMDLI
 40
0.38
  9
$DIMRND
 40
0.0
  9
$DIMDLE
 40
0.0
  9
$DIMEXE
 40
0.07
  9
$DIMTP
 40
0.0
  9
$DIMTM
 40
0.0
  9
$DIMTXT
 40
0.1111111111
  9
$DIMCEN
 40
0.09
  9
$DIMTSZ
 40
0.0
  9
$DIMTOL
 70
     0
  9
$DIMLIM
 70
     0
  9
$DIMTIH
 70
     1
  9
$DIMTOH
 70
     1
  9
$DIMSE1
 70
     0
  9
$DIMSE2
 70
     0
  9
$DIMTAD
 70
     0
  9
$DIMZIN
 70
     1
  9
$DIMBLK
  1

  9
$DIMASO
 70
     1
  9
$DIMSHO
 70
     1
  9
$DIMPOST
  1

  9
$DIMAPOST
  1

  9
$DIMALT
 70
     0
  9
$DIMALTD
 70
     2
  9
$DIMALTF
 40
25.4
  9
$DIMLFAC
 40
1.0
  9
$DIMTOFL
 70
     0
  9
$DIMTVP
 40
0.0
  9
$DIMTIX
 70
     0
  9
$DIMSOXD
 70
     0
  9
$DIMSAH
 70
     0
  9
$DIMBLK1
  1

  9
$DIMBLK2
  1

  9
$DIMSTYLE
  2
Standard
  9
$DIMCLRD
 70
     0
  9
$DIMCLRE
 70
     0
  9
$DIMCLRT
 70
     0
  9
$DIMTFAC
 40
1.0
  9
$DIMGAP
 40
0.1
  9
$DIMJUST
 70
     0
  9
$DIMSD1
 70
     0
  9
$DIMSD2
 70
     0
  9
$DIMTOLJ
 70
     1
  9
$DIMTZIN
 70
     1
  9
$DIMALTZ
 70
     0
  9
$DIMALTTZ
 70
     0
  9
$DIMUPT
 70
     0
  9
$DIMDEC
 70
     2
  9
$DIMTDEC
 70
     2
  9
$DIMALTU
 70
     2
  9
$DIMALTTD
 70
     2
  9
$DIMTXSTY
  7
Standard
  9
$DIMAUNIT
 70
     0
  9
$DIMADEC
 70
     0
  9
$DIMALTRND
 40
0.0
  9
$DIMAZIN
 70
     0
  9
$DIMDSEP
 70
    46
  9
$DIMATFIT
 70
     3
  9
$DIMFRAC
 70
     0
  9
$DIMLDRBLK
  1

  9
$DIMLUNIT
 70
     2
  9
$DIMLWD
 70
    -2
  9
$DIMLWE
 70
    -2
  9
$DIMTMOVE
 70
     0
  9
$LUNITS
 70
     2
  9
$LUPREC
 70
     2
  9
$SKETCHINC
 40
0.1
  9
$FILLETRAD
 40
0.5
  9
$AUNITS
 70
     0
  9
$AUPREC
 70
     0
  9
$MENU
  1
.
  9
$ELEVATION
 40
0.0
  9
$PELEVATION
 40
0.0
  9
$THICKNESS
 40
0.0
  9
$LIMCHECK
 70
     0
  9
$CHAMFERA
 40
0.0
  9
$CHAMFERB
 40
0.0
  9
$CHAMFERC
 40
0.0
  9
$CHAMFERD
 40
0.0
  9
$SKPOLY
 70
     0
  9
$TDCREATE
 40
2458505.683948935
  9
$TDUCREATE
 40
2458505.892282268
  9
$TDUPDATE
 40
2458505.683954549
  9
$TDUUPDATE
 40
2458505.892287882
  9
$TDINDWG
 40
0.0000000116
  9
$TDUSRTIMER
 40
0.0000000116
  9
$USRTIMER
 70
     1
  9
$ANGBASE
 50
0.0
  9
$ANGDIR
 70
     0
  9
$PDMODE
 70
     0
  9
$PDSIZE
 40
-1.0
  9
$PLINEWID
 40
0.0
  9
$SPLFRAME
 70
     0
  9
$SPLINETYPE
 70
     6
  9
$SPLINESEGS
 70
     8
  9
$HANDSEED
  5
39F
  9
$SURFTAB1
 70
     6
  9
$SURFTAB2
 70
     6
  9
$SURFTYPE
 70
     6
  9
$SURFU
 70
     6
  9
$SURFV
 70
     6
  9
$UCSBASE
  2

  9
$UCSNAME
  2

  9
$UCSORG
 10
0.0
 20
0.0
 30
0.0
  9
$UCSXDIR
 10
1.0
 20
0.0
 30
0.0
  9
$UCSYDIR
 10
0.0
 20
1.0
 30
0.0
  9
$UCSORTHOREF
  2

  9
$UCSORTHOVIEW
 70
     0
  9
$UCSORGTOP
 10
0.0
 20
0.0
 30
0.0
  9
$UCSORGBOTTOM
 10
0.0
 20
0.0
 30
0.0
  9
$UCSORGLEFT
 10
0.0
 20
0.0
 30
0.0
  9
$UCSORGRIGHT
 10
0.0
 20
0.0
 30
0.0
  9
$UCSORGFRONT
 10
0.0
 20
0.0
 30
0.0
  9
$UCSORGBACK
 10
0.0
 20
0.0
 30
0.0
  9
$PUCSBASE
  2

  9
$PUCSNAME
  2

  9
$PUCSORG
 10
0.0
 20
0.0
 30
0.0
  9
$PUCSXDIR
 10
1.0
 20
0.0
 30
0.0
  9
$PUCSYDIR
 10
0.0
 20
1.0
 30
0.0
  9
$PUCSORTHOREF
  2

  9
$PUCSORTHOVIEW
 70
     0
  9
$PUCSORGTOP
 10
0.0
 20
0.0
 30
0.0
  9
$PUCSORGBOTTOM
 10
0.0
 20
0.0
 30
0.0
  9
$PUCSORGLEFT
 10
0.0
 20
0.0
 30
0.0
  9
$PUCSORGRIGHT
 10
0.0
 20
0.0
 30
0.0
  9
$PUCSORGFRONT
 10
0.0
 20
0.0
 30
0.0
  9
$PUCSORGBACK
 10
0.0
 20
0.0
 30
0.0
  9
$USERI1
 70
     0
  9
$USERI2
 70
     0
  9
$USERI3
 70
     0
  9
$USERI4
 70
     0
  9
$USERI5
 70
     0
  9
$USERR1
 40
0.0
  9
$USERR2
 40
0.0
  9
$USERR3
 40
0.0
  9
$USERR4
 40
0.0
  9
$USERR5
 40
0.0
  9
$WORLDVIEW
 70
     1
  9
$SHADEDGE
 70
     3
  9
$SHADEDIF
 70
    70
  9
$TILEMODE
 70
     1
  9
$MAXACTVP
 70
    64
  9
$PINSBASE
 10
0.0
 20
0.0
 30
0.0
  9
$PLIMCHECK
 70
     0
  9
$PEXTMIN
 10
1.0000000000E+20
 20
1.0000000000E+20
 30
1.0000000000E+20
  9
$PEXTMAX
 10
-1.0000000000E+20
 20
-1.0000000000E+20
 30
-1.0000000000E+20
  9
$PLIMMIN
 10
0.0
 20
0.0
  9
$PLIMMAX
 10
12.0
 20
9.0
  9
$UNITMODE
 70
     0
  9
$VISRETAIN
 70
     1
  9
$PLINEGEN
 70
     0
  9
$PSLTSCALE
 70
     1
  9
$TREEDEPTH
 70
  3020
  9
$CMLSTYLE
  2
Standard
  9
$CMLJUST
 70
     0
  9
$CMLSCALE
 40
1.0
  9
$PROXYGRAPHICS
 70
     1
  9
$MEASUREMENT
 70
     0
  9
$CELWEIGHT
370
    -1
  9
$ENDCAPS
280
     0
  9
$JOINSTYLE
280
     0
  9
$LWDISPLAY
290
     1
  9
$INSUNITS
 70
     1
  9
$HYPERLINKBASE
  1

  9
$STYLESHEET
  1

  9
$XEDIT
290
     1
  9
$CEPSNTYPE
380
     0
  9
$PSTYLEMODE
290
     1
  9
$FINGERPRINTGUID
  2
{09222BB2-BA4B-46BE-ACBB-5D5740FE232D}
  9
$VERSIONGUID
  2
{FAEB1C32-E019-11D5-929B-00C0DF256EC4}
  9
$EXTNAMES
290
     1
  9
$PSVPSCALE
 40
0.0
  9
$OLESTARTUP
290
     0
  0
ENDSEC
  0
SECTION
  2
CLASSES
  0
CLASS
  1
ACDBDICTIONARYWDFLT
  2
AcDbDictionaryWithDefault
  3
ObjectDBX Classes
 90
        0
280
     0
281
     0
  0
CLASS
  1
VISUALSTYLE
  2
AcDbVisualStyle
  3
ObjectDBX Classes
 90
     4095
280
     0
281
     0
  0
CLASS
  1
MATERIAL
  2
AcDbMaterial
  3
ObjectDBX Classes
 90
     1153
280
     0
281
     0
  0
CLASS
  1
SCALE
  2
AcDbScale
  3
ObjectDBX Classes
 90
     1153
280
     0
281
     0
  0
CLASS
  1
TABLESTYLE
  2
AcDbTableStyle
  3
ObjectDBX Classes
 90
     4095
280
     0
281
     0
  0
CLASS
  1
MLEADERSTYLE
  2
AcDbMLeaderStyle
  3
ACDB_MLEADERSTYLE_CLASS
 90
     4095
280
     0
281
     0
  0
CLASS
  1
SUN
  2
AcDbSun
  3
SCENEOE
 90
     1153
280
     0
281
     0
  0
CLASS
  1
ACDBPLACEHOLDER
  2
AcDbPlaceHolder
  3
ObjectDBX Classes
 90
        0
280
     0
281
     0
  0
CLASS
  1
LAYOUT
  2
AcDbLayout
  3
ObjectDBX Classes
 90
        0
280
     0
281
     0
  0
ENDSEC
  0
SECTION
  2
TABLES
  0
TABLE
  2
VPORT
  5
8
330
0
100
AcDbSymbolTable
 70
     1
  0
VPORT
  5
29
330
8
100
AcDbSymbolTableRecord
100
AcDbViewportTableRecord
  2
*Active
 70
     0
 10
0.0
 20
0.0
 11
1.0
 21
1.0
 12
5.5
 22
4.25
 13
0.0
 23
0.0
 14
0.5
 24
0.5
 15
0.5
 25
0.5
 16
0.0
 26
0.0
 36
1.0
 17
0.0
 27
0.0
 37
0.0
 40
8.5
 41
1.2941176471
 42
50.0
 43
0.0
 44
0.0
 50
0.0
 51
0.0
 71
     0
 72
  2000
 73
     1
 74
     3
 75
     0
 76
     0
 77
     0
 78
     0
281
     0
 65
     1
110
0.0
120
0.0
130
0.0
111
1.0
121
0.0
131
0.0
112
0.0
122
1.0
132
0.0
 79
     0
146
0.0
  0
ENDTAB
  0
TABLE
  2
LTYPE
  5
5
330
0
100
AcDbSymbolTable
 70
     6
  0
LTYPE
  5
14
330
5
100
AcDbSymbolTableRecord
100
AcDbLinetypeTableRecord
  2
ByBlock
 70
     0
  3

 72
    65
 73
     0
 40
0.0
  0
LTYPE
  5
15
330
5
100
AcDbSymbolTableRecord
100
AcDbLinetypeTableRecord
  2
ByLayer
 70
     0
  3

 72
    65
 73
     0
 40
0.0
  0
LTYPE
  5
16
330
5
100
AcDbSymbolTableRecord
100
AcDbLinetypeTableRecord
  2
Continuous
 70
     0
  3
Solid line
 72
    65
 73
     0
 40
0.0
  0
LTYPE
  5
6E
330
5
100
AcDbSymbolTableRecord
100
AcDbLinetypeTableRecord
  2
HIDDEN
 70
     0
  3
Hidden __ __ __ __ __ __ __ __ __ __ __ __ __ __
 72
    65
 73
     2
 40
0.075
 49
0.05
 74
     0
 49
-0.025
 74
     0
  0
LTYPE
  5
6F
330
5
100
AcDbSymbolTableRecord
100
AcDbLinetypeTableRecord
  2
PHANTOM
 70
     0
  3
Phantom ______  __  __  ______  __  __  ______
 72
    65
 73
     6
 40
0.5
 49
0.25
 74
     0
 49
-0.05
 74
     0
 49
0.05
 74
     0
 49
-0.05
 74
     0
 49
0.05
 74
     0
 49
-0.05
 74
     0
  0
LTYPE
  5
70
330
5
100
AcDbSymbolTableRecord
100
AcDbLinetypeTableRecord
  2
CENTER
 70
     0
  3
Center ____ _ ____ _ ____ _ ____ _ ____ _ ____
 72
    65
 73
     4
 40
0.4
 49
0.25
 74
     0
 49
-0.05
 74
     0
 49
0.05
 74
     0
 49
-0.05
 74
     0
  0
LTYPE
  5
71
330
5
100
AcDbSymbolTableRecord
100
AcDbLinetypeTableRecord
  2
CENTERX2
 70
     0
  3
Center (2x) ________  __  ________  __  _____
 72
    65
 73
     4
 40
0.8
 49
0.5
 74
     0
 49
-0.1
 74
     0
 49
0.1
 74
     0
 49
-0.1
 74
     0
  0
LTYPE
  5
72
330
5
100
AcDbSymbolTableRecord
100
AcDbLinetypeTableRecord
  2
DOT2
 70
     0
  3
Dot (.5x) ........................................
 72
    65
 73
     2
 40
0.025
 49
0.0
 74
     0
 49
-0.025
 74
     0
  0
ENDTAB
  0
TABLE
  2
LAYER
  5
2
330
0
100
AcDbSymbolTable
 70
     2
  0
LAYER
  5
10
330
2
100
AcDbSymbolTableRecord
100
AcDbLayerTableRecord
  2
0
 70
     0
 62
     7
  6
Continuous
370
    -3
390
F
  0
LAYER
  5
73
330
2
100
AcDbSymbolTableRecord
100
AcDbLayerTableRecord
  2
FORMAT
 70
     0
 62
     7
  6
Continuous
370
    -3
390
F
  0
ENDTAB
  0
TABLE
  2
STYLE
  5
3
330
0
100
AcDbSymbolTable
 70
     3
  0
STYLE
  5
11
330
3
100
AcDbSymbolTableRecord
100
AcDbTextStyleTableRecord
  2
Standard
 70
     0
 40
0.0
 41
1.0
 50
0.0
 71
     0
 42
0.1111111111
  3
txt
  4

  0
STYLE
  5
9D
330
3
100
AcDbSymbolTableRecord
100
AcDbTextStyleTableRecord
  2
SLDTEXTSTYLE0
 70
     0
 40
0.0
 41
0.75
 50
0.0
 71
     0
 42
0.1111111111
  3
TXT
  4

  0
STYLE
  5
B0
330
3
100
AcDbSymbolTableRecord
100
AcDbTextStyleTableRecord
  2
SLDTEXTSTYLE1
 70
     0
 40
0.0
 41
0.6
 50
0.0
 71
     0
 42
0.1111111111
  3
TXT
  4

  0
ENDTAB
  0
TABLE
  2
VIEW
  5
6
330
0
100
AcDbSymbolTable
 70
     0
  0
ENDTAB
  0
TABLE
  2
UCS
  5
7
330
0
100
AcDbSymbolTable
 70
     0
  0
ENDTAB
  0
TABLE
  2
APPID
  5
9
330
0
100
AcDbSymbolTable
 70
     1
  0
APPID
  5
12
330
9
100
AcDbSymbolTableRecord
100
AcDbRegAppTableRecord
  2
ACAD
 70
     0
  0
ENDTAB
  0
TABLE
  2
DIMSTYLE
  5
A
330
0
100
AcDbSymbolTable
 70
     6
100
AcDbDimStyleTable
  0
DIMSTYLE
105
27
330
A
100
AcDbSymbolTableRecord
100
AcDbDimStyleTableRecord
  2
Standard
 70
     0
178
     0
340
11
  0
DIMSTYLE
105
DB
102
{ACAD_REACTORS
330
DA
330
EF
102
}
330
A
100
AcDbSymbolTableRecord
100
AcDbDimStyleTableRecord
  2
SLDDIMSTYLE0
 70
     0
 41
0.125
 44
0.0
 45
0.000000001
 78
     4
 79
     1
140
0.0833333333
147
0.0208333333
148
0.000000001
170
     1
171
     1
173
     1
178
     0
271
     2
272
     2
274
     1
276
     2
284
    12
340
9D
  0
DIMSTYLE
105
104
102
{ACAD_REACTORS
330
103
102
}
330
A
100
AcDbSymbolTableRecord
100
AcDbDimStyleTableRecord
  2
SLDDIMSTYLE1
 70
     0
 41
0.125
 44
0.0
 45
0.000000001
 78
     8
 79
     2
140
0.0833333333
147
0.0208333333
148
0.000000001
170
     1
171
     1
173
     1
178
     0
271
     2
272
     2
274
     1
276
     2
284
    12
340
9D
  0
DIMSTYLE
105
119
330
A
100
AcDbSymbolTableRecord
100
AcDbDimStyleTableRecord
  2
SLDDIMSTYLE2
 70
     0
 41
0.04
 44
0.0
 45
0.000000001
146
0.04
147
0.0
173
     1
178
     0
271
     0
272
     0
276
     2
340
11
341
11A
343
11A
344
11A
  0
DIMSTYLE
105
139
102
{ACAD_REACTORS
330
138
102
}
330
A
100
AcDbSymbolTableRecord
100
AcDbDimStyleTableRecord
  2
SLDDIMSTYLE3
 70
     0
 41
0.125
 44
0.0
 78
    12
 79
     3
140
0.0833333333
147
0.0208333333
148
0.000000001
170
     1
171
     1
173
     1
178
     0
272
     0
274
     1
276
     2
284
    12
340
9D
  0
DIMSTYLE
105
145
102
{ACAD_REACTORS
330
144
102
}
330
A
100
AcDbSymbolTableRecord
100
AcDbDimStyleTableRecord
  2
SLDDIMSTYLE4
 70
     0
 41
0.125
 44
0.0
 45
0.000000001
 78
     8
 79
     2
140
0.0833333333
147
0.0208333333
148
0.000000001
170
     1
171
     1
172
     1
173
     1
178
     0
271
     2
272
     2
274
     1
276
     2
284
    12
289
     0
340
9D
  0
ENDTAB
  0
TABLE
  2
BLOCK_RECORD
  5
1
330
0
100
AcDbSymbolTable
 70
    13
  0
BLOCK_RECORD
  5
1F
330
1
100
AcDbSymbolTableRecord
100
AcDbBlockTableRecord
  2
*Model_Space
340
22
  0
BLOCK_RECORD
  5
1B
330
1
100
AcDbSymbolTableRecord
100
AcDbBlockTableRecord
  2
*Paper_Space
340
1E
  0
BLOCK_RECORD
  5
23
330
1
100
AcDbSymbolTableRecord
100
AcDbBlockTableRecord
  2
*Paper_Space0
340
26
  0
BLOCK_RECORD
  5
74
330
1
100
AcDbSymbolTableRecord
100
AcDbBlockTableRecord
  2
Third Angle Projection Block
340
0
102
{BLKREFS
331
99
102
}
  0
BLOCK_RECORD
  5
9A
330
1
100
AcDbSymbolTableRecord
100
AcDbBlockTableRecord
  2
SW_NOTE_0
340
0
102
{BLKREFS
331
A6
102
}
  0
BLOCK_RECORD
  5
B6
330
1
100
AcDbSymbolTableRecord
100
AcDbBlockTableRecord
  2
SW_NOTE_1
340
0
102
{BLKREFS
331
BB
102
}
  0
BLOCK_RECORD
  5
BC
330
1
100
AcDbSymbolTableRecord
100
AcDbBlockTableRecord
  2
SW_NOTE_2
340
0
102
{BLKREFS
331
C1
102
}
  0
BLOCK_RECORD
  5
C3
330
1
100
AcDbSymbolTableRecord
100
AcDbBlockTableRecord
  2
SW_NOTE_3
340
0
102
{BLKREFS
331
C8
102
}
  0
BLOCK_RECORD
  5
DC
330
1
100
AcDbSymbolTableRecord
100
AcDbBlockTableRecord
  2
_D
340
0
  0
BLOCK_RECORD
  5
F0
330
1
100
AcDbSymbolTableRecord
100
AcDbBlockTableRecord
  2
_D_1
340
0
  0
BLOCK_RECORD
  5
105
330
1
100
AcDbSymbolTableRecord
100
AcDbBlockTableRecord
  2
_D_2
340
0
  0
BLOCK_RECORD
  5
11A
330
1
100
AcDbSymbolTableRecord
100
AcDbBlockTableRecord
  2
_DOT
340
0
  0
BLOCK_RECORD
  5
123
330
1
100
AcDbSymbolTableRecord
100
AcDbBlockTableRecord
  2
SW_CENTERMARKSYMBOL_0
340
0
102
{BLKREFS
331
12A
102
}
  0
BLOCK_RECORD
  5
13A
330
1
100
AcDbSymbolTableRecord
100
AcDbBlockTableRecord
  2
_D_3
340
0
  0
BLOCK_RECORD
  5
146
330
1
100
AcDbSymbolTableRecord
100
AcDbBlockTableRecord
  2
_D_4
340
0
  0
ENDTAB
  0
ENDSEC
  0
SECTION
  2
BLOCKS
  0
BLOCK
  5
20
330
1F
100
AcDbEntity
  8
0
100
AcDbBlockBegin
  2
*Model_Space
 70
     0
 10
0.0
 20
0.0
 30
0.0
  3
*Model_Space
  1

  0
ENDBLK
  5
21
330
1F
100
AcDbEntity
  8
0
100
AcDbBlockEnd
  0
BLOCK
  5
1C
330
1B
100
AcDbEntity
 67
     1
  8
0
100
AcDbBlockBegin
  2
*Paper_Space
 70
     0
 10
0.0
 20
0.0
 30
0.0
  3
*Paper_Space
  1

  0
ENDBLK
  5
1D
330
1B
100
AcDbEntity
 67
     1
  8
0
100
AcDbBlockEnd
  0
BLOCK
  5
24
330
23
100
AcDbEntity
  8
0
100
AcDbBlockBegin
  2
*Paper_Space0
 70
     0
 10
0.0
 20
0.0
 30
0.0
  3
*Paper_Space0
  1

  0
ENDBLK
  5
25
330
23
100
AcDbEntity
  8
0
100
AcDbBlockEnd
  0
BLOCK
  5
75
330
74
100
AcDbEntity
  8
0
100
AcDbBlockBegin
  2
Third Angle Projection Block
 70
     0
 10
0.0
 20
0.0
 30
0.0
  3
Third Angle Projection Block
  1

  0
CIRCLE
  5
77
330
74
100
AcDbEntity
  8
0
  6
Continuous
 62
     7
370
    35
100
AcDbCircle
 10
3.9951432636
 20
0.7456853688
 30
0.0
 40
0.0696152422706639
  0
CIRCLE
  5
78
330
74
100
AcDbEntity
  8
0
  6
Continuous
 62
     7
370
    35
100
AcDbCircle
 10
3.9951432636
 20
0.7456853688
 30
0.0
 40
0.1535916633280245
  0
LINE
  5
79
330
74
100
AcDbEntity
  8
0
  6
CENTERX2
 62
     7
370
    18
100
AcDbLine
 10
4.3360937897
 20
0.7456853688
 30
0.0
 11
4.7028635231
 21
0.7456853688
 31
0.0
  0
LINE
  5
7A
330
74
100
AcDbEntity
  8
0
  6
Continuous
 62
     7
370
    35
100
AcDbLine
 10
4.3701432636
 20
0.815300611
 30
0.0
 11
4.3701432636
 21
0.6760701265
 31
0.0
  0
LINE
  5
7B
330
74
100
AcDbEntity
  8
0
  6
Continuous
 62
     7
370
    35
100
AcDbLine
 10
4.3701432636
 20
0.6760701265
 30
0.0
 11
4.6701432636
 21
0.5956853688
 31
0.0
  0
LINE
  5
7C
330
74
100
AcDbEntity
  8
0
  6
Continuous
 62
     7
370
    35
100
AcDbLine
 10
4.6701432636
 20
0.5956853688
 30
0.0
 11
4.6701432636
 21
0.8956853688
 31
0.0
  0
LINE
  5
7D
330
74
100
AcDbEntity
  8
0
  6
Continuous
 62
     7
370
    35
100
AcDbLine
 10
4.6701432636
 20
0.8956853688
 30
0.0
 11
4.3701432636
 21
0.815300611
 31
0.0
  0
LINE
  5
7E
330
74
100
AcDbEntity
  8
0
  6
CENTERX2
 62
     7
370
    18
100
AcDbLine
 10
3.8032513961
 20
0.7456853688
 30
0.0
 11
4.187035131
 21
0.7456853688
 31
0.0
  0
LINE
  5
7F
330
74
100
AcDbEntity
  8
0
  6
CENTERX2
 62
     7
370
    18
100
AcDbLine
 10
3.9951432636
 20
0.9375772362
 30
0.0
 11
3.9951432636
 21
0.5537935013
 31
0.0
  0
POINT
  5
80
330
74
100
AcDbEntity
  8
0
  6
Continuous
 62
     7
370
     0
100
AcDbPoint
 10
3.9951432636
 20
0.7456853688
 30
0.0
  0
ENDBLK
  5
76
330
74
100
AcDbEntity
  8
0
100
AcDbBlockEnd
  0
BLOCK
  5
9B
330
9A
100
AcDbEntity
  8
0
100
AcDbBlockBegin
  2
SW_NOTE_0
 70
     0
 10
0.0
 20
0.0
 30
0.0
  3
SW_NOTE_0
  1

  0
MTEXT
  5
9E
330
9A
100
AcDbEntity
  8
0
  6
Continuous
 62
     0
370
     0
100
AcDbMText
 10
0.0
 20
0.1074223116
 30
0.0
 40
0.0833333333
 41
0.0
 71
     1
 72
     1
  1
NOTES/SPECIFICATIONS:
  7
SLDTEXTSTYLE0
 73
     1
 44
1.0
  0
MTEXT
  5
9F
330
9A
100
AcDbEntity
  8
0
  6
Continuous
 62
     0
370
     0
100
AcDbMText
 10
0.0
 20
-0.0036887981
 30
0.0
 40
0.0833333333
 41
0.0
 71
     1
 72
     1
  1
1.  DESIGN WAVELENGTH: 633nm
  7
SLDTEXTSTYLE0
 73
     1
 44
1.0
  0
MTEXT
  5
A0
330
9A
100
AcDbEntity
  8
0
  6
Continuous
 62
     0
370
     0
100
AcDbMText
 10
0.0
 20
-0.1147999079
 30
0.0
 40
0.0833333333
 41
0.0
 71
     1
 72
     1
  1
2.  ACCEPTED BEAM SIZE: 10mm TO 25.4mm
  7
SLDTEXTSTYLE0
 73
     1
 44
1.0
  0
MTEXT
  5
A1
330
9A
100
AcDbEntity
  8
0
  6
Continuous
 62
     0
370
     0
100
AcDbMText
 10
0.0
 20
-0.2259110177
 30
0.0
 40
0.0833333333
 41
0.0
 71
     1
 72
     1
  1
3.  WEDGED FLAT:
  7
SLDTEXTSTYLE0
 73
     1
 44
1.0
  0
MTEXT
  5
A2
330
9A
100
AcDbEntity
  8
0
  6
Continuous
 62
     0
370
     0
100
AcDbMText
 10
0.3937007874
 20
-0.3370221274
 30
0.0
 40
0.0833333333
 41
0.0
 71
     1
 72
     1
  1
MATERIAL: UV GRADE FUSED SILICA
  7
SLDTEXTSTYLE0
 73
     1
 44
1.0
  0
MTEXT
  5
A3
330
9A
100
AcDbEntity
  8
0
  6
Continuous
 62
     0
370
     0
100
AcDbMText
 10
0.3937007874
 20
-0.4481332372
 30
0.0
 40
0.0833333333
 41
0.0
 71
     1
 72
     1
  1
WEDGE ANGLE(REF): 18arcsec
  7
SLDTEXTSTYLE0
 73
     1
 44
1.0
  0
MTEXT
  5
A4
330
9A
100
AcDbEntity
  8
0
  6
Continuous
 62
     0
370
     0
100
AcDbMText
 10
0.3937007874
 20
-0.559244347
 30
0.0
 40
0.0833333333
 41
0.0
 71
     1
 72
     1
  1
THICKNESS: 6.35mm +/-0.25mm
  7
SLDTEXTSTYLE0
 73
     1
 44
1.0
  0
MTEXT
  5
A5
330
9A
100
AcDbEntity
  8
0
  6
Continuous
 62
     0
370
     0
100
AcDbMText
 10
0.3937007874
 20
-0.6703554567
 30
0.0
 40
0.0833333333
 41
0.0
 71
     1
 72
     1
  1
SURFACE QUALITY: 40-20 SCRATCH-DIG
  7
SLDTEXTSTYLE0
 73
     1
 44
1.0
  0
ENDBLK
  5
9C
330
9A
100
AcDbEntity
  8
0
100
AcDbBlockEnd
  0
BLOCK
  5
B7
330
B6
100
AcDbEntity
  8
0
100
AcDbBlockBegin
  2
SW_NOTE_1
 70
     0
 10
0.0
 20
0.0
 30
0.0
  3
SW_NOTE_1
  1

  0
MTEXT
  5
B9
330
B6
100
AcDbEntity
  8
0
  6
Continuous
 62
     0
370
     0
100
AcDbMText
 10
0.78375
 20
0.0773440644
 30
0.0
 40
0.06
 41
0.0
 71
     2
 72
     1
  1
VALUES IN PARENTHESIS ARE CALCULATED
  7
SLDTEXTSTYLE0
 73
     1
 44
1.0
  0
MTEXT
  5
BA
330
B6
100
AcDbEntity
  8
0
  6
Continuous
 62
     0
370
     0
100
AcDbMText
 10
0.7825936818
 20
-0.0220260102
 30
0.0
 40
0.06
 41
0.0
 71
     2
 72
     1
  1
AND MAY CONTAIN ROUNDOFF ERRORS
  7
SLDTEXTSTYLE0
 73
     1
 44
1.0
  0
ENDBLK
  5
B8
330
B6
100
AcDbEntity
  8
0
100
AcDbBlockEnd
  0
BLOCK
  5
BD
330
BC
100
AcDbEntity
  8
0
100
AcDbBlockBegin
  2
SW_NOTE_2
 70
     0
 10
0.0
 20
0.0
 30
0.0
  3
SW_NOTE_2
  1

  0
MTEXT
  5
BF
330
BC
100
AcDbEntity
  8
0
  6
Continuous
 62
     0
370
     0
100
AcDbMText
 10
0.0
 20
0.1074223116
 30
0.0
 40
0.0833333333
 41
0.0
 71
     1
 72
     1
  1
DRAWING
  7
SLDTEXTSTYLE0
 73
     1
 44
1.0
  0
MTEXT
  5
C0
330
BC
100
AcDbEntity
  8
0
  6
Continuous
 62
     0
370
     0
100
AcDbMText
 10
0.0
 20
-0.0036887981
 30
0.0
 40
0.0833333333
 41
0.0
 71
     1
 72
     1
  1
PROJECTION
  7
SLDTEXTSTYLE0
 73
     1
 44
1.0
  0
ENDBLK
  5
BE
330
BC
100
AcDbEntity
  8
0
100
AcDbBlockEnd
  0
BLOCK
  5
C4
330
C3
100
AcDbEntity
  8
0
100
AcDbBlockBegin
  2
SW_NOTE_3
 70
     0
 10
0.0
 20
0.0
 30
0.0
  3
SW_NOTE_3
  1

  0
MTEXT
  5
C6
330
C3
100
AcDbEntity
  8
0
  6
Continuous
 62
     0
370
     0
100
AcDbMText
 10
0.986328125
 20
0.1611334675
 30
0.0
 40
0.125
 41
0.0
 71
     2
 72
     1
  1
FOR INFORMATION ONLY
  7
SLDTEXTSTYLE0
 73
     1
 44
1.0
  0
MTEXT
  5
C7
330
C3
100
AcDbEntity
  8
0
  6
Continuous
 62
     0
370
     0
100
AcDbMText
 10
0.999088459
 20
-0.0055331972
 30
0.0
 40
0.125
 41
0.0
 71
     2
 72
     1
  1
NOT FOR MANUFACTURING PURPOSES
  7
SLDTEXTSTYLE0
 73
     1
 44
1.0
  0
ENDBLK
  5
C5
330
C3
100
AcDbEntity
  8
0
100
AcDbBlockEnd
  0
BLOCK
  5
DD
330
DC
100
AcDbEntity
  8
0
100
AcDbBlockBegin
  2
_D
 70
     0
 10
0.0
 20
0.0
 30
0.0
  3
_D
  1

  0
SOLID
  5
DF
330
DC
100
AcDbEntity
  8
0
  6
Continuous
 62
     7
370
    18
100
AcDbTrace
 10
1.6797313298
 20
3.288343262
 30
0.0
 11
1.6997313298
 21
3.413343262
 31
0.0
 12
1.6597313298
 22
3.413343262
 32
0.0
 13
1.6597313298
 23
3.413343262
 33
0.0
  0
SOLID
  5
E0
330
DC
100
AcDbEntity
  8
0
  6
Continuous
 62
     7
370
    18
100
AcDbTrace
 10
1.6797313298
 20
5.288343262
 30
0.0
 11
1.6597313298
 21
5.163343262
 31
0.0
 12
1.6997313298
 22
5.163343262
 32
0.0
 13
1.6997313298
 23
5.163343262
 33
0.0
  0
LINE
  5
E1
330
DC
100
AcDbEntity
  8
0
  6
Continuous
 62
     7
370
    18
100
AcDbLine
 10
1.4678485967
 20
4.2883432528
 30
0.0
 11
1.4425013741
 21
4.2883432528
 31
0.0
  0
LINE
  5
E2
330
DC
100
AcDbEntity
  8
0
  6
Continuous
 62
     7
370
    18
100
AcDbLine
 10
1.4425013741
 20
4.2883432528
 30
0.0
 11
1.4425013741
 21
4.1559358482
 31
0.0
  0
LINE
  5
E3
330
DC
100
AcDbEntity
  8
0
  6
Continuous
 62
     7
370
    18
100
AcDbLine
 10
1.4425013741
 20
4.1559358482
 30
0.0
 11
1.4678485967
 21
4.1559358482
 31
0.0
  0
LINE
  5
E4
330
DC
100
AcDbEntity
  8
0
  6
Continuous
 62
     7
370
    18
100
AcDbLine
 10
1.8916140446
 20
4.2883432528
 30
0.0
 11
1.9169612672
 21
4.2883432528
 31
0.0
  0
LINE
  5
E5
330
DC
100
AcDbEntity
  8
0
  6
Continuous
 62
     7
370
    18
100
AcDbLine
 10
1.9169612672
 20
4.2883432528
 30
0.0
 11
1.9169612672
 21
4.1559358482
 31
0.0
  0
LINE
  5
E6
330
DC
100
AcDbEntity
  8
0
  6
Continuous
 62
     7
370
    18
100
AcDbLine
 10
1.9169612672
 20
4.1559358482
 30
0.0
 11
1.8916140446
 21
4.1559358482
 31
0.0
  0
LINE
  5
E7
330
DC
100
AcDbEntity
  8
0
  6
Continuous
 62
     7
370
    18
100
AcDbLine
 10
2.369526649
 20
3.288343262
 30
0.0
 11
1.6097313298
 21
3.288343262
 31
0.0
  0
LINE
  5
E8
330
DC
100
AcDbEntity
  8
0
  6
Continuous
 62
     7
370
    18
100
AcDbLine
 10
2.369526649
 20
5.288343262
 30
0.0
 11
1.6097313298
 21
5.288343262
 31
0.0
  0
LINE
  5
E9
330
DC
100
AcDbEntity
  8
0
  6
Continuous
 62
     7
370
    18
100
AcDbLine
 10
1.6797313298
 20
3.288343262
 30
0.0
 11
1.6797313298
 21
4.1390377151
 31
0.0
  0
LINE
  5
EA
330
DC
100
AcDbEntity
  8
0
  6
Continuous
 62
     7
370
    18
100
AcDbLine
 10
1.6797313298
 20
5.288343262
 30
0.0
 11
1.6797313298
 21
4.4376488088
 31
0.0
  0
MTEXT
  5
EB
330
DC
100
AcDbEntity
  8
0
  6
Continuous
 62
     7
370
    18
100
AcDbMText
 10
1.4182343993
 20
4.4126637113
 30
0.0
 40
0.0833333333
 41
0.0
 71
     1
 72
     1
  1

  7
SLDTEXTSTYLE0
 73
     1
 44
1.0
  0
MTEXT
  5
EC
330
DC
100
AcDbEntity
  8
0
  6
Continuous
 62
     7
370
    18
100
AcDbMText
 10
1.5270306905
 20
4.4126637113
 30
0.0
 40
0.0833333333
 41
0.0
 71
     1
 72
     1
  1
2.00in
  7
SLDTEXTSTYLE0
 73
     1
 44
1.0
  0
MTEXT
  5
ED
330
DC
100
AcDbEntity
  8
0
  6
Continuous
 62
     7
370
    18
100
AcDbMText
 10
1.4678485967
 20
4.2633581553
 30
0.0
 40
0.0833333333
 41
0.0
 71
     1
 72
     1
  1
50.8mm
  7
SLDTEXTSTYLE0
 73
     1
 44
1.0
  0
MTEXT
  5
EE
330
DC
100
AcDbEntity
  8
0
  6
Continuous
 62
     7
370
    18
100
AcDbMText
 10
2.0048084898
 20
4.4126637113
 30
0.0
 40
0.0833333333
 41
0.0
 71
     1
 72
     1
  1

  7
SLDTEXTSTYLE0
 73
     1
 44
1.0
  0
ENDBLK
  5
DE
330
DC
100
AcDbEntity
  8
0
100
AcDbBlockEnd
  0
BLOCK
  5
F1
330
F0
100
AcDbEntity
  8
0
100
AcDbBlockBegin
  2
_D_1
 70
     0
 10
0.0
 20
0.0
 30
0.0
  3
_D_1
  1

  0
SOLID
  5
F3
330
F0
100
AcDbEntity
  8
0
  6
Continuous
 62
     7
370
    18
100
AcDbTrace
 10
2.419526649
 20
2.9891240628
 30
0.0
 11
2.544526649
 21
2.9691240628
 31
0.0
 12
2.544526649
 22
3.0091240628
 32
0.0
 13
2.544526649
 23
3.0091240628
 33
0.0
  0
SOLID
  5
F4
330
F0
100
AcDbEntity
  8
0
  6
Continuous
 62
     7
370
    18
100
AcDbTrace
 10
4.319526649
 20
2.9891240628
 30
0.0
 11
4.194526649
 21
3.0091240628
 31
0.0
 12
4.194526649
 22
2.9691240628
 32
0.0
 13
4.194526649
 23
2.9691240628
 33
0.0
  0
LINE
  5
F5
330
F0
100
AcDbEntity
  8
0
  6
Continuous
 62
     7
370
    18
100
AcDbLine
 10
3.1576439158
 20
2.9891240536
 30
0.0
 11
3.1322966932
 21
2.9891240536
 31
0.0
  0
LINE
  5
F6
330
F0
100
AcDbEntity
  8
0
  6
Continuous
 62
     7
370
    18
100
AcDbLine
 10
3.1322966932
 20
2.9891240536
 30
0.0
 11
3.1322966932
 21
2.856716649
 31
0.0
  0
LINE
  5
F7
330
F0
100
AcDbEntity
  8
0
  6
Continuous
 62
     7
370
    18
100
AcDbLine
 10
3.1322966932
 20
2.856716649
 30
0.0
 11
3.1576439158
 21
2.856716649
 31
0.0
  0
LINE
  5
F8
330
F0
100
AcDbEntity
  8
0
  6
Continuous
 62
     7
370
    18
100
AcDbLine
 10
3.5814093638
 20
2.9891240536
 30
0.0
 11
3.6067565864
 21
2.9891240536
 31
0.0
  0
LINE
  5
F9
330
F0
100
AcDbEntity
  8
0
  6
Continuous
 62
     7
370
    18
100
AcDbLine
 10
3.6067565864
 20
2.9891240536
 30
0.0
 11
3.6067565864
 21
2.856716649
 31
0.0
  0
LINE
  5
FA
330
F0
100
AcDbEntity
  8
0
  6
Continuous
 62
     7
370
    18
100
AcDbLine
 10
3.6067565864
 20
2.856716649
 30
0.0
 11
3.5814093638
 21
2.856716649
 31
0.0
  0
LINE
  5
FB
330
F0
100
AcDbEntity
  8
0
  6
Continuous
 62
     7
370
    18
100
AcDbLine
 10
2.419526649
 20
3.238343262
 30
0.0
 11
2.419526649
 21
2.9191240628
 31
0.0
  0
LINE
  5
FC
330
F0
100
AcDbEntity
  8
0
  6
Continuous
 62
     7
370
    18
100
AcDbLine
 10
4.319526649
 20
3.238343262
 30
0.0
 11
4.319526649
 21
2.9191240628
 31
0.0
  0
LINE
  5
FD
330
F0
100
AcDbEntity
  8
0
  6
Continuous
 62
     7
370
    18
100
AcDbLine
 10
2.419526649
 20
2.9891240628
 30
0.0
 11
3.0286255794
 21
2.9891240628
 31
0.0
  0
LINE
  5
FE
330
F0
100
AcDbEntity
  8
0
  6
Continuous
 62
     7
370
    18
100
AcDbLine
 10
4.319526649
 20
2.9891240628
 30
0.0
 11
3.7104277186
 21
2.9891240628
 31
0.0
  0
MTEXT
  5
FF
330
F0
100
AcDbEntity
  8
0
  6
Continuous
 62
     7
370
    18
100
AcDbMText
 10
3.1080297185
 20
3.1134445121
 30
0.0
 40
0.0833333333
 41
0.0
 71
     1
 72
     1
  1

  7
SLDTEXTSTYLE0
 73
     1
 44
1.0
  0
MTEXT
  5
100
330
F0
100
AcDbEntity
  8
0
  6
Continuous
 62
     7
370
    18
100
AcDbMText
 10
3.2168260097
 20
3.1134445121
 30
0.0
 40
0.0833333333
 41
0.0
 71
     1
 72
     1
  1
1.90in
  7
SLDTEXTSTYLE0
 73
     1
 44
1.0
  0
MTEXT
  5
101
330
F0
100
AcDbEntity
  8
0
  6
Continuous
 62
     7
370
    18
100
AcDbMText
 10
3.1576439158
 20
2.9641389561
 30
0.0
 40
0.0833333333
 41
0.0
 71
     1
 72
     1
  1
48.3mm
  7
SLDTEXTSTYLE0
 73
     1
 44
1.0
  0
MTEXT
  5
102
330
F0
100
AcDbEntity
  8
0
  6
Continuous
 62
     7
370
    18
100
AcDbMText
 10
3.694603809
 20
3.1134445121
 30
0.0
 40
0.0833333333
 41
0.0
 71
     1
 72
     1
  1

  7
SLDTEXTSTYLE0
 73
     1
 44
1.0
  0
ENDBLK
  5
F2
330
F0
100
AcDbEntity
  8
0
100
AcDbBlockEnd
  0
BLOCK
  5
106
330
105
100
AcDbEntity
  8
0
100
AcDbBlockBegin
  2
_D_2
 70
     0
 10
0.0
 20
0.0
 30
0.0
  3
_D_2
  1

  0
SOLID
  5
108
330
105
100
AcDbEntity
  8
0
  6
Continuous
 62
     7
370
    18
100
AcDbTrace
 10
2.0832640371
 20
3.288343262
 30
0.0
 11
2.1032640371
 21
3.413343262
 31
0.0
 12
2.0632640371
 22
3.413343262
 32
0.0
 13
2.0632640371
 23
3.413343262
 33
0.0
  0
SOLID
  5
109
330
105
100
AcDbEntity
  8
0
  6
Continuous
 62
     7
370
    18
100
AcDbTrace
 10
2.0832640371
 20
4.137343262
 30
0.0
 11
2.0632640371
 21
4.012343262
 31
0.0
 12
2.1032640371
 22
4.012343262
 32
0.0
 13
2.1032640371
 23
4.012343262
 33
0.0
  0
LINE
  5
10A
330
105
100
AcDbEntity
  8
0
  6
Continuous
 62
     7
370
    18
100
AcDbLine
 10
1.8713813039
 20
3.7128432528
 30
0.0
 11
1.8460340813
 21
3.7128432528
 31
0.0
  0
LINE
  5
10B
330
105
100
AcDbEntity
  8
0
  6
Continuous
 62
     7
370
    18
100
AcDbLine
 10
1.8460340813
 20
3.7128432528
 30
0.0
 11
1.8460340813
 21
3.5804358482
 31
0.0
  0
LINE
  5
10C
330
105
100
AcDbEntity
  8
0
  6
Continuous
 62
     7
370
    18
100
AcDbLine
 10
1.8460340813
 20
3.5804358482
 30
0.0
 11
1.8713813039
 21
3.5804358482
 31
0.0
  0
LINE
  5
10D
330
105
100
AcDbEntity
  8
0
  6
Continuous
 62
     7
370
    18
100
AcDbLine
 10
2.2951467519
 20
3.7128432528
 30
0.0
 11
2.3204939745
 21
3.7128432528
 31
0.0
  0
LINE
  5
10E
330
105
100
AcDbEntity
  8
0
  6
Continuous
 62
     7
370
    18
100
AcDbLine
 10
2.3204939745
 20
3.7128432528
 30
0.0
 11
2.3204939745
 21
3.5804358482
 31
0.0
  0
LINE
  5
10F
330
105
100
AcDbEntity
  8
0
  6
Continuous
 62
     7
370
    18
100
AcDbLine
 10
2.3204939745
 20
3.5804358482
 30
0.0
 11
2.2951467519
 21
3.5804358482
 31
0.0
  0
LINE
  5
110
330
105
100
AcDbEntity
  8
0
  6
Continuous
 62
     7
370
    18
100
AcDbLine
 10
2.369526649
 20
3.288343262
 30
0.0
 11
2.0132640371
 21
3.288343262
 31
0.0
  0
LINE
  5
111
330
105
100
AcDbEntity
  8
0
  6
Continuous
 62
     7
370
    18
100
AcDbLine
 10
3.269526649
 20
4.137343262
 30
0.0
 11
2.0132640371
 21
4.137343262
 31
0.0
  0
LINE
  5
112
330
105
100
AcDbEntity
  8
0
  6
Continuous
 62
     7
370
    18
100
AcDbLine
 10
2.0832640371
 20
3.288343262
 30
0.0
 11
2.0832640371
 21
3.5635377151
 31
0.0
  0
LINE
  5
113
330
105
100
AcDbEntity
  8
0
  6
Continuous
 62
     7
370
    18
100
AcDbLine
 10
2.0832640371
 20
4.137343262
 30
0.0
 11
2.0832640371
 21
3.8621488088
 31
0.0
  0
MTEXT
  5
114
330
105
100
AcDbEntity
  8
0
  6
Continuous
 62
     7
370
    18
100
AcDbMText
 10
1.8217671066
 20
3.8371637113
 30
0.0
 40
0.0833333333
 41
0.0
 71
     1
 72
     1
  1

  7
SLDTEXTSTYLE0
 73
     1
 44
1.0
  0
MTEXT
  5
115
330
105
100
AcDbEntity
  8
0
  6
Continuous
 62
     7
370
    18
100
AcDbMText
 10
1.9305633977
 20
3.8371637113
 30
0.0
 40
0.0833333333
 41
0.0
 71
     1
 72
     1
  1
0.85in
  7
SLDTEXTSTYLE0
 73
     1
 44
1.0
  0
MTEXT
  5
116
330
105
100
AcDbEntity
  8
0
  6
Continuous
 62
     7
370
    18
100
AcDbMText
 10
1.8713813039
 20
3.6878581553
 30
0.0
 40
0.0833333333
 41
0.0
 71
     1
 72
     1
  1
21.6mm
  7
SLDTEXTSTYLE0
 73
     1
 44
1.0
  0
MTEXT
  5
117
330
105
100
AcDbEntity
  8
0
  6
Continuous
 62
     7
370
    18
100
AcDbMText
 10
2.4083411971
 20
3.8371637113
 30
0.0
 40
0.0833333333
 41
0.0
 71
     1
 72
     1
  1

  7
SLDTEXTSTYLE0
 73
     1
 44
1.0
  0
ENDBLK
  5
107
330
105
100
AcDbEntity
  8
0
100
AcDbBlockEnd
  0
BLOCK
  5
11B
330
11A
100
AcDbEntity
  8
0
100
AcDbBlockBegin
  2
_DOT
 70
     0
 10
0.0
 20
0.0
 30
0.0
  3
_DOT
  1

  0
POLYLINE
  5
11D
330
11A
100
AcDbEntity
  8
0
  6
ByBlock
 62
     0
100
AcDb2dPolyline
 66
     1
 10
0.0
 20
0.0
 30
0.0
 70
     1
 40
0.5
 41
0.5
  0
VERTEX
  5
11F
330
11D
100
AcDbEntity
  8
0
  6
ByBlock
 62
     0
100
AcDbVertex
100
AcDb2dVertex
 10
-0.25
 20
0.0
 30
0.0
 42
1.0
  0
VERTEX
  5
120
330
11D
100
AcDbEntity
  8
0
  6
ByBlock
 62
     0
100
AcDbVertex
100
AcDb2dVertex
 10
0.25
 20
0.0
 30
0.0
 42
1.0
  0
SEQEND
  5
121
330
11D
100
AcDbEntity
  8
0
  6
ByBlock
 62
     0
  0
LINE
  5
11E
330
11A
100
AcDbEntity
  8
0
  6
ByBlock
 62
     0
370
    -2
100
AcDbLine
 10
-0.5
 20
0.0
 30
0.0
 11
-1.0
 21
0.0
 31
0.0
  0
ENDBLK
  5
11C
330
11A
100
AcDbEntity
  8
0
100
AcDbBlockEnd
  0
BLOCK
  5
124
330
123
100
AcDbEntity
  8
0
100
AcDbBlockBegin
  2
SW_CENTERMARKSYMBOL_0
 70
     0
 10
0.0
 20
0.0
 30
0.0
  3
SW_CENTERMARKSYMBOL_0
  1

  0
LINE
  5
126
330
123
100
AcDbEntity
  8
0
  6
Continuous
 62
     0
370
     0
100
AcDbLine
 10
0.0
 20
0.0
 30
0.0
 11
0.0
 21
0.05
 31
0.0
  0
LINE
  5
127
330
123
100
AcDbEntity
  8
0
  6
Continuous
 62
     0
370
     0
100
AcDbLine
 10
0.0
 20
0.0
 30
0.0
 11
-0.05
 21
0.0
 31
0.0
  0
LINE
  5
128
330
123
100
AcDbEntity
  8
0
  6
Continuous
 62
     0
370
     0
100
AcDbLine
 10
0.0
 20
0.0
 30
0.0
 11
0.0
 21
-0.05
 31
0.0
  0
LINE
  5
129
330
123
100
AcDbEntity
  8
0
  6
Continuous
 62
     0
370
     0
100
AcDbLine
 10
0.0
 20
0.0
 30
0.0
 11
0.05
 21
0.0
 31
0.0
  0
ENDBLK
  5
125
330
123
100
AcDbEntity
  8
0
100
AcDbBlockEnd
  0
BLOCK
  5
13B
330
13A
100
AcDbEntity
  8
0
100
AcDbBlockBegin
  2
_D_3
 70
     0
 10
0.0
 20
0.0
 30
0.0
  3
_D_3
  1

  0
ARC
  5
13D
330
13A
100
AcDbEntity
  8
0
  6
Continuous
 62
     7
370
    18
100
AcDbCircle
 10
7.7345008422
 20
5.160343262
 30
0.0
 40
0.6510269096609003
100
AcDbArc
 50
90.0
 51
104.7125258565
  0
ARC
  5
13E
330
13A
100
AcDbEntity
  8
0
  6
Continuous
 62
     7
370
    18
100
AcDbCircle
 10
7.7345008422
 20
5.160343262
 30
0.0
 40
0.6510269096609009
100
AcDbArc
 50
120.7569590657
 51
135.0
  0
SOLID
  5
13F
330
13A
100
AcDbEntity
  8
0
  6
Continuous
 62
     7
370
    18
100
AcDbTrace
 10
7.7345008422
 20
5.8113701716
 30
0.0
 11
7.6081685637
 21
5.8194420618
 31
0.0
 12
7.6119567928
 22
5.7796218494
 32
0.0
 13
7.6119567928
 23
5.7796218494
 33
0.0
  0
SOLID
  5
140
330
13A
100
AcDbEntity
  8
0
  6
Continuous
 62
     7
370
    18
100
AcDbTrace
 10
7.2741552996
 20
5.6206888045
 30
0.0
 11
7.3832564819
 21
5.6848910789
 31
0.0
 12
7.3577780221
 22
5.7157269036
 32
0.0
 13
7.3577780221
 23
5.7157269036
 33
0.0
  0
LINE
  5
141
330
13A
100
AcDbEntity
  8
0
  6
Continuous
 62
     7
370
    18
100
AcDbLine
 10
7.7345008422
 20
5.210343262
 30
0.0
 11
7.7345008422
 21
5.8813701716
 31
0.0
  0
LINE
  5
142
330
13A
100
AcDbEntity
  8
0
  6
Continuous
 62
     7
370
    18
100
AcDbLine
 10
7.5711455031
 20
5.323698601
 30
0.0
 11
7.224657825
 21
5.6701862792
 31
0.0
  0
MTEXT
  5
143
330
13A
100
AcDbEntity
  8
0
  6
Continuous
 62
     7
370
    18
100
AcDbMText
 10
7.4015673312
 20
5.8030323037
 30
0.0
 40
0.0833333333
 41
0.0
 71
     1
 72
     1
  1
45°
  7
SLDTEXTSTYLE0
 73
     1
 44
1.0
  0
ENDBLK
  5
13C
330
13A
100
AcDbEntity
  8
0
100
AcDbBlockEnd
  0
BLOCK
  5
147
330
146
100
AcDbEntity
  8
0
100
AcDbBlockBegin
  2
_D_4
 70
     0
 10
0.0
 20
0.0
 30
0.0
  3
_D_4
  1

  0
SOLID
  5
149
330
146
100
AcDbEntity
  8
0
  6
Continuous
 62
     7
370
    18
100
AcDbTrace
 10
7.7345008422
 20
3.1036276416
 30
0.0
 11
7.8595008422
 21
3.0836276416
 31
0.0
 12
7.8595008422
 22
3.1236276416
 32
0.0
 13
7.8595008422
 23
3.1236276416
 33
0.0
  0
SOLID
  5
14A
330
146
100
AcDbEntity
  8
0
  6
Continuous
 62
     7
370
    18
100
AcDbTrace
 10
7.4472882438
 20
3.1036276416
 30
0.0
 11
7.3222882438
 21
3.1236276416
 31
0.0
 12
7.3222882438
 22
3.0836276416
 32
0.0
 13
7.3222882438
 23
3.0836276416
 33
0.0
  0
LINE
  5
14B
330
146
100
AcDbEntity
  8
0
  6
Continuous
 62
     7
370
    18
100
AcDbLine
 10
6.7003193686
 20
3.1036276324
 30
0.0
 11
6.674972146
 21
3.1036276324
 31
0.0
  0
LINE
  5
14C
330
146
100
AcDbEntity
  8
0
  6
Continuous
 62
     7
370
    18
100
AcDbLine
 10
6.674972146
 20
3.1036276324
 30
0.0
 11
6.674972146
 21
2.9712202278
 31
0.0
  0
LINE
  5
14D
330
146
100
AcDbEntity
  8
0
  6
Continuous
 62
     7
370
    18
100
AcDbLine
 10
6.674972146
 20
2.9712202278
 30
0.0
 11
6.7003193686
 21
2.9712202278
 31
0.0
  0
LINE
  5
14E
330
146
100
AcDbEntity
  8
0
  6
Continuous
 62
     7
370
    18
100
AcDbLine
 10
7.0625107179
 20
3.1036276324
 30
0.0
 11
7.0878579405
 21
3.1036276324
 31
0.0
  0
LINE
  5
14F
330
146
100
AcDbEntity
  8
0
  6
Continuous
 62
     7
370
    18
100
AcDbLine
 10
7.0878579405
 20
3.1036276324
 30
0.0
 11
7.0878579405
 21
2.9712202278
 31
0.0
  0
LINE
  5
150
330
146
100
AcDbEntity
  8
0
  6
Continuous
 62
     7
370
    18
100
AcDbLine
 10
7.0878579405
 20
2.9712202278
 30
0.0
 11
7.0625107179
 21
2.9712202278
 31
0.0
  0
LINE
  5
151
330
146
100
AcDbEntity
  8
0
  6
Continuous
 62
     7
370
    18
100
AcDbLine
 10
7.7345008422
 20
3.238343262
 30
0.0
 11
7.7345008422
 21
3.0336276416
 31
0.0
  0
LINE
  5
152
330
146
100
AcDbEntity
  8
0
  6
Continuous
 62
     7
370
    18
100
AcDbLine
 10
7.4472882438
 20
3.3393117659
 30
0.0
 11
7.4472882438
 21
3.0336276416
 31
0.0
  0
LINE
  5
153
330
146
100
AcDbEntity
  8
0
  6
Continuous
 62
     7
370
    18
100
AcDbLine
 10
7.7345008422
 20
3.1036276416
 30
0.0
 11
7.9845008422
 21
3.1036276416
 31
0.0
  0
LINE
  5
154
330
146
100
AcDbEntity
  8
0
  6
Continuous
 62
     7
370
    18
100
AcDbLine
 10
7.4472882438
 20
3.1036276416
 30
0.0
 11
7.191529036
 21
3.1036276416
 31
0.0
  0
MTEXT
  5
155
330
146
100
AcDbEntity
  8
0
  6
Continuous
 62
     7
370
    18
100
AcDbMText
 10
6.6507051713
 20
3.2279480909
 30
0.0
 40
0.0833333333
 41
0.0
 71
     1
 72
     1
  1

  7
SLDTEXTSTYLE0
 73
     1
 44
1.0
  0
MTEXT
  5
156
330
146
100
AcDbEntity
  8
0
  6
Continuous
 62
     7
370
    18
100
AcDbMText
 10
6.7287144131
 20
3.2279480909
 30
0.0
 40
0.0833333333
 41
0.0
 71
     1
 72
     1
  1
0.29in
  7
SLDTEXTSTYLE0
 73
     1
 44
1.0
  0
MTEXT
  5
157
330
146
100
AcDbEntity
  8
0
  6
Continuous
 62
     7
370
    18
100
AcDbMText
 10
6.7003193686
 20
3.0786425349
 30
0.0
 40
0.0833333333
 41
0.0
 71
     1
 72
     1
  1
7.3mm
  7
SLDTEXTSTYLE0
 73
     1
 44
1.0
  0
MTEXT
  5
158
330
146
100
AcDbEntity
  8
0
  6
Continuous
 62
     7
370
    18
100
AcDbMText
 10
7.1757051265
 20
3.2279480909
 30
0.0
 40
0.0833333333
 41
0.0
 71
     1
 72
     1
  1

  7
SLDTEXTSTYLE0
 73
     1
 44
1.0
  0
ENDBLK
  5
148
330
146
100
AcDbEntity
  8
0
100
AcDbBlockEnd
  0
ENDSEC
  0
SECTION
  2
ENTITIES
  0
LINE
  5
81
330
1F
100
AcDbEntity
  8
0
  6
Continuous
 62
     7
370
    18
100
AcDbLine
 10
0.0621791378
 20
8.4506055117
 30
0.0
 11
10.9444569626
 21
8.4506055117
 31
0.0
  0
LINE
  5
82
330
1F
100
AcDbEntity
  8
0
  6
Continuous
 62
     7
370
    18
100
AcDbLine
 10
0.0621791378
 20
8.4506055117
 30
0.0
 11
0.0621791378
 21
0.035557648
 31
0.0
  0
LINE
  5
83
330
1F
100
AcDbEntity
  8
0
  6
Continuous
 62
     7
370
    18
100
AcDbLine
 10
10.9444569626
 20
0.035557648
 30
0.0
 11
0.0621791378
 21
0.035557648
 31
0.0
  0
LINE
  5
84
330
1F
100
AcDbEntity
  8
0
  6
Continuous
 62
     7
370
    18
100
AcDbLine
 10
10.9444569626
 20
0.035557648
 30
0.0
 11
10.9444569626
 21
8.4506055117
 31
0.0
  0
LINE
  5
85
330
1F
100
AcDbEntity
  8
0
  6
Continuous
 62
     7
370
    18
100
AcDbLine
 10
8.4938096065
 20
0.4840901186
 30
0.0
 11
6.7571952625
 21
0.4840901186
 31
0.0
  0
LINE
  5
86
330
1F
100
AcDbEntity
  8
0
  6
Continuous
 62
     7
370
    18
100
AcDbLine
 10
6.7571952625
 20
0.4840901186
 30
0.0
 11
6.7571952625
 21
1.030163002
 31
0.0
  0
LINE
  5
87
330
1F
100
AcDbEntity
  8
0
  6
Continuous
 62
     7
370
    18
100
AcDbLine
 10
6.7571952625
 20
0.035557648
 30
0.0
 11
6.7571952625
 21
1.030163002
 31
0.0
  0
LINE
  5
88
330
1F
100
AcDbEntity
  8
0
  6
Continuous
 62
     7
370
    18
100
AcDbLine
 10
8.4938096065
 20
0.6756085809
 30
0.0
 11
10.9444569626
 21
0.6756085809
 31
0.0
  0
LINE
  5
89
330
1F
100
AcDbEntity
  8
0
  6
Continuous
 62
     7
370
    18
100
AcDbLine
 10
8.4938096065
 20
1.3873799542
 30
0.0
 11
8.4938096065
 21
0.035557648
 31
0.0
  0
LINE
  5
8A
330
1F
100
AcDbEntity
  8
0
  6
Continuous
 62
     7
370
    18
100
AcDbLine
 10
8.4938096065
 20
1.030163002
 30
0.0
 11
6.7571952625
 21
1.030163002
 31
0.0
  0
LINE
  5
8B
330
1F
100
AcDbEntity
  8
0
  6
Continuous
 62
     7
370
    18
100
AcDbLine
 10
8.4938096065
 20
0.3598787426
 30
0.0
 11
10.9444569626
 21
0.3598787426
 31
0.0
  0
LINE
  5
8C
330
1F
100
AcDbEntity
  8
0
  6
Continuous
 62
     7
370
    18
100
AcDbLine
 10
8.4938096065
 20
0.6662079686
 30
0.0
 11
6.7571952625
 21
0.6662079686
 31
0.0
  0
LINE
  5
8D
330
1F
100
AcDbEntity
  8
0
  6
Continuous
 62
     7
370
    18
100
AcDbLine
 10
8.4938096065
 20
0.8459606517
 30
0.0
 11
6.7571952625
 21
0.8459606517
 31
0.0
  0
LINE
  5
8E
330
1F
100
AcDbEntity
  8
0
  6
Continuous
 62
     7
370
    18
100
AcDbLine
 10
7.3281027587
 20
1.030163002
 30
0.0
 11
7.3281027587
 21
0.4840901186
 31
0.0
  0
LINE
  5
8F
330
1F
100
AcDbEntity
  8
0
  6
Continuous
 62
     7
370
    18
100
AcDbLine
 10
7.8037240401
 20
1.030163002
 30
0.0
 11
7.8037240401
 21
0.4840901186
 31
0.0
  0
LINE
  5
90
330
1F
100
AcDbEntity
  8
0
  6
Continuous
 62
     7
370
    18
100
AcDbLine
 10
9.990119718
 20
0.3598787426
 30
0.0
 11
9.990119718
 21
0.035557648
 31
0.0
  0
LINE
  5
91
330
1F
100
AcDbEntity
  8
0
  6
Continuous
 62
     7
370
    18
100
AcDbLine
 10
6.7571952625
 20
0.4840901186
 30
0.0
 11
6.7571952625
 21
0.297745443
 31
0.0
  0
LINE
  5
92
330
1F
100
AcDbEntity
  8
0
  6
Continuous
 62
     7
370
    18
100
AcDbLine
 10
6.7571952625
 20
0.297745443
 30
0.0
 11
8.4938096065
 21
0.297745443
 31
0.0
  0
LINE
  5
93
330
1F
100
AcDbEntity
  8
0
  6
Continuous
 62
     7
370
    18
100
AcDbLine
 10
6.7571952625
 20
0.297745443
 30
0.0
 11
6.7571952625
 21
1.3873799542
 31
0.0
  0
LINE
  5
94
330
1F
100
AcDbEntity
  8
0
  6
Continuous
 62
     7
370
    18
100
AcDbLine
 10
6.7571952625
 20
1.3873799542
 30
0.0
 11
8.4938096065
 21
1.3873799542
 31
0.0
  0
LINE
  5
95
330
1F
100
AcDbEntity
  8
0
  6
Continuous
 62
     7
370
    18
100
AcDbLine
 10
10.6365495992
 20
0.6756085809
 30
0.0
 11
10.6365495992
 21
0.3598787426
 31
0.0
  0
LINE
  5
96
330
1F
100
AcDbEntity
  8
0
  6
Continuous
 62
     7
370
    18
100
AcDbLine
 10
8.4938096065
 20
1.3873799542
 30
0.0
 11
10.9444569626
 21
1.3873799542
 31
0.0
  0
LINE
  5
97
330
1F
100
AcDbEntity
  8
0
  6
Continuous
 62
     7
370
    18
100
AcDbLine
 10
10.9444569626
 20
1.3873799542
 30
0.0
 11
10.9444569626
 21
1.9698084888
 31
0.0
  0
LINE
  5
98
330
1F
100
AcDbEntity
  8
0
  6
Continuous
 62
     7
370
    18
100
AcDbLine
 10
8.4938096065
 20
0.9800288797
 30
0.0
 11
10.9444569626
 21
0.9800288797
 31
0.0
  0
INSERT
  5
99
330
1F
100
AcDbEntity
  8
0
  6
Continuous
 62
     7
100
AcDbBlockReference
  2
Third Angle Projection Block
 10
4.6348905679
 20
0.6108753523
 30
0.0
 41
0.8
 42
0.8
 43
0.8
  0
INSERT
  5
A6
330
1F
100
AcDbEntity
  8
0
  6
Continuous
 62
     7
370
     0
100
AcDbBlockReference
  2
SW_NOTE_0
 10
0.1430540295
 20
1.3693504616
 30
0.0
  0
MTEXT
  5
A7
330
1F
100
AcDbEntity
  8
0
  6
Continuous
 62
     7
370
     0
100
AcDbMText
 10
10.7821154289
 20
0.5162413101
 30
0.0
 40
0.125
 41
0.0
 71
     2
 72
     1
  1
D
  7
SLDTEXTSTYLE0
 73
     1
 44
1.0
  0
MTEXT
  5
A8
330
1F
100
AcDbEntity
  8
0
  6
Continuous
 62
     7
370
     0
100
AcDbMText
 10
9.2422051029
 20
0.2019943461
 30
0.0
 40
0.125
 41
0.0
 71
     2
 72
     1
  1
SI254P
  7
SLDTEXTSTYLE0
 73
     1
 44
1.0
  0
MTEXT
  5
A9
330
1F
100
AcDbEntity
  8
0
  6
Continuous
 62
     7
370
     0
100
AcDbMText
 10
8.5204715199
 20
0.6623747189
 30
0.0
 40
0.0833333333
 41
0.0
 71
     1
 72
     1
  1
MATERIAL
  7
SLDTEXTSTYLE0
 73
     1
 44
1.0
  0
MTEXT
  5
AA
330
1F
100
AcDbEntity
  8
0
  6
Continuous
 62
     7
370
     0
100
AcDbMText
 10
6.8594860853
 20
0.7895493672
 30
0.0
 40
0.0729166667
 41
0.0
 71
     1
 72
     1
  1
DRAWN
  7
SLDTEXTSTYLE0
 73
     1
 44
1.0
  0
MTEXT
  5
AB
330
1F
100
AcDbEntity
  8
0
  6
Continuous
 62
     7
370
     0
100
AcDbMText
 10
6.7872445848
 20
0.613335314
 30
0.0
 40
0.0729166667
 41
0.0
 71
     1
 72
     1
  1
APPROVAL
  7
SLDTEXTSTYLE0
 73
     1
 44
1.0
  0
MTEXT
  5
AC
330
1F
100
AcDbEntity
  8
0
  6
Continuous
 62
     7
370
     0
100
AcDbMText
 10
10.681956279
 20
0.6308568984
 30
0.0
 40
0.0833333333
 41
0.0
 71
     1
 72
     1
  1
REV
  7
SLDTEXTSTYLE0
 73
     1
 44
1.0
  0
MTEXT
  5
AD
330
1F
100
AcDbEntity
  8
0
  6
Continuous
 62
     7
370
     0
100
AcDbMText
 10
7.4919633718
 20
0.7999100272
 30
0.0
 40
0.0833333333
 41
0.0
 71
     1
 72
     1
  1
DT
  7
SLDTEXTSTYLE0
 73
     1
 44
1.0
  0
MTEXT
  5
AE
330
1F
100
AcDbEntity
  8
0
  6
Continuous
 62
     7
370
     0
100
AcDbMText
 10
7.8687497515
 20
0.7999100272
 30
0.0
 40
0.0833333333
 41
0.0
 71
     1
 72
     1
  1
21/JAN/19
  7
SLDTEXTSTYLE0
 73
     1
 44
1.0
  0
MTEXT
  5
AF
330
1F
100
AcDbEntity
  8
0
  6
Continuous
 62
     7
370
     0
100
AcDbMText
 10
8.0163191884
 20
0.9772495896
 30
0.0
 40
0.0833333333
 41
0.0
 71
     1
 72
     1
  1
DATE
  7
SLDTEXTSTYLE0
 73
     1
 44
1.0
  0
MTEXT
  5
B1
330
1F
100
AcDbEntity
  8
0
  6
Continuous
 62
     7
370
     0
100
AcDbMText
 10
9.0316104912
 20
1.0943207896
 30
0.0
 40
0.0833333333
 41
0.0
 71
     1
 72
     1
  1
w w w . t h o r  l a b s . c o m
  7
SLDTEXTSTYLE1
 73
     1
 44
1.0
  0
MTEXT
  5
B2
330
1F
100
AcDbEntity
  8
0
  6
Continuous
 62
     7
370
     0
100
AcDbMText
 10
8.5315119501
 20
0.328719653
 30
0.0
 40
0.0833333333
 41
0.0
 71
     1
 72
     1
  1
ITEM #
  7
SLDTEXTSTYLE0
 73
     1
 44
1.0
  0
MTEXT
  5
B3
330
1F
100
AcDbEntity
  8
0
  6
Continuous
 62
     7
370
     0
100
AcDbMText
 10
10.0209370115
 20
0.328719653
 30
0.0
 40
0.0833333333
 41
0.0
 71
     1
 72
     1
  1
APPROX WEIGHT
  7
SLDTEXTSTYLE0
 73
     1
 44
1.0
  0
MTEXT
  5
B4
330
1F
100
AcDbEntity
  8
0
  6
Continuous
 62
     7
370
     0
100
AcDbMText
 10
9.5912312759
 20
0.5162413101
 30
0.0
 40
0.125
 41
0.0
 71
     2
 72
     1
  1
N/A
  7
SLDTEXTSTYLE0
 73
     1
 44
1.0
  0
MTEXT
  5
B5
330
1F
100
AcDbEntity
  8
0
  6
Continuous
 62
     7
370
     0
100
AcDbMText
 10
10.4790491378
 20
0.2019943461
 30
0.0
 40
0.125
 41
0.0
 71
     2
 72
     1
  1
0.03 kg
  7
SLDTEXTSTYLE0
 73
     1
 44
1.0
  0
INSERT
  5
BB
330
1F
100
AcDbEntity
  8
0
  6
Continuous
 62
     7
370
     0
100
AcDbBlockReference
  2
SW_NOTE_1
 10
6.8835832285
 20
0.1754273811
 30
0.0
  0
INSERT
  5
C1
330
1F
100
AcDbEntity
  8
0
  6
Continuous
 62
     7
370
     0
100
AcDbBlockReference
  2
SW_NOTE_2
 10
6.8719828753
 20
1.2001390658
 30
0.0
  0
MTEXT
  5
C2
330
1F
100
AcDbEntity
  8
0
  6
Continuous
 62
     7
370
     0
100
AcDbMText
 10
7.3987149145
 20
0.9772495896
 30
0.0
 40
0.0833333333
 41
0.0
 71
     1
 72
     1
  1
NAME
  7
SLDTEXTSTYLE0
 73
     1
 44
1.0
  0
INSERT
  5
C8
330
1F
100
AcDbEntity
  8
0
  6
Continuous
 62
     7
370
     0
100
AcDbBlockReference
  2
SW_NOTE_3
 10
2.3078923918
 20
0.3219551564
 30
0.0
  0
MTEXT
  5
C9
330
1F
100
AcDbEntity
  8
0
  6
Continuous
 62
     7
370
     0
100
AcDbMText
 10
7.0518693355
 20
0.4200025137
 30
0.0
 40
0.0625
 41
0.0
 71
     1
 72
     1
  1
COPYRIGHT © 2019 BY THORLABS
  7
SLDTEXTSTYLE0
 73
     1
 44
1.0
  0
MTEXT
  5
CA
330
1F
100
AcDbEntity
  8
0
  6
Continuous
 62
     7
370
     0
100
AcDbMText
 10
9.7008209241
 20
0.8954752132
 30
0.0
 40
0.1041666667
 41
0.0
 71
     2
 72
     1
  1
SHEAR-PLATE, 10-25.4mm BEAM
  7
SLDTEXTSTYLE0
 73
     1
 44
1.0
  0
MTEXT
  5
CB
330
1F
100
AcDbEntity
  8
0
  6
Continuous
 62
     7
370
     0
100
AcDbMText
 10
7.8754897231
 20
0.6175098456
 30
0.0
 40
0.0833333333
 41
0.0
 71
     1
 72
     1
  1
21/JAN/19
  7
SLDTEXTSTYLE0
 73
     1
 44
1.0
  0
MTEXT
  5
CC
330
1F
100
AcDbEntity
  8
0
  6
Continuous
 62
     7
370
     0
100
AcDbMText
 10
7.4987033435
 20
0.6175098456
 30
0.0
 40
0.0833333333
 41
0.0
 71
     1
 72
     1
  1
BW
  7
SLDTEXTSTYLE0
 73
     1
 44
1.0
  0
CIRCLE
  5
CD
330
1F
100
AcDbEntity
  8
0
  6
Continuous
 62
     7
370
    18
100
AcDbCircle
 10
3.369526649
 20
4.137343262
 30
0.0
 40
0.7480314989112854
  0
CIRCLE
  5
CE
330
1F
100
AcDbEntity
  8
0
  6
Continuous
 62
     7
370
    18
100
AcDbCircle
 10
3.369526649
 20
4.137343262
 30
0.0
 40
0.7635000000000005
  0
CIRCLE
  5
CF
330
1F
100
AcDbEntity
  8
0
  6
Continuous
 62
     7
370
    18
100
AcDbCircle
 10
3.369526649
 20
4.137343262
 30
0.0
 40
0.7484999999999999
  0
CIRCLE
  5
D0
330
1F
100
AcDbEntity
  8
0
  6
Continuous
 62
     7
370
    18
100
AcDbCircle
 10
4.069526649
 20
3.436343262
 30
0.0
 40
0.0934999999999997
  0
CIRCLE
  5
D1
330
1F
100
AcDbEntity
  8
0
  6
Continuous
 62
     7
370
    18
100
AcDbCircle
 10
4.069526649
 20
3.436343262
 30
0.0
 40
0.0984999999999996
  0
LINE
  5
D2
330
1F
100
AcDbEntity
  8
0
  6
Continuous
 62
     7
370
    18
100
AcDbLine
 10
2.4195266568
 20
3.288343274
 30
0.0
 11
4.3195266412
 21
3.288343274
 31
0.0
  0
LINE
  5
D3
330
1F
100
AcDbEntity
  8
0
  6
Continuous
 62
     7
370
    18
100
AcDbLine
 10
2.4195266568
 20
5.2883432499
 30
0.0
 11
2.4195266568
 21
3.288343274
 31
0.0
  0
LINE
  5
D4
330
1F
100
AcDbEntity
  8
0
  6
Continuous
 62
     7
370
    18
100
AcDbLine
 10
4.3195266412
 20
5.2883432499
 30
0.0
 11
2.4195266568
 21
5.2883432499
 31
0.0
  0
LINE
  5
D5
330
1F
100
AcDbEntity
  8
0
  6
Continuous
 62
     7
370
    18
100
AcDbLine
 10
4.3195266412
 20
3.288343274
 30
0.0
 11
4.3195266412
 21
5.2883432499
 31
0.0
  0
CIRCLE
  5
D6
330
1F
100
AcDbEntity
  8
0
  6
Continuous
 62
     7
370
    18
100
AcDbCircle
 10
3.369526649
 20
5.087343262
 30
0.0
 40
0.0984999999999996
  0
CIRCLE
  5
D7
330
1F
100
AcDbEntity
  8
0
  6
Continuous
 62
     7
370
    18
100
AcDbCircle
 10
2.669526649
 20
3.436343262
 30
0.0
 40
0.0984999999999996
  0
CIRCLE
  5
D8
330
1F
100
AcDbEntity
  8
0
  6
Continuous
 62
     7
370
    18
100
AcDbCircle
 10
3.369526649
 20
5.087343262
 30
0.0
 40
0.0935000000000001
  0
CIRCLE
  5
D9
330
1F
100
AcDbEntity
  8
0
  6
Continuous
 62
     7
370
    18
100
AcDbCircle
 10
2.669526649
 20
3.436343262
 30
0.0
 40
0.0935000000000001
  0
DIMENSION
  5
DA
330
1F
100
AcDbEntity
  8
0
  6
Continuous
 62
     7
370
    18
100
AcDbDimension
  2
_D
 10
1.6797313298
 20
5.288343262
 30
0.0
 11
1.6797313298
 21
4.288343262
 31
0.0
 70
   160
  1
<>
 71
     2
 42
-1.0
  3
SLDDIMSTYLE0
100
AcDbAlignedDimension
 13
2.419526649
 23
3.288343262
 33
0.0
 14
2.419526649
 24
5.288343262
 34
0.0
 50
90.0
100
AcDbRotatedDimension
  0
DIMENSION
  5
EF
330
1F
100
AcDbEntity
  8
0
  6
Continuous
 62
     7
370
    18
100
AcDbDimension
  2
_D_1
 10
4.319526649
 20
2.9891240628
 30
0.0
 11
3.369526649
 21
2.9891240628
 31
0.0
 70
   160
  1
<>
 71
     2
 42
-1.0
  3
SLDDIMSTYLE0
100
AcDbAlignedDimension
 13
2.419526649
 23
3.288343262
 33
0.0
 14
4.319526649
 24
3.288343262
 34
0.0
100
AcDbRotatedDimension
  0
DIMENSION
  5
103
330
1F
100
AcDbEntity
  8
0
  6
Continuous
 62
     7
370
    18
100
AcDbDimension
  2
_D_2
 10
2.0832640371
 20
4.137343262
 30
0.0
 11
2.0832640371
 21
3.712843262
 31
0.0
 70
   160
  1
<>
 71
     2
 42
-1.0
  3
SLDDIMSTYLE1
100
AcDbAlignedDimension
 13
2.419526649
 23
3.288343262
 33
0.0
 14
3.319526649
 24
4.137343262
 34
0.0
 50
90.0
100
AcDbRotatedDimension
  0
MTEXT
  5
118
330
1F
100
AcDbEntity
  8
0
  6
Continuous
 62
     7
370
     0
100
AcDbMText
 10
5.0603396559
 20
5.7784288989
 30
0.0
 40
0.0833333333
 41
0.0
 71
     1
 72
     1
  1
WEDGED FLAT
  7
SLDTEXTSTYLE0
 73
     1
 44
1.0
  0
LEADER
  5
122
330
1F
100
AcDbEntity
  8
0
  6
Continuous
 62
     7
370
     0
100
AcDbLeader
  3
SLDDIMSTYLE2
 76
     3
 10
3.5779752986
 20
4.3021871536
 30
0.0
 10
4.7897154303
 20
5.7424291262
 30
0.0
 10
5.0397154303
 20
5.7424291262
 30
0.0
  0
INSERT
  5
12A
330
1F
100
AcDbEntity
  8
0
  6
Continuous
 62
     7
370
     0
100
AcDbBlockReference
  2
SW_CENTERMARKSYMBOL_0
 10
3.369526649
 20
4.137343262
 30
0.0
  0
LINE
  5
12B
330
1F
100
AcDbEntity
  8
0
  6
Continuous
 62
     7
370
    18
100
AcDbLine
 10
7.6065008392
 20
4.8853747483
 30
0.0
 11
7.4474188069
 21
4.8853747483
 31
0.0
  0
LINE
  5
12C
330
1F
100
AcDbEntity
  8
0
  6
Continuous
 62
     7
370
    18
100
AcDbLine
 10
7.4472882384
 20
3.3893117676
 30
0.0
 11
7.5315637465
 21
3.3893117676
 31
0.0
  0
LINE
  5
12D
330
1F
100
AcDbEntity
  8
0
  6
Continuous
 62
     7
370
    18
100
AcDbLine
 10
7.7345008422
 20
4.9822013864
 30
0.0
 11
7.7346258422
 21
4.9822013864
 31
0.0
  0
LINE
  5
12E
330
1F
100
AcDbEntity
  8
0
  6
Continuous
 62
     7
370
    18
100
AcDbLine
 10
7.7346258422
 20
5.0105366191
 30
0.0
 11
7.7345008422
 21
5.0105366191
 31
0.0
  0
ARC
  5
12F
330
1F
100
AcDbEntity
  8
0
  6
Continuous
 62
     7
370
    18
100
AcDbCircle
 10
7.6127508422
 20
5.0871908494
 30
0.0
 40
0.09375
100
AcDbArc
 50
93.8225537293
 51
180.0
  0
ARC
  5
130
330
1F
100
AcDbEntity
  8
0
  6
Continuous
 62
     7
370
    18
100
AcDbCircle
 10
7.6127508422
 20
5.0871908494
 30
0.0
 40
0.0937500000000012
100
AcDbArc
 50
180.0
 51
266.1774462707
  0
ARC
  5
131
330
1F
100
AcDbEntity
  8
0
  6
Continuous
 62
     7
370
    18
100
AcDbCircle
 10
7.6127508422
 20
3.4361916062
 30
0.0
 40
0.0937499999999999
100
AcDbArc
 50
93.8225537293
 51
186.6153189971
  0
ARC
  5
132
330
1F
100
AcDbEntity
  8
0
  6
Continuous
 62
     7
370
    18
100
AcDbCircle
 10
7.6127508422
 20
3.4361916062
 30
0.0
 40
0.0937499999999999
100
AcDbArc
 50
186.6153189971
 51
266.1774462707
  0
LWPOLYLINE
  5
133
330
1F
100
AcDbEntity
  8
0
  6
Continuous
 62
     7
370
    18
100
AcDbPolyline
 90
       88
 70
   128
 43
0.0
 10
7.4474188069
 20
4.8853747483
 10
7.4474187519
 20
4.8848814774
 10
7.4474186236
 20
4.8834022145
 10
7.4474184219
 20
4.8809389762
 10
7.4474181103
 20
4.8774949894
 10
7.4474177253
 20
4.8730748004
 10
7.4474172486
 20
4.8676842394
 10
7.4474166986
 20
4.8613304194
 10
7.447416057
 20
4.8540217005
 10
7.447415342
 20
4.8457677259
 10
7.4474145353
 20
4.836579422
 10
7.4474136553
 20
4.8264688521
 10
7.447412702
 20
4.8154493994
 10
7.447411657
 20
4.8035355837
 10
7.4474105387
 20
4.7907430982
 10
7.447409347
 20
4.7770888093
 10
7.4474080821
 20
4.7625907934
 10
7.4474067437
 20
4.7472680804
 10
7.4474053321
 20
4.7311409467
 10
7.4474038654
 20
4.7142306221
 10
7.4474023255
 20
4.6965594362
 10
7.4474007121
 20
4.6781506722
 10
7.4473990438
 20
4.6590286398
 10
7.4473973205
 20
4.6392185286
 10
7.4473955239
 20
4.6187464818
 10
7.4473936906
 20
4.5976395223
 10
7.4473918022
 20
4.5759254614
 10
7.4473898589
 20
4.5536329356
 10
7.4473878606
 20
4.5307913695
 10
7.4473858256
 20
4.5074308477
 10
7.4473837357
 20
4.4835822249
 10
7.447381609
 20
4.4592769423
 10
7.447379464
 20
4.4345470555
 10
7.4473772641
 20
4.4094251699
 10
7.4473750458
 20
4.3839444409
 10
7.4473727908
 20
4.3581384503
 10
7.4473705175
 20
4.3320412563
 10
7.4473682075
 20
4.3056872669
 10
7.4473658975
 20
4.2791112451
 10
7.4473635509
 20
4.2523482426
 10
7.4473612043
 20
4.2254335587
 10
7.4473588576
 20
4.1984026818
 10
7.4473564926
 20
4.1712912858
 10
7.4473541093
 20
4.144135102
 10
7.4473517444
 20
4.1169699717
 10
7.4473493794
 20
4.0898317085
 10
7.4473470144
 20
4.062756108
 10
7.4473446678
 20
4.0357788829
 10
7.4473423211
 20
4.0089355997
 10
7.4473399928
 20
3.9822616962
 10
7.4473376829
 20
3.9557923169
 10
7.4473353912
 20
3.9295624233
 10
7.4473331179
 20
3.9036065365
 10
7.4473308813
 20
3.8779589394
 10
7.4473286813
 20
3.8526534751
 10
7.4473264997
 20
3.8277234731
 10
7.4473243547
 20
3.8032018597
 10
7.4473222647
 20
3.7791209012
 10
7.4473201931
 20
3.7555124606
 10
7.4473181764
 20
3.7324075942
 10
7.4473162148
 20
3.7098368449
 10
7.4473142898
 20
3.6878299125
 10
7.4473124198
 20
3.6664158732
 10
7.4473106048
 20
3.64562296
 10
7.4473088449
 20
3.6254785261
 10
7.4473071582
 20
3.6060092643
 10
7.4473055082
 20
3.5872407678
 10
7.4473039499
 20
3.5691978229
 10
7.4473024283
 20
3.5519041894
 10
7.4473009983
 20
3.5353827469
 10
7.4472996233
 20
3.5196552752
 10
7.4472983217
 20
3.5047424542
 10
7.4472970933
 20
3.4906639368
 10
7.4472959383
 20
3.4774383496
 10
7.4472948567
 20
3.465083219
 10
7.4472938484
 20
3.4536146781
 10
7.4472929317
 20
3.4430479069
 10
7.4472920884
 20
3.4333969117
 10
7.4472913367
 20
3.4246743058
 10
7.4472906584
 20
3.4168916757
 10
7.4472900534
 20
3.410059288
 10
7.4472895401
 20
3.4041860891
 10
7.4472891184
 20
3.3992799258
 10
7.4472887701
 20
3.3953471779
 10
7.4472885134
 20
3.3923931254
 10
7.4472883484
 20
3.3904215082
 10
7.4472882568
 20
3.3894351129
 10
7.4472882384
 20
3.3893117676
  0
LINE
  5
134
330
1F
100
AcDbEntity
  8
0
  6
Continuous
 62
     7
370
    18
100
AcDbLine
 10
7.6065008392
 20
3.288343274
 30
0.0
 11
7.7345008422
 21
3.288343274
 31
0.0
  0
LINE
  5
135
330
1F
100
AcDbEntity
  8
0
  6
Continuous
 62
     7
370
    18
100
AcDbLine
 10
7.6065008392
 20
3.288343274
 30
0.0
 11
7.6065008392
 21
5.2883432499
 31
0.0
  0
LINE
  5
136
330
1F
100
AcDbEntity
  8
0
  6
Continuous
 62
     7
370
    18
100
AcDbLine
 10
7.7345008422
 20
3.288343274
 30
0.0
 11
7.7345008422
 21
5.1603432285
 31
0.0
  0
LINE
  5
137
330
1F
100
AcDbEntity
  8
0
  6
Continuous
 62
     7
370
    18
100
AcDbLine
 10
7.7345008422
 20
5.1603432285
 30
0.0
 11
7.6065008392
 21
5.2883432499
 31
0.0
  0
DIMENSION
  5
138
330
1F
100
AcDbEntity
  8
0
  6
Continuous
 62
     7
370
    18
100
AcDbDimension
  2
_D_3
 10
7.7345008422
 20
5.160343262
 30
0.0
 11
7.4853636298
 21
5.7618136989
 31
0.0
 70
   162
  1
<>
 71
     1
 42
-1.0
  3
SLDDIMSTYLE3
100
AcDb2LineAngularDimension
 13
7.6065008422
 23
5.288343262
 33
0.0
 14
7.7345008422
 24
5.160343262
 34
0.0
 15
7.7345008422
 25
3.288343262
 35
0.0
 16
7.6511442935
 26
5.806011693
 36
0.0
  0
DIMENSION
  5
144
330
1F
100
AcDbEntity
  8
0
  6
Continuous
 62
     7
370
    18
100
AcDbDimension
  2
_D_4
 10
7.4472882438
 20
3.1036276416
 30
0.0
 11
6.8814150341
 21
3.1036276416
 31
0.0
 70
   160
  1
<>
 71
     2
 42
-1.0
  3
SLDDIMSTYLE4
100
AcDbAlignedDimension
 13
7.7345008422
 23
3.288343262
 33
0.0
 14
7.4472882438
 24
3.3893117659
 34
0.0
100
AcDbRotatedDimension
  0
LINE
  5
159
330
1F
100
AcDbEntity
  8
0
  6
Continuous
 62
     7
370
    18
100
AcDbLine
 10
10.5537117123
 20
6.0689956917
 30
0.0
 11
10.5545955958
 21
6.0695059468
 31
0.0
  0
LINE
  5
15A
330
1F
100
AcDbEntity
  8
0
  6
Continuous
 62
     7
370
    18
100
AcDbLine
 10
9.9214987456
 20
6.4347583111
 30
0.0
 11
9.9223826291
 21
6.4352685662
 31
0.0
  0
LINE
  5
15B
330
1F
100
AcDbEntity
  8
0
  6
Continuous
 62
     7
370
    18
100
AcDbLine
 10
9.9231956674
 20
6.4018372136
 30
0.0
 11
9.9240795508
 21
6.4023474687
 31
0.0
  0
LINE
  5
15C
330
1F
100
AcDbEntity
  8
0
  6
Continuous
 62
     7
370
    18
100
AcDbLine
 10
9.8330911452
 20
6.4839126441
 30
0.0
 11
9.8322072618
 21
6.483402389
 31
0.0
  0
LINE
  5
15D
330
1F
100
AcDbEntity
  8
0
  6
Continuous
 62
     7
370
    18
100
AcDbLine
 10
9.8078903485
 20
6.4984836874
 30
0.0
 11
9.807006465
 21
6.4979734324
 31
0.0
  0
LINE
  5
15E
330
1F
100
AcDbEntity
  8
0
  6
Continuous
 62
     7
370
    18
100
AcDbLine
 10
9.7637402878
 20
6.5239480419
 30
0.0
 11
9.7628564044
 21
6.5234377868
 31
0.0
  0
LINE
  5
15F
330
1F
100
AcDbEntity
  8
0
  6
Continuous
 62
     7
370
    18
100
AcDbLine
 10
9.7385394911
 20
6.5385190852
 30
0.0
 11
9.7376556076
 21
6.5380088302
 31
0.0
  0
LINE
  5
160
330
1F
100
AcDbEntity
  8
0
  6
Continuous
 62
     7
370
    18
100
AcDbLine
 10
9.6203175209
 20
6.6007079648
 30
0.0
 11
9.6194336374
 21
6.6001977098
 31
0.0
  0
LINE
  5
161
330
1F
100
AcDbEntity
  8
0
  6
Continuous
 62
     7
370
    18
100
AcDbLine
 10
9.6363175804
 20
6.56684996
 30
0.0
 11
9.6372014638
 21
6.5673602151
 31
0.0
  0
LINE
  5
162
330
1F
100
AcDbEntity
  8
0
  6
Continuous
 62
     7
370
    18
100
AcDbLine
 10
9.5850801268
 20
6.6208439716
 30
0.0
 11
9.5859640103
 21
6.6213542266
 31
0.0
  0
LINE
  5
163
330
1F
100
AcDbEntity
  8
0
  6
Continuous
 62
     7
370
    18
100
AcDbLine
 10
9.5737674876
 20
6.6510031033
 30
0.0
 11
9.5728836041
 21
6.6504928482
 31
0.0
  0
LINE
  5
164
330
1F
100
AcDbEntity
  8
0
  6
Continuous
 62
     7
370
    18
100
AcDbLine
 10
9.5750882341
 20
6.6051267192
 30
0.0
 11
9.5742043506
 21
6.6046164642
 31
0.0
  0
LINE
  5
165
330
1F
100
AcDbEntity
  8
0
  6
Continuous
 62
     7
370
    18
100
AcDbLine
 10
9.5024229688
 20
6.6926734581
 30
0.0
 11
9.5015390854
 21
6.692163203
 31
0.0
  0
LINE
  5
166
330
1F
100
AcDbEntity
  8
0
  6
Continuous
 62
     7
370
    18
100
AcDbLine
 10
9.5153667764
 20
6.6365474373
 30
0.0
 11
9.5162506599
 21
6.6370576924
 31
0.0
  0
LINE
  5
167
330
1F
100
AcDbEntity
  8
0
  6
Continuous
 62
     7
370
    18
100
AcDbLine
 10
9.4330721114
 20
6.7327088559
 30
0.0
 11
9.432188228
 21
6.7321986008
 31
0.0
  0
LINE
  5
168
330
1F
100
AcDbEntity
  8
0
  6
Continuous
 62
     7
370
    18
100
AcDbLine
 10
9.446015919
 20
6.6765828351
 30
0.0
 11
9.4468998025
 21
6.6770930902
 31
0.0
  0
LINE
  5
169
330
1F
100
AcDbEntity
  8
0
  6
Continuous
 62
     7
370
    18
100
AcDbLine
 10
9.3904709355
 20
6.7595162774
 30
0.0
 11
9.391354819
 21
6.7600265325
 31
0.0
  0
ELLIPSE
  5
16A
330
1F
100
AcDbEntity
  8
0
  6
Continuous
 62
     7
370
    18
100
AcDbEllipse
 10
10.17429361
 20
7.2011171558
 30
0.0
 11
-0.3739363829498412
 21
0.6478600950357833
 31
0.0
210
0.0
220
0.0
230
1.0
 40
0.5774319209
 41
5.100790827112386
 42
5.895033284455408
  0
SPLINE
  5
16B
330
1F
100
AcDbEntity
  8
0
  6
Continuous
 62
     7
370
    18
100
AcDbSpline
210
0.0
220
0.0
230
1.0
 70
     8
 71
     3
 72
    15
 73
    11
 74
     0
 42
0.000000001
 43
0.00000001
 40
0.0
 40
0.0
 40
0.0
 40
0.0
 40
0.1426698808292011
 40
0.2811938871410138
 40
0.4173277977783963
 40
0.5512149507785097
 40
0.6787379175113295
 40
0.7950142962491233
 40
0.9019895017774389
 40
1.0
 40
1.0
 40
1.0
 40
1.0
 10
9.37907052696646
 20
6.756809208163414
 30
0.0
 10
9.380033228838558
 20
6.756826383045267
 30
0.0
 10
9.381930657223581
 20
6.756860233720416
 30
0.0
 10
9.384616581432201
 20
6.757256224959997
 30
0.0
 10
9.387111480245842
 20
6.757946550347013
 30
0.0
 10
9.389400526038301
 20
6.758898396652574
 30
0.0
 10
9.391441858537636
 20
6.760048484693238
 30
0.0
 10
9.3931755786703
 20
6.761382518707545
 30
0.0
 10
9.394614843570421
 20
6.762834233845645
 30
0.0
 10
9.395339401330153
 20
6.764007776498904
 30
0.0
 10
9.395685836548427
 20
6.764568886361818
 30
0.0
  0
LINE
  5
16C
330
1F
100
AcDbEntity
  8
0
  6
Continuous
 62
     7
370
    18
100
AcDbLine
 10
9.379070527
 20
6.748606179
 30
0.0
 11
9.379070527
 21
6.7568092082
 31
0.0
  0
SPLINE
  5
16D
330
1F
100
AcDbEntity
  8
0
  6
Continuous
 62
     7
370
    18
100
AcDbSpline
210
0.0
220
0.0
230
1.0
 70
     8
 71
     3
 72
    15
 73
    11
 74
     0
 42
0.000000001
 43
0.00000001
 40
0.0
 40
0.0
 40
0.0
 40
0.0
 40
0.111674644834407
 40
0.2321035109070504
 40
0.3623296061453193
 40
0.5015403706238755
 40
0.6415111562240638
 40
0.7710895894770932
 40
0.8901574839199069
 40
1.0
 40
1.0
 40
1.0
 40
1.0
 10
9.392940698443581
 20
6.750832030743675
 30
0.0
 10
9.392496851139127
 20
6.750594399800733
 30
0.0
 10
9.391574363157876
 20
6.750100509927709
 30
0.0
 10
9.390020016130151
 20
6.749541914550273
 30
0.0
 10
9.38827365673701
 20
6.74909874746885
 30
0.0
 10
9.386383596900828
 20
6.748759971050768
 30
0.0
 10
9.384447943873548
 20
6.748539842067387
 30
0.0
 10
9.382572978125433
 20
6.748420487055508
 30
0.0
 10
9.380799426125177
 20
6.748429310987112
 30
0.0
 10
9.37963113211177
 20
6.748548828547529
 30
0.0
 10
9.37907052696646
 20
6.748606178973495
 30
0.0
  0
LINE
  5
16E
330
1F
100
AcDbEntity
  8
0
  6
Continuous
 62
     7
370
    18
100
AcDbLine
 10
9.3929406984
 20
6.6967476518
 30
0.0
 11
9.3929406984
 21
6.7508320307
 31
0.0
  0
LINE
  5
16F
330
1F
100
AcDbEntity
  8
0
  6
Continuous
 62
     7
370
    18
100
AcDbLine
 10
9.4006463493
 20
6.6922992743
 30
0.0
 11
9.3929406984
 21
6.6967476518
 31
0.0
  0
LINE
  5
170
330
1F
100
AcDbEntity
  8
0
  6
Continuous
 62
     7
370
    18
100
AcDbLine
 10
9.4006463493
 20
6.7617052433
 30
0.0
 11
9.4006463493
 21
6.6922992743
 31
0.0
  0
LINE
  5
171
330
1F
100
AcDbEntity
  8
0
  6
Continuous
 62
     7
370
    18
100
AcDbLine
 10
9.3956858365
 20
6.7645688864
 30
0.0
 11
9.4006463493
 21
6.7617052433
 31
0.0
  0
LINE
  5
172
330
1F
100
AcDbEntity
  8
0
  6
Continuous
 62
     7
370
    18
100
AcDbLine
 10
9.4699972066
 20
6.6611620777
 30
0.0
 11
9.4777028575
 21
6.6567137001
 31
0.0
  0
LINE
  5
173
330
1F
100
AcDbEntity
  8
0
  6
Continuous
 62
     7
370
    18
100
AcDbLine
 10
9.4699972066
 20
6.6522638765
 30
0.0
 11
9.4699972066
 21
6.6611620777
 31
0.0
  0
LINE
  5
174
330
1F
100
AcDbEntity
  8
0
  6
Continuous
 62
     7
370
    18
100
AcDbLine
 10
9.4777028575
 20
6.647815499
 30
0.0
 11
9.4699972066
 21
6.6522638765
 31
0.0
  0
LINE
  5
175
330
1F
100
AcDbEntity
  8
0
  6
Continuous
 62
     7
370
    18
100
AcDbLine
 10
9.4777028575
 20
6.6567137001
 30
0.0
 11
9.4777028575
 21
6.647815499
 31
0.0
  0
LINE
  5
176
330
1F
100
AcDbEntity
  8
0
  6
Continuous
 62
     7
370
    18
100
AcDbLine
 10
9.5339541085
 20
6.6438165867
 30
0.0
 11
9.5563004958
 21
6.6309162919
 31
0.0
  0
LINE
  5
177
330
1F
100
AcDbEntity
  8
0
  6
Continuous
 62
     7
370
    18
100
AcDbLine
 10
9.5339541085
 20
6.6358082057
 30
0.0
 11
9.5339541085
 21
6.6438165867
 31
0.0
  0
LINE
  5
178
330
1F
100
AcDbEntity
  8
0
  6
Continuous
 62
     7
370
    18
100
AcDbLine
 10
9.5563004958
 20
6.6229079108
 30
0.0
 11
9.5339541085
 21
6.6358082057
 31
0.0
  0
LINE
  5
179
330
1F
100
AcDbEntity
  8
0
  6
Continuous
 62
     7
370
    18
100
AcDbLine
 10
9.5563004958
 20
6.6309162919
 30
0.0
 11
9.5563004958
 21
6.6229079108
 31
0.0
  0
SPLINE
  5
17A
330
1F
100
AcDbEntity
  8
0
  6
Continuous
 62
     7
370
    18
100
AcDbSpline
210
0.0
220
0.0
230
1.0
 70
     8
 71
     3
 72
    15
 73
    11
 74
     0
 42
0.000000001
 43
0.00000001
 40
0.0
 40
0.0
 40
0.0
 40
0.0
 40
0.1324702944791563
 40
0.2616666311771806
 40
0.3875720710229665
 40
0.5110290449571765
 40
0.6326513119273571
 40
0.7546442917994712
 40
0.876514695773394
 40
1.0
 40
1.0
 40
1.0
 40
1.0
 10
9.647997740606188
 20
6.573309043616143
 30
0.0
 10
9.647984223331864
 20
6.572546823420055
 30
0.0
 10
9.647957522858
 20
6.571041221037953
 30
0.0
 10
9.647734841570935
 20
6.568929027283041
 30
0.0
 10
9.647377489648965
 20
6.566972065265626
 30
0.0
 10
9.64686620848198
 20
6.565191455301364
 30
0.0
 10
9.646231724587729
 20
6.563551099280159
 30
0.0
 10
9.645427850585333
 20
6.562102407669793
 30
0.0
 10
9.64450877555375
 20
6.560776122340175
 30
0.0
 10
9.643770165844913
 20
6.560058378791816
 30
0.0
 10
9.643398430272631
 20
6.559697144968989
 30
0.0
  0
SPLINE
  5
17B
330
1F
100
AcDbEntity
  8
0
  6
Continuous
 62
     7
370
    18
100
AcDbSpline
210
0.0
220
0.0
230
1.0
 70
     8
 71
     3
 72
    23
 73
    19
 74
     0
 42
0.000000001
 43
0.00000001
 40
0.0
 40
0.0
 40
0.0
 40
0.0
 40
0.0619947470624124
 40
0.122082692240055
 40
0.1813674937318431
 40
0.239497685891687
 40
0.2978228615406405
 40
0.3566433919048785
 40
0.4170426431207708
 40
0.47939853950608
 40
0.5422554887298455
 40
0.6048200847029735
 40
0.6670423163124143
 40
0.7302648013147106
 40
0.7942186651033051
 40
0.8604160236039577
 40
0.9285812581783047
 40
1.0
 40
1.0
 40
1.0
 40
1.0
 10
9.630359024274608
 20
6.60595961572812
 30
0.0
 10
9.630965873359779
 20
6.605590922432602
 30
0.0
 10
9.632160906384536
 20
6.604864875916395
 30
0.0
 10
9.633921886185233
 20
6.603551297049227
 30
0.0
 10
9.63560545720897
 20
6.602074770111799
 30
0.0
 10
9.6372258726172
 20
6.600461275982601
 30
0.0
 10
9.638755957351965
 20
6.598674302223529
 30
0.0
 10
9.640228119743403
 20
6.596752578106755
 30
0.0
 10
9.641613197892402
 20
6.59466111649883
 30
0.0
 10
9.642917304521433
 20
6.592444603208111
 30
0.0
 10
9.644109413680466
 20
6.590136383631479
 30
0.0
 10
9.645142496927106
 20
6.587782728090407
 30
0.0
 10
9.646032425405725
 20
6.585405718219731
 30
0.0
 10
9.646753398453342
 20
6.583013520194429
 30
0.0
 10
9.647310325548043
 20
6.58059984751451
 30
0.0
 10
9.647701456095664
 20
6.578176465287965
 30
0.0
 10
9.647950095818498
 20
6.575721572983944
 30
0.0
 10
9.647981614127724
 20
6.574125619883556
 30
0.0
 10
9.647997740606188
 20
6.573309043616143
 30
0.0
  0
SPLINE
  5
17C
330
1F
100
AcDbEntity
  8
0
  6
Continuous
 62
     7
370
    18
100
AcDbSpline
210
0.0
220
0.0
230
1.0
 70
     8
 71
     3
 72
    15
 73
    11
 74
     0
 42
0.000000001
 43
0.00000001
 40
0.0
 40
0.0
 40
0.0
 40
0.0
 40
0.1367249672973517
 40
0.2685062080121072
 40
0.3955165764289175
 40
0.5190328991683869
 40
0.6405081366651262
 40
0.7612438456226569
 40
0.8801106056901651
 40
0.9999999999999999
 40
0.9999999999999999
 40
0.9999999999999999
 40
0.9999999999999999
 10
9.619643353602179
 20
6.607515795445521
 30
0.0
 10
9.620068549894045
 20
6.607638717825489
 30
0.0
 10
9.620903568151837
 20
6.607880117935339
 30
0.0
 10
9.62220571791338
 20
6.60807657092019
 30
0.0
 10
9.623524461605939
 20
6.608109109205549
 30
0.0
 10
9.624852863961937
 20
6.608006714640108
 30
0.0
 10
9.626209341003726
 20
6.607723669688041
 30
0.0
 10
9.627579113914308
 20
6.607290480380847
 30
0.0
 10
9.628964155447235
 20
6.606729439413991
 30
0.0
 10
9.629892742232443
 20
6.606216955309672
 30
0.0
 10
9.630359024274608
 20
6.60595961572812
 30
0.0
  0
LINE
  5
17D
330
1F
100
AcDbEntity
  8
0
  6
Continuous
 62
     7
370
    18
100
AcDbLine
 10
9.6227015338
 20
6.6237274926
 30
0.0
 11
9.6196433536
 21
6.6075157954
 31
0.0
  0
LINE
  5
17E
330
1F
100
AcDbEntity
  8
0
  6
Continuous
 62
     7
370
    18
100
AcDbLine
 10
9.6449154803
 20
6.6109036543
 30
0.0
 11
9.6227015338
 21
6.6237274926
 31
0.0
  0
LINE
  5
17F
330
1F
100
AcDbEntity
  8
0
  6
Continuous
 62
     7
370
    18
100
AcDbLine
 10
9.6449154803
 20
6.6198018554
 30
0.0
 11
9.6449154803
 21
6.6109036543
 31
0.0
  0
LINE
  5
180
330
1F
100
AcDbEntity
  8
0
  6
Continuous
 62
     7
370
    18
100
AcDbLine
 10
9.6164045722
 20
6.6362608523
 30
0.0
 11
9.6449154803
 21
6.6198018554
 31
0.0
  0
LINE
  5
181
330
1F
100
AcDbEntity
  8
0
  6
Continuous
 62
     7
370
    18
100
AcDbLine
 10
9.6102400516
 20
6.6042267497
 30
0.0
 11
9.6164045722
 21
6.6362608523
 31
0.0
  0
LINE
  5
182
330
1F
100
AcDbEntity
  8
0
  6
Continuous
 62
     7
370
    18
100
AcDbLine
 10
9.6179457024
 20
6.5988885521
 30
0.0
 11
9.6102400516
 21
6.6042267497
 31
0.0
  0
SPLINE
  5
183
330
1F
100
AcDbEntity
  8
0
  6
Continuous
 62
     7
370
    18
100
AcDbSpline
210
0.0
220
0.0
230
1.0
 70
     8
 71
     3
 72
    15
 73
    11
 74
     0
 42
0.000000001
 43
0.00000001
 40
0.0
 40
0.0
 40
0.0
 40
0.0
 40
0.1478244508077092
 40
0.2844705558819915
 40
0.4123032798653901
 40
0.533701425880388
 40
0.652128510690643
 40
0.7687181103834134
 40
0.88368008891404
 40
0.9999999999999999
 40
0.9999999999999999
 40
0.9999999999999999
 40
0.9999999999999999
 10
9.628227930219529
 20
6.599181489099768
 30
0.0
 10
9.62762883837061
 20
6.599506453512189
 30
0.0
 10
9.626475957434097
 20
6.600131808834248
 30
0.0
 10
9.624822737882342
 20
6.600767220303517
 30
0.0
 10
9.623325266639961
 20
6.601091888019383
 30
0.0
 10
9.621984189203632
 20
6.601102840575676
 30
0.0
 10
9.62078746181008
 20
6.600852105902605
 30
0.0
 10
9.61971737469878
 20
6.600392620679146
 30
0.0
 10
9.618744016144394
 20
6.599769979848847
 30
0.0
 10
9.618212846542841
 20
6.599183509111515
 30
0.0
 10
9.61794570240576
 20
6.598888552060904
 30
0.0
  0
SPLINE
  5
184
330
1F
100
AcDbEntity
  8
0
  6
Continuous
 62
     7
370
    18
100
AcDbSpline
210
0.0
220
0.0
230
1.0
 70
     8
 71
     3
 72
    23
 73
    19
 74
     0
 42
0.000000001
 43
0.00000001
 40
0.0
 40
0.0
 40
0.0
 40
0.0
 40
0.0728659334565345
 40
0.1418868719641266
 40
0.207452626414711
 40
0.2704376800000962
 40
0.3316408722476725
 40
0.3901075774931594
 40
0.4480692869488353
 40
0.5055029519245361
 40
0.5624881528337241
 40
0.61908432888473
 40
0.676415530692238
 40
0.735452360450793
 40
0.7962407694486794
 40
0.8604056780892032
 40
0.9283049272851053
 40
0.9999999999999999
 40
0.9999999999999999
 40
0.9999999999999999
 40
0.9999999999999999
 10
9.640292089785566
 20
6.577229090454923
 30
0.0
 10
9.640283244063252
 20
6.577799996509047
 30
0.0
 10
9.64026601939035
 20
6.578911683004538
 30
0.0
 10
9.640120959542914
 20
6.580599745123126
 30
0.0
 10
9.639876226502563
 20
6.582249573612896
 30
0.0
 10
9.639559564863395
 20
6.583861778682854
 30
0.0
 10
9.639123086734276
 20
6.585441669285605
 30
0.0
 10
9.63860539909594
 20
6.586986211585802
 30
0.0
 10
9.637971209981352
 20
6.588489342044348
 30
0.0
 10
9.637265632742805
 20
6.589960419989689
 30
0.0
 10
9.636459774457506
 20
6.591379247251131
 30
0.0
 10
9.635542748115435
 20
6.592713842521655
 30
0.0
 10
9.634550528118547
 20
6.593991357874368
 30
0.0
 10
9.633463130139637
 20
6.595190582463854
 30
0.0
 10
9.632279913866022
 20
6.596298229146563
 30
0.0
 10
9.631012637207071
 20
6.597356496548946
 30
0.0
 10
9.629648150290288
 20
6.598316020570152
 30
0.0
 10
9.628709841682358
 20
6.598887816862819
 30
0.0
 10
9.628227930219529
 20
6.599181489099768
 30
0.0
  0
SPLINE
  5
185
330
1F
100
AcDbEntity
  8
0
  6
Continuous
 62
     7
370
    18
100
AcDbSpline
210
0.0
220
0.0
230
1.0
 70
     8
 71
     3
 72
    23
 73
    19
 74
     0
 42
0.000000001
 43
0.00000001
 40
0.0
 40
0.0
 40
0.0
 40
0.0
 40
0.0657969014422178
 40
0.1286687074936937
 40
0.1886640150334374
 40
0.2473878658315848
 40
0.3048931163760734
 40
0.3618260165874506
 40
0.4195591944128799
 40
0.4787145848007281
 40
0.5387984953904673
 40
0.5988242749803314
 40
0.6602056418727807
 40
0.7229689455157929
 40
0.7880060156074508
 40
0.8554128575646773
 40
0.9261577032060918
 40
1.0
 40
1.0
 40
1.0
 40
1.0
 10
9.628191809981308
 20
6.568058636826372
 30
0.0
 10
9.628649894502267
 20
6.56780711978723
 30
0.0
 10
9.629545698741419
 20
6.567315267258771
 30
0.0
 10
9.630849750734727
 20
6.566771831319585
 30
0.0
 10
9.632077111611178
 20
6.566418828703505
 30
0.0
 10
9.63323943105482
 20
6.566209326454596
 30
0.0
 10
9.634318138595837
 20
6.566218437425998
 30
0.0
 10
9.635310037893747
 20
6.566425881781036
 30
0.0
 10
9.636250133789714
 20
6.566768054258057
 30
0.0
 10
9.637083774434437
 20
6.567339074622105
 30
0.0
 10
9.63784237904184
 20
6.568047400082096
 30
0.0
 10
9.638497175478115
 20
6.568920396257034
 30
0.0
 10
9.639048404617286
 20
6.569940587564721
 30
0.0
 10
9.639512483973856
 20
6.571098179137513
 30
0.0
 10
9.639855171530572
 20
6.57242109861644
 30
0.0
 10
9.640107246241142
 20
6.57388348292338
 30
0.0
 10
9.640269068057545
 20
6.575486149817556
 30
0.0
 10
9.640284307055916
 20
6.576639871619345
 30
0.0
 10
9.640292089785566
 20
6.577229090454923
 30
0.0
  0
SPLINE
  5
186
330
1F
100
AcDbEntity
  8
0
  6
Continuous
 62
     7
370
    18
100
AcDbSpline
210
0.0
220
0.0
230
1.0
 70
     8
 71
     3
 72
    23
 73
    19
 74
     0
 42
0.000000001
 43
0.00000001
 40
0.0
 40
0.0
 40
0.0
 40
0.0
 40
0.0773613371189802
 40
0.1504798322806859
 40
0.2199772368520767
 40
0.2866809968624415
 40
0.3496784941856655
 40
0.4106796250174851
 40
0.4694271135192918
 40
0.5267557014271316
 40
0.583141980834837
 40
0.638824427778628
 40
0.6952634704038142
 40
0.752695804898535
 40
0.8108491833348959
 40
0.8713563036360864
 40
0.9344364309841284
 40
1.0
 40
1.0
 40
1.0
 40
1.0
 10
9.617175137323699
 20
6.58687590819691
 30
0.0
 10
9.617251435364253
 20
6.58633049747583
 30
0.0
 10
9.617399846919344
 20
6.58526958879859
 30
0.0
 10
9.617682661540229
 20
6.583694645408527
 30
0.0
 10
9.618049957227687
 20
6.582171121815569
 30
0.0
 10
9.618462654369448
 20
6.580710219961871
 30
0.0
 10
9.618953214546009
 20
6.579306128241325
 30
0.0
 10
9.61948474056157
 20
6.577962448568742
 30
0.0
 10
9.62011156686903
 20
6.576684618786284
 30
0.0
 10
9.620770590569663
 20
6.575461161292694
 30
0.0
 10
9.621493919437283
 20
6.574300750461983
 30
0.0
 10
9.62228853305389
 20
6.573215788383228
 30
0.0
 10
9.623132261178666
 20
6.572182356802581
 30
0.0
 10
9.624035380102107
 20
6.571213663932294
 30
0.0
 10
9.624999273959158
 20
6.570329795353132
 30
0.0
 10
9.626011674956995
 20
6.569486412127659
 30
0.0
 10
9.62708561959012
 20
6.568735960171249
 30
0.0
 10
9.627818364683494
 20
6.568287298384327
 30
0.0
 10
9.628191809981308
 20
6.568058636826372
 30
0.0
  0
LINE
  5
187
330
1F
100
AcDbEntity
  8
0
  6
Continuous
 62
     7
370
    18
100
AcDbLine
 10
9.6094694865
 20
6.5904344656
 30
0.0
 11
9.6171751373
 21
6.5868759082
 31
0.0
  0
SPLINE
  5
188
330
1F
100
AcDbEntity
  8
0
  6
Continuous
 62
     7
370
    18
100
AcDbSpline
210
0.0
220
0.0
230
1.0
 70
     8
 71
     3
 72
    23
 73
    19
 74
     0
 42
0.000000001
 43
0.00000001
 40
0.0
 40
0.0
 40
0.0
 40
0.0
 40
0.0693182087024731
 40
0.1356003304878334
 40
0.1997291161327788
 40
0.2617924716337869
 40
0.3229211796962244
 40
0.3829790997934825
 40
0.4430077312381368
 40
0.5034940989540209
 40
0.5640370581785096
 40
0.6237053491018794
 40
0.6833720888094614
 40
0.7438094697850024
 40
0.8050093008747736
 40
0.8676101914670349
 40
0.9327585037206162
 40
1.0
 40
1.0
 40
1.0
 40
1.0
 10
9.628143649663679
 20
6.560078058146301
 30
0.0
 10
9.62749686065711
 20
6.560466633864404
 30
0.0
 10
9.626231611530107
 20
6.561226765967939
 30
0.0
 10
9.624378784001319
 20
6.562553458866251
 30
0.0
 10
9.622617577119092
 20
6.563983158510475
 30
0.0
 10
9.62094109102807
 20
6.565533306194351
 30
0.0
 10
9.619365249624211
 20
6.56721504225168
 30
0.0
 10
9.61786796987293
 20
6.568993226662548
 30
0.0
 10
9.616482852407866
 20
6.570906343946126
 30
0.0
 10
9.615181995001107
 20
6.572904544762952
 30
0.0
 10
9.613992296226405
 20
6.57497498128438
 30
0.0
 10
9.612938124851478
 20
6.577095720490652
 30
0.0
 10
9.612023124595611
 20
6.579249297040257
 30
0.0
 10
9.611216643010746
 20
6.581435738463591
 30
0.0
 10
9.610589657495122
 20
6.583649346041677
 30
0.0
 10
9.610064483787765
 20
6.585896615318566
 30
0.0
 10
9.609675111968786
 20
6.58817744602865
 30
0.0
 10
9.609538747003079
 20
6.589674237280947
 30
0.0
 10
9.609469486503077
 20
6.59043446561376
 30
0.0
  0
SPLINE
  5
189
330
1F
100
AcDbEntity
  8
0
  6
Continuous
 62
     7
370
    18
100
AcDbSpline
210
0.0
220
0.0
230
1.0
 70
     8
 71
     3
 72
    15
 73
    11
 74
     0
 42
0.000000001
 43
0.00000001
 40
0.0
 40
0.0
 40
0.0
 40
0.0
 40
0.1278829696493941
 40
0.2515595312796917
 40
0.3727646915574482
 40
0.4930749058244788
 40
0.6136192248323046
 40
0.7378284322692569
 40
0.8661899985982193
 40
1.0
 40
1.0
 40
1.0
 40
1.0
 10
9.643398430272631
 20
6.559697144968989
 30
0.0
 10
9.64292623725072
 20
6.559297629744284
 30
0.0
 10
9.641997382880268
 20
6.558511740403888
 30
0.0
 10
9.64039008525687
 20
6.557721499147371
 30
0.0
 10
9.638656770502473
 20
6.55726871574334
 30
0.0
 10
9.636807586758612
 20
6.557126972826611
 30
0.0
 10
9.634819406883523
 20
6.557347859074974
 30
0.0
 10
9.632702708625432
 20
6.557929523777998
 30
0.0
 10
9.630464038262737
 20
6.558798259848473
 30
0.0
 10
9.62892775484911
 20
6.559645588997796
 30
0.0
 10
9.628143649663679
 20
6.560078058146301
 30
0.0
  0
LINE
  5
18A
330
1F
100
AcDbEntity
  8
0
  6
Continuous
 62
     7
370
    18
100
AcDbLine
 10
9.717348598
 20
6.5263775399
 30
0.0
 11
9.7096429472
 21
6.5308259175
 31
0.0
  0
LINE
  5
18B
330
1F
100
AcDbEntity
  8
0
  6
Continuous
 62
     7
370
    18
100
AcDbLine
 10
9.717348598
 20
6.5352757411
 30
0.0
 11
9.717348598
 21
6.5263775399
 31
0.0
  0
LINE
  5
18C
330
1F
100
AcDbEntity
  8
0
  6
Continuous
 62
     7
370
    18
100
AcDbLine
 10
9.7096429472
 20
6.5397241186
 30
0.0
 11
9.717348598
 21
6.5352757411
 31
0.0
  0
LINE
  5
18D
330
1F
100
AcDbEntity
  8
0
  6
Continuous
 62
     7
370
    18
100
AcDbLine
 10
9.7096429472
 20
6.5824354842
 30
0.0
 11
9.7096429472
 21
6.5397241186
 31
0.0
  0
LINE
  5
18E
330
1F
100
AcDbEntity
  8
0
  6
Continuous
 62
     7
370
    18
100
AcDbLine
 10
9.7042489916
 20
6.5855493484
 30
0.0
 11
9.7096429472
 21
6.5824354842
 31
0.0
  0
LINE
  5
18F
330
1F
100
AcDbEntity
  8
0
  6
Continuous
 62
     7
370
    18
100
AcDbLine
 10
9.6757380836
 20
6.5592969798
 30
0.0
 11
9.7042489916
 21
6.5855493484
 31
0.0
  0
LINE
  5
190
330
1F
100
AcDbEntity
  8
0
  6
Continuous
 62
     7
370
    18
100
AcDbLine
 10
9.6757380836
 20
6.5503987786
 30
0.0
 11
9.6757380836
 21
6.5592969798
 31
0.0
  0
LINE
  5
191
330
1F
100
AcDbEntity
  8
0
  6
Continuous
 62
     7
370
    18
100
AcDbLine
 10
9.7019372964
 20
6.535274295
 30
0.0
 11
9.6757380836
 21
6.5503987786
 31
0.0
  0
LINE
  5
192
330
1F
100
AcDbEntity
  8
0
  6
Continuous
 62
     7
370
    18
100
AcDbLine
 10
9.7019372964
 20
6.5183677128
 30
0.0
 11
9.7019372964
 21
6.535274295
 31
0.0
  0
LINE
  5
193
330
1F
100
AcDbEntity
  8
0
  6
Continuous
 62
     7
370
    18
100
AcDbLine
 10
9.7096429472
 20
6.5139193353
 30
0.0
 11
9.7019372964
 21
6.5183677128
 31
0.0
  0
LINE
  5
194
330
1F
100
AcDbEntity
  8
0
  6
Continuous
 62
     7
370
    18
100
AcDbLine
 10
9.7096429472
 20
6.5308259175
 30
0.0
 11
9.7096429472
 21
6.5139193353
 31
0.0
  0
SPLINE
  5
195
330
1F
100
AcDbEntity
  8
0
  6
Continuous
 62
     7
370
    18
100
AcDbSpline
210
0.0
220
0.0
230
1.0
 70
     8
 71
     3
 72
    23
 73
    19
 74
     0
 42
0.000000001
 43
0.00000001
 40
0.0
 40
0.0
 40
0.0
 40
0.0
 40
0.0698823039034427
 40
0.1383882841653966
 40
0.2067582142303601
 40
0.2765984302165
 40
0.3471345171864638
 40
0.4179202738343021
 40
0.4902130565940819
 40
0.5664711022702207
 40
0.6078661527170738
 40
0.6522325532418385
 40
0.7005469750391917
 40
0.752522892715919
 40
0.808321340815731
 40
0.8684702740719038
 40
0.931979790540806
 40
1.0
 40
1.0
 40
1.0
 40
1.0
 10
9.814078595949422
 20
6.49723110418408
 30
0.0
 10
9.813587081935355
 20
6.497496629256897
 30
0.0
 10
9.812613734217111
 20
6.498022449917885
 30
0.0
 10
9.811192627160706
 20
6.498457497407455
 30
0.0
 10
9.809828029224489
 20
6.4986621161857
 30
0.0
 10
9.808541333029872
 20
6.498581368603856
 30
0.0
 10
9.807352885338906
 20
6.49823151655206
 30
0.0
 10
9.806332791695603
 20
6.497537691899979
 30
0.0
 10
9.805491787266124
 20
6.496524398122546
 30
0.0
 10
9.804953458503762
 20
6.495418266253087
 30
0.0
 10
9.80461674840976
 20
6.494357542306856
 30
0.0
 10
9.804366362409885
 20
6.493453357850462
 30
0.0
 10
9.804182014702564
 20
6.492405155024638
 30
0.0
 10
9.80403010819067
 20
6.491239588008034
 30
0.0
 10
9.803889069090554
 20
6.489968595210082
 30
0.0
 10
9.803818578516994
 20
6.488556078219948
 30
0.0
 10
9.803746888885945
 20
6.487045219238579
 30
0.0
 10
9.803747758236138
 20
6.485978015924795
 30
0.0
 10
9.803748207818025
 20
6.48542611488169
 30
0.0
  0
SPLINE
  5
196
330
1F
100
AcDbEntity
  8
0
  6
Continuous
 62
     7
370
    18
100
AcDbSpline
210
0.0
220
0.0
230
1.0
 70
     8
 71
     3
 72
    23
 73
    19
 74
     0
 42
0.000000001
 43
0.00000001
 40
0.0
 40
0.0
 40
0.0
 40
0.0
 40
0.0840520374929028
 40
0.1623146334137115
 40
0.2366600199015783
 40
0.3057775454542922
 40
0.369854882253864
 40
0.4308818052540365
 40
0.4880260023390453
 40
0.5427446849665448
 40
0.5951151179188187
 40
0.6466861713516491
 40
0.6997262587744729
 40
0.753413956654465
 40
0.8093158108836109
 40
0.8690272915375981
 40
0.9322090442192221
 40
1.0
 40
1.0
 40
1.0
 40
1.0
 10
9.821471204705455
 20
6.481715559591265
 30
0.0
 10
9.821468280775473
 20
6.482171672827524
 30
0.0
 10
9.821462634313619
 20
6.483052482560955
 30
0.0
 10
9.821371164860576
 20
6.484380766209265
 30
0.0
 10
9.821247863848948
 20
6.485642424921352
 30
0.0
 10
9.821054053709075
 20
6.486854851858395
 30
0.0
 10
9.820809946008787
 20
6.488007356014138
 30
0.0
 10
9.820530066912635
 20
6.489101031529757
 30
0.0
 10
9.820176206856642
 20
6.490147709825211
 30
0.0
 10
9.819770265350993
 20
6.491138504031381
 30
0.0
 10
9.819293048409351
 20
6.492074174620147
 30
0.0
 10
9.818757021897811
 20
6.492967388109761
 30
0.0
 10
9.818142456503514
 20
6.493807412125598
 30
0.0
 10
9.81745636398217
 20
6.494586559299967
 30
0.0
 10
9.816717365777365
 20
6.495352362834238
 30
0.0
 10
9.815893392255457
 20
6.496012593857129
 30
0.0
 10
9.815010047621001
 20
6.496677887639492
 30
0.0
 10
9.81439627976412
 20
6.497042422422481
 30
0.0
 10
9.814078595949422
 20
6.49723110418408
 30
0.0
  0
LINE
  5
197
330
1F
100
AcDbEntity
  8
0
  6
Continuous
 62
     7
370
    18
100
AcDbLine
 10
9.8214712047
 20
6.4493622563
 30
0.0
 11
9.8214712047
 21
6.4817155596
 31
0.0
  0
LINE
  5
198
330
1F
100
AcDbEntity
  8
0
  6
Continuous
 62
     7
370
    18
100
AcDbLine
 10
9.8291768555
 20
6.4449138788
 30
0.0
 11
9.8214712047
 21
6.4493622563
 31
0.0
  0
LINE
  5
199
330
1F
100
AcDbEntity
  8
0
  6
Continuous
 62
     7
370
    18
100
AcDbLine
 10
9.8291768555
 20
6.473846936
 30
0.0
 11
9.8291768555
 21
6.4449138788
 31
0.0
  0
SPLINE
  5
19A
330
1F
100
AcDbEntity
  8
0
  6
Continuous
 62
     7
370
    18
100
AcDbSpline
210
0.0
220
0.0
230
1.0
 70
     8
 71
     3
 72
    23
 73
    19
 74
     0
 42
0.000000001
 43
0.00000001
 40
0.0
 40
0.0
 40
0.0
 40
0.0
 40
0.0585757660198504
 40
0.1150346943684879
 40
0.169763615231176
 40
0.2236478972929994
 40
0.2768730316667503
 40
0.3302884546297407
 40
0.3850366836323369
 40
0.4406848389014084
 40
0.4978802676984127
 40
0.5572232623162524
 40
0.6200374272436318
 40
0.6862557553842884
 40
0.7567477502249745
 40
0.8318929806595928
 40
0.9128343922551199
 40
1.0
 40
1.0
 40
1.0
 40
1.0
 10
9.839435003181032
 20
6.482593161866635
 30
0.0
 10
9.839073198841378
 20
6.482792244417229
 30
0.0
 10
9.838362665211838
 20
6.483183214982668
 30
0.0
 10
9.837324366389106
 20
6.483604764606896
 30
0.0
 10
9.836327220309135
 20
6.483928008801978
 30
0.0
 10
9.835388015584272
 20
6.484069632558289
 30
0.0
 10
9.83448809198081
 20
6.484106086588497
 30
0.0
 10
9.83364050412555
 20
6.483986745110927
 30
0.0
 10
9.832831493555823
 20
6.483749667030432
 30
0.0
 10
9.83208493354328
 20
6.483350980983034
 30
0.0
 10
9.831385473315052
 20
6.482826203650384
 30
0.0
 10
9.830798190608432
 20
6.482076484076153
 30
0.0
 10
9.830291072360605
 20
6.481158236051083
 30
0.0
 10
9.829887223084333
 20
6.480045163732205
 30
0.0
 10
9.829560314019123
 20
6.478770073103857
 30
0.0
 10
9.829335025420667
 20
6.477304208383404
 30
0.0
 10
9.829205232505396
 20
6.475650171704753
 30
0.0
 10
9.829186545153503
 20
6.474462670386431
 30
0.0
 10
9.829176855526079
 20
6.47384693598988
 30
0.0
  0
SPLINE
  5
19B
330
1F
100
AcDbEntity
  8
0
  6
Continuous
 62
     7
370
    18
100
AcDbSpline
210
0.0
220
0.0
230
1.0
 70
     8
 71
     3
 72
    19
 73
    15
 74
     0
 42
0.000000001
 43
0.00000001
 40
0.0
 40
0.0
 40
0.0
 40
0.0
 40
0.1364148811765275
 40
0.2528973605082377
 40
0.3492204458013852
 40
0.4269322474132383
 40
0.4944524086148369
 40
0.5607020268402086
 40
0.6286260433619786
 40
0.698836431094077
 40
0.7714182240964009
 40
0.8441568540005466
 40
0.9199641120853101
 40
1.0
 40
1.0
 40
1.0
 40
1.0
 10
9.846899852413511
 20
6.466048769543802
 30
0.0
 10
9.846889288004975
 20
6.466838192031902
 30
0.0
 10
9.846869702817418
 20
6.468301689722512
 30
0.0
 10
9.846764506549377
 20
6.470366340801123
 30
0.0
 10
9.84655331754751
 20
6.472140100771044
 30
0.0
 10
9.846263457467252
 20
6.473659497811791
 30
0.0
 10
9.845818153596957
 20
6.475024067512732
 30
0.0
 10
9.845255489098202
 20
6.4763137749959
 30
0.0
 10
9.844548869453693
 20
6.477573075324952
 30
0.0
 10
9.843714511291212
 20
6.478793819598837
 30
0.0
 10
9.842769501695736
 20
6.479936846085226
 30
0.0
 10
9.84172599688223
 20
6.48095154306429
 30
0.0
 10
9.840609969323994
 20
6.481875631013104
 30
0.0
 10
9.839833679811852
 20
6.482349697163496
 30
0.0
 10
9.839435003181032
 20
6.482593161866635
 30
0.0
  0
LINE
  5
19C
330
1F
100
AcDbEntity
  8
0
  6
Continuous
 62
     7
370
    18
100
AcDbLine
 10
9.8468998524
 20
6.4346826105
 30
0.0
 11
9.8468998524
 21
6.4660487695
 31
0.0
  0
LINE
  5
19D
330
1F
100
AcDbEntity
  8
0
  6
Continuous
 62
     7
370
    18
100
AcDbLine
 10
9.8546055032
 20
6.4302342329
 30
0.0
 11
9.8468998524
 21
6.4346826105
 31
0.0
  0
LINE
  5
19E
330
1F
100
AcDbEntity
  8
0
  6
Continuous
 62
     7
370
    18
100
AcDbLine
 10
9.8546055032
 20
6.4648816037
 30
0.0
 11
9.8546055032
 21
6.4302342329
 31
0.0
  0
SPLINE
  5
19F
330
1F
100
AcDbEntity
  8
0
  6
Continuous
 62
     7
370
    18
100
AcDbSpline
210
0.0
220
0.0
230
1.0
 70
     8
 71
     3
 72
    23
 73
    19
 74
     0
 42
0.000000001
 43
0.00000001
 40
0.0
 40
0.0
 40
0.0
 40
0.0
 40
0.0684858423217284
 40
0.1336315466164048
 40
0.1953270837667399
 40
0.2542221042059962
 40
0.3112724040630452
 40
0.3666124446917562
 40
0.4212564852255817
 40
0.4760702201722832
 40
0.5314280570704071
 40
0.5882286934627525
 40
0.6473050178610782
 40
0.7093984115158154
 40
0.7752829671512439
 40
0.8452284978288171
 40
0.9203967621689223
 40
1.0
 40
1.0
 40
1.0
 40
1.0
 10
9.841289175409745
 20
6.489531152062558
 30
0.0
 10
9.841807401906731
 20
6.489218383716747
 30
0.0
 10
9.84281858036263
 20
6.488608101118674
 30
0.0
 10
9.844288204605864
 20
6.487561139290118
 30
0.0
 10
9.845669414311084
 20
6.486453131089606
 30
0.0
 10
9.846954203722236
 20
6.485246063652966
 30
0.0
 10
9.848150126204986
 20
6.483974183629668
 30
0.0
 10
9.849258419938083
 20
6.482625024815745
 30
0.0
 10
9.85026090788023
 20
6.481185217671521
 30
0.0
 10
9.851185680199805
 20
6.47968076180718
 30
0.0
 10
9.85199650893049
 20
6.478088118122154
 30
0.0
 10
9.85269782733652
 20
6.476421570874392
 30
0.0
 10
9.853289582071607
 20
6.474679322364753
 30
0.0
 10
9.853765185156822
 20
6.472863412332206
 30
0.0
 10
9.854157211660581
 20
6.470965570801307
 30
0.0
 10
9.854408303524956
 20
6.468998245511939
 30
0.0
 10
9.854587027541612
 20
6.466940824367302
 30
0.0
 10
9.85459922813407
 20
6.465580999166313
 30
0.0
 10
9.854605503234135
 20
6.464881603687402
 30
0.0
  0
SPLINE
  5
1A0
330
1F
100
AcDbEntity
  8
0
  6
Continuous
 62
     7
370
    18
100
AcDbSpline
210
0.0
220
0.0
230
1.0
 70
     8
 71
     3
 72
    15
 73
    11
 74
     0
 42
0.000000001
 43
0.00000001
 40
0.0
 40
0.0
 40
0.0
 40
0.0
 40
0.142302946990994
 40
0.2753838759350553
 40
0.4024786494899635
 40
0.5233761876629234
 40
0.6412310342564421
 40
0.7583226851907713
 40
0.877553058040032
 40
1.0
 40
1.0
 40
1.0
 40
1.0
 10
9.827972847585356
 20
6.487805876076232
 30
0.0
 10
9.828400188196799
 20
6.488308048929408
 30
0.0
 10
9.829227175384428
 20
6.48927985105734
 30
0.0
 10
9.830667831045881
 20
6.490369366997088
 30
0.0
 10
9.832192687134803
 20
6.491126562272616
 30
0.0
 10
9.833822818078497
 20
6.491525828861856
 30
0.0
 10
9.835548292009982
 20
6.491570276125354
 30
0.0
 10
9.837374387205632
 20
6.491263950311596
 30
0.0
 10
9.839303247957732
 20
6.490584774485202
 30
0.0
 10
9.840621351888151
 20
6.489885462002735
 30
0.0
 10
9.841289175409745
 20
6.489531152062558
 30
0.0
  0
SPLINE
  5
1A1
330
1F
100
AcDbEntity
  8
0
  6
Continuous
 62
     7
370
    18
100
AcDbSpline
210
0.0
220
0.0
230
1.0
 70
     8
 71
     3
 72
    15
 73
    11
 74
     0
 42
0.000000001
 43
0.00000001
 40
0.0
 40
0.0
 40
0.0
 40
0.0
 40
0.1427448629824148
 40
0.2746346497965608
 40
0.3982435516696317
 40
0.5176044543884932
 40
0.6347051380894391
 40
0.7520881184911004
 40
0.8730810341089227
 40
0.9999999999999999
 40
0.9999999999999999
 40
0.9999999999999999
 40
0.9999999999999999
 10
9.81629397056035
 20
6.503960576683173
 30
0.0
 10
9.817026728787257
 20
6.503512671250879
 30
0.0
 10
9.818436522420647
 20
6.502650921490009
 30
0.0
 10
9.820443375513925
 20
6.501002877455324
 30
0.0
 10
9.822259563423273
 20
6.499200851507762
 30
0.0
 10
9.823853307808102
 20
6.497179391266659
 30
0.0
 10
9.825230085468766
 20
6.495004911271672
 30
0.0
 10
9.826385886059253
 20
6.49269940985717
 30
0.0
 10
9.827328710076888
 20
6.490272176592271
 30
0.0
 10
9.827754740492427
 20
6.488640973596203
 30
0.0
 10
9.827972847585356
 20
6.487805876076232
 30
0.0
  0
SPLINE
  5
1A2
330
1F
100
AcDbEntity
  8
0
  6
Continuous
 62
     7
370
    18
100
AcDbSpline
210
0.0
220
0.0
230
1.0
 70
     8
 71
     3
 72
    15
 73
    11
 74
     0
 42
0.000000001
 43
0.00000001
 40
0.0
 40
0.0
 40
0.0
 40
0.0
 40
0.1266319284235801
 40
0.2498443757728027
 40
0.3726046475920062
 40
0.4967509664038982
 40
0.6205941793274093
 40
0.7437520563069246
 40
0.8691668313601794
 40
1.0
 40
1.0
 40
1.0
 40
1.0
 10
9.803748207818025
 20
6.502402214273029
 30
0.0
 10
9.804087385920075
 20
6.502848044621614
 30
0.0
 10
9.804756583193132
 20
6.503727666424183
 30
0.0
 10
9.805998372400984
 20
6.504701177386145
 30
0.0
 10
9.80737522182823
 20
6.505424591692367
 30
0.0
 10
9.808914088417632
 20
6.505839802363821
 30
0.0
 10
9.810586796362525
 20
6.505945199623999
 30
0.0
 10
9.812392179794891
 20
6.505651055308079
 30
0.0
 10
9.814304482146811
 20
6.50502793437167
 30
0.0
 10
9.815621524747774
 20
6.504321342899888
 30
0.0
 10
9.81629397056035
 20
6.503960576683173
 30
0.0
  0
LINE
  5
1A3
330
1F
100
AcDbEntity
  8
0
  6
Continuous
 62
     7
370
    18
100
AcDbLine
 10
9.8037482078
 20
6.5103132712
 30
0.0
 11
9.8037482078
 21
6.5024022143
 31
0.0
  0
LINE
  5
1A4
330
1F
100
AcDbEntity
  8
0
  6
Continuous
 62
     7
370
    18
100
AcDbLine
 10
9.796042557
 20
6.5147616488
 30
0.0
 11
9.8037482078
 21
6.5103132712
 31
0.0
  0
LINE
  5
1A5
330
1F
100
AcDbEntity
  8
0
  6
Continuous
 62
     7
370
    18
100
AcDbLine
 10
9.796042557
 20
6.4640419022
 30
0.0
 11
9.796042557
 21
6.5147616488
 31
0.0
  0
LINE
  5
1A6
330
1F
100
AcDbEntity
  8
0
  6
Continuous
 62
     7
370
    18
100
AcDbLine
 10
9.8037482078
 20
6.4595935247
 30
0.0
 11
9.796042557
 21
6.4640419022
 31
0.0
  0
LINE
  5
1A7
330
1F
100
AcDbEntity
  8
0
  6
Continuous
 62
     7
370
    18
100
AcDbLine
 10
9.8037482078
 20
6.4854261149
 30
0.0
 11
9.8037482078
 21
6.4595935247
 31
0.0
  0
LINE
  5
1A8
330
1F
100
AcDbEntity
  8
0
  6
Continuous
 62
     7
370
    18
100
AcDbLine
 10
9.9539120782
 20
6.3809141485
 30
0.0
 11
9.989358072
 21
6.3604516119
 31
0.0
  0
LINE
  5
1A9
330
1F
100
AcDbEntity
  8
0
  6
Continuous
 62
     7
370
    18
100
AcDbLine
 10
9.9539120782
 20
6.4049392916
 30
0.0
 11
9.9539120782
 21
6.3809141485
 31
0.0
  0
LINE
  5
1AA
330
1F
100
AcDbEntity
  8
0
  6
Continuous
 62
     7
370
    18
100
AcDbLine
 10
9.9855052465
 20
6.3867009438
 30
0.0
 11
9.9539120782
 21
6.4049392916
 31
0.0
  0
LINE
  5
1AB
330
1F
100
AcDbEntity
  8
0
  6
Continuous
 62
     7
370
    18
100
AcDbLine
 10
9.9855052465
 20
6.3947093248
 30
0.0
 11
9.9855052465
 21
6.3867009438
 31
0.0
  0
LINE
  5
1AC
330
1F
100
AcDbEntity
  8
0
  6
Continuous
 62
     7
370
    18
100
AcDbLine
 10
9.9539120782
 20
6.4129476727
 30
0.0
 11
9.9855052465
 21
6.3947093248
 31
0.0
  0
LINE
  5
1AD
330
1F
100
AcDbEntity
  8
0
  6
Continuous
 62
     7
370
    18
100
AcDbLine
 10
9.9539120782
 20
6.4343033555
 30
0.0
 11
9.9539120782
 21
6.4129476727
 31
0.0
  0
LINE
  5
1AE
330
1F
100
AcDbEntity
  8
0
  6
Continuous
 62
     7
370
    18
100
AcDbLine
 10
9.9878169418
 20
6.4147304943
 30
0.0
 11
9.9539120782
 21
6.4343033555
 31
0.0
  0
LINE
  5
1AF
330
1F
100
AcDbEntity
  8
0
  6
Continuous
 62
     7
370
    18
100
AcDbLine
 10
9.9878169418
 20
6.4227388754
 30
0.0
 11
9.9878169418
 21
6.4147304943
 31
0.0
  0
LINE
  5
1B0
330
1F
100
AcDbEntity
  8
0
  6
Continuous
 62
     7
370
    18
100
AcDbLine
 10
9.9454358623
 20
6.4472049518
 30
0.0
 11
9.9878169418
 21
6.4227388754
 31
0.0
  0
LINE
  5
1B1
330
1F
100
AcDbEntity
  8
0
  6
Continuous
 62
     7
370
    18
100
AcDbLine
 10
9.9454358623
 20
6.3777989828
 30
0.0
 11
9.9454358623
 21
6.4472049518
 31
0.0
  0
LINE
  5
1B2
330
1F
100
AcDbEntity
  8
0
  6
Continuous
 62
     7
370
    18
100
AcDbLine
 10
9.989358072
 20
6.3524432308
 30
0.0
 11
9.9454358623
 21
6.3777989828
 31
0.0
  0
LINE
  5
1B3
330
1F
100
AcDbEntity
  8
0
  6
Continuous
 62
     7
370
    18
100
AcDbLine
 10
9.989358072
 20
6.3604516119
 30
0.0
 11
9.989358072
 21
6.3524432308
 31
0.0
  0
LINE
  5
1B4
330
1F
100
AcDbEntity
  8
0
  6
Continuous
 62
     7
370
    18
100
AcDbLine
 10
10.079273385
 20
6.3005362255
 30
0.0
 11
10.0633323198
 21
6.3684669342
 31
0.0
  0
LINE
  5
1B5
330
1F
100
AcDbEntity
  8
0
  6
Continuous
 62
     7
370
    18
100
AcDbLine
 10
10.0881348834
 20
6.2954205913
 30
0.0
 11
10.079273385
 21
6.3005362255
 31
0.0
  0
LINE
  5
1B6
330
1F
100
AcDbEntity
  8
0
  6
Continuous
 62
     7
370
    18
100
AcDbLine
 10
10.1041722692
 20
6.3448905332
 30
0.0
 11
10.0881348834
 21
6.2954205913
 31
0.0
  0
LINE
  5
1B7
330
1F
100
AcDbEntity
  8
0
  6
Continuous
 62
     7
370
    18
100
AcDbLine
 10
10.1041722692
 20
6.2861624056
 30
0.0
 11
10.1041722692
 21
6.3448905332
 31
0.0
  0
LINE
  5
1B8
330
1F
100
AcDbEntity
  8
0
  6
Continuous
 62
     7
370
    18
100
AcDbLine
 10
10.1126484851
 20
6.2812691903
 30
0.0
 11
10.1041722692
 21
6.2861624056
 31
0.0
  0
LINE
  5
1B9
330
1F
100
AcDbEntity
  8
0
  6
Continuous
 62
     7
370
    18
100
AcDbLine
 10
10.1126484851
 20
6.3506751593
 30
0.0
 11
10.1126484851
 21
6.2812691903
 31
0.0
  0
LINE
  5
1BA
330
1F
100
AcDbEntity
  8
0
  6
Continuous
 62
     7
370
    18
100
AcDbLine
 10
10.1000064017
 20
6.3579732787
 30
0.0
 11
10.1126484851
 21
6.3506751593
 31
0.0
  0
LINE
  5
1BB
330
1F
100
AcDbEntity
  8
0
  6
Continuous
 62
     7
370
    18
100
AcDbLine
 10
10.086702114
 20
6.317784139
 30
0.0
 11
10.1000064017
 21
6.3579732787
 31
0.0
  0
SPLINE
  5
1BC
330
1F
100
AcDbEntity
  8
0
  6
Continuous
 62
     7
370
    18
100
AcDbSpline
210
0.0
220
0.0
230
1.0
 70
     8
 71
     3
 72
    15
 73
    11
 74
     0
 42
0.000000001
 43
0.00000001
 40
0.0
 40
0.0
 40
0.0
 40
0.0
 40
0.0892047702332417
 40
0.1898334556643487
 40
0.2992325919749821
 40
0.4192609378429105
 40
0.5492073901909384
 40
0.6890743636843468
 40
0.8395791979483163
 40
1.0
 40
1.0
 40
1.0
 40
1.0
 10
10.0837522945124
 20
6.30846160618524
 30
0.0
 10
10.08383620095149
 20
6.308742345675304
 30
0.0
 10
10.08401475921966
 20
6.309339777263334
 30
0.0
 10
10.08430423071574
 20
6.310274102521189
 30
0.0
 10
10.08461223662923
 20
6.311315154704953
 30
0.0
 10
10.08498082529712
 20
6.312417709607016
 30
0.0
 10
10.08536503536102
 20
6.313628356369855
 30
0.0
 10
10.08576831382631
 20
6.314943915479063
 30
0.0
 10
10.08623348768282
 20
6.316324204853976
 30
0.0
 10
10.08654261895824
 20
6.317287256498573
 30
0.0
 10
10.08670211396717
 20
6.317784139029954
 30
0.0
  0
SPLINE
  5
1BD
330
1F
100
AcDbEntity
  8
0
  6
Continuous
 62
     7
370
    18
100
AcDbSpline
210
0.0
220
0.0
230
1.0
 70
     8
 71
     3
 72
    15
 73
    11
 74
     0
 42
0.000000001
 43
0.00000001
 40
0.0
 40
0.0
 40
0.0
 40
0.0
 40
0.1625255217041964
 40
0.3143148980392425
 40
0.4549784905465756
 40
0.5845192373662027
 40
0.7045671033090722
 40
0.8134949897289324
 40
0.911681259682611
 40
1.0
 40
1.0
 40
1.0
 40
1.0
 10
10.08104327664577
 20
6.320216709921989
 30
0.0
 10
10.08119114841544
 20
6.319579616780818
 30
0.0
 10
10.08147712381007
 20
6.318347515732261
 30
0.0
 10
10.08190119139172
 20
6.316561844709359
 30
0.0
 10
10.08228702179794
 20
6.314907223695607
 30
0.0
 10
10.08263452283402
 20
6.313379148145651
 30
0.0
 10
10.0829624640514
 20
6.311973373443391
 30
0.0
 10
10.08324640947302
 20
6.310694024240828
 30
0.0
 10
10.08351787053387
 20
6.309535304291784
 30
0.0
 10
10.08367695884567
 20
6.308806655199557
 30
0.0
 10
10.0837522945124
 20
6.30846160618524
 30
0.0
  0
LINE
  5
1BE
330
1F
100
AcDbEntity
  8
0
  6
Continuous
 62
     7
370
    18
100
AcDbLine
 10
10.067606548
 20
6.3766773161
 30
0.0
 11
10.0810432766
 21
6.3202167099
 31
0.0
  0
LINE
  5
1BF
330
1F
100
AcDbEntity
  8
0
  6
Continuous
 62
     7
370
    18
100
AcDbLine
 10
10.0548561039
 20
6.3840379908
 30
0.0
 11
10.067606548
 21
6.3766773161
 31
0.0
  0
LINE
  5
1C0
330
1F
100
AcDbEntity
  8
0
  6
Continuous
 62
     7
370
    18
100
AcDbLine
 10
10.0548561039
 20
6.3146320218
 30
0.0
 11
10.0548561039
 21
6.3840379908
 31
0.0
  0
LINE
  5
1C1
330
1F
100
AcDbEntity
  8
0
  6
Continuous
 62
     7
370
    18
100
AcDbLine
 10
10.0633323198
 20
6.3097388065
 30
0.0
 11
10.0548561039
 21
6.3146320218
 31
0.0
  0
LINE
  5
1C2
330
1F
100
AcDbEntity
  8
0
  6
Continuous
 62
     7
370
    18
100
AcDbLine
 10
10.0633323198
 20
6.3684669342
 30
0.0
 11
10.0633323198
 21
6.3097388065
 31
0.0
  0
LINE
  5
1C3
330
1F
100
AcDbEntity
  8
0
  6
Continuous
 62
     7
370
    18
100
AcDbLine
 10
10.2097396854
 20
6.2946256024
 30
0.0
 11
10.2182159013
 21
6.2897323871
 31
0.0
  0
LINE
  5
1C4
330
1F
100
AcDbEntity
  8
0
  6
Continuous
 62
     7
370
    18
100
AcDbLine
 10
10.2097396854
 20
6.2252196334
 30
0.0
 11
10.2097396854
 21
6.2946256024
 31
0.0
  0
LINE
  5
1C5
330
1F
100
AcDbEntity
  8
0
  6
Continuous
 62
     7
370
    18
100
AcDbLine
 10
10.2182159013
 20
6.2203264181
 30
0.0
 11
10.2097396854
 21
6.2252196334
 31
0.0
  0
LINE
  5
1C6
330
1F
100
AcDbEntity
  8
0
  6
Continuous
 62
     7
370
    18
100
AcDbLine
 10
10.2182159013
 20
6.2897323871
 30
0.0
 11
10.2182159013
 21
6.2203264181
 31
0.0
  0
LINE
  5
1C7
330
1F
100
AcDbEntity
  8
0
  6
Continuous
 62
     7
370
    18
100
AcDbLine
 10
10.3104429096
 20
6.1670848995
 30
0.0
 11
10.2945018445
 21
6.2350156082
 31
0.0
  0
LINE
  5
1C8
330
1F
100
AcDbEntity
  8
0
  6
Continuous
 62
     7
370
    18
100
AcDbLine
 10
10.319304408
 20
6.1619692654
 30
0.0
 11
10.3104429096
 21
6.1670848995
 31
0.0
  0
LINE
  5
1C9
330
1F
100
AcDbEntity
  8
0
  6
Continuous
 62
     7
370
    18
100
AcDbLine
 10
10.3353417938
 20
6.2114392073
 30
0.0
 11
10.319304408
 21
6.1619692654
 31
0.0
  0
LINE
  5
1CA
330
1F
100
AcDbEntity
  8
0
  6
Continuous
 62
     7
370
    18
100
AcDbLine
 10
10.3353417938
 20
6.1527110796
 30
0.0
 11
10.3353417938
 21
6.2114392073
 31
0.0
  0
LINE
  5
1CB
330
1F
100
AcDbEntity
  8
0
  6
Continuous
 62
     7
370
    18
100
AcDbLine
 10
10.3438180097
 20
6.1478178644
 30
0.0
 11
10.3353417938
 21
6.1527110796
 31
0.0
  0
LINE
  5
1CC
330
1F
100
AcDbEntity
  8
0
  6
Continuous
 62
     7
370
    18
100
AcDbLine
 10
10.3438180097
 20
6.2172238334
 30
0.0
 11
10.3438180097
 21
6.1478178644
 31
0.0
  0
LINE
  5
1CD
330
1F
100
AcDbEntity
  8
0
  6
Continuous
 62
     7
370
    18
100
AcDbLine
 10
10.3311759263
 20
6.2245219528
 30
0.0
 11
10.3438180097
 21
6.2172238334
 31
0.0
  0
LINE
  5
1CE
330
1F
100
AcDbEntity
  8
0
  6
Continuous
 62
     7
370
    18
100
AcDbLine
 10
10.3178716386
 20
6.1843328131
 30
0.0
 11
10.3311759263
 21
6.2245219528
 31
0.0
  0
SPLINE
  5
1CF
330
1F
100
AcDbEntity
  8
0
  6
Continuous
 62
     7
370
    18
100
AcDbSpline
210
0.0
220
0.0
230
1.0
 70
     8
 71
     3
 72
    15
 73
    11
 74
     0
 42
0.000000001
 43
0.00000001
 40
0.0
 40
0.0
 40
0.0
 40
0.0
 40
0.0892047702332424
 40
0.18983345566435
 40
0.299232591974982
 40
0.4192609378429104
 40
0.5492073901909383
 40
0.6890743636843474
 40
0.8395791979483168
 40
1.0
 40
1.0
 40
1.0
 40
1.0
 10
10.31492181913108
 20
6.17501028021422
 30
0.0
 10
10.31500572557017
 20
6.175291019704284
 30
0.0
 10
10.31518428383834
 20
6.175888451292313
 30
0.0
 10
10.31547375533442
 20
6.176822776550169
 30
0.0
 10
10.31578176124791
 20
6.177863828733933
 30
0.0
 10
10.3161503499158
 20
6.178966383635995
 30
0.0
 10
10.3165345599797
 20
6.180177030398834
 30
0.0
 10
10.31693783844499
 20
6.181492589508042
 30
0.0
 10
10.3174030123015
 20
6.182872878882955
 30
0.0
 10
10.31771214357692
 20
6.183835930527552
 30
0.0
 10
10.31787163858585
 20
6.184332813058933
 30
0.0
  0
SPLINE
  5
1D0
330
1F
100
AcDbEntity
  8
0
  6
Continuous
 62
     7
370
    18
100
AcDbSpline
210
0.0
220
0.0
230
1.0
 70
     8
 71
     3
 72
    15
 73
    11
 74
     0
 42
0.000000001
 43
0.00000001
 40
0.0
 40
0.0
 40
0.0
 40
0.0
 40
0.1625255217041972
 40
0.3143148980392433
 40
0.4549784905465757
 40
0.5845192373662027
 40
0.704567103309073
 40
0.8134949897289324
 40
0.911681259682611
 40
1.0
 40
1.0
 40
1.0
 40
1.0
 10
10.31221280126445
 20
6.186765383950969
 30
0.0
 10
10.31236067303412
 20
6.186128290809797
 30
0.0
 10
10.31264664842875
 20
6.184896189761241
 30
0.0
 10
10.3130707160104
 20
6.183110518738339
 30
0.0
 10
10.31345654641662
 20
6.181455897724587
 30
0.0
 10
10.3138040474527
 20
6.17992782217463
 30
0.0
 10
10.31413198867008
 20
6.17852204747237
 30
0.0
 10
10.3144159340917
 20
6.177242698269806
 30
0.0
 10
10.31468739515255
 20
6.176083978320764
 30
0.0
 10
10.31484648346435
 20
6.175355329228536
 30
0.0
 10
10.31492181913108
 20
6.17501028021422
 30
0.0
  0
LINE
  5
1D1
330
1F
100
AcDbEntity
  8
0
  6
Continuous
 62
     7
370
    18
100
AcDbLine
 10
10.2987760726
 20
6.2432259902
 30
0.0
 11
10.3122128013
 21
6.186765384
 31
0.0
  0
LINE
  5
1D2
330
1F
100
AcDbEntity
  8
0
  6
Continuous
 62
     7
370
    18
100
AcDbLine
 10
10.2860256286
 20
6.2505866649
 30
0.0
 11
10.2987760726
 21
6.2432259902
 31
0.0
  0
LINE
  5
1D3
330
1F
100
AcDbEntity
  8
0
  6
Continuous
 62
     7
370
    18
100
AcDbLine
 10
10.2860256286
 20
6.1811806958
 30
0.0
 11
10.2860256286
 21
6.2505866649
 31
0.0
  0
LINE
  5
1D4
330
1F
100
AcDbEntity
  8
0
  6
Continuous
 62
     7
370
    18
100
AcDbLine
 10
10.2945018445
 20
6.1762874806
 30
0.0
 11
10.2860256286
 21
6.1811806958
 31
0.0
  0
LINE
  5
1D5
330
1F
100
AcDbEntity
  8
0
  6
Continuous
 62
     7
370
    18
100
AcDbLine
 10
10.2945018445
 20
6.2350156082
 30
0.0
 11
10.2945018445
 21
6.1762874806
 31
0.0
  0
LINE
  5
1D6
330
1F
100
AcDbEntity
  8
0
  6
Continuous
 62
     7
370
    18
100
AcDbLine
 10
10.4547793815
 20
6.1451588159
 30
0.0
 11
10.4355152545
 21
6.1562797597
 31
0.0
  0
LINE
  5
1D7
330
1F
100
AcDbEntity
  8
0
  6
Continuous
 62
     7
370
    18
100
AcDbLine
 10
10.4547793815
 20
6.1531671969
 30
0.0
 11
10.4547793815
 21
6.1451588159
 31
0.0
  0
LINE
  5
1D8
330
1F
100
AcDbEntity
  8
0
  6
Continuous
 62
     7
370
    18
100
AcDbLine
 10
10.4077749115
 20
6.1803022998
 30
0.0
 11
10.4547793815
 21
6.1531671969
 31
0.0
  0
LINE
  5
1D9
330
1F
100
AcDbEntity
  8
0
  6
Continuous
 62
     7
370
    18
100
AcDbLine
 10
10.4077749115
 20
6.1722939188
 30
0.0
 11
10.4077749115
 21
6.1803022998
 31
0.0
  0
LINE
  5
1DA
330
1F
100
AcDbEntity
  8
0
  6
Continuous
 62
     7
370
    18
100
AcDbLine
 10
10.4270390386
 20
6.161172975
 30
0.0
 11
10.4077749115
 21
6.1722939188
 31
0.0
  0
LINE
  5
1DB
330
1F
100
AcDbEntity
  8
0
  6
Continuous
 62
     7
370
    18
100
AcDbLine
 10
10.4270390386
 20
6.099775387
 30
0.0
 11
10.4270390386
 21
6.161172975
 31
0.0
  0
LINE
  5
1DC
330
1F
100
AcDbEntity
  8
0
  6
Continuous
 62
     7
370
    18
100
AcDbLine
 10
10.4355152545
 20
6.0948821717
 30
0.0
 11
10.4270390386
 21
6.099775387
 31
0.0
  0
LINE
  5
1DD
330
1F
100
AcDbEntity
  8
0
  6
Continuous
 62
     7
370
    18
100
AcDbLine
 10
10.4355152545
 20
6.1562797597
 30
0.0
 11
10.4355152545
 21
6.0948821717
 31
0.0
  0
LINE
  5
1DE
330
1F
100
AcDbEntity
  8
0
  6
Continuous
 62
     7
370
    18
100
AcDbLine
 10
10.5358933965
 20
6.0680788078
 30
0.0
 11
10.5272124992
 21
6.0730901831
 31
0.0
  0
SPLINE
  5
1DF
330
1F
100
AcDbEntity
  8
0
  6
Continuous
 62
     7
370
    18
100
AcDbSpline
210
0.0
220
0.0
230
1.0
 70
     8
 71
     3
 72
    11
 73
     7
 74
     0
 42
0.000000001
 43
0.00000001
 40
0.0
 40
0.0
 40
0.0
 40
0.0
 40
0.1774946570818461
 40
0.4052256231013636
 40
0.67838810833485
 40
1.0
 40
1.0
 40
1.0
 40
1.0
 10
10.54007130404614
 20
6.065347174014887
 30
0.0
 10
10.53982699828469
 20
6.065539083701242
 30
0.0
 10
10.53926924090744
 20
6.065977219268309
 30
0.0
 10
10.53832217027267
 20
6.066599808662042
 30
0.0
 10
10.53717467801043
 20
6.067342754064819
 30
0.0
 10
10.53634307081268
 20
6.067820484825306
 30
0.0
 10
10.53589339649184
 20
6.068078807812231
 30
0.0
  0
SPLINE
  5
1E0
330
1F
100
AcDbEntity
  8
0
  6
Continuous
 62
     7
370
    18
100
AcDbSpline
210
0.0
220
0.0
230
1.0
 70
     8
 71
     3
 72
    21
 73
    17
 74
     0
 42
0.000000001
 43
0.00000001
 40
0.0
 40
0.0
 40
0.0
 40
0.0
 40
0.0807565202394666
 40
0.1564928761205837
 40
0.2278645863309012
 40
0.2942194159581935
 40
0.3567576405439986
 40
0.4148044898400759
 40
0.4680257207328432
 40
0.5167566765914664
 40
0.6042176202059655
 40
0.6814453118756422
 40
0.7479519834168781
 40
0.8047659882074071
 40
0.9054352660002635
 40
1.0
 40
1.0
 40
1.0
 40
1.0
 10
10.55268930726491
 20
6.041893255893983
 30
0.0
 10
10.55242002649117
 20
6.042562856711525
 30
0.0
 10
10.55189820456716
 20
6.043860433148437
 30
0.0
 10
10.55114472160639
 20
6.045750718459242
 30
0.0
 10
10.55040496220455
 20
6.047516857018315
 30
0.0
 10
10.54972218185788
 20
6.049175563771366
 30
0.0
 10
10.54905307965591
 20
6.05071848713778
 30
0.0
 10
10.5484532742987
 20
6.052157293379383
 30
0.0
 10
10.5478509132737
 20
6.053471568830148
 30
0.0
 10
10.54715926913637
 20
6.055032034114775
 30
0.0
 10
10.54631459921443
 20
6.056775105512166
 30
0.0
 10
10.54532892914016
 20
6.058633836970445
 30
0.0
 10
10.54442267108772
 20
6.060225352269798
 30
0.0
 10
10.54327747273979
 20
6.061905803079041
 30
0.0
 10
10.54185347864232
 20
6.063661164397403
 30
0.0
 10
10.54065284854582
 20
6.064797009277071
 30
0.0
 10
10.54007130404614
 20
6.065347174014887
 30
0.0
  0
LINE
  5
1E1
330
1F
100
AcDbEntity
  8
0
  6
Continuous
 62
     7
370
    18
100
AcDbLine
 10
10.5601782367
 20
6.022915764
 30
0.0
 11
10.5526893073
 21
6.0418932559
 31
0.0
  0
LINE
  5
1E2
330
1F
100
AcDbEntity
  8
0
  6
Continuous
 62
     7
370
    18
100
AcDbLine
 10
10.5698945807
 20
6.0173066379
 30
0.0
 11
10.5601782367
 21
6.022915764
 31
0.0
  0
LINE
  5
1E3
330
1F
100
AcDbEntity
  8
0
  6
Continuous
 62
     7
370
    18
100
AcDbLine
 10
10.5600337557
 20
6.0421581104
 30
0.0
 11
10.5698945807
 21
6.0173066379
 31
0.0
  0
SPLINE
  5
1E4
330
1F
100
AcDbEntity
  8
0
  6
Continuous
 62
     7
370
    18
100
AcDbSpline
210
0.0
220
0.0
230
1.0
 70
     8
 71
     3
 72
    11
 73
     7
 74
     0
 42
0.000000001
 43
0.00000001
 40
0.0
 40
0.0
 40
0.0
 40
0.0
 40
0.2295426438440583
 40
0.4707541631011943
 40
0.728168497232973
 40
1.0
 40
1.0
 40
1.0
 40
1.0
 10
10.55370067393512
 20
6.055268459405025
 30
0.0
 10
10.55426941857221
 20
6.054298287362742
 30
0.0
 10
10.55543582016614
 20
6.052308624264933
 30
0.0
 10
10.55702752748043
 20
6.049126890470264
 30
0.0
 10
10.55860250289383
 20
6.045729177370131
 30
0.0
 10
10.55954808524083
 20
6.043369889150107
 30
0.0
 10
10.56003375570332
 20
6.042158110393249
 30
0.0
  0
SPLINE
  5
1E5
330
1F
100
AcDbEntity
  8
0
  6
Continuous
 62
     7
370
    18
100
AcDbSpline
210
0.0
220
0.0
230
1.0
 70
     8
 71
     3
 72
    11
 73
     7
 74
     0
 42
0.000000001
 43
0.00000001
 40
0.0
 40
0.0
 40
0.0
 40
0.0
 40
0.2931378033625625
 40
0.555909619387244
 40
0.791869901104762
 40
1.0
 40
1.0
 40
1.0
 40
1.0
 10
10.54902912312512
 20
6.06138553435304
 30
0.0
 10
10.54951454012564
 20
6.060825905026332
 30
0.0
 10
10.55043509004075
 20
6.059764618073777
 30
0.0
 10
10.55168776140952
 20
6.058164766082971
 30
0.0
 10
10.55278515723732
 20
6.056705914735985
 30
0.0
 10
10.55340852337125
 20
6.055727165823468
 30
0.0
 10
10.55370067393512
 20
6.055268459405027
 30
0.0
  0
SPLINE
  5
1E6
330
1F
100
AcDbEntity
  8
0
  6
Continuous
 62
     7
370
    18
100
AcDbSpline
210
0.0
220
0.0
230
1.0
 70
     8
 71
     3
 72
    23
 73
    19
 74
     0
 42
0.000000001
 43
0.00000001
 40
0.0
 40
0.0
 40
0.0
 40
0.0
 40
0.0614153619466867
 40
0.1212995515295254
 40
0.1792307330403279
 40
0.2359469026963515
 40
0.2922277422078003
 40
0.3482096381939256
 40
0.4044598375581918
 40
0.462042782104682
 40
0.5206936332154621
 40
0.5803701846851828
 40
0.6422200441272128
 40
0.7065528540690782
 40
0.7743053019200286
 40
0.8452659380071899
 40
0.9206237685683545
 40
1.0
 40
1.0
 40
1.0
 40
1.0
 10
10.56497018826028
 20
6.070841368880192
 30
0.0
 10
10.56495842684879
 20
6.070254448895708
 30
0.0
 10
10.56493519725453
 20
6.069095241677105
 30
0.0
 10
10.56475725882166
 20
6.067473900023576
 30
0.0
 10
10.56443528670755
 20
6.06601250466515
 30
0.0
 10
10.56402244350594
 20
6.064665904979739
 30
0.0
 10
10.56345730286673
 20
6.063492141754379
 30
0.0
 10
10.56280291119049
 20
6.062423718766007
 30
0.0
 10
10.56199106936965
 20
6.061541456703322
 30
0.0
 10
10.5610846044588
 20
6.060763936923704
 30
0.0
 10
10.5600305498468
 20
6.060180439529065
 30
0.0
 10
10.55885808367633
 20
6.059755604143848
 30
0.0
 10
10.55753195687797
 20
6.059575729293747
 30
0.0
 10
10.55609566400261
 20
6.059526271112877
 30
0.0
 10
10.55451218947998
 20
6.059718821989571
 30
0.0
 10
10.552805413615
 20
6.060068757384042
 30
0.0
 10
10.55096212691013
 20
6.060642979539379
 30
0.0
 10
10.54968451744184
 20
6.061133767538871
 30
0.0
 10
10.54902912312512
 20
6.06138553435304
 30
0.0
  0
SPLINE
  5
1E7
330
1F
100
AcDbEntity
  8
0
  6
Continuous
 62
     7
370
    18
100
AcDbSpline
210
0.0
220
0.0
230
1.0
 70
     8
 71
     3
 72
    27
 73
    23
 74
     0
 42
0.000000001
 43
0.00000001
 40
0.0
 40
0.0
 40
0.0
 40
0.0
 40
0.0621037847913044
 40
0.12019460650744
 40
0.1743599492228158
 40
0.2250078830566526
 40
0.2723159650400777
 40
0.3163395597264792
 40
0.3568150324191081
 40
0.3939185202750508
 40
0.4295244282576433
 40
0.4646130316301361
 40
0.4999612336345988
 40
0.5354025186231406
 40
0.5715684610701042
 40
0.6081082509152275
 40
0.6455300397442268
 40
0.6843794722622699
 40
0.762612893707528
 40
0.8405203125718205
 40
0.9190846743554546
 40
1.0
 40
1.0
 40
1.0
 40
1.0
 10
10.54481509533259
 20
6.101190685667747
 30
0.0
 10
10.54542917442729
 20
6.100830655489982
 30
0.0
 10
10.54661765263999
 20
6.100133859220757
 30
0.0
 10
10.54834114376142
 20
6.099062432179034
 30
0.0
 10
10.54994604887995
 20
6.097973465170045
 30
0.0
 10
10.55144248279316
 20
6.096928127549377
 30
0.0
 10
10.55282788487859
 20
6.095860415758771
 30
0.0
 10
10.55410291538505
 20
6.094810018834763
 30
0.0
 10
10.55526268428018
 20
6.093768988156724
 30
0.0
 10
10.55631601613854
 20
6.092721771979162
 30
0.0
 10
10.55729335783124
 20
6.091660905577479
 30
0.0
 10
10.55819902194905
 20
6.090524941170613
 30
0.0
 10
10.55907189593986
 20
6.089350333043574
 30
0.0
 10
10.55987718511718
 20
6.088090904171801
 30
0.0
 10
10.56065115942715
 20
6.086790445259131
 30
0.0
 10
10.56136141484637
 20
6.085424949977156
 30
0.0
 10
10.56202897134233
 20
6.084006198378491
 30
0.0
 10
10.5628406318559
 20
6.082041201066365
 30
0.0
 10
10.56369309638683
 20
6.079543218357359
 30
0.0
 10
10.56442733853393
 20
6.076570917799001
 30
0.0
 10
10.56489421958899
 20
6.073632879187448
 30
0.0
 10
10.56494461772245
 20
6.071780972254923
 30
0.0
 10
10.56497018826028
 20
6.070841368880192
 30
0.0
  0
LINE
  5
1E8
330
1F
100
AcDbEntity
  8
0
  6
Continuous
 62
     7
370
    18
100
AcDbLine
 10
10.5187362833
 20
6.1162456634
 30
0.0
 11
10.5448150953
 21
6.1011906857
 31
0.0
  0
LINE
  5
1E9
330
1F
100
AcDbEntity
  8
0
  6
Continuous
 62
     7
370
    18
100
AcDbLine
 10
10.5187362833
 20
6.0468396944
 30
0.0
 11
10.5187362833
 21
6.1162456634
 31
0.0
  0
LINE
  5
1EA
330
1F
100
AcDbEntity
  8
0
  6
Continuous
 62
     7
370
    18
100
AcDbLine
 10
10.5272124992
 20
6.0419464791
 30
0.0
 11
10.5187362833
 21
6.0468396944
 31
0.0
  0
LINE
  5
1EB
330
1F
100
AcDbEntity
  8
0
  6
Continuous
 62
     7
370
    18
100
AcDbLine
 10
10.5272124992
 20
6.0730901831
 30
0.0
 11
10.5272124992
 21
6.0419464791
 31
0.0
  0
LWPOLYLINE
  5
1EC
330
1F
100
AcDbEntity
  8
0
  6
Continuous
 62
     7
370
    18
100
AcDbPolyline
 90
      150
 70
   128
 43
0.0
 10
9.4340254155
 20
7.3940354864
 10
9.4345029982
 20
7.4199123003
 10
9.4359348971
 20
7.445191701
 10
9.4383185663
 20
7.4698287426
 10
9.4416497678
 20
7.4937796213
 10
9.4459225788
 20
7.5170017533
 10
9.4511294025
 20
7.5394538507
 10
9.4572609812
 20
7.5610959942
 10
9.4643064132
 20
7.5818897051
 10
9.4722531721
 20
7.6017980128
 10
9.4810871288
 20
7.6207855211
 10
9.4907925768
 20
7.6388184709
 10
9.5013522602
 20
7.6558648003
 10
9.5127474042
 20
7.6718942015
 10
9.5249577488
 20
7.6868781748
 10
9.5379615843
 20
7.7007900793
 10
9.5517357905
 20
7.7136051802
 10
9.5662558772
 20
7.7253006925
 10
9.5814960284
 20
7.7358558222
 10
9.5974291475
 20
7.7452518026
 10
9.6140269061
 20
7.753471928
 10
9.6312597939
 20
7.7605015833
 10
9.6490971716
 20
7.7663282701
 10
9.6675073248
 20
7.7709416286
 10
9.6864575211
 20
7.7743334566
 10
9.7059140676
 20
7.7764977235
 10
9.7258423714
 20
7.7774305812
 10
9.7462070006
 20
7.7771303713
 10
9.7669717477
 20
7.7755976274
 10
9.7880996937
 20
7.7728350747
 10
9.8095532739
 20
7.768847625
 10
9.8312943446
 20
7.7636423677
 10
9.853284251
 20
7.7572285577
 10
9.8754838958
 20
7.7496175985
 10
9.8978538089
 20
7.740823022
 10
9.9203542173
 20
7.7308604647
 10
9.9429451163
 20
7.7197476397
 10
9.9655863399
 20
7.7075043052
 10
9.9882376329
 20
7.6941522293
 10
10.0108587222
 20
7.6797151516
 10
10.0334093882
 20
7.6642187407
 10
10.0558495367
 20
7.6476905486
 10
10.07813927
 20
7.6301599618
 10
10.1002389577
 20
7.6116581491
 10
10.1221093074
 20
7.5922180061
 10
10.1437114343
 20
7.5718740966
 10
10.1650069308
 20
7.5506625912
 10
10.1859579341
 20
7.5286212034
 10
10.2065271942
 20
7.5057891219
 10
10.2266781396
 20
7.4822069413
 10
10.2463749428
 20
7.4579165899
 10
10.2655825835
 20
7.4329612549
 10
10.2842669112
 20
7.4073853062
 10
10.3023947059
 20
7.3812342168
 10
10.3199337371
 20
7.3545544823
 10
10.3368528209
 20
7.3273935384
 10
10.3531218759
 20
7.2997996763
 10
10.3687119762
 20
7.2718219567
 10
10.3835954033
 20
7.2435101232
 10
10.397745695
 20
7.214914513
 10
10.4111376924
 20
7.1860859682
 10
10.4237475853
 20
7.1570757448
 10
10.4355529536
 20
7.127935422
 10
10.4465328078
 20
7.0987168102
 10
10.4566676262
 20
7.069471859
 10
10.4659393893
 20
7.0402525648
 10
10.4743316125
 20
7.0111108786
 10
10.4818293745
 20
6.9820986132
 10
10.4884193446
 20
6.9532673512
 10
10.4940898061
 20
6.9246683537
 10
10.4988306772
 20
6.8963524687
 10
10.5026335287
 20
6.8683700406
 10
10.5054915994
 20
6.8407708213
 10
10.5073998076
 20
6.8136038812
 10
10.5083547606
 20
6.7869175221
 10
10.5083547606
 20
6.7607591914
 10
10.5073998076
 20
6.7351753976
 10
10.5054915994
 20
6.7102116278
 10
10.5026335287
 20
6.6859122666
 10
10.4988306772
 20
6.6623205175
 10
10.4940898061
 20
6.6394783257
 10
10.4884193446
 20
6.6174263037
 10
10.4818293745
 20
6.5962036593
 10
10.4743316125
 20
6.5758481256
 10
10.4659393893
 20
6.556395894
 10
10.4566676262
 20
6.5378815497
 10
10.4465328078
 20
6.5203380107
 10
10.4355529536
 20
6.5037964687
 10
10.4237475853
 20
6.488286334
 10
10.4111376924
 20
6.4738351831
 10
10.397745695
 20
6.4604687094
 10
10.3835954033
 20
6.4482106782
 10
10.3687119762
 20
6.4370828838
 10
10.3531218759
 20
6.427105111
 10
10.3368528209
 20
6.4182950999
 10
10.3199337371
 20
6.4106685144
 10
10.3023947059
 20
6.4042389143
 10
10.2842669112
 20
6.3990177311
 10
10.2655825835
 20
6.395014248
 10
10.2463749428
 20
6.3922355829
 10
10.2266781396
 20
6.3906866764
 10
10.2065271942
 20
6.3903702821
 10
10.1859579341
 20
6.3912869628
 10
10.1650069308
 20
6.3934350886
 10
10.1437114343
 20
6.3968108401
 10
10.1221093074
 20
6.4014082155
 10
10.1002389577
 20
6.4072190406
 10
10.07813927
 20
6.4142329843
 10
10.0558495367
 20
6.4224375758
 10
10.0334093882
 20
6.4318182277
 10
10.0108587222
 20
6.4423582615
 10
9.9882376329
 20
6.4540389376
 10
9.9655863399
 20
6.466839488
 10
9.9429451163
 20
6.4807371538
 10
9.9203542173
 20
6.4957072255
 10
9.8978538089
 20
6.5117230869
 10
9.8754838958
 20
6.5287562623
 10
9.853284251
 20
6.5467764673
 10
9.8312943446
 20
6.5657516628
 10
9.8095532739
 20
6.5856481115
 10
9.7880996937
 20
6.6064304382
 10
9.7669717477
 20
6.6280616927
 10
9.7462070006
 20
6.6505034155
 10
9.7258423714
 20
6.673715706
 10
9.7059140676
 20
6.6976572935
 10
9.6864575211
 20
6.7222856108
 10
9.6675073248
 20
6.7475568697
 10
9.6490971716
 20
6.7734261388
 10
9.6312597939
 20
6.7998474234
 10
9.6140269061
 20
6.8267737475
 10
9.5974291475
 20
6.854157237
 10
9.5814960284
 20
6.8819492052
 10
9.5662558772
 20
6.9101002389
 10
9.5517357905
 20
6.9385602866
 10
9.5379615843
 20
6.9672787473
 10
9.5249577488
 20
6.9962045608
 10
9.5127474042
 20
7.0252862978
 10
9.5013522602
 20
7.0544722523
 10
9.4907925768
 20
7.0837105326
 10
9.4810871288
 20
7.1129491542
 10
9.4722531721
 20
7.1421361318
 10
9.4643064132
 20
7.171219572
 10
9.4572609812
 20
7.2001477656
 10
9.4511294025
 20
7.2288692792
 10
9.4459225788
 20
7.2573330471
 10
9.4416497678
 20
7.2854884618
 10
9.4383185663
 20
7.3132854639
 10
9.4359348971
 20
7.3406746314
 10
9.4345029982
 20
7.3676072673
 10
9.4340254155
 20
7.3940354864
  0
LINE
  5
1ED
330
1F
100
AcDbEntity
  8
0
  6
Continuous
 62
     7
370
    18
100
AcDbLine
 10
9.2994983504
 20
8.1649394573
 30
0.0
 11
10.6430012347
 21
7.3893517511
 31
0.0
  0
LINE
  5
1EE
330
1F
100
AcDbEntity
  8
0
  6
Continuous
 62
     7
370
    18
100
AcDbLine
 10
10.6430012347
 20
7.3893517511
 30
0.0
 11
10.6430012347
 21
5.8607873513
 31
0.0
  0
LINE
  5
1EF
330
1F
100
AcDbEntity
  8
0
  6
Continuous
 62
     7
370
    18
100
AcDbLine
 10
9.2994983504
 20
6.6363750575
 30
0.0
 11
10.6430012347
 21
5.8607873513
 31
0.0
  0
LINE
  5
1F0
330
1F
100
AcDbEntity
  8
0
  6
Continuous
 62
     7
370
    18
100
AcDbLine
 10
9.2994983504
 20
6.6363750575
 30
0.0
 11
9.2994983504
 21
8.1649394573
 31
0.0
  0
LINE
  5
1F1
330
1F
100
AcDbEntity
  8
0
  6
Continuous
 62
     7
370
    18
100
AcDbLine
 10
10.4717318133
 20
6.0819831784
 30
0.0
 11
10.5071778071
 21
6.0615206417
 31
0.0
  0
LINE
  5
1F2
330
1F
100
AcDbEntity
  8
0
  6
Continuous
 62
     7
370
    18
100
AcDbLine
 10
10.4717318133
 20
6.1060083215
 30
0.0
 11
10.4717318133
 21
6.0819831784
 31
0.0
  0
LINE
  5
1F3
330
1F
100
AcDbEntity
  8
0
  6
Continuous
 62
     7
370
    18
100
AcDbLine
 10
10.5033249817
 20
6.0877699736
 30
0.0
 11
10.4717318133
 21
6.1060083215
 31
0.0
  0
LINE
  5
1F4
330
1F
100
AcDbEntity
  8
0
  6
Continuous
 62
     7
370
    18
100
AcDbLine
 10
10.5033249817
 20
6.0957783546
 30
0.0
 11
10.5033249817
 21
6.0877699736
 31
0.0
  0
LINE
  5
1F5
330
1F
100
AcDbEntity
  8
0
  6
Continuous
 62
     7
370
    18
100
AcDbLine
 10
10.4717318133
 20
6.1140167025
 30
0.0
 11
10.5033249817
 21
6.0957783546
 31
0.0
  0
LINE
  5
1F6
330
1F
100
AcDbEntity
  8
0
  6
Continuous
 62
     7
370
    18
100
AcDbLine
 10
10.4717318133
 20
6.1353723853
 30
0.0
 11
10.4717318133
 21
6.1140167025
 31
0.0
  0
LINE
  5
1F7
330
1F
100
AcDbEntity
  8
0
  6
Continuous
 62
     7
370
    18
100
AcDbLine
 10
10.5056366769
 20
6.1157995241
 30
0.0
 11
10.4717318133
 21
6.1353723853
 31
0.0
  0
LINE
  5
1F8
330
1F
100
AcDbEntity
  8
0
  6
Continuous
 62
     7
370
    18
100
AcDbLine
 10
10.5056366769
 20
6.1238079052
 30
0.0
 11
10.5056366769
 21
6.1157995241
 31
0.0
  0
LINE
  5
1F9
330
1F
100
AcDbEntity
  8
0
  6
Continuous
 62
     7
370
    18
100
AcDbLine
 10
10.4632555974
 20
6.1482739816
 30
0.0
 11
10.5056366769
 21
6.1238079052
 31
0.0
  0
LINE
  5
1FA
330
1F
100
AcDbEntity
  8
0
  6
Continuous
 62
     7
370
    18
100
AcDbLine
 10
10.4632555974
 20
6.0788680126
 30
0.0
 11
10.4632555974
 21
6.1482739816
 31
0.0
  0
LINE
  5
1FB
330
1F
100
AcDbEntity
  8
0
  6
Continuous
 62
     7
370
    18
100
AcDbLine
 10
10.5071778071
 20
6.0535122607
 30
0.0
 11
10.4632555974
 21
6.0788680126
 31
0.0
  0
LINE
  5
1FC
330
1F
100
AcDbEntity
  8
0
  6
Continuous
 62
     7
370
    18
100
AcDbLine
 10
10.5071778071
 20
6.0615206417
 30
0.0
 11
10.5071778071
 21
6.0535122607
 31
0.0
  0
LINE
  5
1FD
330
1F
100
AcDbEntity
  8
0
  6
Continuous
 62
     7
370
    18
100
AcDbLine
 10
10.365393832
 20
6.1433707883
 30
0.0
 11
10.4008398258
 21
6.1229082517
 31
0.0
  0
LINE
  5
1FE
330
1F
100
AcDbEntity
  8
0
  6
Continuous
 62
     7
370
    18
100
AcDbLine
 10
10.365393832
 20
6.1673959314
 30
0.0
 11
10.365393832
 21
6.1433707883
 31
0.0
  0
LINE
  5
1FF
330
1F
100
AcDbEntity
  8
0
  6
Continuous
 62
     7
370
    18
100
AcDbLine
 10
10.3969870004
 20
6.1491575835
 30
0.0
 11
10.365393832
 21
6.1673959314
 31
0.0
  0
LINE
  5
200
330
1F
100
AcDbEntity
  8
0
  6
Continuous
 62
     7
370
    18
100
AcDbLine
 10
10.3969870004
 20
6.1571659646
 30
0.0
 11
10.3969870004
 21
6.1491575835
 31
0.0
  0
LINE
  5
201
330
1F
100
AcDbEntity
  8
0
  6
Continuous
 62
     7
370
    18
100
AcDbLine
 10
10.365393832
 20
6.1754043125
 30
0.0
 11
10.3969870004
 21
6.1571659646
 31
0.0
  0
LINE
  5
202
330
1F
100
AcDbEntity
  8
0
  6
Continuous
 62
     7
370
    18
100
AcDbLine
 10
10.365393832
 20
6.1967599952
 30
0.0
 11
10.365393832
 21
6.1754043125
 31
0.0
  0
LINE
  5
203
330
1F
100
AcDbEntity
  8
0
  6
Continuous
 62
     7
370
    18
100
AcDbLine
 10
10.3992986956
 20
6.1771871341
 30
0.0
 11
10.365393832
 21
6.1967599952
 31
0.0
  0
LINE
  5
204
330
1F
100
AcDbEntity
  8
0
  6
Continuous
 62
     7
370
    18
100
AcDbLine
 10
10.3992986956
 20
6.1851955151
 30
0.0
 11
10.3992986956
 21
6.1771871341
 31
0.0
  0
LINE
  5
205
330
1F
100
AcDbEntity
  8
0
  6
Continuous
 62
     7
370
    18
100
AcDbLine
 10
10.3569176161
 20
6.2096615916
 30
0.0
 11
10.3992986956
 21
6.1851955151
 31
0.0
  0
LINE
  5
206
330
1F
100
AcDbEntity
  8
0
  6
Continuous
 62
     7
370
    18
100
AcDbLine
 10
10.3569176161
 20
6.1402556225
 30
0.0
 11
10.3569176161
 21
6.2096615916
 31
0.0
  0
LINE
  5
207
330
1F
100
AcDbEntity
  8
0
  6
Continuous
 62
     7
370
    18
100
AcDbLine
 10
10.4008398258
 20
6.1148998706
 30
0.0
 11
10.3569176161
 21
6.1402556225
 31
0.0
  0
LINE
  5
208
330
1F
100
AcDbEntity
  8
0
  6
Continuous
 62
     7
370
    18
100
AcDbLine
 10
10.4008398258
 20
6.1229082517
 30
0.0
 11
10.4008398258
 21
6.1148998706
 31
0.0
  0
LINE
  5
209
330
1F
100
AcDbEntity
  8
0
  6
Continuous
 62
     7
370
    18
100
AcDbLine
 10
10.265316692
 20
6.2144913932
 30
0.0
 11
10.239695403
 21
6.2292822485
 31
0.0
  0
LINE
  5
20A
330
1F
100
AcDbEntity
  8
0
  6
Continuous
 62
     7
370
    18
100
AcDbLine
 10
10.2721554571
 20
6.1891877754
 30
0.0
 11
10.265316692
 21
6.2144913932
 31
0.0
  0
LINE
  5
20B
330
1F
100
AcDbEntity
  8
0
  6
Continuous
 62
     7
370
    18
100
AcDbLine
 10
10.2811493964
 20
6.1839956848
 30
0.0
 11
10.2721554571
 21
6.1891877754
 31
0.0
  0
LINE
  5
20C
330
1F
100
AcDbEntity
  8
0
  6
Continuous
 62
     7
370
    18
100
AcDbLine
 10
10.257285959
 20
6.2671777229
 30
0.0
 11
10.2811493964
 21
6.1839956848
 31
0.0
  0
LINE
  5
20D
330
1F
100
AcDbEntity
  8
0
  6
Continuous
 62
     7
370
    18
100
AcDbLine
 10
10.247726136
 20
6.2726964913
 30
0.0
 11
10.257285959
 21
6.2671777229
 31
0.0
  0
LINE
  5
20E
330
1F
100
AcDbEntity
  8
0
  6
Continuous
 62
     7
370
    18
100
AcDbLine
 10
10.2238626986
 20
6.2170665915
 30
0.0
 11
10.247726136
 21
6.2726964913
 31
0.0
  0
LINE
  5
20F
330
1F
100
AcDbEntity
  8
0
  6
Continuous
 62
     7
370
    18
100
AcDbLine
 10
10.2328566379
 20
6.2118745008
 30
0.0
 11
10.2238626986
 21
6.2170665915
 31
0.0
  0
LINE
  5
210
330
1F
100
AcDbEntity
  8
0
  6
Continuous
 62
     7
370
    18
100
AcDbLine
 10
10.239695403
 20
6.2292822485
 30
0.0
 11
10.2328566379
 21
6.2118745008
 31
0.0
  0
SPLINE
  5
211
330
1F
100
AcDbEntity
  8
0
  6
Continuous
 62
     7
370
    18
100
AcDbSpline
210
0.0
220
0.0
230
1.0
 70
     8
 71
     3
 72
    23
 73
    19
 74
     0
 42
0.000000001
 43
0.00000001
 40
0.0
 40
0.0
 40
0.0
 40
0.0
 40
0.0568085774416426
 40
0.1138743061995237
 40
0.1705217881146941
 40
0.227532387548019
 40
0.2853338163942518
 40
0.3436784066798149
 40
0.403163846423688
 40
0.4640016976891362
 40
0.5258265021920409
 40
0.5890966672842434
 40
0.6532934596517429
 40
0.7191151703198089
 40
0.786762745615979
 40
0.8557978498721195
 40
0.9268406513628026
 40
1.0
 40
1.0
 40
1.0
 40
1.0
 10
10.1887779071816
 20
6.300762003970981
 30
0.0
 10
10.18916449940533
 20
6.300146799750123
 30
0.0
 10
10.1899394338121
 20
6.29891360650755
 30
0.0
 10
10.19100377841013
 20
6.297004442373877
 30
0.0
 10
10.19199124570691
 20
6.295060944326412
 30
0.0
 10
10.19293087970021
 20
6.293089737043884
 30
0.0
 10
10.19376426185999
 20
6.291073425226831
 30
0.0
 10
10.19454124725756
 20
6.289022037315628
 30
0.0
 10
10.19523781574605
 20
6.286932891158582
 30
0.0
 10
10.19586623557433
 20
6.284808233294298
 30
0.0
 10
10.19640051440296
 20
6.282655624917848
 30
0.0
 10
10.19688792269517
 20
6.280476426668261
 30
0.0
 10
10.19728286288585
 20
6.278278629418816
 30
0.0
 10
10.19760331134679
 20
6.276060297237621
 30
0.0
 10
10.1978747959442
 20
6.273809114057802
 30
0.0
 10
10.19804899234728
 20
6.271545523114012
 30
0.0
 10
10.19816149802678
 20
6.269254466614552
 30
0.0
 10
10.19817457482916
 20
6.267739286680651
 30
0.0
 10
10.19818120919864
 20
6.266970577081425
 30
0.0
  0
SPLINE
  5
212
330
1F
100
AcDbEntity
  8
0
  6
Continuous
 62
     7
370
    18
100
AcDbSpline
210
0.0
220
0.0
230
1.0
 70
     8
 71
     3
 72
    11
 73
     7
 74
     0
 42
0.000000001
 43
0.00000001
 40
0.0
 40
0.0
 40
0.0
 40
0.0
 40
0.2612129589999399
 40
0.5120481565985884
 40
0.7577925134560969
 40
1.0
 40
1.0
 40
1.0
 40
1.0
 10
10.18003680953196
 20
6.310771660066126
 30
0.0
 10
10.18086609282886
 20
6.310042641205156
 30
0.0
 10
10.18249171272577
 20
6.308613566762163
 30
0.0
 10
10.18478585374191
 20
6.306168140663052
 30
0.0
 10
10.18690196365829
 20
6.30356679295556
 30
0.0
 10
10.18815562167891
 20
6.301692404860731
 30
0.0
 10
10.1887779071816
 20
6.300762003970981
 30
0.0
  0
SPLINE
  5
213
330
1F
100
AcDbEntity
  8
0
  6
Continuous
 62
     7
370
    18
100
AcDbSpline
210
0.0
220
0.0
230
1.0
 70
     8
 71
     3
 72
    15
 73
    11
 74
     0
 42
0.000000001
 43
0.00000001
 40
0.0
 40
0.0
 40
0.0
 40
0.0
 40
0.1579006741699971
 40
0.3068429927578538
 40
0.4456810446995552
 40
0.5745702240195038
 40
0.694651360227951
 40
0.8061472401516254
 40
0.9077586887723998
 40
0.9999999999999999
 40
0.9999999999999999
 40
0.9999999999999999
 40
0.9999999999999999
 10
10.16941745949479
 20
6.317903127982876
 30
0.0
 10
10.16997939789931
 20
6.317578074535629
 30
0.0
 10
10.17107139362825
 20
6.31694640926198
 30
0.0
 10
10.17265636806366
 20
6.315964069510208
 30
0.0
 10
10.17413848925385
 20
6.315052442087556
 30
0.0
 10
10.17551478649759
 20
6.314138976650606
 30
0.0
 10
10.17679304645865
 20
6.313272552147351
 30
0.0
 10
10.17796717793515
 20
6.312403748332819
 30
0.0
 10
10.17904334093328
 20
6.311604094527716
 30
0.0
 10
10.17971649934216
 20
6.311040050270646
 30
0.0
 10
10.18003680953196
 20
6.310771660066126
 30
0.0
  0
LINE
  5
214
330
1F
100
AcDbEntity
  8
0
  6
Continuous
 62
     7
370
    18
100
AcDbLine
 10
10.1488650439
 20
6.3297677849
 30
0.0
 11
10.1694174595
 21
6.317903128
 31
0.0
  0
LINE
  5
215
330
1F
100
AcDbEntity
  8
0
  6
Continuous
 62
     7
370
    18
100
AcDbLine
 10
10.1488650439
 20
6.2603618159
 30
0.0
 11
10.1488650439
 21
6.3297677849
 31
0.0
  0
LINE
  5
216
330
1F
100
AcDbEntity
  8
0
  6
Continuous
 62
     7
370
    18
100
AcDbLine
 10
10.1703927059
 20
6.2479341612
 30
0.0
 11
10.1488650439
 21
6.2603618159
 31
0.0
  0
SPLINE
  5
217
330
1F
100
AcDbEntity
  8
0
  6
Continuous
 62
     7
370
    18
100
AcDbSpline
210
0.0
220
0.0
230
1.0
 70
     8
 71
     3
 72
    27
 73
    23
 74
     0
 42
0.000000001
 43
0.00000001
 40
0.0
 40
0.0
 40
0.0
 40
0.0
 40
0.0705448498222794
 40
0.1372786169672312
 40
0.2002401813168829
 40
0.2603471513035001
 40
0.3169835805266447
 40
0.3701254960162123
 40
0.4196042158245998
 40
0.4660254160925958
 40
0.5099228771101212
 40
0.5518746116228238
 40
0.5918332769026644
 40
0.6301567736499493
 40
0.6686714112176135
 40
0.7086659988092269
 40
0.7506200671937266
 40
0.7950143457720112
 40
0.8419640617654018
 40
0.8917538081988116
 40
0.9442885369986657
 40
1.0
 40
1.0
 40
1.0
 40
1.0
 10
10.19818120919864
 20
6.266970577081425
 30
0.0
 10
10.19816499105179
 20
6.265699935309288
 30
0.0
 10
10.19813343091982
 20
6.263227296334522
 30
0.0
 10
10.19782410625856
 20
6.259787311516507
 30
0.0
 10
10.19734079861846
 20
6.256665911208108
 30
0.0
 10
10.19664170773317
 20
6.253906811772739
 30
0.0
 10
10.1957816125198
 20
6.251483832190941
 30
0.0
 10
10.19482899841437
 20
6.24935997436718
 30
0.0
 10
10.19375757325547
 20
6.247570168354679
 30
0.0
 10
10.19257028003837
 20
6.246118133597709
 30
0.0
 10
10.19130014583703
 20
6.244948681091731
 30
0.0
 10
10.18996148441194
 20
6.244039579563127
 30
0.0
 10
10.18857826052915
 20
6.243348461695612
 30
0.0
 10
10.18710663514081
 20
6.242925762767216
 30
0.0
 10
10.18553219033108
 20
6.242740058435143
 30
0.0
 10
10.18382588280504
 20
6.242771702988344
 30
0.0
 10
10.18195756237592
 20
6.243069094433937
 30
0.0
 10
10.17994489956467
 20
6.243556474877029
 30
0.0
 10
10.17776895615111
 20
6.244308986124619
 30
0.0
 10
10.17544557461656
 20
6.245276016425011
 30
0.0
 10
10.17296860327534
 20
6.246481150360495
 30
0.0
 10
10.17126797466615
 20
6.247440440057908
 30
0.0
 10
10.17039270592677
 20
6.247934161191147
 30
0.0
  0
LINE
  5
218
330
1F
100
AcDbEntity
  8
0
  6
Continuous
 62
     7
370
    18
100
AcDbLine
 10
10.0341471674
 20
6.3479427192
 30
0.0
 11
10.0085258784
 21
6.3627335745
 31
0.0
  0
LINE
  5
219
330
1F
100
AcDbEntity
  8
0
  6
Continuous
 62
     7
370
    18
100
AcDbLine
 10
10.0409859325
 20
6.3226391014
 30
0.0
 11
10.0341471674
 21
6.3479427192
 31
0.0
  0
LINE
  5
21A
330
1F
100
AcDbEntity
  8
0
  6
Continuous
 62
     7
370
    18
100
AcDbLine
 10
10.0499798718
 20
6.3174470107
 30
0.0
 11
10.0409859325
 21
6.3226391014
 31
0.0
  0
LINE
  5
21B
330
1F
100
AcDbEntity
  8
0
  6
Continuous
 62
     7
370
    18
100
AcDbLine
 10
10.0261164344
 20
6.4006290489
 30
0.0
 11
10.0499798718
 21
6.3174470107
 31
0.0
  0
LINE
  5
21C
330
1F
100
AcDbEntity
  8
0
  6
Continuous
 62
     7
370
    18
100
AcDbLine
 10
10.0165566113
 20
6.4061478173
 30
0.0
 11
10.0261164344
 21
6.4006290489
 31
0.0
  0
LINE
  5
21D
330
1F
100
AcDbEntity
  8
0
  6
Continuous
 62
     7
370
    18
100
AcDbLine
 10
9.992693174
 20
6.3505179174
 30
0.0
 11
10.0165566113
 21
6.4061478173
 31
0.0
  0
LINE
  5
21E
330
1F
100
AcDbEntity
  8
0
  6
Continuous
 62
     7
370
    18
100
AcDbLine
 10
10.0016871133
 20
6.3453258268
 30
0.0
 11
9.992693174
 21
6.3505179174
 31
0.0
  0
LINE
  5
21F
330
1F
100
AcDbEntity
  8
0
  6
Continuous
 62
     7
370
    18
100
AcDbLine
 10
10.0085258784
 20
6.3627335745
 30
0.0
 11
10.0016871133
 21
6.3453258268
 31
0.0
  0
SPLINE
  5
220
330
1F
100
AcDbEntity
  8
0
  6
Continuous
 62
     7
370
    18
100
AcDbSpline
210
0.0
220
0.0
230
1.0
 70
     8
 71
     3
 72
    23
 73
    19
 74
     0
 42
0.000000001
 43
0.00000001
 40
0.0
 40
0.0
 40
0.0
 40
0.0
 40
0.0704566919359961
 40
0.1379422153274587
 40
0.2035567971151965
 40
0.2676630588095107
 40
0.3301505615828461
 40
0.3914919015323503
 40
0.4521864543380013
 40
0.5126700013837513
 40
0.572963319179512
 40
0.6329948591069363
 40
0.6923528599375409
 40
0.7514888206306591
 40
0.8116098011100287
 40
0.872975300705977
 40
0.9354272115819272
 40
1.0
 40
1.0
 40
1.0
 40
1.0
 10
9.923318236411154
 20
6.427049841148746
 30
0.0
 10
9.923761654457596
 20
6.426633571769932
 30
0.0
 10
9.924629791549503
 20
6.425818587150174
 30
0.0
 10
9.925877809137495
 20
6.424523852095164
 30
0.0
 10
9.927049391498821
 20
6.423193713901823
 30
0.0
 10
9.928146738312805
 20
6.421825423987292
 30
0.0
 10
9.929163696445116
 20
6.42041718913993
 30
0.0
 10
9.930090663077833
 20
6.418970106519566
 30
0.0
 10
9.930953391391585
 20
6.417501091934112
 30
0.0
 10
9.931722925259542
 20
6.415996028894054
 30
0.0
 10
9.932408702033115
 20
6.414472536037619
 30
0.0
 10
9.933011475003749
 20
6.412945146212549
 30
0.0
 10
9.933520028150674
 20
6.411423677809642
 30
0.0
 10
9.93392961852634
 20
6.409910731854267
 30
0.0
 10
9.934258480823678
 20
6.408397552323406
 30
0.0
 10
9.934484408845263
 20
6.406889526518714
 30
0.0
 10
9.934618402932845
 20
6.405384461566965
 30
0.0
 10
9.934637992705804
 20
6.404406019087441
 30
0.0
 10
9.934647951133352
 20
6.403908629528082
 30
0.0
  0
SPLINE
  5
221
330
1F
100
AcDbEntity
  8
0
  6
Continuous
 62
     7
370
    18
100
AcDbSpline
210
0.0
220
0.0
230
1.0
 70
     8
 71
     3
 72
    15
 73
    11
 74
     0
 42
0.000000001
 43
0.00000001
 40
0.0
 40
0.0
 40
0.0
 40
0.0
 40
0.1158295875216576
 40
0.2305424686501964
 40
0.3473153149035148
 40
0.4672171589244835
 40
0.5918251525040963
 40
0.7200018400675184
 40
0.8556167143161894
 40
1.0
 40
1.0
 40
1.0
 40
1.0
 10
9.932336255887165
 20
6.436776143131411
 30
0.0
 10
9.93230820018786
 20
6.436048057971234
 30
0.0
 10
9.932252359272638
 20
6.434598907078044
 30
0.0
 10
9.931808275265587
 20
6.432673040060656
 30
0.0
 10
9.931108409200043
 20
6.430964275088637
 30
0.0
 10
9.930121742740239
 20
6.429505005771794
 30
0.0
 10
9.928864372986164
 20
6.428316201128335
 30
0.0
 10
9.927276905828336
 20
6.427528799703595
 30
0.0
 10
9.925425864337287
 20
6.427065168582768
 30
0.0
 10
9.924035294727716
 20
6.427055055856666
 30
0.0
 10
9.923318236411154
 20
6.427049841148746
 30
0.0
  0
SPLINE
  5
222
330
1F
100
AcDbEntity
  8
0
  6
Continuous
 62
     7
370
    18
100
AcDbSpline
210
0.0
220
0.0
230
1.0
 70
     8
 71
     3
 72
    23
 73
    19
 74
     0
 42
0.000000001
 43
0.00000001
 40
0.0
 40
0.0
 40
0.0
 40
0.0
 40
0.0587091926504243
 40
0.1145583248299046
 40
0.1675915981453284
 40
0.2178819266220621
 40
0.2656718295366473
 40
0.3109453394726629
 40
0.3539520014062908
 40
0.3948891755968525
 40
0.4729198560061288
 40
0.5489382800594217
 40
0.625093835912611
 40
0.7025647876113138
 40
0.7798271041064176
 40
0.8541202275563291
 40
0.9271836001441752
 40
1.0
 40
1.0
 40
1.0
 40
1.0
 10
9.91245808478584
 20
6.466242617507538
 30
0.0
 10
9.913016117521465
 20
6.465917989846611
 30
0.0
 10
9.914104998027357
 20
6.46528454899433
 30
0.0
 10
9.915695025065304
 20
6.464246150743114
 30
0.0
 10
9.917200764867808
 20
6.463211406120974
 30
0.0
 10
9.918626067514326
 20
6.462177609454908
 30
0.0
 10
9.919961691528835
 20
6.461092272715113
 30
0.0
 10
9.92121835184704
 20
6.460012575814202
 30
0.0
 10
9.922389549791726
 20
6.458905738075259
 30
0.0
 10
9.923820036469138
 20
6.457420660381805
 30
0.0
 10
9.925463921434098
 20
6.455465360910347
 30
0.0
 10
9.927220934387655
 20
6.452929302094829
 30
0.0
 10
9.928751221255128
 20
6.450235143715537
 30
0.0
 10
9.930031067143805
 20
6.447427040930242
 30
0.0
 10
9.931042066286775
 20
6.444609126561334
 30
0.0
 10
9.931786531929989
 20
6.441864001228247
 30
0.0
 10
9.932255770412855
 20
6.439225071300164
 30
0.0
 10
9.932309457693039
 20
6.437591530665993
 30
0.0
 10
9.932336255887165
 20
6.436776143131411
 30
0.0
  0
LINE
  5
223
330
1F
100
AcDbEntity
  8
0
  6
Continuous
 62
     7
370
    18
100
AcDbLine
 10
9.8899551764
 20
6.47923327
 30
0.0
 11
9.9124580848
 21
6.4662426175
 31
0.0
  0
LINE
  5
224
330
1F
100
AcDbEntity
  8
0
  6
Continuous
 62
     7
370
    18
100
AcDbLine
 10
9.8899551764
 20
6.409827301
 30
0.0
 11
9.8899551764
 21
6.47923327
 31
0.0
  0
LINE
  5
225
330
1F
100
AcDbEntity
  8
0
  6
Continuous
 62
     7
370
    18
100
AcDbLine
 10
9.9125182852
 20
6.3968018955
 30
0.0
 11
9.8899551764
 21
6.409827301
 31
0.0
  0
SPLINE
  5
226
330
1F
100
AcDbEntity
  8
0
  6
Continuous
 62
     7
370
    18
100
AcDbSpline
210
0.0
220
0.0
230
1.0
 70
     8
 71
     3
 72
    23
 73
    19
 74
     0
 42
0.000000001
 43
0.00000001
 40
0.0
 40
0.0
 40
0.0
 40
0.0
 40
0.0642665479584312
 40
0.1274461798182316
 40
0.1891017562790038
 40
0.251362275940341
 40
0.3116800339902288
 40
0.3686477590533376
 40
0.4221317262002525
 40
0.4735202330394786
 40
0.5252432158190506
 40
0.5796098773427357
 40
0.6368832354805298
 40
0.6979197025564184
 40
0.763888941484345
 40
0.8362842685641497
 40
0.9146618961957456
 40
1.0
 40
1.0
 40
1.0
 40
1.0
 10
9.934647951133352
 20
6.403908629528082
 30
0.0
 10
9.93462877899519
 20
6.403130083343052
 30
0.0
 10
9.93459075897007
 20
6.401586158233545
 30
0.0
 10
9.93423766131618
 20
6.399497267072832
 30
0.0
 10
9.933699037779755
 20
6.397592716129124
 30
0.0
 10
9.932927742503804
 20
6.3959527847001
 30
0.0
 10
9.932008529669769
 20
6.394548239771279
 30
0.0
 10
9.930978096622686
 20
6.393412083814008
 30
0.0
 10
9.929839005957586
 20
6.392572916510656
 30
0.0
 10
9.928573448924903
 20
6.392045578563618
 30
0.0
 10
9.927174822555578
 20
6.39178231078478
 30
0.0
 10
9.925625459210096
 20
6.391762569706148
 30
0.0
 10
9.92391566266843
 20
6.391969767335473
 30
0.0
 10
9.922033797999577
 20
6.392417382398929
 30
0.0
 10
9.919956288992182
 20
6.393117302184271
 30
0.0
 10
9.91767063820323
 20
6.394087536498883
 30
0.0
 10
9.915166572240224
 20
6.395304130073966
 30
0.0
 10
9.913425718692524
 20
6.396288687367885
 30
0.0
 10
9.912518285182875
 20
6.396801895547778
 30
0.0
  0
SPLINE
  5
227
330
1F
100
AcDbEntity
  8
0
  6
Continuous
 62
     7
370
    18
100
AcDbSpline
210
0.0
220
0.0
230
1.0
 70
     8
 71
     3
 72
    23
 73
    19
 74
     0
 42
0.000000001
 43
0.00000001
 40
0.0
 40
0.0
 40
0.0
 40
0.0
 40
0.0698823039034415
 40
0.1383882841653966
 40
0.206758214230359
 40
0.2765984302164998
 40
0.3471345171864645
 40
0.4179202738343028
 40
0.490213056594082
 40
0.5664711022702212
 40
0.6078661527170744
 40
0.6522325532418384
 40
0.700546975039192
 40
0.7525228927159189
 40
0.808321340815731
 40
0.8684702740719038
 40
0.931979790540806
 40
1.0
 40
1.0
 40
1.0
 40
1.0
 10
9.744727738563817
 20
6.537266501975387
 30
0.0
 10
9.744236224549752
 20
6.537532027048202
 30
0.0
 10
9.743262876831508
 20
6.538057847709192
 30
0.0
 10
9.741841769775101
 20
6.53849289519876
 30
0.0
 10
9.740477171838887
 20
6.538697513977006
 30
0.0
 10
9.73919047564427
 20
6.538616766395162
 30
0.0
 10
9.738002027953303
 20
6.538266914343367
 30
0.0
 10
9.736981934309998
 20
6.537573089691285
 30
0.0
 10
9.73614092988052
 20
6.536559795913853
 30
0.0
 10
9.735602601118158
 20
6.535453664044393
 30
0.0
 10
9.735265891024156
 20
6.534392940098162
 30
0.0
 10
9.735015505024283
 20
6.533488755641769
 30
0.0
 10
9.73483115731696
 20
6.532440552815945
 30
0.0
 10
9.734679250805067
 20
6.53127498579934
 30
0.0
 10
9.734538211704951
 20
6.530003993001388
 30
0.0
 10
9.734467721131391
 20
6.528591476011254
 30
0.0
 10
9.734396031500342
 20
6.527080617029884
 30
0.0
 10
9.734396900850534
 20
6.526013413716101
 30
0.0
 10
9.73439735043242
 20
6.525461512672996
 30
0.0
  0
SPLINE
  5
228
330
1F
100
AcDbEntity
  8
0
  6
Continuous
 62
     7
370
    18
100
AcDbSpline
210
0.0
220
0.0
230
1.0
 70
     8
 71
     3
 72
    23
 73
    19
 74
     0
 42
0.000000001
 43
0.00000001
 40
0.0
 40
0.0
 40
0.0
 40
0.0
 40
0.0840520374929027
 40
0.1623146334137115
 40
0.2366600199015785
 40
0.3057775454542916
 40
0.3698548822538634
 40
0.4308818052540364
 40
0.4880260023390452
 40
0.5427446849665438
 40
0.5951151179188187
 40
0.6466861713516503
 40
0.6997262587744727
 40
0.7534139566544632
 40
0.8093158108836093
 40
0.8690272915375964
 40
0.9322090442192221
 40
1.0
 40
1.0
 40
1.0
 40
1.0
 10
9.752120347319853
 20
6.521750957382571
 30
0.0
 10
9.752117423389869
 20
6.52220707061883
 30
0.0
 10
9.752111776928016
 20
6.52308788035226
 30
0.0
 10
9.752020307474973
 20
6.524416164000571
 30
0.0
 10
9.751897006463345
 20
6.525677822712658
 30
0.0
 10
9.75170319632347
 20
6.526890249649701
 30
0.0
 10
9.751459088623184
 20
6.528042753805444
 30
0.0
 10
9.75117920952703
 20
6.529136429321063
 30
0.0
 10
9.750825349471038
 20
6.530183107616518
 30
0.0
 10
9.75041940796539
 20
6.531173901822688
 30
0.0
 10
9.749942191023747
 20
6.532109572411453
 30
0.0
 10
9.749406164512209
 20
6.533002785901068
 30
0.0
 10
9.74879159911791
 20
6.533842809916904
 30
0.0
 10
9.748105506596566
 20
6.534621957091274
 30
0.0
 10
9.747366508391762
 20
6.535387760625545
 30
0.0
 10
9.746542534869853
 20
6.536047991648435
 30
0.0
 10
9.745659190235399
 20
6.536713285430797
 30
0.0
 10
9.745045422378515
 20
6.537077820213788
 30
0.0
 10
9.744727738563817
 20
6.537266501975387
 30
0.0
  0
LINE
  5
229
330
1F
100
AcDbEntity
  8
0
  6
Continuous
 62
     7
370
    18
100
AcDbLine
 10
9.7521203473
 20
6.4893976541
 30
0.0
 11
9.7521203473
 21
6.5217509574
 31
0.0
  0
LINE
  5
22A
330
1F
100
AcDbEntity
  8
0
  6
Continuous
 62
     7
370
    18
100
AcDbLine
 10
9.7598259981
 20
6.4849492766
 30
0.0
 11
9.7521203473
 21
6.4893976541
 31
0.0
  0
LINE
  5
22B
330
1F
100
AcDbEntity
  8
0
  6
Continuous
 62
     7
370
    18
100
AcDbLine
 10
9.7598259981
 20
6.5138823338
 30
0.0
 11
9.7598259981
 21
6.4849492766
 31
0.0
  0
SPLINE
  5
22C
330
1F
100
AcDbEntity
  8
0
  6
Continuous
 62
     7
370
    18
100
AcDbSpline
210
0.0
220
0.0
230
1.0
 70
     8
 71
     3
 72
    23
 73
    19
 74
     0
 42
0.000000001
 43
0.00000001
 40
0.0
 40
0.0
 40
0.0
 40
0.0
 40
0.0585757660198504
 40
0.1150346943684879
 40
0.169763615231176
 40
0.2236478972929994
 40
0.2768730316667503
 40
0.3302884546297407
 40
0.3850366836323369
 40
0.4406848389014084
 40
0.4978802676984127
 40
0.5572232623162524
 40
0.6200374272436318
 40
0.6862557553842884
 40
0.7567477502249745
 40
0.8318929806595928
 40
0.9128343922551199
 40
1.0
 40
1.0
 40
1.0
 40
1.0
 10
9.770084145795428
 20
6.522628559657941
 30
0.0
 10
9.769722341455775
 20
6.522827642208536
 30
0.0
 10
9.769011807826235
 20
6.523218612773974
 30
0.0
 10
9.767973509003502
 20
6.523640162398201
 30
0.0
 10
9.76697636292353
 20
6.523963406593285
 30
0.0
 10
9.76603715819867
 20
6.524105030349595
 30
0.0
 10
9.765137234595207
 20
6.524141484379803
 30
0.0
 10
9.764289646739947
 20
6.524022142902234
 30
0.0
 10
9.763480636170218
 20
6.523785064821738
 30
0.0
 10
9.762734076157678
 20
6.523386378774341
 30
0.0
 10
9.76203461592945
 20
6.52286160144169
 30
0.0
 10
9.761447333222828
 20
6.522111881867458
 30
0.0
 10
9.760940214975003
 20
6.521193633842389
 30
0.0
 10
9.76053636569873
 20
6.520080561523511
 30
0.0
 10
9.760209456633518
 20
6.518805470895163
 30
0.0
 10
9.759984168035063
 20
6.51733960617471
 30
0.0
 10
9.759854375119794
 20
6.515685569496059
 30
0.0
 10
9.7598356877679
 20
6.514498068177737
 30
0.0
 10
9.759825998140474
 20
6.513882333781187
 30
0.0
  0
SPLINE
  5
22D
330
1F
100
AcDbEntity
  8
0
  6
Continuous
 62
     7
370
    18
100
AcDbSpline
210
0.0
220
0.0
230
1.0
 70
     8
 71
     3
 72
    19
 73
    15
 74
     0
 42
0.000000001
 43
0.00000001
 40
0.0
 40
0.0
 40
0.0
 40
0.0
 40
0.1364148811765275
 40
0.2528973605082377
 40
0.3492204458013852
 40
0.4269322474132383
 40
0.4944524086148369
 40
0.5607020268402086
 40
0.6286260433619786
 40
0.698836431094077
 40
0.7714182240964009
 40
0.8441568540005466
 40
0.9199641120853101
 40
1.0
 40
1.0
 40
1.0
 40
1.0
 10
9.777548995027907
 20
6.506084167335107
 30
0.0
 10
9.777538430619373
 20
6.506873589823209
 30
0.0
 10
9.777518845431816
 20
6.508337087513818
 30
0.0
 10
9.777413649163774
 20
6.510401738592429
 30
0.0
 10
9.777202460161908
 20
6.512175498562351
 30
0.0
 10
9.77691260008165
 20
6.513694895603097
 30
0.0
 10
9.776467296211354
 20
6.515059465304037
 30
0.0
 10
9.7759046317126
 20
6.516349172787207
 30
0.0
 10
9.775198012068088
 20
6.517608473116259
 30
0.0
 10
9.77436365390561
 20
6.518829217390143
 30
0.0
 10
9.773418644310134
 20
6.519972243876532
 30
0.0
 10
9.772375139496628
 20
6.520986940855595
 30
0.0
 10
9.77125911193839
 20
6.52191102880441
 30
0.0
 10
9.770482822426247
 20
6.522385094954802
 30
0.0
 10
9.770084145795428
 20
6.522628559657941
 30
0.0
  0
LINE
  5
22E
330
1F
100
AcDbEntity
  8
0
  6
Continuous
 62
     7
370
    18
100
AcDbLine
 10
9.777548995
 20
6.4747180083
 30
0.0
 11
9.777548995
 21
6.5060841673
 31
0.0
  0
LINE
  5
22F
330
1F
100
AcDbEntity
  8
0
  6
Continuous
 62
     7
370
    18
100
AcDbLine
 10
9.7852546458
 20
6.4702696307
 30
0.0
 11
9.777548995
 21
6.4747180083
 31
0.0
  0
LINE
  5
230
330
1F
100
AcDbEntity
  8
0
  6
Continuous
 62
     7
370
    18
100
AcDbLine
 10
9.7852546458
 20
6.5049170015
 30
0.0
 11
9.7852546458
 21
6.4702696307
 31
0.0
  0
SPLINE
  5
231
330
1F
100
AcDbEntity
  8
0
  6
Continuous
 62
     7
370
    18
100
AcDbSpline
210
0.0
220
0.0
230
1.0
 70
     8
 71
     3
 72
    23
 73
    19
 74
     0
 42
0.000000001
 43
0.00000001
 40
0.0
 40
0.0
 40
0.0
 40
0.0
 40
0.0684858423217284
 40
0.1336315466164048
 40
0.1953270837667399
 40
0.2542221042059962
 40
0.3112724040630452
 40
0.3666124446917562
 40
0.4212564852255817
 40
0.4760702201722832
 40
0.5314280570704071
 40
0.5882286934627525
 40
0.6473050178610782
 40
0.7093984115158154
 40
0.7752829671512439
 40
0.8452284978288171
 40
0.9203967621689223
 40
1.0
 40
1.0
 40
1.0
 40
1.0
 10
9.77193831802414
 20
6.529566549853863
 30
0.0
 10
9.772456544521127
 20
6.529253781508053
 30
0.0
 10
9.773467722977026
 20
6.528643498909979
 30
0.0
 10
9.774937347220261
 20
6.527596537081425
 30
0.0
 10
9.77631855692548
 20
6.526488528880912
 30
0.0
 10
9.777603346336631
 20
6.525281461444272
 30
0.0
 10
9.778799268819384
 20
6.524009581420975
 30
0.0
 10
9.779907562552479
 20
6.522660422607051
 30
0.0
 10
9.780910050494626
 20
6.521220615462827
 30
0.0
 10
9.781834822814202
 20
6.519716159598486
 30
0.0
 10
9.782645651544888
 20
6.518123515913461
 30
0.0
 10
9.78334696995092
 20
6.516456968665699
 30
0.0
 10
9.783938724686003
 20
6.514714720156058
 30
0.0
 10
9.78441432777122
 20
6.512898810123512
 30
0.0
 10
9.784806354274979
 20
6.511000968592613
 30
0.0
 10
9.785057446139351
 20
6.509033643303245
 30
0.0
 10
9.78523617015601
 20
6.506976222158608
 30
0.0
 10
9.785248370748466
 20
6.50561639695762
 30
0.0
 10
9.78525464584853
 20
6.504917001478708
 30
0.0
  0
SPLINE
  5
232
330
1F
100
AcDbEntity
  8
0
  6
Continuous
 62
     7
370
    18
100
AcDbSpline
210
0.0
220
0.0
230
1.0
 70
     8
 71
     3
 72
    15
 73
    11
 74
     0
 42
0.000000001
 43
0.00000001
 40
0.0
 40
0.0
 40
0.0
 40
0.0
 40
0.142302946990994
 40
0.2753838759350553
 40
0.4024786494899635
 40
0.5233761876629234
 40
0.6412310342564421
 40
0.7583226851907713
 40
0.877553058040032
 40
1.0
 40
1.0
 40
1.0
 40
1.0
 10
9.758621990199753
 20
6.527841273867538
 30
0.0
 10
9.759049330811195
 20
6.528343446720714
 30
0.0
 10
9.759876317998824
 20
6.529315248848647
 30
0.0
 10
9.761316973660277
 20
6.530404764788394
 30
0.0
 10
9.762841829749199
 20
6.531161960063922
 30
0.0
 10
9.764471960692894
 20
6.531561226653162
 30
0.0
 10
9.76619743462438
 20
6.531605673916659
 30
0.0
 10
9.768023529820027
 20
6.531299348102902
 30
0.0
 10
9.769952390572127
 20
6.530620172276508
 30
0.0
 10
9.771270494502547
 20
6.529920859794042
 30
0.0
 10
9.77193831802414
 20
6.529566549853863
 30
0.0
  0
SPLINE
  5
233
330
1F
100
AcDbEntity
  8
0
  6
Continuous
 62
     7
370
    18
100
AcDbSpline
210
0.0
220
0.0
230
1.0
 70
     8
 71
     3
 72
    15
 73
    11
 74
     0
 42
0.000000001
 43
0.00000001
 40
0.0
 40
0.0
 40
0.0
 40
0.0
 40
0.1427448629824135
 40
0.2746346497965597
 40
0.3982435516696308
 40
0.5176044543884925
 40
0.6347051380894385
 40
0.7520881184911
 40
0.8730810341089226
 40
1.0
 40
1.0
 40
1.0
 40
1.0
 10
9.746943113174748
 20
6.54399597447448
 30
0.0
 10
9.747675871401654
 20
6.543548069042185
 30
0.0
 10
9.749085665035045
 20
6.542686319281315
 30
0.0
 10
9.751092518128322
 20
6.54103827524663
 30
0.0
 10
9.752908706037669
 20
6.539236249299069
 30
0.0
 10
9.7545024504225
 20
6.537214789057965
 30
0.0
 10
9.755879228083161
 20
6.535040309062978
 30
0.0
 10
9.757035028673648
 20
6.532734807648476
 30
0.0
 10
9.757977852691285
 20
6.530307574383577
 30
0.0
 10
9.758403883106824
 20
6.528676371387509
 30
0.0
 10
9.758621990199753
 20
6.527841273867538
 30
0.0
  0
SPLINE
  5
234
330
1F
100
AcDbEntity
  8
0
  6
Continuous
 62
     7
370
    18
100
AcDbSpline
210
0.0
220
0.0
230
1.0
 70
     8
 71
     3
 72
    15
 73
    11
 74
     0
 42
0.000000001
 43
0.00000001
 40
0.0
 40
0.0
 40
0.0
 40
0.0
 40
0.1266319284235808
 40
0.2498443757728012
 40
0.3726046475920056
 40
0.4967509664038974
 40
0.6205941793274083
 40
0.7437520563069234
 40
0.8691668313601764
 40
1.0
 40
1.0
 40
1.0
 40
1.0
 10
9.73439735043242
 20
6.542437612064336
 30
0.0
 10
9.734736528534471
 20
6.54288344241292
 30
0.0
 10
9.735405725807528
 20
6.543763064215489
 30
0.0
 10
9.736647515015381
 20
6.544736575177451
 30
0.0
 10
9.738024364442627
 20
6.545459989483673
 30
0.0
 10
9.73956323103203
 20
6.545875200155128
 30
0.0
 10
9.741235938976923
 20
6.545980597415304
 30
0.0
 10
9.743041322409288
 20
6.545686453099385
 30
0.0
 10
9.744953624761207
 20
6.545063332162977
 30
0.0
 10
9.74627066736217
 20
6.544356740691194
 30
0.0
 10
9.746943113174748
 20
6.54399597447448
 30
0.0
  0
LINE
  5
235
330
1F
100
AcDbEntity
  8
0
  6
Continuous
 62
     7
370
    18
100
AcDbLine
 10
9.7343973504
 20
6.550348669
 30
0.0
 11
9.7343973504
 21
6.5424376121
 31
0.0
  0
LINE
  5
236
330
1F
100
AcDbEntity
  8
0
  6
Continuous
 62
     7
370
    18
100
AcDbLine
 10
9.7266916996
 20
6.5547970466
 30
0.0
 11
9.7343973504
 21
6.550348669
 31
0.0
  0
LINE
  5
237
330
1F
100
AcDbEntity
  8
0
  6
Continuous
 62
     7
370
    18
100
AcDbLine
 10
9.7266916996
 20
6.5040773
 30
0.0
 11
9.7266916996
 21
6.5547970466
 31
0.0
  0
LINE
  5
238
330
1F
100
AcDbEntity
  8
0
  6
Continuous
 62
     7
370
    18
100
AcDbLine
 10
9.7343973504
 20
6.4996289224
 30
0.0
 11
9.7266916996
 21
6.5040773
 31
0.0
  0
LINE
  5
239
330
1F
100
AcDbEntity
  8
0
  6
Continuous
 62
     7
370
    18
100
AcDbLine
 10
9.7343973504
 20
6.5254615127
 30
0.0
 11
9.7343973504
 21
6.4996289224
 31
0.0
  0
LINE
  5
23A
330
1F
100
AcDbEntity
  8
0
  6
Continuous
 62
     7
370
    18
100
AcDbLine
 10
9.6595562168
 20
6.5517319904
 30
0.0
 11
9.6672618677
 21
6.5472836129
 31
0.0
  0
LINE
  5
23B
330
1F
100
AcDbEntity
  8
0
  6
Continuous
 62
     7
370
    18
100
AcDbLine
 10
9.6595562168
 20
6.5428337892
 30
0.0
 11
9.6595562168
 21
6.5517319904
 31
0.0
  0
LINE
  5
23C
330
1F
100
AcDbEntity
  8
0
  6
Continuous
 62
     7
370
    18
100
AcDbLine
 10
9.6672618677
 20
6.5383854117
 30
0.0
 11
9.6595562168
 21
6.5428337892
 31
0.0
  0
LINE
  5
23D
330
1F
100
AcDbEntity
  8
0
  6
Continuous
 62
     7
370
    18
100
AcDbLine
 10
9.6672618677
 20
6.5472836129
 30
0.0
 11
9.6672618677
 21
6.5383854117
 31
0.0
  0
SPLINE
  5
23E
330
1F
100
AcDbEntity
  8
0
  6
Continuous
 62
     7
370
    18
100
AcDbSpline
210
0.0
220
0.0
230
1.0
 70
     8
 71
     3
 72
    23
 73
    19
 74
     0
 42
0.000000001
 43
0.00000001
 40
0.0
 40
0.0
 40
0.0
 40
0.0
 40
0.0579411468644318
 40
0.1160101600015108
 40
0.1747221415238396
 40
0.2342052521829411
 40
0.296862310384137
 40
0.364092289671107
 40
0.4362187363142913
 40
0.5137329173488079
 40
0.5564459463267122
 40
0.6043228965928161
 40
0.657417446075983
 40
0.7157688753522267
 40
0.7788540302343856
 40
0.8475110023648071
 40
0.9212332996991655
 40
1.0
 40
1.0
 40
1.0
 40
1.0
 10
9.600222705518329
 20
6.627333325874827
 30
0.0
 10
9.600206494750932
 20
6.626655755803065
 30
0.0
 10
9.600174037441727
 20
6.625299120377444
 30
0.0
 10
9.599909921099647
 20
6.623398723855634
 30
0.0
 10
9.599488971611846
 20
6.621607982776176
 30
0.0
 10
9.598891912767344
 20
6.619919328191706
 30
0.0
 10
9.598082554418612
 20
6.61834277943742
 30
0.0
 10
9.597068596008823
 20
6.616836526593913
 30
0.0
 10
9.5958131165592
 20
6.615436238867193
 30
0.0
 10
9.594609766828794
 20
6.614322111941029
 30
0.0
 10
9.593488065512975
 20
6.613455322964154
 30
0.0
 10
9.592485492330336
 20
6.612784889857736
 30
0.0
 10
9.591339804935764
 20
6.612098875323391
 30
0.0
 10
9.590054673343449
 20
6.611399637456506
 30
0.0
 10
9.58862396213648
 20
6.610693898839228
 30
0.0
 10
9.587066217264022
 20
6.609951816450502
 30
0.0
 10
9.585352165439163
 20
6.609223174115487
 30
0.0
 10
9.584161976167096
 20
6.608736853394087
 30
0.0
 10
9.583547195539325
 20
6.608485649181938
 30
0.0
  0
SPLINE
  5
23F
330
1F
100
AcDbEntity
  8
0
  6
Continuous
 62
     7
370
    18
100
AcDbSpline
210
0.0
220
0.0
230
1.0
 70
     8
 71
     3
 72
    23
 73
    19
 74
     0
 42
0.000000001
 43
0.00000001
 40
0.0
 40
0.0
 40
0.0
 40
0.0
 40
0.0746990601627195
 40
0.1455142091831454
 40
0.2133024209091381
 40
0.2785672274609363
 40
0.3420354497055244
 40
0.404200807806776
 40
0.4653635792336845
 40
0.5268663994662199
 40
0.5876075643462726
 40
0.646649545103445
 40
0.7046044435732238
 40
0.7621190800210093
 40
0.8194488701009592
 40
0.8780603438614836
 40
0.9378061912751063
 40
1.0
 40
1.0
 40
1.0
 40
1.0
 10
9.581729143548836
 20
6.657168371314724
 30
0.0
 10
9.582424157822246
 20
6.656753400137107
 30
0.0
 10
9.583778049720562
 20
6.655945033838881
 30
0.0
 10
9.585750924246105
 20
6.654532252017836
 30
0.0
 10
9.587612249880875
 20
6.653030854687704
 30
0.0
 10
9.589369476151802
 20
6.651422638651455
 30
0.0
 10
9.591013268797186
 20
6.649689486915667
 30
0.0
 10
9.592549249516352
 20
6.647858271791724
 30
0.0
 10
9.593972577873373
 20
6.645915563396633
 30
0.0
 10
9.595263846283752
 20
6.643877424650981
 30
0.0
 10
9.596428540061957
 20
6.641793347471882
 30
0.0
 10
9.597446858318873
 20
6.639697692615598
 30
0.0
 10
9.598307999709654
 20
6.637607531637497
 30
0.0
 10
9.599006715270948
 20
6.635529414871028
 30
0.0
 10
9.59955822555074
 20
6.633456018778163
 30
0.0
 10
9.599932333466352
 20
6.631400829455553
 30
0.0
 10
9.600190804451122
 20
6.629331092224652
 30
0.0
 10
9.60021193045974
 20
6.628008101089263
 30
0.0
 10
9.600222705518329
 20
6.627333325874827
 30
0.0
  0
SPLINE
  5
240
330
1F
100
AcDbEntity
  8
0
  6
Continuous
 62
     7
370
    18
100
AcDbSpline
210
0.0
220
0.0
230
1.0
 70
     8
 71
     3
 72
    23
 73
    19
 74
     0
 42
0.000000001
 43
0.00000001
 40
0.0
 40
0.0
 40
0.0
 40
0.0
 40
0.0706767817247835
 40
0.1374955954707285
 40
0.201477077226669
 40
0.2628748693297382
 40
0.3225568935781257
 40
0.3809762864578231
 40
0.4385150871552029
 40
0.4960860063759599
 40
0.553494619961451
 40
0.6117147729093014
 40
0.6706367881256262
 40
0.7315812838711673
 40
0.7941788502708097
 40
0.8594421456840263
 40
0.9282061203037757
 40
1.0
 40
1.0
 40
1.0
 40
1.0
 10
9.562465016497278
 20
6.648713272604279
 30
0.0
 10
9.56254384675536
 20
6.649443272760313
 30
0.0
 10
9.56269720423729
 20
6.650863425230448
 30
0.0
 10
9.563079373746053
 20
6.652827746376587
 30
0.0
 10
9.563615256158537
 20
6.654551500937345
 30
0.0
 10
9.564258682002702
 20
6.65608742836009
 30
0.0
 10
9.565058389818894
 20
6.657385177922583
 30
0.0
 10
9.565990797002128
 20
6.658463731481461
 30
0.0
 10
9.56703798463289
 20
6.659351984970948
 30
0.0
 10
9.568238242652543
 20
6.659972966492511
 30
0.0
 10
9.56954492076542
 20
6.660399879946475
 30
0.0
 10
9.570970952124009
 20
6.660586321003728
 30
0.0
 10
9.572500553538527
 20
6.660575152418123
 30
0.0
 10
9.574138437867576
 20
6.660335720324411
 30
0.0
 10
9.575885081759996
 20
6.659868132245064
 30
0.0
 10
9.577737451562188
 20
6.65918548644817
 30
0.0
 10
9.57969773241034
 20
6.658292477104489
 30
0.0
 10
9.581042344886376
 20
6.657548419616245
 30
0.0
 10
9.581729143548836
 20
6.657168371314724
 30
0.0
  0
LINE
  5
241
330
1F
100
AcDbEntity
  8
0
  6
Continuous
 62
     7
370
    18
100
AcDbLine
 10
9.5701706673
 20
6.643375075
 30
0.0
 11
9.5624650165
 21
6.6487132726
 31
0.0
  0
SPLINE
  5
242
330
1F
100
AcDbEntity
  8
0
  6
Continuous
 62
     7
370
    18
100
AcDbSpline
210
0.0
220
0.0
230
1.0
 70
     8
 71
     3
 72
    23
 73
    19
 74
     0
 42
0.000000001
 43
0.00000001
 40
0.0
 40
0.0
 40
0.0
 40
0.0
 40
0.0706879982102764
 40
0.1383416071740429
 40
0.2033454594014837
 40
0.265668323470064
 40
0.326587550158278
 40
0.3861242880926989
 40
0.4448968030792
 40
0.5042045303178928
 40
0.563278454830756
 40
0.6214196677827243
 40
0.6802431784534266
 40
0.7398263871153098
 40
0.8008250712305707
 40
0.86425575582782
 40
0.9306394239675704
 40
1.0
 40
1.0
 40
1.0
 40
1.0
 10
9.581560582437135
 20
6.649257298533596
 30
0.0
 10
9.581142809932377
 20
6.649487365856523
 30
0.0
 10
9.580325198439555
 20
6.649937624514537
 30
0.0
 10
9.579129878387338
 20
6.650470220945081
 30
0.0
 10
9.577995846606187
 20
6.650882325804948
 30
0.0
 10
9.576926084605192
 20
6.65113735447765
 30
0.0
 10
9.57592824174674
 20
6.65123254636165
 30
0.0
 10
9.5749796298261
 20
6.651232161993034
 30
0.0
 10
9.574105435323416
 20
6.65105987601502
 30
0.0
 10
9.573304638405029
 20
6.650741760723767
 30
0.0
 10
9.572563411400758
 20
6.650317820127161
 30
0.0
 10
9.571937675987199
 20
6.649716059924438
 30
0.0
 10
9.571386475912677
 20
6.649008190277885
 30
0.0
 10
9.570961095490784
 20
6.648129200791399
 30
0.0
 10
9.570605422624926
 20
6.647146634036047
 30
0.0
 10
9.570351890966323
 20
6.646021382322477
 30
0.0
 10
9.570212780206388
 20
6.644749801139078
 30
0.0
 10
9.570184908690683
 20
6.643839967979498
 30
0.0
 10
9.570170667317901
 20
6.643375074956396
 30
0.0
  0
SPLINE
  5
243
330
1F
100
AcDbEntity
  8
0
  6
Continuous
 62
     7
370
    18
100
AcDbSpline
210
0.0
220
0.0
230
1.0
 70
     8
 71
     3
 72
    23
 73
    19
 74
     0
 42
0.000000001
 43
0.00000001
 40
0.0
 40
0.0
 40
0.0
 40
0.0
 40
0.0617499482833058
 40
0.1211500402704794
 40
0.1793859407142465
 40
0.2367966179648689
 40
0.2942636170183546
 40
0.3531211477700192
 40
0.4132116206465809
 40
0.4750008486832724
 40
0.5375230809498778
 40
0.6000453132164844
 40
0.6624596554419345
 40
0.7260040706795347
 40
0.790357894134784
 40
0.857752424497621
 40
0.9272463363904402
 40
1.0
 40
1.0
 40
1.0
 40
1.0
 10
9.592517054697707
 20
6.631698282771366
 30
0.0
 10
9.592508689194082
 20
6.632093179050219
 30
0.0
 10
9.592492276530926
 20
6.632867944072958
 30
0.0
 10
9.592336521650518
 20
6.634077841343148
 30
0.0
 10
9.592119769343203
 20
6.635281599055722
 30
0.0
 10
9.591769074442363
 20
6.636501628278298
 30
0.0
 10
9.591352577369125
 20
6.637729783885491
 30
0.0
 10
9.590812932686871
 20
6.638966985851017
 30
0.0
 10
9.5902020991593
 20
6.640218230831528
 30
0.0
 10
9.589488497888494
 20
6.641454684871462
 30
0.0
 10
9.588714509185696
 20
6.642674223972747
 30
0.0
 10
9.587853021754665
 20
6.643817265166687
 30
0.0
 10
9.586944535647085
 20
6.644905196497013
 30
0.0
 10
9.585981163495877
 20
6.645920616147399
 30
0.0
 10
9.584955657197446
 20
6.64686199597674
 30
0.0
 10
9.583875225717556
 20
6.647730450864128
 30
0.0
 10
9.58273592879646
 20
6.648546017603023
 30
0.0
 10
9.581958304580523
 20
6.649016610183294
 30
0.0
 10
9.581560582437135
 20
6.649257298533596
 30
0.0
  0
SPLINE
  5
244
330
1F
100
AcDbEntity
  8
0
  6
Continuous
 62
     7
370
    18
100
AcDbSpline
210
0.0
220
0.0
230
1.0
 70
     8
 71
     3
 72
    23
 73
    19
 74
     0
 42
0.000000001
 43
0.00000001
 40
0.0
 40
0.0
 40
0.0
 40
0.0
 40
0.1114069722005839
 40
0.2145211916453903
 40
0.3094097605219009
 40
0.3960776348968142
 40
0.4742727739618114
 40
0.5443607482092248
 40
0.6064049324812083
 40
0.6605656653455929
 40
0.7097766937535555
 40
0.7560555340500263
 40
0.8007645578783287
 40
0.8431644975605266
 40
0.8842900859594639
 40
0.9234489124930929
 40
0.9623596182637248
 40
1.0
 40
1.0
 40
1.0
 40
1.0
 10
9.576359268133213
 20
6.616820086579637
 30
0.0
 10
9.577132633574829
 20
6.617125301276102
 30
0.0
 10
9.578621797788122
 20
6.617713011534264
 30
0.0
 10
9.580724732179014
 20
6.618646799910891
 30
0.0
 10
9.582645416325107
 20
6.619532356854751
 30
0.0
 10
9.584353283442281
 20
6.620422270824732
 30
0.0
 10
9.585862243866307
 20
6.621290356747756
 30
0.0
 10
9.587176025928137
 20
6.622130395401454
 30
0.0
 10
9.588305352089339
 20
6.622931605148303
 30
0.0
 10
9.589238235853136
 20
6.623752262001668
 30
0.0
 10
9.590019151188185
 20
6.624584635987829
 30
0.0
 10
9.590697156422797
 20
6.625437970282981
 30
0.0
 10
9.591241437141372
 20
6.626373639195836
 30
0.0
 10
9.5917085117904
 20
6.627335279221213
 30
0.0
 10
9.592070872609275
 20
6.628343632660194
 30
0.0
 10
9.592325892568185
 20
6.629411121576913
 30
0.0
 10
9.592490686132075
 20
6.630516367360851
 30
0.0
 10
9.592508362954945
 20
6.631308693710759
 30
0.0
 10
9.592517054697707
 20
6.631698282771366
 30
0.0
  0
SPLINE
  5
245
330
1F
100
AcDbEntity
  8
0
  6
Continuous
 62
     7
370
    18
100
AcDbSpline
210
0.0
220
0.0
230
1.0
 70
     8
 71
     3
 72
    19
 73
    15
 74
     0
 42
0.000000001
 43
0.00000001
 40
0.0
 40
0.0
 40
0.0
 40
0.0
 40
0.1003979870776413
 40
0.2039449444496892
 40
0.3109740528169617
 40
0.4224561943354773
 40
0.4809901004231593
 40
0.5431933649474936
 40
0.6094612125659403
 40
0.679523186293014
 40
0.7538170840239601
 40
0.8316241673810514
 40
0.9138042553895492
 40
1.0
 40
1.0
 40
1.0
 40
1.0
 10
9.5625011367355
 20
6.605035621417067
 30
0.0
 10
9.562755676727633
 20
6.60570207487007
 30
0.0
 10
9.563272740326886
 20
6.607055885005187
 30
0.0
 10
9.56433212199297
 20
6.608831670545953
 30
0.0
 10
9.565574800644631
 20
6.610487228224526
 30
0.0
 10
9.566780026727358
 20
6.611732284307189
 30
0.0
 10
9.567885167285873
 20
6.612632827241343
 30
0.0
 10
9.56879692729227
 20
6.61332443571216
 30
0.0
 10
9.569823878872265
 20
6.613962770437086
 30
0.0
 10
9.570947450962851
 20
6.614580403484784
 30
0.0
 10
9.572160781006769
 20
6.615181399391576
 30
0.0
 10
9.573463834505189
 20
6.61577183416097
 30
0.0
 10
9.574872489422747
 20
6.616317023854358
 30
0.0
 10
9.57585585766055
 20
6.616649753871394
 30
0.0
 10
9.576359268133213
 20
6.616820086579637
 30
0.0
  0
SPLINE
  5
246
330
1F
100
AcDbEntity
  8
0
  6
Continuous
 62
     7
370
    18
100
AcDbSpline
210
0.0
220
0.0
230
1.0
 70
     8
 71
     3
 72
    11
 73
     7
 74
     0
 42
0.000000001
 43
0.00000001
 40
0.0
 40
0.0
 40
0.0
 40
0.0
 40
0.2526501895044199
 40
0.5022501643010259
 40
0.7504000252034048
 40
0.9999999999999999
 40
0.9999999999999999
 40
0.9999999999999999
 40
0.9999999999999999
 10
9.561694451415216
 20
6.599328183888591
 30
0.0
 10
9.561693382898497
 20
6.599857683701444
 30
0.0
 10
9.561691258765128
 20
6.600910290740943
 30
0.0
 10
9.561849190108749
 20
6.602380179411833
 30
0.0
 10
9.562087190631331
 20
6.603784580542944
 30
0.0
 10
9.5623628869685
 20
6.604617798643494
 30
0.0
 10
9.5625011367355
 20
6.605035621417067
 30
0.0
  0
LINE
  5
247
330
1F
100
AcDbEntity
  8
0
  6
Continuous
 62
     7
370
    18
100
AcDbLine
 10
9.6009932706
 20
6.5766414585
 30
0.0
 11
9.5616944514
 21
6.5993281839
 31
0.0
  0
LINE
  5
248
330
1F
100
AcDbEntity
  8
0
  6
Continuous
 62
     7
370
    18
100
AcDbLine
 10
9.6009932706
 20
6.5855396596
 30
0.0
 11
9.6009932706
 21
6.5766414585
 31
0.0
  0
LINE
  5
249
330
1F
100
AcDbEntity
  8
0
  6
Continuous
 62
     7
370
    18
100
AcDbLine
 10
9.5715913967
 20
6.6025130002
 30
0.0
 11
9.6009932706
 21
6.5855396596
 31
0.0
  0
SPLINE
  5
24A
330
1F
100
AcDbEntity
  8
0
  6
Continuous
 62
     7
370
    18
100
AcDbSpline
210
0.0
220
0.0
230
1.0
 70
     8
 71
     3
 72
    17
 73
    13
 74
     0
 42
0.000000001
 43
0.00000001
 40
0.0
 40
0.0
 40
0.0
 40
0.0
 40
0.1242120814447469
 40
0.2373239094363971
 40
0.3395283395232188
 40
0.431296031844555
 40
0.5115054068527531
 40
0.5812109484595621
 40
0.6400004863247561
 40
0.6878180933733972
 40
0.850897391054898
 40
1.0
 40
1.0
 40
1.0
 40
1.0
 10
9.583547195539325
 20
6.608485649181938
 30
0.0
 10
9.58301971162835
 20
6.608296686197245
 30
0.0
 10
9.582011882579343
 20
6.607935646967046
 30
0.0
 10
9.580597192839052
 20
6.607365583538808
 30
0.0
 10
9.57930461226442
 20
6.606875665054368
 30
0.0
 10
9.578151774519847
 20
6.606435846830509
 30
0.0
 10
9.577144979741451
 20
6.606029504574392
 30
0.0
 10
9.576297594454875
 20
6.60563696187219
 30
0.0
 10
9.575570696277977
 20
6.60532597849053
 30
0.0
 10
9.574484137165443
 20
6.604803577087162
 30
0.0
 10
9.57310196294087
 20
6.603974714962614
 30
0.0
 10
9.57207966230644
 20
6.602985475346829
 30
0.0
 10
9.571591396687953
 20
6.602513000150622
 30
0.0
  0
SPLINE
  5
24B
330
1F
100
AcDbEntity
  8
0
  6
Continuous
 62
     7
370
    18
100
AcDbSpline
210
0.0
220
0.0
230
1.0
 70
     8
 71
     3
 72
    31
 73
    27
 74
     0
 42
0.000000001
 43
0.00000001
 40
0.0
 40
0.0
 40
0.0
 40
0.0
 40
0.0628729369832531
 40
0.1228346582660095
 40
0.17965368366555
 40
0.2339562567955639
 40
0.2855473950458364
 40
0.3345189820567462
 40
0.3806227038405213
 40
0.42452950317676
 40
0.4664416769228077
 40
0.5065145853718175
 40
0.5447930111054544
 40
0.5818456530092797
 40
0.6174621814237213
 40
0.6520802585584685
 40
0.6858925172859709
 40
0.719186823394995
 40
0.7521933849929773
 40
0.7852513720621817
 40
0.8186671215359255
 40
0.852835618843419
 40
0.8876281460368513
 40
0.9236363038488349
 40
0.9610224701392103
 40
0.9999999999999999
 40
0.9999999999999999
 40
0.9999999999999999
 40
0.9999999999999999
 10
9.527789587804477
 20
6.653131312599784
 30
0.0
 10
9.527781722079848
 20
6.652148629732222
 30
0.0
 10
9.527766354838501
 20
6.650228765319765
 30
0.0
 10
9.527673969108937
 20
6.647462527717101
 30
0.0
 10
9.52750149239758
 20
6.644882714138506
 30
0.0
 10
9.527279378568812
 20
6.642468430024087
 30
0.0
 10
9.52697981246442
 20
6.640233536195313
 30
0.0
 10
9.526607870782998
 20
6.638184870805244
 30
0.0
 10
9.52617266916132
 20
6.636311773214729
 30
0.0
 10
9.525683301358262
 20
6.634600459939763
 30
0.0
 10
9.52511874309643
 20
6.633058676893449
 30
0.0
 10
9.524479038425536
 20
6.631688773403315
 30
0.0
 10
9.523780679668858
 20
6.630467760870489
 30
0.0
 10
9.523011744859904
 20
6.629410763703073
 30
0.0
 10
9.522176206263346
 20
6.628510530698186
 30
0.0
 10
9.521287558554622
 20
6.627750071867477
 30
0.0
 10
9.520321094315381
 20
6.627161353144121
 30
0.0
 10
9.51927876949838
 20
6.626749064223215
 30
0.0
 10
9.518181530243899
 20
6.626468913546617
 30
0.0
 10
9.517007338462642
 20
6.626365256586357
 30
0.0
 10
9.515758920915998
 20
6.62643398527901
 30
0.0
 10
9.514447409497706
 20
6.626646196993784
 30
0.0
 10
9.513064097573196
 20
6.62703064747661
 30
0.0
 10
9.511616193243448
 20
6.627559032893141
 30
0.0
 10
9.510094250188741
 20
6.628253982487593
 30
0.0
 10
9.509055605430536
 20
6.628835401213153
 30
0.0
 10
9.50852546075292
 20
6.62913216874641
 30
0.0
  0
SPLINE
  5
24C
330
1F
100
AcDbEntity
  8
0
  6
Continuous
 62
     7
370
    18
100
AcDbSpline
210
0.0
220
0.0
230
1.0
 70
     8
 71
     3
 72
    27
 73
    23
 74
     0
 42
0.000000001
 43
0.00000001
 40
0.0
 40
0.0
 40
0.0
 40
0.0
 40
0.0567196362764613
 40
0.1114280005485025
 40
0.1642710911803867
 40
0.2163343264019039
 40
0.2672831525731985
 40
0.3174122530729432
 40
0.3673221138318776
 40
0.4182222313367402
 40
0.4714117085699807
 40
0.5279684586103854
 40
0.5880588739916043
 40
0.6522074888314343
 40
0.6864152270246869
 40
0.7232779265513751
 40
0.7626212362197993
 40
0.8047464307438111
 40
0.8494584675399354
 40
0.896719818281155
 40
0.9468940394925561
 40
1.0
 40
1.0
 40
1.0
 40
1.0
 10
9.50852546075292
 20
6.699427957872214
 30
0.0
 10
9.50929745458177
 20
6.698956499675813
 30
0.0
 10
9.510814067424015
 20
6.698030301138306
 30
0.0
 10
9.513025524224883
 20
6.696328190176413
 30
0.0
 10
9.515116110522804
 20
6.694424747178611
 30
0.0
 10
9.517069974051642
 20
6.692327409376175
 30
0.0
 10
9.518861381536778
 20
6.690051410722561
 30
0.0
 10
9.52046790618287
 20
6.687631729183462
 30
0.0
 10
9.52185074627227
 20
6.68506852193698
 30
0.0
 10
9.523037225573637
 20
6.682382075696727
 30
0.0
 10
9.524055530199723
 20
6.679556728245931
 30
0.0
 10
9.524966179422394
 20
6.67657673110234
 30
0.0
 10
9.52578273930384
 20
6.673424392267616
 30
0.0
 10
9.526380406380719
 20
6.670686307481107
 30
0.0
 10
9.526799428236668
 20
6.66837514620561
 30
0.0
 10
9.527054539912397
 20
6.666517973987035
 30
0.0
 10
9.527290082105374
 20
6.664542671858664
 30
0.0
 10
9.527457037586663
 20
6.662473131711087
 30
0.0
 10
9.52762692837332
 20
6.660277287017547
 30
0.0
 10
9.527710805526953
 20
6.657997339617002
 30
0.0
 10
9.527774816163364
 20
6.655596618953325
 30
0.0
 10
9.527784571617119
 20
6.65396848691706
 30
0.0
 10
9.527789587804477
 20
6.653131312599784
 30
0.0
  0
SPLINE
  5
24D
330
1F
100
AcDbEntity
  8
0
  6
Continuous
 62
     7
370
    18
100
AcDbSpline
210
0.0
220
0.0
230
1.0
 70
     8
 71
     3
 72
    31
 73
    27
 74
     0
 42
0.000000001
 43
0.00000001
 40
0.0
 40
0.0
 40
0.0
 40
0.0
 40
0.0631062077160515
 40
0.1235984861642909
 40
0.1809500532795177
 40
0.2352307003011596
 40
0.2870631704073541
 40
0.3362765070450819
 40
0.3826220599819554
 40
0.4265680494373587
 40
0.4681610595943256
 40
0.5081947319458068
 40
0.5465684502053744
 40
0.5834353656443687
 40
0.6191864383818936
 40
0.6535423560669018
 40
0.6873215086103884
 40
0.720583215672023
 40
0.7533869536543236
 40
0.7864125730603113
 40
0.8195275789583777
 40
0.8535644201015122
 40
0.8883228813126366
 40
0.9240057964313777
 40
0.961355357261267
 40
1.0
 40
1.0
 40
1.0
 40
1.0
 10
9.489261333701364
 20
6.675373200261621
 30
0.0
 10
9.489269099250574
 20
6.676360591836018
 30
0.0
 10
9.489284308691314
 20
6.678294476128293
 30
0.0
 10
9.489378592927293
 20
6.681082522179171
 30
0.0
 10
9.489543360339077
 20
6.683686755290541
 30
0.0
 10
9.489788801302481
 20
6.68609908241883
 30
0.0
 10
9.490081655389911
 20
6.688348515782399
 30
0.0
 10
9.49045681386802
 20
6.690408467819747
 30
0.0
 10
9.490884930864015
 20
6.692298436934431
 30
0.0
 10
9.491392392291363
 20
6.693995079815951
 30
0.0
 10
9.491959339382449
 20
6.695530503704774
 30
0.0
 10
9.492591789233645
 20
6.696906477247062
 30
0.0
 10
9.493311996134025
 20
6.698101260011422
 30
0.0
 10
9.494059154096494
 20
6.699188295265074
 30
0.0
 10
9.494909234227514
 20
6.700065466924479
 30
0.0
 10
9.495802529862923
 20
6.700816926912575
 30
0.0
 10
9.496766242450068
 20
6.701404962599423
 30
0.0
 10
9.497804505056196
 20
6.701821652548319
 30
0.0
 10
9.49890926892777
 20
6.702080911909629
 30
0.0
 10
9.500077055648577
 20
6.702185286806602
 30
0.0
 10
9.501316283576005
 20
6.702133011348204
 30
0.0
 10
9.502630448083504
 20
6.701893866888397
 30
0.0
 10
9.504006757712112
 20
6.701517473615323
 30
0.0
 10
9.505450658706227
 20
6.700993027281661
 30
0.0
 10
9.506964725204387
 20
6.700300837939464
 30
0.0
 10
9.507999338329103
 20
6.699722204887419
 30
0.0
 10
9.50852546075292
 20
6.699427957872214
 30
0.0
  0
SPLINE
  5
24E
330
1F
100
AcDbEntity
  8
0
  6
Continuous
 62
     7
370
    18
100
AcDbSpline
210
0.0
220
0.0
230
1.0
 70
     8
 71
     3
 72
    15
 73
    11
 74
     0
 42
0.000000001
 43
0.00000001
 40
0.0
 40
0.0
 40
0.0
 40
0.0
 40
0.097420668177216
 40
0.2008855880393196
 40
0.3111719701726499
 40
0.4297979458253723
 40
0.557739926364589
 40
0.6947152693641601
 40
0.8421299102060559
 40
0.9999999999999999
 40
0.9999999999999999
 40
0.9999999999999999
 40
0.9999999999999999
 10
9.495100772213867
 20
6.643569630784259
 30
0.0
 10
9.494624429375415
 20
6.644638091783865
 30
0.0
 10
9.493642190051858
 20
6.646841304102348
 30
0.0
 10
9.492492564088653
 20
6.650294803672804
 30
0.0
 10
9.491467077375619
 20
6.653958020776038
 30
0.0
 10
9.49066225832353
 20
6.657835487644892
 30
0.0
 10
9.49003188438102
 20
6.661926725524783
 30
0.0
 10
9.489576597009576
 20
6.666238677924771
 30
0.0
 10
9.489318949179925
 20
6.670756575938311
 30
0.0
 10
9.48928097240612
 20
6.673799586289969
 30
0.0
 10
9.489261333701364
 20
6.675373200261621
 30
0.0
  0
SPLINE
  5
24F
330
1F
100
AcDbEntity
  8
0
  6
Continuous
 62
     7
370
    18
100
AcDbSpline
210
0.0
220
0.0
230
1.0
 70
     8
 71
     3
 72
    15
 73
    11
 74
     0
 42
0.000000001
 43
0.00000001
 40
0.0
 40
0.0
 40
0.0
 40
0.0
 40
0.1379032299933895
 40
0.2688733426002943
 40
0.3951781273461132
 40
0.5170892381308839
 40
0.6367430265135502
 40
0.756221816463797
 40
0.8766283594636818
 40
1.0
 40
1.0
 40
1.0
 40
1.0
 10
9.50852546075292
 20
6.62913216874641
 30
0.0
 10
9.507830395211927
 20
6.629556316777577
 30
0.0
 10
9.506475208713814
 20
6.630383288697689
 30
0.0
 10
9.504496058758996
 20
6.631829124922884
 30
0.0
 10
9.502638520959737
 20
6.633435276115065
 30
0.0
 10
9.500886928048454
 20
6.635162373645961
 30
0.0
 10
9.499260968408397
 20
6.637058610367498
 30
0.0
 10
9.49775287872882
 20
6.639094307476118
 30
0.0
 10
9.496332355034808
 20
6.641259851907537
 30
0.0
 10
9.495514615236834
 20
6.6427934865766
 30
0.0
 10
9.495100772213867
 20
6.643569630784259
 30
0.0
  0
SPLINE
  5
250
330
1F
100
AcDbEntity
  8
0
  6
Continuous
 62
     7
370
    18
100
AcDbSpline
210
0.0
220
0.0
230
1.0
 70
     8
 71
     3
 72
    31
 73
    27
 74
     0
 42
0.000000001
 43
0.00000001
 40
0.0
 40
0.0
 40
0.0
 40
0.0
 40
0.0628729369832531
 40
0.1228346582660095
 40
0.17965368366555
 40
0.233956256795564
 40
0.2855473950458365
 40
0.3345189820567467
 40
0.3806227038405212
 40
0.4245295031767599
 40
0.4664416769228077
 40
0.5065145853718174
 40
0.5447930111054543
 40
0.5818456530092796
 40
0.6174621814237213
 40
0.6520802585584685
 40
0.6858925172859709
 40
0.719186823394995
 40
0.7521933849929773
 40
0.7852513720621817
 40
0.8186671215359255
 40
0.852835618843419
 40
0.8876281460368513
 40
0.9236363038488349
 40
0.9610224701392104
 40
1.0
 40
1.0
 40
1.0
 40
1.0
 10
9.458438730418873
 20
6.69316671039109
 30
0.0
 10
9.458430864694243
 20
6.692184027523528
 30
0.0
 10
9.458415497452899
 20
6.690264163111071
 30
0.0
 10
9.458323111723333
 20
6.687497925508408
 30
0.0
 10
9.458150635011977
 20
6.684918111929812
 30
0.0
 10
9.45792852118321
 20
6.682503827815394
 30
0.0
 10
9.457628955078818
 20
6.680268933986619
 30
0.0
 10
9.457257013397394
 20
6.678220268596551
 30
0.0
 10
9.456821811775718
 20
6.676347171006035
 30
0.0
 10
9.456332443972657
 20
6.674635857731069
 30
0.0
 10
9.455767885710827
 20
6.673094074684755
 30
0.0
 10
9.455128181039933
 20
6.671724171194621
 30
0.0
 10
9.454429822283254
 20
6.670503158661796
 30
0.0
 10
9.4536608874743
 20
6.669446161494379
 30
0.0
 10
9.452825348877742
 20
6.668545928489492
 30
0.0
 10
9.451936701169018
 20
6.667785469658783
 30
0.0
 10
9.450970236929779
 20
6.667196750935427
 30
0.0
 10
9.449927912112777
 20
6.666784462014521
 30
0.0
 10
9.448830672858294
 20
6.666504311337923
 30
0.0
 10
9.447656481077038
 20
6.666400654377664
 30
0.0
 10
9.446408063530395
 20
6.666469383070317
 30
0.0
 10
9.445096552112101
 20
6.66668159478509
 30
0.0
 10
9.443713240187591
 20
6.667066045267916
 30
0.0
 10
9.442265335857844
 20
6.667594430684447
 30
0.0
 10
9.440743392803137
 20
6.6682893802789
 30
0.0
 10
9.439704748044933
 20
6.668870799004459
 30
0.0
 10
9.439174603367317
 20
6.669167566537715
 30
0.0
  0
SPLINE
  5
251
330
1F
100
AcDbEntity
  8
0
  6
Continuous
 62
     7
370
    18
100
AcDbSpline
210
0.0
220
0.0
230
1.0
 70
     8
 71
     3
 72
    27
 73
    23
 74
     0
 42
0.000000001
 43
0.00000001
 40
0.0
 40
0.0
 40
0.0
 40
0.0
 40
0.0567196362764613
 40
0.1114280005485048
 40
0.1642710911803867
 40
0.2163343264019039
 40
0.2672831525731984
 40
0.3174122530729432
 40
0.3673221138318776
 40
0.4182222313367402
 40
0.4714117085699806
 40
0.5279684586103853
 40
0.5880588739916042
 40
0.6522074888314342
 40
0.6864152270246868
 40
0.7232779265513751
 40
0.7626212362197992
 40
0.804746430743811
 40
0.8494584675399354
 40
0.896719818281155
 40
0.9468940394925561
 40
1.0
 40
1.0
 40
1.0
 40
1.0
 10
9.439174603367317
 20
6.739463355663521
 30
0.0
 10
9.439946597196165
 20
6.738991897467119
 30
0.0
 10
9.441463210038412
 20
6.738065698929613
 30
0.0
 10
9.44367466683928
 20
6.73636358796772
 30
0.0
 10
9.4457652531372
 20
6.734460144969918
 30
0.0
 10
9.447719116666038
 20
6.732362807167481
 30
0.0
 10
9.449510524151176
 20
6.730086808513867
 30
0.0
 10
9.451117048797265
 20
6.727667126974768
 30
0.0
 10
9.452499888886665
 20
6.725103919728286
 30
0.0
 10
9.453686368188034
 20
6.722417473488033
 30
0.0
 10
9.45470467281412
 20
6.719592126037238
 30
0.0
 10
9.45561532203679
 20
6.716612128893646
 30
0.0
 10
9.456431881918238
 20
6.713459790058923
 30
0.0
 10
9.457029548995116
 20
6.710721705272413
 30
0.0
 10
9.457448570851064
 20
6.708410543996916
 30
0.0
 10
9.457703682526795
 20
6.706553371778341
 30
0.0
 10
9.45793922471977
 20
6.70457806964997
 30
0.0
 10
9.45810618020106
 20
6.702508529502393
 30
0.0
 10
9.458276070987715
 20
6.700312684808853
 30
0.0
 10
9.45835994814135
 20
6.698032737408308
 30
0.0
 10
9.458423958777761
 20
6.695632016744631
 30
0.0
 10
9.458433714231514
 20
6.694003884708366
 30
0.0
 10
9.458438730418873
 20
6.69316671039109
 30
0.0
  0
SPLINE
  5
252
330
1F
100
AcDbEntity
  8
0
  6
Continuous
 62
     7
370
    18
100
AcDbSpline
210
0.0
220
0.0
230
1.0
 70
     8
 71
     3
 72
    31
 73
    27
 74
     0
 42
0.000000001
 43
0.00000001
 40
0.0
 40
0.0
 40
0.0
 40
0.0
 40
0.0631062077160515
 40
0.1235984861642909
 40
0.1809500532795177
 40
0.2352307003011597
 40
0.2870631704073545
 40
0.3362765070450818
 40
0.3826220599819554
 40
0.4265680494373587
 40
0.4681610595943255
 40
0.5081947319458068
 40
0.5465684502053743
 40
0.5834353656443686
 40
0.6191864383818935
 40
0.6535423560669017
 40
0.6873215086103884
 40
0.720583215672023
 40
0.7533869536543235
 40
0.7864125730603113
 40
0.8195275789583777
 40
0.8535644201015122
 40
0.888322881312639
 40
0.9240057964313777
 40
0.961355357261267
 40
1.0
 40
1.0
 40
1.0
 40
1.0
 10
9.41991047631576
 20
6.715408598052926
 30
0.0
 10
9.41991824186497
 20
6.716395989627324
 30
0.0
 10
9.41993345130571
 20
6.718329873919598
 30
0.0
 10
9.420027735541689
 20
6.721117919970477
 30
0.0
 10
9.420192502953473
 20
6.723722153081847
 30
0.0
 10
9.420437943916877
 20
6.726134480210137
 30
0.0
 10
9.420730798004307
 20
6.728383913573706
 30
0.0
 10
9.421105956482418
 20
6.730443865611054
 30
0.0
 10
9.42153407347841
 20
6.732333834725737
 30
0.0
 10
9.422041534905759
 20
6.734030477607257
 30
0.0
 10
9.422608481996845
 20
6.735565901496081
 30
0.0
 10
9.423240931848042
 20
6.736941875038368
 30
0.0
 10
9.423961138748423
 20
6.738136657802729
 30
0.0
 10
9.42470829671089
 20
6.739223693056379
 30
0.0
 10
9.42555837684191
 20
6.740100864715785
 30
0.0
 10
9.42645167247732
 20
6.740852324703881
 30
0.0
 10
9.427415385064466
 20
6.741440360390729
 30
0.0
 10
9.428453647670594
 20
6.741857050339626
 30
0.0
 10
9.429558411542166
 20
6.742116309700936
 30
0.0
 10
9.430726198262972
 20
6.742220684597908
 30
0.0
 10
9.4319654261904
 20
6.74216840913951
 30
0.0
 10
9.433279590697902
 20
6.741929264679702
 30
0.0
 10
9.43465590032651
 20
6.74155287140663
 30
0.0
 10
9.436099801320625
 20
6.741028425072966
 30
0.0
 10
9.437613867818783
 20
6.74033623573077
 30
0.0
 10
9.4386484809435
 20
6.739757602678726
 30
0.0
 10
9.439174603367317
 20
6.739463355663521
 30
0.0
  0
SPLINE
  5
253
330
1F
100
AcDbEntity
  8
0
  6
Continuous
 62
     7
370
    18
100
AcDbSpline
210
0.0
220
0.0
230
1.0
 70
     8
 71
     3
 72
    15
 73
    11
 74
     0
 42
0.000000001
 43
0.00000001
 40
0.0
 40
0.0
 40
0.0
 40
0.0
 40
0.097420668177216
 40
0.2008855880393196
 40
0.3111719701726499
 40
0.4297979458253723
 40
0.557739926364589
 40
0.6947152693641601
 40
0.8421299102060559
 40
0.9999999999999999
 40
0.9999999999999999
 40
0.9999999999999999
 40
0.9999999999999999
 10
9.425749914828264
 20
6.683605028575565
 30
0.0
 10
9.42527357198981
 20
6.684673489575172
 30
0.0
 10
9.424291332666254
 20
6.686876701893653
 30
0.0
 10
9.42314170670305
 20
6.690330201464109
 30
0.0
 10
9.422116219990016
 20
6.693993418567344
 30
0.0
 10
9.421311400937928
 20
6.697870885436198
 30
0.0
 10
9.420681026995418
 20
6.701962123316088
 30
0.0
 10
9.420225739623973
 20
6.706274075716077
 30
0.0
 10
9.41996809179432
 20
6.710791973729617
 30
0.0
 10
9.419930115020515
 20
6.713834984081275
 30
0.0
 10
9.41991047631576
 20
6.715408598052926
 30
0.0
  0
SPLINE
  5
254
330
1F
100
AcDbEntity
  8
0
  6
Continuous
 62
     7
370
    18
100
AcDbSpline
210
0.0
220
0.0
230
1.0
 70
     8
 71
     3
 72
    15
 73
    11
 74
     0
 42
0.000000001
 43
0.00000001
 40
0.0
 40
0.0
 40
0.0
 40
0.0
 40
0.1379032299933958
 40
0.2688733426002942
 40
0.3951781273461131
 40
0.5170892381308898
 40
0.6367430265135503
 40
0.756221816463797
 40
0.8766283594636818
 40
1.0
 40
1.0
 40
1.0
 40
1.0
 10
9.439174603367317
 20
6.669167566537715
 30
0.0
 10
9.438479537826323
 20
6.669591714568883
 30
0.0
 10
9.437124351328212
 20
6.670418686488995
 30
0.0
 10
9.435145201373391
 20
6.67186452271419
 30
0.0
 10
9.433287663574133
 20
6.673470673906372
 30
0.0
 10
9.43153607066285
 20
6.675197771437268
 30
0.0
 10
9.429910111022794
 20
6.677094008158805
 30
0.0
 10
9.428402021343217
 20
6.679129705267424
 30
0.0
 10
9.426981497649205
 20
6.681295249698843
 30
0.0
 10
9.42616375785123
 20
6.682828884367905
 30
0.0
 10
9.425749914828264
 20
6.683605028575565
 30
0.0
  0
LINE
  5
255
330
1F
100
AcDbEntity
  8
0
  6
Continuous
 62
     7
370
    18
100
AcDbLine
 10
10.7335109027
 20
7.4416018703
 30
0.0
 11
10.6430012347
 21
7.3893517511
 31
0.0
  0
LINE
  5
256
330
1F
100
AcDbEntity
  8
0
  6
Continuous
 62
     7
370
    18
100
AcDbLine
 10
10.7335109027
 20
7.4416018703
 30
0.0
 11
10.7335109027
 21
5.8085202465
 31
0.0
  0
LINE
  5
257
330
1F
100
AcDbEntity
  8
0
  6
Continuous
 62
     7
370
    18
100
AcDbLine
 10
10.6430012347
 20
5.8607873513
 30
0.0
 11
10.7335109027
 21
5.8085202465
 31
0.0
  0
LINE
  5
258
330
1F
100
AcDbEntity
  8
0
  6
Continuous
 62
     7
370
    18
100
AcDbLine
 10
9.3900080184
 20
8.2171895765
 30
0.0
 11
9.2994983504
 21
8.1649394573
 31
0.0
  0
LINE
  5
259
330
1F
100
AcDbEntity
  8
0
  6
Continuous
 62
     7
370
    18
100
AcDbLine
 10
9.3900080184
 20
8.2171895765
 30
0.0
 11
10.7335109027
 21
7.4416018703
 31
0.0
  0
LWPOLYLINE
  5
25A
330
1F
100
AcDbEntity
  8
0
  6
Continuous
 62
     7
370
    18
100
AcDbPolyline
 90
       74
 70
   128
 43
0.0
 10
9.4782195893
 20
7.3940354864
 10
9.4786965379
 20
7.3681683754
 10
9.4801265005
 20
7.3417984911
 10
9.482506829
 20
7.3149746647
 10
9.4858331157
 20
7.2877465676
 10
9.4900992011
 20
7.26016462
 10
9.4952971853
 20
7.2322798973
 10
9.5014174429
 20
7.2041440356
 10
9.5084486406
 20
7.175809136
 10
9.5163777581
 20
7.1473276684
 10
9.5251901127
 20
7.1187523737
 10
9.5348693859
 20
7.0901361668
 10
9.5453976538
 20
7.0615320384
 10
9.5567554206
 20
7.0329929568
 10
9.5689216542
 20
7.0045717697
 10
9.5818738257
 20
6.9763211066
 10
9.5955879505
 20
6.9482932813
 10
9.6100386333
 20
6.9205401949
 10
9.6251991148
 20
6.8931132396
 10
9.6410413211
 20
6.8660632039
 10
9.6575359163
 20
6.8394401782
 10
9.674652356
 20
6.8132934622
 10
9.6923589447
 20
6.7876714737
 10
9.7106228937
 20
6.7626216587
 10
9.7294103824
 20
6.7381904035
 10
9.7486866208
 20
6.7144229494
 10
9.7684159136
 20
6.6913633082
 10
9.7885617268
 20
6.669054181
 10
9.809086755
 20
6.6475368791
 10
9.8299529905
 20
6.6268512477
 10
9.8511217939
 20
6.6070355918
 10
9.8725539654
 20
6.5881266054
 10
9.8942098175
 20
6.5701593037
 10
9.9160492487
 20
6.5531669579
 10
9.9380318173
 20
6.5371810339
 10
9.9601168167
 20
6.5222311339
 10
9.9822633505
 20
6.5083449419
 10
10.0044304084
 20
6.4955481717
 10
10.0265769422
 20
6.4838645201
 10
10.0486619416
 20
6.4733156226
 10
10.0706445102
 20
6.4639210131
 10
10.0924839413
 20
6.4556980884
 10
10.1141397935
 20
6.4486620755
 10
10.135571965
 20
6.4428260033
 10
10.1567407684
 20
6.4382006791
 10
10.1776070039
 20
6.4347946678
 10
10.1981320321
 20
6.4326142765
 10
10.2182778453
 20
6.4316635429
 10
10.2380071381
 20
6.4319442275
 10
10.2572833765
 20
6.4334558105
 10
10.2760708652
 20
6.4361954928
 10
10.2943348142
 20
6.4401582012
 10
10.3120414029
 20
6.4453365977
 10
10.3291578426
 20
6.451721093
 10
10.3456524377
 20
6.4592998645
 10
10.3614946441
 20
6.468058878
 10
10.3766551255
 20
6.477981914
 10
10.3911058083
 20
6.4890505973
 10
10.4048199332
 20
6.5012444311
 10
10.4177721046
 20
6.5145408353
 10
10.4299383383
 20
6.528915188
 10
10.4412961051
 20
6.5443408712
 10
10.451824373
 20
6.5607893202
 10
10.4615036462
 20
6.5782300762
 10
10.4703160008
 20
6.5966308428
 10
10.4782451183
 20
6.6159575462
 10
10.485276316
 20
6.6361743977
 10
10.4913965736
 20
6.6572439604
 10
10.4965945578
 20
6.6791272182
 10
10.5008606432
 20
6.7017836485
 10
10.5041869299
 20
6.7251712968
 10
10.5065672584
 20
6.7492468544
 10
10.507997221
 20
6.773965739
 10
10.508358184
 20
6.7867267148
  0
LWPOLYLINE
  5
25B
330
1F
100
AcDbEntity
  8
0
  6
Continuous
 62
     7
370
    18
100
AcDbPolyline
 90
       38
 70
   128
 43
0.0
 10
9.9824998399
 20
7.6976387837
 10
9.9822633505
 20
7.6977694916
 10
9.9601168167
 20
7.7094531432
 10
9.9380318173
 20
7.7200020408
 10
9.9160492487
 20
7.7293966503
 10
9.8942098175
 20
7.737619575
 10
9.8725539654
 20
7.7446555879
 10
9.8511217939
 20
7.75049166
 10
9.8299529905
 20
7.7551169843
 10
9.809086755
 20
7.7585229956
 10
9.7885617268
 20
7.7607033869
 10
9.7684159136
 20
7.7616541205
 10
9.7486866208
 20
7.7613734359
 10
9.7294103824
 20
7.7598618529
 10
9.7106228937
 20
7.7571221705
 10
9.6923589447
 20
7.7531594621
 10
9.674652356
 20
7.7479810657
 10
9.6575359163
 20
7.7415965704
 10
9.6410413211
 20
7.7340177989
 10
9.6251991148
 20
7.7252587853
 10
9.6100386333
 20
7.7153357493
 10
9.5955879505
 20
7.7042670661
 10
9.5818738257
 20
7.6920732323
 10
9.5689216542
 20
7.6787768281
 10
9.5567554206
 20
7.6644024754
 10
9.5453976538
 20
7.6489767921
 10
9.5348693859
 20
7.6325283432
 10
9.5251901127
 20
7.6150875872
 10
9.5163777581
 20
7.5966868206
 10
9.5084486406
 20
7.5773601172
 10
9.5014174429
 20
7.5571432657
 10
9.4952971853
 20
7.536073703
 10
9.4900992011
 20
7.5141904451
 10
9.4858331157
 20
7.4915340148
 10
9.482506829
 20
7.4681463666
 10
9.4801265005
 20
7.444070809
 10
9.4786965379
 20
7.4193519244
 10
9.4782195893
 20
7.3940354864
  0
LWPOLYLINE
  5
25C
330
1F
100
AcDbEntity
  8
0
  6
Continuous
 62
     7
370
    18
100
AcDbPolyline
 90
       75
 70
   128
 43
0.0
 10
10.3581854716
 20
6.4661003244
 10
10.3468898746
 20
6.4600142216
 10
10.3303952795
 20
6.4524354501
 10
10.3132788397
 20
6.4460509548
 10
10.2955722511
 20
6.4408725583
 10
10.2773083021
 20
6.4369098499
 10
10.2585208134
 20
6.4341701676
 10
10.239244575
 20
6.4326585846
 10
10.2195152821
 20
6.4323779
 10
10.1993694689
 20
6.4333286336
 10
10.1788444408
 20
6.4355090249
 10
10.1579782052
 20
6.4389150362
 10
10.1368094019
 20
6.4435403604
 10
10.1153772304
 20
6.4493764325
 10
10.0937213782
 20
6.4564124455
 10
10.071881947
 20
6.4646353702
 10
10.0498993784
 20
6.4740299797
 10
10.0278143791
 20
6.4845788772
 10
10.0056678453
 20
6.4962625288
 10
9.9835007873
 20
6.509059299
 10
9.9613542536
 20
6.522945491
 10
9.9392692542
 20
6.537895391
 10
9.9172866856
 20
6.5538813149
 10
9.8954472544
 20
6.5708736608
 10
9.8737914023
 20
6.5888409625
 10
9.8523592308
 20
6.6077499489
 10
9.8311904274
 20
6.6275656048
 10
9.8103241919
 20
6.6482512362
 10
9.7897991637
 20
6.6697685381
 10
9.7696533505
 20
6.6920776653
 10
9.7499240576
 20
6.7151373065
 10
9.7306478193
 20
6.7389047606
 10
9.7118603305
 20
6.7633360158
 10
9.6935963815
 20
6.7883858308
 10
9.6758897929
 20
6.8140078193
 10
9.6587733531
 20
6.8401545353
 10
9.642278758
 20
6.866777561
 10
9.6264365517
 20
6.8938275967
 10
9.6112760702
 20
6.921254552
 10
9.5968253874
 20
6.9490076384
 10
9.5831112626
 20
6.9770354637
 10
9.5701590911
 20
7.0052861268
 10
9.5579928575
 20
7.0337073139
 10
9.5466350907
 20
7.0622463955
 10
9.5361068228
 20
7.0908505239
 10
9.5264275496
 20
7.1194667308
 10
9.517615195
 20
7.1480420255
 10
9.5096860774
 20
7.1765234931
 10
9.5026548798
 20
7.2048583927
 10
9.4965346222
 20
7.2329942544
 10
9.4913366379
 20
7.2608789771
 10
9.4870705526
 20
7.2884609247
 10
9.4837442659
 20
7.3156890218
 10
9.4813639373
 20
7.3425128482
 10
9.4799339748
 20
7.3688827325
 10
9.4794570262
 20
7.3947498435
 10
9.4799339748
 20
7.4200662815
 10
9.4813639373
 20
7.4447851661
 10
9.4837442659
 20
7.4688607237
 10
9.4870705526
 20
7.4922483719
 10
9.4913366379
 20
7.5149048022
 10
9.4965346222
 20
7.5367880601
 10
9.5026548798
 20
7.5578576228
 10
9.5096860774
 20
7.5780744743
 10
9.517615195
 20
7.5974011777
 10
9.5264275496
 20
7.6158019443
 10
9.5361068228
 20
7.6332427003
 10
9.5466350907
 20
7.6496911492
 10
9.5579928575
 20
7.6651168325
 10
9.5701590911
 20
7.6794911852
 10
9.5831112626
 20
7.6927875894
 10
9.5968253874
 20
7.7049814232
 10
9.6112760702
 20
7.7160501064
 10
9.6264365517
 20
7.7259731424
 10
9.6297457265
 20
7.7279316974
  0
ARC
  5
25D
330
1F
100
AcDbEntity
  8
0
  6
Continuous
 62
     7
370
    18
100
AcDbCircle
 10
10.6039789751
 20
7.4491746946
 30
0.0
 40
1.125648263029324
100
AcDbArc
 50
182.5633167124
 51
237.4366834332
  0
LINE
  5
25E
330
1F
100
AcDbEntity
  8
0
  6
Continuous
 62
     7
370
    18
100
AcDbLine
 10
10.5194433901
 20
6.0472478984
 30
0.0
 11
10.5194433901
 21
6.1158374593
 31
0.0
  0
SPLINE
  5
25F
330
1F
100
AcDbEntity
  8
0
  6
Continuous
 62
     7
370
    18
100
AcDbSpline
210
0.0
220
0.0
230
1.0
 70
     8
 71
     3
 72
    10
 73
     6
 74
     0
 42
0.000000001
 43
0.00000001
 40
0.0
 40
0.0
 40
0.0
 40
0.0
 40
0.1397011331202504
 40
0.569325752281832
 40
1.0
 40
1.0
 40
1.0
 40
1.0
 10
10.56107770091796
 20
6.061311214695296
 30
0.0
 10
10.56072855461805
 20
6.060947071999514
 30
0.0
 10
10.55930567439214
 20
6.059463076776402
 30
0.0
 10
10.55508125736366
 20
6.059978590775185
 30
0.0
 10
10.5515193543209
 20
6.061188197261091
 30
0.0
 10
10.5497362299063
 20
6.061793738408952
 30
0.0
  0
LINE
  5
260
330
1F
100
AcDbEntity
  8
0
  6
Continuous
 62
     7
370
    18
100
AcDbLine
 10
10.5694743875
 20
6.0183656184
 30
0.0
 11
10.5608853434
 21
6.023323968
 31
0.0
  0
LINE
  5
261
330
1F
100
AcDbEntity
  8
0
  6
Continuous
 62
     7
370
    18
100
AcDbLine
 10
10.5608853434
 20
6.023323968
 30
0.0
 11
10.553396414
 21
6.0423014599
 31
0.0
  0
SPLINE
  5
262
330
1F
100
AcDbEntity
  8
0
  6
Continuous
 62
     7
370
    18
100
AcDbSpline
210
0.0
220
0.0
230
1.0
 70
     8
 71
     3
 72
    21
 73
    17
 74
     0
 42
0.000000001
 43
0.00000001
 40
0.0
 40
0.0
 40
0.0
 40
0.0
 40
0.0807565202394666
 40
0.1564928761205837
 40
0.2278645863309012
 40
0.2942194159581935
 40
0.3567576405439986
 40
0.4148044898400759
 40
0.4680257207328432
 40
0.5167566765914664
 40
0.6042176202059655
 40
0.6814453118756422
 40
0.7479519834168781
 40
0.8047659882074071
 40
0.9054352660002635
 40
1.0
 40
1.0
 40
1.0
 40
1.0
 10
10.5533964140461
 20
6.042301459949895
 30
0.0
 10
10.55312713327235
 20
6.042971060767437
 30
0.0
 10
10.55260531134835
 20
6.044268637204349
 30
0.0
 10
10.55185182838758
 20
6.046158922515154
 30
0.0
 10
10.55111206898573
 20
6.047925061074226
 30
0.0
 10
10.55042928863907
 20
6.049583767827277
 30
0.0
 10
10.5497601864371
 20
6.051126691193692
 30
0.0
 10
10.54916038107989
 20
6.052565497435294
 30
0.0
 10
10.54855802005489
 20
6.053879772886059
 30
0.0
 10
10.54786637591755
 20
6.055440238170685
 30
0.0
 10
10.54702170599562
 20
6.057183309568077
 30
0.0
 10
10.54603603592134
 20
6.059042041026355
 30
0.0
 10
10.5451297778689
 20
6.060633556325709
 30
0.0
 10
10.54398457952098
 20
6.062314007134953
 30
0.0
 10
10.54256058542351
 20
6.064069368453315
 30
0.0
 10
10.541359955327
 20
6.065205213332982
 30
0.0
 10
10.54077841082733
 20
6.065755378070798
 30
0.0
  0
SPLINE
  5
263
330
1F
100
AcDbEntity
  8
0
  6
Continuous
 62
     7
370
    18
100
AcDbSpline
210
0.0
220
0.0
230
1.0
 70
     8
 71
     3
 72
    11
 73
     7
 74
     0
 42
0.000000001
 43
0.00000001
 40
0.0
 40
0.0
 40
0.0
 40
0.0
 40
0.1774946570818461
 40
0.4052256231013636
 40
0.67838810833485
 40
1.0
 40
1.0
 40
1.0
 40
1.0
 10
10.54077841082733
 20
6.065755378070798
 30
0.0
 10
10.54053410506588
 20
6.065947287757153
 30
0.0
 10
10.53997634768863
 20
6.066385423324221
 30
0.0
 10
10.53902927705386
 20
6.067008012717953
 30
0.0
 10
10.53788178479162
 20
6.067750958120731
 30
0.0
 10
10.53705017759387
 20
6.068228688881217
 30
0.0
 10
10.53660050327302
 20
6.068487011868143
 30
0.0
  0
LINE
  5
264
330
1F
100
AcDbEntity
  8
0
  6
Continuous
 62
     7
370
    18
100
AcDbLine
 10
10.5366005033
 20
6.0684870119
 30
0.0
 11
10.527919606
 21
6.0734983872
 31
0.0
  0
LINE
  5
265
330
1F
100
AcDbEntity
  8
0
  6
Continuous
 62
     7
370
    18
100
AcDbLine
 10
10.5272124992
 20
6.0427628872
 30
0.0
 11
10.5194433901
 21
6.0472478984
 31
0.0
  0
SPLINE
  5
266
330
1F
100
AcDbEntity
  8
0
  6
Continuous
 62
     7
370
    18
100
AcDbSpline
210
0.0
220
0.0
230
1.0
 70
     8
 71
     3
 72
     9
 73
     5
 74
     0
 42
0.000000001
 43
0.00000001
 40
0.0
 40
0.0
 40
0.0
 40
0.0
 40
0.4590142478265531
 40
1.0
 40
1.0
 40
1.0
 40
1.0
 10
10.55439961343768
 20
6.069605011316414
 30
0.0
 10
10.55517467035821
 20
6.070202292537279
 30
0.0
 10
10.55686319511358
 20
6.071503518422302
 30
0.0
 10
10.55708245997357
 20
6.074378767725277
 30
0.0
 10
10.55720107913878
 20
6.075934236632134
 30
0.0
  0
SPLINE
  5
267
330
1F
100
AcDbEntity
  8
0
  6
Continuous
 62
     7
370
    18
100
AcDbSpline
210
0.0
220
0.0
230
1.0
 70
     8
 71
     3
 72
    23
 73
    19
 74
     0
 42
0.000000001
 43
0.00000001
 40
0.0
 40
0.0
 40
0.0
 40
0.0
 40
0.0603272326790053
 40
0.1181633268525656
 40
0.1741915946005239
 40
0.2288671201359929
 40
0.2834295822545154
 40
0.3378078149372621
 40
0.3926149530011026
 40
0.4484500033868906
 40
0.5059514596840984
 40
0.5650462512987547
 40
0.6266439369048291
 40
0.6922233429555581
 40
0.7611243334651902
 40
0.8353052271782847
 40
0.9153231689797097
 40
1.0
 40
1.0
 40
1.0
 40
1.0
 10
10.55720107913878
 20
6.075934236632134
 30
0.0
 10
10.55718994211138
 20
6.076330273269973
 30
0.0
 10
10.55716812794635
 20
6.077105992702218
 30
0.0
 10
10.55705255376398
 20
6.07829240440275
 30
0.0
 10
10.55683266384917
 20
6.079480433532189
 30
0.0
 10
10.55652902581575
 20
6.080665855523025
 30
0.0
 10
10.55614457576199
 20
6.081849168542834
 30
0.0
 10
10.55567214746475
 20
6.083030728424313
 30
0.0
 10
10.55511417862688
 20
6.0842044859615
 30
0.0
 10
10.55447412295249
 20
6.085372640086034
 30
0.0
 10
10.55373948101366
 20
6.086523550727178
 30
0.0
 10
10.55290027542126
 20
6.087635064382673
 30
0.0
 10
10.55196320760534
 20
6.088708888058741
 30
0.0
 10
10.5509271650003
 20
6.089729898514256
 30
0.0
 10
10.54979541804667
 20
6.090721506570488
 30
0.0
 10
10.54856152199709
 20
6.091658855855393
 30
0.0
 10
10.54723112029567
 20
6.092589715948477
 30
0.0
 10
10.54630922904388
 20
6.093131327177362
 30
0.0
 10
10.54583524417836
 20
6.093409793346758
 30
0.0
  0
LINE
  5
268
330
1F
100
AcDbEntity
  8
0
  6
Continuous
 62
     7
370
    18
100
AcDbLine
 10
10.5458352442
 20
6.0934097933
 30
0.0
 11
10.527919606
 21
6.1037522711
 31
0.0
  0
LINE
  5
269
330
1F
100
AcDbEntity
  8
0
  6
Continuous
 62
     7
370
    18
100
AcDbLine
 10
10.5458352442
 20
6.0934097933
 30
0.0
 11
10.5451281374
 21
6.0930015893
 31
0.0
  0
LINE
  5
26A
330
1F
100
AcDbEntity
  8
0
  6
Continuous
 62
     7
370
    18
100
AcDbLine
 10
10.5572010791
 20
6.0759342366
 30
0.0
 11
10.5564939724
 21
6.0755260326
 31
0.0
  0
SPLINE
  5
26B
330
1F
100
AcDbEntity
  8
0
  6
Continuous
 62
     7
370
    18
100
AcDbSpline
210
0.0
220
0.0
230
1.0
 70
     8
 71
     3
 72
    23
 73
    19
 74
     0
 42
0.000000001
 43
0.00000001
 40
0.0
 40
0.0
 40
0.0
 40
0.0
 40
0.0603272326790053
 40
0.1181633268525656
 40
0.1741915946005239
 40
0.2288671201359929
 40
0.2834295822545154
 40
0.3378078149372621
 40
0.3926149530011026
 40
0.4484500033868906
 40
0.5059514596840984
 40
0.5650462512987547
 40
0.6266439369048291
 40
0.6922233429555581
 40
0.7611243334651902
 40
0.8353052271782847
 40
0.9153231689797097
 40
1.0
 40
1.0
 40
1.0
 40
1.0
 10
10.5564939723576
 20
6.075526032576222
 30
0.0
 10
10.55648283533019
 20
6.075922069214061
 30
0.0
 10
10.55646102116516
 20
6.076697788646306
 30
0.0
 10
10.55634544698279
 20
6.077884200346839
 30
0.0
 10
10.55612555706798
 20
6.079072229476277
 30
0.0
 10
10.55582191903456
 20
6.080257651467114
 30
0.0
 10
10.55543746898081
 20
6.081440964486922
 30
0.0
 10
10.55496504068357
 20
6.082622524368402
 30
0.0
 10
10.55440707184569
 20
6.08379628190559
 30
0.0
 10
10.55376701617131
 20
6.084964436030123
 30
0.0
 10
10.55303237423248
 20
6.086115346671267
 30
0.0
 10
10.55219316864008
 20
6.087226860326762
 30
0.0
 10
10.55125610082416
 20
6.088300684002829
 30
0.0
 10
10.55022005821912
 20
6.089321694458345
 30
0.0
 10
10.54908831126549
 20
6.090313302514578
 30
0.0
 10
10.5478544152159
 20
6.091250651799482
 30
0.0
 10
10.54652401351448
 20
6.092181511892565
 30
0.0
 10
10.54560212226269
 20
6.092723123121451
 30
0.0
 10
10.54512813739718
 20
6.093001589290846
 30
0.0
  0
SPLINE
  5
26C
330
1F
100
AcDbEntity
  8
0
  6
Continuous
 62
     7
370
    18
100
AcDbSpline
210
0.0
220
0.0
230
1.0
 70
     8
 71
     3
 72
    19
 73
    15
 74
     0
 42
0.000000001
 43
0.00000001
 40
0.0
 40
0.0
 40
0.0
 40
0.0
 40
0.128838042999503
 40
0.2408506371773564
 40
0.3379858977314476
 40
0.4208544298319369
 40
0.4947796491112446
 40
0.5659088810869701
 40
0.6370496543952365
 40
0.7093806720350374
 40
0.7821614733091781
 40
0.8536820657736254
 40
0.9261831408996601
 40
1.0
 40
1.0
 40
1.0
 40
1.0
 10
10.54331008540669
 20
6.071805625476976
 30
0.0
 10
10.54411731583708
 20
6.071354078997524
 30
0.0
 10
10.54562635741348
 20
6.070509955206451
 30
0.0
 10
10.54773597690014
 20
6.069526421491577
 30
0.0
 10
10.54954054835722
 20
6.068850946076739
 30
0.0
 10
10.55106312256089
 20
6.068528302608374
 30
0.0
 10
10.55234269772806
 20
6.068534641727129
 30
0.0
 10
10.55345170852066
 20
6.068805513403865
 30
0.0
 10
10.55438419292675
 20
6.069397519094296
 30
0.0
 10
10.5551510808233
 20
6.070250880851092
 30
0.0
 10
10.55575057787035
 20
6.071317253322615
 30
0.0
 10
10.55616947601533
 20
6.072570338522934
 30
0.0
 10
10.55645070955032
 20
6.073956685372953
 30
0.0
 10
10.5564794652254
 20
6.074999790088007
 30
0.0
 10
10.5564939723576
 20
6.075526032576222
 30
0.0
  0
LINE
  5
26D
330
1F
100
AcDbEntity
  8
0
  6
Continuous
 62
     7
370
    18
100
AcDbLine
 10
10.5272124992
 20
6.0810985642
 30
0.0
 11
10.5433100854
 21
6.0718056255
 31
0.0
  0
LINE
  5
26E
330
1F
100
AcDbEntity
  8
0
  6
Continuous
 62
     7
370
    18
100
AcDbLine
 10
10.5272124992
 20
6.1033440671
 30
0.0
 11
10.5272124992
 21
6.0810985642
 31
0.0
  0
LINE
  5
26F
330
1F
100
AcDbEntity
  8
0
  6
Continuous
 62
     7
370
    18
100
AcDbLine
 10
10.5451281374
 20
6.0930015893
 30
0.0
 11
10.5272124992
 21
6.1033440671
 31
0.0
  0
LINE
  5
270
330
1F
100
AcDbEntity
  8
0
  6
Continuous
 62
     7
370
    18
100
AcDbLine
 10
10.5497362299
 20
6.0617937384
 30
0.0
 11
10.5490291231
 21
6.0613855344
 31
0.0
  0
LINE
  5
271
330
1F
100
AcDbEntity
  8
0
  6
Continuous
 62
     7
370
    18
100
AcDbLine
 10
10.527919606
 20
6.1037522711
 30
0.0
 11
10.5272124992
 21
6.1033440671
 31
0.0
  0
LINE
  5
272
330
1F
100
AcDbEntity
  8
0
  6
Continuous
 62
     7
370
    18
100
AcDbLine
 10
10.5407784108
 20
6.0657553781
 30
0.0
 11
10.540071304
 21
6.065347174
 31
0.0
  0
LINE
  5
273
330
1F
100
AcDbEntity
  8
0
  6
Continuous
 62
     7
370
    18
100
AcDbLine
 10
10.553396414
 20
6.0423014599
 30
0.0
 11
10.5526893073
 21
6.0418932559
 31
0.0
  0
LINE
  5
274
330
1F
100
AcDbEntity
  8
0
  6
Continuous
 62
     7
370
    18
100
AcDbLine
 10
10.5194433901
 20
6.0472478984
 30
0.0
 11
10.5187362833
 21
6.0468396944
 31
0.0
  0
LINE
  5
275
330
1F
100
AcDbEntity
  8
0
  6
Continuous
 62
     7
370
    18
100
AcDbLine
 10
10.5608853434
 20
6.023323968
 30
0.0
 11
10.5601782367
 21
6.022915764
 31
0.0
  0
LINE
  5
276
330
1F
100
AcDbEntity
  8
0
  6
Continuous
 62
     7
370
    18
100
AcDbLine
 10
10.5366005033
 20
6.0684870119
 30
0.0
 11
10.5358933965
 21
6.0680788078
 31
0.0
  0
LINE
  5
277
330
1F
100
AcDbEntity
  8
0
  6
Continuous
 62
     7
370
    18
100
AcDbLine
 10
10.4639627042
 20
6.0792762167
 30
0.0
 11
10.4639627042
 21
6.1478657776
 31
0.0
  0
LINE
  5
278
330
1F
100
AcDbEntity
  8
0
  6
Continuous
 62
     7
370
    18
100
AcDbLine
 10
10.5056366769
 20
6.1166159323
 30
0.0
 11
10.4724389201
 21
6.1357805893
 31
0.0
  0
LINE
  5
279
330
1F
100
AcDbEntity
  8
0
  6
Continuous
 62
     7
370
    18
100
AcDbLine
 10
10.5033249817
 20
6.0885863817
 30
0.0
 11
10.4724389201
 21
6.1064165255
 31
0.0
  0
LINE
  5
27A
330
1F
100
AcDbEntity
  8
0
  6
Continuous
 62
     7
370
    18
100
AcDbLine
 10
10.5071778071
 20
6.0543286688
 30
0.0
 11
10.4639627042
 21
6.0792762167
 31
0.0
  0
LINE
  5
27B
330
1F
100
AcDbEntity
  8
0
  6
Continuous
 62
     7
370
    18
100
AcDbLine
 10
10.527919606
 20
6.0734983872
 30
0.0
 11
10.5272124992
 21
6.0730901831
 31
0.0
  0
LINE
  5
27C
330
1F
100
AcDbEntity
  8
0
  6
Continuous
 62
     7
370
    18
100
AcDbLine
 10
10.4724389201
 20
6.1357805893
 30
0.0
 11
10.4717318133
 21
6.1353723853
 31
0.0
  0
LINE
  5
27D
330
1F
100
AcDbEntity
  8
0
  6
Continuous
 62
     7
370
    18
100
AcDbLine
 10
9.3900080184
 20
6.5841079527
 30
0.0
 11
9.2994983504
 21
6.6363750575
 31
0.0
  0
LINE
  5
27E
330
1F
100
AcDbEntity
  8
0
  6
Continuous
 62
     7
370
    18
100
AcDbLine
 10
10.7335109027
 20
5.8085202465
 30
0.0
 11
9.3900080184
 21
6.5841079527
 31
0.0
  0
LINE
  5
27F
330
1F
100
AcDbEntity
  8
0
  6
Continuous
 62
     7
370
    18
100
AcDbLine
 10
10.4724389201
 20
6.1064165255
 30
0.0
 11
10.4717318133
 21
6.1060083215
 31
0.0
  0
LINE
  5
280
330
1F
100
AcDbEntity
  8
0
  6
Continuous
 62
     7
370
    18
100
AcDbLine
 10
10.4639627042
 20
6.0792762167
 30
0.0
 11
10.4632555974
 21
6.0788680126
 31
0.0
  0
LINE
  5
281
330
1F
100
AcDbEntity
  8
0
  6
Continuous
 62
     7
370
    18
100
AcDbLine
 10
10.4277461454
 20
6.1001835911
 30
0.0
 11
10.4277461454
 21
6.161581179
 31
0.0
  0
LINE
  5
282
330
1F
100
AcDbEntity
  8
0
  6
Continuous
 62
     7
370
    18
100
AcDbLine
 10
10.4277461454
 20
6.161581179
 30
0.0
 11
10.4084820183
 21
6.1727021229
 31
0.0
  0
LINE
  5
283
330
1F
100
AcDbEntity
  8
0
  6
Continuous
 62
     7
370
    18
100
AcDbLine
 10
10.4084820183
 20
6.1727021229
 30
0.0
 11
10.4084820183
 21
6.1798940958
 31
0.0
  0
LINE
  5
284
330
1F
100
AcDbEntity
  8
0
  6
Continuous
 62
     7
370
    18
100
AcDbLine
 10
10.4547793815
 20
6.145975224
 30
0.0
 11
10.4362223613
 21
6.1566879637
 31
0.0
  0
LINE
  5
285
330
1F
100
AcDbEntity
  8
0
  6
Continuous
 62
     7
370
    18
100
AcDbLine
 10
10.4355152545
 20
6.0956985798
 30
0.0
 11
10.4277461454
 21
6.1001835911
 31
0.0
  0
LINE
  5
286
330
1F
100
AcDbEntity
  8
0
  6
Continuous
 62
     7
370
    18
100
AcDbLine
 10
10.4362223613
 20
6.1566879637
 30
0.0
 11
10.4355152545
 21
6.1562797597
 31
0.0
  0
LINE
  5
287
330
1F
100
AcDbEntity
  8
0
  6
Continuous
 62
     7
370
    18
100
AcDbLine
 10
10.4277461454
 20
6.161581179
 30
0.0
 11
10.4270390386
 21
6.161172975
 31
0.0
  0
LINE
  5
288
330
1F
100
AcDbEntity
  8
0
  6
Continuous
 62
     7
370
    18
100
AcDbLine
 10
10.4277461454
 20
6.1001835911
 30
0.0
 11
10.4270390386
 21
6.099775387
 31
0.0
  0
LINE
  5
289
330
1F
100
AcDbEntity
  8
0
  6
Continuous
 62
     7
370
    18
100
AcDbLine
 10
10.4084820183
 20
6.1727021229
 30
0.0
 11
10.4077749115
 21
6.1722939188
 31
0.0
  0
LINE
  5
28A
330
1F
100
AcDbEntity
  8
0
  6
Continuous
 62
     7
370
    18
100
AcDbLine
 10
10.3576247229
 20
6.1406638266
 30
0.0
 11
10.3576247229
 21
6.2092533875
 31
0.0
  0
LINE
  5
28B
330
1F
100
AcDbEntity
  8
0
  6
Continuous
 62
     7
370
    18
100
AcDbLine
 10
10.3992986956
 20
6.1780035422
 30
0.0
 11
10.3661009388
 21
6.1971681993
 31
0.0
  0
LINE
  5
28C
330
1F
100
AcDbEntity
  8
0
  6
Continuous
 62
     7
370
    18
100
AcDbLine
 10
10.3969870004
 20
6.1499739917
 30
0.0
 11
10.3661009388
 21
6.1678041355
 31
0.0
  0
LINE
  5
28D
330
1F
100
AcDbEntity
  8
0
  6
Continuous
 62
     7
370
    18
100
AcDbLine
 10
10.4008398258
 20
6.1157162787
 30
0.0
 11
10.3576247229
 21
6.1406638266
 31
0.0
  0
LINE
  5
28E
330
1F
100
AcDbEntity
  8
0
  6
Continuous
 62
     7
370
    18
100
AcDbLine
 10
10.3661009388
 20
6.1971681993
 30
0.0
 11
10.365393832
 21
6.1967599952
 31
0.0
  0
LINE
  5
28F
330
1F
100
AcDbEntity
  8
0
  6
Continuous
 62
     7
370
    18
100
AcDbLine
 10
10.3661009388
 20
6.1678041355
 30
0.0
 11
10.365393832
 21
6.1673959314
 31
0.0
  0
LINE
  5
290
330
1F
100
AcDbEntity
  8
0
  6
Continuous
 62
     7
370
    18
100
AcDbLine
 10
10.3576247229
 20
6.1406638266
 30
0.0
 11
10.3569176161
 21
6.1402556225
 31
0.0
  0
LINE
  5
291
330
1F
100
AcDbEntity
  8
0
  6
Continuous
 62
     7
370
    18
100
AcDbLine
 10
10.2867327353
 20
6.1815888999
 30
0.0
 11
10.2867327353
 21
6.2501784608
 31
0.0
  0
SPLINE
  5
292
330
1F
100
AcDbEntity
  8
0
  6
Continuous
 62
     7
370
    18
100
AcDbSpline
210
0.0
220
0.0
230
1.0
 70
     8
 71
     3
 72
    15
 73
    11
 74
     0
 42
0.000000001
 43
0.00000001
 40
0.0
 40
0.0
 40
0.0
 40
0.0
 40
0.0892047702332424
 40
0.18983345566435
 40
0.299232591974982
 40
0.4192609378429104
 40
0.5492073901909383
 40
0.6890743636843474
 40
0.8395791979483168
 40
1.0
 40
1.0
 40
1.0
 40
1.0
 10
10.31562892591226
 20
6.175418484270131
 30
0.0
 10
10.31571283235136
 20
6.175699223760195
 30
0.0
 10
10.31589139061953
 20
6.176296655348225
 30
0.0
 10
10.3161808621156
 20
6.177230980606081
 30
0.0
 10
10.31648886802909
 20
6.178272032789844
 30
0.0
 10
10.31685745669698
 20
6.179374587691907
 30
0.0
 10
10.31724166676088
 20
6.180585234454746
 30
0.0
 10
10.31764494522618
 20
6.181900793563954
 30
0.0
 10
10.31811011908269
 20
6.183281082938866
 30
0.0
 10
10.3184192503581
 20
6.184244134583464
 30
0.0
 10
10.31857874536703
 20
6.184741017114844
 30
0.0
  0
LINE
  5
293
330
1F
100
AcDbEntity
  8
0
  6
Continuous
 62
     7
370
    18
100
AcDbLine
 10
10.3185787454
 20
6.1847410171
 30
0.0
 11
10.3316561304
 21
6.2242447368
 31
0.0
  0
LINE
  5
294
330
1F
100
AcDbEntity
  8
0
  6
Continuous
 62
     7
370
    18
100
AcDbLine
 10
10.3438180097
 20
6.1486342725
 30
0.0
 11
10.3360489006
 21
6.1531192837
 31
0.0
  0
LINE
  5
295
330
1F
100
AcDbEntity
  8
0
  6
Continuous
 62
     7
370
    18
100
AcDbLine
 10
10.3360489006
 20
6.1531192837
 30
0.0
 11
10.3360489006
 21
6.2118474113
 31
0.0
  0
LINE
  5
296
330
1F
100
AcDbEntity
  8
0
  6
Continuous
 62
     7
370
    18
100
AcDbLine
 10
10.3195273515
 20
6.162656971
 30
0.0
 11
10.3111500164
 21
6.1674931036
 31
0.0
  0
LINE
  5
297
330
1F
100
AcDbEntity
  8
0
  6
Continuous
 62
     7
370
    18
100
AcDbLine
 10
10.3111500164
 20
6.1674931036
 30
0.0
 11
10.2952089512
 21
6.2354238122
 31
0.0
  0
LINE
  5
298
330
1F
100
AcDbEntity
  8
0
  6
Continuous
 62
     7
370
    18
100
AcDbLine
 10
10.2945018445
 20
6.1771038887
 30
0.0
 11
10.2867327353
 21
6.1815888999
 31
0.0
  0
LINE
  5
299
330
1F
100
AcDbEntity
  8
0
  6
Continuous
 62
     7
370
    18
100
AcDbLine
 10
10.3185787454
 20
6.1847410171
 30
0.0
 11
10.3178716386
 21
6.1843328131
 31
0.0
  0
LINE
  5
29A
330
1F
100
AcDbEntity
  8
0
  6
Continuous
 62
     7
370
    18
100
AcDbLine
 10
10.3360489006
 20
6.1531192837
 30
0.0
 11
10.3353417938
 21
6.1527110796
 31
0.0
  0
LINE
  5
29B
330
1F
100
AcDbEntity
  8
0
  6
Continuous
 62
     7
370
    18
100
AcDbLine
 10
10.3360489006
 20
6.2118474113
 30
0.0
 11
10.3353417938
 21
6.2114392073
 31
0.0
  0
LINE
  5
29C
330
1F
100
AcDbEntity
  8
0
  6
Continuous
 62
     7
370
    18
100
AcDbLine
 10
10.2952089512
 20
6.2354238122
 30
0.0
 11
10.2945018445
 21
6.2350156082
 31
0.0
  0
LINE
  5
29D
330
1F
100
AcDbEntity
  8
0
  6
Continuous
 62
     7
370
    18
100
AcDbLine
 10
10.3111500164
 20
6.1674931036
 30
0.0
 11
10.3104429096
 21
6.1670848995
 31
0.0
  0
LINE
  5
29E
330
1F
100
AcDbEntity
  8
0
  6
Continuous
 62
     7
370
    18
100
AcDbLine
 10
10.2867327353
 20
6.1815888999
 30
0.0
 11
10.2860256286
 21
6.1811806958
 31
0.0
  0
LINE
  5
29F
330
1F
100
AcDbEntity
  8
0
  6
Continuous
 62
     7
370
    18
100
AcDbLine
 10
10.2245698054
 20
6.2174747955
 30
0.0
 11
10.248152542
 21
6.2724503323
 31
0.0
  0
LINE
  5
2A0
330
1F
100
AcDbEntity
  8
0
  6
Continuous
 62
     7
370
    18
100
AcDbLine
 10
10.2808686957
 20
6.1849741379
 30
0.0
 11
10.2728625639
 21
6.1895959795
 31
0.0
  0
LINE
  5
2A1
330
1F
100
AcDbEntity
  8
0
  6
Continuous
 62
     7
370
    18
100
AcDbLine
 10
10.2728625639
 20
6.1895959795
 30
0.0
 11
10.2660237988
 21
6.2148995973
 31
0.0
  0
LINE
  5
2A2
330
1F
100
AcDbEntity
  8
0
  6
Continuous
 62
     7
370
    18
100
AcDbLine
 10
10.2660237988
 20
6.2148995973
 30
0.0
 11
10.2404025098
 21
6.2296904526
 31
0.0
  0
LINE
  5
2A3
330
1F
100
AcDbEntity
  8
0
  6
Continuous
 62
     7
370
    18
100
AcDbLine
 10
10.2331180776
 20
6.212539983
 30
0.0
 11
10.2245698054
 21
6.2174747955
 31
0.0
  0
LINE
  5
2A4
330
1F
100
AcDbEntity
  8
0
  6
Continuous
 62
     7
370
    18
100
AcDbLine
 10
10.2634713019
 20
6.2243815034
 30
0.0
 11
10.2576318634
 21
6.2459938519
 31
0.0
  0
SPLINE
  5
2A5
330
1F
100
AcDbEntity
  8
0
  6
Continuous
 62
     7
370
    18
100
AcDbSpline
210
0.0
220
0.0
230
1.0
 70
     8
 71
     3
 72
    15
 73
    11
 74
     0
 42
0.000000001
 43
0.00000001
 40
0.0
 40
0.0
 40
0.0
 40
0.0
 40
0.1531481085926284
 40
0.2994334688329042
 40
0.4364263514567485
 40
0.5656705729563545
 40
0.686508310287873
 40
0.7992685160630009
 40
0.9033947408013443
 40
1.0
 40
1.0
 40
1.0
 40
1.0
 10
10.25763186340767
 20
6.245993851856685
 30
0.0
 10
10.25740800018357
 20
6.246827904796212
 30
0.0
 10
10.25697030531191
 20
6.248458635774009
 30
0.0
 10
10.25631757039213
 20
6.250837649360853
 30
0.0
 10
10.25572124228784
 20
6.253083271399061
 30
0.0
 10
10.25513649361239
 20
6.255194117277925
 30
0.0
 10
10.2546086305385
 20
6.257169790940941
 30
0.0
 10
10.25412208561305
 20
6.25900799281223
 30
0.0
 10
10.25364089678711
 20
6.260718659183324
 30
0.0
 10
10.25335212860375
 20
6.261811150904329
 30
0.0
 10
10.25321315426522
 20
6.262336930138408
 30
0.0
  0
LINE
  5
2A6
330
1F
100
AcDbEntity
  8
0
  6
Continuous
 62
     7
370
    18
100
AcDbLine
 10
10.3156289259
 20
6.1754184843
 30
0.0
 11
10.3149218191
 21
6.1750102802
 31
0.0
  0
SPLINE
  5
2A7
330
1F
100
AcDbEntity
  8
0
  6
Continuous
 62
     7
370
    18
100
AcDbSpline
210
0.0
220
0.0
230
1.0
 70
     8
 71
     3
 72
    15
 73
    11
 74
     0
 42
0.000000001
 43
0.00000001
 40
0.0
 40
0.0
 40
0.0
 40
0.0
 40
0.1531481085926284
 40
0.2994334688329042
 40
0.4364263514567485
 40
0.5656705729563545
 40
0.686508310287873
 40
0.7992685160630009
 40
0.9033947408013443
 40
1.0
 40
1.0
 40
1.0
 40
1.0
 10
10.25692475662648
 20
6.245585647800774
 30
0.0
 10
10.25670089340239
 20
6.246419700740301
 30
0.0
 10
10.25626319853072
 20
6.248050431718097
 30
0.0
 10
10.25561046361095
 20
6.250429445304942
 30
0.0
 10
10.25501413550666
 20
6.25267506734315
 30
0.0
 10
10.25442938683121
 20
6.254785913222014
 30
0.0
 10
10.25390152375731
 20
6.256761586885029
 30
0.0
 10
10.25341497883186
 20
6.25859978875632
 30
0.0
 10
10.25293379000593
 20
6.260310455127412
 30
0.0
 10
10.25264502182256
 20
6.261402946848417
 30
0.0
 10
10.25250604748403
 20
6.261928726082497
 30
0.0
  0
LINE
  5
2A8
330
1F
100
AcDbEntity
  8
0
  6
Continuous
 62
     7
370
    18
100
AcDbLine
 10
10.2627641951
 20
6.2239732993
 30
0.0
 11
10.2569247566
 21
6.2455856478
 31
0.0
  0
LINE
  5
2A9
330
1F
100
AcDbEntity
  8
0
  6
Continuous
 62
     7
370
    18
100
AcDbLine
 10
10.2422478998
 20
6.2358171045
 30
0.0
 11
10.2627641951
 21
6.2239732993
 31
0.0
  0
LINE
  5
2AA
330
1F
100
AcDbEntity
  8
0
  6
Continuous
 62
     7
370
    18
100
AcDbLine
 10
10.2484003804
 20
6.2514799062
 30
0.0
 11
10.2422478998
 21
6.2358171045
 31
0.0
  0
SPLINE
  5
2AB
330
1F
100
AcDbEntity
  8
0
  6
Continuous
 62
     7
370
    18
100
AcDbSpline
210
0.0
220
0.0
230
1.0
 70
     8
 71
     3
 72
    11
 73
     7
 74
     0
 42
0.000000001
 43
0.00000001
 40
0.0
 40
0.0
 40
0.0
 40
0.0
 40
0.2472885692344808
 40
0.4965585959218943
 40
0.7463647942382551
 40
0.9999999999999999
 40
0.9999999999999999
 40
0.9999999999999999
 40
0.9999999999999999
 10
10.25250604748403
 20
6.261928726082497
 30
0.0
 10
10.25227559252187
 20
6.260963303165071
 30
0.0
 10
10.25181283602329
 20
6.259024721653472
 30
0.0
 10
10.25085618916138
 20
6.256347511564483
 30
0.0
 10
10.24974388983426
 20
6.253796929729069
 30
0.0
 10
10.24885048186989
 20
6.252256153584417
 30
0.0
 10
10.24840038040617
 20
6.251479906197302
 30
0.0
  0
LINE
  5
2AC
330
1F
100
AcDbEntity
  8
0
  6
Continuous
 62
     7
370
    18
100
AcDbLine
 10
10.2532131543
 20
6.2623369301
 30
0.0
 11
10.2525060475
 21
6.2619287261
 31
0.0
  0
LINE
  5
2AD
330
1F
100
AcDbEntity
  8
0
  6
Continuous
 62
     7
370
    18
100
AcDbLine
 10
10.2576318634
 20
6.2459938519
 30
0.0
 11
10.2569247566
 21
6.2455856478
 31
0.0
  0
LINE
  5
2AE
330
1F
100
AcDbEntity
  8
0
  6
Continuous
 62
     7
370
    18
100
AcDbLine
 10
10.2245698054
 20
6.2174747955
 30
0.0
 11
10.2238626986
 21
6.2170665915
 31
0.0
  0
LINE
  5
2AF
330
1F
100
AcDbEntity
  8
0
  6
Continuous
 62
     7
370
    18
100
AcDbLine
 10
10.2634713019
 20
6.2243815034
 30
0.0
 11
10.2627641951
 21
6.2239732993
 31
0.0
  0
LINE
  5
2B0
330
1F
100
AcDbEntity
  8
0
  6
Continuous
 62
     7
370
    18
100
AcDbLine
 10
10.2660237988
 20
6.2148995973
 30
0.0
 11
10.265316692
 21
6.2144913932
 31
0.0
  0
LINE
  5
2B1
330
1F
100
AcDbEntity
  8
0
  6
Continuous
 62
     7
370
    18
100
AcDbLine
 10
10.2728625639
 20
6.1895959795
 30
0.0
 11
10.2721554571
 21
6.1891877754
 31
0.0
  0
LINE
  5
2B2
330
1F
100
AcDbEntity
  8
0
  6
Continuous
 62
     7
370
    18
100
AcDbLine
 10
10.2404025098
 20
6.2296904526
 30
0.0
 11
10.239695403
 21
6.2292822485
 31
0.0
  0
LINE
  5
2B3
330
1F
100
AcDbEntity
  8
0
  6
Continuous
 62
     7
370
    18
100
AcDbLine
 10
10.2104467922
 20
6.2256278375
 30
0.0
 11
10.2104467922
 21
6.2942173984
 31
0.0
  0
LINE
  5
2B4
330
1F
100
AcDbEntity
  8
0
  6
Continuous
 62
     7
370
    18
100
AcDbLine
 10
10.2182159013
 20
6.2211428262
 30
0.0
 11
10.2104467922
 21
6.2256278375
 31
0.0
  0
LINE
  5
2B5
330
1F
100
AcDbEntity
  8
0
  6
Continuous
 62
     7
370
    18
100
AcDbLine
 10
10.2104467922
 20
6.2256278375
 30
0.0
 11
10.2097396854
 21
6.2252196334
 31
0.0
  0
LINE
  5
2B6
330
1F
100
AcDbEntity
  8
0
  6
Continuous
 62
     7
370
    18
100
AcDbLine
 10
10.1495721507
 20
6.26077002
 30
0.0
 11
10.1495721507
 21
6.3293595809
 31
0.0
  0
SPLINE
  5
2B7
330
1F
100
AcDbEntity
  8
0
  6
Continuous
 62
     7
370
    18
100
AcDbSpline
210
0.0
220
0.0
230
1.0
 70
     8
 71
     3
 72
    11
 73
     7
 74
     0
 42
0.000000001
 43
0.00000001
 40
0.0
 40
0.0
 40
0.0
 40
0.0
 40
0.0147462595511153
 40
0.3423365009044225
 40
0.6709402737444952
 40
0.9999999999999999
 40
0.9999999999999999
 40
0.9999999999999999
 40
0.9999999999999999
 10
10.19053546763105
 20
6.244499380340817
 30
0.0
 10
10.19047638317677
 20
6.244435728541042
 30
0.0
 10
10.18910472921502
 20
6.242958043007596
 30
0.0
 10
10.18463249479649
 20
6.242932276480494
 30
0.0
 10
10.17804120254867
 20
6.244584319527351
 30
0.0
 10
10.17341467850024
 20
6.247089104490636
 30
0.0
 10
10.17109981270796
 20
6.248342365247058
 30
0.0
  0
LINE
  5
2B8
330
1F
100
AcDbEntity
  8
0
  6
Continuous
 62
     7
370
    18
100
AcDbLine
 10
10.1710998127
 20
6.2483423652
 30
0.0
 11
10.1495721507
 21
6.26077002
 31
0.0
  0
SPLINE
  5
2B9
330
1F
100
AcDbEntity
  8
0
  6
Continuous
 62
     7
370
    18
100
AcDbSpline
210
0.0
220
0.0
230
1.0
 70
     8
 71
     3
 72
    15
 73
    11
 74
     0
 42
0.000000001
 43
0.00000001
 40
0.0
 40
0.0
 40
0.0
 40
0.0
 40
0.0977695964822331
 40
0.2008523784955812
 40
0.3104302888087521
 40
0.4285493214350529
 40
0.5551842864614314
 40
0.691844758941641
 40
0.8400944459418304
 40
1.0
 40
1.0
 40
1.0
 40
1.0
 10
10.18463286196168
 20
6.253446197320132
 30
0.0
 10
10.18507621462864
 20
6.253775747722281
 30
0.0
 10
10.18598701349531
 20
6.254452757595365
 30
0.0
 10
10.18712225809145
 20
6.255898180008304
 30
0.0
 10
10.18810983908263
 20
6.25769915779767
 30
0.0
 10
10.18895208947417
 20
6.259859596913675
 30
0.0
 10
10.18961250917237
 20
6.262416041425048
 30
0.0
 10
10.19006904012416
 20
6.265382377835841
 30
0.0
 10
10.19036320231305
 20
6.268733708524008
 30
0.0
 10
10.19039539493084
 20
6.271163885473014
 30
0.0
 10
10.19041210007715
 20
6.272424934255294
 30
0.0
  0
SPLINE
  5
2BA
330
1F
100
AcDbEntity
  8
0
  6
Continuous
 62
     7
370
    18
100
AcDbSpline
210
0.0
220
0.0
230
1.0
 70
     8
 71
     3
 72
    23
 73
    19
 74
     0
 42
0.000000001
 43
0.00000001
 40
0.0
 40
0.0
 40
0.0
 40
0.0
 40
0.0912609520412069
 40
0.1774380523622645
 40
0.2586781753433992
 40
0.3347782543759344
 40
0.4064987035437822
 40
0.4737257195372779
 40
0.5371521470015581
 40
0.597403139099301
 40
0.6545219121410194
 40
0.709276566277908
 40
0.7615100947779051
 40
0.8118413153607362
 40
0.8605996190280619
 40
0.907802694613656
 40
0.9542577632202368
 40
1.0
 40
1.0
 40
1.0
 40
1.0
 10
10.19041210007715
 20
6.272424934255294
 30
0.0
 10
10.1904037633954
 20
6.273315254540722
 30
0.0
 10
10.19038755444141
 20
6.275046298255384
 30
0.0
 10
10.19023634125004
 20
6.277638230022828
 30
0.0
 10
10.19001715447186
 20
6.280114601560893
 30
0.0
 10
10.18969176890622
 20
6.28249414759576
 30
0.0
 10
10.18927687888883
 20
6.28476612576257
 30
0.0
 10
10.18875525556604
 20
6.286937782239063
 30
0.0
 10
10.18815849952428
 20
6.289003530258536
 30
0.0
 10
10.18745945206036
 20
6.290967893552827
 30
0.0
 10
10.18667606047016
 20
6.292825369409419
 30
0.0
 10
10.18587454452583
 20
6.29458423982225
 30
0.0
 10
10.18503139445704
 20
6.296248931736599
 30
0.0
 10
10.18413451443485
 20
6.297809285753821
 30
0.0
 10
10.18320992073942
 20
6.299280404774065
 30
0.0
 10
10.18224061796822
 20
6.300653087687254
 30
0.0
 10
10.18122925715633
 20
6.301925508515489
 30
0.0
 10
10.18051858250467
 20
6.302693217895968
 30
0.0
 10
10.1801659925016
 20
6.303074104778863
 30
0.0
  0
SPLINE
  5
2BB
330
1F
100
AcDbEntity
  8
0
  6
Continuous
 62
     7
370
    18
100
AcDbSpline
210
0.0
220
0.0
230
1.0
 70
     8
 71
     3
 72
    15
 73
    11
 74
     0
 42
0.000000001
 43
0.00000001
 40
0.0
 40
0.0
 40
0.0
 40
0.0
 40
0.0874250109285993
 40
0.1852478649797598
 40
0.2927383539894236
 40
0.4112061016770268
 40
0.5412455942323248
 40
0.6827809385249526
 40
0.8360339502048016
 40
1.0
 40
1.0
 40
1.0
 40
1.0
 10
10.1801659925016
 20
6.303074104778863
 30
0.0
 10
10.17989049254869
 20
6.303349571964262
 30
0.0
 10
10.17930672621529
 20
6.30393326886547
 30
0.0
 10
10.1783539629509
 20
6.304762509901194
 30
0.0
 10
10.17729066950968
 20
6.30563329819169
 30
0.0
 10
10.17610636538283
 20
6.306497336268132
 30
0.0
 10
10.17480704015654
 20
6.307422705029626
 30
0.0
 10
10.17338461726586
 20
6.308350368898103
 30
0.0
 10
10.17184655670463
 20
6.309286542889903
 30
0.0
 10
10.17078277877084
 20
6.309915365941517
 30
0.0
 10
10.17023292699064
 20
6.310240395690089
 30
0.0
  0
LINE
  5
2BC
330
1F
100
AcDbEntity
  8
0
  6
Continuous
 62
     7
370
    18
100
AcDbLine
 10
10.170232927
 20
6.3102403957
 30
0.0
 11
10.1580483666
 21
6.3172743927
 31
0.0
  0
SPLINE
  5
2BD
330
1F
100
AcDbEntity
  8
0
  6
Continuous
 62
     7
370
    18
100
AcDbSpline
210
0.0
220
0.0
230
1.0
 70
     8
 71
     3
 72
    15
 73
    11
 74
     0
 42
0.000000001
 43
0.00000001
 40
0.0
 40
0.0
 40
0.0
 40
0.0
 40
0.0874250109285993
 40
0.1852478649797598
 40
0.2927383539894236
 40
0.4112061016770268
 40
0.5412455942323248
 40
0.6827809385249526
 40
0.8360339502048016
 40
1.0
 40
1.0
 40
1.0
 40
1.0
 10
10.17945888572041
 20
6.302665900722952
 30
0.0
 10
10.17918338576751
 20
6.30294136790835
 30
0.0
 10
10.1785996194341
 20
6.303525064809559
 30
0.0
 10
10.17764685616972
 20
6.304354305845283
 30
0.0
 10
10.17658356272849
 20
6.305225094135778
 30
0.0
 10
10.17539925860165
 20
6.30608913221222
 30
0.0
 10
10.17409993337536
 20
6.307014500973714
 30
0.0
 10
10.17267751048468
 20
6.307942164842191
 30
0.0
 10
10.17113944992344
 20
6.308878338833992
 30
0.0
 10
10.17007567198965
 20
6.309507161885606
 30
0.0
 10
10.16952582020945
 20
6.309832191634179
 30
0.0
  0
SPLINE
  5
2BE
330
1F
100
AcDbEntity
  8
0
  6
Continuous
 62
     7
370
    18
100
AcDbSpline
210
0.0
220
0.0
230
1.0
 70
     8
 71
     3
 72
    23
 73
    19
 74
     0
 42
0.000000001
 43
0.00000001
 40
0.0
 40
0.0
 40
0.0
 40
0.0
 40
0.0912609520412069
 40
0.1774380523622645
 40
0.2586781753433992
 40
0.3347782543759344
 40
0.4064987035437822
 40
0.4737257195372779
 40
0.5371521470015581
 40
0.597403139099301
 40
0.6545219121410194
 40
0.709276566277908
 40
0.7615100947779051
 40
0.8118413153607362
 40
0.8605996190280619
 40
0.907802694613656
 40
0.9542577632202368
 40
1.0
 40
1.0
 40
1.0
 40
1.0
 10
10.18970499329596
 20
6.272016730199383
 30
0.0
 10
10.18969665661421
 20
6.272907050484811
 30
0.0
 10
10.18968044766023
 20
6.274638094199473
 30
0.0
 10
10.18952923446885
 20
6.277230025966917
 30
0.0
 10
10.18931004769067
 20
6.279706397504981
 30
0.0
 10
10.18898466212503
 20
6.282085943539848
 30
0.0
 10
10.18856977210765
 20
6.284357921706659
 30
0.0
 10
10.18804814878485
 20
6.286529578183152
 30
0.0
 10
10.18745139274309
 20
6.288595326202624
 30
0.0
 10
10.18675234527917
 20
6.290559689496915
 30
0.0
 10
10.18596895368898
 20
6.292417165353507
 30
0.0
 10
10.18516743774465
 20
6.294176035766339
 30
0.0
 10
10.18432428767585
 20
6.295840727680688
 30
0.0
 10
10.18342740765366
 20
6.29740108169791
 30
0.0
 10
10.18250281395823
 20
6.298872200718153
 30
0.0
 10
10.18153351118703
 20
6.300244883631343
 30
0.0
 10
10.18052215037515
 20
6.301517304459577
 30
0.0
 10
10.17981147572349
 20
6.302285013840056
 30
0.0
 10
10.17945888572041
 20
6.302665900722952
 30
0.0
  0
SPLINE
  5
2BF
330
1F
100
AcDbEntity
  8
0
  6
Continuous
 62
     7
370
    18
100
AcDbSpline
210
0.0
220
0.0
230
1.0
 70
     8
 71
     3
 72
    15
 73
    11
 74
     0
 42
0.000000001
 43
0.00000001
 40
0.0
 40
0.0
 40
0.0
 40
0.0
 40
0.0977695964822331
 40
0.2008523784955812
 40
0.3104302888087521
 40
0.4285493214350529
 40
0.5551842864614314
 40
0.691844758941641
 40
0.8400944459418304
 40
1.0
 40
1.0
 40
1.0
 40
1.0
 10
10.18392575518049
 20
6.253037993264221
 30
0.0
 10
10.18436910784745
 20
6.25336754366637
 30
0.0
 10
10.18527990671413
 20
6.254044553539453
 30
0.0
 10
10.18641515131026
 20
6.255489975952392
 30
0.0
 10
10.18740273230144
 20
6.257290953741759
 30
0.0
 10
10.18824498269298
 20
6.259451392857764
 30
0.0
 10
10.18890540239118
 20
6.262007837369136
 30
0.0
 10
10.18936193334297
 20
6.26497417377993
 30
0.0
 10
10.18965609553186
 20
6.268325504468096
 30
0.0
 10
10.18968828814966
 20
6.270755681417103
 30
0.0
 10
10.18970499329596
 20
6.272016730199383
 30
0.0
  0
SPLINE
  5
2C0
330
1F
100
AcDbEntity
  8
0
  6
Continuous
 62
     7
370
    18
100
AcDbSpline
210
0.0
220
0.0
230
1.0
 70
     8
 71
     3
 72
    15
 73
    11
 74
     0
 42
0.000000001
 43
0.00000001
 40
0.0
 40
0.0
 40
0.0
 40
0.0
 40
0.1779933312737979
 40
0.3367237259982473
 40
0.4762209971933655
 40
0.5976674382561524
 40
0.7073637327202694
 40
0.8092389540542927
 40
0.9070683407136616
 40
1.0
 40
1.0
 40
1.0
 40
1.0
 10
10.16973050155938
 20
6.256324824674984
 30
0.0
 10
10.17063393704046
 20
6.255818716518606
 30
0.0
 10
10.17234303568597
 20
6.254861272647231
 30
0.0
 10
10.17475365443646
 20
6.253698819200056
 30
0.0
 10
10.17686076356746
 20
6.252866797827295
 30
0.0
 10
10.17867752430386
 20
6.252397338179106
 30
0.0
 10
10.18025414129663
 20
6.252201502355837
 30
0.0
 10
10.18164519404458
 20
6.252244225442106
 30
0.0
 10
10.18288652443188
 20
6.252483169564795
 30
0.0
 10
10.1835853254265
 20
6.252856244893367
 30
0.0
 10
10.18392575518049
 20
6.253037993264221
 30
0.0
  0
LINE
  5
2C1
330
1F
100
AcDbEntity
  8
0
  6
Continuous
 62
     7
370
    18
100
AcDbLine
 10
10.1573412598
 20
6.2634769817
 30
0.0
 11
10.1697305016
 21
6.2563248247
 31
0.0
  0
LINE
  5
2C2
330
1F
100
AcDbEntity
  8
0
  6
Continuous
 62
     7
370
    18
100
AcDbLine
 10
10.1573412598
 20
6.3168661886
 30
0.0
 11
10.1573412598
 21
6.2634769817
 31
0.0
  0
LINE
  5
2C3
330
1F
100
AcDbEntity
  8
0
  6
Continuous
 62
     7
370
    18
100
AcDbLine
 10
10.1695258202
 20
6.3098321916
 30
0.0
 11
10.1573412598
 21
6.3168661886
 31
0.0
  0
LINE
  5
2C4
330
1F
100
AcDbEntity
  8
0
  6
Continuous
 62
     7
370
    18
100
AcDbLine
 10
10.1801659925
 20
6.3030741048
 30
0.0
 11
10.1794588857
 21
6.3026659007
 31
0.0
  0
LINE
  5
2C5
330
1F
100
AcDbEntity
  8
0
  6
Continuous
 62
     7
370
    18
100
AcDbLine
 10
10.1904121001
 20
6.2724249343
 30
0.0
 11
10.1897049933
 21
6.2720167302
 31
0.0
  0
LINE
  5
2C6
330
1F
100
AcDbEntity
  8
0
  6
Continuous
 62
     7
370
    18
100
AcDbLine
 10
10.170232927
 20
6.3102403957
 30
0.0
 11
10.1695258202
 21
6.3098321916
 31
0.0
  0
LINE
  5
2C7
330
1F
100
AcDbEntity
  8
0
  6
Continuous
 62
     7
370
    18
100
AcDbLine
 10
10.1710998127
 20
6.2483423652
 30
0.0
 11
10.1703927059
 21
6.2479341612
 31
0.0
  0
LINE
  5
2C8
330
1F
100
AcDbEntity
  8
0
  6
Continuous
 62
     7
370
    18
100
AcDbLine
 10
10.1580483666
 20
6.3172743927
 30
0.0
 11
10.1573412598
 21
6.3168661886
 31
0.0
  0
LINE
  5
2C9
330
1F
100
AcDbEntity
  8
0
  6
Continuous
 62
     7
370
    18
100
AcDbLine
 10
10.184632862
 20
6.2534461973
 30
0.0
 11
10.1839257552
 21
6.2530379933
 31
0.0
  0
LINE
  5
2CA
330
1F
100
AcDbEntity
  8
0
  6
Continuous
 62
     7
370
    18
100
AcDbLine
 10
10.1495721507
 20
6.26077002
 30
0.0
 11
10.1488650439
 21
6.2603618159
 31
0.0
  0
LINE
  5
2CB
330
1F
100
AcDbEntity
  8
0
  6
Continuous
 62
     7
370
    18
100
AcDbLine
 10
10.0555632107
 20
6.3150402259
 30
0.0
 11
10.0555632107
 21
6.3836297868
 31
0.0
  0
SPLINE
  5
2CC
330
1F
100
AcDbEntity
  8
0
  6
Continuous
 62
     7
370
    18
100
AcDbSpline
210
0.0
220
0.0
230
1.0
 70
     8
 71
     3
 72
    15
 73
    11
 74
     0
 42
0.000000001
 43
0.00000001
 40
0.0
 40
0.0
 40
0.0
 40
0.0
 40
0.0892047702332417
 40
0.1898334556643487
 40
0.2992325919749821
 40
0.4192609378429105
 40
0.5492073901909384
 40
0.6890743636843468
 40
0.8395791979483163
 40
1.0
 40
1.0
 40
1.0
 40
1.0
 10
10.08445940129358
 20
6.308869810241152
 30
0.0
 10
10.08454330773268
 20
6.309150549731216
 30
0.0
 10
10.08472186600085
 20
6.309747981319245
 30
0.0
 10
10.08501133749692
 20
6.3106823065771
 30
0.0
 10
10.08531934341041
 20
6.311723358760865
 30
0.0
 10
10.0856879320783
 20
6.312825913662928
 30
0.0
 10
10.08607214214221
 20
6.314036560425767
 30
0.0
 10
10.0864754206075
 20
6.315352119534974
 30
0.0
 10
10.08694059446401
 20
6.316732408909886
 30
0.0
 10
10.08724972573942
 20
6.317695460554485
 30
0.0
 10
10.08740922074835
 20
6.318192343085865
 30
0.0
  0
LINE
  5
2CD
330
1F
100
AcDbEntity
  8
0
  6
Continuous
 62
     7
370
    18
100
AcDbLine
 10
10.0874092207
 20
6.3181923431
 30
0.0
 11
10.1004866058
 21
6.3576960628
 31
0.0
  0
LINE
  5
2CE
330
1F
100
AcDbEntity
  8
0
  6
Continuous
 62
     7
370
    18
100
AcDbLine
 10
10.1126484851
 20
6.2820855984
 30
0.0
 11
10.104879376
 21
6.2865706097
 31
0.0
  0
LINE
  5
2CF
330
1F
100
AcDbEntity
  8
0
  6
Continuous
 62
     7
370
    18
100
AcDbLine
 10
10.104879376
 20
6.2865706097
 30
0.0
 11
10.104879376
 21
6.3452987373
 31
0.0
  0
LINE
  5
2D0
330
1F
100
AcDbEntity
  8
0
  6
Continuous
 62
     7
370
    18
100
AcDbLine
 10
10.0883578269
 20
6.2961082969
 30
0.0
 11
10.0799804918
 21
6.3009444296
 31
0.0
  0
LINE
  5
2D1
330
1F
100
AcDbEntity
  8
0
  6
Continuous
 62
     7
370
    18
100
AcDbLine
 10
10.0799804918
 20
6.3009444296
 30
0.0
 11
10.0640394266
 21
6.3688751382
 31
0.0
  0
LINE
  5
2D2
330
1F
100
AcDbEntity
  8
0
  6
Continuous
 62
     7
370
    18
100
AcDbLine
 10
10.0633323198
 20
6.3105552146
 30
0.0
 11
10.0555632107
 21
6.3150402259
 31
0.0
  0
LINE
  5
2D3
330
1F
100
AcDbEntity
  8
0
  6
Continuous
 62
     7
370
    18
100
AcDbLine
 10
10.0874092207
 20
6.3181923431
 30
0.0
 11
10.086702114
 21
6.317784139
 31
0.0
  0
LINE
  5
2D4
330
1F
100
AcDbEntity
  8
0
  6
Continuous
 62
     7
370
    18
100
AcDbLine
 10
10.104879376
 20
6.2865706097
 30
0.0
 11
10.1041722692
 21
6.2861624056
 31
0.0
  0
LINE
  5
2D5
330
1F
100
AcDbEntity
  8
0
  6
Continuous
 62
     7
370
    18
100
AcDbLine
 10
10.104879376
 20
6.3452987373
 30
0.0
 11
10.1041722692
 21
6.3448905332
 31
0.0
  0
LINE
  5
2D6
330
1F
100
AcDbEntity
  8
0
  6
Continuous
 62
     7
370
    18
100
AcDbLine
 10
10.0640394266
 20
6.3688751382
 30
0.0
 11
10.0633323198
 21
6.3684669342
 31
0.0
  0
LINE
  5
2D7
330
1F
100
AcDbEntity
  8
0
  6
Continuous
 62
     7
370
    18
100
AcDbLine
 10
10.0799804918
 20
6.3009444296
 30
0.0
 11
10.079273385
 21
6.3005362255
 31
0.0
  0
LINE
  5
2D8
330
1F
100
AcDbEntity
  8
0
  6
Continuous
 62
     7
370
    18
100
AcDbLine
 10
10.0555632107
 20
6.3150402259
 30
0.0
 11
10.0548561039
 21
6.3146320218
 31
0.0
  0
LINE
  5
2D9
330
1F
100
AcDbEntity
  8
0
  6
Continuous
 62
     7
370
    18
100
AcDbLine
 10
9.9934002807
 20
6.3509261215
 30
0.0
 11
10.0169830174
 21
6.4059016583
 31
0.0
  0
LINE
  5
2DA
330
1F
100
AcDbEntity
  8
0
  6
Continuous
 62
     7
370
    18
100
AcDbLine
 10
10.0496991711
 20
6.3184254639
 30
0.0
 11
10.0416930392
 21
6.3230473054
 31
0.0
  0
LINE
  5
2DB
330
1F
100
AcDbEntity
  8
0
  6
Continuous
 62
     7
370
    18
100
AcDbLine
 10
10.0416930392
 20
6.3230473054
 30
0.0
 11
10.0348542741
 21
6.3483509233
 31
0.0
  0
LINE
  5
2DC
330
1F
100
AcDbEntity
  8
0
  6
Continuous
 62
     7
370
    18
100
AcDbLine
 10
10.0348542741
 20
6.3483509233
 30
0.0
 11
10.0092329852
 21
6.3631417786
 31
0.0
  0
LINE
  5
2DD
330
1F
100
AcDbEntity
  8
0
  6
Continuous
 62
     7
370
    18
100
AcDbLine
 10
10.001948553
 20
6.345991309
 30
0.0
 11
9.9934002807
 21
6.3509261215
 31
0.0
  0
LINE
  5
2DE
330
1F
100
AcDbEntity
  8
0
  6
Continuous
 62
     7
370
    18
100
AcDbLine
 10
10.0323017773
 20
6.3578328294
 30
0.0
 11
10.0264623388
 21
6.3794451778
 31
0.0
  0
SPLINE
  5
2DF
330
1F
100
AcDbEntity
  8
0
  6
Continuous
 62
     7
370
    18
100
AcDbSpline
210
0.0
220
0.0
230
1.0
 70
     8
 71
     3
 72
    15
 73
    11
 74
     0
 42
0.000000001
 43
0.00000001
 40
0.0
 40
0.0
 40
0.0
 40
0.0
 40
0.1531481085926292
 40
0.2994334688329039
 40
0.436426351456749
 40
0.565670572956355
 40
0.6865083102878738
 40
0.7992685160630009
 40
0.9033947408013441
 40
1.0
 40
1.0
 40
1.0
 40
1.0
 10
10.02646233878899
 20
6.379445177827706
 30
0.0
 10
10.02623847556489
 20
6.380279230767234
 30
0.0
 10
10.02580078069323
 20
6.381909961745029
 30
0.0
 10
10.02514804577345
 20
6.384288975331874
 30
0.0
 10
10.02455171766916
 20
6.386534597370082
 30
0.0
 10
10.02396696899371
 20
6.388645443248946
 30
0.0
 10
10.02343910591981
 20
6.390621116911963
 30
0.0
 10
10.02295256099437
 20
6.392459318783252
 30
0.0
 10
10.02247137216843
 20
6.394169985154345
 30
0.0
 10
10.02218260398507
 20
6.39526247687535
 30
0.0
 10
10.02204362964654
 20
6.395788256109429
 30
0.0
  0
LINE
  5
2E0
330
1F
100
AcDbEntity
  8
0
  6
Continuous
 62
     7
370
    18
100
AcDbLine
 10
10.0844594013
 20
6.3088698102
 30
0.0
 11
10.0837522945
 21
6.3084616062
 31
0.0
  0
SPLINE
  5
2E1
330
1F
100
AcDbEntity
  8
0
  6
Continuous
 62
     7
370
    18
100
AcDbSpline
210
0.0
220
0.0
230
1.0
 70
     8
 71
     3
 72
    15
 73
    11
 74
     0
 42
0.000000001
 43
0.00000001
 40
0.0
 40
0.0
 40
0.0
 40
0.0
 40
0.1531481085926292
 40
0.2994334688329039
 40
0.436426351456749
 40
0.565670572956355
 40
0.6865083102878738
 40
0.7992685160630009
 40
0.9033947408013441
 40
1.0
 40
1.0
 40
1.0
 40
1.0
 10
10.02575523200781
 20
6.379036973771795
 30
0.0
 10
10.02553136878371
 20
6.379871026711322
 30
0.0
 10
10.02509367391204
 20
6.381501757689118
 30
0.0
 10
10.02444093899227
 20
6.383880771275964
 30
0.0
 10
10.02384461088798
 20
6.386126393314171
 30
0.0
 10
10.02325986221253
 20
6.388237239193034
 30
0.0
 10
10.02273199913863
 20
6.390212912856051
 30
0.0
 10
10.02224545421319
 20
6.39205111472734
 30
0.0
 10
10.02176426538725
 20
6.393761781098433
 30
0.0
 10
10.02147549720388
 20
6.394854272819438
 30
0.0
 10
10.02133652286536
 20
6.395380052053518
 30
0.0
  0
LINE
  5
2E2
330
1F
100
AcDbEntity
  8
0
  6
Continuous
 62
     7
370
    18
100
AcDbLine
 10
10.0315946705
 20
6.3574246253
 30
0.0
 11
10.025755232
 21
6.3790369738
 31
0.0
  0
LINE
  5
2E3
330
1F
100
AcDbEntity
  8
0
  6
Continuous
 62
     7
370
    18
100
AcDbLine
 10
10.0110783752
 20
6.3692684305
 30
0.0
 11
10.0315946705
 21
6.3574246253
 31
0.0
  0
LINE
  5
2E4
330
1F
100
AcDbEntity
  8
0
  6
Continuous
 62
     7
370
    18
100
AcDbLine
 10
10.0172308558
 20
6.3849312322
 30
0.0
 11
10.0110783752
 21
6.3692684305
 31
0.0
  0
SPLINE
  5
2E5
330
1F
100
AcDbEntity
  8
0
  6
Continuous
 62
     7
370
    18
100
AcDbSpline
210
0.0
220
0.0
230
1.0
 70
     8
 71
     3
 72
    11
 73
     7
 74
     0
 42
0.000000001
 43
0.00000001
 40
0.0
 40
0.0
 40
0.0
 40
0.0
 40
0.2472885692344809
 40
0.4965585959218939
 40
0.7463647942382549
 40
1.0
 40
1.0
 40
1.0
 40
1.0
 10
10.02133652286536
 20
6.395380052053518
 30
0.0
 10
10.02110606790319
 20
6.394414629136091
 30
0.0
 10
10.02064331140461
 20
6.392476047624493
 30
0.0
 10
10.01968666454271
 20
6.389798837535504
 30
0.0
 10
10.01857436521558
 20
6.38724825570009
 30
0.0
 10
10.01768095725121
 20
6.385707479555438
 30
0.0
 10
10.01723085578749
 20
6.384931232168323
 30
0.0
  0
LINE
  5
2E6
330
1F
100
AcDbEntity
  8
0
  6
Continuous
 62
     7
370
    18
100
AcDbLine
 10
10.0220436296
 20
6.3957882561
 30
0.0
 11
10.0213365229
 21
6.3953800521
 31
0.0
  0
LINE
  5
2E7
330
1F
100
AcDbEntity
  8
0
  6
Continuous
 62
     7
370
    18
100
AcDbLine
 10
10.0264623388
 20
6.3794451778
 30
0.0
 11
10.025755232
 21
6.3790369738
 31
0.0
  0
LINE
  5
2E8
330
1F
100
AcDbEntity
  8
0
  6
Continuous
 62
     7
370
    18
100
AcDbLine
 10
9.9934002807
 20
6.3509261215
 30
0.0
 11
9.992693174
 21
6.3505179174
 31
0.0
  0
LINE
  5
2E9
330
1F
100
AcDbEntity
  8
0
  6
Continuous
 62
     7
370
    18
100
AcDbLine
 10
10.0323017773
 20
6.3578328294
 30
0.0
 11
10.0315946705
 21
6.3574246253
 31
0.0
  0
LINE
  5
2EA
330
1F
100
AcDbEntity
  8
0
  6
Continuous
 62
     7
370
    18
100
AcDbLine
 10
10.0348542741
 20
6.3483509233
 30
0.0
 11
10.0341471674
 21
6.3479427192
 31
0.0
  0
LINE
  5
2EB
330
1F
100
AcDbEntity
  8
0
  6
Continuous
 62
     7
370
    18
100
AcDbLine
 10
10.0416930392
 20
6.3230473054
 30
0.0
 11
10.0409859325
 21
6.3226391014
 31
0.0
  0
LINE
  5
2EC
330
1F
100
AcDbEntity
  8
0
  6
Continuous
 62
     7
370
    18
100
AcDbLine
 10
10.0092329852
 20
6.3631417786
 30
0.0
 11
10.0085258784
 21
6.3627335745
 31
0.0
  0
LINE
  5
2ED
330
1F
100
AcDbEntity
  8
0
  6
Continuous
 62
     7
370
    18
100
AcDbLine
 10
9.9461429691
 20
6.3782071868
 30
0.0
 11
9.9461429691
 21
6.4467967477
 31
0.0
  0
LINE
  5
2EE
330
1F
100
AcDbEntity
  8
0
  6
Continuous
 62
     7
370
    18
100
AcDbLine
 10
9.9878169418
 20
6.4155469024
 30
0.0
 11
9.954619185
 21
6.4347115595
 31
0.0
  0
LINE
  5
2EF
330
1F
100
AcDbEntity
  8
0
  6
Continuous
 62
     7
370
    18
100
AcDbLine
 10
9.9855052465
 20
6.3875173519
 30
0.0
 11
9.954619185
 21
6.4053474957
 31
0.0
  0
LINE
  5
2F0
330
1F
100
AcDbEntity
  8
0
  6
Continuous
 62
     7
370
    18
100
AcDbLine
 10
9.989358072
 20
6.353259639
 30
0.0
 11
9.9461429691
 21
6.3782071868
 31
0.0
  0
LINE
  5
2F1
330
1F
100
AcDbEntity
  8
0
  6
Continuous
 62
     7
370
    18
100
AcDbLine
 10
9.954619185
 20
6.4347115595
 30
0.0
 11
9.9539120782
 21
6.4343033555
 31
0.0
  0
LINE
  5
2F2
330
1F
100
AcDbEntity
  8
0
  6
Continuous
 62
     7
370
    18
100
AcDbLine
 10
9.954619185
 20
6.4053474957
 30
0.0
 11
9.9539120782
 21
6.4049392916
 31
0.0
  0
LINE
  5
2F3
330
1F
100
AcDbEntity
  8
0
  6
Continuous
 62
     7
370
    18
100
AcDbLine
 10
9.9461429691
 20
6.3782071868
 30
0.0
 11
9.9454358623
 21
6.3777989828
 31
0.0
  0
LINE
  5
2F4
330
1F
100
AcDbEntity
  8
0
  6
Continuous
 62
     7
370
    18
100
AcDbLine
 10
9.8906622832
 20
6.4102355051
 30
0.0
 11
9.8906622832
 21
6.478825066
 31
0.0
  0
SPLINE
  5
2F5
330
1F
100
AcDbEntity
  8
0
  6
Continuous
 62
     7
370
    18
100
AcDbSpline
210
0.0
220
0.0
230
1.0
 70
     8
 71
     3
 72
     9
 73
     5
 74
     0
 42
0.000000001
 43
0.00000001
 40
0.0
 40
0.0
 40
0.0
 40
0.0
 40
0.4038165270956734
 40
0.9999999999999999
 40
0.9999999999999999
 40
0.9999999999999999
 40
0.9999999999999999
 10
9.92901903281303
 20
6.428647736260273
 30
0.0
 10
9.928432136567151
 20
6.428304964196339
 30
0.0
 10
9.926978763050956
 20
6.427456133004614
 30
0.0
 10
9.92512846206191
 20
6.427457330987225
 30
0.0
 10
9.924025343192339
 20
6.427458045204658
 30
0.0
  0
SPLINE
  5
2F6
330
1F
100
AcDbEntity
  8
0
  6
Continuous
 62
     7
370
    18
100
AcDbSpline
210
0.0
220
0.0
230
1.0
 70
     8
 71
     3
 72
    10
 73
     6
 74
     0
 42
0.000000001
 43
0.00000001
 40
0.0
 40
0.0
 40
0.0
 40
0.0
 40
0.2411943785815103
 40
0.6200734639607041
 40
0.9999999999999999
 40
0.9999999999999999
 40
0.9999999999999999
 40
0.9999999999999999
 10
9.930400725208845
 20
6.393371338990023
 30
0.0
 10
9.929289955787812
 20
6.392847064859624
 30
0.0
 10
9.92643433930698
 20
6.391499237111676
 30
0.0
 10
9.920187494212346
 20
6.39349191590734
 30
0.0
 10
9.915548227385385
 20
6.395969564994335
 30
0.0
 10
9.913225391964062
 20
6.39721009960369
 30
0.0
  0
LINE
  5
2F7
330
1F
100
AcDbEntity
  8
0
  6
Continuous
 62
     7
370
    18
100
AcDbLine
 10
9.913225392
 20
6.3972100996
 30
0.0
 11
9.8906622832
 21
6.4102355051
 31
0.0
  0
SPLINE
  5
2F8
330
1F
100
AcDbEntity
  8
0
  6
Continuous
 62
     7
370
    18
100
AcDbSpline
210
0.0
220
0.0
230
1.0
 70
     8
 71
     3
 72
     9
 73
     5
 74
     0
 42
0.000000001
 43
0.00000001
 40
0.0
 40
0.0
 40
0.0
 40
0.0
 40
0.2972916703250812
 40
1.0
 40
1.0
 40
1.0
 40
1.0
 10
9.922179419572274
 20
6.435398416276475
 30
0.0
 10
9.922666660166286
 20
6.435684212391095
 30
0.0
 10
9.924305591366332
 20
6.436645544790044
 30
0.0
 10
9.924459202759884
 20
6.439329506785371
 30
0.0
 10
9.924567146765664
 20
6.441215549236018
 30
0.0
  0
SPLINE
  5
2F9
330
1F
100
AcDbEntity
  8
0
  6
Continuous
 62
     7
370
    18
100
AcDbSpline
210
0.0
220
0.0
230
1.0
 70
     8
 71
     3
 72
    23
 73
    19
 74
     0
 42
0.000000001
 43
0.00000001
 40
0.0
 40
0.0
 40
0.0
 40
0.0
 40
0.0759917916873421
 40
0.1480992384688294
 40
0.2183194139888875
 40
0.2870085041191557
 40
0.3537649922415737
 40
0.4187540830454853
 40
0.4837636608299596
 40
0.5503403773656046
 40
0.5870295842959878
 40
0.629249193352155
 40
0.6773177465342534
 40
0.7301091520056675
 40
0.7889145862889018
 40
0.8537864845156153
 40
0.924128464421269
 40
0.9999999999999999
 40
0.9999999999999999
 40
0.9999999999999999
 40
0.9999999999999999
 10
9.924567146765664
 20
6.441215549236018
 30
0.0
 10
9.924551625272139
 20
6.441795742059545
 30
0.0
 10
9.924521375671224
 20
6.442926470963567
 30
0.0
 10
9.924265610482145
 20
6.444695221543
 30
0.0
 10
9.923825618464003
 20
6.446454903904184
 30
0.0
 10
9.923247044987999
 20
6.448189114552074
 30
0.0
 10
9.922481855984577
 20
6.449859015106236
 30
0.0
 10
9.921573571240637
 20
6.451437473859806
 30
0.0
 10
9.920493200909087
 20
6.452870059650567
 30
0.0
 10
9.919483205337837
 20
6.453954160965148
 30
0.0
 10
9.918575330307554
 20
6.454792254456281
 30
0.0
 10
9.917764088153556
 20
6.455446260809484
 30
0.0
 10
9.916843925582636
 20
6.456141098834643
 30
0.0
 10
9.915811781014039
 20
6.456876054249818
 30
0.0
 10
9.914667274703202
 20
6.457644729530722
 30
0.0
 10
9.913406876888201
 20
6.458458112506787
 30
0.0
 10
9.912033588898456
 20
6.459287311174076
 30
0.0
 10
9.911082265183646
 20
6.459842022145358
 30
0.0
 10
9.91058861457388
 20
6.460129866761186
 30
0.0
  0
LINE
  5
2FA
330
1F
100
AcDbEntity
  8
0
  6
Continuous
 62
     7
370
    18
100
AcDbLine
 10
9.9105886146
 20
6.4601298668
 30
0.0
 11
9.8991384991
 21
6.4667398778
 31
0.0
  0
SPLINE
  5
2FB
330
1F
100
AcDbEntity
  8
0
  6
Continuous
 62
     7
370
    18
100
AcDbSpline
210
0.0
220
0.0
230
1.0
 70
     8
 71
     3
 72
    10
 73
     6
 74
     0
 42
0.000000001
 43
0.00000001
 40
0.0
 40
0.0
 40
0.0
 40
0.0
 40
0.2327047756778141
 40
0.6161010935287715
 40
1.0
 40
1.0
 40
1.0
 40
1.0
 10
9.923818622701527
 20
6.402604747280006
 30
0.0
 10
9.924314735946618
 20
6.402798125030658
 30
0.0
 10
9.925628228168364
 20
6.403310105256653
 30
0.0
 10
9.926642482033566
 20
6.405846350827921
 30
0.0
 10
9.926800020955724
 20
6.408180996043139
 30
0.0
 10
9.92687884201185
 20
6.409349083262648
 30
0.0
  0
SPLINE
  5
2FC
330
1F
100
AcDbEntity
  8
0
  6
Continuous
 62
     7
370
    18
100
AcDbSpline
210
0.0
220
0.0
230
1.0
 70
     8
 71
     3
 72
    19
 73
    15
 74
     0
 42
0.000000001
 43
0.00000001
 40
0.0
 40
0.0
 40
0.0
 40
0.0
 40
0.0801171945698666
 40
0.1562367079050307
 40
0.2293410460817587
 40
0.3019517190328915
 40
0.373233280935086
 40
0.4427388184259717
 40
0.5128783538514357
 40
0.5860843325765314
 40
0.667835977289547
 40
0.763743588503143
 40
0.8741164363352616
 40
1.0
 40
1.0
 40
1.0
 40
1.0
 10
9.92687884201185
 20
6.409349083262648
 30
0.0
 10
9.92686210581648
 20
6.409990620482484
 30
0.0
 10
9.926829468527048
 20
6.411241683550331
 30
0.0
 10
9.926524148575025
 20
6.413200162133696
 30
0.0
 10
9.926008208240713
 20
6.415146794947729
 30
0.0
 10
9.925318780475829
 20
6.417066105652842
 30
0.0
 10
9.924425026728649
 20
6.418921157227297
 30
0.0
 10
9.923360196106518
 20
6.420665724682822
 30
0.0
 10
9.922135906530567
 20
6.422290007119043
 30
0.0
 10
9.920719882388175
 20
6.423814382153036
 30
0.0
 10
9.91906081317599
 20
6.425282268492282
 30
0.0
 10
9.917115203917701
 20
6.426745849095398
 30
0.0
 10
9.914854685996117
 20
6.42827471025951
 30
0.0
 10
9.913241913537433
 20
6.429224234064217
 30
0.0
 10
9.912382586405556
 20
6.429730165054887
 30
0.0
  0
LINE
  5
2FD
330
1F
100
AcDbEntity
  8
0
  6
Continuous
 62
     7
370
    18
100
AcDbLine
 10
9.9123825864
 20
6.4297301651
 30
0.0
 11
9.8991384991
 21
6.4373758139
 31
0.0
  0
LINE
  5
2FE
330
1F
100
AcDbEntity
  8
0
  6
Continuous
 62
     7
370
    18
100
AcDbLine
 10
9.9105886146
 20
6.4601298668
 30
0.0
 11
9.9098815078
 21
6.4597216627
 31
0.0
  0
LINE
  5
2FF
330
1F
100
AcDbEntity
  8
0
  6
Continuous
 62
     7
370
    18
100
AcDbLine
 10
9.9245671468
 20
6.4412155492
 30
0.0
 11
9.92386004
 21
6.4408073452
 31
0.0
  0
SPLINE
  5
300
330
1F
100
AcDbEntity
  8
0
  6
Continuous
 62
     7
370
    18
100
AcDbSpline
210
0.0
220
0.0
230
1.0
 70
     8
 71
     3
 72
    23
 73
    19
 74
     0
 42
0.000000001
 43
0.00000001
 40
0.0
 40
0.0
 40
0.0
 40
0.0
 40
0.0759917916873421
 40
0.1480992384688294
 40
0.2183194139888875
 40
0.2870085041191557
 40
0.3537649922415737
 40
0.4187540830454853
 40
0.4837636608299596
 40
0.5503403773656046
 40
0.5870295842959878
 40
0.629249193352155
 40
0.6773177465342534
 40
0.7301091520056675
 40
0.7889145862889018
 40
0.8537864845156153
 40
0.924128464421269
 40
0.9999999999999999
 40
0.9999999999999999
 40
0.9999999999999999
 40
0.9999999999999999
 10
9.92386003998448
 20
6.440807345180107
 30
0.0
 10
9.923844518490952
 20
6.441387538003633
 30
0.0
 10
9.923814268890037
 20
6.442518266907655
 30
0.0
 10
9.92355850370096
 20
6.444287017487088
 30
0.0
 10
9.923118511682816
 20
6.446046699848272
 30
0.0
 10
9.92253993820681
 20
6.447780910496162
 30
0.0
 10
9.921774749203392
 20
6.449450811050326
 30
0.0
 10
9.920866464459452
 20
6.451029269803896
 30
0.0
 10
9.9197860941279
 20
6.452461855594656
 30
0.0
 10
9.91877609855665
 20
6.453545956909236
 30
0.0
 10
9.917868223526368
 20
6.45438405040037
 30
0.0
 10
9.91705698137237
 20
6.455038056753573
 30
0.0
 10
9.91613681880145
 20
6.455732894778731
 30
0.0
 10
9.915104674232852
 20
6.456467850193906
 30
0.0
 10
9.913960167922014
 20
6.45723652547481
 30
0.0
 10
9.912699770107016
 20
6.458049908450875
 30
0.0
 10
9.911326482117271
 20
6.458879107118164
 30
0.0
 10
9.910375158402461
 20
6.459433818089447
 30
0.0
 10
9.909881507792694
 20
6.459721662705275
 30
0.0
  0
SPLINE
  5
301
330
1F
100
AcDbEntity
  8
0
  6
Continuous
 62
     7
370
    18
100
AcDbSpline
210
0.0
220
0.0
230
1.0
 70
     8
 71
     3
 72
    15
 73
    11
 74
     0
 42
0.000000001
 43
0.00000001
 40
0.0
 40
0.0
 40
0.0
 40
0.0
 40
0.132309463305469
 40
0.255064957497917
 40
0.374367952539193
 40
0.4905979041316612
 40
0.6083390179302164
 40
0.730174617772939
 40
0.8600686764279898
 40
0.9999999999999999
 40
0.9999999999999999
 40
0.9999999999999999
 40
0.9999999999999999
 10
9.918044681630791
 20
6.434473782903519
 30
0.0
 10
9.918505140498516
 20
6.434393890968953
 30
0.0
 10
9.919392808837515
 20
6.434239876037704
 30
0.0
 10
9.920581954654535
 20
6.434373887484151
 30
0.0
 10
9.921605937776011
 20
6.434751251691099
 30
0.0
 10
9.922438715366003
 20
6.435434981781394
 30
0.0
 10
9.92308050054094
 20
6.436389715000616
 30
0.0
 10
9.923543882350232
 20
6.437604931803786
 30
0.0
 10
9.923803037715377
 20
6.439099654407648
 30
0.0
 10
9.92384057379186
 20
6.440224171246258
 30
0.0
 10
9.92386003998448
 20
6.440807345180107
 30
0.0
  0
SPLINE
  5
302
330
1F
100
AcDbEntity
  8
0
  6
Continuous
 62
     7
370
    18
100
AcDbSpline
210
0.0
220
0.0
230
1.0
 70
     8
 71
     3
 72
    15
 73
    11
 74
     0
 42
0.000000001
 43
0.00000001
 40
0.0
 40
0.0
 40
0.0
 40
0.0
 40
0.1669801744060321
 40
0.3208066328848166
 40
0.4631345048703157
 40
0.5942480539785189
 40
0.7123671525397418
 40
0.8194549510427509
 40
0.9157522665813522
 40
1.0
 40
1.0
 40
1.0
 40
1.0
 10
9.910820633986456
 20
6.437823833921121
 30
0.0
 10
9.91122604082308
 20
6.437591649709681
 30
0.0
 10
9.91200491893042
 20
6.437145571393221
 30
0.0
 10
9.913128432043676
 20
6.4365465964083
 30
0.0
 10
9.914165380793571
 20
6.43599030761704
 30
0.0
 10
9.91511175412375
 20
6.435550220391794
 30
0.0
 10
9.915972240444162
 20
6.435157531991768
 30
0.0
 10
9.916743396192972
 20
6.434852433937609
 30
0.0
 10
9.917428998533406
 20
6.434614483289744
 30
0.0
 10
9.917848792962703
 20
6.434518548808859
 30
0.0
 10
9.918044681630791
 20
6.434473782903519
 30
0.0
  0
LINE
  5
303
330
1F
100
AcDbEntity
  8
0
  6
Continuous
 62
     7
370
    18
100
AcDbLine
 10
9.8984313923
 20
6.4449759909
 30
0.0
 11
9.910820634
 21
6.4378238339
 31
0.0
  0
LINE
  5
304
330
1F
100
AcDbEntity
  8
0
  6
Continuous
 62
     7
370
    18
100
AcDbLine
 10
9.8984313923
 20
6.4663316737
 30
0.0
 11
9.8984313923
 21
6.4449759909
 31
0.0
  0
LINE
  5
305
330
1F
100
AcDbEntity
  8
0
  6
Continuous
 62
     7
370
    18
100
AcDbLine
 10
9.9098815078
 20
6.4597216627
 30
0.0
 11
9.8984313923
 21
6.4663316737
 31
0.0
  0
LINE
  5
306
330
1F
100
AcDbEntity
  8
0
  6
Continuous
 62
     7
370
    18
100
AcDbLine
 10
9.9240253432
 20
6.4274580452
 30
0.0
 11
9.9233182364
 21
6.4270498411
 31
0.0
  0
LINE
  5
307
330
1F
100
AcDbEntity
  8
0
  6
Continuous
 62
     7
370
    18
100
AcDbLine
 10
9.8991384991
 20
6.4667398778
 30
0.0
 11
9.8984313923
 21
6.4663316737
 31
0.0
  0
LINE
  5
308
330
1F
100
AcDbEntity
  8
0
  6
Continuous
 62
     7
370
    18
100
AcDbLine
 10
9.9123825864
 20
6.4297301651
 30
0.0
 11
9.9116754796
 21
6.429321961
 31
0.0
  0
LINE
  5
309
330
1F
100
AcDbEntity
  8
0
  6
Continuous
 62
     7
370
    18
100
AcDbLine
 10
9.926878842
 20
6.4093490833
 30
0.0
 11
9.9261717352
 21
6.4089408792
 31
0.0
  0
SPLINE
  5
30A
330
1F
100
AcDbEntity
  8
0
  6
Continuous
 62
     7
370
    18
100
AcDbSpline
210
0.0
220
0.0
230
1.0
 70
     8
 71
     3
 72
    19
 73
    15
 74
     0
 42
0.000000001
 43
0.00000001
 40
0.0
 40
0.0
 40
0.0
 40
0.0
 40
0.0801171945698666
 40
0.1562367079050307
 40
0.2293410460817587
 40
0.3019517190328915
 40
0.373233280935086
 40
0.4427388184259717
 40
0.5128783538514357
 40
0.5860843325765314
 40
0.667835977289547
 40
0.763743588503143
 40
0.8741164363352616
 40
1.0
 40
1.0
 40
1.0
 40
1.0
 10
9.926171735230666
 20
6.408940879206736
 30
0.0
 10
9.926154999035294
 20
6.409582416426574
 30
0.0
 10
9.926122361745861
 20
6.410833479494419
 30
0.0
 10
9.92581704179384
 20
6.412791958077785
 30
0.0
 10
9.925301101459528
 20
6.414738590891818
 30
0.0
 10
9.924611673694644
 20
6.416657901596931
 30
0.0
 10
9.92371791994746
 20
6.418512953171386
 30
0.0
 10
9.922653089325332
 20
6.420257520626911
 30
0.0
 10
9.921428799749382
 20
6.421881803063131
 30
0.0
 10
9.920012775606988
 20
6.423406178097126
 30
0.0
 10
9.918353706394802
 20
6.424874064436372
 30
0.0
 10
9.916408097136514
 20
6.426337645039486
 30
0.0
 10
9.914147579214928
 20
6.4278665062036
 30
0.0
 10
9.912534806756248
 20
6.428816030008305
 30
0.0
 10
9.91167547962437
 20
6.429321960998975
 30
0.0
  0
SPLINE
  5
30B
330
1F
100
AcDbEntity
  8
0
  6
Continuous
 62
     7
370
    18
100
AcDbSpline
210
0.0
220
0.0
230
1.0
 70
     8
 71
     3
 72
    19
 73
    15
 74
     0
 42
0.000000001
 43
0.00000001
 40
0.0
 40
0.0
 40
0.0
 40
0.0
 40
0.0889746355187116
 40
0.1722778979832331
 40
0.2510888193166931
 40
0.3254350616209107
 40
0.3979644757227705
 40
0.4734240254266163
 40
0.5519522794648651
 40
0.6356010187551772
 40
0.7218551388160774
 40
0.8102538553165373
 40
0.9031712343244956
 40
1.0
 40
1.0
 40
1.0
 40
1.0
 10
9.917791839963238
 20
6.402099600757032
 30
0.0
 10
9.918211438496265
 20
6.40195902702439
 30
0.0
 10
9.919023889739755
 20
6.40168683993388
 30
0.0
 10
9.920171795166757
 20
6.401467954358452
 30
0.0
 10
9.921227871331107
 20
6.401356195359408
 30
0.0
 10
9.922166217522028
 20
6.401454118357689
 30
0.0
 10
9.92302338105229
 20
6.401706565056059
 30
0.0
 10
9.923776036146936
 20
6.40218909611439
 30
0.0
 10
9.924474636584302
 20
6.402835903130065
 30
0.0
 10
9.925063719518613
 20
6.403701849563371
 30
0.0
 10
9.925565983550172
 20
6.404729597152754
 30
0.0
 10
9.925909120963883
 20
6.4059692742007
 30
0.0
 10
9.926133175761413
 20
6.407368803091516
 30
0.0
 10
9.926158706644848
 20
6.408409701548531
 30
0.0
 10
9.926171735230666
 20
6.408940879206736
 30
0.0
  0
SPLINE
  5
30C
330
1F
100
AcDbEntity
  8
0
  6
Continuous
 62
     7
370
    18
100
AcDbSpline
210
0.0
220
0.0
230
1.0
 70
     8
 71
     3
 72
    11
 73
     7
 74
     0
 42
0.000000001
 43
0.00000001
 40
0.0
 40
0.0
 40
0.0
 40
0.0
 40
0.3293005127679522
 40
0.6051256922032391
 40
0.827590725882284
 40
1.0
 40
1.0
 40
1.0
 40
1.0
 10
9.912650726056354
 20
6.404733820098589
 30
0.0
 10
9.91321678171887
 20
6.404405515082942
 30
0.0
 10
9.914256970881425
 20
6.403802218725527
 30
0.0
 10
9.915677187338177
 20
6.403063884915298
 30
0.0
 10
9.916829696836402
 20
6.402468852056775
 30
0.0
 10
9.917499424664463
 20
6.402211823903595
 30
0.0
 10
9.917791839963238
 20
6.402099600757032
 30
0.0
  0
LINE
  5
30D
330
1F
100
AcDbEntity
  8
0
  6
Continuous
 62
     7
370
    18
100
AcDbLine
 10
9.8984313923
 20
6.4129424668
 30
0.0
 11
9.9126507261
 21
6.4047338201
 31
0.0
  0
LINE
  5
30E
330
1F
100
AcDbEntity
  8
0
  6
Continuous
 62
     7
370
    18
100
AcDbLine
 10
9.8984313923
 20
6.4369676099
 30
0.0
 11
9.8984313923
 21
6.4129424668
 31
0.0
  0
LINE
  5
30F
330
1F
100
AcDbEntity
  8
0
  6
Continuous
 62
     7
370
    18
100
AcDbLine
 10
9.9116754796
 20
6.429321961
 30
0.0
 11
9.8984313923
 21
6.4369676099
 31
0.0
  0
LINE
  5
310
330
1F
100
AcDbEntity
  8
0
  6
Continuous
 62
     7
370
    18
100
AcDbLine
 10
9.913225392
 20
6.3972100996
 30
0.0
 11
9.9125182852
 21
6.3968018955
 31
0.0
  0
LINE
  5
311
330
1F
100
AcDbEntity
  8
0
  6
Continuous
 62
     7
370
    18
100
AcDbLine
 10
9.8906622832
 20
6.4102355051
 30
0.0
 11
9.8899551764
 21
6.409827301
 31
0.0
  0
LINE
  5
312
330
1F
100
AcDbEntity
  8
0
  6
Continuous
 62
     7
370
    18
100
AcDbLine
 10
9.8991384991
 20
6.4373758139
 30
0.0
 11
9.8984313923
 21
6.4369676099
 31
0.0
  0
LINE
  5
313
330
1F
100
AcDbEntity
  8
0
  6
Continuous
 62
     7
370
    18
100
AcDbLine
 10
9.7967496638
 20
6.4644501062
 30
0.0
 11
9.7967496638
 21
6.5143534447
 31
0.0
  0
SPLINE
  5
314
330
1F
100
AcDbEntity
  8
0
  6
Continuous
 62
     7
370
    18
100
AcDbSpline
210
0.0
220
0.0
230
1.0
 70
     8
 71
     3
 72
     9
 73
     5
 74
     0
 42
0.000000001
 43
0.00000001
 40
0.0
 40
0.0
 40
0.0
 40
0.0
 40
0.988464793636258
 40
1.0
 40
1.0
 40
1.0
 40
1.0
 10
9.80445531459921
 20
6.502810418328941
 30
0.0
 10
9.805184709443305
 20
6.503867219904816
 30
0.0
 10
9.805922616194046
 20
6.504936354165014
 30
0.0
 10
9.80708094213987
 20
6.505276977087732
 30
0.0
 10
9.80709430366869
 20
6.505280906243438
 30
0.0
  0
SPLINE
  5
315
330
1F
100
AcDbEntity
  8
0
  6
Continuous
 62
     7
370
    18
100
AcDbSpline
210
0.0
220
0.0
230
1.0
 70
     8
 71
     3
 72
     9
 73
     5
 74
     0
 42
0.000000001
 43
0.00000001
 40
0.0
 40
0.0
 40
0.0
 40
0.0
 40
0.949662228063785
 40
1.0
 40
1.0
 40
1.0
 40
1.0
 10
9.828679954366542
 20
6.488214080132142
 30
0.0
 10
9.829483530558614
 20
6.489291583132962
 30
0.0
 10
9.830329701089909
 20
6.490426200230471
 30
0.0
 10
9.831605065884556
 20
6.490818333270653
 30
0.0
 10
9.831669264906726
 20
6.490838072374197
 30
0.0
  0
LINE
  5
316
330
1F
100
AcDbEntity
  8
0
  6
Continuous
 62
     7
370
    18
100
AcDbLine
 10
9.8546055032
 20
6.4310506411
 30
0.0
 11
9.8476069592
 21
6.4350908145
 31
0.0
  0
LINE
  5
317
330
1F
100
AcDbEntity
  8
0
  6
Continuous
 62
     7
370
    18
100
AcDbLine
 10
9.8476069592
 20
6.4350908145
 30
0.0
 11
9.8476069592
 21
6.4664569736
 31
0.0
  0
SPLINE
  5
318
330
1F
100
AcDbEntity
  8
0
  6
Continuous
 62
     7
370
    18
100
AcDbSpline
210
0.0
220
0.0
230
1.0
 70
     8
 71
     3
 72
    19
 73
    15
 74
     0
 42
0.000000001
 43
0.00000001
 40
0.0
 40
0.0
 40
0.0
 40
0.0
 40
0.1364148811765275
 40
0.2528973605082377
 40
0.3492204458013852
 40
0.4269322474132383
 40
0.4944524086148369
 40
0.5607020268402086
 40
0.6286260433619786
 40
0.698836431094077
 40
0.7714182240964009
 40
0.8441568540005466
 40
0.9199641120853101
 40
1.0
 40
1.0
 40
1.0
 40
1.0
 10
9.847606959194696
 20
6.466456973599712
 30
0.0
 10
9.847596394786164
 20
6.467246396087814
 30
0.0
 10
9.847576809598603
 20
6.468709893778423
 30
0.0
 10
9.847471613330562
 20
6.470774544857034
 30
0.0
 10
9.847260424328697
 20
6.472548304826955
 30
0.0
 10
9.84697056424844
 20
6.474067701867702
 30
0.0
 10
9.846525260378144
 20
6.475432271568642
 30
0.0
 10
9.84596259587939
 20
6.476721979051812
 30
0.0
 10
9.845255976234878
 20
6.477981279380864
 30
0.0
 10
9.8444216180724
 20
6.479202023654749
 30
0.0
 10
9.843476608476925
 20
6.480345050141136
 30
0.0
 10
9.842433103663417
 20
6.481359747120201
 30
0.0
 10
9.84131707610518
 20
6.482283835069015
 30
0.0
 10
9.840540786593037
 20
6.482757901219408
 30
0.0
 10
9.840142109962219
 20
6.483001365922545
 30
0.0
  0
SPLINE
  5
319
330
1F
100
AcDbEntity
  8
0
  6
Continuous
 62
     7
370
    18
100
AcDbSpline
210
0.0
220
0.0
230
1.0
 70
     8
 71
     3
 72
     9
 73
     5
 74
     0
 42
0.000000001
 43
0.00000001
 40
0.0
 40
0.0
 40
0.0
 40
0.0
 40
0.6579658467864666
 40
0.9999999999999999
 40
0.9999999999999999
 40
0.9999999999999999
 40
0.9999999999999999
 10
9.840142109962219
 20
6.483001365922545
 30
0.0
 10
9.83833357512121
 20
6.483883745175971
 30
0.0
 10
9.835584899259318
 20
6.485224816688627
 30
0.0
 10
9.833848739264013
 20
6.483880414918584
 30
0.0
 10
9.833254913250176
 20
6.483420583597588
 30
0.0
  0
LINE
  5
31A
330
1F
100
AcDbEntity
  8
0
  6
Continuous
 62
     7
370
    18
100
AcDbLine
 10
9.8291768555
 20
6.4457302869
 30
0.0
 11
9.8221783115
 21
6.4497704604
 31
0.0
  0
LINE
  5
31B
330
1F
100
AcDbEntity
  8
0
  6
Continuous
 62
     7
370
    18
100
AcDbLine
 10
9.8221783115
 20
6.4497704604
 30
0.0
 11
9.8221783115
 21
6.4821237636
 31
0.0
  0
SPLINE
  5
31C
330
1F
100
AcDbEntity
  8
0
  6
Continuous
 62
     7
370
    18
100
AcDbSpline
210
0.0
220
0.0
230
1.0
 70
     8
 71
     3
 72
    23
 73
    19
 74
     0
 42
0.000000001
 43
0.00000001
 40
0.0
 40
0.0
 40
0.0
 40
0.0
 40
0.0840520374929028
 40
0.1623146334137115
 40
0.2366600199015783
 40
0.3057775454542922
 40
0.369854882253864
 40
0.4308818052540365
 40
0.4880260023390453
 40
0.5427446849665448
 40
0.5951151179188187
 40
0.6466861713516491
 40
0.6997262587744729
 40
0.753413956654465
 40
0.8093158108836109
 40
0.8690272915375981
 40
0.9322090442192221
 40
1.0
 40
1.0
 40
1.0
 40
1.0
 10
9.822178311486642
 20
6.482123763647177
 30
0.0
 10
9.822175387556658
 20
6.482579876883435
 30
0.0
 10
9.822169741094806
 20
6.483460686616865
 30
0.0
 10
9.822078271641763
 20
6.484788970265177
 30
0.0
 10
9.821954970630134
 20
6.486050628977264
 30
0.0
 10
9.82176116049026
 20
6.487263055914307
 30
0.0
 10
9.821517052789973
 20
6.48841556007005
 30
0.0
 10
9.82123717369382
 20
6.489509235585668
 30
0.0
 10
9.820883313637829
 20
6.490555913881122
 30
0.0
 10
9.82047737213218
 20
6.491546708087293
 30
0.0
 10
9.820000155190538
 20
6.492482378676057
 30
0.0
 10
9.819464128678998
 20
6.493375592165672
 30
0.0
 10
9.818849563284699
 20
6.494215616181509
 30
0.0
 10
9.818163470763356
 20
6.494994763355879
 30
0.0
 10
9.817424472558551
 20
6.49576056689015
 30
0.0
 10
9.816600499036644
 20
6.496420797913041
 30
0.0
 10
9.815717154402188
 20
6.497086091695402
 30
0.0
 10
9.815103386545307
 20
6.497450626478392
 30
0.0
 10
9.814785702730607
 20
6.497639308239992
 30
0.0
  0
SPLINE
  5
31D
330
1F
100
AcDbEntity
  8
0
  6
Continuous
 62
     7
370
    18
100
AcDbSpline
210
0.0
220
0.0
230
1.0
 70
     8
 71
     3
 72
     9
 73
     5
 74
     0
 42
0.000000001
 43
0.00000001
 40
0.0
 40
0.0
 40
0.0
 40
0.0
 40
0.6809082185156612
 40
1.0
 40
1.0
 40
1.0
 40
1.0
 10
9.814785702730607
 20
6.497639308239992
 30
0.0
 10
9.813003461692663
 20
6.498397845118022
 30
0.0
 10
9.810386014892227
 20
6.499511852641216
 30
0.0
 10
9.808439079538932
 20
6.498668790093813
 30
0.0
 10
9.807817828468613
 20
6.49839977576366
 30
0.0
  0
LINE
  5
31E
330
1F
100
AcDbEntity
  8
0
  6
Continuous
 62
     7
370
    18
100
AcDbLine
 10
9.8037482078
 20
6.4604099328
 30
0.0
 11
9.7967496638
 21
6.4644501062
 31
0.0
  0
LINE
  5
31F
330
1F
100
AcDbEntity
  8
0
  6
Continuous
 62
     7
370
    18
100
AcDbLine
 10
9.8286799544
 20
6.4882140801
 30
0.0
 11
9.8279728476
 21
6.4878058761
 31
0.0
  0
LINE
  5
320
330
1F
100
AcDbEntity
  8
0
  6
Continuous
 62
     7
370
    18
100
AcDbLine
 10
9.84014211
 20
6.4830013659
 30
0.0
 11
9.8394350032
 21
6.4825931619
 31
0.0
  0
LINE
  5
321
330
1F
100
AcDbEntity
  8
0
  6
Continuous
 62
     7
370
    18
100
AcDbLine
 10
9.8476069592
 20
6.4664569736
 30
0.0
 11
9.8468998524
 21
6.4660487695
 31
0.0
  0
LINE
  5
322
330
1F
100
AcDbEntity
  8
0
  6
Continuous
 62
     7
370
    18
100
AcDbLine
 10
9.8476069592
 20
6.4350908145
 30
0.0
 11
9.8468998524
 21
6.4346826105
 31
0.0
  0
LINE
  5
323
330
1F
100
AcDbEntity
  8
0
  6
Continuous
 62
     7
370
    18
100
AcDbLine
 10
9.8044553146
 20
6.5028104183
 30
0.0
 11
9.8037482078
 21
6.5024022143
 31
0.0
  0
LINE
  5
324
330
1F
100
AcDbEntity
  8
0
  6
Continuous
 62
     7
370
    18
100
AcDbLine
 10
9.8147857027
 20
6.4976393082
 30
0.0
 11
9.8140785959
 21
6.4972311042
 31
0.0
  0
LINE
  5
325
330
1F
100
AcDbEntity
  8
0
  6
Continuous
 62
     7
370
    18
100
AcDbLine
 10
9.8221783115
 20
6.4821237636
 30
0.0
 11
9.8214712047
 21
6.4817155596
 31
0.0
  0
LINE
  5
326
330
1F
100
AcDbEntity
  8
0
  6
Continuous
 62
     7
370
    18
100
AcDbLine
 10
9.8221783115
 20
6.4497704604
 30
0.0
 11
9.8214712047
 21
6.4493622563
 31
0.0
  0
LINE
  5
327
330
1F
100
AcDbEntity
  8
0
  6
Continuous
 62
     7
370
    18
100
AcDbLine
 10
9.7967496638
 20
6.4644501062
 30
0.0
 11
9.796042557
 21
6.4640419022
 31
0.0
  0
LINE
  5
328
330
1F
100
AcDbEntity
  8
0
  6
Continuous
 62
     7
370
    18
100
AcDbLine
 10
9.7273988064
 20
6.504485504
 30
0.0
 11
9.7273988064
 21
6.5543888425
 31
0.0
  0
SPLINE
  5
329
330
1F
100
AcDbEntity
  8
0
  6
Continuous
 62
     7
370
    18
100
AcDbSpline
210
0.0
220
0.0
230
1.0
 70
     8
 71
     3
 72
     9
 73
     5
 74
     0
 42
0.000000001
 43
0.00000001
 40
0.0
 40
0.0
 40
0.0
 40
0.0
 40
0.9884647936361877
 40
0.9999999999999999
 40
0.9999999999999999
 40
0.9999999999999999
 40
0.9999999999999999
 10
9.735104457213607
 20
6.542845816120247
 30
0.0
 10
9.735833852057702
 20
6.543902617696124
 30
0.0
 10
9.736571758808447
 20
6.544971751956322
 30
0.0
 10
9.737730084754265
 20
6.545312374879038
 30
0.0
 10
9.737743446283087
 20
6.545316304034744
 30
0.0
  0
SPLINE
  5
32A
330
1F
100
AcDbEntity
  8
0
  6
Continuous
 62
     7
370
    18
100
AcDbSpline
210
0.0
220
0.0
230
1.0
 70
     8
 71
     3
 72
     9
 73
     5
 74
     0
 42
0.000000001
 43
0.00000001
 40
0.0
 40
0.0
 40
0.0
 40
0.0
 40
0.9496622280632436
 40
1.0
 40
1.0
 40
1.0
 40
1.0
 10
9.759329096980938
 20
6.528249477923449
 30
0.0
 10
9.760132673173011
 20
6.529326980924268
 30
0.0
 10
9.760978843704306
 20
6.530461598021777
 30
0.0
 10
9.762254208498954
 20
6.530853731061959
 30
0.0
 10
9.762318407521123
 20
6.530873470165505
 30
0.0
  0
LINE
  5
32B
330
1F
100
AcDbEntity
  8
0
  6
Continuous
 62
     7
370
    18
100
AcDbLine
 10
9.7852546458
 20
6.4710860388
 30
0.0
 11
9.7782561018
 21
6.4751262123
 31
0.0
  0
LINE
  5
32C
330
1F
100
AcDbEntity
  8
0
  6
Continuous
 62
     7
370
    18
100
AcDbLine
 10
9.7782561018
 20
6.4751262123
 30
0.0
 11
9.7782561018
 21
6.5064923714
 31
0.0
  0
SPLINE
  5
32D
330
1F
100
AcDbEntity
  8
0
  6
Continuous
 62
     7
370
    18
100
AcDbSpline
210
0.0
220
0.0
230
1.0
 70
     8
 71
     3
 72
    19
 73
    15
 74
     0
 42
0.000000001
 43
0.00000001
 40
0.0
 40
0.0
 40
0.0
 40
0.0
 40
0.1364148811765275
 40
0.2528973605082377
 40
0.3492204458013852
 40
0.4269322474132383
 40
0.4944524086148369
 40
0.5607020268402086
 40
0.6286260433619786
 40
0.698836431094077
 40
0.7714182240964009
 40
0.8441568540005466
 40
0.9199641120853101
 40
1.0
 40
1.0
 40
1.0
 40
1.0
 10
9.778256101809093
 20
6.506492371391019
 30
0.0
 10
9.77824553740056
 20
6.507281793879121
 30
0.0
 10
9.778225952213003
 20
6.508745291569729
 30
0.0
 10
9.778120755944961
 20
6.510809942648341
 30
0.0
 10
9.777909566943094
 20
6.512583702618262
 30
0.0
 10
9.777619706862836
 20
6.514103099659009
 30
0.0
 10
9.77717440299254
 20
6.515467669359948
 30
0.0
 10
9.776611738493786
 20
6.516757376843118
 30
0.0
 10
9.775905118849275
 20
6.518016677172169
 30
0.0
 10
9.775070760686795
 20
6.519237421446055
 30
0.0
 10
9.77412575109132
 20
6.520380447932443
 30
0.0
 10
9.773082246277815
 20
6.521395144911507
 30
0.0
 10
9.771966218719577
 20
6.52231923286032
 30
0.0
 10
9.771189929207434
 20
6.522793299010713
 30
0.0
 10
9.770791252576617
 20
6.523036763713852
 30
0.0
  0
SPLINE
  5
32E
330
1F
100
AcDbEntity
  8
0
  6
Continuous
 62
     7
370
    18
100
AcDbSpline
210
0.0
220
0.0
230
1.0
 70
     8
 71
     3
 72
     9
 73
     5
 74
     0
 42
0.000000001
 43
0.00000001
 40
0.0
 40
0.0
 40
0.0
 40
0.0
 40
0.6579658467865312
 40
1.0
 40
1.0
 40
1.0
 40
1.0
 10
9.770791252576617
 20
6.523036763713852
 30
0.0
 10
9.768982717735605
 20
6.523919142967278
 30
0.0
 10
9.766234041873716
 20
6.525260214479933
 30
0.0
 10
9.76449788187841
 20
6.52391581270989
 30
0.0
 10
9.763904055864572
 20
6.523455981388894
 30
0.0
  0
LINE
  5
32F
330
1F
100
AcDbEntity
  8
0
  6
Continuous
 62
     7
370
    18
100
AcDbLine
 10
9.7598259981
 20
6.4857656847
 30
0.0
 11
9.7528274541
 21
6.4898058582
 31
0.0
  0
LINE
  5
330
330
1F
100
AcDbEntity
  8
0
  6
Continuous
 62
     7
370
    18
100
AcDbLine
 10
9.7528274541
 20
6.4898058582
 30
0.0
 11
9.7528274541
 21
6.5221591614
 31
0.0
  0
SPLINE
  5
331
330
1F
100
AcDbEntity
  8
0
  6
Continuous
 62
     7
370
    18
100
AcDbSpline
210
0.0
220
0.0
230
1.0
 70
     8
 71
     3
 72
    23
 73
    19
 74
     0
 42
0.000000001
 43
0.00000001
 40
0.0
 40
0.0
 40
0.0
 40
0.0
 40
0.0840520374929027
 40
0.1623146334137115
 40
0.2366600199015785
 40
0.3057775454542916
 40
0.3698548822538634
 40
0.4308818052540364
 40
0.4880260023390452
 40
0.5427446849665438
 40
0.5951151179188187
 40
0.6466861713516503
 40
0.6997262587744727
 40
0.7534139566544632
 40
0.8093158108836093
 40
0.8690272915375964
 40
0.9322090442192221
 40
1.0
 40
1.0
 40
1.0
 40
1.0
 10
9.75282745410104
 20
6.522159161438482
 30
0.0
 10
9.752824530171056
 20
6.52261527467474
 30
0.0
 10
9.752818883709203
 20
6.523496084408171
 30
0.0
 10
9.75272741425616
 20
6.524824368056483
 30
0.0
 10
9.75260411324453
 20
6.52608602676857
 30
0.0
 10
9.752410303104657
 20
6.527298453705613
 30
0.0
 10
9.75216619540437
 20
6.528450957861356
 30
0.0
 10
9.751886316308218
 20
6.529544633376974
 30
0.0
 10
9.751532456252226
 20
6.530591311672429
 30
0.0
 10
9.751126514746575
 20
6.531582105878599
 30
0.0
 10
9.750649297804934
 20
6.532517776467365
 30
0.0
 10
9.750113271293394
 20
6.533410989956979
 30
0.0
 10
9.749498705899097
 20
6.534251013972814
 30
0.0
 10
9.748812613377753
 20
6.535030161147185
 30
0.0
 10
9.748073615172949
 20
6.535795964681456
 30
0.0
 10
9.74724964165104
 20
6.536456195704347
 30
0.0
 10
9.746366297016586
 20
6.537121489486709
 30
0.0
 10
9.745752529159702
 20
6.537486024269698
 30
0.0
 10
9.745434845345004
 20
6.537674706031298
 30
0.0
  0
SPLINE
  5
332
330
1F
100
AcDbEntity
  8
0
  6
Continuous
 62
     7
370
    18
100
AcDbSpline
210
0.0
220
0.0
230
1.0
 70
     8
 71
     3
 72
     9
 73
     5
 74
     0
 42
0.000000001
 43
0.00000001
 40
0.0
 40
0.0
 40
0.0
 40
0.0
 40
0.6809082185155341
 40
1.0
 40
1.0
 40
1.0
 40
1.0
 10
9.745434845345004
 20
6.537674706031298
 30
0.0
 10
9.74365260430706
 20
6.538433242909329
 30
0.0
 10
9.741035157506625
 20
6.539547250432522
 30
0.0
 10
9.739088222153326
 20
6.538704187885119
 30
0.0
 10
9.738466971083009
 20
6.538435173554965
 30
0.0
  0
LINE
  5
333
330
1F
100
AcDbEntity
  8
0
  6
Continuous
 62
     7
370
    18
100
AcDbLine
 10
9.7343973504
 20
6.5004453306
 30
0.0
 11
9.7273988064
 21
6.504485504
 31
0.0
  0
LINE
  5
334
330
1F
100
AcDbEntity
  8
0
  6
Continuous
 62
     7
370
    18
100
AcDbLine
 10
9.759329097
 20
6.5282494779
 30
0.0
 11
9.7586219902
 21
6.5278412739
 31
0.0
  0
LINE
  5
335
330
1F
100
AcDbEntity
  8
0
  6
Continuous
 62
     7
370
    18
100
AcDbLine
 10
9.7707912526
 20
6.5230367637
 30
0.0
 11
9.7700841458
 21
6.5226285597
 31
0.0
  0
LINE
  5
336
330
1F
100
AcDbEntity
  8
0
  6
Continuous
 62
     7
370
    18
100
AcDbLine
 10
9.7782561018
 20
6.5064923714
 30
0.0
 11
9.777548995
 21
6.5060841673
 31
0.0
  0
LINE
  5
337
330
1F
100
AcDbEntity
  8
0
  6
Continuous
 62
     7
370
    18
100
AcDbLine
 10
9.7782561018
 20
6.4751262123
 30
0.0
 11
9.777548995
 21
6.4747180083
 31
0.0
  0
LINE
  5
338
330
1F
100
AcDbEntity
  8
0
  6
Continuous
 62
     7
370
    18
100
AcDbLine
 10
9.7351044572
 20
6.5428458161
 30
0.0
 11
9.7343973504
 21
6.5424376121
 31
0.0
  0
LINE
  5
339
330
1F
100
AcDbEntity
  8
0
  6
Continuous
 62
     7
370
    18
100
AcDbLine
 10
9.7454348453
 20
6.537674706
 30
0.0
 11
9.7447277386
 21
6.537266502
 31
0.0
  0
LINE
  5
33A
330
1F
100
AcDbEntity
  8
0
  6
Continuous
 62
     7
370
    18
100
AcDbLine
 10
9.7528274541
 20
6.5221591614
 30
0.0
 11
9.7521203473
 21
6.5217509574
 31
0.0
  0
LINE
  5
33B
330
1F
100
AcDbEntity
  8
0
  6
Continuous
 62
     7
370
    18
100
AcDbLine
 10
9.7528274541
 20
6.4898058582
 30
0.0
 11
9.7521203473
 21
6.4893976541
 31
0.0
  0
LINE
  5
33C
330
1F
100
AcDbEntity
  8
0
  6
Continuous
 62
     7
370
    18
100
AcDbLine
 10
9.7026444031
 20
6.5187759169
 30
0.0
 11
9.7026444031
 21
6.5356824991
 31
0.0
  0
LINE
  5
33D
330
1F
100
AcDbEntity
  8
0
  6
Continuous
 62
     7
370
    18
100
AcDbLine
 10
9.7026444031
 20
6.5356824991
 30
0.0
 11
9.6764451903
 21
6.5508069827
 31
0.0
  0
LINE
  5
33E
330
1F
100
AcDbEntity
  8
0
  6
Continuous
 62
     7
370
    18
100
AcDbLine
 10
9.6764451903
 20
6.5508069827
 30
0.0
 11
9.6764451903
 21
6.5597051838
 31
0.0
  0
LINE
  5
33F
330
1F
100
AcDbEntity
  8
0
  6
Continuous
 62
     7
370
    18
100
AcDbLine
 10
9.6764451903
 20
6.5597051838
 30
0.0
 11
9.7044111255
 21
6.5854557505
 31
0.0
  0
LINE
  5
340
330
1F
100
AcDbEntity
  8
0
  6
Continuous
 62
     7
370
    18
100
AcDbLine
 10
9.717348598
 20
6.527193948
 30
0.0
 11
9.710350054
 21
6.5312341215
 31
0.0
  0
LINE
  5
341
330
1F
100
AcDbEntity
  8
0
  6
Continuous
 62
     7
370
    18
100
AcDbLine
 10
9.7096429472
 20
6.5147357434
 30
0.0
 11
9.7026444031
 21
6.5187759169
 31
0.0
  0
LINE
  5
342
330
1F
100
AcDbEntity
  8
0
  6
Continuous
 62
     7
370
    18
100
AcDbLine
 10
9.7026444031
 20
6.5445807002
 30
0.0
 11
9.7026444031
 21
6.5695790841
 31
0.0
  0
LINE
  5
343
330
1F
100
AcDbEntity
  8
0
  6
Continuous
 62
     7
370
    18
100
AcDbLine
 10
9.7273988064
 20
6.504485504
 30
0.0
 11
9.7266916996
 21
6.5040773
 31
0.0
  0
LINE
  5
344
330
1F
100
AcDbEntity
  8
0
  6
Continuous
 62
     7
370
    18
100
AcDbLine
 10
9.6764451903
 20
6.5597051838
 30
0.0
 11
9.6757380836
 21
6.5592969798
 31
0.0
  0
LINE
  5
345
330
1F
100
AcDbEntity
  8
0
  6
Continuous
 62
     7
370
    18
100
AcDbLine
 10
9.7019372964
 20
6.5441724961
 30
0.0
 11
9.7019372964
 21
6.56917088
 31
0.0
  0
LINE
  5
346
330
1F
100
AcDbEntity
  8
0
  6
Continuous
 62
     7
370
    18
100
AcDbLine
 10
9.6852497463
 20
6.5538060137
 30
0.0
 11
9.7019372964
 21
6.5441724961
 31
0.0
  0
LINE
  5
347
330
1F
100
AcDbEntity
  8
0
  6
Continuous
 62
     7
370
    18
100
AcDbLine
 10
9.7019372964
 20
6.56917088
 30
0.0
 11
9.6852497463
 21
6.5538060137
 31
0.0
  0
LINE
  5
348
330
1F
100
AcDbEntity
  8
0
  6
Continuous
 62
     7
370
    18
100
AcDbLine
 10
9.7026444031
 20
6.5445807002
 30
0.0
 11
9.7019372964
 21
6.5441724961
 31
0.0
  0
LINE
  5
349
330
1F
100
AcDbEntity
  8
0
  6
Continuous
 62
     7
370
    18
100
AcDbLine
 10
9.7026444031
 20
6.5695790841
 30
0.0
 11
9.7019372964
 21
6.56917088
 31
0.0
  0
LINE
  5
34A
330
1F
100
AcDbEntity
  8
0
  6
Continuous
 62
     7
370
    18
100
AcDbLine
 10
9.710350054
 20
6.5312341215
 30
0.0
 11
9.7096429472
 21
6.5308259175
 31
0.0
  0
LINE
  5
34B
330
1F
100
AcDbEntity
  8
0
  6
Continuous
 62
     7
370
    18
100
AcDbLine
 10
9.6764451903
 20
6.5508069827
 30
0.0
 11
9.6757380836
 21
6.5503987786
 31
0.0
  0
LINE
  5
34C
330
1F
100
AcDbEntity
  8
0
  6
Continuous
 62
     7
370
    18
100
AcDbLine
 10
9.7026444031
 20
6.5356824991
 30
0.0
 11
9.7019372964
 21
6.535274295
 31
0.0
  0
LINE
  5
34D
330
1F
100
AcDbEntity
  8
0
  6
Continuous
 62
     7
370
    18
100
AcDbLine
 10
9.7026444031
 20
6.5187759169
 30
0.0
 11
9.7019372964
 21
6.5183677128
 31
0.0
  0
SPLINE
  5
34E
330
1F
100
AcDbEntity
  8
0
  6
Continuous
 62
     7
370
    18
100
AcDbSpline
210
0.0
220
0.0
230
1.0
 70
     8
 71
     3
 72
    10
 73
     6
 74
     0
 42
0.000000001
 43
0.00000001
 40
0.0
 40
0.0
 40
0.0
 40
0.0
 40
0.2256238419938955
 40
0.6123885177070814
 40
1.0
 40
1.0
 40
1.0
 40
1.0
 10
9.636999183935131
 20
6.567491986075601
 30
0.0
 10
9.637629463785146
 20
6.567862279899229
 30
0.0
 10
9.639340170152341
 20
6.568867331864318
 30
0.0
 10
9.640729566298882
 20
6.57251614760419
 30
0.0
 10
9.640909254312485
 20
6.575929001518136
 30
0.0
 10
9.640999196566753
 20
6.577637294510834
 30
0.0
  0
SPLINE
  5
34F
330
1F
100
AcDbEntity
  8
0
  6
Continuous
 62
     7
370
    18
100
AcDbSpline
210
0.0
220
0.0
230
1.0
 70
     8
 71
     3
 72
    23
 73
    19
 74
     0
 42
0.000000001
 43
0.00000001
 40
0.0
 40
0.0
 40
0.0
 40
0.0
 40
0.0728659334565345
 40
0.1418868719641266
 40
0.207452626414711
 40
0.2704376800000962
 40
0.3316408722476725
 40
0.3901075774931594
 40
0.4480692869488353
 40
0.5055029519245361
 40
0.5624881528337241
 40
0.61908432888473
 40
0.676415530692238
 40
0.735452360450793
 40
0.7962407694486794
 40
0.8604056780892032
 40
0.9283049272851053
 40
0.9999999999999999
 40
0.9999999999999999
 40
0.9999999999999999
 40
0.9999999999999999
 10
9.640999196566753
 20
6.577637294510834
 30
0.0
 10
9.640990350844438
 20
6.578208200564958
 30
0.0
 10
9.640973126171536
 20
6.579319887060449
 30
0.0
 10
9.6408280663241
 20
6.581007949179036
 30
0.0
 10
9.640583333283752
 20
6.582657777668808
 30
0.0
 10
9.640266671644582
 20
6.584269982738766
 30
0.0
 10
9.639830193515463
 20
6.585849873341517
 30
0.0
 10
9.639312505877127
 20
6.587394415641714
 30
0.0
 10
9.63867831676254
 20
6.588897546100259
 30
0.0
 10
9.637972739523992
 20
6.590368624045601
 30
0.0
 10
9.637166881238691
 20
6.591787451307042
 30
0.0
 10
9.63624985489662
 20
6.593122046577567
 30
0.0
 10
9.635257634899734
 20
6.594399561930279
 30
0.0
 10
9.634170236920824
 20
6.595598786519765
 30
0.0
 10
9.632987020647208
 20
6.596706433202475
 30
0.0
 10
9.631719743988258
 20
6.597764700604857
 30
0.0
 10
9.630355257071475
 20
6.598724224626063
 30
0.0
 10
9.629416948463545
 20
6.599296020918731
 30
0.0
 10
9.628935037000716
 20
6.599589693155679
 30
0.0
  0
SPLINE
  5
350
330
1F
100
AcDbEntity
  8
0
  6
Continuous
 62
     7
370
    18
100
AcDbSpline
210
0.0
220
0.0
230
1.0
 70
     8
 71
     3
 72
    10
 73
     6
 74
     0
 42
0.000000001
 43
0.00000001
 40
0.0
 40
0.0
 40
0.0
 40
0.0
 40
0.3541859796744378
 40
0.7075920715655718
 40
1.0
 40
1.0
 40
1.0
 40
1.0
 10
9.628935037000716
 20
6.599589693155679
 30
0.0
 10
9.627805161549116
 20
6.600169515701308
 30
0.0
 10
9.625547898536773
 20
6.601327884072017
 30
0.0
 10
9.622420534529114
 20
6.601805614495619
 30
0.0
 10
9.621051422258281
 20
6.600772072969511
 30
0.0
 10
9.620431523540836
 20
6.600304112028608
 30
0.0
  0
LINE
  5
351
330
1F
100
AcDbEntity
  8
0
  6
Continuous
 62
     7
370
    18
100
AcDbLine
 10
9.6186528092
 20
6.5992967561
 30
0.0
 11
9.6109471584
 21
6.6046349538
 31
0.0
  0
LINE
  5
352
330
1F
100
AcDbEntity
  8
0
  6
Continuous
 62
     7
370
    18
100
AcDbLine
 10
9.6109471584
 20
6.6046349538
 30
0.0
 11
9.6169702806
 21
6.6359342758
 31
0.0
  0
LINE
  5
353
330
1F
100
AcDbEntity
  8
0
  6
Continuous
 62
     7
370
    18
100
AcDbLine
 10
9.6449154803
 20
6.6117200624
 30
0.0
 11
9.6234086406
 21
6.6241356967
 31
0.0
  0
SPLINE
  5
354
330
1F
100
AcDbEntity
  8
0
  6
Continuous
 62
     7
370
    18
100
AcDbSpline
210
0.0
220
0.0
230
1.0
 70
     8
 71
     3
 72
    11
 73
     7
 74
     0
 42
0.000000001
 43
0.00000001
 40
0.0
 40
0.0
 40
0.0
 40
0.0
 40
0.1467193155845173
 40
0.4782073597053672
 40
0.7390992104112324
 40
1.0
 40
1.0
 40
1.0
 40
1.0
 10
9.642189106792692
 20
6.55895663100328
 30
0.0
 10
9.641699536516112
 20
6.558620042493568
 30
0.0
 10
9.640103863114692
 20
6.557522987876763
 30
0.0
 10
9.63678608201011
 20
6.557441804828895
 30
0.0
 10
9.632722249215313
 20
6.558440341527759
 30
0.0
 10
9.630141268773361
 20
6.559804280855466
 30
0.0
 10
9.628850756444864
 20
6.560486262202212
 30
0.0
  0
SPLINE
  5
355
330
1F
100
AcDbEntity
  8
0
  6
Continuous
 62
     7
370
    18
100
AcDbSpline
210
0.0
220
0.0
230
1.0
 70
     8
 71
     3
 72
    12
 73
     8
 74
     0
 42
0.000000001
 43
0.00000001
 40
0.0
 40
0.0
 40
0.0
 40
0.0
 40
0.1913151682268188
 40
0.3823626264911413
 40
0.5734238585590047
 40
0.7982171789553069
 40
1.0
 40
1.0
 40
1.0
 40
1.0
 10
9.628850756444864
 20
6.560486262202212
 30
0.0
 10
9.62710746705637
 20
6.56160211550254
 30
0.0
 10
9.623623327688344
 20
6.563832260674231
 30
0.0
 10
9.618678608534232
 20
6.568949634752096
 30
0.0
 10
9.614371268191052
 20
6.575523600909436
 30
0.0
 10
9.611258794869867
 20
6.582948790754855
 30
0.0
 10
9.610622011219954
 20
6.587763721074281
 30
0.0
 10
9.610320794183199
 20
6.590041322019579
 30
0.0
  0
LINE
  5
356
330
1F
100
AcDbEntity
  8
0
  6
Continuous
 62
     7
370
    18
100
AcDbLine
 10
9.6234086406
 20
6.6241356967
 30
0.0
 11
9.6227015338
 21
6.6237274926
 31
0.0
  0
LINE
  5
357
330
1F
100
AcDbEntity
  8
0
  6
Continuous
 62
     7
370
    18
100
AcDbLine
 10
9.6109471584
 20
6.6046349538
 30
0.0
 11
9.6102400516
 21
6.6042267497
 31
0.0
  0
LINE
  5
358
330
1F
100
AcDbEntity
  8
0
  6
Continuous
 62
     7
370
    18
100
AcDbLine
 10
9.6602633236
 20
6.5432419933
 30
0.0
 11
9.6602633236
 21
6.5513237863
 31
0.0
  0
LINE
  5
359
330
1F
100
AcDbEntity
  8
0
  6
Continuous
 62
     7
370
    18
100
AcDbLine
 10
9.6672618677
 20
6.5392018198
 30
0.0
 11
9.6602633236
 21
6.5432419933
 31
0.0
  0
LINE
  5
35A
330
1F
100
AcDbEntity
  8
0
  6
Continuous
 62
     7
370
    18
100
AcDbLine
 10
9.628935037
 20
6.5995896932
 30
0.0
 11
9.6282279302
 21
6.5991814891
 31
0.0
  0
LINE
  5
35B
330
1F
100
AcDbEntity
  8
0
  6
Continuous
 62
     7
370
    18
100
AcDbLine
 10
9.6409991966
 20
6.5776372945
 30
0.0
 11
9.6402920898
 21
6.5772290905
 31
0.0
  0
LINE
  5
35C
330
1F
100
AcDbEntity
  8
0
  6
Continuous
 62
     7
370
    18
100
AcDbLine
 10
9.6602633236
 20
6.5432419933
 30
0.0
 11
9.6595562168
 21
6.5428337892
 31
0.0
  0
LINE
  5
35D
330
1F
100
AcDbEntity
  8
0
  6
Continuous
 62
     7
370
    18
100
AcDbLine
 10
9.6009932706
 20
6.5774578666
 30
0.0
 11
9.5624015582
 21
6.5997363879
 31
0.0
  0
SPLINE
  5
35E
330
1F
100
AcDbEntity
  8
0
  6
Continuous
 62
     7
370
    18
100
AcDbSpline
210
0.0
220
0.0
230
1.0
 70
     8
 71
     3
 72
    11
 73
     7
 74
     0
 42
0.000000001
 43
0.00000001
 40
0.0
 40
0.0
 40
0.0
 40
0.0
 40
0.2526501895044199
 40
0.5022501643010259
 40
0.7504000252034048
 40
0.9999999999999999
 40
0.9999999999999999
 40
0.9999999999999999
 40
0.9999999999999999
 10
9.562401558196402
 20
6.599736387944502
 30
0.0
 10
9.562400489679684
 20
6.600265887757356
 30
0.0
 10
9.562398365546315
 20
6.601318494796855
 30
0.0
 10
9.562556296889936
 20
6.602788383467744
 30
0.0
 10
9.562794297412518
 20
6.604192784598856
 30
0.0
 10
9.563069993749687
 20
6.605026002699406
 30
0.0
 10
9.563208243516687
 20
6.605443825472979
 30
0.0
  0
SPLINE
  5
35F
330
1F
100
AcDbEntity
  8
0
  6
Continuous
 62
     7
370
    18
100
AcDbSpline
210
0.0
220
0.0
230
1.0
 70
     8
 71
     3
 72
    10
 73
     6
 74
     0
 42
0.000000001
 43
0.00000001
 40
0.0
 40
0.0
 40
0.0
 40
0.0
 40
0.4529436235621986
 40
0.9062538558733333
 40
1.0
 40
1.0
 40
1.0
 40
1.0
 10
9.563208243516687
 20
6.605443825472979
 30
0.0
 10
9.564038295867956
 20
6.607172147852095
 30
0.0
 10
9.565699072407867
 20
6.610630191499886
 30
0.0
 10
9.568492972192558
 20
6.613355590105749
 30
0.0
 10
9.570386310433678
 20
6.614175328211303
 30
0.0
 10
9.5707107617467
 20
6.614315802374295
 30
0.0
  0
SPLINE
  5
360
330
1F
100
AcDbEntity
  8
0
  6
Continuous
 62
     7
370
    18
100
AcDbSpline
210
0.0
220
0.0
230
1.0
 70
     8
 71
     3
 72
    10
 73
     6
 74
     0
 42
0.000000001
 43
0.00000001
 40
0.0
 40
0.0
 40
0.0
 40
0.0
 40
0.2210740555656137
 40
0.6118144917634643
 40
1.0
 40
1.0
 40
1.0
 40
1.0
 10
9.585741057538538
 20
6.621547767778067
 30
0.0
 10
9.586579912095486
 20
6.621926374858387
 30
0.0
 10
9.588901411889344
 20
6.622974156326149
 30
0.0
 10
9.592147857848026
 20
6.625881981726501
 30
0.0
 10
9.592866178982012
 20
6.630036193822666
 30
0.0
 10
9.593224161478894
 20
6.632106486827277
 30
0.0
  0
SPLINE
  5
361
330
1F
100
AcDbEntity
  8
0
  6
Continuous
 62
     7
370
    18
100
AcDbSpline
210
0.0
220
0.0
230
1.0
 70
     8
 71
     3
 72
    23
 73
    19
 74
     0
 42
0.000000001
 43
0.00000001
 40
0.0
 40
0.0
 40
0.0
 40
0.0
 40
0.0617499482833058
 40
0.1211500402704794
 40
0.1793859407142465
 40
0.2367966179648689
 40
0.2942636170183546
 40
0.3531211477700192
 40
0.4132116206465809
 40
0.4750008486832724
 40
0.5375230809498778
 40
0.6000453132164844
 40
0.6624596554419345
 40
0.7260040706795347
 40
0.790357894134784
 40
0.857752424497621
 40
0.9272463363904402
 40
1.0
 40
1.0
 40
1.0
 40
1.0
 10
9.593224161478894
 20
6.632106486827277
 30
0.0
 10
9.593215795975269
 20
6.63250138310613
 30
0.0
 10
9.593199383312113
 20
6.63327614812887
 30
0.0
 10
9.593043628431705
 20
6.634486045399059
 30
0.0
 10
9.59282687612439
 20
6.635689803111634
 30
0.0
 10
9.59247618122355
 20
6.636909832334209
 30
0.0
 10
9.592059684150312
 20
6.638137987941403
 30
0.0
 10
9.59152003946806
 20
6.639375189906927
 30
0.0
 10
9.590909205940488
 20
6.640626434887439
 30
0.0
 10
9.590195604669681
 20
6.641862888927374
 30
0.0
 10
9.589421615966883
 20
6.643082428028658
 30
0.0
 10
9.588560128535851
 20
6.644225469222598
 30
0.0
 10
9.587651642428272
 20
6.645313400552924
 30
0.0
 10
9.586688270277063
 20
6.64632882020331
 30
0.0
 10
9.585662763978632
 20
6.647270200032652
 30
0.0
 10
9.584582332498744
 20
6.648138654920039
 30
0.0
 10
9.583443035577647
 20
6.648954221658935
 30
0.0
 10
9.582665411361711
 20
6.649424814239205
 30
0.0
 10
9.582267689218321
 20
6.649665502589508
 30
0.0
  0
SPLINE
  5
362
330
1F
100
AcDbEntity
  8
0
  6
Continuous
 62
     7
370
    18
100
AcDbSpline
210
0.0
220
0.0
230
1.0
 70
     8
 71
     3
 72
     9
 73
     5
 74
     0
 42
0.000000001
 43
0.00000001
 40
0.0
 40
0.0
 40
0.0
 40
0.0
 40
0.528223800161328
 40
1.0
 40
1.0
 40
1.0
 40
1.0
 10
9.582267689218321
 20
6.649665502589508
 30
0.0
 10
9.580573943967012
 20
6.650536502833846
 30
0.0
 10
9.57736745222849
 20
6.652185425589831
 30
0.0
 10
9.574904381078635
 20
6.651249364547908
 30
0.0
 10
9.573742362731625
 20
6.650807753226732
 30
0.0
  0
LINE
  5
363
330
1F
100
AcDbEntity
  8
0
  6
Continuous
 62
     7
370
    18
100
AcDbLine
 10
9.5702834836
 20
6.6441949821
 30
0.0
 11
9.5631721233
 21
6.6491214767
 31
0.0
  0
SPLINE
  5
364
330
1F
100
AcDbEntity
  8
0
  6
Continuous
 62
     7
370
    18
100
AcDbSpline
210
0.0
220
0.0
230
1.0
 70
     8
 71
     3
 72
    10
 73
     6
 74
     0
 42
0.000000001
 43
0.00000001
 40
0.0
 40
0.0
 40
0.0
 40
0.0
 40
0.4096433648338155
 40
0.818461181723549
 40
0.9999999999999999
 40
0.9999999999999999
 40
0.9999999999999999
 40
0.9999999999999999
 10
9.563172123278466
 20
6.64912147666019
 30
0.0
 10
9.56344373656822
 20
6.650992722028058
 30
0.0
 10
9.563986415769662
 20
6.654731441671914
 30
0.0
 10
9.565767715528157
 20
6.658513965894414
 30
0.0
 10
9.567700100658811
 20
6.659377105121245
 30
0.0
 10
9.568294322680174
 20
6.659642526505394
 30
0.0
  0
SPLINE
  5
365
330
1F
100
AcDbEntity
  8
0
  6
Continuous
 62
     7
370
    18
100
AcDbSpline
210
0.0
220
0.0
230
1.0
 70
     8
 71
     3
 72
     9
 73
     5
 74
     0
 42
0.000000001
 43
0.00000001
 40
0.0
 40
0.0
 40
0.0
 40
0.0
 40
0.3667981622244245
 40
1.0
 40
1.0
 40
1.0
 40
1.0
 10
9.592129791607967
 20
6.612697724024879
 30
0.0
 10
9.591211719551596
 20
6.612151293593992
 30
0.0
 10
9.588708784283867
 20
6.610661563035982
 30
0.0
 10
9.585981330848337
 20
6.609579204593047
 30
0.0
 10
9.584254302320511
 20
6.608893853237849
 30
0.0
  0
SPLINE
  5
366
330
1F
100
AcDbEntity
  8
0
  6
Continuous
 62
     7
370
    18
100
AcDbSpline
210
0.0
220
0.0
230
1.0
 70
     8
 71
     3
 72
     9
 73
     5
 74
     0
 42
0.000000001
 43
0.00000001
 40
0.0
 40
0.0
 40
0.0
 40
0.0
 40
0.7535910860184618
 40
1.0
 40
1.0
 40
1.0
 40
1.0
 10
9.584254302320511
 20
6.608893853237849
 30
0.0
 10
9.581813465554252
 20
6.608149298954626
 30
0.0
 10
9.578574524951655
 20
6.60716129060761
 30
0.0
 10
9.575839636203751
 20
6.605267199858347
 30
0.0
 10
9.57516573523752
 20
6.604800479013839
 30
0.0
  0
LINE
  5
367
330
1F
100
AcDbEntity
  8
0
  6
Continuous
 62
     7
370
    18
100
AcDbLine
 10
9.6288507564
 20
6.5604862622
 30
0.0
 11
9.6281436497
 21
6.5600780581
 31
0.0
  0
LINE
  5
368
330
1F
100
AcDbEntity
  8
0
  6
Continuous
 62
     7
370
    18
100
AcDbLine
 10
9.5822676892
 20
6.6496655026
 30
0.0
 11
9.5815605824
 21
6.6492572985
 31
0.0
  0
LINE
  5
369
330
1F
100
AcDbEntity
  8
0
  6
Continuous
 62
     7
370
    18
100
AcDbLine
 10
9.5932241615
 20
6.6321064868
 30
0.0
 11
9.5925170547
 21
6.6316982828
 31
0.0
  0
LINE
  5
36A
330
1F
100
AcDbEntity
  8
0
  6
Continuous
 62
     7
370
    18
100
AcDbLine
 10
9.5842543023
 20
6.6088938532
 30
0.0
 11
9.5835471955
 21
6.6084856492
 31
0.0
  0
LINE
  5
36B
330
1F
100
AcDbEntity
  8
0
  6
Continuous
 62
     7
370
    18
100
AcDbLine
 10
9.5631721233
 20
6.6491214767
 30
0.0
 11
9.5624650165
 21
6.6487132726
 31
0.0
  0
LINE
  5
36C
330
1F
100
AcDbEntity
  8
0
  6
Continuous
 62
     7
370
    18
100
AcDbLine
 10
9.5624015582
 20
6.5997363879
 30
0.0
 11
9.5616944514
 21
6.5993281839
 31
0.0
  0
LINE
  5
36D
330
1F
100
AcDbEntity
  8
0
  6
Continuous
 62
     7
370
    18
100
AcDbLine
 10
9.5632082435
 20
6.6054438255
 30
0.0
 11
9.5625011367
 21
6.6050356214
 31
0.0
  0
SPLINE
  5
36E
330
1F
100
AcDbEntity
  8
0
  6
Continuous
 62
     7
370
    18
100
AcDbSpline
210
0.0
220
0.0
230
1.0
 70
     8
 71
     3
 72
    12
 73
     8
 74
     0
 42
0.000000001
 43
0.00000001
 40
0.0
 40
0.0
 40
0.0
 40
0.0
 40
0.2471857709918818
 40
0.4942828086206862
 40
0.7410846441048095
 40
0.9260925042386995
 40
1.0
 40
1.0
 40
1.0
 40
1.0
 10
9.489968440482551
 20
6.675781404317531
 30
0.0
 10
9.490010133521244
 20
6.678375768203782
 30
0.0
 10
9.490093504631897
 20
6.683563564666071
 30
0.0
 10
9.490972971921693
 20
6.69088510061468
 30
0.0
 10
9.492802618679113
 20
6.696693384986733
 30
0.0
 10
9.494951021305841
 20
6.700368600131458
 30
0.0
 10
9.496759317699013
 20
6.701123012101542
 30
0.0
 10
9.497275496654684
 20
6.7013383593114
 30
0.0
  0
SPLINE
  5
36F
330
1F
100
AcDbEntity
  8
0
  6
Continuous
 62
     7
370
    18
100
AcDbSpline
210
0.0
220
0.0
230
1.0
 70
     8
 71
     3
 72
    10
 73
     6
 74
     0
 42
0.000000001
 43
0.00000001
 40
0.0
 40
0.0
 40
0.0
 40
0.0
 40
0.2344019857850537
 40
0.6168516049506559
 40
1.0
 40
1.0
 40
1.0
 40
1.0
 10
9.521234115266083
 20
6.628044818858641
 30
0.0
 10
9.52050898766038
 20
6.62759588224154
 30
0.0
 10
9.518600743897533
 20
6.626414461905648
 30
0.0
 10
9.51430525199108
 20
6.62698779123271
 30
0.0
 10
9.510924490914764
 20
6.628688994705517
 30
0.0
 10
9.509232567534106
 20
6.62954037280232
 30
0.0
  0
SPLINE
  5
370
330
1F
100
AcDbEntity
  8
0
  6
Continuous
 62
     7
370
    18
100
AcDbSpline
210
0.0
220
0.0
230
1.0
 70
     8
 71
     3
 72
    15
 73
    11
 74
     0
 42
0.000000001
 43
0.00000001
 40
0.0
 40
0.0
 40
0.0
 40
0.0
 40
0.1379032299933895
 40
0.2688733426002943
 40
0.3951781273461132
 40
0.5170892381308839
 40
0.6367430265135502
 40
0.756221816463797
 40
0.8766283594636818
 40
1.0
 40
1.0
 40
1.0
 40
1.0
 10
9.509232567534106
 20
6.62954037280232
 30
0.0
 10
9.508537501993114
 20
6.629964520833488
 30
0.0
 10
9.507182315495001
 20
6.630791492753601
 30
0.0
 10
9.50520316554018
 20
6.632237328978795
 30
0.0
 10
9.503345627740922
 20
6.633843480170976
 30
0.0
 10
9.50159403482964
 20
6.635570577701872
 30
0.0
 10
9.499968075189583
 20
6.637466814423409
 30
0.0
 10
9.498459985510006
 20
6.639502511532029
 30
0.0
 10
9.497039461815996
 20
6.641668055963448
 30
0.0
 10
9.496221722018019
 20
6.64320169063251
 30
0.0
 10
9.495807878995054
 20
6.643977834840171
 30
0.0
  0
SPLINE
  5
371
330
1F
100
AcDbEntity
  8
0
  6
Continuous
 62
     7
370
    18
100
AcDbSpline
210
0.0
220
0.0
230
1.0
 70
     8
 71
     3
 72
    15
 73
    11
 74
     0
 42
0.000000001
 43
0.00000001
 40
0.0
 40
0.0
 40
0.0
 40
0.0
 40
0.097420668177216
 40
0.2008855880393196
 40
0.3111719701726499
 40
0.4297979458253723
 40
0.557739926364589
 40
0.6947152693641601
 40
0.8421299102060559
 40
0.9999999999999999
 40
0.9999999999999999
 40
0.9999999999999999
 40
0.9999999999999999
 10
9.495807878995054
 20
6.643977834840171
 30
0.0
 10
9.4953315361566
 20
6.645046295839776
 30
0.0
 10
9.494349296833043
 20
6.647249508158259
 30
0.0
 10
9.49319967086984
 20
6.650703007728714
 30
0.0
 10
9.492174184156806
 20
6.654366224831949
 30
0.0
 10
9.491369365104717
 20
6.658243691700804
 30
0.0
 10
9.490738991162209
 20
6.662334929580693
 30
0.0
 10
9.490283703790762
 20
6.666646881980682
 30
0.0
 10
9.490026055961112
 20
6.671164779994223
 30
0.0
 10
9.489988079187304
 20
6.674207790345881
 30
0.0
 10
9.489968440482551
 20
6.675781404317531
 30
0.0
  0
SPLINE
  5
372
330
1F
100
AcDbEntity
  8
0
  6
Continuous
 62
     7
370
    18
100
AcDbSpline
210
0.0
220
0.0
230
1.0
 70
     8
 71
     3
 72
    11
 73
     7
 74
     0
 42
0.000000001
 43
0.00000001
 40
0.0
 40
0.0
 40
0.0
 40
0.0
 40
0.1493949139837493
 40
0.3193908560959268
 40
0.659530026843202
 40
1.0
 40
1.0
 40
1.0
 40
1.0
 10
9.516116900247724
 20
6.637074318697561
 30
0.0
 10
9.516843027325415
 20
6.637581276770463
 30
0.0
 10
9.518395411826287
 20
6.638665100634284
 30
0.0
 10
9.519847320060583
 20
6.643136050543698
 30
0.0
 10
9.520682720559735
 20
6.649619513746328
 30
0.0
 10
9.520754924331996
 20
6.655216065246281
 30
0.0
 10
9.52079104376504
 20
6.658015701066673
 30
0.0
  0
SPLINE
  5
373
330
1F
100
AcDbEntity
  8
0
  6
Continuous
 62
     7
370
    18
100
AcDbSpline
210
0.0
220
0.0
230
1.0
 70
     8
 71
     3
 72
    23
 73
    19
 74
     0
 42
0.000000001
 43
0.00000001
 40
0.0
 40
0.0
 40
0.0
 40
0.0
 40
0.1156341026995447
 40
0.2215505648509136
 40
0.3170614885131584
 40
0.4031682101561656
 40
0.4802018633519436
 40
0.5476729137517649
 40
0.6070619439212039
 40
0.6586807285304986
 40
0.7057532347379966
 40
0.7501195176610347
 40
0.792590568079876
 40
0.8338794889926736
 40
0.8747756796479274
 40
0.9156225135228686
 40
0.9568788497046059
 40
1.0
 40
1.0
 40
1.0
 40
1.0
 10
9.52079104376504
 20
6.658015701066673
 30
0.0
 10
9.520783746742454
 20
6.65932707322569
 30
0.0
 10
9.52076976592332
 20
6.661839612656336
 30
0.0
 10
9.52061175378944
 20
6.665511255850333
 30
0.0
 10
9.520364140491624
 20
6.668892406959949
 30
0.0
 10
9.520025426584004
 20
6.671986891492066
 30
0.0
 10
9.519575333111275
 20
6.674803349701032
 30
0.0
 10
9.519029258026613
 20
6.677338083727533
 30
0.0
 10
9.518379057954117
 20
6.679591836007087
 30
0.0
 10
9.51760433985657
 20
6.681592855278092
 30
0.0
 10
9.516745357378989
 20
6.683371332665631
 30
0.0
 10
9.515832710469986
 20
6.684986741486687
 30
0.0
 10
9.51488406084763
 20
6.68648831722648
 30
0.0
 10
9.513845197050143
 20
6.687834988932778
 30
0.0
 10
9.512760282790573
 20
6.689073902036597
 30
0.0
 10
9.511606060930413
 20
6.690150318117223
 30
0.0
 10
9.51039743492681
 20
6.691111240802281
 30
0.0
 10
9.509570759702626
 20
6.691617639664273
 30
0.0
 10
9.509148286978256
 20
6.691876435017738
 30
0.0
  0
SPLINE
  5
374
330
1F
100
AcDbEntity
  8
0
  6
Continuous
 62
     7
370
    18
100
AcDbSpline
210
0.0
220
0.0
230
1.0
 70
     8
 71
     3
 72
     9
 73
     5
 74
     0
 42
0.000000001
 43
0.00000001
 40
0.0
 40
0.0
 40
0.0
 40
0.0
 40
0.6920350322427593
 40
1.0
 40
1.0
 40
1.0
 40
1.0
 10
9.509148286978256
 20
6.691876435017738
 30
0.0
 10
9.507346481825415
 20
6.692688308627563
 30
0.0
 10
9.504742848961623
 20
6.693861476996215
 30
0.0
 10
9.50300300540756
 20
6.692728952923328
 30
0.0
 10
9.50246719454353
 20
6.692380175183738
 30
0.0
  0
LINE
  5
375
330
1F
100
AcDbEntity
  8
0
  6
Continuous
 62
     7
370
    18
100
AcDbLine
 10
9.5346612152
 20
6.6362164097
 30
0.0
 11
9.5346612152
 21
6.6434083826
 31
0.0
  0
LINE
  5
376
330
1F
100
AcDbEntity
  8
0
  6
Continuous
 62
     7
370
    18
100
AcDbLine
 10
9.5563004958
 20
6.6237243189
 30
0.0
 11
9.5346612152
 21
6.6362164097
 31
0.0
  0
LINE
  5
377
330
1F
100
AcDbEntity
  8
0
  6
Continuous
 62
     7
370
    18
100
AcDbLine
 10
9.5346612152
 20
6.6362164097
 30
0.0
 11
9.5339541085
 21
6.6358082057
 31
0.0
  0
SPLINE
  5
378
330
1F
100
AcDbEntity
  8
0
  6
Continuous
 62
     7
370
    18
100
AcDbSpline
210
0.0
220
0.0
230
1.0
 70
     8
 71
     3
 72
    23
 73
    19
 74
     0
 42
0.000000001
 43
0.00000001
 40
0.0
 40
0.0
 40
0.0
 40
0.0
 40
0.1156341026995447
 40
0.2215505648509136
 40
0.3170614885131584
 40
0.4031682101561656
 40
0.4802018633519436
 40
0.5476729137517649
 40
0.6070619439212039
 40
0.6586807285304986
 40
0.7057532347379966
 40
0.7501195176610347
 40
0.792590568079876
 40
0.8338794889926736
 40
0.8747756796479274
 40
0.9156225135228686
 40
0.9568788497046059
 40
1.0
 40
1.0
 40
1.0
 40
1.0
 10
9.520083936983854
 20
6.657607497010761
 30
0.0
 10
9.520076639961268
 20
6.658918869169778
 30
0.0
 10
9.520062659142134
 20
6.661431408600424
 30
0.0
 10
9.519904647008254
 20
6.665103051794421
 30
0.0
 10
9.519657033710438
 20
6.668484202904039
 30
0.0
 10
9.519318319802819
 20
6.671578687436154
 30
0.0
 10
9.518868226330088
 20
6.67439514564512
 30
0.0
 10
9.518322151245426
 20
6.676929879671622
 30
0.0
 10
9.51767195117293
 20
6.679183631951175
 30
0.0
 10
9.516897233075381
 20
6.68118465122218
 30
0.0
 10
9.516038250597802
 20
6.682963128609719
 30
0.0
 10
9.5151256036888
 20
6.684578537430776
 30
0.0
 10
9.514176954066443
 20
6.686080113170568
 30
0.0
 10
9.513138090268958
 20
6.687426784876866
 30
0.0
 10
9.512053176009386
 20
6.688665697980686
 30
0.0
 10
9.510898954149226
 20
6.689742114061311
 30
0.0
 10
9.509690328145624
 20
6.69070303674637
 30
0.0
 10
9.50886365292144
 20
6.691209435608361
 30
0.0
 10
9.508441180197071
 20
6.691468230961826
 30
0.0
  0
SPLINE
  5
379
330
1F
100
AcDbEntity
  8
0
  6
Continuous
 62
     7
370
    18
100
AcDbSpline
210
0.0
220
0.0
230
1.0
 70
     8
 71
     3
 72
    23
 73
    19
 74
     0
 42
0.000000001
 43
0.00000001
 40
0.0
 40
0.0
 40
0.0
 40
0.0
 40
0.0407861577516981
 40
0.0808781390926979
 40
0.1202808817853033
 40
0.1602037870694768
 40
0.2004809323198157
 40
0.2425508656877319
 40
0.2867496219958774
 40
0.3332473598987214
 40
0.3843802392510082
 40
0.4437238495442138
 40
0.5116298421176317
 40
0.5889765724864072
 40
0.6762109599366939
 40
0.7736812652401784
 40
0.8815552458988714
 40
1.0
 40
1.0
 40
1.0
 40
1.0
 10
9.50852546075292
 20
6.637140549786057
 30
0.0
 10
9.508923465639997
 20
6.636928328146885
 30
0.0
 10
9.50971270140995
 20
6.636507496860054
 30
0.0
 10
9.51087447270032
 20
6.636068642381034
 30
0.0
 10
9.511981522256391
 20
6.635862303363329
 30
0.0
 10
9.513042766209058
 20
6.635816734016441
 30
0.0
 10
9.51405893736648
 20
6.635961388925498
 30
0.0
 10
9.515006192471366
 20
6.636334415364374
 30
0.0
 10
9.515926794840055
 20
6.636858566330518
 30
0.0
 10
9.51679919282157
 20
6.637600140946757
 30
0.0
 10
9.517609886932524
 20
6.638641928378549
 30
0.0
 10
9.518259477887083
 20
6.64013955072569
 30
0.0
 10
9.518837357011494
 20
6.642014885919186
 30
0.0
 10
9.519295673359114
 20
6.644319800504856
 30
0.0
 10
9.519646391864109
 20
6.647043904322225
 30
0.0
 10
9.519907878264293
 20
6.650177438377793
 30
0.0
 10
9.520062016950652
 20
6.653734474036129
 30
0.0
 10
9.520076406276495
 20
6.656276905841221
 30
0.0
 10
9.520083936983854
 20
6.657607497010761
 30
0.0
  0
SPLINE
  5
37A
330
1F
100
AcDbEntity
  8
0
  6
Continuous
 62
     7
370
    18
100
AcDbSpline
210
0.0
220
0.0
230
1.0
 70
     8
 71
     3
 72
    23
 73
    19
 74
     0
 42
0.000000001
 43
0.00000001
 40
0.0
 40
0.0
 40
0.0
 40
0.0
 40
0.1184055081537718
 40
0.2266543328167021
 40
0.3240923419286043
 40
0.4117048030053215
 40
0.4890259050064168
 40
0.5569093973430759
 40
0.6162333444927071
 40
0.6673492812770774
 40
0.7135123932013491
 40
0.7576965045209787
 40
0.7994925114422934
 40
0.8399760647439394
 40
0.8798857418167779
 40
0.9191486593857424
 40
0.9592273564930834
 40
1.0
 40
1.0
 40
1.0
 40
1.0
 10
9.496966984521986
 20
6.670952629607863
 30
0.0
 10
9.496974635620496
 20
6.669613283493535
 30
0.0
 10
9.496989281515399
 20
6.667049478779661
 30
0.0
 10
9.497142295566183
 20
6.663310387559551
 30
0.0
 10
9.497405702956476
 20
6.659864843582641
 30
0.0
 10
9.497753944731354
 20
6.656732161760743
 30
0.0
 10
9.498213764871412
 20
6.653892937491375
 30
0.0
 10
9.498791123441748
 20
6.651350288875152
 30
0.0
 10
9.499441943873332
 20
6.649103143605794
 30
0.0
 10
9.500247321824759
 20
6.647127881148069
 30
0.0
 10
9.501129121726958
 20
6.645387691530591
 30
0.0
 10
9.502039519862224
 20
6.643803311921522
 30
0.0
 10
9.502999934751674
 20
6.642348905191963
 30
0.0
 10
9.50400409980422
 20
6.641018820756347
 30
0.0
 10
9.505067595363268
 20
6.639836730097542
 30
0.0
 10
9.50617879228166
 20
6.638783455023245
 30
0.0
 10
9.50733793234635
 20
6.637877316152756
 30
0.0
 10
9.508127359402062
 20
6.637387539823708
 30
0.0
 10
9.50852546075292
 20
6.637140549786057
 30
0.0
  0
SPLINE
  5
37B
330
1F
100
AcDbEntity
  8
0
  6
Continuous
 62
     7
370
    18
100
AcDbSpline
210
0.0
220
0.0
230
1.0
 70
     8
 71
     3
 72
    15
 73
    11
 74
     0
 42
0.000000001
 43
0.00000001
 40
0.0
 40
0.0
 40
0.0
 40
0.0
 40
0.0838887288335186
 40
0.1771553326743527
 40
0.2825157085895156
 40
0.3999935157252227
 40
0.5294873536901312
 40
0.6727997767645407
 40
0.8295345107876443
 40
1.0
 40
1.0
 40
1.0
 40
1.0
 10
9.500446567470673
 20
6.691328446409366
 30
0.0
 10
9.500160159338517
 20
6.69094086004904
 30
0.0
 10
9.49955532566612
 20
6.690122359261647
 30
0.0
 10
9.49887880402675
 20
6.688483396087658
 30
0.0
 10
9.498278864093491
 20
6.686506344252303
 30
0.0
 10
9.497791594456562
 20
6.684141709494916
 30
0.0
 10
9.49743103678201
 20
6.681385019479678
 30
0.0
 10
9.497151786874383
 20
6.678267213945911
 30
0.0
 10
9.497005323914841
 20
6.674746439604307
 30
0.0
 10
9.496980116918284
 20
6.672252123747898
 30
0.0
 10
9.496966984521986
 20
6.670952629607863
 30
0.0
  0
SPLINE
  5
37C
330
1F
100
AcDbEntity
  8
0
  6
Continuous
 62
     7
370
    18
100
AcDbSpline
210
0.0
220
0.0
230
1.0
 70
     8
 71
     3
 72
    15
 73
    11
 74
     0
 42
0.000000001
 43
0.00000001
 40
0.0
 40
0.0
 40
0.0
 40
0.0
 40
0.1276828691364311
 40
0.2517742563342023
 40
0.3728062010709604
 40
0.4927364553926427
 40
0.6140149012905263
 40
0.7371600623355289
 40
0.8655879353818433
 40
1.0
 40
1.0
 40
1.0
 40
1.0
 10
9.508441180197071
 20
6.691468230961826
 30
0.0
 10
9.508043052584853
 20
6.691686125859683
 30
0.0
 10
9.507257995950633
 20
6.692115786676661
 30
0.0
 10
9.50610945400174
 20
6.692549943820563
 30
0.0
 10
9.505016038661267
 20
6.69280751794709
 30
0.0
 10
9.503985026617794
 20
6.692863720568837
 30
0.0
 10
9.503006212529726
 20
6.692760110379576
 30
0.0
 10
9.50207840864912
 20
6.692482419308901
 30
0.0
 10
9.501223860064792
 20
6.691992778024721
 30
0.0
 10
9.500709568039047
 20
6.691553226104617
 30
0.0
 10
9.500446567470673
 20
6.691328446409366
 30
0.0
  0
LINE
  5
37D
330
1F
100
AcDbEntity
  8
0
  6
Continuous
 62
     7
370
    18
100
AcDbLine
 10
9.509148287
 20
6.691876435
 30
0.0
 11
9.5084411802
 21
6.691468231
 31
0.0
  0
LINE
  5
37E
330
1F
100
AcDbEntity
  8
0
  6
Continuous
 62
     7
370
    18
100
AcDbLine
 10
9.5207910438
 20
6.6580157011
 30
0.0
 11
9.520083937
 21
6.657607497
 31
0.0
  0
LINE
  5
37F
330
1F
100
AcDbEntity
  8
0
  6
Continuous
 62
     7
370
    18
100
AcDbLine
 10
9.4899684405
 20
6.6757814043
 30
0.0
 11
9.4892613337
 21
6.6753732003
 31
0.0
  0
LINE
  5
380
330
1F
100
AcDbEntity
  8
0
  6
Continuous
 62
     7
370
    18
100
AcDbLine
 10
9.5092325675
 20
6.6295403728
 30
0.0
 11
9.5085254608
 21
6.6291321687
 31
0.0
  0
LINE
  5
381
330
1F
100
AcDbEntity
  8
0
  6
Continuous
 62
     7
370
    18
100
AcDbLine
 10
9.495807879
 20
6.6439778348
 30
0.0
 11
9.4951007722
 21
6.6435696308
 31
0.0
  0
SPLINE
  5
382
330
1F
100
AcDbEntity
  8
0
  6
Continuous
 62
     7
370
    18
100
AcDbSpline
210
0.0
220
0.0
230
1.0
 70
     8
 71
     3
 72
    12
 73
     8
 74
     0
 42
0.000000001
 43
0.00000001
 40
0.0
 40
0.0
 40
0.0
 40
0.0
 40
0.247185770991866
 40
0.4942828086206615
 40
0.741084644104769
 40
0.926092504238656
 40
1.0
 40
1.0
 40
1.0
 40
1.0
 10
9.420617583096947
 20
6.715816802108837
 30
0.0
 10
9.42065927613564
 20
6.718411165995088
 30
0.0
 10
9.420742647246295
 20
6.723598962457376
 30
0.0
 10
9.42162211453609
 20
6.730920498405987
 30
0.0
 10
9.423451761293508
 20
6.736728782778039
 30
0.0
 10
9.425600163920237
 20
6.740403997922764
 30
0.0
 10
9.427408460313409
 20
6.741158409892849
 30
0.0
 10
9.427924639269081
 20
6.741373757102706
 30
0.0
  0
SPLINE
  5
383
330
1F
100
AcDbEntity
  8
0
  6
Continuous
 62
     7
370
    18
100
AcDbSpline
210
0.0
220
0.0
230
1.0
 70
     8
 71
     3
 72
    10
 73
     6
 74
     0
 42
0.000000001
 43
0.00000001
 40
0.0
 40
0.0
 40
0.0
 40
0.0
 40
0.23440198578482
 40
0.6168516049505232
 40
0.9999999999999999
 40
0.9999999999999999
 40
0.9999999999999999
 40
0.9999999999999999
 10
9.451883257880477
 20
6.668080216649947
 30
0.0
 10
9.451158130274772
 20
6.667631280032845
 30
0.0
 10
9.449249886511929
 20
6.666449859696954
 30
0.0
 10
9.444954394605478
 20
6.667023189024016
 30
0.0
 10
9.441573633529162
 20
6.668724392496824
 30
0.0
 10
9.439881710148503
 20
6.669575770593626
 30
0.0
  0
SPLINE
  5
384
330
1F
100
AcDbEntity
  8
0
  6
Continuous
 62
     7
370
    18
100
AcDbSpline
210
0.0
220
0.0
230
1.0
 70
     8
 71
     3
 72
    15
 73
    11
 74
     0
 42
0.000000001
 43
0.00000001
 40
0.0
 40
0.0
 40
0.0
 40
0.0
 40
0.1379032299933958
 40
0.2688733426002942
 40
0.3951781273461131
 40
0.5170892381308898
 40
0.6367430265135503
 40
0.756221816463797
 40
0.8766283594636818
 40
1.0
 40
1.0
 40
1.0
 40
1.0
 10
9.439881710148503
 20
6.669575770593626
 30
0.0
 10
9.43918664460751
 20
6.669999918624795
 30
0.0
 10
9.437831458109398
 20
6.670826890544907
 30
0.0
 10
9.435852308154578
 20
6.672272726770101
 30
0.0
 10
9.43399477035532
 20
6.673878877962284
 30
0.0
 10
9.432243177444036
 20
6.675605975493178
 30
0.0
 10
9.43061721780398
 20
6.677502212214716
 30
0.0
 10
9.429109128124404
 20
6.679537909323336
 30
0.0
 10
9.427688604430392
 20
6.681703453754754
 30
0.0
 10
9.426870864632416
 20
6.683237088423817
 30
0.0
 10
9.42645702160945
 20
6.684013232631477
 30
0.0
  0
SPLINE
  5
385
330
1F
100
AcDbEntity
  8
0
  6
Continuous
 62
     7
370
    18
100
AcDbSpline
210
0.0
220
0.0
230
1.0
 70
     8
 71
     3
 72
    15
 73
    11
 74
     0
 42
0.000000001
 43
0.00000001
 40
0.0
 40
0.0
 40
0.0
 40
0.0
 40
0.097420668177216
 40
0.2008855880393196
 40
0.3111719701726499
 40
0.4297979458253723
 40
0.557739926364589
 40
0.6947152693641601
 40
0.8421299102060559
 40
0.9999999999999999
 40
0.9999999999999999
 40
0.9999999999999999
 40
0.9999999999999999
 10
9.42645702160945
 20
6.684013232631477
 30
0.0
 10
9.425980678770998
 20
6.685081693631083
 30
0.0
 10
9.42499843944744
 20
6.687284905949565
 30
0.0
 10
9.423848813484238
 20
6.690738405520021
 30
0.0
 10
9.422823326771203
 20
6.694401622623256
 30
0.0
 10
9.422018507719113
 20
6.69827908949211
 30
0.0
 10
9.421388133776604
 20
6.702370327371999
 30
0.0
 10
9.420932846405158
 20
6.706682279771988
 30
0.0
 10
9.420675198575507
 20
6.711200177785529
 30
0.0
 10
9.420637221801702
 20
6.714243188137187
 30
0.0
 10
9.420617583096947
 20
6.715816802108837
 30
0.0
  0
SPLINE
  5
386
330
1F
100
AcDbEntity
  8
0
  6
Continuous
 62
     7
370
    18
100
AcDbSpline
210
0.0
220
0.0
230
1.0
 70
     8
 71
     3
 72
    11
 73
     7
 74
     0
 42
0.000000001
 43
0.00000001
 40
0.0
 40
0.0
 40
0.0
 40
0.0
 40
0.1493949139838038
 40
0.3193908560959692
 40
0.6595300268432234
 40
1.0
 40
1.0
 40
1.0
 40
1.0
 10
9.44676604286212
 20
6.677109716488866
 30
0.0
 10
9.44749216993981
 20
6.677616674561769
 30
0.0
 10
9.449044554440682
 20
6.67870049842559
 30
0.0
 10
9.450496462674979
 20
6.683171448335005
 30
0.0
 10
9.451331863174131
 20
6.689654911537634
 30
0.0
 10
9.451404066946392
 20
6.695251463037587
 30
0.0
 10
9.451440186379436
 20
6.698051098857978
 30
0.0
  0
SPLINE
  5
387
330
1F
100
AcDbEntity
  8
0
  6
Continuous
 62
     7
370
    18
100
AcDbSpline
210
0.0
220
0.0
230
1.0
 70
     8
 71
     3
 72
    23
 73
    19
 74
     0
 42
0.000000001
 43
0.00000001
 40
0.0
 40
0.0
 40
0.0
 40
0.0
 40
0.1156341026995447
 40
0.2215505648509136
 40
0.3170614885131584
 40
0.4031682101561656
 40
0.4802018633519436
 40
0.5476729137517649
 40
0.6070619439212039
 40
0.6586807285305003
 40
0.7057532347379962
 40
0.750119517661032
 40
0.792590568079876
 40
0.8338794889926736
 40
0.8747756796479274
 40
0.9156225135228686
 40
0.9568788497046059
 40
1.0
 40
1.0
 40
1.0
 40
1.0
 10
9.451440186379436
 20
6.698051098857978
 30
0.0
 10
9.451432889356852
 20
6.699362471016995
 30
0.0
 10
9.451418908537718
 20
6.701875010447642
 30
0.0
 10
9.451260896403838
 20
6.705546653641639
 30
0.0
 10
9.45101328310602
 20
6.708927804751255
 30
0.0
 10
9.450674569198402
 20
6.712022289283373
 30
0.0
 10
9.45022447572567
 20
6.714838747492339
 30
0.0
 10
9.449678400641009
 20
6.717373481518838
 30
0.0
 10
9.449028200568513
 20
6.719627233798393
 30
0.0
 10
9.448253482470966
 20
6.721628253069398
 30
0.0
 10
9.447394499993386
 20
6.723406730456936
 30
0.0
 10
9.446481853084382
 20
6.725022139277994
 30
0.0
 10
9.445533203462027
 20
6.726523715017786
 30
0.0
 10
9.44449433966454
 20
6.727870386724084
 30
0.0
 10
9.44340942540497
 20
6.729109299827902
 30
0.0
 10
9.442255203544809
 20
6.730185715908529
 30
0.0
 10
9.441046577541206
 20
6.731146638593587
 30
0.0
 10
9.440219902317022
 20
6.731653037455579
 30
0.0
 10
9.439797429592653
 20
6.731911832809043
 30
0.0
  0
SPLINE
  5
388
330
1F
100
AcDbEntity
  8
0
  6
Continuous
 62
     7
370
    18
100
AcDbSpline
210
0.0
220
0.0
230
1.0
 70
     8
 71
     3
 72
     9
 73
     5
 74
     0
 42
0.000000001
 43
0.00000001
 40
0.0
 40
0.0
 40
0.0
 40
0.0
 40
0.692035032242796
 40
1.0
 40
1.0
 40
1.0
 40
1.0
 10
9.439797429592653
 20
6.731911832809043
 30
0.0
 10
9.43799562443981
 20
6.73272370641887
 30
0.0
 10
9.43539199157602
 20
6.733896874787521
 30
0.0
 10
9.433652148021958
 20
6.732764350714635
 30
0.0
 10
9.433116337157927
 20
6.732415572975044
 30
0.0
  0
SPLINE
  5
389
330
1F
100
AcDbEntity
  8
0
  6
Continuous
 62
     7
370
    18
100
AcDbSpline
210
0.0
220
0.0
230
1.0
 70
     8
 71
     3
 72
    23
 73
    19
 74
     0
 42
0.000000001
 43
0.00000001
 40
0.0
 40
0.0
 40
0.0
 40
0.0
 40
0.1156341026995447
 40
0.2215505648509136
 40
0.3170614885131584
 40
0.4031682101561656
 40
0.4802018633519436
 40
0.5476729137517649
 40
0.6070619439212039
 40
0.6586807285305003
 40
0.7057532347379962
 40
0.750119517661032
 40
0.792590568079876
 40
0.8338794889926736
 40
0.8747756796479274
 40
0.9156225135228686
 40
0.9568788497046059
 40
1.0
 40
1.0
 40
1.0
 40
1.0
 10
9.45073307959825
 20
6.697642894802067
 30
0.0
 10
9.450725782575665
 20
6.698954266961084
 30
0.0
 10
9.45071180175653
 20
6.701466806391731
 30
0.0
 10
9.45055378962265
 20
6.705138449585728
 30
0.0
 10
9.450306176324833
 20
6.708519600695344
 30
0.0
 10
9.449967462417215
 20
6.711614085227462
 30
0.0
 10
9.449517368944484
 20
6.714430543436427
 30
0.0
 10
9.448971293859822
 20
6.716965277462928
 30
0.0
 10
9.448321093787326
 20
6.719219029742482
 30
0.0
 10
9.447546375689779
 20
6.721220049013486
 30
0.0
 10
9.446687393212198
 20
6.722998526401025
 30
0.0
 10
9.445774746303195
 20
6.724613935222083
 30
0.0
 10
9.44482609668084
 20
6.726115510961874
 30
0.0
 10
9.443787232883354
 20
6.727462182668172
 30
0.0
 10
9.442702318623784
 20
6.728701095771992
 30
0.0
 10
9.441548096763624
 20
6.729777511852618
 30
0.0
 10
9.440339470760021
 20
6.730738434537676
 30
0.0
 10
9.439512795535837
 20
6.731244833399667
 30
0.0
 10
9.439090322811467
 20
6.731503628753132
 30
0.0
  0
SPLINE
  5
38A
330
1F
100
AcDbEntity
  8
0
  6
Continuous
 62
     7
370
    18
100
AcDbSpline
210
0.0
220
0.0
230
1.0
 70
     8
 71
     3
 72
    23
 73
    19
 74
     0
 42
0.000000001
 43
0.00000001
 40
0.0
 40
0.0
 40
0.0
 40
0.0
 40
0.0407861577516981
 40
0.0808781390926979
 40
0.1202808817853033
 40
0.1602037870694768
 40
0.2004809323198157
 40
0.2425508656877319
 40
0.2867496219958774
 40
0.3332473598987214
 40
0.3843802392510082
 40
0.4437238495442138
 40
0.5116298421176317
 40
0.5889765724864072
 40
0.6762109599366939
 40
0.7736812652401784
 40
0.8815552458988714
 40
1.0
 40
1.0
 40
1.0
 40
1.0
 10
9.439174603367317
 20
6.677175947577364
 30
0.0
 10
9.439572608254393
 20
6.676963725938191
 30
0.0
 10
9.440361844024345
 20
6.67654289465136
 30
0.0
 10
9.441523615314715
 20
6.67610404017234
 30
0.0
 10
9.442630664870789
 20
6.675897701154635
 30
0.0
 10
9.443691908823453
 20
6.675852131807748
 30
0.0
 10
9.444708079980876
 20
6.675996786716804
 30
0.0
 10
9.445655335085762
 20
6.67636981315568
 30
0.0
 10
9.446575937454453
 20
6.676893964121824
 30
0.0
 10
9.447448335435967
 20
6.677635538738063
 30
0.0
 10
9.44825902954692
 20
6.678677326169855
 30
0.0
 10
9.44890862050148
 20
6.680174948516997
 30
0.0
 10
9.449486499625891
 20
6.682050283710492
 30
0.0
 10
9.44994481597351
 20
6.684355198296162
 30
0.0
 10
9.450295534478506
 20
6.687079302113532
 30
0.0
 10
9.450557020878689
 20
6.690212836169099
 30
0.0
 10
9.45071115956505
 20
6.693769871827436
 30
0.0
 10
9.450725548890892
 20
6.696312303632527
 30
0.0
 10
9.45073307959825
 20
6.697642894802067
 30
0.0
  0
SPLINE
  5
38B
330
1F
100
AcDbEntity
  8
0
  6
Continuous
 62
     7
370
    18
100
AcDbSpline
210
0.0
220
0.0
230
1.0
 70
     8
 71
     3
 72
    23
 73
    19
 74
     0
 42
0.000000001
 43
0.00000001
 40
0.0
 40
0.0
 40
0.0
 40
0.0
 40
0.1184055081537718
 40
0.2266543328167021
 40
0.3240923419286043
 40
0.4117048030053215
 40
0.4890259050064168
 40
0.5569093973430759
 40
0.6162333444927071
 40
0.6673492812770774
 40
0.7135123932013491
 40
0.7576965045209787
 40
0.7994925114422934
 40
0.8399760647439394
 40
0.8798857418167779
 40
0.9191486593857424
 40
0.9592273564930834
 40
1.0
 40
1.0
 40
1.0
 40
1.0
 10
9.427616127136382
 20
6.710988027399169
 30
0.0
 10
9.427623778234892
 20
6.709648681284842
 30
0.0
 10
9.427638424129794
 20
6.707084876570967
 30
0.0
 10
9.42779143818058
 20
6.703345785350857
 30
0.0
 10
9.428054845570873
 20
6.699900241373948
 30
0.0
 10
9.42840308734575
 20
6.69676755955205
 30
0.0
 10
9.42886290748581
 20
6.693928335282681
 30
0.0
 10
9.429440266056144
 20
6.691385686666458
 30
0.0
 10
9.430091086487728
 20
6.689138541397101
 30
0.0
 10
9.430896464439154
 20
6.687163278939376
 30
0.0
 10
9.431778264341355
 20
6.685423089321897
 30
0.0
 10
9.432688662476622
 20
6.683838709712829
 30
0.0
 10
9.43364907736607
 20
6.682384302983269
 30
0.0
 10
9.434653242418618
 20
6.681054218547653
 30
0.0
 10
9.435716737977666
 20
6.679872127888848
 30
0.0
 10
9.436827934896055
 20
6.67881885281455
 30
0.0
 10
9.437987074960745
 20
6.677912713944062
 30
0.0
 10
9.438776502016458
 20
6.677422937615014
 30
0.0
 10
9.439174603367317
 20
6.677175947577364
 30
0.0
  0
SPLINE
  5
38C
330
1F
100
AcDbEntity
  8
0
  6
Continuous
 62
     7
370
    18
100
AcDbSpline
210
0.0
220
0.0
230
1.0
 70
     8
 71
     3
 72
    15
 73
    11
 74
     0
 42
0.000000001
 43
0.00000001
 40
0.0
 40
0.0
 40
0.0
 40
0.0
 40
0.0838887288335186
 40
0.1771553326743527
 40
0.2825157085895156
 40
0.3999935157252227
 40
0.5294873536901312
 40
0.6727997767645407
 40
0.8295345107876443
 40
1.0
 40
1.0
 40
1.0
 40
1.0
 10
9.43109571008507
 20
6.731363844200671
 30
0.0
 10
9.430809301952912
 20
6.730976257840346
 30
0.0
 10
9.430204468280516
 20
6.730157757052953
 30
0.0
 10
9.429527946641146
 20
6.728518793878965
 30
0.0
 10
9.428928006707887
 20
6.726541742043609
 30
0.0
 10
9.428440737070957
 20
6.724177107286223
 30
0.0
 10
9.428080179396405
 20
6.721420417270983
 30
0.0
 10
9.42780092948878
 20
6.718302611737217
 30
0.0
 10
9.427654466529237
 20
6.714781837395614
 30
0.0
 10
9.42762925953268
 20
6.712287521539205
 30
0.0
 10
9.427616127136382
 20
6.710988027399169
 30
0.0
  0
SPLINE
  5
38D
330
1F
100
AcDbEntity
  8
0
  6
Continuous
 62
     7
370
    18
100
AcDbSpline
210
0.0
220
0.0
230
1.0
 70
     8
 71
     3
 72
    15
 73
    11
 74
     0
 42
0.000000001
 43
0.00000001
 40
0.0
 40
0.0
 40
0.0
 40
0.0
 40
0.1276828691364311
 40
0.2517742563342025
 40
0.3728062010709606
 40
0.4927364553926335
 40
0.614014901290526
 40
0.7371600623355287
 40
0.8655879353818432
 40
0.9999999999999999
 40
0.9999999999999999
 40
0.9999999999999999
 40
0.9999999999999999
 10
9.439090322811467
 20
6.731503628753132
 30
0.0
 10
9.43869219519925
 20
6.73172152365099
 30
0.0
 10
9.437907138565029
 20
6.732151184467968
 30
0.0
 10
9.436758596616135
 20
6.73258534161187
 30
0.0
 10
9.435665181275665
 20
6.732842915738396
 30
0.0
 10
9.43463416923219
 20
6.732899118360142
 30
0.0
 10
9.433655355144124
 20
6.732795508170882
 30
0.0
 10
9.432727551263518
 20
6.732517817100208
 30
0.0
 10
9.43187300267919
 20
6.732028175816028
 30
0.0
 10
9.431358710653443
 20
6.731588623895923
 30
0.0
 10
9.43109571008507
 20
6.731363844200671
 30
0.0
  0
LINE
  5
38E
330
1F
100
AcDbEntity
  8
0
  6
Continuous
 62
     7
370
    18
100
AcDbLine
 10
9.4397974296
 20
6.7319118328
 30
0.0
 11
9.4390903228
 21
6.7315036288
 31
0.0
  0
LINE
  5
38F
330
1F
100
AcDbEntity
  8
0
  6
Continuous
 62
     7
370
    18
100
AcDbLine
 10
9.4514401864
 20
6.6980510989
 30
0.0
 11
9.4507330796
 21
6.6976428948
 31
0.0
  0
LINE
  5
390
330
1F
100
AcDbEntity
  8
0
  6
Continuous
 62
     7
370
    18
100
AcDbLine
 10
9.4206175831
 20
6.7158168021
 30
0.0
 11
9.4199104763
 21
6.7154085981
 31
0.0
  0
LINE
  5
391
330
1F
100
AcDbEntity
  8
0
  6
Continuous
 62
     7
370
    18
100
AcDbLine
 10
9.4398817101
 20
6.6695757706
 30
0.0
 11
9.4391746034
 21
6.6691675665
 31
0.0
  0
LINE
  5
392
330
1F
100
AcDbEntity
  8
0
  6
Continuous
 62
     7
370
    18
100
AcDbLine
 10
9.4707043134
 20
6.6526720806
 30
0.0
 11
9.4707043134
 21
6.6607538736
 31
0.0
  0
LINE
  5
393
330
1F
100
AcDbEntity
  8
0
  6
Continuous
 62
     7
370
    18
100
AcDbLine
 10
9.4777028575
 20
6.6486319071
 30
0.0
 11
9.4707043134
 21
6.6526720806
 31
0.0
  0
LINE
  5
394
330
1F
100
AcDbEntity
  8
0
  6
Continuous
 62
     7
370
    18
100
AcDbLine
 10
9.4707043134
 20
6.6526720806
 30
0.0
 11
9.4699972066
 21
6.6522638765
 31
0.0
  0
LINE
  5
395
330
1F
100
AcDbEntity
  8
0
  6
Continuous
 62
     7
370
    18
100
AcDbLine
 10
9.4006463493
 20
6.6931156824
 30
0.0
 11
9.3936478052
 21
6.6971558559
 31
0.0
  0
LINE
  5
396
330
1F
100
AcDbEntity
  8
0
  6
Continuous
 62
     7
370
    18
100
AcDbLine
 10
9.3936478052
 20
6.6971558559
 30
0.0
 11
9.3936478052
 21
6.7512402348
 31
0.0
  0
SPLINE
  5
397
330
1F
100
AcDbEntity
  8
0
  6
Continuous
 62
     7
370
    18
100
AcDbSpline
210
0.0
220
0.0
230
1.0
 70
     8
 71
     3
 72
    15
 73
    11
 74
     0
 42
0.000000001
 43
0.00000001
 40
0.0
 40
0.0
 40
0.0
 40
0.0
 40
0.111674644834407
 40
0.2321035109070504
 40
0.3623296061453193
 40
0.5015403706238755
 40
0.6415111562240638
 40
0.7710895894770932
 40
0.8901574839199069
 40
1.0
 40
1.0
 40
1.0
 40
1.0
 10
9.393647805224768
 20
6.751240234799586
 30
0.0
 10
9.393203957920313
 20
6.751002603856644
 30
0.0
 10
9.392281469939062
 20
6.750508713983621
 30
0.0
 10
9.390727122911336
 20
6.749950118606185
 30
0.0
 10
9.388980763518196
 20
6.749506951524761
 30
0.0
 10
9.387090703682015
 20
6.74916817510668
 30
0.0
 10
9.385155050654735
 20
6.748948046123297
 30
0.0
 10
9.38328008490662
 20
6.74882869111142
 30
0.0
 10
9.381506532906364
 20
6.748837515043024
 30
0.0
 10
9.380338238892955
 20
6.74895703260344
 30
0.0
 10
9.379777633747647
 20
6.749014383029407
 30
0.0
  0
LINE
  5
398
330
1F
100
AcDbEntity
  8
0
  6
Continuous
 62
     7
370
    18
100
AcDbLine
 10
9.3797776337
 20
6.749014383
 30
0.0
 11
9.3797776337
 21
6.7572174122
 31
0.0
  0
SPLINE
  5
399
330
1F
100
AcDbEntity
  8
0
  6
Continuous
 62
     7
370
    18
100
AcDbSpline
210
0.0
220
0.0
230
1.0
 70
     8
 71
     3
 72
     9
 73
     5
 74
     0
 42
0.000000001
 43
0.00000001
 40
0.0
 40
0.0
 40
0.0
 40
0.0
 40
0.4652018929808056
 40
1.0
 40
1.0
 40
1.0
 40
1.0
 10
9.391214846695238
 20
6.760061052739061
 30
0.0
 10
9.39207898163181
 20
6.760542885604997
 30
0.0
 10
9.393936529826718
 20
6.761578635616352
 30
0.0
 10
9.395240613739686
 20
6.763432077749629
 30
0.0
 10
9.395938035347736
 20
6.764423295093975
 30
0.0
  0
LINE
  5
39A
330
1F
100
AcDbEntity
  8
0
  6
Continuous
 62
     7
370
    18
100
AcDbLine
 10
9.4264570216
 20
6.6840132326
 30
0.0
 11
9.4257499148
 21
6.6836050286
 31
0.0
  0
LINE
  5
39B
330
1F
100
AcDbEntity
  8
0
  6
Continuous
 62
     7
370
    18
100
AcDbLine
 10
9.3797776337
 20
6.749014383
 30
0.0
 11
9.379070527
 21
6.748606179
 31
0.0
  0
LINE
  5
39C
330
1F
100
AcDbEntity
  8
0
  6
Continuous
 62
     7
370
    18
100
AcDbLine
 10
9.3936478052
 20
6.7512402348
 30
0.0
 11
9.3929406984
 21
6.7508320307
 31
0.0
  0
LINE
  5
39D
330
1F
100
AcDbEntity
  8
0
  6
Continuous
 62
     7
370
    18
100
AcDbLine
 10
9.3936478052
 20
6.6971558559
 30
0.0
 11
9.3929406984
 21
6.6967476518
 31
0.0
  0
OLE2FRAME
  5
39E
330
1F
100
AcDbEntity
  8
0
100
AcDbOle2Frame
 70
     2
  3
Paintbrush Picture
 10
9.0178120406
 20
1.3267570784
 30
0.0
 11
10.4397105087
 21
1.1242314806
 31
0.0
 71
     2
 72
     0
 73
     1
 90
     7296
310
8055C64EE7A81E092240C05F59A1653AF53F0000000000000000FD155DBC21E1
310
2440C05F59A1653AF53F0000000000000000FD155DBC21E12440A1732426DAFC
310
F13F0000000000000000C64EE7A81E092240A1732426DAFCF13F000000000000
310
00000000000001000000000100000100000001000000000001000000001C0000
310
D0CF11E0A1B11AE1000000000000000000000000000000003E000300FEFF0900
310
0600000000000000000000000100000001000000000000000010000002000000
310
01000000FEFFFFFF0000000000000000FFFFFFFFFFFFFFFFFFFFFFFFFFFFFFFF
310
FFFFFFFFFFFFFFFFFFFFFFFFFFFFFFFFFFFFFFFFFFFFFFFFFFFFFFFFFFFFFFFF
310
FFFFFFFFFFFFFFFFFFFFFFFFFFFFFFFFFFFFFFFFFFFFFFFFFFFFFFFFFFFFFFFF
310
FFFFFFFFFFFFFFFFFFFFFFFFFFFFFFFFFFFFFFFFFFFFFFFFFFFFFFFFFFFFFFFF
310
FFFFFFFFFFFFFFFFFFFFFFFFFFFFFFFFFFFFFFFFFFFFFFFFFFFFFFFFFFFFFFFF
310
FFFFFFFFFFFFFFFFFFFFFFFFFFFFFFFFFFFFFFFFFFFFFFFFFFFFFFFFFFFFFFFF
310
FFFFFFFFFFFFFFFFFFFFFFFFFFFFFFFFFFFFFFFFFFFFFFFFFFFFFFFFFFFFFFFF
310
FFFFFFFFFFFFFFFFFFFFFFFFFFFFFFFFFFFFFFFFFFFFFFFFFFFFFFFFFFFFFFFF
310
FFFFFFFFFFFFFFFFFFFFFFFFFFFFFFFFFFFFFFFFFFFFFFFFFFFFFFFFFFFFFFFF
310
FFFFFFFFFFFFFFFFFFFFFFFFFFFFFFFFFFFFFFFFFFFFFFFFFFFFFFFFFFFFFFFF
310
FFFFFFFFFFFFFFFFFFFFFFFFFFFFFFFFFFFFFFFFFFFFFFFFFFFFFFFFFFFFFFFF
310
FFFFFFFFFFFFFFFFFFFFFFFFFFFFFFFFFFFFFFFFFFFFFFFFFFFFFFFFFFFFFFFF
310
FFFFFFFFFFFFFFFFFFFFFFFFFFFFFFFFFFFFFFFFFFFFFFFFFFFFFFFFFFFFFFFF
310
FFFFFFFFFFFFFFFFFFFFFFFFFFFFFFFFFFFFFFFFFFFFFFFFFFFFFFFFFFFFFFFF
310
FDFFFFFFFEFFFFFFFEFFFFFFFEFFFFFF05000000060000000700000008000000
310
090000000A0000000B0000000C000000FEFFFFFFFFFFFFFFFFFFFFFFFFFFFFFF
310
FFFFFFFFFFFFFFFFFFFFFFFFFFFFFFFFFFFFFFFFFFFFFFFFFFFFFFFFFFFFFFFF
310
FFFFFFFFFFFFFFFFFFFFFFFFFFFFFFFFFFFFFFFFFFFFFFFFFFFFFFFFFFFFFFFF
310
FFFFFFFFFFFFFFFFFFFFFFFFFFFFFFFFFFFFFFFFFFFFFFFFFFFFFFFFFFFFFFFF
310
FFFFFFFFFFFFFFFFFFFFFFFFFFFFFFFFFFFFFFFFFFFFFFFFFFFFFFFFFFFFFFFF
310
FFFFFFFFFFFFFFFFFFFFFFFFFFFFFFFFFFFFFFFFFFFFFFFFFFFFFFFFFFFFFFFF
310
FFFFFFFFFFFFFFFFFFFFFFFFFFFFFFFFFFFFFFFFFFFFFFFFFFFFFFFFFFFFFFFF
310
FFFFFFFFFFFFFFFFFFFFFFFFFFFFFFFFFFFFFFFFFFFFFFFFFFFFFFFFFFFFFFFF
310
FFFFFFFFFFFFFFFFFFFFFFFFFFFFFFFFFFFFFFFFFFFFFFFFFFFFFFFFFFFFFFFF
310
FFFFFFFFFFFFFFFFFFFFFFFFFFFFFFFFFFFFFFFFFFFFFFFFFFFFFFFFFFFFFFFF
310
FFFFFFFFFFFFFFFFFFFFFFFFFFFFFFFFFFFFFFFFFFFFFFFFFFFFFFFFFFFFFFFF
310
FFFFFFFFFFFFFFFFFFFFFFFFFFFFFFFFFFFFFFFFFFFFFFFFFFFFFFFFFFFFFFFF
310
FFFFFFFFFFFFFFFFFFFFFFFFFFFFFFFFFFFFFFFFFFFFFFFFFFFFFFFFFFFFFFFF
310
FFFFFFFFFFFFFFFFFFFFFFFFFFFFFFFFFFFFFFFFFFFFFFFFFFFFFFFFFFFFFFFF
310
FFFFFFFFFFFFFFFFFFFFFFFFFFFFFFFFFFFFFFFFFFFFFFFFFFFFFFFFFFFFFFFF
310
52006F006F007400200045006E00740072007900000000000000000000000000
310
0000000000000000000000000000000000000000000000000000000000000000
310
16000500FFFFFFFFFFFFFFFF020000000A00030000000000C000000000000046
310
0000000000000000000000009031EABFCFB1D40103000000C000000000000000
310
01004F006C006500000000000000000000000000000000000000000000000000
310
0000000000000000000000000000000000000000000000000000000000000000
310
0A000200FFFFFFFFFFFFFFFFFFFFFFFF00000000000000000000000000000000
310
0000000000000000000000000000000000000000000000001400000000000000
310
010043006F006D0070004F0062006A0000000000000000000000000000000000
310
0000000000000000000000000000000000000000000000000000000000000000
310
120002010100000003000000FFFFFFFF00000000000000000000000000000000
310
0000000000000000000000000000000000000000010000004D00000000000000
310
01004F006C006500310030004E00610074006900760065000000000000000000
310
0000000000000000000000000000000000000000000000000000000000000000
310
1A000200FFFFFFFFFFFFFFFFFFFFFFFF00000000000000000000000000000000
310
000000000000000000000000000000000000000004000000E411000000000000
310
FEFFFFFF02000000FEFFFFFFFFFFFFFFFFFFFFFFFFFFFFFFFFFFFFFFFFFFFFFF
310
FFFFFFFFFFFFFFFFFFFFFFFFFFFFFFFFFFFFFFFFFFFFFFFFFFFFFFFFFFFFFFFF
310
FFFFFFFFFFFFFFFFFFFFFFFFFFFFFFFFFFFFFFFFFFFFFFFFFFFFFFFFFFFFFFFF
310
FFFFFFFFFFFFFFFFFFFFFFFFFFFFFFFFFFFFFFFFFFFFFFFFFFFFFFFFFFFFFFFF
310
FFFFFFFFFFFFFFFFFFFFFFFFFFFFFFFFFFFFFFFFFFFFFFFFFFFFFFFFFFFFFFFF
310
FFFFFFFFFFFFFFFFFFFFFFFFFFFFFFFFFFFFFFFFFFFFFFFFFFFFFFFFFFFFFFFF
310
FFFFFFFFFFFFFFFFFFFFFFFFFFFFFFFFFFFFFFFFFFFFFFFFFFFFFFFFFFFFFFFF
310
FFFFFFFFFFFFFFFFFFFFFFFFFFFFFFFFFFFFFFFFFFFFFFFFFFFFFFFFFFFFFFFF
310
FFFFFFFFFFFFFFFFFFFFFFFFFFFFFFFFFFFFFFFFFFFFFFFFFFFFFFFFFFFFFFFF
310
FFFFFFFFFFFFFFFFFFFFFFFFFFFFFFFFFFFFFFFFFFFFFFFFFFFFFFFFFFFFFFFF
310
FFFFFFFFFFFFFFFFFFFFFFFFFFFFFFFFFFFFFFFFFFFFFFFFFFFFFFFFFFFFFFFF
310
FFFFFFFFFFFFFFFFFFFFFFFFFFFFFFFFFFFFFFFFFFFFFFFFFFFFFFFFFFFFFFFF
310
FFFFFFFFFFFFFFFFFFFFFFFFFFFFFFFFFFFFFFFFFFFFFFFFFFFFFFFFFFFFFFFF
310
FFFFFFFFFFFFFFFFFFFFFFFFFFFFFFFFFFFFFFFFFFFFFFFFFFFFFFFFFFFFFFFF
310
FFFFFFFFFFFFFFFFFFFFFFFFFFFFFFFFFFFFFFFFFFFFFFFFFFFFFFFFFFFFFFFF
310
FFFFFFFFFFFFFFFFFFFFFFFFFFFFFFFFFFFFFFFFFFFFFFFFFFFFFFFFFFFFFFFF
310
0100000200000000000000000000000000000000000000000000000000000000
310
0000000000000000000000000000000000000000000000000000000000000000
310
0100FEFF030A0000FFFFFFFF0A00030000000000C00000000000004607000000
310
5042727573680007000000504272757368000700000050427275736800F439B2
310
7100000000000000000000000000000000000000000000000000000000000000
310
0000000000000000000000000000000000000000000000000000000000000000
310
0000000000000000000000000000000000000000000000000000000000000000
310
0000000000000000000000000000000000000000000000000000000000000000
310
0000000000000000000000000000000000000000000000000000000000000000
310
0000000000000000000000000000000000000000000000000000000000000000
310
0000000000000000000000000000000000000000000000000000000000000000
310
0000000000000000000000000000000000000000000000000000000000000000
310
0000000000000000000000000000000000000000000000000000000000000000
310
0000000000000000000000000000000000000000000000000000000000000000
310
0000000000000000000000000000000000000000000000000000000000000000
310
0000000000000000000000000000000000000000000000000000000000000000
310
E0110000424DDE11000000000000360400002800000096000000170000000100
310
08000000000000000000E7240000E72400000001000000010000000000FF0101
310
01FF020202FF030303FF040404FF050505FF060606FF070707FF080808FF0909
310
09FF0A0A0AFF0B0B0BFF0C0C0CFF0D0D0DFF0E0E0EFF0F0F0FFF101010FF1111
310
11FF121212FF131313FF141414FF151515FF161616FF171717FF181818FF1919
310
19FF1A1A1AFF1B1B1BFF1C1C1CFF1D1D1DFF1E1E1EFF1F1F1FFF202020FF2121
310
21FF222222FF232323FF242424FF252525FF262626FF272727FF282828FF2929
310
29FF2A2A2AFF2B2B2BFF2C2C2CFF2D2D2DFF2E2E2EFF2F2F2FFF303030FF3131
310
31FF323232FF333333FF343434FF353535FF363636FF373737FF383838FF3939
310
39FF3A3A3AFF3B3B3BFF3C3C3CFF3D3D3DFF3E3E3EFF3F3F3FFF404040FF4141
310
41FF424242FF434343FF444444FF454545FF464646FF474747FF484848FF4949
310
49FF4A4A4AFF4B4B4BFF4C4C4CFF4D4D4DFF4E4E4EFF4F4F4FFF505050FF5151
310
51FF525252FF535353FF545454FF555555FF565656FF575757FF585858FF5959
310
59FF5A5A5AFF5B5B5BFF5C5C5CFF5D5D5DFF5E5E5EFF5F5F5FFF606060FF6161
310
61FF626262FF636363FF646464FF656565FF666666FF676767FF686868FF6969
310
69FF6A6A6AFF6B6B6BFF6C6C6CFF6D6D6DFF6E6E6EFF6F6F6FFF707070FF7171
310
71FF727272FF737373FF747474FF757575FF767676FF777777FF787878FF7979
310
79FF7A7A7AFF7B7B7BFF7C7C7CFF7D7D7DFF7E7E7EFF7F7F7FFF808080FF8181
310
81FF828282FF838383FF848484FF858585FF868686FF878787FF888888FF8989
310
89FF8A8A8AFF8B8B8BFF8C8C8CFF8D8D8DFF8E8E8EFF8F8F8FFF909090FF9191
310
91FF929292FF939393FF949494FF959595FF969696FF979797FF989898FF9999
310
99FF9A9A9AFF9B9B9BFF9C9C9CFF9D9D9DFF9E9E9EFF9F9F9FFFA0A0A0FFA1A1
310
A1FFA2A2A2FFA3A3A3FFA4A4A4FFA5A5A5FFA6A6A6FFA7A7A7FFA8A8A8FFA9A9
310
A9FFAAAAAAFFABABABFFACACACFFADADADFFAEAEAEFFAFAFAFFFB0B0B0FFB1B1
310
B1FFB2B2B2FFB3B3B3FFB4B4B4FFB5B5B5FFB6B6B6FFB7B7B7FFB8B8B8FFB9B9
310
B9FFBABABAFFBBBBBBFFBCBCBCFFBDBDBDFFBEBEBEFFBFBFBFFFC0C0C0FFC1C1
310
C1FFC2C2C2FFC3C3C3FFC4C4C4FFC5C5C5FFC6C6C6FFC7C7C7FFC8C8C8FFC9C9
310
C9FFCACACAFFCBCBCBFFCCCCCCFFCDCDCDFFCECECEFFCFCFCFFFD0D0D0FFD1D1
310
D1FFD2D2D2FFD3D3D3FFD4D4D4FFD5D5D5FFD6D6D6FFD7D7D7FFD8D8D8FFD9D9
310
D9FFDADADAFFDBDBDBFFDCDCDCFFDDDDDDFFDEDEDEFFDFDFDFFFE0E0E0FFE1E1
310
E1FFE2E2E2FFE3E3E3FFE4E4E4FFE5E5E5FFE6E6E6FFE7E7E7FFE8E8E8FFE9E9
310
E9FFEAEAEAFFEBEBEBFFECECECFFEDEDEDFFEEEEEEFFEFEFEFFFF0F0F0FFF1F1
310
F1FFF2F2F2FFF3F3F3FFF4F4F4FFF5F5F5FFF6F6F6FFF7F7F7FFF8F8F8FFF9F9
310
F9FFFAFAFAFFFBFBFBFFFCFCFCFFFDFDFDFFFEFEFEFFFFFFFFFFFFFFFFFFFFFF
310
C94E4E4E4F4E4EFFFFFFFFFFC94E4E4E4E4E72FFFFFFFFFFFFFF734E4D4E4E4E
310
C9FFFFFFFFFFAA683516171616265B9BE9FFFFFFFFFF4E4E4E4D4E4EFFFFFFFF
310
FFFFFFFF4E4E4F4E4D4E4E4E4F4E4E4F4D4E4E4E4E4E4D4E4F4E4D4E4E4EAAFF
310
FFFFFFFFFFEA4E4F4F4E4E4E4E4E4D4D4F4F4E4E4E4E4E5B7FAAFFFFFFFFFFFF
310
C9744E1716171616164D8DEAFFFFFFFF0000FFFFFFFFFFFFBA161617161716FF
310
FFFFFFFFB917171616174FFFFFFFFFFFFFFF4E1716161616B9FFFFFFB9341717
310
1716171617171616268CFFFFFFFF161617161617FFFFFFFFFFFFFFB917161717
310
1617167F807F7F7F7F7F7F807F7F807F7F807F7F7F414EFFFFFFFFFFFF8C167F
310
7F807F7F7F7E7F7F807F807F7F807F4E3417258EFFFFEA4E162674AABAEAEBBA
310
AA74341680FFFFFF0000FFFFFFFFFFFFB9171717171617FFFFFFFFFFBB161616
310
16164EFFFFFFFFFFFFFF4E1717171717B9FFFF9C171617171716161616171616
310
171766FFFFFF161717161617FFFFFFFFFFFFFF8E16171717161616FFFFFFFFFF
310
FFFFFFFFFFFFFFFFFFFFFFFFFFAA16D9FFFFFFFFFF3467FFFFFFFFEAFFFFFFFF
310
FFFFFFFFFFFFFFFFFFCA671667EB26278DFFFFFFFFFFFFFFFFFFFF8C2541EAFF
310
0000FFFFFFFFFFFFB9171717171716FFFFFFFFFFBA16171617174EFFFFFFFFFF
310
FFFF4E1717161616BAFF9B1617161616171716171617161616161667FFFF1616
310
16161716FFFFFFFFFFFFFF7F16161617174017FFFFFFFFFFFFFFFFFFFFFFFFFF
310
FFFFFFFFFFFF344E7F7F7F7E7417DAFFFFFFFF80FFFFFFFFFFFFFFFFFFFFFFFF
310
FFFFFF9B163425CAFFFFFFFFFFFFFFFFFFFFFFFFCA2667FF0000FFFFFFFFFFFF
310
BA171717171617FFFFFFFFFFB916171716164EFFFFFFFFFFFFFF4F1716161717
310
B9C91716171616161716161617171616161617168DFF161716161717FFFFFFFF
310
FFFFFF7F17171716164F16FFFFFFFFFFFFFFFFFFFFFFFFFFFFFFFFFFFFFF9B16
310
17161617174EFFFFFFFFFF34FFFFFFFFD9BABABABABADAFFFFFFFFFF7F16AAFF
310
FFFFFFFFFFFFFFFFFFFFFFFFFF9C16BA0000FFFFFFFFFFFFB9161717161717FF
310
FFFFFFFFB917161716174DFFFFFFFFFFFFFF4E1616161616BA4E161617171716
310
419BEAEAAA4E16161617161726E9171717161616FFFFFFFFFFFFFF4F16161717
310
164E16FFFFFFFFFFBAB9B9B9B9B9BABABACAFFFFFFFFFFFFFFFFFFFFFFFFFFFF
310
FFFFBA16FFFFFFFF7F1617161617174DEAFFFFFFEA41FFFFFFFFFFAA4D16174E
310
9BFFFFFFFFFF34730000FFFFFFFFFFFFB9161617171617FFFFFFFFFFBA161616
310
16164EFFFFFFFFFFFFFF4F16161717169B1617161716175BFFFFFFFFFFFF7417
310
16171616168D171717161617FFFFFFFFFFFFEA2616171717167416FFFFFFFFFF
310
16171616171717171717EAFFFFFFFFFFFFFFFFFFFFFFFFFFFFFF6716FFFFFFFF
310
7F4EFFFFFFFFBA2573FFFFFFFFBAFFFFFFFFAA167FB9BB9B269BFFFFFFFF664F
310
0000FFFFFFFFFFFFB9171616161616FFFFFFFFFFBA16161717164EFFFFFFFFFF
310
FFFF4E16161616174E161617171626EAFFFFFFFFFFFFFF4E16161616164E1716
310
16161617FFFFFFFFFFFF671616161716347F16FFFFFFFFFF16B9FFFFFFFFFFFF
310
D9168DFFFFFFFFFFFFFFFFFFFFFFFFFFFFEA1716FFFFFFFF7F4EFFFFFFFFFF7F
310
4EFFFFFFFFFFFFFFFFFF5B66FFFFFFEA347FFFFFFFFF7F4D0000FFFFFFFFFFFF
310
B9171616171617FFFFFFFFFFBA17161716174EFFFFFFFFFFFFFF4D1716161617
310
17161716161673FFFFFFFFFFFFFFFF9B1617161717161616171616174F4E4E4E
310
4E341616171616167E7F16FFFFFFFFFF16BAFFFFFFFFFFFFFF5B41FFFFFFFF34
310
1616171616BAFFFFFF9B1716FFFFFFFF7F4EFFFFFFFFFF4E4EFFFFFFFF734E4E
310
4E4E267EDA9B67164EEAFFFFFFFF744D0000FFFFFFFFFFFFBA171717161617FF
310
FFFFFFFFBA1616171616347F7F7F7F80807F331616161717161717161716B9FF
310
FFFFFFFFFFFFFFE9161616161616171716161716171616161616171616171734
310
EA7F16FFFFFFFFFF16BAFFFFFFFFFFFFFFAA17C9FFFFFF7326BABA5B25FFFFFF
310
FF401716FFFFFFFF7F264F4E4E4E4217AAFFFFFFEA16677F73261616164173CA
310
FFFFFFFFFFFF417F0000FFFFFFFFFFFFBA171616171617FFFFFFFFFFBA161616
310
17171616161616161616161717161616161616161617EAFFFFFFFFFFFFFFFFFF
310
261717161716161617161616161617161617161616174EEAFF8016FFFFFFFFFF
310
17BAFFFFFFFFFFFFFFFF3467FFFFFFC916C9FF3467FFFFFFDA166716FFFFFFFF
310
9C4D4E4E4E4E67AAFFFFFFFF6834FF7F262567AAEAFFFFFFFFFFFFFFFF9B17D9
310
0000FFFFFFFFFFFFB9161616161616FFFFFFFFFFBA1617161717171616161616
310
1716171716161716161617171716FFFFFFFFFFFFFFFFFFFF4E17161716171616
310
1617171616161716171717161616169BFF7F17FFFFFFFFFF17B9FFFFFFFFFFFF
310
FFFF7326FFFFFFFF3473DA16AAFFFFFF7317AA16FFFFFFFFFFFFFFFFFFFFFFFF
310
FFFFEA6725BA4E167FEAFFFFFFFFFFFFFFFFFFFF9C167FFF0000FFFFFFFFFFFF
310
B9161717171716FFFFFFFFFFBA16161716171616171717161617161716161616
310
171617171617EAFFFFFFFFFFFFFFFFFF26161717161616161616161617171616
310
1616161616171616AA8016FFFFFFFFFF16BAFFFFFFFFFFFFFFFFDA179BFFFFFF
310
74348D26FFFFFFFF2566B917FFFFFFFFD8BAB9BAB9BADAFFFFEA41169B7425C9
310
FFFFFFFFFFFFFFFFFFFFAB4F1680FFFF0000FFFFFFFFFFFFBA161717171617FF
310
FFFFFFFFBA17161717161617171617161616161617171616171716171617BBFF
310
FFFFFFFFFFFFFFE9171616161617161617161716FFFFFFFFFFD9671616161617
310
348017FFFFFFFFFF16BAFFFFFFFFFFFFFFFFFF4E5AFFFFFFC916265AFFFFFFAA
310
16AABA16FFFFFFFF7F1617161616179BFFFFEB4127168DFFFFFFFFFFFFFFD99B
310
6734175AC9FFFFFF0000FFFFFFFFFFFFB9161617171617FFFFFFFFFFBB161616
310
1616347F807F7F7F7F8033171716171617171616161672FFFFFFFFFFFFFFFF9C
310
171617171617161716161617FFFFFFFFFFFFFF4117161616174E17FFFFFFFFFF
310
16BAFFFFFFFFFFFFFFFFFF9B16DAFFFFFF34169BFFFFFF5A26FFB917FFFFFFFF
310
7F4EFFFFFFEA5B26FFFFFFEA2616EAFFFFFFFFDA743416331617414E4E4E4ECA
310
0000FFFFFFFFFFFFBA161716161616FFFFFFFFFFBA17171616164EFFFFFFFFFF
310
FFFF4E16161717174E161717171626EBFFFFFFFFFFFFFF4E16161617165B1616
310
16171617FFFFFFFFFFFFFF6716161616161617FFFFFFFFFF16BAFFFFFFFFFFFF
310
FFFFFFEA268CFFFFFF7316EAFFFFEB1774FFB916FFFFFFFF7F4EFFFFFFFF7316
310
FFFFFFFF6826FFFFFFFFEB264D9CEABA257F807F7F6616BA0000FFFFFFFFFFFF
310
BA161716161616FFFFFFFFFFBA16171616164DFFFFFFFFFFFFFF4E1617161617
310
9B1617171717165BEBFFFFFFFFFF671616161617179B171616161616FFFFFFFF
310
FFFFFF3417161617171617FFFFFFFFFF17BAFFFFFFFFFFFFFFFFFFFF6734FFFF
310
FFEBCAFFFFFF8D17C9FFBA17FFFFFFFF7F357F808066174FFFFFFFFF7F16FFFF
310
FFFFD91673B99B415BFFFFFFFFBA16DA00009B7F7F7F807F671617161616167F
310
80807F7E6617161616164EFFFFFFFFFFFFFF4E1616161617B94E171716161616
310
349BC9D9AA4E16171616161634FF161617161717B9B9BAB9BA9B411716171716
310
163416FFFFFFFFFF16B9FFFFFFFFFFFFFFFFFFFFC917CAFFFFFFFFFFFFFF3342
310
FFFFBA17FFFFFFFF9B4E4E4F4E4E66EAFFFFFFFF5B16C9FFFFFFFFAA4E164E73
310
EAFFFFFFFF8D26FF00004E161716161616171617171616171717171617161616
310
17174EFFFFFFFFFFFFFF4E1717171616B9D92616171716171716171717171716
310
16171716AAFF161717171617161617171616161617161716166717FFFFFFFFFF
310
17B9FFFFFFFFFFFFFFFFFFFFFF3467FFFFFFFFFFFFCA168CFFFFBB17FFFFFFFF
310
FFFFFFFFFFFFFFFFFFFFFFEA26265BFFFFFFFFFFFFFFFFFFFFFFFFFFEA3467FF
310
00004D16161616161617161717161617161616171617171616164EFFFFFFFFFF
310
FFFF4D1617161616BAFF9B1616161616161716161616171717161766FFFF1616
310
16171617161617161716171616171717667F16FFFFFFFFFF17BAFFFFFFFFFFFF
310
FFFFFFFFFF8C26EAFFFFFFFFFF6617EAFFFFBA17FFFFFFFFFFFFFFFFFFFFFFFF
310
FFFFEA5A25BA269BFFFFFFFFFFFFFFFFFFFFFFFF6616DAFF00004E1616171616
310
1616161616161716161617171616171616174EFFFFFFFFFFFFFF4D1717171716
310
B9FFFF9C161616161616161716161717171667FFFFFF17161717171716161617
310
1716161616161641E97E16FFFFFFFFFF16B9FFFFFFFFFFFFFFFFFFFFFFEA169B
310
FFFFFFFFEA265BFFFFFFB916FFFFFFFFFFFFFFFFFFFFFFFFFF9B3416AAFF9B17
310
67EAFFFFFFFFFFFFFFFFEA5B169BFFFF00004D17161716161616161717171616
310
161717161716171716174EFFFFFFFFFFFFFF4D1616161616BAFFFFFFBB411616
310
161716161616171634ABFFFFFFFF161716161617171716171617171617267FFF
310
FF7F164E4E4E4E4F17BAFFFFFFFFFFFFFFFFFFFFFFFF66344D4E4E4F4117AAFF
310
FFFFBA174E4E4E4D4E4D4D4E4E4E4E4116174EBBFFFFFFCA342666ABEAFFFFEA
310
AA6725269CFFFFFF0000724F4E4D4D4D4E4D4D4E4E4E4D4E4E4E4E4E4E4E4E4D
310
4E4E74FFFFFFFFFFFFFF734E4E4E4D4ECAFFFFFFFFFFAA663416171717265B9B
310
FFFFFFFFFFFF7F8080807F80807F7F7F7F7F807FBAFFFFFFFF9B4E4E4F4D4D4E
310
4DC9FFFFFFFFFFFFFFFFFFFFFFFFBA4E4E4E4E4D4E4EFFFFFFFFC94E4E4E4F4E
310
4E4E4D4E4E5A807F9CD9FFFFFFFFFFFFFF9B5B2617171716174E8DEAFFFFFFFF
310
0000000000000000000000000000000000000000000000000000000000000000
  1
OLE
  0
ENDSEC
  0
SECTION
  2
OBJECTS
  0
DICTIONARY
  5
C
330
0
100
AcDbDictionary
281
     1
  3
ACAD_GROUP
350
D
  3
ACAD_LAYOUT
350
1A
  3
ACAD_MLINESTYLE
350
17
  3
ACAD_PLOTSETTINGS
350
19
  3
ACAD_PLOTSTYLENAME
350
E
  3
ACAD_SCALELIST
350
47
  0
DICTIONARY
  5
D
102
{ACAD_REACTORS
330
C
102
}
330
C
100
AcDbDictionary
281
     1
  0
DICTIONARY
  5
1A
102
{ACAD_REACTORS
330
C
102
}
330
C
100
AcDbDictionary
281
     1
  3
Layout1
350
1E
  3
Layout2
350
26
  3
Model
350
22
  0
DICTIONARY
  5
17
102
{ACAD_REACTORS
330
C
102
}
330
C
100
AcDbDictionary
281
     1
  3
Standard
350
18
  0
DICTIONARY
  5
19
102
{ACAD_REACTORS
330
C
102
}
330
C
100
AcDbDictionary
281
     1
  0
ACDBDICTIONARYWDFLT
  5
E
102
{ACAD_REACTORS
330
C
102
}
330
C
100
AcDbDictionary
281
     1
  3
Normal
350
F
100
AcDbDictionaryWithDefault
340
F
  0
DICTIONARY
  5
47
102
{ACAD_REACTORS
330
C
102
}
330
C
100
AcDbDictionary
281
     1
  3
A0
350
48
  3
A1
350
49
  3
A2
350
4A
  3
A3
350
4B
  3
A4
350
4C
  3
A5
350
4D
  3
A6
350
4E
  3
A7
350
4F
  3
A8
350
50
  3
A9
350
51
  3
B0
350
52
  3
B1
350
53
  3
B2
350
54
  3
B3
350
55
  3
B4
350
56
  3
B5
350
57
  3
B6
350
58
  3
B7
350
59
  3
B8
350
5A
  3
B9
350
5B
  3
C0
350
5C
  3
C1
350
5D
  3
C2
350
5E
  3
C3
350
5F
  3
C4
350
60
  3
C5
350
61
  3
C6
350
62
  3
C7
350
63
  3
C8
350
64
  3
C9
350
65
  3
D0
350
66
  3
D1
350
67
  3
D2
350
68
  0
LAYOUT
  5
1E
102
{ACAD_REACTORS
330
1A
102
}
330
1A
100
AcDbPlotSettings
  1

  2
none_device
  4

  6

 40
0.0
 41
0.0
 42
0.0
 43
0.0
 44
0.0
 45
0.0
 46
0.0
 47
0.0
 48
0.0
 49
0.0
140
0.0
141
0.0
142
1.0
143
1.0
 70
   688
 72
     0
 73
     0
 74
     5
  7

 75
    16
147
1.0
148
0.0
149
0.0
100
AcDbLayout
  1
Layout1
 70
     1
 71
     1
 10
0.0
 20
0.0
 11
12.0
 21
9.0
 12
0.0
 22
0.0
 32
0.0
 14
1.0000000000E+20
 24
1.0000000000E+20
 34
1.0000000000E+20
 15
-1.0000000000E+20
 25
-1.0000000000E+20
 35
-1.0000000000E+20
146
0.0
 13
0.0
 23
0.0
 33
0.0
 16
1.0
 26
0.0
 36
0.0
 17
0.0
 27
1.0
 37
0.0
 76
     0
330
1B
  0
LAYOUT
  5
26
102
{ACAD_REACTORS
330
1A
102
}
330
1A
100
AcDbPlotSettings
  1

  2
none_device
  4

  6

 40
0.0
 41
0.0
 42
0.0
 43
0.0
 44
0.0
 45
0.0
 46
0.0
 47
0.0
 48
0.0
 49
0.0
140
0.0
141
0.0
142
1.0
143
1.0
 70
   688
 72
     0
 73
     0
 74
     5
  7

 75
    16
147
1.0
148
0.0
149
0.0
100
AcDbLayout
  1
Layout2
 70
     1
 71
     2
 10
0.0
 20
0.0
 11
0.0
 21
0.0
 12
0.0
 22
0.0
 32
0.0
 14
0.0
 24
0.0
 34
0.0
 15
0.0
 25
0.0
 35
0.0
146
0.0
 13
0.0
 23
0.0
 33
0.0
 16
1.0
 26
0.0
 36
0.0
 17
0.0
 27
1.0
 37
0.0
 76
     0
330
23
  0
LAYOUT
  5
22
102
{ACAD_REACTORS
330
1A
102
}
330
1A
100
AcDbPlotSettings
  1

  2
none_device
  4
Letter_(8.50_x_11.00_Inches)
  6

 40
6.35
 41
6.35
 42
6.35000508
 43
6.35000508
 44
215.9
 45
279.4
 46
0.0
 47
0.0
 48
0.0
 49
0.0
140
0.0
141
0.0
142
1.0
143
1.0
 70
  1712
 72
     0
 73
     0
 74
     0
  7

 75
     0
147
1.0
148
0.0
149
0.0
100
AcDbLayout
  1
Model
 70
     1
 71
     0
 10
0.0
 20
0.0
 11
11.0
 21
8.5
 12
0.0
 22
0.0
 32
0.0
 14
0.0
 24
0.0
 34
0.0
 15
11.0
 25
8.5
 35
0.0
146
0.0
 13
0.0
 23
0.0
 33
0.0
 16
1.0
 26
0.0
 36
0.0
 17
0.0
 27
1.0
 37
0.0
 76
     0
330
1F
331
29
  0
MLINESTYLE
  5
18
102
{ACAD_REACTORS
330
17
102
}
330
17
100
AcDbMlineStyle
  2
Standard
 70
     0
  3

 62
   256
 51
90.0
 52
90.0
 71
     2
 49
0.5
 62
   256
  6
BYLAYER
 49
-0.5
 62
   256
  6
BYLAYER
  0
ACDBPLACEHOLDER
  5
F
102
{ACAD_REACTORS
330
E
102
}
330
E
  0
SCALE
  5
48
102
{ACAD_REACTORS
330
47
102
}
330
47
100
AcDbScale
 70
     0
300
1:1
140
1.0
141
1.0
290
     1
  0
SCALE
  5
49
102
{ACAD_REACTORS
330
47
102
}
330
47
100
AcDbScale
 70
     0
300
1:2
140
1.0
141
2.0
290
     0
  0
SCALE
  5
4A
102
{ACAD_REACTORS
330
47
102
}
330
47
100
AcDbScale
 70
     0
300
1:4
140
1.0
141
4.0
290
     0
  0
SCALE
  5
4B
102
{ACAD_REACTORS
330
47
102
}
330
47
100
AcDbScale
 70
     0
300
1:5
140
1.0
141
5.0
290
     0
  0
SCALE
  5
4C
102
{ACAD_REACTORS
330
47
102
}
330
47
100
AcDbScale
 70
     0
300
1:8
140
1.0
141
8.0
290
     0
  0
SCALE
  5
4D
102
{ACAD_REACTORS
330
47
102
}
330
47
100
AcDbScale
 70
     0
300
1:10
140
1.0
141
10.0
290
     0
  0
SCALE
  5
4E
102
{ACAD_REACTORS
330
47
102
}
330
47
100
AcDbScale
 70
     0
300
1:16
140
1.0
141
16.0
290
     0
  0
SCALE
  5
4F
102
{ACAD_REACTORS
330
47
102
}
330
47
100
AcDbScale
 70
     0
300
1:20
140
1.0
141
20.0
290
     0
  0
SCALE
  5
50
102
{ACAD_REACTORS
330
47
102
}
330
47
100
AcDbScale
 70
     0
300
1:30
140
1.0
141
30.0
290
     0
  0
SCALE
  5
51
102
{ACAD_REACTORS
330
47
102
}
330
47
100
AcDbScale
 70
     0
300
1:40
140
1.0
141
40.0
290
     0
  0
SCALE
  5
52
102
{ACAD_REACTORS
330
47
102
}
330
47
100
AcDbScale
 70
     0
300
1:50
140
1.0
141
50.0
290
     0
  0
SCALE
  5
53
102
{ACAD_REACTORS
330
47
102
}
330
47
100
AcDbScale
 70
     0
300
1:100
140
1.0
141
100.0
290
     0
  0
SCALE
  5
54
102
{ACAD_REACTORS
330
47
102
}
330
47
100
AcDbScale
 70
     0
300
2:1
140
2.0
141
1.0
290
     0
  0
SCALE
  5
55
102
{ACAD_REACTORS
330
47
102
}
330
47
100
AcDbScale
 70
     0
300
4:1
140
4.0
141
1.0
290
     0
  0
SCALE
  5
56
102
{ACAD_REACTORS
330
47
102
}
330
47
100
AcDbScale
 70
     0
300
8:1
140
8.0
141
1.0
290
     0
  0
SCALE
  5
57
102
{ACAD_REACTORS
330
47
102
}
330
47
100
AcDbScale
 70
     0
300
10:1
140
10.0
141
1.0
290
     0
  0
SCALE
  5
58
102
{ACAD_REACTORS
330
47
102
}
330
47
100
AcDbScale
 70
     0
300
100:1
140
100.0
141
1.0
290
     0
  0
SCALE
  5
59
102
{ACAD_REACTORS
330
47
102
}
330
47
100
AcDbScale
 70
     0
300
1/128" = 1'-0"
140
0.0078125
141
12.0
290
     0
  0
SCALE
  5
5A
102
{ACAD_REACTORS
330
47
102
}
330
47
100
AcDbScale
 70
     0
300
1/64" = 1'-0"
140
0.015625
141
12.0
290
     0
  0
SCALE
  5
5B
102
{ACAD_REACTORS
330
47
102
}
330
47
100
AcDbScale
 70
     0
300
1/32" = 1'-0"
140
0.03125
141
12.0
290
     0
  0
SCALE
  5
5C
102
{ACAD_REACTORS
330
47
102
}
330
47
100
AcDbScale
 70
     0
300
1/16" = 1'-0"
140
0.0625
141
12.0
290
     0
  0
SCALE
  5
5D
102
{ACAD_REACTORS
330
47
102
}
330
47
100
AcDbScale
 70
     0
300
3/32" = 1'-0"
140
0.09375
141
12.0
290
     0
  0
SCALE
  5
5E
102
{ACAD_REACTORS
330
47
102
}
330
47
100
AcDbScale
 70
     0
300
1/8" = 1'-0"
140
0.125
141
12.0
290
     0
  0
SCALE
  5
5F
102
{ACAD_REACTORS
330
47
102
}
330
47
100
AcDbScale
 70
     0
300
3/16" = 1'-0"
140
0.1875
141
12.0
290
     0
  0
SCALE
  5
60
102
{ACAD_REACTORS
330
47
102
}
330
47
100
AcDbScale
 70
     0
300
1/4" = 1'-0"
140
0.25
141
12.0
290
     0
  0
SCALE
  5
61
102
{ACAD_REACTORS
330
47
102
}
330
47
100
AcDbScale
 70
     0
300
3/8" = 1'-0"
140
0.375
141
12.0
290
     0
  0
SCALE
  5
62
102
{ACAD_REACTORS
330
47
102
}
330
47
100
AcDbScale
 70
     0
300
1/2" = 1'-0"
140
0.5
141
12.0
290
     0
  0
SCALE
  5
63
102
{ACAD_REACTORS
330
47
102
}
330
47
100
AcDbScale
 70
     0
300
3/4" = 1'-0"
140
0.75
141
12.0
290
     0
  0
SCALE
  5
64
102
{ACAD_REACTORS
330
47
102
}
330
47
100
AcDbScale
 70
     0
300
1" = 1'-0"
140
1.0
141
12.0
290
     0
  0
SCALE
  5
65
102
{ACAD_REACTORS
330
47
102
}
330
47
100
AcDbScale
 70
     0
300
1-1/2" = 1'-0"
140
1.5
141
12.0
290
     0
  0
SCALE
  5
66
102
{ACAD_REACTORS
330
47
102
}
330
47
100
AcDbScale
 70
     0
300
3" = 1'-0"
140
3.0
141
12.0
290
     0
  0
SCALE
  5
67
102
{ACAD_REACTORS
330
47
102
}
330
47
100
AcDbScale
 70
     0
300
6" = 1'-0"
140
6.0
141
12.0
290
     0
  0
SCALE
  5
68
102
{ACAD_REACTORS
330
47
102
}
330
47
100
AcDbScale
 70
     0
300
1'-0" = 1'-0"
140
12.0
141
12.0
290
     0
  0
ENDSEC
  0
EOF
