  0
SECTION
  2
HEADER
  9
$ACADVER
  1
AC1015
  9
$ACADMAINTVER
 70
     6
  9
$DWGCODEPAGE
  3
ANSI_1252
  9
$INSBASE
 10
0.0
 20
0.0
 30
0.0
  9
$EXTMIN
 10
0.0
 20
0.0
 30
0.0
  9
$EXTMAX
 10
11.0
 20
8.5
 30
0.0
  9
$LIMMIN
 10
0.0
 20
0.0
  9
$LIMMAX
 10
11.0
 20
8.5
  9
$ORTHOMODE
 70
     0
  9
$REGENMODE
 70
     1
  9
$FILLMODE
 70
     1
  9
$QTEXTMODE
 70
     0
  9
$MIRRTEXT
 70
     1
  9
$LTSCALE
 40
1.0
  9
$ATTMODE
 70
     1
  9
$TEXTSIZE
 40
0.1111111111
  9
$TRACEWID
 40
0.05
  9
$TEXTSTYLE
  7
Standard
  9
$CLAYER
  8
0
  9
$CELTYPE
  6
ByLayer
  9
$CECOLOR
 62
   256
  9
$CELTSCALE
 40
1.0
  9
$DISPSILH
 70
     0
  9
$DIMSCALE
 40
1.0
  9
$DIMASZ
 40
0.125
  9
$DIMEXO
 40
0.05
  9
$DIMDLI
 40
0.38
  9
$DIMRND
 40
0.0
  9
$DIMDLE
 40
0.0
  9
$DIMEXE
 40
0.07
  9
$DIMTP
 40
0.0
  9
$DIMTM
 40
0.0
  9
$DIMTXT
 40
0.1111111111
  9
$DIMCEN
 40
0.09
  9
$DIMTSZ
 40
0.0
  9
$DIMTOL
 70
     0
  9
$DIMLIM
 70
     0
  9
$DIMTIH
 70
     1
  9
$DIMTOH
 70
     1
  9
$DIMSE1
 70
     0
  9
$DIMSE2
 70
     0
  9
$DIMTAD
 70
     0
  9
$DIMZIN
 70
     1
  9
$DIMBLK
  1

  9
$DIMASO
 70
     1
  9
$DIMSHO
 70
     1
  9
$DIMPOST
  1

  9
$DIMAPOST
  1

  9
$DIMALT
 70
     0
  9
$DIMALTD
 70
     2
  9
$DIMALTF
 40
25.4
  9
$DIMLFAC
 40
1.0
  9
$DIMTOFL
 70
     0
  9
$DIMTVP
 40
0.0
  9
$DIMTIX
 70
     0
  9
$DIMSOXD
 70
     0
  9
$DIMSAH
 70
     0
  9
$DIMBLK1
  1

  9
$DIMBLK2
  1

  9
$DIMSTYLE
  2
Standard
  9
$DIMCLRD
 70
     0
  9
$DIMCLRE
 70
     0
  9
$DIMCLRT
 70
     0
  9
$DIMTFAC
 40
1.0
  9
$DIMGAP
 40
0.1
  9
$DIMJUST
 70
     0
  9
$DIMSD1
 70
     0
  9
$DIMSD2
 70
     0
  9
$DIMTOLJ
 70
     1
  9
$DIMTZIN
 70
     1
  9
$DIMALTZ
 70
     0
  9
$DIMALTTZ
 70
     0
  9
$DIMUPT
 70
     0
  9
$DIMDEC
 70
     2
  9
$DIMTDEC
 70
     2
  9
$DIMALTU
 70
     2
  9
$DIMALTTD
 70
     2
  9
$DIMTXSTY
  7
Standard
  9
$DIMAUNIT
 70
     0
  9
$DIMADEC
 70
     0
  9
$DIMALTRND
 40
0.0
  9
$DIMAZIN
 70
     0
  9
$DIMDSEP
 70
    46
  9
$DIMATFIT
 70
     3
  9
$DIMFRAC
 70
     0
  9
$DIMLDRBLK
  1

  9
$DIMLUNIT
 70
     2
  9
$DIMLWD
 70
    -2
  9
$DIMLWE
 70
    -2
  9
$DIMTMOVE
 70
     0
  9
$LUNITS
 70
     2
  9
$LUPREC
 70
     2
  9
$SKETCHINC
 40
0.1
  9
$FILLETRAD
 40
0.5
  9
$AUNITS
 70
     0
  9
$AUPREC
 70
     0
  9
$MENU
  1
.
  9
$ELEVATION
 40
0.0
  9
$PELEVATION
 40
0.0
  9
$THICKNESS
 40
0.0
  9
$LIMCHECK
 70
     0
  9
$CHAMFERA
 40
0.0
  9
$CHAMFERB
 40
0.0
  9
$CHAMFERC
 40
0.0
  9
$CHAMFERD
 40
0.0
  9
$SKPOLY
 70
     0
  9
$TDCREATE
 40
2457427.491341586
  9
$TDUCREATE
 40
2457427.699674919
  9
$TDUPDATE
 40
2457427.491344653
  9
$TDUUPDATE
 40
2457427.699677986
  9
$TDINDWG
 40
0.0000000116
  9
$TDUSRTIMER
 40
0.0000000116
  9
$USRTIMER
 70
     1
  9
$ANGBASE
 50
0.0
  9
$ANGDIR
 70
     0
  9
$PDMODE
 70
     0
  9
$PDSIZE
 40
-1.0
  9
$PLINEWID
 40
0.0
  9
$SPLFRAME
 70
     0
  9
$SPLINETYPE
 70
     6
  9
$SPLINESEGS
 70
     8
  9
$HANDSEED
  5
215
  9
$SURFTAB1
 70
     6
  9
$SURFTAB2
 70
     6
  9
$SURFTYPE
 70
     6
  9
$SURFU
 70
     6
  9
$SURFV
 70
     6
  9
$UCSBASE
  2

  9
$UCSNAME
  2

  9
$UCSORG
 10
0.0
 20
0.0
 30
0.0
  9
$UCSXDIR
 10
1.0
 20
0.0
 30
0.0
  9
$UCSYDIR
 10
0.0
 20
1.0
 30
0.0
  9
$UCSORTHOREF
  2

  9
$UCSORTHOVIEW
 70
     0
  9
$UCSORGTOP
 10
0.0
 20
0.0
 30
0.0
  9
$UCSORGBOTTOM
 10
0.0
 20
0.0
 30
0.0
  9
$UCSORGLEFT
 10
0.0
 20
0.0
 30
0.0
  9
$UCSORGRIGHT
 10
0.0
 20
0.0
 30
0.0
  9
$UCSORGFRONT
 10
0.0
 20
0.0
 30
0.0
  9
$UCSORGBACK
 10
0.0
 20
0.0
 30
0.0
  9
$PUCSBASE
  2

  9
$PUCSNAME
  2

  9
$PUCSORG
 10
0.0
 20
0.0
 30
0.0
  9
$PUCSXDIR
 10
1.0
 20
0.0
 30
0.0
  9
$PUCSYDIR
 10
0.0
 20
1.0
 30
0.0
  9
$PUCSORTHOREF
  2

  9
$PUCSORTHOVIEW
 70
     0
  9
$PUCSORGTOP
 10
0.0
 20
0.0
 30
0.0
  9
$PUCSORGBOTTOM
 10
0.0
 20
0.0
 30
0.0
  9
$PUCSORGLEFT
 10
0.0
 20
0.0
 30
0.0
  9
$PUCSORGRIGHT
 10
0.0
 20
0.0
 30
0.0
  9
$PUCSORGFRONT
 10
0.0
 20
0.0
 30
0.0
  9
$PUCSORGBACK
 10
0.0
 20
0.0
 30
0.0
  9
$USERI1
 70
     0
  9
$USERI2
 70
     0
  9
$USERI3
 70
     0
  9
$USERI4
 70
     0
  9
$USERI5
 70
     0
  9
$USERR1
 40
0.0
  9
$USERR2
 40
0.0
  9
$USERR3
 40
0.0
  9
$USERR4
 40
0.0
  9
$USERR5
 40
0.0
  9
$WORLDVIEW
 70
     1
  9
$SHADEDGE
 70
     3
  9
$SHADEDIF
 70
    70
  9
$TILEMODE
 70
     1
  9
$MAXACTVP
 70
    64
  9
$PINSBASE
 10
0.0
 20
0.0
 30
0.0
  9
$PLIMCHECK
 70
     0
  9
$PEXTMIN
 10
1.0000000000E+20
 20
1.0000000000E+20
 30
1.0000000000E+20
  9
$PEXTMAX
 10
-1.0000000000E+20
 20
-1.0000000000E+20
 30
-1.0000000000E+20
  9
$PLIMMIN
 10
0.0
 20
0.0
  9
$PLIMMAX
 10
12.0
 20
9.0
  9
$UNITMODE
 70
     0
  9
$VISRETAIN
 70
     1
  9
$PLINEGEN
 70
     0
  9
$PSLTSCALE
 70
     1
  9
$TREEDEPTH
 70
  3020
  9
$CMLSTYLE
  2
Standard
  9
$CMLJUST
 70
     0
  9
$CMLSCALE
 40
1.0
  9
$PROXYGRAPHICS
 70
     1
  9
$MEASUREMENT
 70
     0
  9
$CELWEIGHT
370
    -1
  9
$ENDCAPS
280
     0
  9
$JOINSTYLE
280
     0
  9
$LWDISPLAY
290
     1
  9
$INSUNITS
 70
     1
  9
$HYPERLINKBASE
  1

  9
$STYLESHEET
  1

  9
$XEDIT
290
     1
  9
$CEPSNTYPE
380
     0
  9
$PSTYLEMODE
290
     1
  9
$FINGERPRINTGUID
  2
{9EF63157-862B-4969-943D-659D2E51A5DC}
  9
$VERSIONGUID
  2
{FAEB1C32-E019-11D5-929B-00C0DF256EC4}
  9
$EXTNAMES
290
     1
  9
$PSVPSCALE
 40
0.0
  9
$OLESTARTUP
290
     0
  0
ENDSEC
  0
SECTION
  2
CLASSES
  0
CLASS
  1
ACDBDICTIONARYWDFLT
  2
AcDbDictionaryWithDefault
  3
ObjectDBX Classes
 90
        0
280
     0
281
     0
  0
CLASS
  1
VISUALSTYLE
  2
AcDbVisualStyle
  3
ObjectDBX Classes
 90
     4095
280
     0
281
     0
  0
CLASS
  1
MATERIAL
  2
AcDbMaterial
  3
ObjectDBX Classes
 90
     1153
280
     0
281
     0
  0
CLASS
  1
SCALE
  2
AcDbScale
  3
ObjectDBX Classes
 90
     1153
280
     0
281
     0
  0
CLASS
  1
SUN
  2
AcDbSun
  3
SCENEOE
 90
     1153
280
     0
281
     0
  0
CLASS
  1
ACDBPLACEHOLDER
  2
AcDbPlaceHolder
  3
ObjectDBX Classes
 90
        0
280
     0
281
     0
  0
CLASS
  1
LAYOUT
  2
AcDbLayout
  3
ObjectDBX Classes
 90
        0
280
     0
281
     0
  0
ENDSEC
  0
SECTION
  2
TABLES
  0
TABLE
  2
VPORT
  5
8
330
0
100
AcDbSymbolTable
 70
     1
  0
VPORT
  5
29
330
8
100
AcDbSymbolTableRecord
100
AcDbViewportTableRecord
  2
*Active
 70
     0
 10
0.0
 20
0.0
 11
1.0
 21
1.0
 12
5.5
 22
4.25
 13
0.0
 23
0.0
 14
0.5
 24
0.5
 15
0.5
 25
0.5
 16
0.0
 26
0.0
 36
1.0
 17
0.0
 27
0.0
 37
0.0
 40
8.5
 41
1.2941176471
 42
50.0
 43
0.0
 44
0.0
 50
0.0
 51
0.0
 71
     0
 72
  2000
 73
     1
 74
     3
 75
     0
 76
     0
 77
     0
 78
     0
281
     0
 65
     1
110
0.0
120
0.0
130
0.0
111
1.0
121
0.0
131
0.0
112
0.0
122
1.0
132
0.0
 79
     0
146
0.0
  0
ENDTAB
  0
TABLE
  2
LTYPE
  5
5
330
0
100
AcDbSymbolTable
 70
     6
  0
LTYPE
  5
14
330
5
100
AcDbSymbolTableRecord
100
AcDbLinetypeTableRecord
  2
ByBlock
 70
     0
  3

 72
    65
 73
     0
 40
0.0
  0
LTYPE
  5
15
330
5
100
AcDbSymbolTableRecord
100
AcDbLinetypeTableRecord
  2
ByLayer
 70
     0
  3

 72
    65
 73
     0
 40
0.0
  0
LTYPE
  5
16
330
5
100
AcDbSymbolTableRecord
100
AcDbLinetypeTableRecord
  2
Continuous
 70
     0
  3
Solid line
 72
    65
 73
     0
 40
0.0
  0
LTYPE
  5
6A
330
5
100
AcDbSymbolTableRecord
100
AcDbLinetypeTableRecord
  2
HIDDEN
 70
     0
  3
Hidden __ __ __ __ __ __ __ __ __ __ __ __ __ __
 72
    65
 73
     2
 40
0.075
 49
0.05
 74
     0
 49
-0.025
 74
     0
  0
LTYPE
  5
6B
330
5
100
AcDbSymbolTableRecord
100
AcDbLinetypeTableRecord
  2
PHANTOM
 70
     0
  3
Phantom ______  __  __  ______  __  __  ______
 72
    65
 73
     6
 40
0.5
 49
0.25
 74
     0
 49
-0.05
 74
     0
 49
0.05
 74
     0
 49
-0.05
 74
     0
 49
0.05
 74
     0
 49
-0.05
 74
     0
  0
LTYPE
  5
6C
330
5
100
AcDbSymbolTableRecord
100
AcDbLinetypeTableRecord
  2
CENTER
 70
     0
  3
Center ____ _ ____ _ ____ _ ____ _ ____ _ ____
 72
    65
 73
     4
 40
0.4
 49
0.25
 74
     0
 49
-0.05
 74
     0
 49
0.05
 74
     0
 49
-0.05
 74
     0
  0
LTYPE
  5
6D
330
5
100
AcDbSymbolTableRecord
100
AcDbLinetypeTableRecord
  2
CENTERX2
 70
     0
  3
Center (2x) ________  __  ________  __  _____
 72
    65
 73
     4
 40
0.8
 49
0.5
 74
     0
 49
-0.1
 74
     0
 49
0.1
 74
     0
 49
-0.1
 74
     0
  0
LTYPE
  5
6E
330
5
100
AcDbSymbolTableRecord
100
AcDbLinetypeTableRecord
  2
DOT2
 70
     0
  3
Dot (.5x) ........................................
 72
    65
 73
     2
 40
0.025
 49
0.0
 74
     0
 49
-0.025
 74
     0
  0
ENDTAB
  0
TABLE
  2
LAYER
  5
2
330
0
100
AcDbSymbolTable
 70
     2
  0
LAYER
  5
10
330
2
100
AcDbSymbolTableRecord
100
AcDbLayerTableRecord
  2
0
 70
     0
 62
     7
  6
Continuous
370
    -3
390
F
  0
LAYER
  5
6F
330
2
100
AcDbSymbolTableRecord
100
AcDbLayerTableRecord
  2
FORMAT
 70
     0
 62
     7
  6
Continuous
370
    -3
390
F
  0
ENDTAB
  0
TABLE
  2
STYLE
  5
3
330
0
100
AcDbSymbolTable
 70
     5
  0
STYLE
  5
11
330
3
100
AcDbSymbolTableRecord
100
AcDbTextStyleTableRecord
  2
Standard
 70
     0
 40
0.0
 41
1.0
 50
0.0
 71
     0
 42
0.1111111111
  3
txt
  4

  0
STYLE
  5
96
330
3
100
AcDbSymbolTableRecord
100
AcDbTextStyleTableRecord
  2
SLDTEXTSTYLE0
 70
     0
 40
0.0
 41
0.75
 50
0.0
 71
     0
 42
0.1111111111
  3
TXT
  4

  0
STYLE
  5
A2
330
3
100
AcDbSymbolTableRecord
100
AcDbTextStyleTableRecord
  2
SLDTEXTSTYLE1
 70
     0
 40
0.0
 41
0.6
 50
0.0
 71
     0
 42
0.1111111111
  3
TXT
  4

  0
STYLE
  5
A7
330
3
100
AcDbSymbolTableRecord
100
AcDbTextStyleTableRecord
  2
SLDTEXTSTYLE2
 70
     0
 40
0.0
 41
0.6875
 50
0.0
 71
     0
 42
0.1111111111
  3
TXT
  4

  0
STYLE
  5
1F0
330
3
100
AcDbSymbolTableRecord
100
AcDbTextStyleTableRecord
  2
SLDTEXTSTYLE3
 70
     0
 40
0.0
 41
0.7
 50
0.0
 71
     0
 42
0.1111111111
  3
TXT
  4

  0
ENDTAB
  0
TABLE
  2
VIEW
  5
6
330
0
100
AcDbSymbolTable
 70
     0
  0
ENDTAB
  0
TABLE
  2
UCS
  5
7
330
0
100
AcDbSymbolTable
 70
     0
  0
ENDTAB
  0
TABLE
  2
APPID
  5
9
330
0
100
AcDbSymbolTable
 70
     1
  0
APPID
  5
12
330
9
100
AcDbSymbolTableRecord
100
AcDbRegAppTableRecord
  2
ACAD
 70
     0
  0
ENDTAB
  0
TABLE
  2
DIMSTYLE
  5
A
330
0
100
AcDbSymbolTable
 70
     5
100
AcDbDimStyleTable
  0
DIMSTYLE
105
27
330
A
100
AcDbSymbolTableRecord
100
AcDbDimStyleTableRecord
  2
Standard
 70
     0
178
     0
340
11
  0
DIMSTYLE
105
11D
102
{ACAD_REACTORS
330
11C
102
}
330
A
100
AcDbSymbolTableRecord
100
AcDbDimStyleTableRecord
  2
SLDDIMSTYLE0
 70
     0
 41
0.125
 44
0.0
 45
0.000000001
 78
     4
 79
     1
140
0.0833333333
141
0.0
147
0.0208333333
148
0.000000001
170
     1
171
     1
173
     1
178
     0
271
     2
272
     2
274
     1
276
     2
284
    12
340
96
  0
DIMSTYLE
105
1B1
102
{ACAD_REACTORS
330
1B0
102
}
330
A
100
AcDbSymbolTableRecord
100
AcDbDimStyleTableRecord
  2
SLDDIMSTYLE1
 70
     0
 41
0.125
 44
0.0
 45
0.000000001
 78
     4
 79
     1
140
0.0833333333
147
0.0208333333
148
0.000000001
170
     1
171
     1
173
     1
178
     0
271
     2
272
     2
274
     1
276
     2
284
    12
340
96
  0
DIMSTYLE
105
1C5
102
{ACAD_REACTORS
330
1C4
330
1D9
102
}
330
A
100
AcDbSymbolTableRecord
100
AcDbDimStyleTableRecord
  2
SLDDIMSTYLE2
 70
     0
 41
0.125
 44
0.0
 45
0.000000001
 78
     8
 79
     2
140
0.0833333333
147
0.0208333333
148
0.000000001
170
     1
171
     1
172
     1
173
     1
178
     0
271
     2
272
     2
274
     1
276
     2
284
    12
289
     0
340
96
  0
DIMSTYLE
105
1F5
330
A
100
AcDbSymbolTableRecord
100
AcDbDimStyleTableRecord
  2
SLDDIMSTYLE3
 70
     0
 41
0.125
 44
0.0
 45
0.000000001
146
0.125
147
0.0
173
     1
178
     0
271
     0
272
     0
276
     2
340
11
  0
ENDTAB
  0
TABLE
  2
BLOCK_RECORD
  5
1
330
0
100
AcDbSymbolTable
 70
    20
  0
BLOCK_RECORD
  5
1F
330
1
100
AcDbSymbolTableRecord
100
AcDbBlockTableRecord
  2
*Model_Space
340
22
  0
BLOCK_RECORD
  5
1B
330
1
100
AcDbSymbolTableRecord
100
AcDbBlockTableRecord
  2
*Paper_Space
340
1E
  0
BLOCK_RECORD
  5
23
330
1
100
AcDbSymbolTableRecord
100
AcDbBlockTableRecord
  2
*Paper_Space0
340
26
  0
BLOCK_RECORD
  5
70
330
1
100
AcDbSymbolTableRecord
100
AcDbBlockTableRecord
  2
Third Angle Projection Block
340
0
102
{BLKREFS
331
95
102
}
  0
BLOCK_RECORD
  5
A9
330
1
100
AcDbSymbolTableRecord
100
AcDbBlockTableRecord
  2
SW_NOTE_0
340
0
102
{BLKREFS
331
AE
102
}
  0
BLOCK_RECORD
  5
AF
330
1
100
AcDbSymbolTableRecord
100
AcDbBlockTableRecord
  2
SW_NOTE_1
340
0
102
{BLKREFS
331
B4
102
}
  0
BLOCK_RECORD
  5
B6
330
1
100
AcDbSymbolTableRecord
100
AcDbBlockTableRecord
  2
SW_NOTE_2
340
0
102
{BLKREFS
331
BC
102
}
  0
BLOCK_RECORD
  5
BE
330
1
100
AcDbSymbolTableRecord
100
AcDbBlockTableRecord
  2
SW_NOTE_3
340
0
102
{BLKREFS
331
C3
102
}
  0
BLOCK_RECORD
  5
C4
330
1
100
AcDbSymbolTableRecord
100
AcDbBlockTableRecord
  2
SW_NOTE_4
340
0
102
{BLKREFS
331
D9
102
}
  0
BLOCK_RECORD
  5
DA
330
1
100
AcDbSymbolTableRecord
100
AcDbBlockTableRecord
  2
SW_TABLEANNOTATION_0
340
0
102
{BLKREFS
331
103
102
}
  0
BLOCK_RECORD
  5
E8
330
1
100
AcDbSymbolTableRecord
100
AcDbBlockTableRecord
  2
SW_SYMBOL_C#_1
340
0
102
{BLKREFS
331
ED
102
}
  0
BLOCK_RECORD
  5
F1
330
1
100
AcDbSymbolTableRecord
100
AcDbBlockTableRecord
  2
SW_SYMBOL_C#_2
340
0
102
{BLKREFS
331
F6
102
}
  0
BLOCK_RECORD
  5
F9
330
1
100
AcDbSymbolTableRecord
100
AcDbBlockTableRecord
  2
SW_SYMBOL_C#_3
340
0
102
{BLKREFS
331
FE
102
}
  0
BLOCK_RECORD
  5
11E
330
1
100
AcDbSymbolTableRecord
100
AcDbBlockTableRecord
  2
_D
340
0
  0
BLOCK_RECORD
  5
1B2
330
1
100
AcDbSymbolTableRecord
100
AcDbBlockTableRecord
  2
_D_1
340
0
  0
BLOCK_RECORD
  5
1C6
330
1
100
AcDbSymbolTableRecord
100
AcDbBlockTableRecord
  2
_D_2
340
0
  0
BLOCK_RECORD
  5
1DA
330
1
100
AcDbSymbolTableRecord
100
AcDbBlockTableRecord
  2
_D_3
340
0
  0
BLOCK_RECORD
  5
1ED
330
1
100
AcDbSymbolTableRecord
100
AcDbBlockTableRecord
  2
SW_NOTE_5
340
0
102
{BLKREFS
331
1F4
102
}
  0
BLOCK_RECORD
  5
1F7
330
1
100
AcDbSymbolTableRecord
100
AcDbBlockTableRecord
  2
SW_NOTE_6
340
0
102
{BLKREFS
331
1FD
102
}
  0
BLOCK_RECORD
  5
1FF
330
1
100
AcDbSymbolTableRecord
100
AcDbBlockTableRecord
  2
SW_NOTE_7
340
0
102
{BLKREFS
331
204
102
}
  0
BLOCK_RECORD
  5
206
330
1
100
AcDbSymbolTableRecord
100
AcDbBlockTableRecord
  2
SW_NOTE_8
340
0
102
{BLKREFS
331
20B
102
}
  0
BLOCK_RECORD
  5
20D
330
1
100
AcDbSymbolTableRecord
100
AcDbBlockTableRecord
  2
SW_NOTE_9
340
0
102
{BLKREFS
331
212
102
}
  0
ENDTAB
  0
ENDSEC
  0
SECTION
  2
BLOCKS
  0
BLOCK
  5
20
330
1F
100
AcDbEntity
  8
0
100
AcDbBlockBegin
  2
*Model_Space
 70
     0
 10
0.0
 20
0.0
 30
0.0
  3
*Model_Space
  1
*Model_Space
  0
ENDBLK
  5
21
330
1F
100
AcDbEntity
  8
0
100
AcDbBlockEnd
  0
BLOCK
  5
1C
330
1B
100
AcDbEntity
 67
     1
  8
0
100
AcDbBlockBegin
  2
*Paper_Space
 70
     0
 10
0.0
 20
0.0
 30
0.0
  3
*Paper_Space
  1
*Paper_Space
  0
ENDBLK
  5
1D
330
1B
100
AcDbEntity
 67
     1
  8
0
100
AcDbBlockEnd
  0
BLOCK
  5
24
330
23
100
AcDbEntity
  8
0
100
AcDbBlockBegin
  2
*Paper_Space0
 70
     0
 10
0.0
 20
0.0
 30
0.0
  3
*Paper_Space0
  1
*Paper_Space0
  0
ENDBLK
  5
25
330
23
100
AcDbEntity
  8
0
100
AcDbBlockEnd
  0
BLOCK
  5
71
330
70
100
AcDbEntity
  8
0
100
AcDbBlockBegin
  2
Third Angle Projection Block
 70
     0
 10
0.0
 20
0.0
 30
0.0
  3
Third Angle Projection Block
  1
Third Angle Projection Block
  0
CIRCLE
  5
73
330
70
100
AcDbEntity
  8
0
  6
Continuous
 62
     7
370
    30
100
AcDbCircle
 10
3.9951432636
 20
0.7456853688
 30
0.0
 40
0.0696152422706639
  0
CIRCLE
  5
74
330
70
100
AcDbEntity
  8
0
  6
Continuous
 62
     7
370
    30
100
AcDbCircle
 10
3.9951432636
 20
0.7456853688
 30
0.0
 40
0.1535916633280245
  0
LINE
  5
75
330
70
100
AcDbEntity
  8
0
  6
CENTERX2
 62
     7
370
     0
100
AcDbLine
 10
4.3360937897
 20
0.7456853688
 30
0.0
 11
4.7028635231
 21
0.7456853688
 31
0.0
  0
LINE
  5
76
330
70
100
AcDbEntity
  8
0
  6
Continuous
 62
     7
370
    30
100
AcDbLine
 10
4.3701432636
 20
0.815300611
 30
0.0
 11
4.3701432636
 21
0.6760701265
 31
0.0
  0
LINE
  5
77
330
70
100
AcDbEntity
  8
0
  6
Continuous
 62
     7
370
    30
100
AcDbLine
 10
4.3701432636
 20
0.6760701265
 30
0.0
 11
4.6701432636
 21
0.5956853688
 31
0.0
  0
LINE
  5
78
330
70
100
AcDbEntity
  8
0
  6
Continuous
 62
     7
370
    30
100
AcDbLine
 10
4.6701432636
 20
0.5956853688
 30
0.0
 11
4.6701432636
 21
0.8956853688
 31
0.0
  0
LINE
  5
79
330
70
100
AcDbEntity
  8
0
  6
Continuous
 62
     7
370
    30
100
AcDbLine
 10
4.6701432636
 20
0.8956853688
 30
0.0
 11
4.3701432636
 21
0.815300611
 31
0.0
  0
LINE
  5
7A
330
70
100
AcDbEntity
  8
0
  6
CENTERX2
 62
     7
370
     0
100
AcDbLine
 10
3.8032513961
 20
0.7456853688
 30
0.0
 11
4.187035131
 21
0.7456853688
 31
0.0
  0
LINE
  5
7B
330
70
100
AcDbEntity
  8
0
  6
CENTERX2
 62
     7
370
     0
100
AcDbLine
 10
3.9951432636
 20
0.9375772362
 30
0.0
 11
3.9951432636
 21
0.5537935013
 31
0.0
  0
POINT
  5
7C
330
70
100
AcDbEntity
  8
0
  6
Continuous
 62
     7
370
     0
100
AcDbPoint
 10
3.9951432636
 20
0.7456853688
 30
0.0
  0
ENDBLK
  5
72
330
70
100
AcDbEntity
  8
0
100
AcDbBlockEnd
  0
BLOCK
  5
AA
330
A9
100
AcDbEntity
  8
0
100
AcDbBlockBegin
  2
SW_NOTE_0
 70
     0
 10
0.0
 20
0.0
 30
0.0
  3
SW_NOTE_0
  1
SW_NOTE_0
  0
MTEXT
  5
AC
330
A9
100
AcDbEntity
  8
0
  6
Continuous
 62
     0
370
     0
100
AcDbMText
 10
0.78375
 20
0.0773440644
 30
0.0
 40
0.06
 41
0.0
 71
     2
 72
     1
  1
VALUES IN PARENTHESIS ARE CALCULATED
  7
SLDTEXTSTYLE0
 73
     1
 44
1.0
  0
MTEXT
  5
AD
330
A9
100
AcDbEntity
  8
0
  6
Continuous
 62
     0
370
     0
100
AcDbMText
 10
0.7825936818
 20
-0.0220260102
 30
0.0
 40
0.06
 41
0.0
 71
     2
 72
     1
  1
AND MAY CONTAIN ROUNDOFF ERRORS
  7
SLDTEXTSTYLE0
 73
     1
 44
1.0
  0
ENDBLK
  5
AB
330
A9
100
AcDbEntity
  8
0
100
AcDbBlockEnd
  0
BLOCK
  5
B0
330
AF
100
AcDbEntity
  8
0
100
AcDbBlockBegin
  2
SW_NOTE_1
 70
     0
 10
0.0
 20
0.0
 30
0.0
  3
SW_NOTE_1
  1
SW_NOTE_1
  0
MTEXT
  5
B2
330
AF
100
AcDbEntity
  8
0
  6
Continuous
 62
     0
370
     0
100
AcDbMText
 10
0.0
 20
0.1074223116
 30
0.0
 40
0.0833333333
 41
0.0
 71
     1
 72
     1
  1
DRAWING
  7
SLDTEXTSTYLE0
 73
     1
 44
1.0
  0
MTEXT
  5
B3
330
AF
100
AcDbEntity
  8
0
  6
Continuous
 62
     0
370
     0
100
AcDbMText
 10
0.0
 20
-0.0036887981
 30
0.0
 40
0.0833333333
 41
0.0
 71
     1
 72
     1
  1
PROJECTION
  7
SLDTEXTSTYLE0
 73
     1
 44
1.0
  0
ENDBLK
  5
B1
330
AF
100
AcDbEntity
  8
0
100
AcDbBlockEnd
  0
BLOCK
  5
B7
330
B6
100
AcDbEntity
  8
0
100
AcDbBlockBegin
  2
SW_NOTE_2
 70
     0
 10
0.0
 20
0.0
 30
0.0
  3
SW_NOTE_2
  1
SW_NOTE_2
  0
MTEXT
  5
B9
330
B6
100
AcDbEntity
  8
0
  6
Continuous
 62
     0
370
     0
100
AcDbMText
 10
0.0823567708
 20
0.1477056785
 30
0.0
 40
0.1145833333
 41
0.0
 71
     2
 72
     1
  1
%%c
  7
SLDTEXTSTYLE0
 73
     1
 44
1.0
  0
MTEXT
  5
BA
330
B6
100
AcDbEntity
  8
0
  6
Continuous
 62
     0
370
     0
100
AcDbMText
 10
1.2471759303
 20
0.1477056785
 30
0.0
 40
0.1145833333
 41
0.0
 71
     2
 72
     1
  1
2" MOUNTED PLANO-CONVEX
  7
SLDTEXTSTYLE0
 73
     1
 44
1.0
  0
MTEXT
  5
BB
330
B6
100
AcDbEntity
  8
0
  6
Continuous
 62
     0
370
     0
100
AcDbMText
 10
1.1579654396
 20
-0.0050720974
 30
0.0
 40
0.1145833333
 41
0.0
 71
     2
 72
     1
  1
LENS, f=300mm, -UV COAT
  7
SLDTEXTSTYLE0
 73
     1
 44
1.0
  0
ENDBLK
  5
B8
330
B6
100
AcDbEntity
  8
0
100
AcDbBlockEnd
  0
BLOCK
  5
BF
330
BE
100
AcDbEntity
  8
0
100
AcDbBlockBegin
  2
SW_NOTE_3
 70
     0
 10
0.0
 20
0.0
 30
0.0
  3
SW_NOTE_3
  1
SW_NOTE_3
  0
MTEXT
  5
C1
330
BE
100
AcDbEntity
  8
0
  6
Continuous
 62
     0
370
     0
100
AcDbMText
 10
0.986328125
 20
0.1611334675
 30
0.0
 40
0.125
 41
0.0
 71
     2
 72
     1
  1
FOR INFORMATION ONLY
  7
SLDTEXTSTYLE0
 73
     1
 44
1.0
  0
MTEXT
  5
C2
330
BE
100
AcDbEntity
  8
0
  6
Continuous
 62
     0
370
     0
100
AcDbMText
 10
0.999088459
 20
-0.0055331972
 30
0.0
 40
0.125
 41
0.0
 71
     2
 72
     1
  1
NOT FOR MANUFACTURING PURPOSES
  7
SLDTEXTSTYLE0
 73
     1
 44
1.0
  0
ENDBLK
  5
C0
330
BE
100
AcDbEntity
  8
0
100
AcDbBlockEnd
  0
BLOCK
  5
C5
330
C4
100
AcDbEntity
  8
0
100
AcDbBlockBegin
  2
SW_NOTE_4
 70
     0
 10
0.0
 20
0.0
 30
0.0
  3
SW_NOTE_4
  1
SW_NOTE_4
  0
MTEXT
  5
C7
330
C4
100
AcDbEntity
  8
0
  6
Continuous
 62
     0
370
     0
100
AcDbMText
 10
0.0
 20
0.1074223116
 30
0.0
 40
0.0833333333
 41
0.0
 71
     1
 72
     1
  1
NOTES/SPECIFICATIONS:
  7
SLDTEXTSTYLE0
 73
     1
 44
1.0
  0
MTEXT
  5
C8
330
C4
100
AcDbEntity
  8
0
  6
Continuous
 62
     0
370
     0
100
AcDbMText
 10
0.4183921567
 20
-0.1147999079
 30
0.0
 40
0.0833333333
 41
0.0
 71
     1
 72
     1
  1
DESIGN WAVELENGTH: 546nm
  7
SLDTEXTSTYLE0
 73
     1
 44
1.0
  0
MTEXT
  5
C9
330
C4
100
AcDbEntity
  8
0
  6
Continuous
 62
     0
370
     0
100
AcDbMText
 10
0.0
 20
-0.1147999079
 30
0.0
 40
0.0833333333
 41
0.0
 71
     1
 72
     1
  1
1.
  7
SLDTEXTSTYLE0
 73
     1
 44
1.0
  0
MTEXT
  5
CA
330
C4
100
AcDbEntity
  8
0
  6
Continuous
 62
     0
370
     0
100
AcDbMText
 10
0.4183921567
 20
-0.2259110177
 30
0.0
 40
0.0833333333
 41
0.0
 71
     1
 72
     1
  1
FOCAL LENGTH: f=300.0mm
  7
SLDTEXTSTYLE0
 73
     1
 44
1.0
  0
MTEXT
  5
CB
330
C4
100
AcDbEntity
  8
0
  6
Continuous
 62
     0
370
     0
100
AcDbMText
 10
1.8858304981
 20
-0.2259110177
 30
0.0
 40
0.0833333333
 41
0.0
 71
     1
 72
     1
  1
%%p
  7
SLDTEXTSTYLE0
 73
     1
 44
1.0
  0
MTEXT
  5
CC
330
C4
100
AcDbEntity
  8
0
  6
Continuous
 62
     0
370
     0
100
AcDbMText
 10
1.9652749536
 20
-0.2259110177
 30
0.0
 40
0.0833333333
 41
0.0
 71
     1
 72
     1
  1
1%
  7
SLDTEXTSTYLE0
 73
     1
 44
1.0
  0
MTEXT
  5
CD
330
C4
100
AcDbEntity
  8
0
  6
Continuous
 62
     0
370
     0
100
AcDbMText
 10
0.0
 20
-0.2259110177
 30
0.0
 40
0.0833333333
 41
0.0
 71
     1
 72
     1
  1
2.
  7
SLDTEXTSTYLE0
 73
     1
 44
1.0
  0
MTEXT
  5
CE
330
C4
100
AcDbEntity
  8
0
  6
Continuous
 62
     0
370
     0
100
AcDbMText
 10
0.4183921567
 20
-0.3370221274
 30
0.0
 40
0.0833333333
 41
0.0
 71
     1
 72
     1
  1
WORKING DISTANCE (REF): 292.5mm
  7
SLDTEXTSTYLE0
 73
     1
 44
1.0
  0
MTEXT
  5
CF
330
C4
100
AcDbEntity
  8
0
  6
Continuous
 62
     0
370
     0
100
AcDbMText
 10
0.0
 20
-0.3370221274
 30
0.0
 40
0.0833333333
 41
0.0
 71
     1
 72
     1
  1
3.
  7
SLDTEXTSTYLE0
 73
     1
 44
1.0
  0
MTEXT
  5
D0
330
C4
100
AcDbEntity
  8
0
  6
Continuous
 62
     0
370
     0
100
AcDbMText
 10
0.4183921567
 20
-0.4481332372
 30
0.0
 40
0.0833333333
 41
0.0
 71
     1
 72
     1
  1
CLEAR APERTURE: >
  7
SLDTEXTSTYLE0
 73
     1
 44
1.0
  0
MTEXT
  5
D1
330
C4
100
AcDbEntity
  8
0
  6
Continuous
 62
     0
370
     0
100
AcDbMText
 10
1.4507996036
 20
-0.4481332372
 30
0.0
 40
0.0833333333
 41
0.0
 71
     1
 72
     1
  1
%%c
  7
SLDTEXTSTYLE0
 73
     1
 44
1.0
  0
MTEXT
  5
D2
330
C4
100
AcDbEntity
  8
0
  6
Continuous
 62
     0
370
     0
100
AcDbMText
 10
1.5765865971
 20
-0.4481332372
 30
0.0
 40
0.0833333333
 41
0.0
 71
     1
 72
     1
  1
45.72mm
  7
SLDTEXTSTYLE0
 73
     1
 44
1.0
  0
MTEXT
  5
D3
330
C4
100
AcDbEntity
  8
0
  6
Continuous
 62
     0
370
     0
100
AcDbMText
 10
0.0
 20
-0.4481332372
 30
0.0
 40
0.0833333333
 41
0.0
 71
     1
 72
     1
  1
4.
  7
SLDTEXTSTYLE0
 73
     1
 44
1.0
  0
MTEXT
  5
D4
330
C4
100
AcDbEntity
  8
0
  6
Continuous
 62
     0
370
     0
100
AcDbMText
 10
0.4183921567
 20
-0.559244347
 30
0.0
 40
0.0833333333
 41
0.0
 71
     1
 72
     1
  1
SURFACE QUALITY: 40-20 SCRATCH-DIG
  7
SLDTEXTSTYLE0
 73
     1
 44
1.0
  0
MTEXT
  5
D5
330
C4
100
AcDbEntity
  8
0
  6
Continuous
 62
     0
370
     0
100
AcDbMText
 10
0.0
 20
-0.559244347
 30
0.0
 40
0.0833333333
 41
0.0
 71
     1
 72
     1
  1
5.
  7
SLDTEXTSTYLE0
 73
     1
 44
1.0
  0
MTEXT
  5
D6
330
C4
100
AcDbEntity
  8
0
  6
Continuous
 62
     0
370
     0
100
AcDbMText
 10
0.4183921567
 20
-0.6703554567
 30
0.0
 40
0.0833333333
 41
0.0
 71
     1
 72
     1
  1
COATING: BBAR Ravg<0.5% FROM 245-400nm, AOI: 0°,
  7
SLDTEXTSTYLE0
 73
     1
 44
1.0
  0
MTEXT
  5
D7
330
C4
100
AcDbEntity
  8
0
  6
Continuous
 62
     0
370
     0
100
AcDbMText
 10
0.0
 20
-0.6703554567
 30
0.0
 40
0.0833333333
 41
0.0
 71
     1
 72
     1
  1
6.
  7
SLDTEXTSTYLE0
 73
     1
 44
1.0
  0
MTEXT
  5
D8
330
C4
100
AcDbEntity
  8
0
  6
Continuous
 62
     0
370
     0
100
AcDbMText
 10
0.4249507874
 20
-0.7814665665
 30
0.0
 40
0.0833333333
 41
0.0
 71
     1
 72
     1
  1
ON OUTER OPTICAL SURFACES
  7
SLDTEXTSTYLE0
 73
     1
 44
1.0
  0
ENDBLK
  5
C6
330
C4
100
AcDbEntity
  8
0
100
AcDbBlockEnd
  0
BLOCK
  5
DB
330
DA
100
AcDbEntity
  8
0
100
AcDbBlockBegin
  2
SW_TABLEANNOTATION_0
 70
     0
 10
0.0
 20
0.0
 30
0.0
  3
SW_TABLEANNOTATION_0
  1
SW_TABLEANNOTATION_0
  0
LINE
  5
DD
330
DA
100
AcDbEntity
  8
0
  6
Continuous
 62
     0
370
     0
100
AcDbLine
 10
0.0
 20
0.0
 30
0.0
 11
0.0
 21
-1.2444444391
 31
0.0
  0
LINE
  5
DE
330
DA
100
AcDbEntity
  8
0
  6
Continuous
 62
     0
370
     0
100
AcDbLine
 10
0.0
 20
-1.2444444391
 30
0.0
 11
3.3
 21
-1.2444444391
 31
0.0
  0
LINE
  5
DF
330
DA
100
AcDbEntity
  8
0
  6
Continuous
 62
     0
370
     0
100
AcDbLine
 10
3.3
 20
-1.2444444391
 30
0.0
 11
3.3
 21
0.0
 31
0.0
  0
LINE
  5
E0
330
DA
100
AcDbEntity
  8
0
  6
Continuous
 62
     0
370
     0
100
AcDbLine
 10
3.3
 20
0.0
 30
0.0
 11
0.0
 21
0.0
 31
0.0
  0
LINE
  5
E1
330
DA
100
AcDbEntity
  8
0
  6
Continuous
 62
     0
370
     0
100
AcDbLine
 10
1.1
 20
0.0
 30
0.0
 11
1.1
 21
-1.2444444391
 31
0.0
  0
LINE
  5
E2
330
DA
100
AcDbEntity
  8
0
  6
Continuous
 62
     0
370
     0
100
AcDbLine
 10
2.2
 20
0.0
 30
0.0
 11
2.2
 21
-1.2444444391
 31
0.0
  0
LINE
  5
E3
330
DA
100
AcDbEntity
  8
0
  6
Continuous
 62
     0
370
     0
100
AcDbLine
 10
0.0
 20
-0.3111111098
 30
0.0
 11
3.3
 21
-0.3111111098
 31
0.0
  0
LINE
  5
E4
330
DA
100
AcDbEntity
  8
0
  6
Continuous
 62
     0
370
     0
100
AcDbLine
 10
0.0
 20
-0.6222222195
 30
0.0
 11
3.3
 21
-0.6222222195
 31
0.0
  0
LINE
  5
E5
330
DA
100
AcDbEntity
  8
0
  6
Continuous
 62
     0
370
     0
100
AcDbLine
 10
0.0
 20
-0.9333333293
 30
0.0
 11
3.3
 21
-0.9333333293
 31
0.0
  0
MTEXT
  5
E6
330
DA
100
AcDbEntity
  8
0
  6
Continuous
 62
     0
370
     0
100
AcDbMText
 10
1.1543981952
 20
-0.1141206209
 30
0.0
 40
0.0833333333
 41
0.0
 71
     1
 72
     1
  1
PART DESCRIPTION
  7
SLDTEXTSTYLE0
 73
     1
 44
1.0
  0
MTEXT
  5
E7
330
DA
100
AcDbEntity
  8
0
  6
Continuous
 62
     0
370
     0
100
AcDbMText
 10
2.491203698
 20
-0.1141206209
 30
0.0
 40
0.0833333333
 41
0.0
 71
     1
 72
     1
  1
MATERIAL
  7
SLDTEXTSTYLE0
 73
     1
 44
1.0
  0
INSERT
  5
ED
330
DA
100
AcDbEntity
  8
0
  6
Continuous
 62
     0
370
     0
100
AcDbBlockReference
  2
SW_SYMBOL_C#_1
 10
0.4374537001
 20
-0.5210980527
 30
0.0
 41
0.0027037109
 42
0.0027037109
 43
0.0027037109
  0
MTEXT
  5
EE
330
DA
100
AcDbEntity
  8
0
  6
Continuous
 62
     0
370
     0
100
AcDbMText
 10
1.4729938215
 20
-0.4252317307
 30
0.0
 40
0.0833333333
 41
0.0
 71
     1
 72
     1
  1
SM2RR
  7
SLDTEXTSTYLE0
 73
     1
 44
1.0
  0
MTEXT
  5
EF
330
DA
100
AcDbEntity
  8
0
  6
Continuous
 62
     0
370
     0
100
AcDbMText
 10
2.4676697448
 20
-0.3696761758
 30
0.0
 40
0.0833333333
 41
0.0
 71
     1
 72
     1
  1
ANODIZED
  7
SLDTEXTSTYLE0
 73
     1
 44
1.0
  0
MTEXT
  5
F0
330
DA
100
AcDbEntity
  8
0
  6
Continuous
 62
     0
370
     0
100
AcDbMText
 10
2.4546296155
 20
-0.4807872855
 30
0.0
 40
0.0833333333
 41
0.0
 71
     1
 72
     1
  1
ALUMINUM
  7
SLDTEXTSTYLE0
 73
     1
 44
1.0
  0
INSERT
  5
F6
330
DA
100
AcDbEntity
  8
0
  6
Continuous
 62
     0
370
     0
100
AcDbBlockReference
  2
SW_SYMBOL_C#_2
 10
0.4374537001
 20
-0.8322091625
 30
0.0
 41
0.0027037109
 42
0.0027037109
 43
0.0027037109
  0
MTEXT
  5
F7
330
DA
100
AcDbEntity
  8
0
  6
Continuous
 62
     0
370
     0
100
AcDbMText
 10
1.3662037001
 20
-0.7363428404
 30
0.0
 40
0.0833333333
 41
0.0
 71
     1
 72
     1
  1
LA4855-UV
  7
SLDTEXTSTYLE0
 73
     1
 44
1.0
  0
MTEXT
  5
F8
330
DA
100
AcDbEntity
  8
0
  6
Continuous
 62
     0
370
     0
100
AcDbMText
 10
2.3169753357
 20
-0.7363428404
 30
0.0
 40
0.0833333333
 41
0.0
 71
     1
 72
     1
  1
UV FUSED SILICA
  7
SLDTEXTSTYLE0
 73
     1
 44
1.0
  0
INSERT
  5
FE
330
DA
100
AcDbEntity
  8
0
  6
Continuous
 62
     0
370
     0
100
AcDbBlockReference
  2
SW_SYMBOL_C#_3
 10
0.4374537001
 20
-1.1433202723
 30
0.0
 41
0.0027037109
 42
0.0027037109
 43
0.0027037109
  0
MTEXT
  5
FF
330
DA
100
AcDbEntity
  8
0
  6
Continuous
 62
     0
370
     0
100
AcDbMText
 10
1.3456018548
 20
-0.9918983953
 30
0.0
 40
0.0833333333
 41
0.0
 71
     1
 72
     1
  1
ENGRAVED
  7
SLDTEXTSTYLE0
 73
     1
 44
1.0
  0
MTEXT
  5
100
330
DA
100
AcDbEntity
  8
0
  6
Continuous
 62
     0
370
     0
100
AcDbMText
 10
1.3975308615
 20
-1.1030095051
 30
0.0
 40
0.0833333333
 41
0.0
 71
     1
 72
     1
  1
HOUSING
  7
SLDTEXTSTYLE0
 73
     1
 44
1.0
  0
MTEXT
  5
101
330
DA
100
AcDbEntity
  8
0
  6
Continuous
 62
     0
370
     0
100
AcDbMText
 10
2.4676697448
 20
-0.9918983953
 30
0.0
 40
0.0833333333
 41
0.0
 71
     1
 72
     1
  1
ANODIZED
  7
SLDTEXTSTYLE0
 73
     1
 44
1.0
  0
MTEXT
  5
102
330
DA
100
AcDbEntity
  8
0
  6
Continuous
 62
     0
370
     0
100
AcDbMText
 10
2.4546296155
 20
-1.1030095051
 30
0.0
 40
0.0833333333
 41
0.0
 71
     1
 72
     1
  1
ALUMINUM
  7
SLDTEXTSTYLE0
 73
     1
 44
1.0
  0
ENDBLK
  5
DC
330
DA
100
AcDbEntity
  8
0
100
AcDbBlockEnd
  0
BLOCK
  5
E9
330
E8
100
AcDbEntity
  8
0
100
AcDbBlockBegin
  2
SW_SYMBOL_C#_1
 70
     0
 10
0.0
 20
0.0
 30
0.0
  3
SW_SYMBOL_C#_1
  1
SW_SYMBOL_C#_1
  0
CIRCLE
  5
EB
330
E8
100
AcDbEntity
  8
0
  6
Continuous
 62
     0
370
     0
100
AcDbCircle
 10
31.4960629921
 20
19.6850393701
 30
0.0
 40
31.49606299212599
  0
MTEXT
  5
EC
330
E8
100
AcDbEntity
  8
0
  6
Continuous
 62
     0
370
     0
100
AcDbMText
 10
31.4960629921
 20
19.6850393701
 30
0.0
 40
30.821835344
 41
0.0
 71
     5
 72
     1
  1
1
  7
SLDTEXTSTYLE0
 73
     1
 44
1.0
  0
ENDBLK
  5
EA
330
E8
100
AcDbEntity
  8
0
100
AcDbBlockEnd
  0
BLOCK
  5
F2
330
F1
100
AcDbEntity
  8
0
100
AcDbBlockBegin
  2
SW_SYMBOL_C#_2
 70
     0
 10
0.0
 20
0.0
 30
0.0
  3
SW_SYMBOL_C#_2
  1
SW_SYMBOL_C#_2
  0
CIRCLE
  5
F4
330
F1
100
AcDbEntity
  8
0
  6
Continuous
 62
     0
370
     0
100
AcDbCircle
 10
31.4960629921
 20
19.6850393701
 30
0.0
 40
31.49606299212599
  0
MTEXT
  5
F5
330
F1
100
AcDbEntity
  8
0
  6
Continuous
 62
     0
370
     0
100
AcDbMText
 10
31.4960629921
 20
19.6850393701
 30
0.0
 40
30.821835344
 41
0.0
 71
     5
 72
     1
  1
2
  7
SLDTEXTSTYLE0
 73
     1
 44
1.0
  0
ENDBLK
  5
F3
330
F1
100
AcDbEntity
  8
0
100
AcDbBlockEnd
  0
BLOCK
  5
FA
330
F9
100
AcDbEntity
  8
0
100
AcDbBlockBegin
  2
SW_SYMBOL_C#_3
 70
     0
 10
0.0
 20
0.0
 30
0.0
  3
SW_SYMBOL_C#_3
  1
SW_SYMBOL_C#_3
  0
CIRCLE
  5
FC
330
F9
100
AcDbEntity
  8
0
  6
Continuous
 62
     0
370
     0
100
AcDbCircle
 10
31.4960629921
 20
19.6850393701
 30
0.0
 40
31.49606299212599
  0
MTEXT
  5
FD
330
F9
100
AcDbEntity
  8
0
  6
Continuous
 62
     0
370
     0
100
AcDbMText
 10
31.4960629921
 20
19.6850393701
 30
0.0
 40
30.821835344
 41
0.0
 71
     5
 72
     1
  1
3
  7
SLDTEXTSTYLE0
 73
     1
 44
1.0
  0
ENDBLK
  5
FB
330
F9
100
AcDbEntity
  8
0
100
AcDbBlockEnd
  0
BLOCK
  5
11F
330
11E
100
AcDbEntity
  8
0
100
AcDbBlockBegin
  2
_D
 70
     0
 10
0.0
 20
0.0
 30
0.0
  3
_D
  1
_D
  0
SOLID
  5
121
330
11E
100
AcDbEntity
  8
0
  6
Continuous
 62
     7
370
     0
100
AcDbTrace
 10
3.2909586738
 20
5.2715652336
 30
0.0
 11
3.3707791819
 21
5.3698184091
 31
0.0
 12
3.3361381657
 22
5.3898184091
 32
0.0
 13
3.3361381657
 23
5.3898184091
 33
0.0
  0
LINE
  5
122
330
11E
100
AcDbEntity
  8
0
  6
Continuous
 62
     7
370
     0
100
AcDbLine
 10
3.7222484941
 20
5.6395759065
 30
0.0
 11
3.7053503461
 21
5.6395759065
 31
0.0
  0
LINE
  5
123
330
11E
100
AcDbEntity
  8
0
  6
Continuous
 62
     7
370
     0
100
AcDbLine
 10
3.7053503461
 20
5.6395759065
 30
0.0
 11
3.7053503461
 21
5.5071685019
 31
0.0
  0
LINE
  5
124
330
11E
100
AcDbEntity
  8
0
  6
Continuous
 62
     7
370
     0
100
AcDbLine
 10
3.7053503461
 20
5.5071685019
 30
0.0
 11
3.7222484941
 21
5.5071685019
 31
0.0
  0
LINE
  5
125
330
11E
100
AcDbEntity
  8
0
  6
Continuous
 62
     7
370
     0
100
AcDbLine
 10
4.1882593138
 20
5.6395759065
 30
0.0
 11
4.2051574618
 21
5.6395759065
 31
0.0
  0
LINE
  5
126
330
11E
100
AcDbEntity
  8
0
  6
Continuous
 62
     7
370
     0
100
AcDbLine
 10
4.2051574618
 20
5.6395759065
 30
0.0
 11
4.2051574618
 21
5.5071685019
 31
0.0
  0
LINE
  5
127
330
11E
100
AcDbEntity
  8
0
  6
Continuous
 62
     7
370
     0
100
AcDbLine
 10
4.2051574618
 20
5.5071685019
 30
0.0
 11
4.1882593138
 21
5.5071685019
 31
0.0
  0
LINE
  5
128
330
11E
100
AcDbEntity
  8
0
  6
Continuous
 62
     7
370
     0
100
AcDbLine
 10
3.2909586738
 20
5.2715652336
 30
0.0
 11
3.5426767348
 21
5.7075537044
 31
0.0
  0
LINE
  5
129
330
11E
100
AcDbEntity
  8
0
  6
Continuous
 62
     7
370
     0
100
AcDbLine
 10
3.5426767348
 20
5.7075537044
 30
0.0
 11
3.6926767348
 21
5.7075537044
 31
0.0
  0
MTEXT
  5
12A
330
11E
100
AcDbEntity
  8
0
  6
Continuous
 62
     7
370
     0
100
AcDbMText
 10
3.6926767348
 20
5.763896365
 30
0.0
 40
0.0833333333
 41
0.0
 71
     1
 72
     1
  1
%%c
  7
SLDTEXTSTYLE0
 73
     1
 44
1.0
  0
MTEXT
  5
12B
330
11E
100
AcDbEntity
  8
0
  6
Continuous
 62
     7
370
     0
100
AcDbMText
 10
3.8184637742
 20
5.763896365
 30
0.0
 40
0.0833333333
 41
0.0
 71
     1
 72
     1
  1
2.20in
  7
SLDTEXTSTYLE0
 73
     1
 44
1.0
  0
MTEXT
  5
12C
330
11E
100
AcDbEntity
  8
0
  6
Continuous
 62
     7
370
     0
100
AcDbMText
 10
3.74337118
 20
5.6145908089
 30
0.0
 40
0.0833333333
 41
0.0
 71
     1
 72
     1
  1
55.9mm
  7
SLDTEXTSTYLE0
 73
     1
 44
1.0
  0
ENDBLK
  5
120
330
11E
100
AcDbEntity
  8
0
100
AcDbBlockEnd
  0
BLOCK
  5
1B3
330
1B2
100
AcDbEntity
  8
0
100
AcDbBlockBegin
  2
_D_1
 70
     0
 10
0.0
 20
0.0
 30
0.0
  3
_D_1
  1
_D_1
  0
SOLID
  5
1B5
330
1B2
100
AcDbEntity
  8
0
  6
Continuous
 62
     7
370
     0
100
AcDbTrace
 10
8.4255740685
 20
5.2689372894
 30
0.0
 11
8.4055740685
 21
5.1439372894
 31
0.0
 12
8.4455740685
 22
5.1439372894
 32
0.0
 13
8.4455740685
 23
5.1439372894
 33
0.0
  0
SOLID
  5
1B6
330
1B2
100
AcDbEntity
  8
0
  6
Continuous
 62
     7
370
     0
100
AcDbTrace
 10
8.4255740685
 20
3.3689372894
 30
0.0
 11
8.4455740685
 21
3.4939372894
 31
0.0
 12
8.4055740685
 22
3.4939372894
 32
0.0
 13
8.4055740685
 23
3.4939372894
 33
0.0
  0
LINE
  5
1B7
330
1B2
100
AcDbEntity
  8
0
  6
Continuous
 62
     7
370
     0
100
AcDbLine
 10
8.1925686678
 20
4.3295854322
 30
0.0
 11
8.1756705198
 21
4.3295854322
 31
0.0
  0
LINE
  5
1B8
330
1B2
100
AcDbEntity
  8
0
  6
Continuous
 62
     7
370
     0
100
AcDbLine
 10
8.1756705198
 20
4.3295854322
 30
0.0
 11
8.1756705198
 21
4.1971780277
 31
0.0
  0
LINE
  5
1B9
330
1B2
100
AcDbEntity
  8
0
  6
Continuous
 62
     7
370
     0
100
AcDbLine
 10
8.1756705198
 20
4.1971780277
 30
0.0
 11
8.1925686678
 21
4.1971780277
 31
0.0
  0
LINE
  5
1BA
330
1B2
100
AcDbEntity
  8
0
  6
Continuous
 62
     7
370
     0
100
AcDbLine
 10
8.6585794875
 20
4.3295854322
 30
0.0
 11
8.6754776356
 21
4.3295854322
 31
0.0
  0
LINE
  5
1BB
330
1B2
100
AcDbEntity
  8
0
  6
Continuous
 62
     7
370
     0
100
AcDbLine
 10
8.6754776356
 20
4.3295854322
 30
0.0
 11
8.6754776356
 21
4.1971780277
 31
0.0
  0
LINE
  5
1BC
330
1B2
100
AcDbEntity
  8
0
  6
Continuous
 62
     7
370
     0
100
AcDbLine
 10
8.6754776356
 20
4.1971780277
 30
0.0
 11
8.6585794875
 21
4.1971780277
 31
0.0
  0
LINE
  5
1BD
330
1B2
100
AcDbEntity
  8
0
  6
Continuous
 62
     7
370
     0
100
AcDbLine
 10
7.6094323362
 20
5.2689372894
 30
0.0
 11
8.4955740685
 21
5.2689372894
 31
0.0
  0
LINE
  5
1BE
330
1B2
100
AcDbEntity
  8
0
  6
Continuous
 62
     7
370
     0
100
AcDbLine
 10
7.6094323362
 20
3.3689372894
 30
0.0
 11
8.4955740685
 21
3.3689372894
 31
0.0
  0
LINE
  5
1BF
330
1B2
100
AcDbEntity
  8
0
  6
Continuous
 62
     7
370
     0
100
AcDbLine
 10
8.4255740685
 20
5.2689372894
 30
0.0
 11
8.4255740685
 21
4.4575946935
 31
0.0
  0
LINE
  5
1C0
330
1B2
100
AcDbEntity
  8
0
  6
Continuous
 62
     7
370
     0
100
AcDbLine
 10
8.4255740685
 20
3.3689372894
 30
0.0
 11
8.4255740685
 21
4.1802798854
 31
0.0
  0
MTEXT
  5
1C1
330
1B2
100
AcDbEntity
  8
0
  6
Continuous
 62
     7
370
     0
100
AcDbMText
 10
8.2099799324
 20
4.4539058908
 30
0.0
 40
0.0833333333
 41
0.0
 71
     1
 72
     1
  1
%%c
  7
SLDTEXTSTYLE0
 73
     1
 44
1.0
  0
MTEXT
  5
1C2
330
1B2
100
AcDbEntity
  8
0
  6
Continuous
 62
     7
370
     0
100
AcDbMText
 10
8.3357669718
 20
4.4539058908
 30
0.0
 40
0.0833333333
 41
0.0
 71
     1
 72
     1
  1
1.90in
  7
SLDTEXTSTYLE0
 73
     1
 44
1.0
  0
MTEXT
  5
1C3
330
1B2
100
AcDbEntity
  8
0
  6
Continuous
 62
     7
370
     0
100
AcDbMText
 10
8.2136913537
 20
4.3046003347
 30
0.0
 40
0.0833333333
 41
0.0
 71
     1
 72
     1
  1
48.3mm
  7
SLDTEXTSTYLE0
 73
     1
 44
1.0
  0
ENDBLK
  5
1B4
330
1B2
100
AcDbEntity
  8
0
100
AcDbBlockEnd
  0
BLOCK
  5
1C7
330
1C6
100
AcDbEntity
  8
0
100
AcDbBlockBegin
  2
_D_2
 70
     0
 10
0.0
 20
0.0
 30
0.0
  3
_D_2
  1
_D_2
  0
SOLID
  5
1C9
330
1C6
100
AcDbEntity
  8
0
  6
Continuous
 62
     7
370
     0
100
AcDbTrace
 10
7.4394323362
 20
5.6764230374
 30
0.0
 11
7.3144323362
 21
5.6964230374
 31
0.0
 12
7.3144323362
 22
5.6564230374
 32
0.0
 13
7.3144323362
 23
5.6564230374
 33
0.0
  0
SOLID
  5
1CA
330
1C6
100
AcDbEntity
  8
0
  6
Continuous
 62
     7
370
     0
100
AcDbTrace
 10
7.5594323362
 20
5.6764230374
 30
0.0
 11
7.6844323362
 21
5.6564230374
 31
0.0
 12
7.6844323362
 22
5.6964230374
 32
0.0
 13
7.6844323362
 23
5.6964230374
 33
0.0
  0
LINE
  5
1CB
330
1C6
100
AcDbEntity
  8
0
  6
Continuous
 62
     7
370
     0
100
AcDbLine
 10
8.2233557172
 20
5.6764230282
 30
0.0
 11
8.2064575691
 21
5.6764230282
 31
0.0
  0
LINE
  5
1CC
330
1C6
100
AcDbEntity
  8
0
  6
Continuous
 62
     7
370
     0
100
AcDbLine
 10
8.2064575691
 20
5.6764230282
 30
0.0
 11
8.2064575691
 21
5.5440156236
 31
0.0
  0
LINE
  5
1CD
330
1C6
100
AcDbEntity
  8
0
  6
Continuous
 62
     7
370
     0
100
AcDbLine
 10
8.2064575691
 20
5.5440156236
 30
0.0
 11
8.2233557172
 21
5.5440156236
 31
0.0
  0
LINE
  5
1CE
330
1C6
100
AcDbEntity
  8
0
  6
Continuous
 62
     7
370
     0
100
AcDbLine
 10
8.6277924382
 20
5.6764230282
 30
0.0
 11
8.6446905862
 21
5.6764230282
 31
0.0
  0
LINE
  5
1CF
330
1C6
100
AcDbEntity
  8
0
  6
Continuous
 62
     7
370
     0
100
AcDbLine
 10
8.6446905862
 20
5.6764230282
 30
0.0
 11
8.6446905862
 21
5.5440156236
 31
0.0
  0
LINE
  5
1D0
330
1C6
100
AcDbEntity
  8
0
  6
Continuous
 62
     7
370
     0
100
AcDbLine
 10
8.6446905862
 20
5.5440156236
 30
0.0
 11
8.6277924382
 21
5.5440156236
 31
0.0
  0
LINE
  5
1D1
330
1C6
100
AcDbEntity
  8
0
  6
Continuous
 62
     7
370
     0
100
AcDbLine
 10
7.4394323362
 20
5.4589372894
 30
0.0
 11
7.4394323362
 21
5.7464230374
 31
0.0
  0
LINE
  5
1D2
330
1C6
100
AcDbEntity
  8
0
  6
Continuous
 62
     7
370
     0
100
AcDbLine
 10
7.5594323362
 20
5.3691167813
 30
0.0
 11
7.5594323362
 21
5.7464230374
 31
0.0
  0
LINE
  5
1D3
330
1C6
100
AcDbEntity
  8
0
  6
Continuous
 62
     7
370
     0
100
AcDbLine
 10
7.4394323362
 20
5.6764230374
 30
0.0
 11
7.1894323362
 21
5.6764230374
 31
0.0
  0
LINE
  5
1D4
330
1C6
100
AcDbEntity
  8
0
  6
Continuous
 62
     7
370
     0
100
AcDbLine
 10
7.5594323362
 20
5.6764230374
 30
0.0
 11
8.1154588404
 21
5.6764230374
 31
0.0
  0
MTEXT
  5
1D5
330
1C6
100
AcDbEntity
  8
0
  6
Continuous
 62
     7
370
     0
100
AcDbMText
 10
8.1948642057
 20
5.8007434867
 30
0.0
 40
0.0833333333
 41
0.0
 71
     1
 72
     1
  1

  7
SLDTEXTSTYLE0
 73
     1
 44
1.0
  0
MTEXT
  5
1D6
330
1C6
100
AcDbEntity
  8
0
  6
Continuous
 62
     7
370
     0
100
AcDbMText
 10
8.2728734475
 20
5.8007434867
 30
0.0
 40
0.0833333333
 41
0.0
 71
     1
 72
     1
  1
0.12in
  7
SLDTEXTSTYLE0
 73
     1
 44
1.0
  0
MTEXT
  5
1D7
330
1C6
100
AcDbEntity
  8
0
  6
Continuous
 62
     7
370
     0
100
AcDbMText
 10
8.244478403
 20
5.6514379307
 30
0.0
 40
0.0833333333
 41
0.0
 71
     1
 72
     1
  1
3.0mm
  7
SLDTEXTSTYLE0
 73
     1
 44
1.0
  0
MTEXT
  5
1D8
330
1C6
100
AcDbEntity
  8
0
  6
Continuous
 62
     7
370
     0
100
AcDbMText
 10
8.7198641609
 20
5.8007434867
 30
0.0
 40
0.0833333333
 41
0.0
 71
     1
 72
     1
  1

  7
SLDTEXTSTYLE0
 73
     1
 44
1.0
  0
ENDBLK
  5
1C8
330
1C6
100
AcDbEntity
  8
0
100
AcDbBlockEnd
  0
BLOCK
  5
1DB
330
1DA
100
AcDbEntity
  8
0
100
AcDbBlockBegin
  2
_D_3
 70
     0
 10
0.0
 20
0.0
 30
0.0
  3
_D_3
  1
_D_3
  0
SOLID
  5
1DD
330
1DA
100
AcDbEntity
  8
0
  6
Continuous
 62
     7
370
     0
100
AcDbTrace
 10
7.0494323362
 20
5.9977012361
 30
0.0
 11
6.9244323362
 21
6.0177012361
 31
0.0
 12
6.9244323362
 22
5.9777012361
 32
0.0
 13
6.9244323362
 23
5.9777012361
 33
0.0
  0
SOLID
  5
1DE
330
1DA
100
AcDbEntity
  8
0
  6
Continuous
 62
     7
370
     0
100
AcDbTrace
 10
7.5594323362
 20
5.9977012361
 30
0.0
 11
7.6844323362
 21
5.9777012361
 31
0.0
 12
7.6844323362
 22
6.0177012361
 32
0.0
 13
7.6844323362
 23
6.0177012361
 33
0.0
  0
LINE
  5
1DF
330
1DA
100
AcDbEntity
  8
0
  6
Continuous
 62
     7
370
     0
100
AcDbLine
 10
7.0714269172
 20
5.9977012269
 30
0.0
 11
7.0545287692
 21
5.9977012269
 31
0.0
  0
LINE
  5
1E0
330
1DA
100
AcDbEntity
  8
0
  6
Continuous
 62
     7
370
     0
100
AcDbLine
 10
7.0545287692
 20
5.9977012269
 30
0.0
 11
7.0545287692
 21
5.8652938223
 31
0.0
  0
LINE
  5
1E1
330
1DA
100
AcDbEntity
  8
0
  6
Continuous
 62
     7
370
     0
100
AcDbLine
 10
7.0545287692
 20
5.8652938223
 30
0.0
 11
7.0714269172
 21
5.8652938223
 31
0.0
  0
LINE
  5
1E2
330
1DA
100
AcDbEntity
  8
0
  6
Continuous
 62
     7
370
     0
100
AcDbLine
 10
7.5374377369
 20
5.9977012269
 30
0.0
 11
7.5543358849
 21
5.9977012269
 31
0.0
  0
LINE
  5
1E3
330
1DA
100
AcDbEntity
  8
0
  6
Continuous
 62
     7
370
     0
100
AcDbLine
 10
7.5543358849
 20
5.9977012269
 30
0.0
 11
7.5543358849
 21
5.8652938223
 31
0.0
  0
LINE
  5
1E4
330
1DA
100
AcDbEntity
  8
0
  6
Continuous
 62
     7
370
     0
100
AcDbLine
 10
7.5543358849
 20
5.8652938223
 30
0.0
 11
7.5374377369
 21
5.8652938223
 31
0.0
  0
LINE
  5
1E5
330
1DA
100
AcDbEntity
  8
0
  6
Continuous
 62
     7
370
     0
100
AcDbLine
 10
7.0494323362
 20
5.4589372894
 30
0.0
 11
7.0494323362
 21
6.0677012361
 31
0.0
  0
LINE
  5
1E6
330
1DA
100
AcDbEntity
  8
0
  6
Continuous
 62
     7
370
     0
100
AcDbLine
 10
7.5594323362
 20
5.3691167813
 30
0.0
 11
7.5594323362
 21
6.0677012361
 31
0.0
  0
LINE
  5
1E7
330
1DA
100
AcDbEntity
  8
0
  6
Continuous
 62
     7
370
     0
100
AcDbLine
 10
7.0494323362
 20
5.9977012361
 30
0.0
 11
6.7994323362
 21
5.9977012361
 31
0.0
  0
LINE
  5
1E8
330
1DA
100
AcDbEntity
  8
0
  6
Continuous
 62
     7
370
     0
100
AcDbLine
 10
7.5594323362
 20
5.9977012361
 30
0.0
 11
7.8094323362
 21
5.9977012361
 31
0.0
  0
MTEXT
  5
1E9
330
1DA
100
AcDbEntity
  8
0
  6
Continuous
 62
     7
370
     0
100
AcDbMText
 10
7.0429354057
 20
6.1220216854
 30
0.0
 40
0.0833333333
 41
0.0
 71
     1
 72
     1
  1

  7
SLDTEXTSTYLE0
 73
     1
 44
1.0
  0
MTEXT
  5
1EA
330
1DA
100
AcDbEntity
  8
0
  6
Continuous
 62
     7
370
     0
100
AcDbMText
 10
7.1517316969
 20
6.1220216854
 30
0.0
 40
0.0833333333
 41
0.0
 71
     1
 72
     1
  1
0.51in
  7
SLDTEXTSTYLE0
 73
     1
 44
1.0
  0
MTEXT
  5
1EB
330
1DA
100
AcDbEntity
  8
0
  6
Continuous
 62
     7
370
     0
100
AcDbMText
 10
7.0925496031
 20
5.9727161294
 30
0.0
 40
0.0833333333
 41
0.0
 71
     1
 72
     1
  1
13.0mm
  7
SLDTEXTSTYLE0
 73
     1
 44
1.0
  0
MTEXT
  5
1EC
330
1DA
100
AcDbEntity
  8
0
  6
Continuous
 62
     7
370
     0
100
AcDbMText
 10
7.6295094962
 20
6.1220216854
 30
0.0
 40
0.0833333333
 41
0.0
 71
     1
 72
     1
  1

  7
SLDTEXTSTYLE0
 73
     1
 44
1.0
  0
ENDBLK
  5
1DC
330
1DA
100
AcDbEntity
  8
0
100
AcDbBlockEnd
  0
BLOCK
  5
1EE
330
1ED
100
AcDbEntity
  8
0
100
AcDbBlockBegin
  2
SW_NOTE_5
 70
     0
 10
0.0
 20
0.0
 30
0.0
  3
SW_NOTE_5
  1
SW_NOTE_5
  0
MTEXT
  5
1F1
330
1ED
100
AcDbEntity
  8
0
  6
Continuous
 62
     0
370
     0
100
AcDbMText
 10
-2.2699996146
 20
0.0383736677
 30
0.0
 40
0.0833333333
 41
0.0
 71
     1
 72
     1
  1
SM2 (
  7
SLDTEXTSTYLE3
 73
     1
 44
1.0
  0
MTEXT
  5
1F2
330
1ED
100
AcDbEntity
  8
0
  6
Continuous
 62
     0
370
     0
100
AcDbMText
 10
-1.9483946798
 20
0.0383736677
 30
0.0
 40
0.0833333333
 41
0.0
 71
     1
 72
     1
  1
%%c
  7
SLDTEXTSTYLE0
 73
     1
 44
1.0
  0
MTEXT
  5
1F3
330
1ED
100
AcDbEntity
  8
0
  6
Continuous
 62
     0
370
     0
100
AcDbMText
 10
-1.8226076496
 20
0.0383736677
 30
0.0
 40
0.0833333333
 41
0.0
 71
     1
 72
     1
  1
2.035-40) SERIES INTERNAL THREAD
  7
SLDTEXTSTYLE0
 73
     1
 44
1.0
  0
ENDBLK
  5
1EF
330
1ED
100
AcDbEntity
  8
0
100
AcDbBlockEnd
  0
BLOCK
  5
1F8
330
1F7
100
AcDbEntity
  8
0
100
AcDbBlockBegin
  2
SW_NOTE_6
 70
     0
 10
0.0
 20
0.0
 30
0.0
  3
SW_NOTE_6
  1
SW_NOTE_6
  0
MTEXT
  5
1FA
330
1F7
100
AcDbEntity
  8
0
  6
Continuous
 62
     0
370
     0
100
AcDbMText
 10
0.0197528646
 20
0.0373248325
 30
0.0
 40
0.0833333333
 41
0.0
 71
     1
 72
     1
  1
SM2 (
  7
SLDTEXTSTYLE3
 73
     1
 44
1.0
  0
MTEXT
  5
1FB
330
1F7
100
AcDbEntity
  8
0
  6
Continuous
 62
     0
370
     0
100
AcDbMText
 10
0.3413577994
 20
0.0373248325
 30
0.0
 40
0.0833333333
 41
0.0
 71
     1
 72
     1
  1
%%c
  7
SLDTEXTSTYLE0
 73
     1
 44
1.0
  0
MTEXT
  5
1FC
330
1F7
100
AcDbEntity
  8
0
  6
Continuous
 62
     0
370
     0
100
AcDbMText
 10
0.4671448296
 20
0.0373248325
 30
0.0
 40
0.0833333333
 41
0.0
 71
     1
 72
     1
  1
2.035-40) SERIES EXTERNAL THREAD
  7
SLDTEXTSTYLE0
 73
     1
 44
1.0
  0
ENDBLK
  5
1F9
330
1F7
100
AcDbEntity
  8
0
100
AcDbBlockEnd
  0
BLOCK
  5
200
330
1FF
100
AcDbEntity
  8
0
100
AcDbBlockBegin
  2
SW_NOTE_7
 70
     0
 10
0.0
 20
0.0
 30
0.0
  3
SW_NOTE_7
  1
SW_NOTE_7
  0
CIRCLE
  5
202
330
1FF
100
AcDbEntity
  8
0
  6
Continuous
 62
     0
370
     0
100
AcDbCircle
 10
-0.1778468128
 20
0.0
 30
0.0
 40
0.1778468128131543
  0
MTEXT
  5
203
330
1FF
100
AcDbEntity
  8
0
  6
Continuous
 62
     0
370
     0
100
AcDbMText
 10
-0.1791054935
 20
0.0644701083
 30
0.0
 40
0.125
 41
0.0
 71
     2
 72
     1
  1
1
  7
SLDTEXTSTYLE0
 73
     1
 44
1.0
  0
ENDBLK
  5
201
330
1FF
100
AcDbEntity
  8
0
100
AcDbBlockEnd
  0
BLOCK
  5
207
330
206
100
AcDbEntity
  8
0
100
AcDbBlockBegin
  2
SW_NOTE_8
 70
     0
 10
0.0
 20
0.0
 30
0.0
  3
SW_NOTE_8
  1
SW_NOTE_8
  0
CIRCLE
  5
209
330
206
100
AcDbEntity
  8
0
  6
Continuous
 62
     0
370
     0
100
AcDbCircle
 10
-0.1778468128
 20
0.0
 30
0.0
 40
0.1778468128131545
  0
MTEXT
  5
20A
330
206
100
AcDbEntity
  8
0
  6
Continuous
 62
     0
370
     0
100
AcDbMText
 10
-0.1791054935
 20
0.0644701083
 30
0.0
 40
0.125
 41
0.0
 71
     2
 72
     1
  1
3
  7
SLDTEXTSTYLE0
 73
     1
 44
1.0
  0
ENDBLK
  5
208
330
206
100
AcDbEntity
  8
0
100
AcDbBlockEnd
  0
BLOCK
  5
20E
330
20D
100
AcDbEntity
  8
0
100
AcDbBlockBegin
  2
SW_NOTE_9
 70
     0
 10
0.0
 20
0.0
 30
0.0
  3
SW_NOTE_9
  1
SW_NOTE_9
  0
CIRCLE
  5
210
330
20D
100
AcDbEntity
  8
0
  6
Continuous
 62
     0
370
     0
100
AcDbCircle
 10
0.1778468128
 20
0.0
 30
0.0
 40
0.1778468128131555
  0
MTEXT
  5
211
330
20D
100
AcDbEntity
  8
0
  6
Continuous
 62
     0
370
     0
100
AcDbMText
 10
0.1765881321
 20
0.0644701083
 30
0.0
 40
0.125
 41
0.0
 71
     2
 72
     1
  1
2
  7
SLDTEXTSTYLE0
 73
     1
 44
1.0
  0
ENDBLK
  5
20F
330
20D
100
AcDbEntity
  8
0
100
AcDbBlockEnd
  0
ENDSEC
  0
SECTION
  2
ENTITIES
  0
LINE
  5
7D
330
1F
100
AcDbEntity
  8
0
  6
Continuous
 62
     7
370
     0
100
AcDbLine
 10
0.0621791378
 20
8.4506055117
 30
0.0
 11
10.9444569626
 21
8.4506055117
 31
0.0
  0
LINE
  5
7E
330
1F
100
AcDbEntity
  8
0
  6
Continuous
 62
     7
370
     0
100
AcDbLine
 10
0.0621791378
 20
8.4506055117
 30
0.0
 11
0.0621791378
 21
0.035557648
 31
0.0
  0
LINE
  5
7F
330
1F
100
AcDbEntity
  8
0
  6
Continuous
 62
     7
370
     0
100
AcDbLine
 10
10.9444569626
 20
0.035557648
 30
0.0
 11
0.0621791378
 21
0.035557648
 31
0.0
  0
LINE
  5
80
330
1F
100
AcDbEntity
  8
0
  6
Continuous
 62
     7
370
     0
100
AcDbLine
 10
10.9444569626
 20
0.035557648
 30
0.0
 11
10.9444569626
 21
8.4506055117
 31
0.0
  0
LINE
  5
81
330
1F
100
AcDbEntity
  8
0
  6
Continuous
 62
     7
370
     0
100
AcDbLine
 10
8.4938096065
 20
0.4840901186
 30
0.0
 11
6.7571952625
 21
0.4840901186
 31
0.0
  0
LINE
  5
82
330
1F
100
AcDbEntity
  8
0
  6
Continuous
 62
     7
370
     0
100
AcDbLine
 10
6.7571952625
 20
0.4840901186
 30
0.0
 11
6.7571952625
 21
1.030163002
 31
0.0
  0
LINE
  5
83
330
1F
100
AcDbEntity
  8
0
  6
Continuous
 62
     7
370
     0
100
AcDbLine
 10
6.7571952625
 20
0.035557648
 30
0.0
 11
6.7571952625
 21
1.030163002
 31
0.0
  0
LINE
  5
84
330
1F
100
AcDbEntity
  8
0
  6
Continuous
 62
     7
370
     0
100
AcDbLine
 10
8.4938096065
 20
0.6756085809
 30
0.0
 11
10.9444569626
 21
0.6756085809
 31
0.0
  0
LINE
  5
85
330
1F
100
AcDbEntity
  8
0
  6
Continuous
 62
     7
370
     0
100
AcDbLine
 10
8.4938096065
 20
1.3873799542
 30
0.0
 11
8.4938096065
 21
0.035557648
 31
0.0
  0
LINE
  5
86
330
1F
100
AcDbEntity
  8
0
  6
Continuous
 62
     7
370
     0
100
AcDbLine
 10
8.4938096065
 20
1.030163002
 30
0.0
 11
6.7571952625
 21
1.030163002
 31
0.0
  0
LINE
  5
87
330
1F
100
AcDbEntity
  8
0
  6
Continuous
 62
     7
370
     0
100
AcDbLine
 10
8.4938096065
 20
0.3598787426
 30
0.0
 11
10.9444569626
 21
0.3598787426
 31
0.0
  0
LINE
  5
88
330
1F
100
AcDbEntity
  8
0
  6
Continuous
 62
     7
370
     0
100
AcDbLine
 10
8.4938096065
 20
0.6662079686
 30
0.0
 11
6.7571952625
 21
0.6662079686
 31
0.0
  0
LINE
  5
89
330
1F
100
AcDbEntity
  8
0
  6
Continuous
 62
     7
370
     0
100
AcDbLine
 10
8.4938096065
 20
0.8459606517
 30
0.0
 11
6.7571952625
 21
0.8459606517
 31
0.0
  0
LINE
  5
8A
330
1F
100
AcDbEntity
  8
0
  6
Continuous
 62
     7
370
     0
100
AcDbLine
 10
7.3281027587
 20
1.030163002
 30
0.0
 11
7.3281027587
 21
0.4840901186
 31
0.0
  0
LINE
  5
8B
330
1F
100
AcDbEntity
  8
0
  6
Continuous
 62
     7
370
     0
100
AcDbLine
 10
7.8037240401
 20
1.030163002
 30
0.0
 11
7.8037240401
 21
0.4840901186
 31
0.0
  0
LINE
  5
8C
330
1F
100
AcDbEntity
  8
0
  6
Continuous
 62
     7
370
     0
100
AcDbLine
 10
9.990119718
 20
0.3598787426
 30
0.0
 11
9.990119718
 21
0.035557648
 31
0.0
  0
LINE
  5
8D
330
1F
100
AcDbEntity
  8
0
  6
Continuous
 62
     7
370
     0
100
AcDbLine
 10
6.7571952625
 20
0.4840901186
 30
0.0
 11
6.7571952625
 21
0.297745443
 31
0.0
  0
LINE
  5
8E
330
1F
100
AcDbEntity
  8
0
  6
Continuous
 62
     7
370
     0
100
AcDbLine
 10
6.7571952625
 20
0.297745443
 30
0.0
 11
8.4938096065
 21
0.297745443
 31
0.0
  0
LINE
  5
8F
330
1F
100
AcDbEntity
  8
0
  6
Continuous
 62
     7
370
     0
100
AcDbLine
 10
6.7571952625
 20
0.297745443
 30
0.0
 11
6.7571952625
 21
1.3873799542
 31
0.0
  0
LINE
  5
90
330
1F
100
AcDbEntity
  8
0
  6
Continuous
 62
     7
370
     0
100
AcDbLine
 10
6.7571952625
 20
1.3873799542
 30
0.0
 11
8.4938096065
 21
1.3873799542
 31
0.0
  0
LINE
  5
91
330
1F
100
AcDbEntity
  8
0
  6
Continuous
 62
     7
370
     0
100
AcDbLine
 10
10.6365495992
 20
0.6756085809
 30
0.0
 11
10.6365495992
 21
0.3598787426
 31
0.0
  0
LINE
  5
92
330
1F
100
AcDbEntity
  8
0
  6
Continuous
 62
     7
370
     0
100
AcDbLine
 10
8.4938096065
 20
1.3873799542
 30
0.0
 11
10.9444569626
 21
1.3873799542
 31
0.0
  0
LINE
  5
93
330
1F
100
AcDbEntity
  8
0
  6
Continuous
 62
     7
370
     0
100
AcDbLine
 10
10.9444569626
 20
1.3873799542
 30
0.0
 11
10.9444569626
 21
1.9698084888
 31
0.0
  0
LINE
  5
94
330
1F
100
AcDbEntity
  8
0
  6
Continuous
 62
     7
370
     0
100
AcDbLine
 10
8.4938096065
 20
0.9800288797
 30
0.0
 11
10.9444569626
 21
0.9800288797
 31
0.0
  0
INSERT
  5
95
330
1F
100
AcDbEntity
  8
0
  6
Continuous
 62
     7
100
AcDbBlockReference
  2
Third Angle Projection Block
 10
4.6348905679
 20
0.6108753523
 30
0.0
 41
0.8
 42
0.8
 43
0.8
  0
MTEXT
  5
97
330
1F
100
AcDbEntity
  8
0
  6
Continuous
 62
     7
370
     0
100
AcDbMText
 10
10.7943805235
 20
0.5227176726
 30
0.0
 40
0.125
 41
0.0
 71
     2
 72
     1
  1
B
  7
SLDTEXTSTYLE0
 73
     1
 44
1.0
  0
MTEXT
  5
98
330
1F
100
AcDbEntity
  8
0
  6
Continuous
 62
     7
370
     0
100
AcDbMText
 10
9.2295894008
 20
0.2019943461
 30
0.0
 40
0.125
 41
0.0
 71
     2
 72
     1
  1
LA4855-UV-ML
  7
SLDTEXTSTYLE0
 73
     1
 44
1.0
  0
MTEXT
  5
99
330
1F
100
AcDbEntity
  8
0
  6
Continuous
 62
     7
370
     0
100
AcDbMText
 10
8.5204715199
 20
0.6623747189
 30
0.0
 40
0.0833333333
 41
0.0
 71
     1
 72
     1
  1
MATERIAL
  7
SLDTEXTSTYLE0
 73
     1
 44
1.0
  0
MTEXT
  5
9A
330
1F
100
AcDbEntity
  8
0
  6
Continuous
 62
     7
370
     0
100
AcDbMText
 10
6.8594860853
 20
0.7895493672
 30
0.0
 40
0.0729166667
 41
0.0
 71
     1
 72
     1
  1
DRAWN
  7
SLDTEXTSTYLE0
 73
     1
 44
1.0
  0
MTEXT
  5
9B
330
1F
100
AcDbEntity
  8
0
  6
Continuous
 62
     7
370
     0
100
AcDbMText
 10
6.7872445848
 20
0.613335314
 30
0.0
 40
0.0729166667
 41
0.0
 71
     1
 72
     1
  1
APPROVAL
  7
SLDTEXTSTYLE0
 73
     1
 44
1.0
  0
MTEXT
  5
9C
330
1F
100
AcDbEntity
  8
0
  6
Continuous
 62
     7
370
     0
100
AcDbMText
 10
10.6936137314
 20
0.6373332609
 30
0.0
 40
0.0833333333
 41
0.0
 71
     1
 72
     1
  1
REV
  7
SLDTEXTSTYLE0
 73
     1
 44
1.0
  0
MTEXT
  5
9D
330
1F
100
AcDbEntity
  8
0
  6
Continuous
 62
     7
370
     0
100
AcDbMText
 10
7.4919633718
 20
0.7999100272
 30
0.0
 40
0.0833333333
 41
0.0
 71
     1
 72
     1
  1
GG
  7
SLDTEXTSTYLE0
 73
     1
 44
1.0
  0
MTEXT
  5
9E
330
1F
100
AcDbEntity
  8
0
  6
Continuous
 62
     7
370
     0
100
AcDbMText
 10
7.4919633718
 20
0.623695974
 30
0.0
 40
0.0833333333
 41
0.0
 71
     1
 72
     1
  1
DD
  7
SLDTEXTSTYLE0
 73
     1
 44
1.0
  0
MTEXT
  5
9F
330
1F
100
AcDbEntity
  8
0
  6
Continuous
 62
     7
370
     0
100
AcDbMText
 10
7.8687497515
 20
0.7999100272
 30
0.0
 40
0.0833333333
 41
0.0
 71
     1
 72
     1
  1
08/FEB/16
  7
SLDTEXTSTYLE0
 73
     1
 44
1.0
  0
MTEXT
  5
A0
330
1F
100
AcDbEntity
  8
0
  6
Continuous
 62
     7
370
     0
100
AcDbMText
 10
8.0163191884
 20
0.9772495896
 30
0.0
 40
0.0833333333
 41
0.0
 71
     1
 72
     1
  1
DATE
  7
SLDTEXTSTYLE0
 73
     1
 44
1.0
  0
MTEXT
  5
A1
330
1F
100
AcDbEntity
  8
0
  6
Continuous
 62
     7
370
     0
100
AcDbMText
 10
7.8687497515
 20
0.623695974
 30
0.0
 40
0.0833333333
 41
0.0
 71
     1
 72
     1
  1
08/FEB/16
  7
SLDTEXTSTYLE0
 73
     1
 44
1.0
  0
MTEXT
  5
A3
330
1F
100
AcDbEntity
  8
0
  6
Continuous
 62
     7
370
     0
100
AcDbMText
 10
9.0316104912
 20
1.0943207896
 30
0.0
 40
0.0833333333
 41
0.0
 71
     1
 72
     1
  1
w w w . t h o r  l a b s . c o m
  7
SLDTEXTSTYLE1
 73
     1
 44
1.0
  0
MTEXT
  5
A4
330
1F
100
AcDbEntity
  8
0
  6
Continuous
 62
     7
370
     0
100
AcDbMText
 10
8.5315119501
 20
0.328719653
 30
0.0
 40
0.0833333333
 41
0.0
 71
     1
 72
     1
  1
ITEM #
  7
SLDTEXTSTYLE0
 73
     1
 44
1.0
  0
MTEXT
  5
A5
330
1F
100
AcDbEntity
  8
0
  6
Continuous
 62
     7
370
     0
100
AcDbMText
 10
10.0209370115
 20
0.328719653
 30
0.0
 40
0.0833333333
 41
0.0
 71
     1
 72
     1
  1
APPROX WEIGHT
  7
SLDTEXTSTYLE0
 73
     1
 44
1.0
  0
MTEXT
  5
A6
330
1F
100
AcDbEntity
  8
0
  6
Continuous
 62
     7
370
     0
100
AcDbMText
 10
9.5949135982
 20
0.5414715262
 30
0.0
 40
0.125
 41
0.0
 71
     2
 72
     1
  1
SEE TABLE
  7
SLDTEXTSTYLE0
 73
     1
 44
1.0
  0
MTEXT
  5
A8
330
1F
100
AcDbEntity
  8
0
  6
Continuous
 62
     7
370
     0
100
AcDbMText
 10
10.4826226539
 20
0.2019943461
 30
0.0
 40
0.125
 41
0.0
 71
     2
 72
     1
  1
32 g
  7
SLDTEXTSTYLE2
 73
     1
 44
1.0
  0
INSERT
  5
AE
330
1F
100
AcDbEntity
  8
0
  6
Continuous
 62
     7
370
     0
100
AcDbBlockReference
  2
SW_NOTE_0
 10
6.8835832285
 20
0.1754273811
 30
0.0
  0
INSERT
  5
B4
330
1F
100
AcDbEntity
  8
0
  6
Continuous
 62
     7
370
     0
100
AcDbBlockReference
  2
SW_NOTE_1
 10
6.8719828753
 20
1.2001390658
 30
0.0
  0
MTEXT
  5
B5
330
1F
100
AcDbEntity
  8
0
  6
Continuous
 62
     7
370
     0
100
AcDbMText
 10
7.3987149145
 20
0.9772495896
 30
0.0
 40
0.0833333333
 41
0.0
 71
     1
 72
     1
  1
NAME
  7
SLDTEXTSTYLE0
 73
     1
 44
1.0
  0
INSERT
  5
BC
330
1F
100
AcDbEntity
  8
0
  6
Continuous
 62
     7
370
     0
100
AcDbBlockReference
  2
SW_NOTE_2
 10
8.5755302951
 20
0.8160048101
 30
0.0
  0
MTEXT
  5
BD
330
1F
100
AcDbEntity
  8
0
  6
Continuous
 62
     7
370
     0
100
AcDbMText
 10
7.0281258754
 20
0.4200025137
 30
0.0
 40
0.0625
 41
0.0
 71
     1
 72
     1
  1
COPYRIGHT © 2016 BY THORLABS
  7
SLDTEXTSTYLE0
 73
     1
 44
1.0
  0
INSERT
  5
C3
330
1F
100
AcDbEntity
  8
0
  6
Continuous
 62
     7
370
     0
100
AcDbBlockReference
  2
SW_NOTE_3
 10
2.1096529316
 20
0.3219551564
 30
0.0
  0
INSERT
  5
D9
330
1F
100
AcDbEntity
  8
0
  6
Continuous
 62
     7
370
     0
100
AcDbBlockReference
  2
SW_NOTE_4
 10
0.2229009106
 20
1.7636814979
 30
0.0
  0
INSERT
  5
103
330
1F
100
AcDbEntity
  8
0
  6
Continuous
 62
     7
370
     0
100
AcDbBlockReference
  2
SW_TABLEANNOTATION_0
 10
0.0612779343
 20
8.4504327236
 30
0.0
  0
ARC
  5
104
330
1F
100
AcDbEntity
  8
0
  6
Continuous
 62
     7
370
     0
100
AcDbCircle
 10
2.7409586738
 20
4.3189372894
 30
0.0
 40
1.000179491924314
100
AcDbArc
 50
180.8593146732
 51
359.1406853268
  0
LINE
  5
105
330
1F
100
AcDbEntity
  8
0
  6
Continuous
 62
     7
370
     0
100
AcDbLine
 10
3.7410256876
 20
4.3039372898
 30
0.0
 11
3.7583480675
 21
4.3039372898
 31
0.0
  0
LINE
  5
106
330
1F
100
AcDbEntity
  8
0
  6
Continuous
 62
     7
370
     0
100
AcDbLine
 10
1.7235692801
 20
4.3039372898
 30
0.0
 11
1.74089166
 21
4.3039372898
 31
0.0
  0
LINE
  5
107
330
1F
100
AcDbEntity
  8
0
  6
Continuous
 62
     7
370
     0
100
AcDbLine
 10
1.74089166
 20
4.3039372898
 30
0.0
 11
1.7810758824
 21
4.3039372898
 31
0.0
  0
ARC
  5
108
330
1F
100
AcDbEntity
  8
0
  6
Continuous
 62
     7
370
     0
100
AcDbCircle
 10
2.7409586738
 20
4.3189372894
 30
0.0
 40
0.9600000000000031
100
AcDbArc
 50
180.8952829866
 51
359.1047170134
  0
LINE
  5
109
330
1F
100
AcDbEntity
  8
0
  6
Continuous
 62
     7
370
     0
100
AcDbLine
 10
3.7008414652
 20
4.3039372898
 30
0.0
 11
3.7410256876
 21
4.3039372898
 31
0.0
  0
ARC
  5
10A
330
1F
100
AcDbEntity
  8
0
  6
Continuous
 62
     7
370
     0
100
AcDbCircle
 10
2.7409586738
 20
4.3189372894
 30
0.0
 40
0.950000000000002
100
AcDbArc
 50
180.9047077972
 51
359.0952922028
  0
LINE
  5
10B
330
1F
100
AcDbEntity
  8
0
  6
Continuous
 62
     7
370
     0
100
AcDbLine
 10
3.690840234
 20
4.3039372898
 30
0.0
 11
3.7008414652
 21
4.3039372898
 31
0.0
  0
LINE
  5
10C
330
1F
100
AcDbEntity
  8
0
  6
Continuous
 62
     7
370
     0
100
AcDbLine
 10
1.7810758824
 20
4.3039372898
 30
0.0
 11
1.7910771136
 21
4.3039372898
 31
0.0
  0
ARC
  5
10D
330
1F
100
AcDbEntity
  8
0
  6
Continuous
 62
     7
370
     0
100
AcDbCircle
 10
2.7409586738
 20
4.3189372894
 30
0.0
 40
1.000179491924314
100
AcDbArc
 50
0.8593146732
 51
179.1406853268
  0
LINE
  5
10E
330
1F
100
AcDbEntity
  8
0
  6
Continuous
 62
     7
370
     0
100
AcDbLine
 10
1.74089166
 20
4.3339372891
 30
0.0
 11
1.7235692801
 21
4.3339372891
 31
0.0
  0
LINE
  5
10F
330
1F
100
AcDbEntity
  8
0
  6
Continuous
 62
     7
370
     0
100
AcDbLine
 10
3.7583480675
 20
4.3339372891
 30
0.0
 11
3.7410256876
 21
4.3339372891
 31
0.0
  0
LINE
  5
110
330
1F
100
AcDbEntity
  8
0
  6
Continuous
 62
     7
370
     0
100
AcDbLine
 10
3.7410256876
 20
4.3339372891
 30
0.0
 11
3.7008414652
 21
4.3339372891
 31
0.0
  0
ARC
  5
111
330
1F
100
AcDbEntity
  8
0
  6
Continuous
 62
     7
370
     0
100
AcDbCircle
 10
2.7409586738
 20
4.3189372894
 30
0.0
 40
0.9600000000000031
100
AcDbArc
 50
0.8952829866
 51
179.1047170134
  0
LINE
  5
112
330
1F
100
AcDbEntity
  8
0
  6
Continuous
 62
     7
370
     0
100
AcDbLine
 10
1.7810758824
 20
4.3339372891
 30
0.0
 11
1.74089166
 21
4.3339372891
 31
0.0
  0
ARC
  5
113
330
1F
100
AcDbEntity
  8
0
  6
Continuous
 62
     7
370
     0
100
AcDbCircle
 10
2.7409586738
 20
4.3189372894
 30
0.0
 40
0.950000000000002
100
AcDbArc
 50
0.9047077972
 51
179.0952922028
  0
LINE
  5
114
330
1F
100
AcDbEntity
  8
0
  6
Continuous
 62
     7
370
     0
100
AcDbLine
 10
1.7910771136
 20
4.3339372891
 30
0.0
 11
1.7810758824
 21
4.3339372891
 31
0.0
  0
LINE
  5
115
330
1F
100
AcDbEntity
  8
0
  6
Continuous
 62
     7
370
     0
100
AcDbLine
 10
3.7008414652
 20
4.3339372891
 30
0.0
 11
3.690840234
 21
4.3339372891
 31
0.0
  0
ARC
  5
116
330
1F
100
AcDbEntity
  8
0
  6
Continuous
 62
     7
370
     0
100
AcDbCircle
 10
2.7409586738
 20
4.3189372894
 30
0.0
 40
0.950000000000002
100
AcDbArc
 50
179.0952922028
 51
180.9047077972
  0
ARC
  5
117
330
1F
100
AcDbEntity
  8
0
  6
Continuous
 62
     7
370
     0
100
AcDbCircle
 10
2.7409586738
 20
4.3189372894
 30
0.0
 40
0.950000000000002
100
AcDbArc
 50
359.0952922028
 51
0.9047077972
  0
CIRCLE
  5
118
330
1F
100
AcDbEntity
  8
0
  6
Continuous
 62
     7
370
     0
100
AcDbCircle
 10
2.7409586738
 20
4.3189372894
 30
0.0
 40
1.034820508075689
  0
CIRCLE
  5
119
330
1F
100
AcDbEntity
  8
0
  6
Continuous
 62
     7
370
     0
100
AcDbCircle
 10
2.7409586738
 20
4.3189372894
 30
0.0
 40
1.0175
  0
CIRCLE
  5
11A
330
1F
100
AcDbEntity
  8
0
  6
Continuous
 62
     7
370
     0
100
AcDbCircle
 10
2.7409586738
 20
4.3189372894
 30
0.0
 40
1.090000000000001
  0
CIRCLE
  5
11B
330
1F
100
AcDbEntity
  8
0
  6
Continuous
 62
     7
370
     0
100
AcDbCircle
 10
2.7409586738
 20
4.3189372894
 30
0.0
 40
1.1
  0
DIMENSION
  5
11C
330
1F
100
AcDbEntity
  8
0
  6
Continuous
 62
     7
370
     0
100
AcDbDimension
  2
_D
 10
2.1909586738
 20
3.3663093453
 30
0.0
 11
3.9552538948
 21
5.7014194465
 31
0.0
 70
   163
  1
<>
 71
     1
 42
-1.0
  3
SLDDIMSTYLE0
100
AcDbDiametricDimension
 15
3.2909586738
 25
5.2715652336
 35
0.0
 40
0.0
  0
LINE
  5
12D
330
1F
100
AcDbEntity
  8
0
  6
PHANTOM
 62
     7
370
    30
100
AcDbLine
 10
2.7409586738
 20
5.7862065323
 30
0.0
 11
2.7409586738
 21
2.8944701041
 31
0.0
  0
LINE
  5
12E
330
1F
100
AcDbEntity
  8
0
  6
Continuous
 62
     7
370
    30
100
AcDbLine
 10
2.7409586738
 20
5.7862065323
 30
0.0
 11
2.359212225
 21
5.7862065323
 31
0.0
  0
SOLID
  5
12F
330
1F
100
AcDbEntity
  8
0
  6
Continuous
 62
     7
370
    30
100
AcDbTrace
 10
2.359212225
 20
5.7862065323
 30
0.0
 11
2.509212225
 21
5.7612065323
 31
0.0
 12
2.509212225
 22
5.8112065323
 32
0.0
 13
2.509212225
 23
5.8112065323
 33
0.0
  0
LINE
  5
130
330
1F
100
AcDbEntity
  8
0
  6
Continuous
 62
     7
370
    30
100
AcDbLine
 10
2.7409586738
 20
2.8944701041
 30
0.0
 11
2.3491364883
 21
2.8944701041
 31
0.0
  0
SOLID
  5
131
330
1F
100
AcDbEntity
  8
0
  6
Continuous
 62
     7
370
    30
100
AcDbTrace
 10
2.3491364883
 20
2.8944701041
 30
0.0
 11
2.4991364883
 21
2.8694701041
 31
0.0
 12
2.4991364883
 22
2.9194701041
 32
0.0
 13
2.4991364883
 23
2.9194701041
 33
0.0
  0
MTEXT
  5
132
330
1F
100
AcDbEntity
  8
0
  6
Continuous
 62
     7
100
AcDbMText
 10
2.4166762023
 20
5.7476411113
 30
0.0
 40
0.1041666667
 41
0.0
 71
     1
 72
     1
  1
A
  7
SLDTEXTSTYLE0
 73
     1
 44
1.0
  0
MTEXT
  5
133
330
1F
100
AcDbEntity
  8
0
  6
Continuous
 62
     7
100
AcDbMText
 10
2.2569836542
 20
2.9771185564
 30
0.0
 40
0.1041666667
 41
0.0
 71
     1
 72
     1
  1
A
  7
SLDTEXTSTYLE0
 73
     1
 44
1.0
  0
LINE
  5
134
330
1F
100
AcDbEntity
  8
0
  6
Continuous
 62
     7
370
     0
100
AcDbLine
 10
8.7629401657
 20
7.4662171377
 30
0.0
 11
8.7629401657
 21
7.4580530566
 31
0.0
  0
LINE
  5
135
330
1F
100
AcDbEntity
  8
0
  6
Continuous
 62
     7
370
     0
100
AcDbLine
 10
9.5335612892
 20
6.1231534781
 30
0.0
 11
9.5406312078
 21
6.1190707741
 31
0.0
  0
LINE
  5
136
330
1F
100
AcDbEntity
  8
0
  6
Continuous
 62
     7
370
     0
100
AcDbLine
 10
9.2524318311
 20
8.1208819255
 30
0.0
 11
8.9908023221
 21
7.9698464248
 31
0.0
  0
LINE
  5
137
330
1F
100
AcDbEntity
  8
0
  6
Continuous
 62
     7
370
     0
100
AcDbLine
 10
10.090712928
 20
6.0645389276
 30
0.0
 11
10.352342437
 21
6.2155744283
 31
0.0
  0
LINE
  5
138
330
1F
100
AcDbEntity
  8
0
  6
Continuous
 62
     7
370
     0
100
AcDbLine
 10
10.5802045934
 20
6.7192037154
 30
0.0
 11
10.5802045934
 21
6.7273677965
 31
0.0
  0
LINE
  5
139
330
1F
100
AcDbEntity
  8
0
  6
Continuous
 62
     7
370
     0
100
AcDbLine
 10
9.8095834698
 20
8.062267375
 30
0.0
 11
9.8025135513
 21
8.066350079
 31
0.0
  0
LWPOLYLINE
  5
13A
330
1F
100
AcDbEntity
  8
0
  6
Continuous
 62
     7
370
     0
100
AcDbPolyline
 90
       20
 70
   128
 43
0.0
 10
9.1343228317
 20
7.937389963
 10
9.1280578134
 20
7.9338166051
 10
9.107271179
 20
7.920608408
 10
9.0874336233
 20
7.9058523797
 10
9.0685811828
 20
7.8895753257
 10
9.0507481047
 20
7.8718068145
 10
9.0339667841
 20
7.8525791243
 10
9.0182677057
 20
7.8319271836
 10
9.0036793882
 20
7.8098885084
 10
8.9902283325
 20
7.7865031339
 10
8.9779389735
 20
7.7618135414
 10
8.9668336358
 20
7.7358645816
 10
8.9569324933
 20
7.7087033931
 10
8.9482535322
 20
7.6803793163
 10
8.9408125185
 20
7.6509438042
 10
8.9346229694
 20
7.620450329
 10
8.9296961288
 20
7.5889542845
 10
8.9260409467
 20
7.5565128859
 10
8.923664063
 20
7.5231850656
 10
8.9225697955
 20
7.4890313665
  0
LINE
  5
13B
330
1F
100
AcDbEntity
  8
0
  6
Continuous
 62
     7
370
     0
100
AcDbLine
 10
8.9225697955
 20
7.4890313665
 30
0.0
 11
8.9173920605
 21
7.5001844905
 31
0.0
  0
LWPOLYLINE
  5
13C
330
1F
100
AcDbEntity
  8
0
  6
Continuous
 62
     7
370
     0
100
AcDbPolyline
 90
       18
 70
   128
 43
0.0
 10
8.9173920605
 20
7.5001844905
 10
8.918474093
 20
7.5344759107
 10
8.9208264078
 20
7.5679506072
 10
8.9244448451
 20
7.6005493831
 10
8.9293230061
 20
7.6322145906
 10
8.9354522642
 20
7.6628902327
 10
8.9428217803
 20
7.6925220626
 10
8.9514185222
 20
7.721057679
 10
8.9612272874
 20
7.7484466196
 10
8.97223073
 20
7.7746404495
 10
8.9844093915
 20
7.7995928475
 10
8.997741735
 20
7.8232596875
 10
9.0122041835
 20
7.8455991172
 10
9.0277711617
 20
7.8665716312
 10
9.0444151407
 20
7.8861401416
 10
9.0621066873
 20
7.9042700436
 10
9.0808145157
 20
7.9209292759
 10
9.082338323
 20
7.9221846859
  0
LWPOLYLINE
  5
13D
330
1F
100
AcDbEntity
  8
0
  6
Continuous
 62
     7
370
     0
100
AcDbPolyline
 90
        3
 70
   128
 43
0.0
 10
8.9279551965
 20
7.4859224407
 10
8.9279644564
 20
7.484892956
 10
8.9279986622
 20
7.481811327
  0
LINE
  5
13E
330
1F
100
AcDbEntity
  8
0
  6
Continuous
 62
     7
370
     0
100
AcDbLine
 10
8.9173920605
 20
7.4756882661
 30
0.0
 11
8.9279986622
 21
7.481811327
 31
0.0
  0
LWPOLYLINE
  5
13F
330
1F
100
AcDbEntity
  8
0
  6
Continuous
 62
     7
370
     0
100
AcDbPolyline
 90
       55
 70
   128
 43
0.0
 10
10.0952143268
 20
6.1676418773
 10
10.0852096118
 20
6.1640396781
 10
10.0611574739
 20
6.1567287212
 10
10.0363548912
 20
6.1510374556
 10
10.0108457248
 20
6.1469759457
 10
9.9846750853
 20
6.144551374
 10
9.957889253
 20
6.1437680282
 10
9.930535596
 20
6.1446272934
 10
9.9026624866
 20
6.1471276501
 10
9.874319216
 20
6.1512646768
 10
9.8455559063
 20
6.1570310574
 10
9.8164234228
 20
6.1644165947
 10
9.7869732836
 20
6.173408228
 10
9.7572575684
 20
6.1839900565
 10
9.7273288266
 20
6.1961433672
 10
9.6972399844
 20
6.2098466682
 10
9.667044251
 20
6.2250757265
 10
9.6367950248
 20
6.2418036109
 10
9.6065457985
 20
6.2600007397
 10
9.5763500651
 20
6.2796349332
 10
9.5462612229
 20
6.3006714699
 10
9.5163324811
 20
6.3230731489
 10
9.4866167659
 20
6.3468003549
 10
9.4571666267
 20
6.3718111286
 10
9.4280341432
 20
6.3980612407
 10
9.3992708336
 20
6.4255042706
 10
9.3709275629
 20
6.4540916877
 10
9.3430544536
 20
6.483772938
 10
9.3157007966
 20
6.5144955329
 10
9.2889149642
 20
6.5462051425
 10
9.2627443247
 20
6.5788456914
 10
9.2372351584
 20
6.6123594578
 10
9.2124325757
 20
6.6466871758
 10
9.1883804377
 20
6.6817681402
 10
9.1651212783
 20
6.7175403135
 10
9.1426962292
 20
6.753940436
 10
9.1211449469
 20
6.7909041377
 10
9.1005055428
 20
6.8283660517
 10
9.0808145157
 20
6.8662599302
 10
9.0621066873
 20
6.9045187614
 10
9.0444151407
 20
6.9430748882
 10
9.0277711617
 20
6.9818601279
 10
9.0122041835
 20
7.0208058923
 10
8.997741735
 20
7.0598433095
 10
8.9844093915
 20
7.0989033458
 10
8.97223073
 20
7.1379169269
 10
8.9612272874
 20
7.1768150612
 10
8.9514185222
 20
7.215528961
 10
8.9428217803
 20
7.2539901645
 10
8.9354522642
 20
7.2921306565
 10
8.9293230061
 20
7.3298829894
 10
8.9244448451
 20
7.3671804017
 10
8.9208264078
 20
7.4039569364
 10
8.918474093
 20
7.4401475578
 10
8.9173920605
 20
7.4756882661
  0
LWPOLYLINE
  5
140
330
1F
100
AcDbEntity
  8
0
  6
Continuous
 62
     7
370
     0
100
AcDbPolyline
 90
       25
 70
   128
 43
0.0
 10
8.9509843162
 20
7.4726280129
 10
8.9520755934
 20
7.5058348836
 10
8.9544312808
 20
7.5382258369
 10
8.9580469829
 20
7.5697404351
 10
8.9629159533
 20
7.6003198758
 10
8.9690291071
 20
7.6299071015
 10
8.9763750378
 20
7.6584469059
 10
8.9849400389
 20
7.6858860373
 10
8.994708129
 20
7.7121732974
 10
9.0056610821
 20
7.7372596375
 10
9.0177784613
 20
7.7610982495
 10
9.031037657
 20
7.7836446534
 10
9.0454139292
 20
7.8048567803
 10
9.0608804535
 20
7.8246950509
 10
9.0774083712
 20
7.8431224495
 10
9.0949668432
 20
7.8601045927
 10
9.1135231075
 20
7.8756097939
 10
9.1330425404
 20
7.8896091222
 10
9.153488721
 20
7.9020764566
 10
9.174823499
 20
7.9129885346
 10
9.1970070666
 20
7.9223249955
 10
9.2199980316
 20
7.9300684186
 10
9.2437534959
 20
7.9362043556
 10
9.2682291345
 20
7.9407213577
 10
9.2791170263
 20
7.9421820283
  0
LINE
  5
141
330
1F
100
AcDbEntity
  8
0
  6
Continuous
 62
     7
370
     0
100
AcDbLine
 10
8.9509843162
 20
7.4726280129
 30
0.0
 11
8.9225697955
 21
7.4890313665
 31
0.0
  0
LWPOLYLINE
  5
142
330
1F
100
AcDbEntity
  8
0
  6
Continuous
 62
     7
370
     0
100
AcDbPolyline
 90
       25
 70
   128
 43
0.0
 10
9.294187396
 20
7.9400521993
 10
9.292266866
 20
7.9398137654
 10
9.2674872387
 20
7.935800326
 10
9.24342602
 20
7.9301367248
 10
9.220129369
 20
7.9228338268
 10
9.1976419777
 20
7.9139056419
 10
9.176006986
 20
7.9033692979
 10
9.1552658981
 20
7.8912450077
 10
9.1354585039
 20
7.8775560304
 10
9.1166228016
 20
7.862328627
 10
9.0987949256
 20
7.8455920095
 10
9.0820090768
 20
7.8273782854
 10
9.0662974571
 20
7.807722396
 10
9.0516902076
 20
7.7866620488
 10
9.0382153507
 20
7.7642376461
 10
9.0258987367
 20
7.7404922066
 10
9.0147639935
 20
7.7154712835
 10
9.0048324821
 20
7.6892228769
 10
8.996123255
 20
7.6617973415
 10
8.98865302
 20
7.6332472903
 10
8.9824361079
 20
7.6036274938
 10
8.9774844452
 20
7.5729947742
 10
8.9738075311
 20
7.5414078974
 10
8.9714124195
 20
7.5089274593
 10
8.9703037051
 20
7.4756157704
  0
LINE
  5
143
330
1F
100
AcDbEntity
  8
0
  6
Continuous
 62
     7
370
     0
100
AcDbLine
 10
8.9703037051
 20
7.4756157704
 30
0.0
 11
8.9509843162
 21
7.4726280129
 31
0.0
  0
LWPOLYLINE
  5
144
330
1F
100
AcDbEntity
  8
0
  6
Continuous
 62
     7
370
     0
100
AcDbPolyline
 90
       60
 70
   128
 43
0.0
 10
8.9703037051
 20
7.451119546
 10
8.9714124195
 20
7.4165277627
 10
8.9738075311
 20
7.3812819877
 10
8.9774844452
 20
7.3454498362
 10
8.9824361079
 20
7.3091000486
 10
8.98865302
 20
7.2723023581
 10
8.996123255
 20
7.2351273572
 10
9.0048324821
 20
7.1976463622
 10
9.0147639935
 20
7.1599312766
 10
9.0258987367
 20
7.1220544527
 10
9.0382153507
 20
7.0840885533
 10
9.0516902076
 20
7.046106412
 10
9.0662974571
 20
7.0081808936
 10
9.0820090768
 20
6.9703847541
 10
9.0987949256
 20
6.9327905016
 10
9.1166228016
 20
6.8954702566
 10
9.1354585039
 20
6.8584956142
 10
9.1552658981
 20
6.8219375062
 10
9.176006986
 20
6.7858660657
 10
9.1976419777
 20
6.750350492
 10
9.220129369
 20
6.7154589178
 10
9.24342602
 20
6.681258279
 10
9.2674872387
 20
6.6478141861
 10
9.292266866
 20
6.615190798
 10
9.3177173648
 20
6.5834506991
 10
9.3437899111
 20
6.5526547797
 10
9.3704344873
 20
6.5228621184
 10
9.3975999787
 20
6.4941298694
 10
9.4252342711
 20
6.4665131524
 10
9.453284351
 20
6.4400649472
 10
9.4816964072
 20
6.414835992
 10
9.5104159343
 20
6.3908746858
 10
9.5393878367
 20
6.368226996
 10
9.568556535
 20
6.3469363697
 10
9.597866072
 20
6.3270436507
 10
9.6272602205
 20
6.3085870012
 10
9.6566825909
 20
6.2916018284
 10
9.6860767393
 20
6.2761207164
 10
9.7153862764
 20
6.2621733642
 10
9.7445549746
 20
6.2497865283
 10
9.7735268771
 20
6.2389839716
 10
9.8022464041
 20
6.2297864177
 10
9.8306584604
 20
6.222211511
 10
9.8587085403
 20
6.2162737833
 10
9.8863428326
 20
6.2119846254
 10
9.913508324
 20
6.2093522657
 10
9.9401529003
 20
6.2083817541
 10
9.9662254465
 20
6.2090749524
 10
9.9916759454
 20
6.2114305307
 10
10.0164555727
 20
6.2154439702
 10
10.0405167913
 20
6.2211075714
 10
10.0638134423
 20
6.2284104694
 10
10.0863008336
 20
6.2373386542
 10
10.1079358254
 20
6.2478749982
 10
10.1286769132
 20
6.2599992884
 10
10.1484843075
 20
6.2736882657
 10
10.1673200098
 20
6.2889156692
 10
10.1851478858
 20
6.3056522867
 10
10.2019337346
 20
6.3238660107
 10
10.2166289611
 20
6.3421634069
  0
LINE
  5
145
330
1F
100
AcDbEntity
  8
0
  6
Continuous
 62
     7
370
     0
100
AcDbLine
 10
8.9757339259
 20
7.4542543458
 30
0.0
 11
8.9703037051
 21
7.451119546
 31
0.0
  0
ARC
  5
146
330
1F
100
AcDbEntity
  8
0
  6
Continuous
 62
     7
370
     0
100
AcDbCircle
 10
9.8713878978
 20
7.466502458
 30
0.0
 40
0.8957377147315119
100
AcDbArc
 50
179.2165262291
 51
180.7834737709
  0
LINE
  5
147
330
1F
100
AcDbEntity
  8
0
  6
Continuous
 62
     7
370
     0
100
AcDbLine
 10
8.9703037051
 20
7.4756157704
 30
0.0
 11
8.9757339259
 21
7.4787505701
 31
0.0
  0
LWPOLYLINE
  5
148
330
1F
100
AcDbEntity
  8
0
  6
Continuous
 62
     7
370
     0
100
AcDbPolyline
 90
       55
 70
   128
 43
0.0
 10
9.6933635673
 20
6.3295764402
 10
9.6642641325
 20
6.3471033471
 10
9.6352193289
 20
6.3660536706
 10
9.606283685
 20
6.3863918335
 10
9.5775115244
 20
6.4080796529
 10
9.548956864
 20
6.4310764124
 10
9.5206733121
 20
6.4553389378
 10
9.4927139681
 20
6.4808216788
 10
9.4651313228
 20
6.5074767942
 10
9.4379771596
 20
6.5352542419
 10
9.4113024578
 20
6.5641018725
 10
9.3851572962
 20
6.5939655277
 10
9.3595907596
 20
6.6247891415
 10
9.3346508467
 20
6.6565148459
 10
9.3103843794
 20
6.6890830792
 10
9.2868369155
 20
6.7224326979
 10
9.2640526629
 20
6.7565010915
 10
9.2420743967
 20
6.7912243003
 10
9.2209433787
 20
6.826537135
 10
9.2006992803
 20
6.8623732995
 10
9.1813801076
 20
6.8986655151
 10
9.1630221304
 20
6.9353456469
 10
9.1456598137
 20
6.972344832
 10
9.1293257537
 20
7.0095936081
 10
9.1140506157
 20
7.0470220445
 10
9.0998630773
 20
7.0845598734
 10
9.086789774
 20
7.1221366213
 10
9.0748552496
 20
7.1596817418
 10
9.06408191
 20
7.197124748
 10
9.0544899809
 20
7.2343953443
 10
9.0460974702
 20
7.2714235593
 10
9.038920134
 20
7.3081398763
 10
9.032971447
 20
7.3444753642
 10
9.0282625771
 20
7.380361807
 10
9.0248023649
 20
7.4157318316
 10
9.0225973065
 20
7.4505190345
 10
9.0216515416
 20
7.4846581064
 10
9.0219668459
 20
7.5180849547
 10
9.0235426274
 20
7.550736824
 10
9.0263759277
 20
7.5825524138
 10
9.0304614276
 20
7.6134719937
 10
9.035791457
 20
7.6434375154
 10
9.0423560094
 20
7.6723927217
 10
9.0501427604
 20
7.7002832524
 10
9.0591370912
 20
7.7270567458
 10
9.069322116
 20
7.7526629375
 10
9.0806787134
 20
7.7770537545
 10
9.0931855627
 20
7.8001834057
 10
9.1068191834
 20
7.8220084675
 10
9.1215539799
 20
7.8424879657
 10
9.1373622891
 20
7.8615834521
 10
9.1542144327
 20
7.879259077
 10
9.1720787724
 20
7.8954816562
 10
9.1909217699
 20
7.9102207335
 10
9.1934014687
 20
7.9119980346
  0
LWPOLYLINE
  5
149
330
1F
100
AcDbEntity
  8
0
  6
Continuous
 62
     7
370
     0
100
AcDbPolyline
 90
       18
 70
   128
 43
0.0
 10
10.1419335042
 20
6.2689143249
 10
10.1226744716
 20
6.260829272
 10
10.0998902191
 20
6.2530670164
 10
10.0763427552
 20
6.2469047209
 10
10.0520762879
 20
6.2423539544
 10
10.0271363749
 20
6.2394232606
 10
10.0015698384
 20
6.2381181415
 10
9.9754246768
 20
6.2384410474
 10
9.9487499749
 20
6.2403913719
 10
9.9215958118
 20
6.2439654537
 10
9.8940131664
 20
6.2491565828
 10
9.8660538224
 20
6.2559550132
 10
9.8377702705
 20
6.2643479817
 10
9.8092156101
 20
6.2743197315
 10
9.7804434496
 20
6.2858515414
 10
9.7515078057
 20
6.2989217619
 10
9.722463002
 20
6.3135058548
 10
9.6933635673
 20
6.3295764402
  0
LWPOLYLINE
  5
14A
330
1F
100
AcDbEntity
  8
0
  6
Continuous
 62
     7
370
     0
100
AcDbPolyline
 90
       57
 70
   128
 43
0.0
 10
8.9225697955
 20
7.4645351422
 10
8.923664063
 20
7.4291180288
 10
8.9260409467
 20
7.3930459171
 10
8.9296961288
 20
7.356384335
 10
8.9346229694
 20
7.3191998814
 10
8.9408125185
 20
7.281560105
 10
8.9482535322
 20
7.2435333814
 10
8.9569324933
 20
7.2051887893
 10
8.9668336358
 20
7.1665959849
 10
8.9779389735
 20
7.1278250753
 10
8.9902283325
 20
7.0889464909
 10
9.0036793882
 20
7.0500308579
 10
9.0182677057
 20
7.0111488699
 10
9.0339667841
 20
6.9723711591
 10
9.0507481047
 20
6.9337681685
 10
9.0685811828
 20
6.8954100236
 10
9.0874336233
 20
6.8573664052
 10
9.107271179
 20
6.8197064226
 10
9.1280578134
 20
6.7824984883
 10
9.1497557659
 20
6.7458101936
 10
9.1723256203
 20
6.7097081858
 10
9.1957263767
 20
6.6742580472
 10
9.2199155256
 20
6.639524176
 10
9.2448491254
 20
6.605569669
 10
9.2704818822
 20
6.5724562074
 10
9.296767232
 20
6.5402439447
 10
9.3236574252
 20
6.5089913969
 10
9.3511036136
 20
6.4787553371
 10
9.3790559389
 20
6.4495906914
 10
9.4074636234
 20
6.4215504398
 10
9.4362750622
 20
6.3946855199
 10
9.4654379169
 20
6.3690447339
 10
9.4948992108
 20
6.3446746605
 10
9.524605425
 20
6.3216195699
 10
9.5545025957
 20
6.2999213436
 10
9.5845364123
 20
6.2796193982
 10
9.6146523158
 20
6.2607506139
 10
9.6447955981
 20
6.2433492674
 10
9.6749115016
 20
6.2274469697
 10
9.7049453182
 20
6.2130726085
 10
9.7348424889
 20
6.2002522963
 10
9.7645487031
 20
6.189009322
 10
9.794009997
 20
6.1793641095
 10
9.8231728518
 20
6.1713341801
 10
9.8519842906
 20
6.1649341209
 10
9.8803919751
 20
6.160175558
 10
9.9083443004
 20
6.1570671359
 10
9.9357904888
 20
6.1556145011
 10
9.962680682
 20
6.1558202927
 10
9.9889660317
 20
6.1576841366
 10
10.0145987885
 20
6.1612026471
 10
10.0395323883
 20
6.1663694325
 10
10.0637215372
 20
6.1731751069
 10
10.0871222936
 20
6.1816073073
 10
10.109692148
 20
6.1916507158
 10
10.1313901005
 20
6.2032870878
 10
10.1343782483
 20
6.2050554689
  0
LINE
  5
14B
330
1F
100
AcDbEntity
  8
0
  6
Continuous
 62
     7
370
     0
100
AcDbLine
 10
8.9173920605
 20
7.4756882661
 30
0.0
 11
8.9225697955
 21
7.4645351422
 31
0.0
  0
LINE
  5
14C
330
1F
100
AcDbEntity
  8
0
  6
Continuous
 62
     7
370
     0
100
AcDbLine
 10
8.9225697955
 20
7.4645351422
 30
0.0
 11
8.9509843162
 21
7.4481317886
 31
0.0
  0
LWPOLYLINE
  5
14D
330
1F
100
AcDbEntity
  8
0
  6
Continuous
 62
     7
370
     0
100
AcDbPolyline
 90
       61
 70
   128
 43
0.0
 10
10.2109369377
 20
6.3280477036
 10
10.1985674604
 20
6.3124086419
 10
10.1820395427
 20
6.2939812433
 10
10.1644810707
 20
6.2769991002
 10
10.1459248064
 20
6.261493899
 10
10.1264053735
 20
6.2474945707
 10
10.105959193
 20
6.2350272362
 10
10.0846244149
 20
6.2241151583
 10
10.0624408474
 20
6.2147786974
 10
10.0394498823
 20
6.2070352743
 10
10.015694418
 20
6.2008993372
 10
9.9912187794
 20
6.1963823352
 10
9.9660686351
 20
6.1934926963
 10
9.9402909121
 20
6.1922358124
 10
9.9139337086
 20
6.1926140285
 10
9.8870462039
 20
6.194626639
 10
9.859678567
 20
6.1982698886
 10
9.8318818625
 20
6.2035369794
 10
9.8037079557
 20
6.2104180837
 10
9.7752094157
 20
6.2189003622
 10
9.7464394174
 20
6.2289679879
 10
9.7174516421
 20
6.2406021759
 10
9.6883001775
 20
6.2537812182
 10
9.6590394168
 20
6.2684805243
 10
9.629723957
 20
6.284672667
 10
9.6004084971
 20
6.3023274338
 10
9.5711477364
 20
6.321411883
 10
9.5419962718
 20
6.3418904052
 10
9.5130084965
 20
6.3637247902
 10
9.4842384982
 20
6.3868742975
 10
9.4557399582
 20
6.4112957329
 10
9.4275660514
 20
6.4369435289
 10
9.3997693469
 20
6.46376983
 10
9.37240171
 20
6.4917245814
 10
9.3455142053
 20
6.520755623
 10
9.3191570018
 20
6.5508087863
 10
9.2933792788
 20
6.5818279957
 10
9.2682291345
 20
6.6137553732
 10
9.2437534959
 20
6.6465313461
 10
9.2199980316
 20
6.6800947583
 10
9.1970070666
 20
6.7143829847
 10
9.174823499
 20
6.7493320474
 10
9.153488721
 20
6.7848767358
 10
9.1330425404
 20
6.8209507278
 10
9.1135231075
 20
6.8574867137
 10
9.0949668432
 20
6.8944165216
 10
9.0774083712
 20
6.931671245
 10
9.0608804535
 20
6.9691813712
 10
9.0454139292
 20
7.0068769107
 10
9.031037657
 20
7.0446875281
 10
9.0177784613
 20
7.0825426736
 10
9.0056610821
 20
7.1203717138
 10
8.994708129
 20
7.1581040644
 10
8.9849400389
 20
7.1956693213
 10
8.9763750378
 20
7.2329973924
 10
8.9690291071
 20
7.2700186279
 10
8.9629159533
 20
7.3066639507
 10
8.9580469829
 20
7.3428649849
 10
8.9544312808
 20
7.378554184
 10
8.9520755934
 20
7.413664956
 10
8.9509843162
 20
7.4481317886
  0
LINE
  5
14E
330
1F
100
AcDbEntity
  8
0
  6
Continuous
 62
     7
370
     0
100
AcDbLine
 10
8.9509843162
 20
7.4481317886
 30
0.0
 11
8.9703037051
 21
7.451119546
 31
0.0
  0
LINE
  5
14F
330
1F
100
AcDbEntity
  8
0
  6
Continuous
 62
     7
370
     0
100
AcDbLine
 10
8.9279986622
 20
7.481811327
 30
0.0
 11
8.9757339259
 21
7.4542543458
 31
0.0
  0
LWPOLYLINE
  5
150
330
1F
100
AcDbEntity
  8
0
  6
Continuous
 62
     7
370
     0
100
AcDbPolyline
 90
      119
 70
   128
 43
0.0
 10
8.7629401657
 20
7.4662171377
 10
8.7635709771
 20
7.5020196398
 10
8.7654623881
 20
7.5370357508
 10
8.7686113307
 20
7.5712086745
 10
8.7730126975
 20
7.6044829821
 10
8.7786593494
 20
7.6368047028
 10
8.7855421275
 20
7.6681214104
 10
8.7936498678
 20
7.6983823093
 10
8.8029694197
 20
7.7275383161
 10
8.8134856667
 20
7.7555421397
 10
8.8251815515
 20
7.7823483577
 10
8.8380381034
 20
7.8079134905
 10
8.8520344688
 20
7.8321960711
 10
8.8671479458
 20
7.8551567133
 10
8.88335402
 20
7.8767581748
 10
8.9006264054
 20
7.8969654179
 10
8.9189370859
 20
7.9157456663
 10
8.9382563616
 20
7.9330684586
 10
8.9585528966
 20
7.9489056969
 10
8.9797937698
 20
7.9632316934
 10
9.0019445284
 20
7.9760232111
 10
9.0249692438
 20
7.9872595021
 10
9.0488305698
 20
7.9969223413
 10
9.0734898034
 20
8.0049960553
 10
9.098906947
 20
8.0114675486
 10
9.1250407741
 20
8.0163263245
 10
9.1518488954
 20
8.0195645019
 10
9.1792878281
 20
8.0211768286
 10
9.2073130661
 20
8.0211606893
 10
9.2358791524
 20
8.0195161102
 10
9.2649397527
 20
8.0162457588
 10
9.2944477306
 20
8.0113549396
 10
9.3243552241
 20
8.0048515857
 10
9.354613723
 20
7.9967462454
 10
9.3851741481
 20
7.9870520656
 10
9.4159869301
 20
7.9757847703
 10
9.4470020906
 20
7.9629626352
 10
9.478169323
 20
7.9486064577
 10
9.5094380738
 20
7.9327395237
 10
9.540757625
 20
7.9153875693
 10
9.5720771762
 20
7.8965787395
 10
9.6033459271
 20
7.8763435423
 10
9.6345131594
 20
7.8547147993
 10
9.6655283199
 20
7.8317275923
 10
9.6963411019
 20
7.8074192067
 10
9.726901527
 20
7.7818290708
 10
9.7571600259
 20
7.7549986919
 10
9.7870675194
 20
7.7269715889
 10
9.8165754973
 20
7.6977932219
 10
9.8456360976
 20
7.6675109183
 10
9.874202184
 20
7.6361737962
 10
9.902227422
 20
7.6038326844
 10
9.9296663547
 20
7.5705400404
 10
9.956474476
 20
7.5363498649
 10
9.982608303
 20
7.5013176146
 10
10.0080254467
 20
7.4655001119
 10
10.0326846802
 20
7.4289554529
 10
10.0565460063
 20
7.3917429131
 10
10.0795707217
 20
7.3539228515
 10
10.1017214803
 20
7.3155566123
 10
10.1229623534
 20
7.2767064257
 10
10.1432588884
 20
7.2374353069
 10
10.1625781641
 20
7.1978069537
 10
10.1808888446
 20
7.1578856434
 10
10.19816123
 20
7.1177361287
 10
10.2143673043
 20
7.0774235322
 10
10.2294807812
 20
7.0370132409
 10
10.2434771467
 20
6.9965708007
 10
10.2563336985
 20
6.9561618092
 10
10.2680295833
 20
6.9158518099
 10
10.2785458304
 20
6.875706186
 10
10.2878653822
 20
6.8357900536
 10
10.2959731226
 20
6.796168157
 10
10.3028559006
 20
6.7569047629
 10
10.3085025525
 20
6.7180635568
 10
10.3129039193
 20
6.6797075392
 10
10.316052862
 20
6.6418989238
 10
10.3179442729
 20
6.6046990361
 10
10.3185750843
 20
6.5681682147
 10
10.3179442729
 20
6.5323657126
 10
10.316052862
 20
6.4973496016
 10
10.3129039193
 20
6.463176678
 10
10.3085025525
 20
6.4299023703
 10
10.3028559006
 20
6.3975806497
 10
10.2959731226
 20
6.366263942
 10
10.2878653822
 20
6.3360030431
 10
10.2785458304
 20
6.3068470363
 10
10.2680295833
 20
6.2788432127
 10
10.2563336985
 20
6.2520369947
 10
10.2434771467
 20
6.226471862
 10
10.2294807812
 20
6.2021892813
 10
10.2143673043
 20
6.1792286391
 10
10.19816123
 20
6.1576271776
 10
10.1808888446
 20
6.1374199345
 10
10.1625781641
 20
6.1186396861
 10
10.1432588884
 20
6.1013168938
 10
10.1229623534
 20
6.0854796555
 10
10.1017214803
 20
6.071153659
 10
10.0795707217
 20
6.0583621413
 10
10.0565460063
 20
6.0471258503
 10
10.0326846802
 20
6.0374630111
 10
10.0080254467
 20
6.0293892971
 10
9.982608303
 20
6.0229178038
 10
9.956474476
 20
6.0180590279
 10
9.9296663547
 20
6.0148208505
 10
9.902227422
 20
6.0132085238
 10
9.874202184
 20
6.0132246632
 10
9.8456360976
 20
6.0148692423
 10
9.8165754973
 20
6.0181395936
 10
9.7870675194
 20
6.0230304128
 10
9.7571600259
 20
6.0295337667
 10
9.726901527
 20
6.037639107
 10
9.6963411019
 20
6.0473332868
 10
9.6655283199
 20
6.0586005821
 10
9.6345131594
 20
6.0714227172
 10
9.6033459271
 20
6.0857788947
 10
9.5720771762
 20
6.1016458288
 10
9.540757625
 20
6.1189977831
 10
9.5406312078
 20
6.1190707741
  0
LWPOLYLINE
  5
151
330
1F
100
AcDbEntity
  8
0
  6
Continuous
 62
     7
370
     0
100
AcDbPolyline
 90
      156
 70
   128
 43
0.0
 10
8.7629401657
 20
7.4580530566
 10
8.7635733329
 20
7.4216185772
 10
8.765471794
 20
7.3845129203
 10
8.76863243
 20
7.3467970505
 10
8.7730500479
 20
7.3085329347
 10
8.7787173896
 20
7.2697834409
 10
8.7856251437
 20
7.2306122344
 10
8.7937619607
 20
7.1910836733
 10
8.8031144719
 20
7.1512627029
 10
8.813667311
 20
7.1112147491
 10
8.82540314
 20
7.0710056105
 10
8.8383026767
 20
7.0307013506
 10
8.8523447273
 20
6.9903681891
 10
8.8675062207
 20
6.9500723935
 10
8.8837622467
 20
6.9098801695
 10
8.9010860966
 20
6.8698575529
 10
8.9194493074
 20
6.8300703008
 10
8.9388217084
 20
6.7905837834
 10
8.9591714708
 20
6.7514628771
 10
8.98046516
 20
6.7127718574
 10
9.0026677905
 20
6.6745742935
 10
9.0257428834
 20
6.6369329439
 10
9.0496525264
 20
6.5999096532
 10
9.0743574361
 20
6.5635652507
 10
9.0998170223
 20
6.5279594501
 10
9.125989455
 20
6.4931507516
 10
9.152831733
 20
6.4591963458
 10
9.1802997545
 20
6.4261520198
 10
9.2083483895
 20
6.3940720652
 10
9.2369315543
 20
6.3630091893
 10
9.2660022868
 20
6.3330144285
 10
9.2955128239
 20
6.3041370639
 10
9.3254146798
 20
6.276424541
 10
9.3556587258
 20
6.2499223914
 10
9.386195271
 20
6.2246741582
 10
9.4169741441
 20
6.200721324
 10
9.4479447754
 20
6.1781032433
 10
9.4790562802
 20
6.1568570775
 10
9.5102575424
 20
6.1370177341
 10
9.5414972984
 20
6.118617809
 10
9.5727242213
 20
6.1016875333
 10
9.6038870055
 20
6.0862547234
 10
9.6349344505
 20
6.0723447353
 10
9.6658155456
 20
6.0599804231
 10
9.696479553
 20
6.0491821013
 10
9.726876092
 20
6.0399675116
 10
9.756955221
 20
6.0323517935
 10
9.7866675203
 20
6.0263474596
 10
9.8159641725
 20
6.021964375
 10
9.8447970433
 20
6.0192097411
 10
9.8731187604
 20
6.0180880837
 10
9.9008827912
 20
6.0186012458
 10
9.9280435197
 20
6.0207483842
 10
9.9545563206
 20
6.0245259712
 10
9.9803776337
 20
6.0299278002
 10
10.0054650345
 20
6.036944996
 10
10.0297773045
 20
6.0455660294
 10
10.0532744986
 20
6.0557767361
 10
10.0759180112
 20
6.0675603398
 10
10.0976706389
 20
6.0808974802
 10
10.1184966423
 20
6.0957662443
 10
10.1383618042
 20
6.1121422029
 10
10.1572334863
 20
6.1299984502
 10
10.1750806824
 20
6.1493056486
 10
10.1918740696
 20
6.1700320762
 10
10.2075860565
 20
6.1921436798
 10
10.2221908283
 20
6.2156041298
 10
10.2356643894
 20
6.240374881
 10
10.2479846027
 20
6.266415235
 10
10.2591312262
 20
6.2936824076
 10
10.2690859461
 20
6.3221315988
 10
10.2778324066
 20
6.3517160668
 10
10.2853562375
 20
6.3823872044
 10
10.2916450771
 20
6.4140946189
 10
10.2966885928
 20
6.4467862151
 10
10.3004784982
 20
6.4804082809
 10
10.3030085665
 20
6.5149055752
 10
10.3042746407
 20
6.5502214191
 10
10.3042746407
 20
6.5862977888
 10
10.3030085665
 20
6.6230754109
 10
10.3004784982
 20
6.6604938599
 10
10.2966885928
 20
6.6984916573
 10
10.2916450771
 20
6.7370063728
 10
10.2853562375
 20
6.7759747269
 10
10.2778324066
 20
6.8153326947
 10
10.2690859461
 20
6.8550156111
 10
10.2591312262
 20
6.8949582773
 10
10.2479846027
 20
6.9350950674
 10
10.2356643894
 20
6.975360037
 10
10.2221908283
 20
7.0156870306
 10
10.2075860565
 20
7.0560097913
 10
10.1918740696
 20
7.0962620687
 10
10.1750806824
 20
7.1363777286
 10
10.1572334863
 20
7.1762908609
 10
10.1383618042
 20
7.2159358886
 10
10.1184966423
 20
7.2552476749
 10
10.0976706389
 20
7.2941616307
 10
10.0759180112
 20
7.3326138205
 10
10.0532744986
 20
7.3705410673
 10
10.0297773045
 20
7.4078810569
 10
10.0054650345
 20
7.4445724398
 10
9.9803776337
 20
7.480554932
 10
9.9545563206
 20
7.5157694144
 10
9.9280435197
 20
7.5501580299
 10
9.9008827912
 20
7.5836642778
 10
9.8731187604
 20
7.6162331076
 10
9.8447970433
 20
7.6478110088
 10
9.8159641725
 20
7.6783460989
 10
9.7866675203
 20
7.707788209
 10
9.756955221
 20
7.7360889655
 10
9.726876092
 20
7.7632018706
 10
9.696479553
 20
7.7890823778
 10
9.6658155456
 20
7.8136879654
 10
9.6349344505
 20
7.8369782066
 10
9.6038870055
 20
7.8589148355
 10
9.5727242213
 20
7.8794618103
 10
9.5414972984
 20
7.8985853725
 10
9.5102575424
 20
7.9162541019
 10
9.4790562802
 20
7.9324389691
 10
9.4479447754
 20
7.9471133821
 10
9.4169741441
 20
7.9602532312
 10
9.386195271
 20
7.9718369274
 10
9.3556587258
 20
7.9818454388
 10
9.3254146798
 20
7.9902623215
 10
9.2955128239
 20
7.9970737466
 10
9.2660022868
 20
8.0022685228
 10
9.2369315543
 20
8.0058381153
 10
9.2083483895
 20
8.0077766591
 10
9.1802997545
 20
8.0080809692
 10
9.152831733
 20
8.0067505457
 10
9.125989455
 20
8.0037875744
 10
9.0998170223
 20
7.9991969235
 10
9.0743574361
 20
7.9929861354
 10
9.0496525264
 20
7.9851654145
 10
9.0257428834
 20
7.9757476101
 10
9.0026677905
 20
7.9647481957
 10
8.98046516
 20
7.9521852433
 10
8.9591714708
 20
7.9380793937
 10
8.9388217084
 20
7.9224538229
 10
8.9194493074
 20
7.9053342037
 10
8.9010860966
 20
7.8867486635
 10
8.8837622467
 20
7.8667277382
 10
8.8675062207
 20
7.8453043224
 10
8.8523447273
 20
7.8225136144
 10
8.8383026767
 20
7.7983930596
 10
8.82540314
 20
7.7729822877
 10
8.813667311
 20
7.7463230487
 10
8.8031144719
 20
7.7184591437
 10
8.7937619607
 20
7.6894363529
 10
8.7856251437
 20
7.6593023607
 10
8.7787173896
 20
7.6281066772
 10
8.7730500479
 20
7.5959005569
 10
8.76863243
 20
7.5627369142
 10
8.765471794
 20
7.528670237
 10
8.7635733329
 20
7.4937564967
 10
8.7629401657
 20
7.4580530566
  0
LWPOLYLINE
  5
152
330
1F
100
AcDbEntity
  8
0
  6
Continuous
 62
     7
370
     0
100
AcDbPolyline
 90
       60
 70
   128
 43
0.0
 10
10.5802045934
 20
6.7192037154
 10
10.579573782
 20
6.7557345368
 10
10.577682371
 20
6.7929344244
 10
10.5745334283
 20
6.8307430399
 10
10.5701320615
 20
6.8690990575
 10
10.5644854097
 20
6.9079402636
 10
10.5576026316
 20
6.9472036577
 10
10.5494948913
 20
6.9868255543
 10
10.5401753394
 20
7.0267416867
 10
10.5296590924
 20
7.0668873106
 10
10.5179632075
 20
7.1071973098
 10
10.5051066557
 20
7.1476063013
 10
10.4911102903
 20
7.1880487416
 10
10.4759968133
 20
7.2284590328
 10
10.459790739
 20
7.2687716294
 10
10.4425183537
 20
7.3089211441
 10
10.4242076731
 20
7.3488424543
 10
10.4048883974
 20
7.3884708075
 10
10.3845918625
 20
7.4277419264
 10
10.3633509893
 20
7.466592113
 10
10.3412002307
 20
7.5049583522
 10
10.3181755153
 20
7.5427784138
 10
10.2943141893
 20
7.5799909535
 10
10.2696549557
 20
7.6165356126
 10
10.2442378121
 20
7.6523531153
 10
10.218103985
 20
7.6873853656
 10
10.1912958637
 20
7.7215755411
 10
10.163856931
 20
7.7548681851
 10
10.135831693
 20
7.7872092969
 10
10.1072656067
 20
7.818546419
 10
10.0782050064
 20
7.8488287226
 10
10.0486970284
 20
7.8780070896
 10
10.018789535
 20
7.9060341925
 10
9.988531036
 20
7.9328645715
 10
9.957970611
 20
7.9584547074
 10
9.927157829
 20
7.982763093
 10
9.8961426684
 20
8.0057503
 10
9.8649754361
 20
8.027379043
 10
9.8337066853
 20
8.0476142402
 10
9.8023871341
 20
8.06642307
 10
9.7710675828
 20
8.0837750243
 10
9.739798832
 20
8.0996419584
 10
9.7086315997
 20
8.1139981359
 10
9.6776164391
 20
8.126820271
 10
9.6468036571
 20
8.1380875663
 10
9.6162432321
 20
8.1477817461
 10
9.5859847331
 20
8.1558870864
 10
9.5560772397
 20
8.1623904403
 10
9.5265692618
 20
8.1672812595
 10
9.4975086614
 20
8.1705516108
 10
9.4689425751
 20
8.1721961899
 10
9.4409173371
 20
8.1722123293
 10
9.4134784044
 20
8.1706000026
 10
9.3866702831
 20
8.1673618252
 10
9.360536456
 20
8.1625030493
 10
9.3351193124
 20
8.156031556
 10
9.3104600789
 20
8.147957842
 10
9.2865987528
 20
8.1382950028
 10
9.2635740374
 20
8.1270587118
 10
9.2524318311
 20
8.1208819255
  0
LWPOLYLINE
  5
153
330
1F
100
AcDbEntity
  8
0
  6
Continuous
 62
     7
370
     0
100
AcDbPolyline
 90
       21
 70
   128
 43
0.0
 10
10.352342437
 20
6.2155744283
 10
10.3633509893
 20
6.2221891597
 10
10.3845918625
 20
6.2365151562
 10
10.4048883974
 20
6.2523523945
 10
10.4242076731
 20
6.2696751868
 10
10.4425183537
 20
6.2884554352
 10
10.459790739
 20
6.3086626783
 10
10.4759968133
 20
6.3302641398
 10
10.4911102903
 20
6.353224782
 10
10.5051066557
 20
6.3775073626
 10
10.5179632075
 20
6.4030724954
 10
10.5296590924
 20
6.4298787134
 10
10.5401753394
 20
6.457882537
 10
10.5494948913
 20
6.4870385438
 10
10.5576026316
 20
6.5172994427
 10
10.5644854097
 20
6.5486161503
 10
10.5701320615
 20
6.580937871
 10
10.5745334283
 20
6.6142121786
 10
10.577682371
 20
6.6483851023
 10
10.579573782
 20
6.6834012133
 10
10.5802045934
 20
6.7192037154
  0
LWPOLYLINE
  5
154
330
1F
100
AcDbEntity
  8
0
  6
Continuous
 62
     7
370
     0
100
AcDbPolyline
 90
      152
 70
   128
 43
0.0
 10
8.8019579586
 20
7.4355285642
 10
8.802591337
 20
7.4703125327
 10
8.8044903755
 20
7.5043050008
 10
8.8076517867
 20
7.5374471211
 10
8.8120700975
 20
7.5696815185
 10
8.817737659
 20
7.6009523895
 10
8.8246446596
 20
7.6312055984
 10
8.8327791421
 20
7.6603887713
 10
8.8421270242
 20
7.6884513867
 10
8.8526721229
 20
7.7153448632
 10
8.8643961827
 20
7.7410226432
 10
8.8772789072
 20
7.7654402737
 10
8.891297994
 20
7.7885554833
 10
8.9064291735
 20
7.8103282554
 10
8.9226462508
 20
7.8307208973
 10
8.9399211512
 20
7.8496981055
 10
8.9582239686
 20
7.867227027
 10
8.9775230175
 20
7.8832773161
 10
8.9977848878
 20
7.8978211867
 10
9.0189745023
 20
7.9108334608
 10
9.041055178
 20
7.9222916116
 10
9.0639886891
 20
7.9321758031
 10
9.0877353336
 20
7.9404689238
 10
9.1122540016
 20
7.9471566169
 10
9.1375022469
 20
7.9522273048
 10
9.16343636
 20
7.955672209
 10
9.1900114442
 20
7.957485366
 10
9.2171814932
 20
7.9576636367
 10
9.2448994707
 20
7.9562067126
 10
9.2731173917
 20
7.9531171158
 10
9.3017864058
 20
7.948400195
 10
9.3308568816
 20
7.9420641161
 10
9.360278493
 20
7.934119848
 10
9.3900003055
 20
7.9245811437
 10
9.4199708654
 20
7.9134645164
 10
9.4501382881
 20
7.900789211
 10
9.4804503481
 20
7.8865771709
 10
9.5108545698
 20
7.8708529997
 10
9.5412983179
 20
7.8536439187
 10
9.5717288886
 20
7.8349797202
 10
9.6020936011
 20
7.8148927153
 10
9.6323398884
 20
7.7934176782
 10
9.6624153886
 20
7.7705917861
 10
9.6922680356
 20
7.746454555
 10
9.7218461489
 20
7.7210477708
 10
9.7510985233
 20
7.6944154173
 10
9.7799745177
 20
7.6666036
 10
9.8084241423
 20
7.6376604662
 10
9.8363981457
 20
7.607636122
 10
9.8638480997
 20
7.5765825448
 10
9.8907264834
 20
7.5445534942
 10
9.9169867654
 20
7.5116044183
 10
9.9425834842
 20
7.477792358
 10
9.9674723273
 20
7.4431758483
 10
9.9916102075
 20
7.4078148167
 10
10.0149553377
 20
7.3717704795
 10
10.0374673032
 20
7.3351052363
 10
10.0591071316
 20
7.2978825612
 10
10.0798373605
 20
7.2601668936
 10
10.0996221019
 20
7.2220235262
 10
10.1184271049
 20
7.1835184922
 10
10.1362198145
 20
7.1447184509
 10
10.1529694283
 20
7.1056905722
 10
10.1686469496
 20
7.0665024207
 10
10.1832252378
 20
7.0272218382
 10
10.1966790552
 20
6.9879168266
 10
10.2089851107
 20
6.9486554301
 10
10.2201221002
 20
6.9095056174
 10
10.2300707437
 20
6.870535164
 10
10.2388138182
 20
6.831811535
 10
10.2463361877
 20
6.793401768
 10
10.2526248298
 20
6.7553723575
 10
10.2576688576
 20
6.7177891393
 10
10.2614595389
 20
6.6807171769
 10
10.2639903115
 20
6.6442206487
 10
10.2652567941
 20
6.6083627368
 10
10.2652567941
 20
6.573205518
 10
10.2639903115
 20
6.5388098557
 10
10.2614595389
 20
6.5052352953
 10
10.2576688576
 20
6.4725399604
 10
10.2526248298
 20
6.4407804528
 10
10.2463361877
 20
6.4100117538
 10
10.2388138182
 20
6.3802871299
 10
10.2300707437
 20
6.3516580398
 10
10.2201221002
 20
6.3241740457
 10
10.2089851107
 20
6.2978827274
 10
10.1966790552
 20
6.2728296002
 10
10.1832252378
 20
6.2490580354
 10
10.1686469496
 20
6.2266091862
 10
10.1529694283
 20
6.2055219155
 10
10.1362198145
 20
6.1858327293
 10
10.1184271049
 20
6.1675757132
 10
10.0996221019
 20
6.1507824735
 10
10.0798373605
 20
6.1354820823
 10
10.0591071316
 20
6.1217010274
 10
10.0374673032
 20
6.1094631665
 10
10.0149553377
 20
6.0987896853
 10
9.9916102075
 20
6.0896990618
 10
9.9674723273
 20
6.0822070335
 10
9.9425834842
 20
6.0763265703
 10
9.9169867654
 20
6.0720678526
 10
9.8907264834
 20
6.0694382529
 10
9.8638480997
 20
6.0684423235
 10
9.8363981457
 20
6.0690817886
 10
9.8084241423
 20
6.0713555412
 10
9.7799745177
 20
6.0752596449
 10
9.7510985233
 20
6.080787341
 10
9.7218461489
 20
6.0879290601
 10
9.6922680356
 20
6.0966724386
 10
9.6624153886
 20
6.10700234
 10
9.6323398884
 20
6.1189008815
 10
9.6020936011
 20
6.1323474643
 10
9.5717288886
 20
6.1473188101
 10
9.5412983179
 20
6.1637890007
 10
9.5108545698
 20
6.1817295231
 10
9.4804503481
 20
6.2011093191
 10
9.4501382881
 20
6.2218948386
 10
9.4199708654
 20
6.244050098
 10
9.3900003055
 20
6.2675367426
 10
9.360278493
 20
6.2923141126
 10
9.3308568816
 20
6.3183393139
 10
9.3017864058
 20
6.345567292
 10
9.2731173917
 20
6.3739509103
 10
9.2448994707
 20
6.4034410316
 10
9.2171814932
 20
6.4339866031
 10
9.1900114442
 20
6.4655347447
 10
9.16343636
 20
6.4980308408
 10
9.1375022469
 20
6.5314186347
 10
9.1122540016
 20
6.565640326
 10
9.0877353336
 20
6.6006366706
 10
9.0639886891
 20
6.6363470835
 10
9.041055178
 20
6.6727097433
 10
9.0189745023
 20
6.7096616997
 10
8.9977848878
 20
6.7471389819
 10
8.9775230175
 20
6.7850767099
 10
8.9582239686
 20
6.8234092066
 10
8.9399211512
 20
6.8620701113
 10
8.9226462508
 20
6.900992495
 10
8.9064291735
 20
6.9401089757
 10
8.891297994
 20
6.9793518357
 10
8.8772789072
 20
7.0186531384
 10
8.8643961827
 20
7.0579448461
 10
8.8526721229
 20
7.0971589374
 10
8.8421270242
 20
7.1362275257
 10
8.8327791421
 20
7.1750829761
 10
8.8246446596
 20
7.2136580225
 10
8.817737659
 20
7.2518858846
 10
8.8120700975
 20
7.2897003828
 10
8.8076517867
 20
7.3270360534
 10
8.8044903755
 20
7.3638282613
 10
8.802591337
 20
7.4000133126
 10
8.8019579586
 20
7.4355285642
  0
LWPOLYLINE
  5
155
330
1F
100
AcDbEntity
  8
0
  6
Continuous
 62
     7
370
     0
100
AcDbPolyline
 90
      151
 70
   128
 43
0.0
 10
8.8212764752
 20
7.4325403031
 10
8.8219075824
 20
7.3973844117
 10
8.8237997968
 20
7.3615615348
 10
8.8269497989
 20
7.325134518
 10
8.8313520625
 20
7.2881672664
 10
8.8369988645
 20
7.2507246334
 10
8.8438802985
 20
7.212872306
 10
8.8519842922
 20
7.17467669
 10
8.8612966283
 20
7.1362047936
 10
8.8718009698
 20
7.0975241094
 10
8.8834788887
 20
7.0587024966
 10
8.8963098978
 20
7.0198080615
 10
8.9102714872
 20
6.9809090381
 10
8.9253391636
 20
6.9420736686
 10
8.941486493
 20
6.9033700833
 10
8.9586851477
 20
6.8648661815
 10
8.9769049552
 20
6.8266295121
 10
8.9961139519
 20
6.7887271553
 10
9.0162784387
 20
6.7512256047
 10
9.0373630403
 20
6.7141906506
 10
9.0593307669
 20
6.6776872651
 10
9.0821430799
 20
6.6417794874
 10
9.1057599587
 20
6.6065303121
 10
9.1301399711
 20
6.572001578
 10
9.1552403464
 20
6.5382538605
 10
9.1810170501
 20
6.5053463643
 10
9.2074248609
 20
6.4733368205
 10
9.2344174507
 20
6.4422813847
 10
9.2619474653
 20
6.4122345387
 10
9.2899666076
 20
6.3832489948
 10
9.3184257226
 20
6.3553756035
 10
9.3472748833
 20
6.3286632642
 10
9.3764634784
 20
6.3031588395
 10
9.4059403013
 20
6.2789070728
 10
9.4356536397
 20
6.2559505099
 10
9.4655513661
 20
6.2343294245
 10
9.4955810298
 20
6.2140817472
 10
9.5256899487
 20
6.1952429993
 10
9.5558253014
 20
6.1778462305
 10
9.5859342202
 20
6.1619219606
 10
9.615963884
 20
6.1474981261
 10
9.6458616104
 20
6.1346000314
 10
9.6755749487
 20
6.1232503041
 10
9.7050517716
 20
6.1134688555
 10
9.7342403668
 20
6.1052728456
 10
9.7630895275
 20
6.0986766529
 10
9.7915486424
 20
6.0936918494
 10
9.8195677847
 20
6.0903271802
 10
9.8470977993
 20
6.0885885481
 10
9.8740903891
 20
6.0884790031
 10
9.9004981999
 20
6.0899987374
 10
9.9262749036
 20
6.093145085
 10
9.9513752789
 20
6.0979125261
 10
9.9757552914
 20
6.1042926969
 10
9.9993721701
 20
6.1122744045
 10
10.0221844831
 20
6.1218436462
 10
10.0441522098
 20
6.1329836344
 10
10.0652368113
 20
6.1456748257
 10
10.0854012981
 20
6.1598949555
 10
10.1046102948
 20
6.1756190767
 10
10.1228301024
 20
6.192819604
 10
10.140028757
 20
6.2114663618
 10
10.1561760865
 20
6.2315266374
 10
10.1712437628
 20
6.2529652382
 10
10.1852053522
 20
6.2757445535
 10
10.1980363613
 20
6.2998246209
 10
10.2097142802
 20
6.3251631955
 10
10.2202186218
 20
6.351715825
 10
10.2295309579
 20
6.3794359271
 10
10.2376349515
 20
6.4082748712
 10
10.2445163855
 20
6.438182064
 10
10.2501631875
 20
6.4691050382
 10
10.2545654511
 20
6.5009895444
 10
10.2577154532
 20
6.5337796462
 10
10.2596076677
 20
6.5674178188
 10
10.2602387749
 20
6.6018450493
 10
10.2596076677
 20
6.6370009407
 10
10.2577154532
 20
6.6728238176
 10
10.2545654511
 20
6.7092508345
 10
10.2501631875
 20
6.746218086
 10
10.2445163855
 20
6.783660719
 10
10.2376349515
 20
6.8215130464
 10
10.2295309579
 20
6.8597086624
 10
10.2202186218
 20
6.8981805588
 10
10.2097142802
 20
6.936861243
 10
10.1980363613
 20
6.9756828558
 10
10.1852053522
 20
7.0145772909
 10
10.1712437628
 20
7.0534763143
 10
10.1561760865
 20
7.0923116838
 10
10.140028757
 20
7.1310152691
 10
10.1228301024
 20
7.1695191709
 10
10.1046102948
 20
7.2077558403
 10
10.0854012981
 20
7.2456581971
 10
10.0652368113
 20
7.2831597477
 10
10.0441522098
 20
7.3201947018
 10
10.0221844831
 20
7.3566980873
 10
9.9993721701
 20
7.392605865
 10
9.9757552914
 20
7.4278550403
 10
9.9513752789
 20
7.4623837744
 10
9.9262749036
 20
7.4961314919
 10
9.9004981999
 20
7.5290389881
 10
9.8740903891
 20
7.5610485319
 10
9.8470977993
 20
7.5921039677
 10
9.8195677847
 20
7.6221508137
 10
9.7915486424
 20
7.6511363577
 10
9.7630895275
 20
7.6790097489
 10
9.7342403668
 20
7.7057220882
 10
9.7050517716
 20
7.7312265129
 10
9.6755749487
 20
7.7554782796
 10
9.6458616104
 20
7.7784348425
 10
9.615963884
 20
7.800055928
 10
9.5859342202
 20
7.8203036053
 10
9.5558253014
 20
7.8391423531
 10
9.5256899487
 20
7.8565391219
 10
9.4955810298
 20
7.8724633918
 10
9.4655513661
 20
7.8868872263
 10
9.4356536397
 20
7.899785321
 10
9.4059403013
 20
7.9111350483
 10
9.3764634784
 20
7.9209164969
 10
9.3472748833
 20
7.9291125068
 10
9.3184257226
 20
7.9357086995
 10
9.2899666076
 20
7.940693503
 10
9.2619474653
 20
7.9440581722
 10
9.2344174507
 20
7.9457968044
 10
9.2074248609
 20
7.9459063493
 10
9.1810170501
 20
7.944386615
 10
9.1552403464
 20
7.9412402674
 10
9.1301399711
 20
7.9364728263
 10
9.1057599587
 20
7.9300926555
 10
9.0821430799
 20
7.9221109479
 10
9.0593307669
 20
7.9125417062
 10
9.0373630403
 20
7.901401718
 10
9.0162784387
 20
7.8887105267
 10
8.9961139519
 20
7.874490397
 10
8.9769049552
 20
7.8587662757
 10
8.9586851477
 20
7.8415657484
 10
8.941486493
 20
7.8229189906
 10
8.9253391636
 20
7.802858715
 10
8.9102714872
 20
7.7814201143
 10
8.8963098978
 20
7.7586407989
 10
8.8834788887
 20
7.7345607316
 10
8.8718009698
 20
7.7092221569
 10
8.8612966283
 20
7.6826695274
 10
8.8519842922
 20
7.6549494253
 10
8.8438802985
 20
7.6261104812
 10
8.8369988645
 20
7.5962032884
 10
8.8313520625
 20
7.5652803142
 10
8.8269497989
 20
7.533395808
 10
8.8237997968
 20
7.5006057062
 10
8.8219075824
 20
7.4669675336
 10
8.8212764752
 20
7.4325403031
  0
ARC
  5
156
330
1F
100
AcDbEntity
  8
0
  6
Continuous
 62
     7
370
     0
100
AcDbCircle
 10
8.9086311512
 20
6.6522738304
 30
0.0
 40
1.673259357196369
100
AcDbArc
 50
2.5722330061
 51
57.4223904612
  0
LWPOLYLINE
  5
157
330
1F
100
AcDbEntity
  8
0
  6
Continuous
 62
     7
370
     0
100
AcDbPolyline
 90
       47
 70
   128
 43
0.0
 10
10.6067210977
 20
6.8018650367
 10
10.6060899904
 20
6.8370209281
 10
10.604197776
 20
6.872843805
 10
10.6010477739
 20
6.9092708219
 10
10.5966455103
 20
6.9462380734
 10
10.5909987083
 20
6.9836807064
 10
10.5841172743
 20
7.0215330338
 10
10.5760132807
 20
7.0597286498
 10
10.5667009446
 20
7.0982005462
 10
10.556196603
 20
7.1368812304
 10
10.5445186841
 20
7.1757028432
 10
10.531687675
 20
7.2145972783
 10
10.5177260856
 20
7.2534963017
 10
10.5026584092
 20
7.2923316712
 10
10.4865110798
 20
7.3310352565
 10
10.4693124252
 20
7.3695391583
 10
10.4510926176
 20
7.4077758277
 10
10.4318836209
 20
7.4456781845
 10
10.4117191341
 20
7.4831797351
 10
10.3906345325
 20
7.5202146892
 10
10.3686668059
 20
7.5567180747
 10
10.3458544929
 20
7.5926258524
 10
10.3222376142
 20
7.6278750277
 10
10.2978576017
 20
7.6624037618
 10
10.2727572264
 20
7.6961514793
 10
10.2469805227
 20
7.7290589755
 10
10.2205727119
 20
7.7610685193
 10
10.1935801221
 20
7.7921239551
 10
10.1660501075
 20
7.8221708011
 10
10.1380309652
 20
7.8511563451
 10
10.1095718502
 20
7.8790297363
 10
10.0807226896
 20
7.9057420756
 10
10.0515340944
 20
7.9312465003
 10
10.0220572715
 20
7.955498267
 10
9.9923439332
 20
7.9784548299
 10
9.9624462067
 20
8.0000759154
 10
9.932416543
 20
8.0203235927
 10
9.9023076241
 20
8.0391623405
 10
9.8721722715
 20
8.0565591093
 10
9.8420633526
 20
8.0724833792
 10
9.8120336889
 20
8.0869072137
 10
9.7821359624
 20
8.0998053084
 10
9.7524226241
 20
8.1111550357
 10
9.7229458012
 20
8.1209364843
 10
9.693757206
 20
8.1291324942
 10
9.6649080454
 20
8.1357286869
 10
9.6411285641
 20
8.1400003875
  0
ARC
  5
158
330
1F
100
AcDbEntity
  8
0
  6
Continuous
 62
     7
370
     0
100
AcDbCircle
 10
9.8862223322
 20
6.789335739
 30
0.0
 40
0.7206076979278314
100
AcDbArc
 50
339.9782748456
 51
0.9962592106
  0
ARC
  5
159
330
1F
100
AcDbEntity
  8
0
  6
Continuous
 62
     7
370
     0
100
AcDbCircle
 10
12.6298974936
 20
4.3100409598
 30
0.0
 40
5.433070866141732
100
AcDbArc
 50
169.4020044665
 51
179.9061815356
  0
LINE
  5
15A
330
1F
100
AcDbEntity
  8
0
  6
Continuous
 62
     7
370
     0
100
AcDbLine
 10
7.3011646197
 20
5.3189372894
 30
0.0
 11
7.2895051238
 21
5.3092748531
 31
0.0
  0
LINE
  5
15B
330
1F
100
AcDbEntity
  8
0
  6
Continuous
 62
     7
370
     0
100
AcDbLine
 10
7.3011646197
 20
5.3189372894
 30
0.0
 11
7.3995898165
 21
5.3189372894
 31
0.0
  0
LINE
  5
15C
330
1F
100
AcDbEntity
  8
0
  6
Continuous
 62
     7
370
     0
100
AcDbLine
 10
7.4094323362
 20
5.3090947697
 30
0.0
 11
7.3995898165
 21
5.3189372894
 31
0.0
  0
LINE
  5
15D
330
1F
100
AcDbEntity
  8
0
  6
Continuous
 62
     7
370
     0
100
AcDbLine
 10
7.4094323362
 20
5.3090947697
 30
0.0
 11
7.4094323362
 21
3.3287798091
 31
0.0
  0
LINE
  5
15E
330
1F
100
AcDbEntity
  8
0
  6
Continuous
 62
     7
370
     0
100
AcDbLine
 10
7.3995898165
 20
3.3189372894
 30
0.0
 11
7.4094323362
 21
3.3287798091
 31
0.0
  0
LINE
  5
15F
330
1F
100
AcDbEntity
  8
0
  6
Continuous
 62
     7
370
     0
100
AcDbLine
 10
7.3995898165
 20
3.3189372894
 30
0.0
 11
7.3011646197
 21
3.3189372894
 31
0.0
  0
LINE
  5
160
330
1F
100
AcDbEntity
  8
0
  6
Continuous
 62
     7
370
     0
100
AcDbLine
 10
7.2895051238
 20
3.3285997258
 30
0.0
 11
7.3011646197
 21
3.3189372894
 31
0.0
  0
ARC
  5
161
330
1F
100
AcDbEntity
  8
0
  6
Continuous
 62
     7
370
     0
100
AcDbCircle
 10
12.6298974936
 20
4.327833619
 30
0.0
 40
5.433070866141732
100
AcDbArc
 50
180.0938184644
 51
190.5979955335
  0
LINE
  5
162
330
1F
100
AcDbEntity
  8
0
  6
Continuous
 62
     7
370
     0
100
AcDbLine
 10
7.2852497295
 20
5.3264372894
 30
0.0
 11
7.2679292214
 21
5.3364372894
 31
0.0
  0
LINE
  5
163
330
1F
100
AcDbEntity
  8
0
  6
Continuous
 62
     7
370
     0
100
AcDbLine
 10
7.2679292214
 20
3.3014372894
 30
0.0
 11
7.2852497295
 21
3.3114372894
 31
0.0
  0
LINE
  5
164
330
1F
100
AcDbEntity
  8
0
  6
Continuous
 62
     7
370
     0
100
AcDbLine
 10
7.2852497295
 20
3.3516167813
 30
0.0
 11
7.2752497295
 21
3.3689372894
 31
0.0
  0
LINE
  5
165
330
1F
100
AcDbEntity
  8
0
  6
Continuous
 62
     7
370
     0
100
AcDbLine
 10
7.2752497295
 20
3.3689372894
 30
0.0
 11
7.2752497295
 21
3.4080475793
 31
0.0
  0
LINE
  5
166
330
1F
100
AcDbEntity
  8
0
  6
Continuous
 62
     7
370
     0
100
AcDbLine
 10
7.2752497295
 20
5.2298269996
 30
0.0
 11
7.2752497295
 21
5.2689372894
 31
0.0
  0
LINE
  5
167
330
1F
100
AcDbEntity
  8
0
  6
Continuous
 62
     7
370
     0
100
AcDbLine
 10
7.2752497295
 20
5.2689372894
 30
0.0
 11
7.2852497295
 21
5.2862577975
 31
0.0
  0
LINE
  5
168
330
1F
100
AcDbEntity
  8
0
  6
Continuous
 62
     7
370
     0
100
AcDbLine
 10
7.2679292214
 20
3.3014372894
 30
0.0
 11
7.1952497295
 21
3.3014372894
 31
0.0
  0
LINE
  5
169
330
1F
100
AcDbEntity
  8
0
  6
Continuous
 62
     7
370
     0
100
AcDbLine
 10
7.1852497295
 20
3.3187577975
 30
0.0
 11
7.1952497295
 21
3.3014372894
 31
0.0
  0
LINE
  5
16A
330
1F
100
AcDbEntity
  8
0
  6
Continuous
 62
     7
370
     0
100
AcDbLine
 10
7.1852497295
 20
3.3187577975
 30
0.0
 11
7.1852497295
 21
3.3589372894
 31
0.0
  0
LINE
  5
16B
330
1F
100
AcDbEntity
  8
0
  6
Continuous
 62
     7
370
     0
100
AcDbLine
 10
7.2025702375
 20
3.3689372894
 30
0.0
 11
7.1852497295
 21
3.3589372894
 31
0.0
  0
LINE
  5
16C
330
1F
100
AcDbEntity
  8
0
  6
Continuous
 62
     7
370
     0
100
AcDbLine
 10
7.2025702375
 20
3.3689372894
 30
0.0
 11
7.2752497295
 21
3.3689372894
 31
0.0
  0
LINE
  5
16D
330
1F
100
AcDbEntity
  8
0
  6
Continuous
 62
     7
370
     0
100
AcDbLine
 10
7.2852497295
 20
3.3516167813
 30
0.0
 11
7.2852497295
 21
3.3114372894
 31
0.0
  0
LINE
  5
16E
330
1F
100
AcDbEntity
  8
0
  6
Continuous
 62
     7
370
     0
100
AcDbLine
 10
7.2025702375
 20
5.2689372894
 30
0.0
 11
7.2025702375
 21
4.5597966253
 31
0.0
  0
LINE
  5
16F
330
1F
100
AcDbEntity
  8
0
  6
Continuous
 62
     7
370
     0
100
AcDbLine
 10
7.2752497295
 20
5.2689372894
 30
0.0
 11
7.2025702375
 21
5.2689372894
 31
0.0
  0
LINE
  5
170
330
1F
100
AcDbEntity
  8
0
  6
Continuous
 62
     7
370
     0
100
AcDbLine
 10
7.2025702375
 20
4.0780779535
 30
0.0
 11
7.2025702375
 21
3.3689372894
 31
0.0
  0
LINE
  5
171
330
1F
100
AcDbEntity
  8
0
  6
Continuous
 62
     7
370
     0
100
AcDbLine
 10
7.1952497295
 20
5.3364372894
 30
0.0
 11
7.2679292214
 21
5.3364372894
 31
0.0
  0
LINE
  5
172
330
1F
100
AcDbEntity
  8
0
  6
Continuous
 62
     7
370
     0
100
AcDbLine
 10
7.1852497295
 20
5.2789372894
 30
0.0
 11
7.2025702375
 21
5.2689372894
 31
0.0
  0
LINE
  5
173
330
1F
100
AcDbEntity
  8
0
  6
Continuous
 62
     7
370
     0
100
AcDbLine
 10
7.1852497295
 20
5.2789372894
 30
0.0
 11
7.1852497295
 21
5.3191167813
 31
0.0
  0
LINE
  5
174
330
1F
100
AcDbEntity
  8
0
  6
Continuous
 62
     7
370
     0
100
AcDbLine
 10
7.1952497295
 20
5.3364372894
 30
0.0
 11
7.1852497295
 21
5.3191167813
 31
0.0
  0
LINE
  5
175
330
1F
100
AcDbEntity
  8
0
  6
Continuous
 62
     7
370
     0
100
AcDbLine
 10
7.2852497295
 20
5.3264372894
 30
0.0
 11
7.2852497295
 21
5.2862577975
 31
0.0
  0
LINE
  5
176
330
1F
100
AcDbEntity
  8
0
  6
Continuous
 62
     7
370
     0
100
AcDbLine
 10
7.1852497295
 20
3.3589372894
 30
0.0
 11
7.1852497295
 21
4.3039372894
 31
0.0
  0
LINE
  5
177
330
1F
100
AcDbEntity
  8
0
  6
Continuous
 62
     7
370
     0
100
AcDbLine
 10
7.1852497295
 20
4.3039372894
 30
0.0
 11
7.1968910602
 21
4.3039372894
 31
0.0
  0
LINE
  5
178
330
1F
100
AcDbEntity
  8
0
  6
Continuous
 62
     7
370
     0
100
AcDbLine
 10
7.1970822297
 20
4.3339372894
 30
0.0
 11
7.1852497295
 21
4.3339372894
 31
0.0
  0
LINE
  5
179
330
1F
100
AcDbEntity
  8
0
  6
Continuous
 62
     7
370
     0
100
AcDbLine
 10
7.1852497295
 20
4.3339372894
 30
0.0
 11
7.1852497295
 21
5.2789372894
 31
0.0
  0
LINE
  5
17A
330
1F
100
AcDbEntity
  8
0
  6
Continuous
 62
     7
370
     0
100
AcDbLine
 10
7.0594323362
 20
3.3014372894
 30
0.0
 11
7.0494323362
 21
3.2841167813
 31
0.0
  0
LINE
  5
17B
330
1F
100
AcDbEntity
  8
0
  6
Continuous
 62
     7
370
     0
100
AcDbLine
 10
7.0594323362
 20
3.3014372894
 30
0.0
 11
7.3994323362
 21
3.3014372894
 31
0.0
  0
LINE
  5
17C
330
1F
100
AcDbEntity
  8
0
  6
Continuous
 62
     7
370
     0
100
AcDbLine
 10
7.3994323362
 20
3.3014372894
 30
0.0
 11
7.3994323362
 21
3.2914372894
 31
0.0
  0
LINE
  5
17D
330
1F
100
AcDbEntity
  8
0
  6
Continuous
 62
     7
370
     0
100
AcDbLine
 10
7.3994323362
 20
3.2914372894
 30
0.0
 11
7.4094323362
 21
3.2914372894
 31
0.0
  0
LINE
  5
17E
330
1F
100
AcDbEntity
  8
0
  6
Continuous
 62
     7
370
     0
100
AcDbLine
 10
7.4094323362
 20
3.2914372894
 30
0.0
 11
7.4094323362
 21
3.3689372894
 31
0.0
  0
LINE
  5
17F
330
1F
100
AcDbEntity
  8
0
  6
Continuous
 62
     7
370
     0
100
AcDbLine
 10
7.4094323362
 20
3.3689372894
 30
0.0
 11
7.5594323362
 21
3.3689372894
 31
0.0
  0
LINE
  5
180
330
1F
100
AcDbEntity
  8
0
  6
Continuous
 62
     7
370
     0
100
AcDbLine
 10
7.5594323362
 20
3.3689372894
 30
0.0
 11
7.5594323362
 21
3.3187577975
 31
0.0
  0
LINE
  5
181
330
1F
100
AcDbEntity
  8
0
  6
Continuous
 62
     7
370
     0
100
AcDbLine
 10
7.5494323362
 20
3.3014372894
 30
0.0
 11
7.5594323362
 21
3.3187577975
 31
0.0
  0
LINE
  5
182
330
1F
100
AcDbEntity
  8
0
  6
Continuous
 62
     7
370
     0
100
AcDbLine
 10
7.5494323362
 20
3.3014372894
 30
0.0
 11
7.4494323362
 21
3.3014372894
 31
0.0
  0
LINE
  5
183
330
1F
100
AcDbEntity
  8
0
  6
Continuous
 62
     7
370
     0
100
AcDbLine
 10
7.4494323362
 20
3.3014372894
 30
0.0
 11
7.4494323362
 21
3.3114372894
 31
0.0
  0
LINE
  5
184
330
1F
100
AcDbEntity
  8
0
  6
Continuous
 62
     7
370
     0
100
AcDbLine
 10
7.4494323362
 20
3.3114372894
 30
0.0
 11
7.4394323362
 21
3.3114372894
 31
0.0
  0
LINE
  5
185
330
1F
100
AcDbEntity
  8
0
  6
Continuous
 62
     7
370
     0
100
AcDbLine
 10
7.4394323362
 20
3.3114372894
 30
0.0
 11
7.4394323362
 21
3.2289372894
 31
0.0
  0
LINE
  5
186
330
1F
100
AcDbEntity
  8
0
  6
Continuous
 62
     7
370
     0
100
AcDbLine
 10
7.4294323362
 20
3.2189372894
 30
0.0
 11
7.4394323362
 21
3.2289372894
 31
0.0
  0
LINE
  5
187
330
1F
100
AcDbEntity
  8
0
  6
Continuous
 62
     7
370
     0
100
AcDbLine
 10
7.4294323362
 20
3.2189372894
 30
0.0
 11
7.2844323362
 21
3.2189372894
 31
0.0
  0
LINE
  5
188
330
1F
100
AcDbEntity
  8
0
  6
Continuous
 62
     7
370
     0
100
AcDbLine
 10
7.2844323362
 20
3.2189372894
 30
0.0
 11
7.263912902
 21
3.2189372894
 31
0.0
  0
LINE
  5
189
330
1F
100
AcDbEntity
  8
0
  6
Continuous
 62
     7
370
     0
100
AcDbLine
 10
7.263912902
 20
3.2189372894
 30
0.0
 11
7.2406462155
 21
3.2189372894
 31
0.0
  0
LINE
  5
18A
330
1F
100
AcDbEntity
  8
0
  6
Continuous
 62
     7
370
     0
100
AcDbLine
 10
7.2406462155
 20
3.2189372894
 30
0.0
 11
7.2106344835
 21
3.2189372894
 31
0.0
  0
LINE
  5
18B
330
1F
100
AcDbEntity
  8
0
  6
Continuous
 62
     7
370
     0
100
AcDbLine
 10
7.2106344835
 20
3.2189372894
 30
0.0
 11
7.0594323362
 21
3.2189372894
 31
0.0
  0
LINE
  5
18C
330
1F
100
AcDbEntity
  8
0
  6
Continuous
 62
     7
370
     0
100
AcDbLine
 10
7.0494323362
 20
3.2289372894
 30
0.0
 11
7.0594323362
 21
3.2189372894
 31
0.0
  0
LINE
  5
18D
330
1F
100
AcDbEntity
  8
0
  6
Continuous
 62
     7
370
     0
100
AcDbLine
 10
7.0494323362
 20
3.2289372894
 30
0.0
 11
7.0494323362
 21
3.2841167813
 31
0.0
  0
LINE
  5
18E
330
1F
100
AcDbEntity
  8
0
  6
Continuous
 62
     7
370
     0
100
AcDbLine
 10
7.2044323362
 20
5.4189372894
 30
0.0
 11
7.2136631055
 21
5.4189372894
 31
0.0
  0
LINE
  5
18F
330
1F
100
AcDbEntity
  8
0
  6
Continuous
 62
     7
370
     0
100
AcDbLine
 10
7.2136631055
 20
5.4189372894
 30
0.0
 11
7.2382784901
 21
5.4189372894
 31
0.0
  0
LINE
  5
190
330
1F
100
AcDbEntity
  8
0
  6
Continuous
 62
     7
370
     0
100
AcDbLine
 10
7.2382784901
 20
5.4189372894
 30
0.0
 11
7.2475092593
 21
5.4189372894
 31
0.0
  0
LINE
  5
191
330
1F
100
AcDbEntity
  8
0
  6
Continuous
 62
     7
370
     0
100
AcDbLine
 10
7.2475092593
 20
5.4189372894
 30
0.0
 11
7.275201567
 21
5.4189372894
 31
0.0
  0
LINE
  5
192
330
1F
100
AcDbEntity
  8
0
  6
Continuous
 62
     7
370
     0
100
AcDbLine
 10
7.275201567
 20
5.4189372894
 30
0.0
 11
7.2844323362
 21
5.4189372894
 31
0.0
  0
LINE
  5
193
330
1F
100
AcDbEntity
  8
0
  6
Continuous
 62
     7
370
     0
100
AcDbLine
 10
7.2844323362
 20
5.4189372894
 30
0.0
 11
7.3393711815
 21
5.4189372894
 31
0.0
  0
LINE
  5
194
330
1F
100
AcDbEntity
  8
0
  6
Continuous
 62
     7
370
     0
100
AcDbLine
 10
7.3393711815
 20
5.4189372894
 30
0.0
 11
7.3606739214
 21
5.4189372894
 31
0.0
  0
LINE
  5
195
330
1F
100
AcDbEntity
  8
0
  6
Continuous
 62
     7
370
     0
100
AcDbLine
 10
7.3606739214
 20
5.4189372894
 30
0.0
 11
7.4294323362
 21
5.4189372894
 31
0.0
  0
LINE
  5
196
330
1F
100
AcDbEntity
  8
0
  6
Continuous
 62
     7
370
     0
100
AcDbLine
 10
7.4394323362
 20
5.4089372894
 30
0.0
 11
7.4294323362
 21
5.4189372894
 31
0.0
  0
LINE
  5
197
330
1F
100
AcDbEntity
  8
0
  6
Continuous
 62
     7
370
     0
100
AcDbLine
 10
7.4394323362
 20
5.4089372894
 30
0.0
 11
7.4394323362
 21
5.3264372894
 31
0.0
  0
LINE
  5
198
330
1F
100
AcDbEntity
  8
0
  6
Continuous
 62
     7
370
     0
100
AcDbLine
 10
7.4394323362
 20
5.3264372894
 30
0.0
 11
7.4494323362
 21
5.3264372894
 31
0.0
  0
LINE
  5
199
330
1F
100
AcDbEntity
  8
0
  6
Continuous
 62
     7
370
     0
100
AcDbLine
 10
7.4494323362
 20
5.3264372894
 30
0.0
 11
7.4494323362
 21
5.3364372894
 31
0.0
  0
LINE
  5
19A
330
1F
100
AcDbEntity
  8
0
  6
Continuous
 62
     7
370
     0
100
AcDbLine
 10
7.4494323362
 20
5.3364372894
 30
0.0
 11
7.5494323362
 21
5.3364372894
 31
0.0
  0
LINE
  5
19B
330
1F
100
AcDbEntity
  8
0
  6
Continuous
 62
     7
370
     0
100
AcDbLine
 10
7.5594323362
 20
5.3191167813
 30
0.0
 11
7.5494323362
 21
5.3364372894
 31
0.0
  0
LINE
  5
19C
330
1F
100
AcDbEntity
  8
0
  6
Continuous
 62
     7
370
     0
100
AcDbLine
 10
7.5594323362
 20
5.3191167813
 30
0.0
 11
7.5594323362
 21
5.2689372894
 31
0.0
  0
LINE
  5
19D
330
1F
100
AcDbEntity
  8
0
  6
Continuous
 62
     7
370
     0
100
AcDbLine
 10
7.5594323362
 20
5.2689372894
 30
0.0
 11
7.4094323362
 21
5.2689372894
 31
0.0
  0
LINE
  5
19E
330
1F
100
AcDbEntity
  8
0
  6
Continuous
 62
     7
370
     0
100
AcDbLine
 10
7.4094323362
 20
5.2689372894
 30
0.0
 11
7.4094323362
 21
5.3464372894
 31
0.0
  0
LINE
  5
19F
330
1F
100
AcDbEntity
  8
0
  6
Continuous
 62
     7
370
     0
100
AcDbLine
 10
7.4094323362
 20
5.3464372894
 30
0.0
 11
7.3994323362
 21
5.3464372894
 31
0.0
  0
LINE
  5
1A0
330
1F
100
AcDbEntity
  8
0
  6
Continuous
 62
     7
370
     0
100
AcDbLine
 10
7.3994323362
 20
5.3464372894
 30
0.0
 11
7.3994323362
 21
5.3364372894
 31
0.0
  0
LINE
  5
1A1
330
1F
100
AcDbEntity
  8
0
  6
Continuous
 62
     7
370
     0
100
AcDbLine
 10
7.3994323362
 20
5.3364372894
 30
0.0
 11
7.0594323362
 21
5.3364372894
 31
0.0
  0
LINE
  5
1A2
330
1F
100
AcDbEntity
  8
0
  6
Continuous
 62
     7
370
     0
100
AcDbLine
 10
7.0494323362
 20
5.3537577975
 30
0.0
 11
7.0594323362
 21
5.3364372894
 31
0.0
  0
LINE
  5
1A3
330
1F
100
AcDbEntity
  8
0
  6
Continuous
 62
     7
370
     0
100
AcDbLine
 10
7.0494323362
 20
5.3537577975
 30
0.0
 11
7.0494323362
 21
5.4089372894
 31
0.0
  0
LINE
  5
1A4
330
1F
100
AcDbEntity
  8
0
  6
Continuous
 62
     7
370
     0
100
AcDbLine
 10
7.0594323362
 20
5.4189372894
 30
0.0
 11
7.0494323362
 21
5.4089372894
 31
0.0
  0
LINE
  5
1A5
330
1F
100
AcDbEntity
  8
0
  6
Continuous
 62
     7
370
     0
100
AcDbLine
 10
7.0594323362
 20
5.4189372894
 30
0.0
 11
7.2044323362
 21
5.4189372894
 31
0.0
  0
LINE
  5
1A6
330
1F
100
AcDbEntity
  8
0
  6
Continuous
 62
     7
370
     0
100
AcDbLine
 10
7.5594323362
 20
3.3689372894
 30
0.0
 11
7.5594323362
 21
5.2689372894
 31
0.0
  0
LINE
  5
1A7
330
1F
100
AcDbEntity
  8
0
  6
Continuous
 62
     7
370
     0
100
AcDbLine
 10
7.0594323362
 20
5.3364372894
 30
0.0
 11
7.0594323362
 21
3.3014372894
 31
0.0
  0
LINE
  5
1A8
330
1F
100
AcDbEntity
  8
0
  6
Continuous
 62
     7
370
     0
100
AcDbLine
 10
7.3994323362
 20
3.3014372894
 30
0.0
 11
7.3994323362
 21
3.3189372894
 31
0.0
  0
LINE
  5
1A9
330
1F
100
AcDbEntity
  8
0
  6
Continuous
 62
     7
370
     0
100
AcDbLine
 10
7.3994323362
 20
5.3189372894
 30
0.0
 11
7.3994323362
 21
5.3364372894
 31
0.0
  0
LINE
  5
1AA
330
1F
100
AcDbEntity
  8
0
  6
Continuous
 62
     7
370
     0
100
AcDbLine
 10
7.0494323362
 20
3.2841167813
 30
0.0
 11
7.0494323362
 21
5.3537577975
 31
0.0
  0
HATCH
  5
1AB
330
1F
100
AcDbEntity
  8
0
  6
Continuous
 62
     7
370
     0
100
AcDbHatch
 10
0.0
 20
0.0
 30
0.0
210
0.0
220
0.0
230
1.0
  2
ANSI31
 70
     0
 71
     0
 91
        1
 92
        0
 93
       24
 72
     1
 10
7.204432336226963
 20
5.418937289423173
 11
7.059432336226961
 21
5.418937289423173
 72
     1
 10
7.059432336226961
 20
5.418937289423173
 11
7.049432336226962
 21
5.408937289423173
 72
     1
 10
7.049432336226962
 20
5.408937289423173
 11
7.049432336226962
 21
5.353757797498861
 72
     1
 10
7.049432336226962
 20
5.353757797498861
 11
7.059432336226962
 21
5.336437289423173
 72
     1
 10
7.059432336226962
 20
5.336437289423173
 11
7.399432336226963
 21
5.336437289423173
 72
     1
 10
7.399432336226963
 20
5.336437289423173
 11
7.399432336226963
 21
5.346437289423172
 72
     1
 10
7.399432336226963
 20
5.346437289423172
 11
7.409432336226963
 21
5.346437289423172
 72
     1
 10
7.409432336226963
 20
5.346437289423172
 11
7.409432336226963
 21
5.268937289423173
 72
     1
 10
7.409432336226963
 20
5.268937289423173
 11
7.559432336226963
 21
5.268937289423173
 72
     1
 10
7.559432336226963
 20
5.268937289423173
 11
7.559432336226963
 21
5.319116781347484
 72
     1
 10
7.559432336226963
 20
5.319116781347484
 11
7.549432336226963
 21
5.336437289423173
 72
     1
 10
7.549432336226963
 20
5.336437289423173
 11
7.449432336226963
 21
5.336437289423173
 72
     1
 10
7.449432336226963
 20
5.336437289423173
 11
7.449432336226963
 21
5.326437289423173
 72
     1
 10
7.449432336226963
 20
5.326437289423173
 11
7.439432336226962
 21
5.326437289423173
 72
     1
 10
7.439432336226962
 20
5.326437289423173
 11
7.439432336226962
 21
5.408937289423172
 72
     1
 10
7.439432336226962
 20
5.408937289423172
 11
7.429432336226963
 21
5.418937289423173
 72
     1
 10
7.429432336226963
 20
5.418937289423173
 11
7.360673921425488
 21
5.418937289423173
 72
     1
 10
7.360673921425488
 20
5.418937289423173
 11
7.339371181523251
 21
5.418937289423173
 72
     1
 10
7.339371181523251
 20
5.418937289423173
 11
7.284432336226963
 21
5.418937289423173
 72
     1
 10
7.284432336226963
 20
5.418937289423173
 11
7.275201566996194
 21
5.418937289423173
 72
     1
 10
7.275201566996194
 20
5.418937289423173
 11
7.247509259303885
 21
5.418937289423173
 72
     1
 10
7.247509259303885
 20
5.418937289423173
 11
7.238278490073117
 21
5.418937289423173
 72
     1
 10
7.238278490073117
 20
5.418937289423173
 11
7.213663105457732
 21
5.418937289423173
 72
     1
 10
7.213663105457732
 20
5.418937289423173
 11
7.204432336226963
 21
5.418937289423173
 97
        0
 75
     0
 76
     1
 52
0.0
 41
1.0
 77
     0
 78
     1
 53
45.0
 43
0.0
 44
0.0
 45
-0.0883883476483184
 46
0.0883883476483184
 79
     0
 98
        1
 10
0.0
 20
0.0
  0
HATCH
  5
1AC
330
1F
100
AcDbEntity
  8
0
  6
Continuous
 62
     7
370
     0
100
AcDbHatch
 10
0.0
 20
0.0
 30
0.0
210
0.0
220
0.0
230
1.0
  2
ANSI31
 70
     0
 71
     0
 91
        1
 92
        0
 93
       20
 72
     1
 10
7.049432336226962
 20
3.284116781347483
 11
7.049432336226962
 21
3.228937289423171
 72
     1
 10
7.049432336226962
 20
3.228937289423171
 11
7.059432336226961
 21
3.218937289423172
 72
     1
 10
7.059432336226961
 20
3.218937289423172
 11
7.210634483451501
 21
3.218937289423172
 72
     1
 10
7.210634483451501
 20
3.218937289423172
 11
7.240646215518941
 21
3.218937289423172
 72
     1
 10
7.240646215518941
 20
3.218937289423172
 11
7.263912901957556
 21
3.218937289423172
 72
     1
 10
7.263912901957556
 20
3.218937289423172
 11
7.284432336226963
 21
3.218937289423172
 72
     1
 10
7.284432336226963
 20
3.218937289423172
 11
7.429432336226963
 21
3.218937289423172
 72
     1
 10
7.429432336226963
 20
3.218937289423172
 11
7.439432336226962
 21
3.228937289423172
 72
     1
 10
7.439432336226962
 20
3.228937289423172
 11
7.439432336226962
 21
3.311437289423172
 72
     1
 10
7.439432336226962
 20
3.311437289423172
 11
7.449432336226963
 21
3.311437289423172
 72
     1
 10
7.449432336226963
 20
3.311437289423172
 11
7.449432336226963
 21
3.301437289423172
 72
     1
 10
7.449432336226963
 20
3.301437289423172
 11
7.549432336226963
 21
3.301437289423172
 72
     1
 10
7.549432336226963
 20
3.301437289423172
 11
7.559432336226963
 21
3.318757797498861
 72
     1
 10
7.559432336226963
 20
3.318757797498861
 11
7.559432336226963
 21
3.368937289423172
 72
     1
 10
7.559432336226963
 20
3.368937289423172
 11
7.409432336226963
 21
3.368937289423172
 72
     1
 10
7.409432336226963
 20
3.368937289423172
 11
7.409432336226963
 21
3.291437289423173
 72
     1
 10
7.409432336226963
 20
3.291437289423173
 11
7.399432336226963
 21
3.291437289423173
 72
     1
 10
7.399432336226963
 20
3.291437289423173
 11
7.399432336226963
 21
3.301437289423172
 72
     1
 10
7.399432336226963
 20
3.301437289423172
 11
7.059432336226962
 21
3.301437289423172
 72
     1
 10
7.059432336226962
 20
3.301437289423172
 11
7.049432336226962
 21
3.284116781347483
 97
        0
 75
     0
 76
     1
 52
0.0
 41
1.0
 77
     0
 78
     1
 53
45.0
 43
0.0
 44
0.0
 45
-0.0883883476483184
 46
0.0883883476483184
 79
     0
 98
        1
 10
0.0
 20
0.0
  0
HATCH
  5
1AD
330
1F
100
AcDbEntity
  8
0
  6
Continuous
 62
     7
370
     0
100
AcDbHatch
 10
0.0
 20
0.0
 30
0.0
210
0.0
220
0.0
230
1.0
  2
ANSI31
 70
     0
 71
     0
 91
        1
 92
        0
 93
        8
 72
     1
 10
7.285249729453141
 20
3.311437289423172
 11
7.285249729453141
 21
3.351616781347483
 72
     1
 10
7.285249729453141
 20
3.351616781347483
 11
7.275249729453142
 21
3.368937289423172
 72
     1
 10
7.275249729453142
 20
3.368937289423172
 11
7.202570237528831
 21
3.368937289423172
 72
     1
 10
7.202570237528831
 20
3.368937289423172
 11
7.18524972945314
 21
3.358937289423171
 72
     1
 10
7.18524972945314
 20
3.358937289423171
 11
7.18524972945314
 21
3.31875779749886
 72
     1
 10
7.18524972945314
 20
3.31875779749886
 11
7.19524972945314
 21
3.301437289423172
 72
     1
 10
7.19524972945314
 20
3.301437289423172
 11
7.26792922137745
 21
3.301437289423172
 72
     1
 10
7.26792922137745
 20
3.301437289423172
 11
7.285249729453141
 21
3.311437289423172
 97
        0
 75
     0
 76
     1
 52
90.0
 41
0.25
 77
     0
 78
     1
 53
135.0000000000002
 43
0.0
 44
0.0
 45
-0.0220970869120795
 46
-0.0220970869120797
 79
     0
 98
        1
 10
0.0
 20
0.0
  0
HATCH
  5
1AE
330
1F
100
AcDbEntity
  8
0
  6
Continuous
 62
     7
370
     0
100
AcDbHatch
 10
0.0
 20
0.0
 30
0.0
210
0.0
220
0.0
230
1.0
  2
ANSI31
 70
     0
 71
     0
 91
        1
 92
        0
 93
        8
 72
     1
 10
7.202570237528832
 20
5.268937289423173
 11
7.275249729453142
 21
5.268937289423173
 72
     1
 10
7.275249729453142
 20
5.268937289423173
 11
7.285249729453142
 21
5.286257797498861
 72
     1
 10
7.285249729453142
 20
5.286257797498861
 11
7.285249729453142
 21
5.326437289423171
 72
     1
 10
7.285249729453142
 20
5.326437289423171
 11
7.267929221377452
 21
5.336437289423172
 72
     1
 10
7.267929221377452
 20
5.336437289423172
 11
7.195249729453142
 21
5.336437289423172
 72
     1
 10
7.195249729453142
 20
5.336437289423172
 11
7.185249729453141
 21
5.319116781347485
 72
     1
 10
7.185249729453141
 20
5.319116781347485
 11
7.185249729453141
 21
5.278937289423173
 72
     1
 10
7.185249729453141
 20
5.278937289423173
 11
7.202570237528832
 21
5.268937289423173
 97
        0
 75
     0
 76
     1
 52
90.0
 41
0.25
 77
     0
 78
     1
 53
135.0000000000002
 43
0.0
 44
0.0
 45
-0.0220970869120795
 46
-0.0220970869120797
 79
     0
 98
        1
 10
0.0
 20
0.0
  0
HATCH
  5
1AF
330
1F
100
AcDbEntity
  8
0
  6
Continuous
 62
     7
370
     0
100
AcDbHatch
 10
0.0
 20
0.0
 30
0.0
210
0.0
220
0.0
230
1.0
  2
ANSI31
 70
     0
 71
     0
 91
        1
 92
        0
 93
        9
 72
     2
 10
12.62989749356236
 20
4.327833619002138
 40
5.433070866141733
 50
180.0938184644328
 51
190.5979955334999
 73
     1
 72
     1
 10
7.289505123790673
 20
3.328599725760693
 11
7.301164619691432
 21
3.31893728942317
 72
     1
 10
7.301164619691432
 20
3.31893728942317
 11
7.399589816541924
 21
3.318937289423169
 72
     1
 10
7.399589816541924
 20
3.318937289423169
 11
7.409432336226963
 21
3.328779809108209
 72
     1
 10
7.409432336226963
 20
3.328779809108209
 11
7.409432336226963
 21
5.309094769738133
 72
     1
 10
7.409432336226963
 20
5.309094769738133
 11
7.399589816541924
 21
5.318937289423172
 72
     1
 10
7.399589816541924
 20
5.318937289423172
 11
7.301164619691431
 21
5.318937289423172
 72
     1
 10
7.301164619691431
 20
5.318937289423172
 11
7.289505123790672
 21
5.30927485308565
 72
     2
 10
12.62989749356236
 20
4.310040959844207
 40
5.433070866141733
 50
169.402004466501
 51
179.9061815355681
 73
     1
 97
        0
 75
     0
 76
     1
 52
0.0
 41
1.0
 77
     0
 78
     1
 53
45.0
 43
0.0
 44
0.0
 45
-0.0883883476483184
 46
0.0883883476483184
 79
     0
 98
        1
 10
0.0
 20
0.0
  0
DIMENSION
  5
1B0
330
1F
100
AcDbEntity
  8
0
  6
Continuous
 62
     7
370
     0
100
AcDbDimension
  2
_D_1
 10
8.4255740685
 20
3.3689372894
 30
0.0
 11
8.4255740685
 21
4.3189372894
 31
0.0
 70
   160
  1
%%c<>
 71
     2
 42
-1.0
  3
SLDDIMSTYLE1
100
AcDbAlignedDimension
 13
7.5594323362
 23
5.2689372894
 33
0.0
 14
7.5594323362
 24
3.3689372894
 34
0.0
 50
90.0
100
AcDbRotatedDimension
  0
DIMENSION
  5
1C4
330
1F
100
AcDbEntity
  8
0
  6
Continuous
 62
     7
370
     0
100
AcDbDimension
  2
_D_2
 10
7.5594323362
 20
5.6764230374
 30
0.0
 11
8.4255740685
 21
5.6764230374
 31
0.0
 70
   160
  1
<>
 71
     2
 42
-1.0
  3
SLDDIMSTYLE2
100
AcDbAlignedDimension
 13
7.4394323362
 23
5.4089372894
 33
0.0
 14
7.5594323362
 24
5.3191167813
 34
0.0
100
AcDbRotatedDimension
  0
DIMENSION
  5
1D9
330
1F
100
AcDbEntity
  8
0
  6
Continuous
 62
     7
370
     0
100
AcDbDimension
  2
_D_3
 10
7.5594323362
 20
5.9977012361
 30
0.0
 11
7.3044323362
 21
5.9977012361
 31
0.0
 70
   160
  1
<>
 71
     2
 42
-1.0
  3
SLDDIMSTYLE2
100
AcDbAlignedDimension
 13
7.0494323362
 23
5.4089372894
 33
0.0
 14
7.5594323362
 24
5.3191167813
 34
0.0
100
AcDbRotatedDimension
  0
INSERT
  5
1F4
102
{ACAD_REACTORS
330
1F6
102
}
330
1F
100
AcDbEntity
  8
0
  6
Continuous
 62
     7
370
     0
100
AcDbBlockReference
  2
SW_NOTE_5
 10
6.4126105358
 20
3.6829517265
 30
0.0
  0
LEADER
  5
1F6
330
1F
100
AcDbEntity
  8
0
  6
Continuous
 62
     7
370
     0
100
AcDbLeader
  3
SLDDIMSTYLE3
 73
     2
 76
     3
 10
7.1082474622
 20
3.3014372894
 30
0.0
 10
6.6626105358
 20
3.6829517265
 30
0.0
 10
6.4126105358
 20
3.6829517265
 30
0.0
340
1F4
  0
INSERT
  5
1FD
102
{ACAD_REACTORS
330
1FE
102
}
330
1F
100
AcDbEntity
  8
0
  6
Continuous
 62
     7
370
     0
100
AcDbBlockReference
  2
SW_NOTE_6
 10
8.3593812137
 20
2.6648971651
 30
0.0
  0
LEADER
  5
1FE
330
1F
100
AcDbEntity
  8
0
  6
Continuous
 62
     7
370
     0
100
AcDbLeader
  3
SLDDIMSTYLE3
 73
     2
 76
     3
 10
7.4872020223
 20
3.3014372894
 30
0.0
 10
8.1093812137
 20
2.6648971651
 30
0.0
 10
8.3593812137
 20
2.6648971651
 30
0.0
340
1FD
  0
INSERT
  5
204
102
{ACAD_REACTORS
330
205
102
}
330
1F
100
AcDbEntity
  8
0
  6
Continuous
 62
     7
370
     0
100
AcDbBlockReference
  2
SW_NOTE_7
 10
6.4174077768
 20
4.146436809
 30
0.0
  0
LEADER
  5
205
330
1F
100
AcDbEntity
  8
0
  6
Continuous
 62
     7
370
     0
100
AcDbLeader
  3
SLDDIMSTYLE3
 73
     2
 76
     3
 10
7.1852497295
 20
3.5083076474
 30
0.0
 10
6.6634707689
 20
4.146436809
 30
0.0
 10
6.4174077768
 20
4.146436809
 30
0.0
340
204
  0
INSERT
  5
20B
102
{ACAD_REACTORS
330
20C
102
}
330
1F
100
AcDbEntity
  8
0
  6
Continuous
 62
     7
370
     0
100
AcDbBlockReference
  2
SW_NOTE_8
 10
6.5804555776
 20
2.6710530502
 30
0.0
  0
LEADER
  5
20C
330
1F
100
AcDbEntity
  8
0
  6
Continuous
 62
     7
370
     0
100
AcDbLeader
  3
SLDDIMSTYLE3
 73
     2
 76
     3
 10
7.2106344835
 20
3.2189372894
 30
0.0
 10
6.8265185698
 20
2.6710530502
 30
0.0
 10
6.5804555776
 20
2.6710530502
 30
0.0
340
20B
  0
INSERT
  5
212
102
{ACAD_REACTORS
330
213
102
}
330
1F
100
AcDbEntity
  8
0
  6
Continuous
 62
     7
370
     0
100
AcDbBlockReference
  2
SW_NOTE_9
 10
8.2290568697
 20
3.01703253
 30
0.0
  0
LEADER
  5
213
330
1F
100
AcDbEntity
  8
0
  6
Continuous
 62
     7
370
     0
100
AcDbLeader
  3
SLDDIMSTYLE3
 73
     2
 76
     3
 10
7.4094323362
 20
3.5656735273
 30
0.0
 10
7.9829938776
 20
3.01703253
 30
0.0
 10
8.2290568697
 20
3.01703253
 30
0.0
340
212
  0
OLE2FRAME
  5
214
330
1F
100
AcDbEntity
  8
0
100
AcDbOle2Frame
 70
     2
  3
Paintbrush Picture
 10
9.0178120406
 20
1.3267570784
 30
0.0
 11
10.4397105087
 21
1.1242314806
 31
0.0
 71
     2
 72
     0
 73
     1
 90
     7296
310
8055C64EE7A81E092240C05F59A1653AF53F0000000000000000FD155DBC21E1
310
2440C05F59A1653AF53F0000000000000000FD155DBC21E12440A1732426DAFC
310
F13F0000000000000000C64EE7A81E092240A1732426DAFCF13F000000000000
310
00000000000001000000000100000100000001000000000001000000001C0000
310
D0CF11E0A1B11AE1000000000000000000000000000000003E000300FEFF0900
310
0600000000000000000000000100000001000000000000000010000002000000
310
01000000FEFFFFFF0000000000000000FFFFFFFFFFFFFFFFFFFFFFFFFFFFFFFF
310
FFFFFFFFFFFFFFFFFFFFFFFFFFFFFFFFFFFFFFFFFFFFFFFFFFFFFFFFFFFFFFFF
310
FFFFFFFFFFFFFFFFFFFFFFFFFFFFFFFFFFFFFFFFFFFFFFFFFFFFFFFFFFFFFFFF
310
FFFFFFFFFFFFFFFFFFFFFFFFFFFFFFFFFFFFFFFFFFFFFFFFFFFFFFFFFFFFFFFF
310
FFFFFFFFFFFFFFFFFFFFFFFFFFFFFFFFFFFFFFFFFFFFFFFFFFFFFFFFFFFFFFFF
310
FFFFFFFFFFFFFFFFFFFFFFFFFFFFFFFFFFFFFFFFFFFFFFFFFFFFFFFFFFFFFFFF
310
FFFFFFFFFFFFFFFFFFFFFFFFFFFFFFFFFFFFFFFFFFFFFFFFFFFFFFFFFFFFFFFF
310
FFFFFFFFFFFFFFFFFFFFFFFFFFFFFFFFFFFFFFFFFFFFFFFFFFFFFFFFFFFFFFFF
310
FFFFFFFFFFFFFFFFFFFFFFFFFFFFFFFFFFFFFFFFFFFFFFFFFFFFFFFFFFFFFFFF
310
FFFFFFFFFFFFFFFFFFFFFFFFFFFFFFFFFFFFFFFFFFFFFFFFFFFFFFFFFFFFFFFF
310
FFFFFFFFFFFFFFFFFFFFFFFFFFFFFFFFFFFFFFFFFFFFFFFFFFFFFFFFFFFFFFFF
310
FFFFFFFFFFFFFFFFFFFFFFFFFFFFFFFFFFFFFFFFFFFFFFFFFFFFFFFFFFFFFFFF
310
FFFFFFFFFFFFFFFFFFFFFFFFFFFFFFFFFFFFFFFFFFFFFFFFFFFFFFFFFFFFFFFF
310
FFFFFFFFFFFFFFFFFFFFFFFFFFFFFFFFFFFFFFFFFFFFFFFFFFFFFFFFFFFFFFFF
310
FDFFFFFFFEFFFFFFFEFFFFFFFEFFFFFF05000000060000000700000008000000
310
090000000A0000000B0000000C000000FEFFFFFFFFFFFFFFFFFFFFFFFFFFFFFF
310
FFFFFFFFFFFFFFFFFFFFFFFFFFFFFFFFFFFFFFFFFFFFFFFFFFFFFFFFFFFFFFFF
310
FFFFFFFFFFFFFFFFFFFFFFFFFFFFFFFFFFFFFFFFFFFFFFFFFFFFFFFFFFFFFFFF
310
FFFFFFFFFFFFFFFFFFFFFFFFFFFFFFFFFFFFFFFFFFFFFFFFFFFFFFFFFFFFFFFF
310
FFFFFFFFFFFFFFFFFFFFFFFFFFFFFFFFFFFFFFFFFFFFFFFFFFFFFFFFFFFFFFFF
310
FFFFFFFFFFFFFFFFFFFFFFFFFFFFFFFFFFFFFFFFFFFFFFFFFFFFFFFFFFFFFFFF
310
FFFFFFFFFFFFFFFFFFFFFFFFFFFFFFFFFFFFFFFFFFFFFFFFFFFFFFFFFFFFFFFF
310
FFFFFFFFFFFFFFFFFFFFFFFFFFFFFFFFFFFFFFFFFFFFFFFFFFFFFFFFFFFFFFFF
310
FFFFFFFFFFFFFFFFFFFFFFFFFFFFFFFFFFFFFFFFFFFFFFFFFFFFFFFFFFFFFFFF
310
FFFFFFFFFFFFFFFFFFFFFFFFFFFFFFFFFFFFFFFFFFFFFFFFFFFFFFFFFFFFFFFF
310
FFFFFFFFFFFFFFFFFFFFFFFFFFFFFFFFFFFFFFFFFFFFFFFFFFFFFFFFFFFFFFFF
310
FFFFFFFFFFFFFFFFFFFFFFFFFFFFFFFFFFFFFFFFFFFFFFFFFFFFFFFFFFFFFFFF
310
FFFFFFFFFFFFFFFFFFFFFFFFFFFFFFFFFFFFFFFFFFFFFFFFFFFFFFFFFFFFFFFF
310
FFFFFFFFFFFFFFFFFFFFFFFFFFFFFFFFFFFFFFFFFFFFFFFFFFFFFFFFFFFFFFFF
310
FFFFFFFFFFFFFFFFFFFFFFFFFFFFFFFFFFFFFFFFFFFFFFFFFFFFFFFFFFFFFFFF
310
52006F006F007400200045006E00740072007900000000000000000000000000
310
0000000000000000000000000000000000000000000000000000000000000000
310
16000500FFFFFFFFFFFFFFFF020000000A00030000000000C000000000000046
310
000000000000000000000000201381679062D10103000000C000000000000000
310
01004F006C006500000000000000000000000000000000000000000000000000
310
0000000000000000000000000000000000000000000000000000000000000000
310
0A000200FFFFFFFFFFFFFFFFFFFFFFFF00000000000000000000000000000000
310
0000000000000000000000000000000000000000000000001400000000000000
310
010043006F006D0070004F0062006A0000000000000000000000000000000000
310
0000000000000000000000000000000000000000000000000000000000000000
310
120002010100000003000000FFFFFFFF00000000000000000000000000000000
310
0000000000000000000000000000000000000000010000004D00000000000000
310
01004F006C006500310030004E00610074006900760065000000000000000000
310
0000000000000000000000000000000000000000000000000000000000000000
310
1A000200FFFFFFFFFFFFFFFFFFFFFFFF00000000000000000000000000000000
310
000000000000000000000000000000000000000004000000E411000000000000
310
FEFFFFFF02000000FEFFFFFFFFFFFFFFFFFFFFFFFFFFFFFFFFFFFFFFFFFFFFFF
310
FFFFFFFFFFFFFFFFFFFFFFFFFFFFFFFFFFFFFFFFFFFFFFFFFFFFFFFFFFFFFFFF
310
FFFFFFFFFFFFFFFFFFFFFFFFFFFFFFFFFFFFFFFFFFFFFFFFFFFFFFFFFFFFFFFF
310
FFFFFFFFFFFFFFFFFFFFFFFFFFFFFFFFFFFFFFFFFFFFFFFFFFFFFFFFFFFFFFFF
310
FFFFFFFFFFFFFFFFFFFFFFFFFFFFFFFFFFFFFFFFFFFFFFFFFFFFFFFFFFFFFFFF
310
FFFFFFFFFFFFFFFFFFFFFFFFFFFFFFFFFFFFFFFFFFFFFFFFFFFFFFFFFFFFFFFF
310
FFFFFFFFFFFFFFFFFFFFFFFFFFFFFFFFFFFFFFFFFFFFFFFFFFFFFFFFFFFFFFFF
310
FFFFFFFFFFFFFFFFFFFFFFFFFFFFFFFFFFFFFFFFFFFFFFFFFFFFFFFFFFFFFFFF
310
FFFFFFFFFFFFFFFFFFFFFFFFFFFFFFFFFFFFFFFFFFFFFFFFFFFFFFFFFFFFFFFF
310
FFFFFFFFFFFFFFFFFFFFFFFFFFFFFFFFFFFFFFFFFFFFFFFFFFFFFFFFFFFFFFFF
310
FFFFFFFFFFFFFFFFFFFFFFFFFFFFFFFFFFFFFFFFFFFFFFFFFFFFFFFFFFFFFFFF
310
FFFFFFFFFFFFFFFFFFFFFFFFFFFFFFFFFFFFFFFFFFFFFFFFFFFFFFFFFFFFFFFF
310
FFFFFFFFFFFFFFFFFFFFFFFFFFFFFFFFFFFFFFFFFFFFFFFFFFFFFFFFFFFFFFFF
310
FFFFFFFFFFFFFFFFFFFFFFFFFFFFFFFFFFFFFFFFFFFFFFFFFFFFFFFFFFFFFFFF
310
FFFFFFFFFFFFFFFFFFFFFFFFFFFFFFFFFFFFFFFFFFFFFFFFFFFFFFFFFFFFFFFF
310
FFFFFFFFFFFFFFFFFFFFFFFFFFFFFFFFFFFFFFFFFFFFFFFFFFFFFFFFFFFFFFFF
310
0100000200000000000000000000000000000000000000000000000000000000
310
0000000000000000000000000000000000000000000000000000000000000000
310
0100FEFF030A0000FFFFFFFF0A00030000000000C00000000000004607000000
310
5042727573680007000000504272757368000700000050427275736800F439B2
310
7100000000000000000000000000000000000000000000000000000000000000
310
0000000000000000000000000000000000000000000000000000000000000000
310
0000000000000000000000000000000000000000000000000000000000000000
310
0000000000000000000000000000000000000000000000000000000000000000
310
0000000000000000000000000000000000000000000000000000000000000000
310
0000000000000000000000000000000000000000000000000000000000000000
310
0000000000000000000000000000000000000000000000000000000000000000
310
0000000000000000000000000000000000000000000000000000000000000000
310
0000000000000000000000000000000000000000000000000000000000000000
310
0000000000000000000000000000000000000000000000000000000000000000
310
0000000000000000000000000000000000000000000000000000000000000000
310
0000000000000000000000000000000000000000000000000000000000000000
310
E0110000424DDE11000000000000360400002800000096000000170000000100
310
08000000000000000000E7240000E72400000001000000010000000000FF0101
310
01FF020202FF030303FF040404FF050505FF060606FF070707FF080808FF0909
310
09FF0A0A0AFF0B0B0BFF0C0C0CFF0D0D0DFF0E0E0EFF0F0F0FFF101010FF1111
310
11FF121212FF131313FF141414FF151515FF161616FF171717FF181818FF1919
310
19FF1A1A1AFF1B1B1BFF1C1C1CFF1D1D1DFF1E1E1EFF1F1F1FFF202020FF2121
310
21FF222222FF232323FF242424FF252525FF262626FF272727FF282828FF2929
310
29FF2A2A2AFF2B2B2BFF2C2C2CFF2D2D2DFF2E2E2EFF2F2F2FFF303030FF3131
310
31FF323232FF333333FF343434FF353535FF363636FF373737FF383838FF3939
310
39FF3A3A3AFF3B3B3BFF3C3C3CFF3D3D3DFF3E3E3EFF3F3F3FFF404040FF4141
310
41FF424242FF434343FF444444FF454545FF464646FF474747FF484848FF4949
310
49FF4A4A4AFF4B4B4BFF4C4C4CFF4D4D4DFF4E4E4EFF4F4F4FFF505050FF5151
310
51FF525252FF535353FF545454FF555555FF565656FF575757FF585858FF5959
310
59FF5A5A5AFF5B5B5BFF5C5C5CFF5D5D5DFF5E5E5EFF5F5F5FFF606060FF6161
310
61FF626262FF636363FF646464FF656565FF666666FF676767FF686868FF6969
310
69FF6A6A6AFF6B6B6BFF6C6C6CFF6D6D6DFF6E6E6EFF6F6F6FFF707070FF7171
310
71FF727272FF737373FF747474FF757575FF767676FF777777FF787878FF7979
310
79FF7A7A7AFF7B7B7BFF7C7C7CFF7D7D7DFF7E7E7EFF7F7F7FFF808080FF8181
310
81FF828282FF838383FF848484FF858585FF868686FF878787FF888888FF8989
310
89FF8A8A8AFF8B8B8BFF8C8C8CFF8D8D8DFF8E8E8EFF8F8F8FFF909090FF9191
310
91FF929292FF939393FF949494FF959595FF969696FF979797FF989898FF9999
310
99FF9A9A9AFF9B9B9BFF9C9C9CFF9D9D9DFF9E9E9EFF9F9F9FFFA0A0A0FFA1A1
310
A1FFA2A2A2FFA3A3A3FFA4A4A4FFA5A5A5FFA6A6A6FFA7A7A7FFA8A8A8FFA9A9
310
A9FFAAAAAAFFABABABFFACACACFFADADADFFAEAEAEFFAFAFAFFFB0B0B0FFB1B1
310
B1FFB2B2B2FFB3B3B3FFB4B4B4FFB5B5B5FFB6B6B6FFB7B7B7FFB8B8B8FFB9B9
310
B9FFBABABAFFBBBBBBFFBCBCBCFFBDBDBDFFBEBEBEFFBFBFBFFFC0C0C0FFC1C1
310
C1FFC2C2C2FFC3C3C3FFC4C4C4FFC5C5C5FFC6C6C6FFC7C7C7FFC8C8C8FFC9C9
310
C9FFCACACAFFCBCBCBFFCCCCCCFFCDCDCDFFCECECEFFCFCFCFFFD0D0D0FFD1D1
310
D1FFD2D2D2FFD3D3D3FFD4D4D4FFD5D5D5FFD6D6D6FFD7D7D7FFD8D8D8FFD9D9
310
D9FFDADADAFFDBDBDBFFDCDCDCFFDDDDDDFFDEDEDEFFDFDFDFFFE0E0E0FFE1E1
310
E1FFE2E2E2FFE3E3E3FFE4E4E4FFE5E5E5FFE6E6E6FFE7E7E7FFE8E8E8FFE9E9
310
E9FFEAEAEAFFEBEBEBFFECECECFFEDEDEDFFEEEEEEFFEFEFEFFFF0F0F0FFF1F1
310
F1FFF2F2F2FFF3F3F3FFF4F4F4FFF5F5F5FFF6F6F6FFF7F7F7FFF8F8F8FFF9F9
310
F9FFFAFAFAFFFBFBFBFFFCFCFCFFFDFDFDFFFEFEFEFFFFFFFFFFFFFFFFFFFFFF
310
C94E4E4E4F4E4EFFFFFFFFFFC94E4E4E4E4E72FFFFFFFFFFFFFF734E4D4E4E4E
310
C9FFFFFFFFFFAA683516171616265B9BE9FFFFFFFFFF4E4E4E4D4E4EFFFFFFFF
310
FFFFFFFF4E4E4F4E4D4E4E4E4F4E4E4F4D4E4E4E4E4E4D4E4F4E4D4E4E4EAAFF
310
FFFFFFFFFFEA4E4F4F4E4E4E4E4E4D4D4F4F4E4E4E4E4E5B7FAAFFFFFFFFFFFF
310
C9744E1716171616164D8DEAFFFFFFFF0000FFFFFFFFFFFFBA161617161716FF
310
FFFFFFFFB917171616174FFFFFFFFFFFFFFF4E1716161616B9FFFFFFB9341717
310
1716171617171616268CFFFFFFFF161617161617FFFFFFFFFFFFFFB917161717
310
1617167F807F7F7F7F7F7F807F7F807F7F807F7F7F414EFFFFFFFFFFFF8C167F
310
7F807F7F7F7E7F7F807F807F7F807F4E3417258EFFFFEA4E162674AABAEAEBBA
310
AA74341680FFFFFF0000FFFFFFFFFFFFB9171717171617FFFFFFFFFFBB161616
310
16164EFFFFFFFFFFFFFF4E1717171717B9FFFF9C171617171716161616171616
310
171766FFFFFF161717161617FFFFFFFFFFFFFF8E16171717161616FFFFFFFFFF
310
FFFFFFFFFFFFFFFFFFFFFFFFFFAA16D9FFFFFFFFFF3467FFFFFFFFEAFFFFFFFF
310
FFFFFFFFFFFFFFFFFFCA671667EB26278DFFFFFFFFFFFFFFFFFFFF8C2541EAFF
310
0000FFFFFFFFFFFFB9171717171716FFFFFFFFFFBA16171617174EFFFFFFFFFF
310
FFFF4E1717161616BAFF9B1617161616171716171617161616161667FFFF1616
310
16161716FFFFFFFFFFFFFF7F16161617174017FFFFFFFFFFFFFFFFFFFFFFFFFF
310
FFFFFFFFFFFF344E7F7F7F7E7417DAFFFFFFFF80FFFFFFFFFFFFFFFFFFFFFFFF
310
FFFFFF9B163425CAFFFFFFFFFFFFFFFFFFFFFFFFCA2667FF0000FFFFFFFFFFFF
310
BA171717171617FFFFFFFFFFB916171716164EFFFFFFFFFFFFFF4F1716161717
310
B9C91716171616161716161617171616161617168DFF161716161717FFFFFFFF
310
FFFFFF7F17171716164F16FFFFFFFFFFFFFFFFFFFFFFFFFFFFFFFFFFFFFF9B16
310
17161617174EFFFFFFFFFF34FFFFFFFFD9BABABABABADAFFFFFFFFFF7F16AAFF
310
FFFFFFFFFFFFFFFFFFFFFFFFFF9C16BA0000FFFFFFFFFFFFB9161717161717FF
310
FFFFFFFFB917161716174DFFFFFFFFFFFFFF4E1616161616BA4E161617171716
310
419BEAEAAA4E16161617161726E9171717161616FFFFFFFFFFFFFF4F16161717
310
164E16FFFFFFFFFFBAB9B9B9B9B9BABABACAFFFFFFFFFFFFFFFFFFFFFFFFFFFF
310
FFFFBA16FFFFFFFF7F1617161617174DEAFFFFFFEA41FFFFFFFFFFAA4D16174E
310
9BFFFFFFFFFF34730000FFFFFFFFFFFFB9161617171617FFFFFFFFFFBA161616
310
16164EFFFFFFFFFFFFFF4F16161717169B1617161716175BFFFFFFFFFFFF7417
310
16171616168D171717161617FFFFFFFFFFFFEA2616171717167416FFFFFFFFFF
310
16171616171717171717EAFFFFFFFFFFFFFFFFFFFFFFFFFFFFFF6716FFFFFFFF
310
7F4EFFFFFFFFBA2573FFFFFFFFBAFFFFFFFFAA167FB9BB9B269BFFFFFFFF664F
310
0000FFFFFFFFFFFFB9171616161616FFFFFFFFFFBA16161717164EFFFFFFFFFF
310
FFFF4E16161616174E161617171626EAFFFFFFFFFFFFFF4E16161616164E1716
310
16161617FFFFFFFFFFFF671616161716347F16FFFFFFFFFF16B9FFFFFFFFFFFF
310
D9168DFFFFFFFFFFFFFFFFFFFFFFFFFFFFEA1716FFFFFFFF7F4EFFFFFFFFFF7F
310
4EFFFFFFFFFFFFFFFFFF5B66FFFFFFEA347FFFFFFFFF7F4D0000FFFFFFFFFFFF
310
B9171616171617FFFFFFFFFFBA17161716174EFFFFFFFFFFFFFF4D1716161617
310
17161716161673FFFFFFFFFFFFFFFF9B1617161717161616171616174F4E4E4E
310
4E341616171616167E7F16FFFFFFFFFF16BAFFFFFFFFFFFFFF5B41FFFFFFFF34
310
1616171616BAFFFFFF9B1716FFFFFFFF7F4EFFFFFFFFFF4E4EFFFFFFFF734E4E
310
4E4E267EDA9B67164EEAFFFFFFFF744D0000FFFFFFFFFFFFBA171717161617FF
310
FFFFFFFFBA1616171616347F7F7F7F80807F331616161717161717161716B9FF
310
FFFFFFFFFFFFFFE9161616161616171716161716171616161616171616171734
310
EA7F16FFFFFFFFFF16BAFFFFFFFFFFFFFFAA17C9FFFFFF7326BABA5B25FFFFFF
310
FF401716FFFFFFFF7F264F4E4E4E4217AAFFFFFFEA16677F73261616164173CA
310
FFFFFFFFFFFF417F0000FFFFFFFFFFFFBA171616171617FFFFFFFFFFBA161616
310
17171616161616161616161717161616161616161617EAFFFFFFFFFFFFFFFFFF
310
261717161716161617161616161617161617161616174EEAFF8016FFFFFFFFFF
310
17BAFFFFFFFFFFFFFFFF3467FFFFFFC916C9FF3467FFFFFFDA166716FFFFFFFF
310
9C4D4E4E4E4E67AAFFFFFFFF6834FF7F262567AAEAFFFFFFFFFFFFFFFF9B17D9
310
0000FFFFFFFFFFFFB9161616161616FFFFFFFFFFBA1617161717171616161616
310
1716171716161716161617171716FFFFFFFFFFFFFFFFFFFF4E17161716171616
310
1617171616161716171717161616169BFF7F17FFFFFFFFFF17B9FFFFFFFFFFFF
310
FFFF7326FFFFFFFF3473DA16AAFFFFFF7317AA16FFFFFFFFFFFFFFFFFFFFFFFF
310
FFFFEA6725BA4E167FEAFFFFFFFFFFFFFFFFFFFF9C167FFF0000FFFFFFFFFFFF
310
B9161717171716FFFFFFFFFFBA16161716171616171717161617161716161616
310
171617171617EAFFFFFFFFFFFFFFFFFF26161717161616161616161617171616
310
1616161616171616AA8016FFFFFFFFFF16BAFFFFFFFFFFFFFFFFDA179BFFFFFF
310
74348D26FFFFFFFF2566B917FFFFFFFFD8BAB9BAB9BADAFFFFEA41169B7425C9
310
FFFFFFFFFFFFFFFFFFFFAB4F1680FFFF0000FFFFFFFFFFFFBA161717171617FF
310
FFFFFFFFBA17161717161617171617161616161617171616171716171617BBFF
310
FFFFFFFFFFFFFFE9171616161617161617161716FFFFFFFFFFD9671616161617
310
348017FFFFFFFFFF16BAFFFFFFFFFFFFFFFFFF4E5AFFFFFFC916265AFFFFFFAA
310
16AABA16FFFFFFFF7F1617161616179BFFFFEB4127168DFFFFFFFFFFFFFFD99B
310
6734175AC9FFFFFF0000FFFFFFFFFFFFB9161617171617FFFFFFFFFFBB161616
310
1616347F807F7F7F7F8033171716171617171616161672FFFFFFFFFFFFFFFF9C
310
171617171617161716161617FFFFFFFFFFFFFF4117161616174E17FFFFFFFFFF
310
16BAFFFFFFFFFFFFFFFFFF9B16DAFFFFFF34169BFFFFFF5A26FFB917FFFFFFFF
310
7F4EFFFFFFEA5B26FFFFFFEA2616EAFFFFFFFFDA743416331617414E4E4E4ECA
310
0000FFFFFFFFFFFFBA161716161616FFFFFFFFFFBA17171616164EFFFFFFFFFF
310
FFFF4E16161717174E161717171626EBFFFFFFFFFFFFFF4E16161617165B1616
310
16171617FFFFFFFFFFFFFF6716161616161617FFFFFFFFFF16BAFFFFFFFFFFFF
310
FFFFFFEA268CFFFFFF7316EAFFFFEB1774FFB916FFFFFFFF7F4EFFFFFFFF7316
310
FFFFFFFF6826FFFFFFFFEB264D9CEABA257F807F7F6616BA0000FFFFFFFFFFFF
310
BA161716161616FFFFFFFFFFBA16171616164DFFFFFFFFFFFFFF4E1617161617
310
9B1617171717165BEBFFFFFFFFFF671616161617179B171616161616FFFFFFFF
310
FFFFFF3417161617171617FFFFFFFFFF17BAFFFFFFFFFFFFFFFFFFFF6734FFFF
310
FFEBCAFFFFFF8D17C9FFBA17FFFFFFFF7F357F808066174FFFFFFFFF7F16FFFF
310
FFFFD91673B99B415BFFFFFFFFBA16DA00009B7F7F7F807F671617161616167F
310
80807F7E6617161616164EFFFFFFFFFFFFFF4E1616161617B94E171716161616
310
349BC9D9AA4E16171616161634FF161617161717B9B9BAB9BA9B411716171716
310
163416FFFFFFFFFF16B9FFFFFFFFFFFFFFFFFFFFC917CAFFFFFFFFFFFFFF3342
310
FFFFBA17FFFFFFFF9B4E4E4F4E4E66EAFFFFFFFF5B16C9FFFFFFFFAA4E164E73
310
EAFFFFFFFF8D26FF00004E161716161616171617171616171717171617161616
310
17174EFFFFFFFFFFFFFF4E1717171616B9D92616171716171716171717171716
310
16171716AAFF161717171617161617171616161617161716166717FFFFFFFFFF
310
17B9FFFFFFFFFFFFFFFFFFFFFF3467FFFFFFFFFFFFCA168CFFFFBB17FFFFFFFF
310
FFFFFFFFFFFFFFFFFFFFFFEA26265BFFFFFFFFFFFFFFFFFFFFFFFFFFEA3467FF
310
00004D16161616161617161717161617161616171617171616164EFFFFFFFFFF
310
FFFF4D1617161616BAFF9B1616161616161716161616171717161766FFFF1616
310
16171617161617161716171616171717667F16FFFFFFFFFF17BAFFFFFFFFFFFF
310
FFFFFFFFFF8C26EAFFFFFFFFFF6617EAFFFFBA17FFFFFFFFFFFFFFFFFFFFFFFF
310
FFFFEA5A25BA269BFFFFFFFFFFFFFFFFFFFFFFFF6616DAFF00004E1616171616
310
1616161616161716161617171616171616174EFFFFFFFFFFFFFF4D1717171716
310
B9FFFF9C161616161616161716161717171667FFFFFF17161717171716161617
310
1716161616161641E97E16FFFFFFFFFF16B9FFFFFFFFFFFFFFFFFFFFFFEA169B
310
FFFFFFFFEA265BFFFFFFB916FFFFFFFFFFFFFFFFFFFFFFFFFF9B3416AAFF9B17
310
67EAFFFFFFFFFFFFFFFFEA5B169BFFFF00004D17161716161616161717171616
310
161717161716171716174EFFFFFFFFFFFFFF4D1616161616BAFFFFFFBB411616
310
161716161616171634ABFFFFFFFF161716161617171716171617171617267FFF
310
FF7F164E4E4E4E4F17BAFFFFFFFFFFFFFFFFFFFFFFFF66344D4E4E4F4117AAFF
310
FFFFBA174E4E4E4D4E4D4D4E4E4E4E4116174EBBFFFFFFCA342666ABEAFFFFEA
310
AA6725269CFFFFFF0000724F4E4D4D4D4E4D4D4E4E4E4D4E4E4E4E4E4E4E4E4D
310
4E4E74FFFFFFFFFFFFFF734E4E4E4D4ECAFFFFFFFFFFAA663416171717265B9B
310
FFFFFFFFFFFF7F8080807F80807F7F7F7F7F807FBAFFFFFFFF9B4E4E4F4D4D4E
310
4DC9FFFFFFFFFFFFFFFFFFFFFFFFBA4E4E4E4E4D4E4EFFFFFFFFC94E4E4E4F4E
310
4E4E4D4E4E5A807F9CD9FFFFFFFFFFFFFF9B5B2617171716174E8DEAFFFFFFFF
310
0000000000000000000000000000000000000000000000000000000000000000
  1
OLE
  0
ENDSEC
  0
SECTION
  2
OBJECTS
  0
DICTIONARY
  5
C
330
0
100
AcDbDictionary
281
     1
  3
ACAD_GROUP
350
D
  3
ACAD_LAYOUT
350
1A
  3
ACAD_MLINESTYLE
350
17
  3
ACAD_PLOTSETTINGS
350
19
  3
ACAD_PLOTSTYLENAME
350
E
  3
ACAD_SCALELIST
350
47
  0
DICTIONARY
  5
D
102
{ACAD_REACTORS
330
C
102
}
330
C
100
AcDbDictionary
281
     1
  0
DICTIONARY
  5
1A
102
{ACAD_REACTORS
330
C
102
}
330
C
100
AcDbDictionary
281
     1
  3
Layout1
350
1E
  3
Layout2
350
26
  3
Model
350
22
  0
DICTIONARY
  5
17
102
{ACAD_REACTORS
330
C
102
}
330
C
100
AcDbDictionary
281
     1
  3
Standard
350
18
  0
DICTIONARY
  5
19
102
{ACAD_REACTORS
330
C
102
}
330
C
100
AcDbDictionary
281
     1
  0
ACDBDICTIONARYWDFLT
  5
E
102
{ACAD_REACTORS
330
C
102
}
330
C
100
AcDbDictionary
281
     1
  3
Normal
350
F
100
AcDbDictionaryWithDefault
340
F
  0
DICTIONARY
  5
47
102
{ACAD_REACTORS
330
C
102
}
330
C
100
AcDbDictionary
281
     1
  3
A0
350
48
  3
A1
350
49
  3
A2
350
4A
  3
A3
350
4B
  3
A4
350
4C
  3
A5
350
4D
  3
A6
350
4E
  3
A7
350
4F
  3
A8
350
50
  3
A9
350
51
  3
B0
350
52
  3
B1
350
53
  3
B2
350
54
  3
B3
350
55
  3
B4
350
56
  3
B5
350
57
  3
B6
350
58
  3
B7
350
59
  3
B8
350
5A
  3
B9
350
5B
  3
C0
350
5C
  3
C1
350
5D
  3
C2
350
5E
  3
C3
350
5F
  3
C4
350
60
  3
C5
350
61
  3
C6
350
62
  3
C7
350
63
  3
C8
350
64
  3
C9
350
65
  3
D0
350
66
  3
D1
350
67
  3
D2
350
68
  0
LAYOUT
  5
1E
102
{ACAD_REACTORS
330
1A
102
}
330
1A
100
AcDbPlotSettings
  1

  2
none_device
  4

  6

 40
0.0
 41
0.0
 42
0.0
 43
0.0
 44
0.0
 45
0.0
 46
0.0
 47
0.0
 48
0.0
 49
0.0
140
0.0
141
0.0
142
1.0
143
1.0
 70
   688
 72
     0
 73
     0
 74
     5
  7

 75
    16
147
1.0
148
0.0
149
0.0
100
AcDbLayout
  1
Layout1
 70
     1
 71
     1
 10
0.0
 20
0.0
 11
12.0
 21
9.0
 12
0.0
 22
0.0
 32
0.0
 14
1.0000000000E+20
 24
1.0000000000E+20
 34
1.0000000000E+20
 15
-1.0000000000E+20
 25
-1.0000000000E+20
 35
-1.0000000000E+20
146
0.0
 13
0.0
 23
0.0
 33
0.0
 16
1.0
 26
0.0
 36
0.0
 17
0.0
 27
1.0
 37
0.0
 76
     0
330
1B
  0
LAYOUT
  5
26
102
{ACAD_REACTORS
330
1A
102
}
330
1A
100
AcDbPlotSettings
  1

  2
none_device
  4

  6

 40
0.0
 41
0.0
 42
0.0
 43
0.0
 44
0.0
 45
0.0
 46
0.0
 47
0.0
 48
0.0
 49
0.0
140
0.0
141
0.0
142
1.0
143
1.0
 70
   688
 72
     0
 73
     0
 74
     5
  7

 75
    16
147
1.0
148
0.0
149
0.0
100
AcDbLayout
  1
Layout2
 70
     1
 71
     2
 10
0.0
 20
0.0
 11
0.0
 21
0.0
 12
0.0
 22
0.0
 32
0.0
 14
0.0
 24
0.0
 34
0.0
 15
0.0
 25
0.0
 35
0.0
146
0.0
 13
0.0
 23
0.0
 33
0.0
 16
1.0
 26
0.0
 36
0.0
 17
0.0
 27
1.0
 37
0.0
 76
     0
330
23
  0
LAYOUT
  5
22
102
{ACAD_REACTORS
330
1A
102
}
330
1A
100
AcDbPlotSettings
  1

  2
none_device
  4
Letter_(8.50_x_11.00_Inches)
  6

 40
6.35
 41
6.35
 42
6.35000508
 43
6.35000508
 44
215.9
 45
279.4
 46
0.0
 47
0.0
 48
0.0
 49
0.0
140
0.0
141
0.0
142
1.0
143
1.0
 70
  1712
 72
     0
 73
     0
 74
     0
  7

 75
     0
147
1.0
148
0.0
149
0.0
100
AcDbLayout
  1
Model
 70
     1
 71
     0
 10
0.0
 20
0.0
 11
11.0
 21
8.5
 12
0.0
 22
0.0
 32
0.0
 14
0.0
 24
0.0
 34
0.0
 15
11.0
 25
8.5
 35
0.0
146
0.0
 13
0.0
 23
0.0
 33
0.0
 16
1.0
 26
0.0
 36
0.0
 17
0.0
 27
1.0
 37
0.0
 76
     0
330
1F
331
29
  0
MLINESTYLE
  5
18
102
{ACAD_REACTORS
330
17
102
}
330
17
100
AcDbMlineStyle
  2
Standard
 70
     0
  3

 62
   256
 51
90.0
 52
90.0
 71
     2
 49
0.5
 62
   256
  6
BYLAYER
 49
-0.5
 62
   256
  6
BYLAYER
  0
ACDBPLACEHOLDER
  5
F
102
{ACAD_REACTORS
330
E
102
}
330
E
  0
SCALE
  5
48
102
{ACAD_REACTORS
330
47
102
}
330
47
100
AcDbScale
 70
     0
300
1:1
140
1.0
141
1.0
290
     1
  0
SCALE
  5
49
102
{ACAD_REACTORS
330
47
102
}
330
47
100
AcDbScale
 70
     0
300
1:2
140
1.0
141
2.0
290
     0
  0
SCALE
  5
4A
102
{ACAD_REACTORS
330
47
102
}
330
47
100
AcDbScale
 70
     0
300
1:4
140
1.0
141
4.0
290
     0
  0
SCALE
  5
4B
102
{ACAD_REACTORS
330
47
102
}
330
47
100
AcDbScale
 70
     0
300
1:5
140
1.0
141
5.0
290
     0
  0
SCALE
  5
4C
102
{ACAD_REACTORS
330
47
102
}
330
47
100
AcDbScale
 70
     0
300
1:8
140
1.0
141
8.0
290
     0
  0
SCALE
  5
4D
102
{ACAD_REACTORS
330
47
102
}
330
47
100
AcDbScale
 70
     0
300
1:10
140
1.0
141
10.0
290
     0
  0
SCALE
  5
4E
102
{ACAD_REACTORS
330
47
102
}
330
47
100
AcDbScale
 70
     0
300
1:16
140
1.0
141
16.0
290
     0
  0
SCALE
  5
4F
102
{ACAD_REACTORS
330
47
102
}
330
47
100
AcDbScale
 70
     0
300
1:20
140
1.0
141
20.0
290
     0
  0
SCALE
  5
50
102
{ACAD_REACTORS
330
47
102
}
330
47
100
AcDbScale
 70
     0
300
1:30
140
1.0
141
30.0
290
     0
  0
SCALE
  5
51
102
{ACAD_REACTORS
330
47
102
}
330
47
100
AcDbScale
 70
     0
300
1:40
140
1.0
141
40.0
290
     0
  0
SCALE
  5
52
102
{ACAD_REACTORS
330
47
102
}
330
47
100
AcDbScale
 70
     0
300
1:50
140
1.0
141
50.0
290
     0
  0
SCALE
  5
53
102
{ACAD_REACTORS
330
47
102
}
330
47
100
AcDbScale
 70
     0
300
1:100
140
1.0
141
100.0
290
     0
  0
SCALE
  5
54
102
{ACAD_REACTORS
330
47
102
}
330
47
100
AcDbScale
 70
     0
300
2:1
140
2.0
141
1.0
290
     0
  0
SCALE
  5
55
102
{ACAD_REACTORS
330
47
102
}
330
47
100
AcDbScale
 70
     0
300
4:1
140
4.0
141
1.0
290
     0
  0
SCALE
  5
56
102
{ACAD_REACTORS
330
47
102
}
330
47
100
AcDbScale
 70
     0
300
8:1
140
8.0
141
1.0
290
     0
  0
SCALE
  5
57
102
{ACAD_REACTORS
330
47
102
}
330
47
100
AcDbScale
 70
     0
300
10:1
140
10.0
141
1.0
290
     0
  0
SCALE
  5
58
102
{ACAD_REACTORS
330
47
102
}
330
47
100
AcDbScale
 70
     0
300
100:1
140
100.0
141
1.0
290
     0
  0
SCALE
  5
59
102
{ACAD_REACTORS
330
47
102
}
330
47
100
AcDbScale
 70
     0
300
1/128" = 1'-0"
140
0.0078125
141
12.0
290
     0
  0
SCALE
  5
5A
102
{ACAD_REACTORS
330
47
102
}
330
47
100
AcDbScale
 70
     0
300
1/64" = 1'-0"
140
0.015625
141
12.0
290
     0
  0
SCALE
  5
5B
102
{ACAD_REACTORS
330
47
102
}
330
47
100
AcDbScale
 70
     0
300
1/32" = 1'-0"
140
0.03125
141
12.0
290
     0
  0
SCALE
  5
5C
102
{ACAD_REACTORS
330
47
102
}
330
47
100
AcDbScale
 70
     0
300
1/16" = 1'-0"
140
0.0625
141
12.0
290
     0
  0
SCALE
  5
5D
102
{ACAD_REACTORS
330
47
102
}
330
47
100
AcDbScale
 70
     0
300
3/32" = 1'-0"
140
0.09375
141
12.0
290
     0
  0
SCALE
  5
5E
102
{ACAD_REACTORS
330
47
102
}
330
47
100
AcDbScale
 70
     0
300
1/8" = 1'-0"
140
0.125
141
12.0
290
     0
  0
SCALE
  5
5F
102
{ACAD_REACTORS
330
47
102
}
330
47
100
AcDbScale
 70
     0
300
3/16" = 1'-0"
140
0.1875
141
12.0
290
     0
  0
SCALE
  5
60
102
{ACAD_REACTORS
330
47
102
}
330
47
100
AcDbScale
 70
     0
300
1/4" = 1'-0"
140
0.25
141
12.0
290
     0
  0
SCALE
  5
61
102
{ACAD_REACTORS
330
47
102
}
330
47
100
AcDbScale
 70
     0
300
3/8" = 1'-0"
140
0.375
141
12.0
290
     0
  0
SCALE
  5
62
102
{ACAD_REACTORS
330
47
102
}
330
47
100
AcDbScale
 70
     0
300
1/2" = 1'-0"
140
0.5
141
12.0
290
     0
  0
SCALE
  5
63
102
{ACAD_REACTORS
330
47
102
}
330
47
100
AcDbScale
 70
     0
300
3/4" = 1'-0"
140
0.75
141
12.0
290
     0
  0
SCALE
  5
64
102
{ACAD_REACTORS
330
47
102
}
330
47
100
AcDbScale
 70
     0
300
1" = 1'-0"
140
1.0
141
12.0
290
     0
  0
SCALE
  5
65
102
{ACAD_REACTORS
330
47
102
}
330
47
100
AcDbScale
 70
     0
300
1-1/2" = 1'-0"
140
1.5
141
12.0
290
     0
  0
SCALE
  5
66
102
{ACAD_REACTORS
330
47
102
}
330
47
100
AcDbScale
 70
     0
300
3" = 1'-0"
140
3.0
141
12.0
290
     0
  0
SCALE
  5
67
102
{ACAD_REACTORS
330
47
102
}
330
47
100
AcDbScale
 70
     0
300
6" = 1'-0"
140
6.0
141
12.0
290
     0
  0
SCALE
  5
68
102
{ACAD_REACTORS
330
47
102
}
330
47
100
AcDbScale
 70
     0
300
1'-0" = 1'-0"
140
12.0
141
12.0
290
     0
  0
ENDSEC
  0
EOF
