  0
SECTION
  2
HEADER
  9
$ACADVER
  1
AC1015
  9
$ACADMAINTVER
 70
     6
  9
$DWGCODEPAGE
  3
ANSI_1252
  9
$INSBASE
 10
0.0
 20
0.0
 30
0.0
  9
$EXTMIN
 10
0.0
 20
0.0
 30
0.0
  9
$EXTMAX
 10
279.4
 20
215.9
 30
0.0
  9
$LIMMIN
 10
0.0
 20
0.0
  9
$LIMMAX
 10
279.4
 20
215.9
  9
$ORTHOMODE
 70
     0
  9
$REGENMODE
 70
     1
  9
$FILLMODE
 70
     1
  9
$QTEXTMODE
 70
     0
  9
$MIRRTEXT
 70
     1
  9
$LTSCALE
 40
1.0
  9
$ATTMODE
 70
     1
  9
$TEXTSIZE
 40
2.8222222222
  9
$TRACEWID
 40
1.0
  9
$TEXTSTYLE
  7
Standard
  9
$CLAYER
  8
0
  9
$CELTYPE
  6
ByLayer
  9
$CECOLOR
 62
   256
  9
$CELTSCALE
 40
1.0
  9
$DISPSILH
 70
     0
  9
$DIMSCALE
 40
1.0
  9
$DIMASZ
 40
3.175
  9
$DIMEXO
 40
1.27
  9
$DIMDLI
 40
3.75
  9
$DIMRND
 40
0.0
  9
$DIMDLE
 40
0.0
  9
$DIMEXE
 40
1.778
  9
$DIMTP
 40
0.0
  9
$DIMTM
 40
0.0
  9
$DIMTXT
 40
2.8222222222
  9
$DIMCEN
 40
2.5
  9
$DIMTSZ
 40
0.0
  9
$DIMTOL
 70
     0
  9
$DIMLIM
 70
     0
  9
$DIMTIH
 70
     1
  9
$DIMTOH
 70
     1
  9
$DIMSE1
 70
     0
  9
$DIMSE2
 70
     0
  9
$DIMTAD
 70
     0
  9
$DIMZIN
 70
     1
  9
$DIMBLK
  1

  9
$DIMASO
 70
     1
  9
$DIMSHO
 70
     1
  9
$DIMPOST
  1

  9
$DIMAPOST
  1

  9
$DIMALT
 70
     0
  9
$DIMALTD
 70
     3
  9
$DIMALTF
 40
0.0393700787
  9
$DIMLFAC
 40
1.0
  9
$DIMTOFL
 70
     1
  9
$DIMTVP
 40
0.0
  9
$DIMTIX
 70
     0
  9
$DIMSOXD
 70
     0
  9
$DIMSAH
 70
     0
  9
$DIMBLK1
  1

  9
$DIMBLK2
  1

  9
$DIMSTYLE
  2
ISO-25
  9
$DIMCLRD
 70
     0
  9
$DIMCLRE
 70
     0
  9
$DIMCLRT
 70
     0
  9
$DIMTFAC
 40
1.0
  9
$DIMGAP
 40
2.54
  9
$DIMJUST
 70
     0
  9
$DIMSD1
 70
     0
  9
$DIMSD2
 70
     0
  9
$DIMTOLJ
 70
     0
  9
$DIMTZIN
 70
     1
  9
$DIMALTZ
 70
     0
  9
$DIMALTTZ
 70
     0
  9
$DIMUPT
 70
     0
  9
$DIMDEC
 70
     1
  9
$DIMTDEC
 70
     1
  9
$DIMALTU
 70
     2
  9
$DIMALTTD
 70
     3
  9
$DIMTXSTY
  7
Standard
  9
$DIMAUNIT
 70
     0
  9
$DIMADEC
 70
     0
  9
$DIMALTRND
 40
0.0
  9
$DIMAZIN
 70
     0
  9
$DIMDSEP
 70
    44
  9
$DIMATFIT
 70
     3
  9
$DIMFRAC
 70
     0
  9
$DIMLDRBLK
  1

  9
$DIMLUNIT
 70
     2
  9
$DIMLWD
 70
    -2
  9
$DIMLWE
 70
    -2
  9
$DIMTMOVE
 70
     0
  9
$LUNITS
 70
     2
  9
$LUPREC
 70
     1
  9
$SKETCHINC
 40
1.0
  9
$FILLETRAD
 40
10.0
  9
$AUNITS
 70
     0
  9
$AUPREC
 70
     0
  9
$MENU
  1
.
  9
$ELEVATION
 40
0.0
  9
$PELEVATION
 40
0.0
  9
$THICKNESS
 40
0.0
  9
$LIMCHECK
 70
     0
  9
$CHAMFERA
 40
0.0
  9
$CHAMFERB
 40
0.0
  9
$CHAMFERC
 40
0.0
  9
$CHAMFERD
 40
0.0
  9
$SKPOLY
 70
     0
  9
$TDCREATE
 40
2458470.649105949
  9
$TDUCREATE
 40
2458470.857439282
  9
$TDUPDATE
 40
2458470.649118472
  9
$TDUUPDATE
 40
2458470.857451805
  9
$TDINDWG
 40
0.0000000116
  9
$TDUSRTIMER
 40
0.0000000116
  9
$USRTIMER
 70
     1
  9
$ANGBASE
 50
0.0
  9
$ANGDIR
 70
     0
  9
$PDMODE
 70
     0
  9
$PDSIZE
 40
-1.0
  9
$PLINEWID
 40
0.0
  9
$SPLFRAME
 70
     0
  9
$SPLINETYPE
 70
     6
  9
$SPLINESEGS
 70
     8
  9
$HANDSEED
  5
273
  9
$SURFTAB1
 70
     6
  9
$SURFTAB2
 70
     6
  9
$SURFTYPE
 70
     6
  9
$SURFU
 70
     6
  9
$SURFV
 70
     6
  9
$UCSBASE
  2

  9
$UCSNAME
  2

  9
$UCSORG
 10
0.0
 20
0.0
 30
0.0
  9
$UCSXDIR
 10
1.0
 20
0.0
 30
0.0
  9
$UCSYDIR
 10
0.0
 20
1.0
 30
0.0
  9
$UCSORTHOREF
  2

  9
$UCSORTHOVIEW
 70
     0
  9
$UCSORGTOP
 10
0.0
 20
0.0
 30
0.0
  9
$UCSORGBOTTOM
 10
0.0
 20
0.0
 30
0.0
  9
$UCSORGLEFT
 10
0.0
 20
0.0
 30
0.0
  9
$UCSORGRIGHT
 10
0.0
 20
0.0
 30
0.0
  9
$UCSORGFRONT
 10
0.0
 20
0.0
 30
0.0
  9
$UCSORGBACK
 10
0.0
 20
0.0
 30
0.0
  9
$PUCSBASE
  2

  9
$PUCSNAME
  2

  9
$PUCSORG
 10
0.0
 20
0.0
 30
0.0
  9
$PUCSXDIR
 10
1.0
 20
0.0
 30
0.0
  9
$PUCSYDIR
 10
0.0
 20
1.0
 30
0.0
  9
$PUCSORTHOREF
  2

  9
$PUCSORTHOVIEW
 70
     0
  9
$PUCSORGTOP
 10
0.0
 20
0.0
 30
0.0
  9
$PUCSORGBOTTOM
 10
0.0
 20
0.0
 30
0.0
  9
$PUCSORGLEFT
 10
0.0
 20
0.0
 30
0.0
  9
$PUCSORGRIGHT
 10
0.0
 20
0.0
 30
0.0
  9
$PUCSORGFRONT
 10
0.0
 20
0.0
 30
0.0
  9
$PUCSORGBACK
 10
0.0
 20
0.0
 30
0.0
  9
$USERI1
 70
     0
  9
$USERI2
 70
     0
  9
$USERI3
 70
     0
  9
$USERI4
 70
     0
  9
$USERI5
 70
     0
  9
$USERR1
 40
0.0
  9
$USERR2
 40
0.0
  9
$USERR3
 40
0.0
  9
$USERR4
 40
0.0
  9
$USERR5
 40
0.0
  9
$WORLDVIEW
 70
     1
  9
$SHADEDGE
 70
     3
  9
$SHADEDIF
 70
    70
  9
$TILEMODE
 70
     1
  9
$MAXACTVP
 70
    64
  9
$PINSBASE
 10
0.0
 20
0.0
 30
0.0
  9
$PLIMCHECK
 70
     0
  9
$PEXTMIN
 10
1.0000000000E+20
 20
1.0000000000E+20
 30
1.0000000000E+20
  9
$PEXTMAX
 10
-1.0000000000E+20
 20
-1.0000000000E+20
 30
-1.0000000000E+20
  9
$PLIMMIN
 10
0.0
 20
0.0
  9
$PLIMMAX
 10
420.0
 20
297.0
  9
$UNITMODE
 70
     0
  9
$VISRETAIN
 70
     1
  9
$PLINEGEN
 70
     0
  9
$PSLTSCALE
 70
     1
  9
$TREEDEPTH
 70
  3020
  9
$CMLSTYLE
  2
Standard
  9
$CMLJUST
 70
     0
  9
$CMLSCALE
 40
20.0
  9
$PROXYGRAPHICS
 70
     1
  9
$MEASUREMENT
 70
     1
  9
$CELWEIGHT
370
    -1
  9
$ENDCAPS
280
     0
  9
$JOINSTYLE
280
     0
  9
$LWDISPLAY
290
     1
  9
$INSUNITS
 70
     4
  9
$HYPERLINKBASE
  1

  9
$STYLESHEET
  1

  9
$XEDIT
290
     1
  9
$CEPSNTYPE
380
     0
  9
$PSTYLEMODE
290
     1
  9
$FINGERPRINTGUID
  2
{FC52AF5A-FF86-4261-944C-84BF10E02CA5}
  9
$VERSIONGUID
  2
{FAEB1C32-E019-11D5-929B-00C0DF256EC4}
  9
$EXTNAMES
290
     1
  9
$PSVPSCALE
 40
0.0
  9
$OLESTARTUP
290
     0
  0
ENDSEC
  0
SECTION
  2
CLASSES
  0
CLASS
  1
ACDBDICTIONARYWDFLT
  2
AcDbDictionaryWithDefault
  3
ObjectDBX Classes
 90
        0
280
     0
281
     0
  0
CLASS
  1
VISUALSTYLE
  2
AcDbVisualStyle
  3
ObjectDBX Classes
 90
     4095
280
     0
281
     0
  0
CLASS
  1
MATERIAL
  2
AcDbMaterial
  3
ObjectDBX Classes
 90
     1153
280
     0
281
     0
  0
CLASS
  1
SCALE
  2
AcDbScale
  3
ObjectDBX Classes
 90
     1153
280
     0
281
     0
  0
CLASS
  1
TABLESTYLE
  2
AcDbTableStyle
  3
ObjectDBX Classes
 90
     4095
280
     0
281
     0
  0
CLASS
  1
MLEADERSTYLE
  2
AcDbMLeaderStyle
  3
ACDB_MLEADERSTYLE_CLASS
 90
     4095
280
     0
281
     0
  0
CLASS
  1
SUN
  2
AcDbSun
  3
SCENEOE
 90
     1153
280
     0
281
     0
  0
CLASS
  1
ACDBPLACEHOLDER
  2
AcDbPlaceHolder
  3
ObjectDBX Classes
 90
        0
280
     0
281
     0
  0
CLASS
  1
LAYOUT
  2
AcDbLayout
  3
ObjectDBX Classes
 90
        0
280
     0
281
     0
  0
ENDSEC
  0
SECTION
  2
TABLES
  0
TABLE
  2
VPORT
  5
8
330
0
100
AcDbSymbolTable
 70
     1
  0
VPORT
  5
29
330
8
100
AcDbSymbolTableRecord
100
AcDbViewportTableRecord
  2
*Active
 70
     0
 10
0.0
 20
0.0
 11
1.0
 21
1.0
 12
139.7
 22
107.95
 13
0.0
 23
0.0
 14
10.0
 24
10.0
 15
10.0
 25
10.0
 16
0.0
 26
0.0
 36
1.0
 17
0.0
 27
0.0
 37
0.0
 40
215.9
 41
1.2941176471
 42
50.0
 43
0.0
 44
0.0
 50
0.0
 51
0.0
 71
     0
 72
  2000
 73
     1
 74
     3
 75
     0
 76
     0
 77
     0
 78
     0
281
     0
 65
     1
110
0.0
120
0.0
130
0.0
111
1.0
121
0.0
131
0.0
112
0.0
122
1.0
132
0.0
 79
     0
146
0.0
  0
ENDTAB
  0
TABLE
  2
LTYPE
  5
5
330
0
100
AcDbSymbolTable
 70
     6
  0
LTYPE
  5
14
330
5
100
AcDbSymbolTableRecord
100
AcDbLinetypeTableRecord
  2
ByBlock
 70
     0
  3

 72
    65
 73
     0
 40
0.0
  0
LTYPE
  5
15
330
5
100
AcDbSymbolTableRecord
100
AcDbLinetypeTableRecord
  2
ByLayer
 70
     0
  3

 72
    65
 73
     0
 40
0.0
  0
LTYPE
  5
16
330
5
100
AcDbSymbolTableRecord
100
AcDbLinetypeTableRecord
  2
Continuous
 70
     0
  3
Solid line
 72
    65
 73
     0
 40
0.0
  0
LTYPE
  5
6E
330
5
100
AcDbSymbolTableRecord
100
AcDbLinetypeTableRecord
  2
HIDDEN
 70
     0
  3
Hidden __ __ __ __ __ __ __ __ __ __ __ __ __ __
 72
    65
 73
     2
 40
1.905
 49
1.27
 74
     0
 49
-0.635
 74
     0
  0
LTYPE
  5
6F
330
5
100
AcDbSymbolTableRecord
100
AcDbLinetypeTableRecord
  2
PHANTOM
 70
     0
  3
Phantom ______  __  __  ______  __  __  ______
 72
    65
 73
     6
 40
12.7
 49
6.35
 74
     0
 49
-1.27
 74
     0
 49
1.27
 74
     0
 49
-1.27
 74
     0
 49
1.27
 74
     0
 49
-1.27
 74
     0
  0
LTYPE
  5
70
330
5
100
AcDbSymbolTableRecord
100
AcDbLinetypeTableRecord
  2
CENTER
 70
     0
  3
Center ____ _ ____ _ ____ _ ____ _ ____ _ ____
 72
    65
 73
     4
 40
10.16
 49
6.35
 74
     0
 49
-1.27
 74
     0
 49
1.27
 74
     0
 49
-1.27
 74
     0
  0
LTYPE
  5
71
330
5
100
AcDbSymbolTableRecord
100
AcDbLinetypeTableRecord
  2
CENTERX2
 70
     0
  3
Center (2x) ________  __  ________  __  _____
 72
    65
 73
     4
 40
20.32
 49
12.7
 74
     0
 49
-2.54
 74
     0
 49
2.54
 74
     0
 49
-2.54
 74
     0
  0
LTYPE
  5
72
330
5
100
AcDbSymbolTableRecord
100
AcDbLinetypeTableRecord
  2
DOT2
 70
     0
  3
Dot (.5x) ........................................
 72
    65
 73
     2
 40
0.635
 49
0.0
 74
     0
 49
-0.635
 74
     0
  0
ENDTAB
  0
TABLE
  2
LAYER
  5
2
330
0
100
AcDbSymbolTable
 70
     2
  0
LAYER
  5
10
330
2
100
AcDbSymbolTableRecord
100
AcDbLayerTableRecord
  2
0
 70
     0
 62
     7
  6
Continuous
370
    -3
390
F
  0
LAYER
  5
73
330
2
100
AcDbSymbolTableRecord
100
AcDbLayerTableRecord
  2
FORMAT
 70
     0
 62
     7
  6
Continuous
370
    -3
390
F
  0
ENDTAB
  0
TABLE
  2
STYLE
  5
3
330
0
100
AcDbSymbolTable
 70
     5
  0
STYLE
  5
11
330
3
100
AcDbSymbolTableRecord
100
AcDbTextStyleTableRecord
  2
Standard
 70
     0
 40
0.0
 41
1.0
 50
0.0
 71
     0
 42
2.8222222222
  3
txt
  4

  0
STYLE
  5
9D
330
3
100
AcDbSymbolTableRecord
100
AcDbTextStyleTableRecord
  2
SLDTEXTSTYLE0
 70
     0
 40
0.0
 41
0.75
 50
0.0
 71
     0
 42
2.8222222222
  3
TXT
  4

  0
STYLE
  5
A3
330
3
100
AcDbSymbolTableRecord
100
AcDbTextStyleTableRecord
  2
SLDTEXTSTYLE1
 70
     0
 40
0.0
 41
0.75
 50
0.0
 71
     0
 42
2.8222222222
  3
TXT
  4
bigfont
  0
STYLE
  5
B7
330
3
100
AcDbSymbolTableRecord
100
AcDbTextStyleTableRecord
  2
SLDTEXTSTYLE2
 70
     0
 40
0.0
 41
0.7
 50
0.0
 71
     0
 42
2.8222222222
  3
TXT
  4

  0
STYLE
  5
C6
330
3
100
AcDbSymbolTableRecord
100
AcDbTextStyleTableRecord
  2
SLDTEXTSTYLE3
 70
     0
 40
0.0
 41
0.6
 50
0.0
 71
     0
 42
2.8222222222
  3
TXT
  4

  0
ENDTAB
  0
TABLE
  2
VIEW
  5
6
330
0
100
AcDbSymbolTable
 70
     0
  0
ENDTAB
  0
TABLE
  2
UCS
  5
7
330
0
100
AcDbSymbolTable
 70
     0
  0
ENDTAB
  0
TABLE
  2
APPID
  5
9
330
0
100
AcDbSymbolTable
 70
     1
  0
APPID
  5
12
330
9
100
AcDbSymbolTableRecord
100
AcDbRegAppTableRecord
  2
ACAD
 70
     0
  0
ENDTAB
  0
TABLE
  2
DIMSTYLE
  5
A
330
0
100
AcDbSymbolTable
 70
     6
100
AcDbDimStyleTable
  0
DIMSTYLE
105
27
330
A
100
AcDbSymbolTableRecord
100
AcDbDimStyleTableRecord
  2
ISO-25
 70
     0
 41
2.5
 42
0.625
 43
3.75
 44
1.25
 73
     0
 74
     0
 77
     1
 78
     8
140
2.5
141
2.5
143
0.0393700787
147
0.625
171
     3
172
     1
178
     0
271
     2
272
     2
274
     3
278
    44
283
     0
284
     8
340
11
  0
DIMSTYLE
105
F5
102
{ACAD_REACTORS
330
F4
102
}
330
A
100
AcDbSymbolTableRecord
100
AcDbDimStyleTableRecord
  2
SLDDIMSTYLE0
 70
     0
 41
3.175
 44
0.0
 45
0.000000001
 78
    12
 79
     3
140
2.1166666667
141
0.0
143
0.0393700787
147
0.5291666667
148
0.000000001
170
     1
173
     1
178
     0
271
     1
272
     1
276
     2
284
    12
340
9D
  0
DIMSTYLE
105
118
102
{ACAD_REACTORS
330
117
102
}
330
A
100
AcDbSymbolTableRecord
100
AcDbDimStyleTableRecord
  2
SLDDIMSTYLE1
 70
     0
 41
3.175
 44
0.0
 45
0.000000001
 78
    12
 79
     3
140
2.1166666667
143
0.0393700787
147
0.5291666667
148
0.000000001
170
     1
172
     1
173
     1
178
     0
271
     1
272
     1
276
     2
284
    12
289
     0
340
9D
  0
DIMSTYLE
105
12C
102
{ACAD_REACTORS
330
12B
102
}
330
A
100
AcDbSymbolTableRecord
100
AcDbDimStyleTableRecord
  2
SLDDIMSTYLE2
 70
     0
 41
3.175
 44
0.0
 45
0.000000001
 78
     4
 79
     1
140
2.1166666667
141
0.0
143
0.0393700787
147
0.5291666667
148
0.000000001
170
     1
173
     1
178
     0
271
     1
272
     1
276
     2
284
    12
340
9D
  0
DIMSTYLE
105
13D
102
{ACAD_REACTORS
330
13C
102
}
330
A
100
AcDbSymbolTableRecord
100
AcDbDimStyleTableRecord
  2
SLDDIMSTYLE3
 70
     0
 41
3.175
 44
0.0
 45
0.000000001
 78
     4
 79
     1
140
2.1166666667
143
0.0393700787
147
0.5291666667
148
0.000000001
170
     1
172
     1
173
     1
178
     0
271
     1
272
     1
276
     2
284
    12
289
     0
340
9D
  0
DIMSTYLE
105
153
330
A
100
AcDbSymbolTableRecord
100
AcDbDimStyleTableRecord
  2
SLDDIMSTYLE4
 70
     0
 41
3.175
 44
0.0
 45
0.000000001
146
3.175
147
0.0
173
     1
178
     0
271
     0
272
     0
276
     2
340
11
  0
ENDTAB
  0
TABLE
  2
BLOCK_RECORD
  5
1
330
0
100
AcDbSymbolTable
 70
    11
  0
BLOCK_RECORD
  5
1F
330
1
100
AcDbSymbolTableRecord
100
AcDbBlockTableRecord
  2
*Model_Space
340
22
  0
BLOCK_RECORD
  5
1B
330
1
100
AcDbSymbolTableRecord
100
AcDbBlockTableRecord
  2
*Paper_Space
340
1E
  0
BLOCK_RECORD
  5
23
330
1
100
AcDbSymbolTableRecord
100
AcDbBlockTableRecord
  2
*Paper_Space0
340
26
  0
BLOCK_RECORD
  5
74
330
1
100
AcDbSymbolTableRecord
100
AcDbBlockTableRecord
  2
Third Angle Projection Block
340
0
102
{BLKREFS
331
99
102
}
  0
BLOCK_RECORD
  5
9A
330
1
100
AcDbSymbolTableRecord
100
AcDbBlockTableRecord
  2
SW_NOTE_0
340
0
102
{BLKREFS
331
BA
102
}
  0
BLOCK_RECORD
  5
CC
330
1
100
AcDbSymbolTableRecord
100
AcDbBlockTableRecord
  2
SW_NOTE_1
340
0
102
{BLKREFS
331
D1
102
}
  0
BLOCK_RECORD
  5
D2
330
1
100
AcDbSymbolTableRecord
100
AcDbBlockTableRecord
  2
SW_NOTE_2
340
0
102
{BLKREFS
331
D7
102
}
  0
BLOCK_RECORD
  5
D9
330
1
100
AcDbSymbolTableRecord
100
AcDbBlockTableRecord
  2
SW_NOTE_3
340
0
102
{BLKREFS
331
DE
102
}
  0
BLOCK_RECORD
  5
DF
330
1
100
AcDbSymbolTableRecord
100
AcDbBlockTableRecord
  2
SW_NOTE_4
340
0
102
{BLKREFS
331
E5
102
}
  0
BLOCK_RECORD
  5
F6
330
1
100
AcDbSymbolTableRecord
100
AcDbBlockTableRecord
  2
_D
340
0
  0
BLOCK_RECORD
  5
119
330
1
100
AcDbSymbolTableRecord
100
AcDbBlockTableRecord
  2
_D_1
340
0
  0
BLOCK_RECORD
  5
12D
330
1
100
AcDbSymbolTableRecord
100
AcDbBlockTableRecord
  2
_D_2
340
0
  0
BLOCK_RECORD
  5
13E
330
1
100
AcDbSymbolTableRecord
100
AcDbBlockTableRecord
  2
_D_3
340
0
  0
ENDTAB
  0
ENDSEC
  0
SECTION
  2
BLOCKS
  0
BLOCK
  5
20
330
1F
100
AcDbEntity
  8
0
100
AcDbBlockBegin
  2
*Model_Space
 70
     0
 10
0.0
 20
0.0
 30
0.0
  3
*Model_Space
  1

  0
ENDBLK
  5
21
330
1F
100
AcDbEntity
  8
0
100
AcDbBlockEnd
  0
BLOCK
  5
1C
330
1B
100
AcDbEntity
 67
     1
  8
0
100
AcDbBlockBegin
  2
*Paper_Space
 70
     0
 10
0.0
 20
0.0
 30
0.0
  3
*Paper_Space
  1

  0
ENDBLK
  5
1D
330
1B
100
AcDbEntity
 67
     1
  8
0
100
AcDbBlockEnd
  0
BLOCK
  5
24
330
23
100
AcDbEntity
  8
0
100
AcDbBlockBegin
  2
*Paper_Space0
 70
     0
 10
0.0
 20
0.0
 30
0.0
  3
*Paper_Space0
  1

  0
ENDBLK
  5
25
330
23
100
AcDbEntity
  8
0
100
AcDbBlockEnd
  0
BLOCK
  5
75
330
74
100
AcDbEntity
  8
0
100
AcDbBlockBegin
  2
Third Angle Projection Block
 70
     0
 10
0.0
 20
0.0
 30
0.0
  3
Third Angle Projection Block
  1

  0
CIRCLE
  5
77
330
74
100
AcDbEntity
  8
0
  6
Continuous
 62
     7
370
    35
100
AcDbCircle
 10
101.4766388944
 20
18.9404083667
 30
0.0
 40
1.768227153674871
  0
CIRCLE
  5
78
330
74
100
AcDbEntity
  8
0
  6
Continuous
 62
     7
370
    35
100
AcDbCircle
 10
101.4766388944
 20
18.9404083667
 30
0.0
 40
3.901228248531818
  0
LINE
  5
79
330
74
100
AcDbEntity
  8
0
  6
CENTERX2
 62
     7
370
    18
100
AcDbLine
 10
110.1367822585
 20
18.9404083667
 30
0.0
 11
119.4527334874
 21
18.9404083667
 31
0.0
  0
LINE
  5
7A
330
74
100
AcDbEntity
  8
0
  6
Continuous
 62
     7
370
    35
100
AcDbLine
 10
111.0016388944
 20
20.7086355204
 30
0.0
 11
111.0016388944
 21
17.172181213
 31
0.0
  0
LINE
  5
7B
330
74
100
AcDbEntity
  8
0
  6
Continuous
 62
     7
370
    35
100
AcDbLine
 10
111.0016388944
 20
17.172181213
 30
0.0
 11
118.6216388944
 21
15.1304083667
 31
0.0
  0
LINE
  5
7C
330
74
100
AcDbEntity
  8
0
  6
Continuous
 62
     7
370
    35
100
AcDbLine
 10
118.6216388944
 20
15.1304083667
 30
0.0
 11
118.6216388944
 21
22.7504083667
 31
0.0
  0
LINE
  5
7D
330
74
100
AcDbEntity
  8
0
  6
Continuous
 62
     7
370
    35
100
AcDbLine
 10
118.6216388944
 20
22.7504083667
 30
0.0
 11
111.0016388944
 21
20.7086355204
 31
0.0
  0
LINE
  5
7E
330
74
100
AcDbEntity
  8
0
  6
CENTERX2
 62
     7
370
    18
100
AcDbLine
 10
96.6025854619
 20
18.9404083667
 30
0.0
 11
106.3506923269
 21
18.9404083667
 31
0.0
  0
LINE
  5
7F
330
74
100
AcDbEntity
  8
0
  6
CENTERX2
 62
     7
370
    18
100
AcDbLine
 10
101.4766388944
 20
23.8144617992
 30
0.0
 11
101.4766388944
 21
14.0663549342
 31
0.0
  0
POINT
  5
80
330
74
100
AcDbEntity
  8
0
  6
Continuous
 62
     7
370
     0
100
AcDbPoint
 10
101.4766388944
 20
18.9404083667
 30
0.0
  0
ENDBLK
  5
76
330
74
100
AcDbEntity
  8
0
100
AcDbBlockEnd
  0
BLOCK
  5
9B
330
9A
100
AcDbEntity
  8
0
100
AcDbBlockBegin
  2
SW_NOTE_0
 70
     0
 10
0.0
 20
0.0
 30
0.0
  3
SW_NOTE_0
  1

  0
MTEXT
  5
9E
330
9A
100
AcDbEntity
  8
0
  6
Continuous
 62
     0
370
     0
100
AcDbMText
 10
0.0
 20
3.4106583948
 30
0.0
 40
2.6458333333
 41
0.0
 71
     1
 72
     1
  1
NOTES/SPECIFICATIONS:
  7
SLDTEXTSTYLE0
 73
     1
 44
1.0
  0
MTEXT
  5
9F
330
9A
100
AcDbEntity
  8
0
  6
Continuous
 62
     0
370
     0
100
AcDbMText
 10
9.9999997765
 20
-5.6448974033
 30
0.0
 40
2.6458333333
 41
0.0
 71
     1
 72
     1
  1
CLEAR APERTURE: >
  7
SLDTEXTSTYLE0
 73
     1
 44
1.0
  0
MTEXT
  5
A0
330
9A
100
AcDbEntity
  8
0
  6
Continuous
 62
     0
370
     0
100
AcDbMText
 10
42.7789334208
 20
-5.6448974033
 30
0.0
 40
2.6458333333
 41
0.0
 71
     1
 72
     1
  1
%%c
  7
SLDTEXTSTYLE0
 73
     1
 44
1.0
  0
MTEXT
  5
A1
330
9A
100
AcDbEntity
  8
0
  6
Continuous
 62
     0
370
     0
100
AcDbMText
 10
46.7726718634
 20
-5.6448974033
 30
0.0
 40
2.6458333333
 41
0.0
 71
     1
 72
     1
  1
45.72mm
  7
SLDTEXTSTYLE0
 73
     1
 44
1.0
  0
MTEXT
  5
A2
330
9A
100
AcDbEntity
  8
0
  6
Continuous
 62
     0
370
     0
100
AcDbMText
 10
0.0
 20
-5.6448974033
 30
0.0
 40
2.6458333333
 41
0.0
 71
     1
 72
     1
  1
1.
  7
SLDTEXTSTYLE0
 73
     1
 44
1.0
  0
MTEXT
  5
A4
330
9A
100
AcDbEntity
  8
0
  6
Continuous
 62
     0
370
     0
100
AcDbMText
 10
9.9999997765
 20
-10.1726753024
 30
0.0
 40
2.6458333333
 41
0.0
 71
     1
 72
     1
  1
SURFACE IRREGULARITY (S1): \U+2264\M+183C9/4 AT 633nm OVER CLEAR APERTURE
  7
SLDTEXTSTYLE1
 73
     1
 44
1.0
  0
MTEXT
  5
A5
330
9A
100
AcDbEntity
  8
0
  6
Continuous
 62
     0
370
     0
100
AcDbMText
 10
0.0
 20
-10.1726753024
 30
0.0
 40
2.6458333333
 41
0.0
 71
     1
 72
     1
  1
2.
  7
SLDTEXTSTYLE0
 73
     1
 44
1.0
  0
MTEXT
  5
A6
330
9A
100
AcDbEntity
  8
0
  6
Continuous
 62
     0
370
     0
100
AcDbMText
 10
9.9999997765
 20
-14.7004532014
 30
0.0
 40
2.6458333333
 41
0.0
 71
     1
 72
     1
  1
BACK SURFACE (S2): UNIFORM FINE GRIND #12-#20 GRIT
  7
SLDTEXTSTYLE0
 73
     1
 44
1.0
  0
MTEXT
  5
A7
330
9A
100
AcDbEntity
  8
0
  6
Continuous
 62
     0
370
     0
100
AcDbMText
 10
0.0
 20
-14.7004532014
 30
0.0
 40
2.6458333333
 41
0.0
 71
     1
 72
     1
  1
3.
  7
SLDTEXTSTYLE0
 73
     1
 44
1.0
  0
MTEXT
  5
A8
330
9A
100
AcDbEntity
  8
0
  6
Continuous
 62
     0
370
     0
100
AcDbMText
 10
9.9999997765
 20
-19.2282311005
 30
0.0
 40
2.6458333333
 41
0.0
 71
     1
 72
     1
  1
SURFACE QUALITY(S1): 20-10 SCRATCH-DIG
  7
SLDTEXTSTYLE0
 73
     1
 44
1.0
  0
MTEXT
  5
A9
330
9A
100
AcDbEntity
  8
0
  6
Continuous
 62
     0
370
     0
100
AcDbMText
 10
0.0
 20
-19.2282311005
 30
0.0
 40
2.6458333333
 41
0.0
 71
     1
 72
     1
  1
4.
  7
SLDTEXTSTYLE0
 73
     1
 44
1.0
  0
MTEXT
  5
AA
330
9A
100
AcDbEntity
  8
0
  6
Continuous
 62
     0
370
     0
100
AcDbMText
 10
9.9999997765
 20
-23.7560089995
 30
0.0
 40
2.6458333333
 41
0.0
 71
     1
 72
     1
  1
THICKNESS TOLERANCE:
  7
SLDTEXTSTYLE0
 73
     1
 44
1.0
  0
MTEXT
  5
AB
330
9A
100
AcDbEntity
  8
0
  6
Continuous
 62
     0
370
     0
100
AcDbMText
 10
50.8242268115
 20
-23.7560089995
 30
0.0
 40
2.6458333333
 41
0.0
 71
     1
 72
     1
  1
%%p
  7
SLDTEXTSTYLE0
 73
     1
 44
1.0
  0
MTEXT
  5
AC
330
9A
100
AcDbEntity
  8
0
  6
Continuous
 62
     0
370
     0
100
AcDbMText
 10
53.3465910703
 20
-23.7560089995
 30
0.0
 40
2.6458333333
 41
0.0
 71
     1
 72
     1
  1
0.1 mm
  7
SLDTEXTSTYLE0
 73
     1
 44
1.0
  0
MTEXT
  5
AD
330
9A
100
AcDbEntity
  8
0
  6
Continuous
 62
     0
370
     0
100
AcDbMText
 10
0.0
 20
-23.7560089995
 30
0.0
 40
2.6458333333
 41
0.0
 71
     1
 72
     1
  1
5.
  7
SLDTEXTSTYLE0
 73
     1
 44
1.0
  0
MTEXT
  5
AE
330
9A
100
AcDbEntity
  8
0
  6
Continuous
 62
     0
370
     0
100
AcDbMText
 10
9.9999997765
 20
-28.2837868986
 30
0.0
 40
2.6458333333
 41
0.0
 71
     1
 72
     1
  1
DIAMETER TOLERANCE: +0.0/-0.2 mm
  7
SLDTEXTSTYLE0
 73
     1
 44
1.0
  0
MTEXT
  5
AF
330
9A
100
AcDbEntity
  8
0
  6
Continuous
 62
     0
370
     0
100
AcDbMText
 10
0.0
 20
-28.2837868986
 30
0.0
 40
2.6458333333
 41
0.0
 71
     1
 72
     1
  1
6.
  7
SLDTEXTSTYLE0
 73
     1
 44
1.0
  0
MTEXT
  5
B0
330
9A
100
AcDbEntity
  8
0
  6
Continuous
 62
     0
370
     0
100
AcDbMText
 10
9.9999997765
 20
-32.8115647976
 30
0.0
 40
2.6458333333
 41
0.0
 71
     1
 72
     1
  1
DESIGN WAVELENGTH RANGE: 750-1100nm
  7
SLDTEXTSTYLE0
 73
     1
 44
1.0
  0
MTEXT
  5
B1
330
9A
100
AcDbEntity
  8
0
  6
Continuous
 62
     0
370
     0
100
AcDbMText
 10
0.0
 20
-32.8115647976
 30
0.0
 40
2.6458333333
 41
0.0
 71
     1
 72
     1
  1
7.
  7
SLDTEXTSTYLE0
 73
     1
 44
1.0
  0
MTEXT
  5
B2
330
9A
100
AcDbEntity
  8
0
  6
Continuous
 62
     0
370
     0
100
AcDbMText
 10
9.9999997765
 20
-37.3393426967
 30
0.0
 40
2.6458333333
 41
0.0
 71
     1
 72
     1
  1
COATING(S1): BROADBAND HR, DIELECTRIC
  7
SLDTEXTSTYLE0
 73
     1
 44
1.0
  0
MTEXT
  5
B3
330
9A
100
AcDbEntity
  8
0
  6
Continuous
 62
     0
370
     0
100
AcDbMText
 10
0.0
 20
-37.3393426967
 30
0.0
 40
2.6458333333
 41
0.0
 71
     1
 72
     1
  1
8.
  7
SLDTEXTSTYLE0
 73
     1
 44
1.0
  0
MTEXT
  5
B4
330
9A
100
AcDbEntity
  8
0
  6
Continuous
 62
     0
370
     0
100
AcDbMText
 10
34.8828125
 20
-41.8671205958
 30
0.0
 40
2.6458333333
 41
0.0
 71
     1
 72
     1
  1
Rs and Rp >99% AVERAGE OVER WAVELENGTH RANGE
  7
SLDTEXTSTYLE0
 73
     1
 44
1.0
  0
MTEXT
  5
B5
330
9A
100
AcDbEntity
  8
0
  6
Continuous
 62
     0
370
     0
100
AcDbMText
 10
35.71875
 20
-46.3948984948
 30
0.0
 40
2.6458333333
 41
0.0
 71
     1
 72
     1
  1
AOI: 0
  7
SLDTEXTSTYLE0
 73
     1
 44
1.0
  0
MTEXT
  5
B6
330
9A
100
AcDbEntity
  8
0
  6
Continuous
 62
     0
370
     0
100
AcDbMText
 10
45.4838350415
 20
-46.3948984948
 30
0.0
 40
2.6458333333
 41
0.0
 71
     1
 72
     1
  1
%%d
  7
SLDTEXTSTYLE0
 73
     1
 44
1.0
  0
MTEXT
  5
B8
330
9A
100
AcDbEntity
  8
0
  6
Continuous
 62
     0
370
     0
100
AcDbMText
 10
48.1575962305
 20
-46.3948984948
 30
0.0
 40
2.6458333333
 41
0.0
 71
     1
 72
     1
  1
TO 45
  7
SLDTEXTSTYLE2
 73
     1
 44
1.0
  0
MTEXT
  5
B9
330
9A
100
AcDbEntity
  8
0
  6
Continuous
 62
     0
370
     0
100
AcDbMText
 10
57.5968511403
 20
-46.3948984948
 30
0.0
 40
2.6458333333
 41
0.0
 71
     1
 72
     1
  1
%%d
  7
SLDTEXTSTYLE0
 73
     1
 44
1.0
  0
ENDBLK
  5
9C
330
9A
100
AcDbEntity
  8
0
100
AcDbBlockEnd
  0
BLOCK
  5
CD
330
CC
100
AcDbEntity
  8
0
100
AcDbBlockBegin
  2
SW_NOTE_1
 70
     0
 10
0.0
 20
0.0
 30
0.0
  3
SW_NOTE_1
  1

  0
MTEXT
  5
CF
330
CC
100
AcDbEntity
  8
0
  6
Continuous
 62
     0
370
     0
100
AcDbMText
 10
19.90725
 20
1.9645392354
 30
0.0
 40
1.524
 41
0.0
 71
     2
 72
     1
  1
VALUES IN PARENTHESIS ARE CALCULATED
  7
SLDTEXTSTYLE0
 73
     1
 44
1.0
  0
MTEXT
  5
D0
330
CC
100
AcDbEntity
  8
0
  6
Continuous
 62
     0
370
     0
100
AcDbMText
 10
19.8778795174
 20
-0.5594606586
 30
0.0
 40
1.524
 41
0.0
 71
     2
 72
     1
  1
AND MAY CONTAIN ROUNDOFF ERRORS
  7
SLDTEXTSTYLE0
 73
     1
 44
1.0
  0
ENDBLK
  5
CE
330
CC
100
AcDbEntity
  8
0
100
AcDbBlockEnd
  0
BLOCK
  5
D3
330
D2
100
AcDbEntity
  8
0
100
AcDbBlockBegin
  2
SW_NOTE_2
 70
     0
 10
0.0
 20
0.0
 30
0.0
  3
SW_NOTE_2
  1

  0
MTEXT
  5
D5
330
D2
100
AcDbEntity
  8
0
  6
Continuous
 62
     0
370
     0
100
AcDbMText
 10
0.0
 20
2.7285267159
 30
0.0
 40
2.1166666667
 41
0.0
 71
     1
 72
     1
  1
DRAWING
  7
SLDTEXTSTYLE0
 73
     1
 44
1.0
  0
MTEXT
  5
D6
330
D2
100
AcDbEntity
  8
0
  6
Continuous
 62
     0
370
     0
100
AcDbMText
 10
0.0
 20
-0.0936954723
 30
0.0
 40
2.1166666667
 41
0.0
 71
     1
 72
     1
  1
PROJECTION
  7
SLDTEXTSTYLE0
 73
     1
 44
1.0
  0
ENDBLK
  5
D4
330
D2
100
AcDbEntity
  8
0
100
AcDbBlockEnd
  0
BLOCK
  5
DA
330
D9
100
AcDbEntity
  8
0
100
AcDbBlockBegin
  2
SW_NOTE_3
 70
     0
 10
0.0
 20
0.0
 30
0.0
  3
SW_NOTE_3
  1

  0
MTEXT
  5
DC
330
D9
100
AcDbEntity
  8
0
  6
Continuous
 62
     0
370
     0
100
AcDbMText
 10
25.052734375
 20
4.0927900738
 30
0.0
 40
3.175
 41
0.0
 71
     2
 72
     1
  1
FOR INFORMATION ONLY
  7
SLDTEXTSTYLE0
 73
     1
 44
1.0
  0
MTEXT
  5
DD
330
D9
100
AcDbEntity
  8
0
  6
Continuous
 62
     0
370
     0
100
AcDbMText
 10
25.3768468589
 20
-0.1405432084
 30
0.0
 40
3.175
 41
0.0
 71
     2
 72
     1
  1
NOT FOR MANUFACTURING PURPOSES
  7
SLDTEXTSTYLE0
 73
     1
 44
1.0
  0
ENDBLK
  5
DB
330
D9
100
AcDbEntity
  8
0
100
AcDbBlockEnd
  0
BLOCK
  5
E0
330
DF
100
AcDbEntity
  8
0
100
AcDbBlockBegin
  2
SW_NOTE_4
 70
     0
 10
0.0
 20
0.0
 30
0.0
  3
SW_NOTE_4
  1

  0
MTEXT
  5
E2
330
DF
100
AcDbEntity
  8
0
  6
Continuous
 62
     0
370
     0
100
AcDbMText
 10
1.9016927083
 20
3.4106583948
 30
0.0
 40
2.6458333333
 41
0.0
 71
     2
 72
     1
  1
%%c
  7
SLDTEXTSTYLE0
 73
     1
 44
1.0
  0
MTEXT
  5
E3
330
DF
100
AcDbEntity
  8
0
  6
Continuous
 62
     0
370
     0
100
AcDbMText
 10
31.3615769843
 20
3.4106583948
 30
0.0
 40
2.6458333333
 41
0.0
 71
     2
 72
     1
  1
50.8mm, f=1000mm BROADBAND
  7
SLDTEXTSTYLE0
 73
     1
 44
1.0
  0
MTEXT
  5
E4
330
DF
100
AcDbEntity
  8
0
  6
Continuous
 62
     0
370
     0
100
AcDbMText
 10
29.8185474624
 20
-0.1171193403
 30
0.0
 40
2.6458333333
 41
0.0
 71
     2
 72
     1
  1
MIRROR 750-1100nm
  7
SLDTEXTSTYLE0
 73
     1
 44
1.0
  0
ENDBLK
  5
E1
330
DF
100
AcDbEntity
  8
0
100
AcDbBlockEnd
  0
BLOCK
  5
F7
330
F6
100
AcDbEntity
  8
0
100
AcDbBlockBegin
  2
_D
 70
     0
 10
0.0
 20
0.0
 30
0.0
  3
_D
  1

  0
SOLID
  5
F9
330
F6
100
AcDbEntity
  8
0
  6
Continuous
 62
     7
370
    18
100
AcDbTrace
 10
72.1914793239
 20
132.8963960551
 30
0.0
 11
74.795753599
 21
134.7822498405
 31
0.0
 12
74.0773331093
 22
135.5006703302
 32
0.0
 13
74.0773331093
 23
135.5006703302
 33
0.0
  0
LINE
  5
FA
330
F6
100
AcDbEntity
  8
0
  6
Continuous
 62
     7
370
    18
100
AcDbLine
 10
90.6271983238
 20
144.6633673068
 30
0.0
 11
89.9833788697
 21
144.6633673068
 31
0.0
  0
LINE
  5
FB
330
F6
100
AcDbEntity
  8
0
  6
Continuous
 62
     7
370
    18
100
AcDbLine
 10
89.9833788697
 20
144.6633673068
 30
0.0
 11
89.9833788697
 21
141.3002192303
 31
0.0
  0
LINE
  5
FC
330
F6
100
AcDbEntity
  8
0
  6
Continuous
 62
     7
370
    18
100
AcDbLine
 10
89.9833788697
 20
141.3002192303
 30
0.0
 11
90.6271983238
 21
141.3002192303
 31
0.0
  0
LINE
  5
FD
330
F6
100
AcDbEntity
  8
0
  6
Continuous
 62
     7
370
    18
100
AcDbLine
 10
98.3843898701
 20
144.6633673068
 30
0.0
 11
99.0282093242
 21
144.6633673068
 31
0.0
  0
LINE
  5
FE
330
F6
100
AcDbEntity
  8
0
  6
Continuous
 62
     7
370
    18
100
AcDbLine
 10
99.0282093242
 20
144.6633673068
 30
0.0
 11
99.0282093242
 21
141.3002192303
 31
0.0
  0
LINE
  5
FF
330
F6
100
AcDbEntity
  8
0
  6
Continuous
 62
     7
370
    18
100
AcDbLine
 10
99.0282093242
 20
141.3002192303
 30
0.0
 11
98.3843898701
 21
141.3002192303
 31
0.0
  0
LINE
  5
100
330
F6
100
AcDbEntity
  8
0
  6
Continuous
 62
     7
370
    18
100
AcDbLine
 10
72.1914793239
 20
132.8963960551
 30
0.0
 11
85.5295594156
 21
146.2344761468
 31
0.0
  0
LINE
  5
101
330
F6
100
AcDbEntity
  8
0
  6
Continuous
 62
     7
370
    18
100
AcDbLine
 10
85.5295594156
 20
146.2344761468
 30
0.0
 11
89.3395594156
 21
146.2344761468
 31
0.0
  0
MTEXT
  5
102
330
F6
100
AcDbEntity
  8
0
  6
Continuous
 62
     7
370
    18
100
AcDbMText
 10
89.3395594156
 20
147.8211069532
 30
0.0
 40
2.1166666667
 41
0.0
 71
     1
 72
     1
  1
%%c
  7
SLDTEXTSTYLE0
 73
     1
 44
1.0
  0
MTEXT
  5
103
330
F6
100
AcDbEntity
  8
0
  6
Continuous
 62
     7
370
    18
100
AcDbMText
 10
92.5345502163
 20
147.8211069532
 30
0.0
 40
2.1166666667
 41
0.0
 71
     1
 72
     1
  1
50.8mm
  7
SLDTEXTSTYLE0
 73
     1
 44
1.0
  0
MTEXT
  5
104
330
F6
100
AcDbEntity
  8
0
  6
Continuous
 62
     7
370
    18
100
AcDbMText
 10
90.6271983238
 20
144.0287458298
 30
0.0
 40
2.1166666667
 41
0.0
 71
     1
 72
     1
  1
2.00in
  7
SLDTEXTSTYLE0
 73
     1
 44
1.0
  0
ENDBLK
  5
F8
330
F6
100
AcDbEntity
  8
0
100
AcDbBlockEnd
  0
BLOCK
  5
11A
330
119
100
AcDbEntity
  8
0
100
AcDbBlockBegin
  2
_D_1
 70
     0
 10
0.0
 20
0.0
 30
0.0
  3
_D_1
  1

  0
SOLID
  5
11C
330
119
100
AcDbEntity
  8
0
  6
Continuous
 62
     7
370
    18
100
AcDbTrace
 10
135.2530419823
 20
153.0610118047
 30
0.0
 11
132.0781806936
 21
153.5698779932
 31
0.0
 12
132.0779035073
 22
152.553878031
 32
0.0
 13
132.0779035073
 23
152.553878031
 33
0.0
  0
SOLID
  5
11D
330
119
100
AcDbEntity
  8
0
  6
Continuous
 62
     7
370
    18
100
AcDbTrace
 10
144.4118397713
 20
153.0585130901
 30
0.0
 11
147.58670106
 21
152.5496469016
 31
0.0
 12
147.5869782463
 22
153.5656468638
 32
0.0
 13
147.5869782463
 23
153.5656468638
 33
0.0
  0
LINE
  5
11E
330
119
100
AcDbEntity
  8
0
  6
Continuous
 62
     7
370
    18
100
AcDbLine
 10
157.9592960938
 20
153.0530255918
 30
0.0
 11
157.3154766397
 21
153.0530255918
 31
0.0
  0
LINE
  5
11F
330
119
100
AcDbEntity
  8
0
  6
Continuous
 62
     7
370
    18
100
AcDbLine
 10
157.3154766397
 20
153.0530255918
 30
0.0
 11
157.3154766397
 21
149.6898775154
 31
0.0
  0
LINE
  5
120
330
119
100
AcDbEntity
  8
0
  6
Continuous
 62
     7
370
    18
100
AcDbLine
 10
157.3154766397
 20
149.6898775154
 30
0.0
 11
157.9592960938
 21
149.6898775154
 31
0.0
  0
LINE
  5
121
330
119
100
AcDbEntity
  8
0
  6
Continuous
 62
     7
370
    18
100
AcDbLine
 10
165.71648764
 20
153.0530255918
 30
0.0
 11
166.3603070942
 21
153.0530255918
 31
0.0
  0
LINE
  5
122
330
119
100
AcDbEntity
  8
0
  6
Continuous
 62
     7
370
    18
100
AcDbLine
 10
166.3603070942
 20
153.0530255918
 30
0.0
 11
166.3603070942
 21
149.6898775154
 31
0.0
  0
LINE
  5
123
330
119
100
AcDbEntity
  8
0
  6
Continuous
 62
     7
370
    18
100
AcDbLine
 10
166.3603070942
 20
149.6898775154
 30
0.0
 11
165.71648764
 21
149.6898775154
 31
0.0
  0
LINE
  5
124
330
119
100
AcDbEntity
  8
0
  6
Continuous
 62
     7
370
    18
100
AcDbLine
 10
135.2498628975
 20
141.4083824803
 30
0.0
 11
135.2535270584
 21
154.8390117385
 31
0.0
  0
LINE
  5
125
330
119
100
AcDbEntity
  8
0
  6
Continuous
 62
     7
370
    18
100
AcDbLine
 10
144.4086606865
 20
141.4058837657
 30
0.0
 11
144.4123248474
 21
154.8365130239
 31
0.0
  0
LINE
  5
126
330
119
100
AcDbEntity
  8
0
  6
Continuous
 62
     7
370
    18
100
AcDbLine
 10
135.2530419823
 20
153.0610118047
 30
0.0
 11
128.9030422186
 21
153.0627442195
 31
0.0
  0
LINE
  5
127
330
119
100
AcDbEntity
  8
0
  6
Continuous
 62
     7
370
    18
100
AcDbLine
 10
144.4118397713
 20
153.0585130901
 30
0.0
 11
156.2421437028
 21
153.0552855319
 31
0.0
  0
MTEXT
  5
128
330
119
100
AcDbEntity
  8
0
  6
Continuous
 62
     7
370
    18
100
AcDbMText
 10
157.2380614984
 20
156.2107652383
 30
0.0
 40
2.1166666667
 41
0.0
 71
     1
 72
     1
  1
9.2mm
  7
SLDTEXTSTYLE0
 73
     1
 44
1.0
  0
MTEXT
  5
129
330
119
100
AcDbEntity
  8
0
  6
Continuous
 62
     7
370
    18
100
AcDbMText
 10
157.9592960938
 20
152.4184041148
 30
0.0
 40
2.1166666667
 41
0.0
 71
     1
 72
     1
  1
0.36in
  7
SLDTEXTSTYLE0
 73
     1
 44
1.0
  0
MTEXT
  5
12A
330
119
100
AcDbEntity
  8
0
  6
Continuous
 62
     7
370
    18
100
AcDbMText
 10
167.7978760826
 20
156.2107652383
 30
0.0
 40
2.1166666667
 41
0.0
 71
     1
 72
     1
  1
REF
  7
SLDTEXTSTYLE0
 73
     1
 44
1.0
  0
ENDBLK
  5
11B
330
119
100
AcDbEntity
  8
0
100
AcDbBlockEnd
  0
BLOCK
  5
12E
330
12D
100
AcDbEntity
  8
0
100
AcDbBlockBegin
  2
_D_2
 70
     0
 10
0.0
 20
0.0
 30
0.0
  3
_D_2
  1

  0
ARC
  5
130
330
12D
100
AcDbEntity
  8
0
  6
Continuous
 62
     7
370
    18
100
AcDbCircle
 10
-1864.5916925733
 20
114.935883813
 30
0.0
 40
2000.000006776844
100
AcDbArc
 50
358.9960158712
 51
359.2415996735
  0
SOLID
  5
131
330
12D
100
AcDbEntity
  8
0
  6
Continuous
 62
     7
370
    18
100
AcDbTrace
 10
135.1316363174
 20
81.6697599407
 30
0.0
 11
138.2977474959
 21
81.1090202454
 31
0.0
 12
138.3146466867
 22
82.124879693
 32
0.0
 13
138.3146466867
 23
82.124879693
 33
0.0
  0
LINE
  5
132
330
12D
100
AcDbEntity
  8
0
  6
Continuous
 62
     7
370
    18
100
AcDbLine
 10
158.0102534084
 20
79.8028580705
 30
0.0
 11
157.3664339543
 21
79.8028580705
 31
0.0
  0
LINE
  5
133
330
12D
100
AcDbEntity
  8
0
  6
Continuous
 62
     7
370
    18
100
AcDbLine
 10
157.3664339543
 20
79.8028580705
 30
0.0
 11
157.3664339543
 21
76.4397099941
 31
0.0
  0
LINE
  5
134
330
12D
100
AcDbEntity
  8
0
  6
Continuous
 62
     7
370
    18
100
AcDbLine
 10
157.3664339543
 20
76.4397099941
 30
0.0
 11
158.0102534084
 21
76.4397099941
 31
0.0
  0
LINE
  5
135
330
12D
100
AcDbEntity
  8
0
  6
Continuous
 62
     7
370
    18
100
AcDbLine
 10
167.3314270614
 20
79.8028580705
 30
0.0
 11
167.9752465156
 21
79.8028580705
 31
0.0
  0
LINE
  5
136
330
12D
100
AcDbEntity
  8
0
  6
Continuous
 62
     7
370
    18
100
AcDbLine
 10
167.9752465156
 20
79.8028580705
 30
0.0
 11
167.9752465156
 21
76.4397099941
 31
0.0
  0
LINE
  5
137
330
12D
100
AcDbEntity
  8
0
  6
Continuous
 62
     7
370
    18
100
AcDbLine
 10
167.9752465156
 20
76.4397099941
 30
0.0
 11
167.3314270614
 21
76.4397099941
 31
0.0
  0
LINE
  5
138
330
12D
100
AcDbEntity
  8
0
  6
Continuous
 62
     7
370
    18
100
AcDbLine
 10
135.1316363174
 20
81.6697599407
 30
0.0
 11
152.9126145002
 21
81.3739669106
 31
0.0
  0
LINE
  5
139
330
12D
100
AcDbEntity
  8
0
  6
Continuous
 62
     7
370
    18
100
AcDbLine
 10
152.9126145002
 20
81.3739669106
 30
0.0
 11
156.7226145002
 21
81.3739669106
 31
0.0
  0
MTEXT
  5
13A
330
12D
100
AcDbEntity
  8
0
  6
Continuous
 62
     7
370
    18
100
AcDbMText
 10
156.7226145002
 20
82.960597717
 30
0.0
 40
2.1166666667
 41
0.0
 71
     1
 72
     1
  1
R2000.0mm
  7
SLDTEXTSTYLE0
 73
     1
 44
1.0
  0
MTEXT
  5
13B
330
12D
100
AcDbEntity
  8
0
  6
Continuous
 62
     7
370
    18
100
AcDbMText
 10
158.0102534084
 20
79.1682365935
 30
0.0
 40
2.1166666667
 41
0.0
 71
     1
 72
     1
  1
78.74in
  7
SLDTEXTSTYLE0
 73
     1
 44
1.0
  0
ENDBLK
  5
12F
330
12D
100
AcDbEntity
  8
0
100
AcDbBlockEnd
  0
BLOCK
  5
13F
330
13E
100
AcDbEntity
  8
0
100
AcDbBlockBegin
  2
_D_3
 70
     0
 10
0.0
 20
0.0
 30
0.0
  3
_D_3
  1

  0
SOLID
  5
141
330
13E
100
AcDbEntity
  8
0
  6
Continuous
 62
     7
370
    18
100
AcDbTrace
 10
144.4083142035
 20
144.3956386972
 30
0.0
 11
147.5833142035
 21
143.8876386972
 31
0.0
 12
147.5833142035
 22
144.9036386972
 32
0.0
 13
147.5833142035
 23
144.9036386972
 33
0.0
  0
SOLID
  5
142
330
13E
100
AcDbEntity
  8
0
  6
Continuous
 62
     7
370
    18
100
AcDbTrace
 10
135.4083142035
 20
144.3956386972
 30
0.0
 11
132.2333142035
 21
144.9036386972
 31
0.0
 12
132.2333142035
 22
143.8876386972
 32
0.0
 13
132.2333142035
 23
143.8876386972
 33
0.0
  0
LINE
  5
143
330
13E
100
AcDbEntity
  8
0
  6
Continuous
 62
     7
370
    18
100
AcDbLine
 10
156.5297181976
 20
144.3956384643
 30
0.0
 11
155.8858987434
 21
144.3956384643
 31
0.0
  0
LINE
  5
144
330
13E
100
AcDbEntity
  8
0
  6
Continuous
 62
     7
370
    18
100
AcDbLine
 10
155.8858987434
 20
144.3956384643
 30
0.0
 11
155.8858987434
 21
141.0324903879
 31
0.0
  0
LINE
  5
145
330
13E
100
AcDbEntity
  8
0
  6
Continuous
 62
     7
370
    18
100
AcDbLine
 10
155.8858987434
 20
141.0324903879
 30
0.0
 11
156.5297181976
 21
141.0324903879
 31
0.0
  0
LINE
  5
146
330
13E
100
AcDbEntity
  8
0
  6
Continuous
 62
     7
370
    18
100
AcDbLine
 10
164.2869097438
 20
144.3956384643
 30
0.0
 11
164.930729198
 21
144.3956384643
 31
0.0
  0
LINE
  5
147
330
13E
100
AcDbEntity
  8
0
  6
Continuous
 62
     7
370
    18
100
AcDbLine
 10
164.930729198
 20
144.3956384643
 30
0.0
 11
164.930729198
 21
141.0324903879
 31
0.0
  0
LINE
  5
148
330
13E
100
AcDbEntity
  8
0
  6
Continuous
 62
     7
370
    18
100
AcDbLine
 10
164.930729198
 20
141.0324903879
 30
0.0
 11
164.2869097438
 21
141.0324903879
 31
0.0
  0
LINE
  5
149
330
13E
100
AcDbEntity
  8
0
  6
Continuous
 62
     7
370
    18
100
AcDbLine
 10
144.4083142035
 20
141.405883813
 30
0.0
 11
144.4083142035
 21
146.1736386972
 31
0.0
  0
LINE
  5
14A
330
13E
100
AcDbEntity
  8
0
  6
Continuous
 62
     7
370
    18
100
AcDbLine
 10
135.4083142035
 20
116.205883813
 30
0.0
 11
135.4083142035
 21
146.1736386972
 31
0.0
  0
LINE
  5
14B
330
13E
100
AcDbEntity
  8
0
  6
Continuous
 62
     7
370
    18
100
AcDbLine
 10
144.4083142035
 20
144.3956386972
 30
0.0
 11
153.2525041023
 21
144.3956386972
 31
0.0
  0
LINE
  5
14C
330
13E
100
AcDbEntity
  8
0
  6
Continuous
 62
     7
370
    18
100
AcDbLine
 10
135.4083142035
 20
144.3956386972
 30
0.0
 11
129.0583142035
 21
144.3956386972
 31
0.0
  0
MTEXT
  5
14D
330
13E
100
AcDbEntity
  8
0
  6
Continuous
 62
     7
370
    18
100
AcDbMText
 10
155.269517585
 20
147.5533781108
 30
0.0
 40
2.1166666667
 41
0.0
 71
     1
 72
     1
  1

  7
SLDTEXTSTYLE0
 73
     1
 44
1.0
  0
MTEXT
  5
14E
330
13E
100
AcDbEntity
  8
0
  6
Continuous
 62
     7
370
    18
100
AcDbMText
 10
155.8084836022
 20
147.5533781108
 30
0.0
 40
2.1166666667
 41
0.0
 71
     1
 72
     1
  1
9.0mm
  7
SLDTEXTSTYLE0
 73
     1
 44
1.0
  0
MTEXT
  5
14F
330
13E
100
AcDbEntity
  8
0
  6
Continuous
 62
     7
370
    18
100
AcDbMText
 10
156.5297181976
 20
143.7610169873
 30
0.0
 40
2.1166666667
 41
0.0
 71
     1
 72
     1
  1
0.35in
  7
SLDTEXTSTYLE0
 73
     1
 44
1.0
  0
MTEXT
  5
150
330
13E
100
AcDbEntity
  8
0
  6
Continuous
 62
     7
370
    18
100
AcDbMText
 10
167.1620486521
 20
147.5533781108
 30
0.0
 40
2.1166666667
 41
0.0
 71
     1
 72
     1
  1

  7
SLDTEXTSTYLE0
 73
     1
 44
1.0
  0
ENDBLK
  5
140
330
13E
100
AcDbEntity
  8
0
100
AcDbBlockEnd
  0
ENDSEC
  0
SECTION
  2
ENTITIES
  0
LINE
  5
81
330
1F
100
AcDbEntity
  8
0
  6
Continuous
 62
     7
370
    18
100
AcDbLine
 10
1.5793501011
 20
214.6453799966
 30
0.0
 11
277.9892068491
 21
214.6453799966
 31
0.0
  0
LINE
  5
82
330
1F
100
AcDbEntity
  8
0
  6
Continuous
 62
     7
370
    18
100
AcDbLine
 10
1.5793501011
 20
214.6453799966
 30
0.0
 11
1.5793501011
 21
0.9031642596
 31
0.0
  0
LINE
  5
83
330
1F
100
AcDbEntity
  8
0
  6
Continuous
 62
     7
370
    18
100
AcDbLine
 10
277.9892068491
 20
0.9031642596
 30
0.0
 11
1.5793501011
 21
0.9031642596
 31
0.0
  0
LINE
  5
84
330
1F
100
AcDbEntity
  8
0
  6
Continuous
 62
     7
370
    18
100
AcDbLine
 10
277.9892068491
 20
0.9031642596
 30
0.0
 11
277.9892068491
 21
214.6453799966
 31
0.0
  0
LINE
  5
85
330
1F
100
AcDbEntity
  8
0
  6
Continuous
 62
     7
370
    18
100
AcDbLine
 10
215.7427640041
 20
12.2958890132
 30
0.0
 11
171.6327596684
 21
12.2958890132
 31
0.0
  0
LINE
  5
86
330
1F
100
AcDbEntity
  8
0
  6
Continuous
 62
     7
370
    18
100
AcDbLine
 10
171.6327596684
 20
12.2958890132
 30
0.0
 11
171.6327596684
 21
26.1661402506
 31
0.0
  0
LINE
  5
87
330
1F
100
AcDbEntity
  8
0
  6
Continuous
 62
     7
370
    18
100
AcDbLine
 10
171.6327596684
 20
0.9031642596
 30
0.0
 11
171.6327596684
 21
26.1661402506
 31
0.0
  0
LINE
  5
88
330
1F
100
AcDbEntity
  8
0
  6
Continuous
 62
     7
370
    18
100
AcDbLine
 10
215.7427640041
 20
17.1604579552
 30
0.0
 11
277.9892068491
 21
17.1604579552
 31
0.0
  0
LINE
  5
89
330
1F
100
AcDbEntity
  8
0
  6
Continuous
 62
     7
370
    18
100
AcDbLine
 10
215.7427640041
 20
35.2394508358
 30
0.0
 11
215.7427640041
 21
0.9031642596
 31
0.0
  0
LINE
  5
8A
330
1F
100
AcDbEntity
  8
0
  6
Continuous
 62
     7
370
    18
100
AcDbLine
 10
215.7427640041
 20
26.1661402506
 30
0.0
 11
171.6327596684
 21
26.1661402506
 31
0.0
  0
LINE
  5
8B
330
1F
100
AcDbEntity
  8
0
  6
Continuous
 62
     7
370
    18
100
AcDbLine
 10
215.7427640041
 20
9.1409200612
 30
0.0
 11
277.9892068491
 21
9.1409200612
 31
0.0
  0
LINE
  5
8C
330
1F
100
AcDbEntity
  8
0
  6
Continuous
 62
     7
370
    18
100
AcDbLine
 10
215.7427640041
 20
16.9216824031
 30
0.0
 11
171.6327596684
 21
16.9216824031
 31
0.0
  0
LINE
  5
8D
330
1F
100
AcDbEntity
  8
0
  6
Continuous
 62
     7
370
    18
100
AcDbLine
 10
215.7427640041
 20
21.4874005542
 30
0.0
 11
171.6327596684
 21
21.4874005542
 31
0.0
  0
LINE
  5
8E
330
1F
100
AcDbEntity
  8
0
  6
Continuous
 62
     7
370
    18
100
AcDbLine
 10
186.1338100705
 20
26.1661402506
 30
0.0
 11
186.1338100705
 21
12.2958890132
 31
0.0
  0
LINE
  5
8F
330
1F
100
AcDbEntity
  8
0
  6
Continuous
 62
     7
370
    18
100
AcDbLine
 10
198.2145906188
 20
26.1661402506
 30
0.0
 11
198.2145906188
 21
12.2958890132
 31
0.0
  0
LINE
  5
90
330
1F
100
AcDbEntity
  8
0
  6
Continuous
 62
     7
370
    18
100
AcDbLine
 10
253.7490408369
 20
9.1409200612
 30
0.0
 11
253.7490408369
 21
0.9031642596
 31
0.0
  0
LINE
  5
91
330
1F
100
AcDbEntity
  8
0
  6
Continuous
 62
     7
370
    18
100
AcDbLine
 10
171.6327596684
 20
12.2958890132
 30
0.0
 11
171.6327596684
 21
7.5627342528
 31
0.0
  0
LINE
  5
92
330
1F
100
AcDbEntity
  8
0
  6
Continuous
 62
     7
370
    18
100
AcDbLine
 10
171.6327596684
 20
7.5627342528
 30
0.0
 11
215.7427640041
 21
7.5627342528
 31
0.0
  0
LINE
  5
93
330
1F
100
AcDbEntity
  8
0
  6
Continuous
 62
     7
370
    18
100
AcDbLine
 10
171.6327596684
 20
7.5627342528
 30
0.0
 11
171.6327596684
 21
35.2394508358
 31
0.0
  0
LINE
  5
94
330
1F
100
AcDbEntity
  8
0
  6
Continuous
 62
     7
370
    18
100
AcDbLine
 10
171.6327596684
 20
35.2394508358
 30
0.0
 11
215.7427640041
 21
35.2394508358
 31
0.0
  0
LINE
  5
95
330
1F
100
AcDbEntity
  8
0
  6
Continuous
 62
     7
370
    18
100
AcDbLine
 10
270.1683598194
 20
17.1604579552
 30
0.0
 11
270.1683598194
 21
9.1409200612
 31
0.0
  0
LINE
  5
96
330
1F
100
AcDbEntity
  8
0
  6
Continuous
 62
     7
370
    18
100
AcDbLine
 10
215.7427640041
 20
35.2394508358
 30
0.0
 11
277.9892068491
 21
35.2394508358
 31
0.0
  0
LINE
  5
97
330
1F
100
AcDbEntity
  8
0
  6
Continuous
 62
     7
370
    18
100
AcDbLine
 10
277.9892068491
 20
35.2394508358
 30
0.0
 11
277.9892068491
 21
50.0331356147
 31
0.0
  0
LINE
  5
98
330
1F
100
AcDbEntity
  8
0
  6
Continuous
 62
     7
370
    18
100
AcDbLine
 10
215.7427640041
 20
24.8927335446
 30
0.0
 11
277.9892068491
 21
24.8927335446
 31
0.0
  0
INSERT
  5
99
330
1F
100
AcDbEntity
  8
0
  6
Continuous
 62
     7
100
AcDbBlockReference
  2
Third Angle Projection Block
 10
117.7262204235
 20
15.5162339489
 30
0.0
 41
0.8
 42
0.8
 43
0.8
  0
INSERT
  5
BA
330
1F
100
AcDbEntity
  8
0
  6
Continuous
 62
     7
370
     0
100
AcDbBlockReference
  2
SW_NOTE_0
 10
21.0267912395
 20
67.8048237145
 30
0.0
  0
MTEXT
  5
BB
330
1F
100
AcDbEntity
  8
0
  6
Continuous
 62
     7
370
     0
100
AcDbMText
 10
274.1458225539
 20
13.2559386876
 30
0.0
 40
3.175
 41
0.0
 71
     2
 72
     1
  1
A
  7
SLDTEXTSTYLE0
 73
     1
 44
1.0
  0
MTEXT
  5
BC
330
1F
100
AcDbEntity
  8
0
  6
Continuous
 62
     7
370
     0
100
AcDbMText
 10
234.5792969055
 20
5.1306563898
 30
0.0
 40
3.175
 41
0.0
 71
     2
 72
     1
  1
CM508-1000-E03
  7
SLDTEXTSTYLE0
 73
     1
 44
1.0
  0
MTEXT
  5
BD
330
1F
100
AcDbEntity
  8
0
  6
Continuous
 62
     7
370
     0
100
AcDbMText
 10
216.4199766059
 20
16.8243178599
 30
0.0
 40
2.1166666667
 41
0.0
 71
     1
 72
     1
  1
MATERIAL
  7
SLDTEXTSTYLE0
 73
     1
 44
1.0
  0
MTEXT
  5
BE
330
1F
100
AcDbEntity
  8
0
  6
Continuous
 62
     7
370
     0
100
AcDbMText
 10
174.230946566
 20
20.054553926
 30
0.0
 40
1.8520833333
 41
0.0
 71
     1
 72
     1
  1
DRAWN
  7
SLDTEXTSTYLE0
 73
     1
 44
1.0
  0
MTEXT
  5
BF
330
1F
100
AcDbEntity
  8
0
  6
Continuous
 62
     7
370
     0
100
AcDbMText
 10
172.3960124543
 20
15.5787169747
 30
0.0
 40
1.8520833333
 41
0.0
 71
     1
 72
     1
  1
APPROVAL
  7
SLDTEXTSTYLE0
 73
     1
 44
1.0
  0
MTEXT
  5
C0
330
1F
100
AcDbEntity
  8
0
  6
Continuous
 62
     7
370
     0
100
AcDbMText
 10
271.7160653675
 20
16.1671746307
 30
0.0
 40
2.1166666667
 41
0.0
 71
     1
 72
     1
  1
REV
  7
SLDTEXTSTYLE0
 73
     1
 44
1.0
  0
MTEXT
  5
C1
330
1F
100
AcDbEntity
  8
0
  6
Continuous
 62
     7
370
     0
100
AcDbMText
 10
190.2958696448
 20
20.3177146903
 30
0.0
 40
2.1166666667
 41
0.0
 71
     1
 72
     1
  1
YB
  7
SLDTEXTSTYLE0
 73
     1
 44
1.0
  0
MTEXT
  5
C2
330
1F
100
AcDbEntity
  8
0
  6
Continuous
 62
     7
370
     0
100
AcDbMText
 10
190.2958696448
 20
15.841877739
 30
0.0
 40
2.1166666667
 41
0.0
 71
     1
 72
     1
  1
DD
  7
SLDTEXTSTYLE0
 73
     1
 44
1.0
  0
MTEXT
  5
C3
330
1F
100
AcDbEntity
  8
0
  6
Continuous
 62
     7
370
     0
100
AcDbMText
 10
199.8662436873
 20
20.3177146903
 30
0.0
 40
2.1166666667
 41
0.0
 71
     1
 72
     1
  1
16/APR/18
  7
SLDTEXTSTYLE0
 73
     1
 44
1.0
  0
MTEXT
  5
C4
330
1F
100
AcDbEntity
  8
0
  6
Continuous
 62
     7
370
     0
100
AcDbMText
 10
203.6145073853
 20
24.8221395769
 30
0.0
 40
2.1166666667
 41
0.0
 71
     1
 72
     1
  1
DATE
  7
SLDTEXTSTYLE0
 73
     1
 44
1.0
  0
MTEXT
  5
C5
330
1F
100
AcDbEntity
  8
0
  6
Continuous
 62
     7
370
     0
100
AcDbMText
 10
199.8662436873
 20
15.841877739
 30
0.0
 40
2.1166666667
 41
0.0
 71
     1
 72
     1
  1
16/APR/18
  7
SLDTEXTSTYLE0
 73
     1
 44
1.0
  0
MTEXT
  5
C7
330
1F
100
AcDbEntity
  8
0
  6
Continuous
 62
     7
370
     0
100
AcDbMText
 10
229.402906477
 20
27.7957480569
 30
0.0
 40
2.1166666667
 41
0.0
 71
     1
 72
     1
  1
w w w . t h o r  l a b s . c o m
  7
SLDTEXTSTYLE3
 73
     1
 44
1.0
  0
MTEXT
  5
C8
330
1F
100
AcDbEntity
  8
0
  6
Continuous
 62
     7
370
     0
100
AcDbMText
 10
216.7004035316
 20
8.3494791871
 30
0.0
 40
2.1166666667
 41
0.0
 71
     1
 72
     1
  1
ITEM #
  7
SLDTEXTSTYLE0
 73
     1
 44
1.0
  0
MTEXT
  5
C9
330
1F
100
AcDbEntity
  8
0
  6
Continuous
 62
     7
370
     0
100
AcDbMText
 10
254.5318000914
 20
8.3494791871
 30
0.0
 40
2.1166666667
 41
0.0
 71
     1
 72
     1
  1
APPROX WEIGHT
  7
SLDTEXTSTYLE0
 73
     1
 44
1.0
  0
MTEXT
  5
CA
330
1F
100
AcDbEntity
  8
0
  6
Continuous
 62
     7
370
     0
100
AcDbMText
 10
243.5159064132
 20
13.8247651814
 30
0.0
 40
3.175
 41
0.0
 71
     2
 72
     1
  1
N-BK7
  7
SLDTEXTSTYLE0
 73
     1
 44
1.0
  0
MTEXT
  5
CB
330
1F
100
AcDbEntity
  8
0
  6
Continuous
 62
     7
370
     0
100
AcDbMText
 10
266.1553537756
 20
5.1306563898
 30
0.0
 40
3.175
 41
0.0
 71
     2
 72
     1
  1
46.20 g
  7
SLDTEXTSTYLE0
 73
     1
 44
1.0
  0
INSERT
  5
D1
330
1F
100
AcDbEntity
  8
0
  6
Continuous
 62
     7
370
     0
100
AcDbBlockReference
  2
SW_NOTE_1
 10
174.8430140051
 20
4.4558554801
 30
0.0
  0
INSERT
  5
D7
330
1F
100
AcDbEntity
  8
0
  6
Continuous
 62
     7
370
     0
100
AcDbBlockReference
  2
SW_NOTE_2
 10
174.5483650337
 20
30.4835322715
 30
0.0
  0
MTEXT
  5
D8
330
1F
100
AcDbEntity
  8
0
  6
Continuous
 62
     7
370
     0
100
AcDbMText
 10
187.9273588276
 20
24.8221395769
 30
0.0
 40
2.1166666667
 41
0.0
 71
     1
 72
     1
  1
NAME
  7
SLDTEXTSTYLE0
 73
     1
 44
1.0
  0
INSERT
  5
DE
330
1F
100
AcDbEntity
  8
0
  6
Continuous
 62
     7
370
     0
100
AcDbBlockReference
  2
SW_NOTE_3
 10
58.6204667508
 20
8.1776609732
 30
0.0
  0
INSERT
  5
E5
330
1F
100
AcDbEntity
  8
0
  6
Continuous
 62
     7
370
     0
100
AcDbBlockReference
  2
SW_NOTE_4
 10
217.0529533029
 20
20.7222222066
 30
0.0
  0
MTEXT
  5
E6
330
1F
100
AcDbEntity
  8
0
  6
Continuous
 62
     7
370
     0
100
AcDbMText
 10
177.6925831922
 20
10.7142101515
 30
0.0
 40
1.5875
 41
0.0
 71
     1
 72
     1
  1
COPYRIGHT © 2018 BY THORLABS
  7
SLDTEXTSTYLE0
 73
     1
 44
1.0
  0
LINE
  5
E7
330
1F
100
AcDbEntity
  8
0
  6
Continuous
 62
     7
370
    18
100
AcDbLine
 10
229.7693122346
 20
194.13117984
 30
0.0
 11
229.7693122346
 21
193.9699381885
 31
0.0
  0
LINE
  5
E8
330
1F
100
AcDbEntity
  8
0
  6
Continuous
 62
     7
370
    18
100
AcDbLine
 10
247.5872735879
 20
163.1049795547
 30
0.0
 11
247.7269053883
 21
163.0243456258
 31
0.0
  0
LINE
  5
E9
330
1F
100
AcDbEntity
  8
0
  6
Continuous
 62
     7
370
    18
100
AcDbLine
 10
260.4287923812
 20
161.7651557154
 30
0.0
 11
266.6239645508
 21
165.3415524832
 31
0.0
  0
LINE
  5
EA
330
1F
100
AcDbEntity
  8
0
  6
Continuous
 62
     7
370
    18
100
AcDbLine
 10
241.2260287419
 20
209.3368346922
 30
0.0
 11
235.0308565722
 21
205.7604379244
 31
0.0
  0
LINE
  5
EB
330
1F
100
AcDbEntity
  8
0
  6
Continuous
 62
     7
370
    18
100
AcDbLine
 10
271.8855088885
 20
176.9708105676
 30
0.0
 11
271.8855088885
 21
177.1340921899
 31
0.0
  0
LINE
  5
EC
330
1F
100
AcDbEntity
  8
0
  6
Continuous
 62
     7
370
    18
100
AcDbLine
 10
254.069314106
 20
207.9959907017
 30
0.0
 11
253.9279157347
 21
208.0776447818
 31
0.0
  0
LWPOLYLINE
  5
ED
330
1F
100
AcDbEntity
  8
0
  6
Continuous
 62
     7
370
    18
100
AcDbPolyline
 90
      168
 70
   128
 43
0.0
 10
265.4110277224
 20
173.3944137998
 10
265.3984160067
 20
174.175768296
 10
265.3605987102
 20
174.9705780492
 10
265.297629359
 20
175.7777180952
 10
265.2095970791
 20
176.5960460174
 10
265.0966264705
 20
177.4244035642
 10
264.9588774303
 20
178.2616182881
 10
264.796544927
 20
179.1065052053
 10
264.609858724
 20
179.9578684728
 10
264.3990830549
 20
180.8145030812
 10
264.1645162489
 20
181.6751965599
 10
263.9064903091
 20
182.5387306935
 10
263.6253704425
 20
183.4038832461
 10
263.3215545428
 20
184.269429691
 10
262.9954726274
 20
185.1341449439
 10
262.6475862288
 20
185.9968050972
 10
262.2783877412
 20
186.8561891518
 10
261.8883997239
 20
187.7110807456
 10
261.4781741613
 20
188.5602698754
 10
261.0482916818
 20
189.4025546087
 10
260.5993607359
 20
190.2367427858
 10
260.1320167353
 20
191.0616537066
 10
259.6469211531
 20
191.8761198018
 10
259.1447605878
 20
192.6789882859
 10
258.6262457916
 20
193.4691227883
 10
258.0921106642
 20
194.2454049618
 10
257.5431112141
 20
195.006736066
 10
256.9800244887
 20
195.7520385218
 10
256.4036474742
 20
196.4802574369
 10
255.8147959679
 20
197.1903620988
 10
255.2143034232
 20
197.8813474338
 10
254.6030197702
 20
198.5522354295
 10
253.9818102125
 20
199.2020765189
 10
253.3515540028
 20
199.8299509245
 10
252.7131431983
 20
200.4349699605
 10
252.0674813981
 20
201.01627729
 10
251.4154824642
 20
201.5730501375
 10
250.7580692282
 20
202.1045004532
 10
250.0961721852
 20
202.6098760288
 10
249.4307281762
 20
203.0884615615
 10
248.7626790629
 20
203.5395796671
 10
248.0929703941
 20
203.9625918384
 10
247.4225500676
 20
204.3568993488
 10
246.7523669883
 20
204.7219441003
 10
246.0833697254
 20
205.0572094128
 10
245.4165051698
 20
205.3622207557
 10
244.7527171937
 20
205.6365464196
 10
244.0929453147
 20
205.8797981272
 10
243.4381233661
 20
206.0916315829
 10
242.7891781753
 20
206.2717469602
 10
242.1470282514
 20
206.4198893258
 10
241.512582486
 20
206.5358490008
 10
240.886738866
 20
206.6194618573
 10
240.2703832032
 20
206.6706095505
 10
239.6643878801
 20
206.6892196868
 10
239.0696106152
 20
206.6752659254
 10
238.4868932493
 20
206.6287680164
 10
237.9170605536
 20
206.5497917724
 10
237.3609190626
 20
206.4384489754
 10
236.8192559324
 20
206.2948972187
 10
236.2928378267
 20
206.1193396838
 10
235.7824098312
 20
205.9120248527
 10
235.2886943998
 20
205.6732461563
 10
234.8123903316
 20
205.4033415593
 10
234.3541717815
 20
205.1026930814
 10
233.9146873068
 20
204.7717262569
 10
233.4945589486
 20
204.4109095323
 10
233.0943813515
 20
204.0207536033
 10
232.7147209223
 20
203.6018106921
 10
232.3561150278
 20
203.1546737655
 10
232.0190712345
 20
202.6799756957
 10
231.7040665902
 20
202.178388365
 10
231.4115469489
 20
201.6506217139
 10
231.1419263393
 20
201.0974227372
 10
230.8955863792
 20
200.5195744262
 10
230.6728757354
 20
199.9178946605
 10
230.4741096298
 20
199.2932350506
 10
230.2995693937
 20
198.6464797324
 10
230.1495020692
 20
197.9785441155
 10
230.0241200598
 20
197.2903735883
 10
229.9236008297
 20
196.582942179
 10
229.8480866528
 20
195.8572511779
 10
229.7976844108
 20
195.1143277193
 10
229.7724654424
 20
194.3552233284
 10
229.7724654424
 20
193.5810124324
 10
229.7976844108
 20
192.7927908404
 10
229.8480866528
 20
191.9916741919
 10
229.9236008297
 20
191.1787963778
 10
230.0241200598
 20
190.3553079359
 10
230.1495020692
 20
189.522374422
 10
230.2995693937
 20
188.6811747603
 10
230.4741096298
 20
187.8328995748
 10
230.6728757354
 20
186.9787495043
 10
230.8955863792
 20
186.1199335026
 10
231.1419263393
 20
185.2576671277
 10
231.4115469489
 20
184.3931708213
 10
231.7040665902
 20
183.5276681813
 10
232.0190712345
 20
182.6623842297
 10
232.3561150278
 20
181.7985436794
 10
232.7147209223
 20
180.9373692
 10
233.0943813515
 20
180.0800796876
 10
233.4945589486
 20
179.2278885398
 10
233.9146873068
 20
178.3820019378
 10
234.3541717815
 20
177.5436171395
 10
234.8123903316
 20
176.7139207848
 10
235.2886943998
 20
175.8940872161
 10
235.7824098312
 20
175.0852768162
 10
236.2928378267
 20
174.2886343657
 10
236.8192559324
 20
173.505287423
 10
237.3609190626
 20
172.736344728
 10
237.9170605536
 20
171.9828946332
 10
238.4868932493
 20
171.2460035629
 10
239.0696106152
 20
170.526714504
 10
239.6643878801
 20
169.8260455297
 10
240.2703832032
 20
169.1449883586
 10
240.886738866
 20
168.4845069511
 10
241.512582486
 20
167.8455361446
 10
242.1470282514
 20
167.2289803309
 10
242.7891781753
 20
166.6357121758
 10
243.4381233661
 20
166.066571384
 10
244.0929453147
 20
165.5223635107
 10
244.7527171937
 20
165.0038588212
 10
245.4165051698
 20
164.5117912011
 10
246.0833697254
 20
164.0468571168
 10
246.7523669883
 20
163.6097146308
 10
247.4225500676
 20
163.2009824692
 10
248.0929703941
 20
162.8212391468
 10
248.7626790629
 20
162.4710221477
 10
249.4307281762
 20
162.150827165
 10
250.0961721852
 20
161.8611073988
 10
250.7580692282
 20
161.602272915
 10
251.4154824642
 20
161.374690065
 10
252.0674813981
 20
161.1786809669
 10
252.7131431983
 20
161.0145230495
 10
253.3515540028
 20
160.88244866
 10
253.9818102125
 20
160.7826447351
 10
254.6030197702
 20
160.7152525359
 10
255.2143034232
 20
160.6803674486
 10
255.8147959679
 20
160.6780388492
 10
256.4036474742
 20
160.7082700334
 10
256.9800244887
 20
160.7710182125
 10
257.5431112141
 20
160.8661945734
 10
258.0921106642
 20
160.9936644047
 10
258.6262457916
 20
161.153247287
 10
259.1447605878
 20
161.3447173485
 10
259.6469211531
 20
161.567803585
 10
260.1320167353
 20
161.8221902426
 10
260.5993607359
 20
162.1075172656
 10
261.0482916818
 20
162.4233808055
 10
261.4781741613
 20
162.7693337927
 10
261.8883997239
 20
163.1448865694
 10
262.2783877412
 20
163.5495075828
 10
262.6475862288
 20
163.982624137
 10
262.9954726274
 20
164.443623204
 10
263.3215545428
 20
164.9318522911
 10
263.6253704425
 20
165.4466203647
 10
263.9064903091
 20
165.9871988281
 10
264.1645162489
 20
166.5528225529
 10
264.3990830549
 20
167.1426909621
 10
264.609858724
 20
167.7559691628
 10
264.796544927
 20
168.3917891283
 10
264.9588774303
 20
169.0492509267
 10
265.0966264705
 20
169.7274239941
 10
265.2095970791
 20
170.4253484525
 10
265.297629359
 20
171.1420364679
 10
265.3605987102
 20
171.8764736484
 10
265.3984160067
 20
172.6276204805
 10
265.4110277224
 20
173.3944137998
  0
LWPOLYLINE
  5
EE
330
1F
100
AcDbEntity
  8
0
  6
Continuous
 62
     7
370
    18
100
AcDbPolyline
 90
      127
 70
   128
 43
0.0
 10
229.7693122346
 20
194.1311798401
 10
229.7820227829
 20
194.9039821931
 10
229.8201364375
 20
195.6610154441
 10
229.8835992528
 20
196.4012080971
 10
229.9723214043
 20
197.1235124922
 10
230.0861773157
 20
197.8269062884
 10
230.2250058366
 20
198.5103939103
 10
230.3886104708
 20
199.1730079577
 10
230.5767596543
 20
199.8138105744
 10
230.789187083
 20
200.4318947761
 10
231.0255920894
 20
201.0263857336
 10
231.2856400689
 20
201.5964420115
 10
231.5689629526
 20
202.1412567589
 10
231.8751597286
 20
202.6600588514
 10
232.2037970096
 20
203.1521139826
 10
232.5544096463
 20
203.6167257036
 10
232.9265013857
 20
204.0532364084
 10
233.3195455735
 20
204.4610282649
 10
233.7329858998
 20
204.8395240894
 10
234.1662371858
 20
205.1881881633
 10
234.618686213
 20
205.5065269917
 10
235.0896925902
 20
205.7940900015
 10
235.5785896606
 20
206.0504701794
 10
236.0846854451
 20
206.275304648
 10
236.6072636216
 20
206.4682751791
 10
237.1455845393
 20
206.6291086447
 10
237.6988862651
 20
206.7575774029
 10
238.2663856622
 20
206.8534996206
 10
238.8472794987
 20
206.9167395306
 10
239.4407455843
 20
206.9472076238
 10
240.0459439342
 20
206.9448607761
 10
240.6620179577
 20
206.9097023092
 10
241.288095671
 20
206.8417819859
 10
241.9232909311
 20
206.7411959399
 10
242.5667046902
 20
206.6080865396
 10
243.2174262679
 20
206.4426421863
 10
243.8745346407
 20
206.245097048
 10
244.5370997451
 20
206.0157307278
 10
245.2041837944
 20
205.7548678681
 10
245.8748426056
 20
205.4628776911
 10
246.5481269362
 20
205.1401734761
 10
247.2230838276
 20
204.7872119751
 10
247.8987579537
 20
204.4044927654
 10
248.5741929733
 20
203.9925575434
 10
249.2484328838
 20
203.5519893572
 10
249.9205233738
 20
203.0834117819
 10
250.5895131746
 20
202.5874880366
 10
251.2544554058
 20
202.064920046
 10
251.914408916
 20
201.5164474466
 10
252.5684396149
 20
200.94284654
 10
253.2156217952
 20
200.3449291941
 10
253.8550394428
 20
199.7235416942
 10
254.4857875335
 20
199.0795635447
 10
255.1069733141
 20
198.4139062247
 10
255.7177175654
 20
197.7275118977
 10
256.3171558472
 20
197.0213520781
 10
256.9044397218
 20
196.2964262561
 10
257.4787379545
 20
195.5537604832
 10
258.0392376903
 20
194.7944059198
 10
258.5851456045
 20
194.0194373473
 10
259.1156890255
 20
193.2299516471
 10
259.6301170285
 20
192.4270662479
 10
260.1277014982
 20
191.6119175441
 10
260.6077381593
 20
190.7856592877
 10
261.0695475736
 20
189.9494609548
 10
261.5124761016
 20
189.1045060907
 10
261.9358968275
 20
188.2519906344
 10
262.3392104465
 20
187.3931212263
 10
262.7218461134
 20
186.5291134999
 10
263.0832622501
 20
185.6611903616
 10
263.4229473125
 20
184.7905802595
 10
263.7404205145
 20
183.9185154449
 10
264.0352325081
 20
183.0462302281
 10
264.30696602
 20
182.174959231
 10
264.5552364417
 20
181.3059356406
 10
264.7796923743
 20
180.4403894624
 10
264.9800161255
 20
179.5795457803
 10
265.1559241594
 20
178.7246230222
 10
265.3071674979
 20
177.8768312358
 10
265.4335320728
 20
177.0373703754
 10
265.5348390294
 20
176.2074286042
 10
265.6109449789
 20
175.3881806117
 10
265.6617422019
 20
174.580785952
 10
265.6871588006
 20
173.786387402
 10
265.6871588006
 20
173.0061093438
 10
265.6617422019
 20
172.2410561739
 10
265.6109449789
 20
171.4923107395
 10
265.5348390294
 20
170.7609328061
 10
265.4335320728
 20
170.0479575571
 10
265.3071674979
 20
169.3543941296
 10
265.1559241594
 20
168.6812241848
 10
264.9800161255
 20
168.0294005196
 10
264.7796923743
 20
167.3998457175
 10
264.5552364417
 20
166.7934508429
 10
264.30696602
 20
166.2110741799
 10
264.0352325081
 20
165.6535400176
 10
263.7404205145
 20
165.1216374833
 10
263.4229473125
 20
164.6161194255
 10
263.0832622501
 20
164.1377013485
 10
262.7218461134
 20
163.6870603996
 10
262.3392104465
 20
163.2648344106
 10
261.9358968275
 20
162.8716209952
 10
261.5124761016
 20
162.5079767031
 10
261.0695475736
 20
162.174416232
 10
260.6077381593
 20
161.8714116996
 10
260.1277014982
 20
161.5993919748
 10
259.6301170285
 20
161.3587420712
 10
259.1156890255
 20
161.1498026017
 10
258.5851456045
 20
160.9728692969
 10
258.0392376903
 20
160.828192586
 10
257.4787379545
 20
160.7159772428
 10
256.9044397218
 20
160.6363820955
 10
256.3171558472
 20
160.5895198021
 10
255.7177175654
 20
160.575456691
 10
255.1069733141
 20
160.594212667
 10
254.4857875335
 20
160.645761183
 10
253.8550394428
 20
160.730029278
 10
253.2156217952
 20
160.8468976797
 10
252.5684396149
 20
160.9962009742
 10
251.914408916
 20
161.1777278392
 10
251.2544554058
 20
161.3912213438
 10
250.5895131746
 20
161.6363793118
 10
249.9205233738
 20
161.9128547495
 10
249.2484328838
 20
162.2202563368
 10
248.5741929733
 20
162.5581489813
 10
247.8987579537
 20
162.9260544335
 10
247.7269053883
 20
163.0243456258
  0
LWPOLYLINE
  5
EF
330
1F
100
AcDbEntity
  8
0
  6
Continuous
 62
     7
370
    18
100
AcDbPolyline
 90
       64
 70
   128
 43
0.0
 10
271.8855088885
 20
176.9708105676
 10
271.8727983402
 20
177.7582882073
 10
271.8346846856
 20
178.5593265473
 10
271.7712218702
 20
179.3727918072
 10
271.6824997188
 20
180.197532618
 10
271.5686438074
 20
181.0323816513
 10
271.4298152865
 20
181.8761572717
 10
271.2662106522
 20
182.727665209
 10
271.0780614687
 20
183.5857002491
 10
270.8656340401
 20
184.4490479393
 10
270.6292290336
 20
185.3164863075
 10
270.3691810541
 20
186.1867875916
 10
270.0858581705
 20
187.0587199775
 10
269.7796613945
 20
187.9310493425
 10
269.4510241135
 20
188.8025410019
 10
269.1004114768
 20
189.6719614566
 10
268.7283197374
 20
190.5380801392
 10
268.3352755495
 20
191.3996711557
 10
267.9218352233
 20
192.2555150202
 10
267.4885839372
 20
193.1044003815
 10
267.0361349101
 20
193.9451257373
 10
266.5651285329
 20
194.7765011348
 10
266.0762314625
 20
195.5973498552
 10
265.570135678
 20
196.4065100788
 10
265.0475575014
 20
197.2028365298
 10
264.5092365837
 20
197.9852020973
 10
263.955934858
 20
198.7524994302
 10
263.3884354609
 20
199.503642505
 10
262.8075416244
 20
200.2375681626
 10
262.2140755388
 20
200.9532376134
 10
261.6088771889
 20
201.6496379072
 10
260.9928031653
 20
202.3257833674
 10
260.366725452
 20
202.9807169855
 10
259.7315301919
 20
203.6135117764
 10
259.0881164329
 20
204.2232720898
 10
258.4373948552
 20
204.8091348781
 10
257.7802864824
 20
205.3702709181
 10
257.117721378
 20
205.9058859844
 10
256.4506373287
 20
206.4152219738
 10
255.7799785175
 20
206.8975579782
 10
255.1066941868
 20
207.3522113049
 10
254.4317372955
 20
207.778538443
 10
253.7560631694
 20
208.1759359741
 10
253.0806281497
 20
208.5438414263
 10
252.4063882393
 20
208.8817340708
 10
251.7342977492
 20
209.1891356581
 10
251.0653079485
 20
209.4656110958
 10
250.4003657173
 20
209.7107690638
 10
249.740412207
 20
209.9242625684
 10
249.0863815081
 20
210.1057894334
 10
248.4391993279
 20
210.2550927279
 10
247.7997816803
 20
210.3719611296
 10
247.1690335895
 20
210.4562292246
 10
246.547847809
 20
210.5077777406
 10
245.9371035577
 20
210.5265337166
 10
245.3376652758
 20
210.5124706055
 10
244.7503814012
 20
210.4656083121
 10
244.1760831686
 20
210.3860131648
 10
243.6155834328
 20
210.2737978216
 10
243.0696755186
 20
210.1291211107
 10
242.5391320975
 20
209.9521878059
 10
242.0247040945
 20
209.7432483365
 10
241.5271196249
 20
209.5025984328
 10
241.2260287419
 20
209.3368346922
  0
LWPOLYLINE
  5
F0
330
1F
100
AcDbEntity
  8
0
  6
Continuous
 62
     7
370
    18
100
AcDbPolyline
 90
       22
 70
   128
 43
0.0
 10
266.6239645508
 20
165.3415524832
 10
267.0361349101
 20
165.5954634159
 10
267.4885839372
 20
165.9138022443
 10
267.9218352233
 20
166.2624663182
 10
268.3352755495
 20
166.6409621427
 10
268.7283197374
 20
167.0487539992
 10
269.1004114768
 20
167.485264704
 10
269.4510241135
 20
167.949876425
 10
269.7796613945
 20
168.4419315563
 10
270.0858581705
 20
168.9607336487
 10
270.3691810541
 20
169.5055483961
 10
270.6292290336
 20
170.075604674
 10
270.8656340401
 20
170.6700956315
 10
271.0780614687
 20
171.2881798332
 10
271.2662106522
 20
171.9289824499
 10
271.4298152865
 20
172.5915964973
 10
271.5686438074
 20
173.2750841192
 10
271.6824997188
 20
173.9784779154
 10
271.7712218702
 20
174.7007823105
 10
271.8346846856
 20
175.4409749636
 10
271.8727983402
 20
176.1980082145
 10
271.8855088885
 20
176.9708105676
  0
ARC
  5
F1
330
1F
100
AcDbEntity
  8
0
  6
Continuous
 62
     7
370
    18
100
AcDbCircle
 10
233.2671502317
 20
175.4136726944
 30
0.0
 40
38.6566613740163
100
AcDbArc
 50
2.5507982903
 51
57.443825177
  0
CIRCLE
  5
F2
330
1F
100
AcDbEntity
  8
0
  6
Continuous
 62
     7
370
    18
100
AcDbCircle
 10
54.2309670817
 20
114.935883813
 30
0.0
 40
25.20249871458332
  0
CIRCLE
  5
F3
330
1F
100
AcDbEntity
  8
0
  6
Continuous
 62
     7
370
    18
100
AcDbCircle
 10
54.2309670817
 20
114.935883813
 30
0.0
 40
25.4
  0
DIMENSION
  5
F4
330
1F
100
AcDbEntity
  8
0
  6
Continuous
 62
     7
370
    18
100
AcDbDimension
  2
_D
 10
36.2704548396
 20
96.9753715708
 30
0.0
 11
96.3188758886
 21
146.2344761468
 31
0.0
 70
   163
  1
<>
 71
     1
 42
-1.0
  3
SLDDIMSTYLE0
100
AcDbDiametricDimension
 15
72.1914793239
 25
132.8963960551
 35
0.0
 40
0.0
  0
LINE
  5
105
330
1F
100
AcDbEntity
  8
0
  6
PHANTOM
 62
     7
370
    35
100
AcDbLine
 10
54.2309670817
 20
146.431883813
 30
0.0
 11
54.2309670817
 21
83.439883813
 31
0.0
  0
LINE
  5
106
330
1F
100
AcDbEntity
  8
0
  6
Continuous
 62
     7
370
    35
100
AcDbLine
 10
54.2309670817
 20
146.431883813
 30
0.0
 11
45.3409670817
 21
146.431883813
 31
0.0
  0
SOLID
  5
107
330
1F
100
AcDbEntity
  8
0
  6
Continuous
 62
     7
370
    35
100
AcDbTrace
 10
45.3409670817
 20
146.431883813
 30
0.0
 11
49.1509670817
 21
145.796883813
 31
0.0
 12
49.1509670817
 22
147.066883813
 32
0.0
 13
49.1509670817
 23
147.066883813
 33
0.0
  0
LINE
  5
108
330
1F
100
AcDbEntity
  8
0
  6
Continuous
 62
     7
370
    35
100
AcDbLine
 10
54.2309670817
 20
83.439883813
 30
0.0
 11
45.3409670817
 21
83.439883813
 31
0.0
  0
SOLID
  5
109
330
1F
100
AcDbEntity
  8
0
  6
Continuous
 62
     7
370
    35
100
AcDbTrace
 10
45.3409670817
 20
83.439883813
 30
0.0
 11
49.1509670817
 21
82.804883813
 31
0.0
 12
49.1509670817
 22
84.074883813
 32
0.0
 13
49.1509670817
 23
84.074883813
 33
0.0
  0
MTEXT
  5
10A
330
1F
100
AcDbEntity
  8
0
  6
Continuous
 62
     7
100
AcDbMText
 10
41.9353314605
 20
148.5330173364
 30
0.0
 40
2.6458333333
 41
0.0
 71
     1
 72
     1
  1
A
  7
SLDTEXTSTYLE0
 73
     1
 44
1.0
  0
MTEXT
  5
10B
330
1F
100
AcDbEntity
  8
0
  6
Continuous
 62
     7
100
AcDbMText
 10
41.9353314605
 20
85.5410173364
 30
0.0
 40
2.6458333333
 41
0.0
 71
     1
 72
     1
  1
A
  7
SLDTEXTSTYLE0
 73
     1
 44
1.0
  0
LINE
  5
10C
330
1F
100
AcDbEntity
  8
0
  6
Continuous
 62
     7
370
    18
100
AcDbLine
 10
135.4470176999
 20
89.535883813
 30
0.0
 11
144.2083142035
 21
89.535883813
 31
0.0
  0
LINE
  5
10D
330
1F
100
AcDbEntity
  8
0
  6
Continuous
 62
     7
370
    18
100
AcDbLine
 10
135.4470176999
 20
89.535883813
 30
0.0
 11
135.2495164145
 21
89.7333850984
 31
0.0
  0
ARC
  5
10E
330
1F
100
AcDbEntity
  8
0
  6
Continuous
 62
     7
370
    18
100
AcDbCircle
 10
-1864.5916925733
 20
114.935883813
 30
0.0
 40
2000.000006776844
100
AcDbArc
 50
359.2779824885
 51
0.7220175116
  0
LINE
  5
10F
330
1F
100
AcDbEntity
  8
0
  6
Continuous
 62
     7
370
    18
100
AcDbLine
 10
135.2495164145
 20
140.1383825275
 30
0.0
 11
135.4470176999
 21
140.335883813
 31
0.0
  0
LINE
  5
110
330
1F
100
AcDbEntity
  8
0
  6
Continuous
 62
     7
370
    18
100
AcDbLine
 10
144.2083142035
 20
140.335883813
 30
0.0
 11
135.4470176999
 21
140.335883813
 31
0.0
  0
LINE
  5
111
330
1F
100
AcDbEntity
  8
0
  6
Continuous
 62
     7
370
    18
100
AcDbLine
 10
144.2083142035
 20
140.335883813
 30
0.0
 11
144.4083142035
 21
140.135883813
 31
0.0
  0
LINE
  5
112
330
1F
100
AcDbEntity
  8
0
  6
Continuous
 62
     7
370
    18
100
AcDbLine
 10
144.4083142035
 20
89.735883813
 30
0.0
 11
144.2083142035
 21
89.535883813
 31
0.0
  0
LINE
  5
113
330
1F
100
AcDbEntity
  8
0
  6
Continuous
 62
     7
370
    18
100
AcDbLine
 10
144.4083142035
 20
116.0383570908
 30
0.0
 11
144.4083142035
 21
140.135883813
 31
0.0
  0
LINE
  5
114
330
1F
100
AcDbEntity
  8
0
  6
Continuous
 62
     7
370
    18
100
AcDbLine
 10
144.4083142035
 20
89.735883813
 30
0.0
 11
144.4083142035
 21
115.935883813
 31
0.0
  0
LINE
  5
115
330
1F
100
AcDbEntity
  8
0
  6
Continuous
 62
     7
370
    18
100
AcDbLine
 10
144.4083142035
 20
115.935883813
 30
0.0
 11
144.4083142035
 21
116.0383570908
 31
0.0
  0
HATCH
  5
116
330
1F
100
AcDbEntity
  8
0
  6
Continuous
 62
     7
370
    18
100
AcDbHatch
 10
0.0
 20
0.0
 30
0.0
210
0.0
220
0.0
230
1.0
  2
ANSI31
 70
     0
 71
     0
 91
        1
 92
        0
 93
       10
 72
     1
 10
144.2083142035333
 20
89.53588381296537
 11
144.4083142035333
 21
89.73588381296537
 72
     1
 10
144.4083142035333
 20
89.73588381296537
 11
144.4083142035333
 21
115.9358838129654
 72
     1
 10
144.4083142035333
 20
115.9358838129654
 11
144.4083142035333
 21
116.0383570907788
 72
     1
 10
144.4083142035333
 20
116.0383570907788
 11
144.4083142035333
 21
140.1358838129654
 72
     1
 10
144.4083142035333
 20
140.1358838129654
 11
144.2083142035333
 21
140.3358838129654
 72
     1
 10
144.2083142035333
 20
140.3358838129654
 11
135.4470176999388
 21
140.3358838129654
 72
     1
 10
135.4470176999388
 20
140.3358838129654
 11
135.2495164145223
 21
140.1383825275485
 72
     2
 10
-1864.591692573311
 20
114.9358838129654
 40
2000.000006776844
 50
359.2779824884507
 51
360.7220175115509
 73
     0
 72
     1
 10
135.2495164145224
 20
89.73338509838483
 11
135.4470176999388
 21
89.53588381296537
 72
     1
 10
135.4470176999388
 20
89.53588381296537
 11
144.2083142035333
 21
89.53588381296537
 97
        0
 75
     0
 76
     1
 52
0.0
 41
1.0
 77
     0
 78
     1
 53
45.0
 43
0.0
 44
0.0
 45
-2.245064030267288
 46
2.245064030267288
 79
     0
 98
        1
 10
0.0
 20
0.0
  0
DIMENSION
  5
117
330
1F
100
AcDbEntity
  8
0
  6
Continuous
 62
     7
370
    18
100
AcDbDimension
  2
_D_1
 10
144.4118397713
 20
153.0585130901
 30
0.0
 11
164.5248829904
 21
153.0530258247
 31
0.0
 70
   160
  1
<> REF
 71
     2
 42
-1.0
  3
SLDDIMSTYLE1
100
AcDbAlignedDimension
 13
135.2495164145
 23
140.1383825275
 33
0.0
 14
144.4083142035
 24
140.135883813
 34
0.0
 50
-0.0156315053
100
AcDbRotatedDimension
  0
DIMENSION
  5
12B
330
1F
100
AcDbEntity
  8
0
  6
Continuous
 62
     7
370
    18
100
AcDbDimension
  2
_D_2
 10
-1864.5916925733
 20
114.935883813
 30
0.0
 11
164.5248829904
 21
81.3739669106
 31
0.0
 70
   164
  1
<>
 71
     1
 42
-1.0
  3
SLDDIMSTYLE2
100
AcDbRadialDimension
 15
135.1316363174
 25
81.6697599407
 35
0.0
 40
0.0
  0
DIMENSION
  5
13C
330
1F
100
AcDbEntity
  8
0
  6
Continuous
 62
     7
370
    18
100
AcDbDimension
  2
_D_3
 10
135.4083142035
 20
144.3956386972
 30
0.0
 11
160.4083142035
 21
144.3956386972
 31
0.0
 70
   160
  1
<>
 71
     2
 42
-1.0
  3
SLDDIMSTYLE3
100
AcDbAlignedDimension
 13
144.4083142035
 23
140.135883813
 33
0.0
 14
135.4083142035
 24
114.935883813
 34
0.0
100
AcDbRotatedDimension
  0
MTEXT
  5
151
330
1F
100
AcDbEntity
  8
0
  6
Continuous
 62
     7
370
     0
100
AcDbMText
 10
139.647871259
 20
71.9510772985
 30
0.0
 40
2.1166666667
 41
0.0
 71
     2
 72
     1
  1
SECTION A-A
  7
SLDTEXTSTYLE0
 73
     1
 44
1.0
  0
MTEXT
  5
152
330
1F
100
AcDbEntity
  8
0
  6
Continuous
 62
     7
370
     0
100
AcDbMText
 10
116.5878039444
 20
95.5473857633
 30
0.0
 40
2.1166666667
 41
0.0
 71
     1
 72
     1
  1
S1
  7
SLDTEXTSTYLE0
 73
     1
 44
1.0
  0
LEADER
  5
154
330
1F
100
AcDbEntity
  8
0
  6
Continuous
 62
     7
370
     0
100
AcDbLeader
  3
SLDDIMSTYLE4
 76
     3
 10
135.3992935366
 20
108.9290055651
 30
0.0
 10
126.3848316365
 20
95.0630555946
 30
0.0
 10
120.0348316365
 20
95.0630555946
 30
0.0
  0
MTEXT
  5
155
330
1F
100
AcDbEntity
  8
0
  6
Continuous
 62
     7
370
     0
100
AcDbMText
 10
159.3177818401
 20
128.1358159265
 30
0.0
 40
2.1166666667
 41
0.0
 71
     1
 72
     1
  1
S2
  7
SLDTEXTSTYLE0
 73
     1
 44
1.0
  0
LEADER
  5
156
330
1F
100
AcDbEntity
  8
0
  6
Continuous
 62
     7
370
     0
100
AcDbLeader
  3
SLDDIMSTYLE4
 76
     3
 10
144.4083142035
 20
114.2629291109
 30
0.0
 10
152.3588998764
 20
127.5723262991
 30
0.0
 10
158.7088998764
 20
127.5723262991
 30
0.0
  0
SPLINE
  5
157
330
1F
100
AcDbEntity
  8
0
  6
Continuous
 62
     7
370
    18
100
AcDbSpline
210
0.0
220
0.0
230
1.0
 70
     8
 71
     3
 72
    13
 73
     9
 74
     0
 42
0.000000001
 43
0.00000001
 40
0.0
 40
0.0
 40
0.0
 40
0.0
 40
0.1943389941804437
 40
0.3816850483972321
 40
0.5594858099432992
 40
0.6963399801806484
 40
0.8391066529687222
 40
1.0
 40
1.0
 40
1.0
 40
1.0
 10
223.3389159985552
 20
117.0552412492481
 30
0.0
 10
223.3360909061634
 20
117.1168736715596
 30
0.0
 10
223.3305423772598
 20
117.2379207840653
 30
0.0
 10
223.2815466691258
 20
117.4099393386045
 30
0.0
 10
223.2015352836449
 20
117.5500613611424
 30
0.0
 10
223.0933017631259
 20
117.649021088692
 30
0.0
 10
222.9642625047497
 20
117.709791609167
 30
0.0
 10
222.8676106019219
 20
117.7163908151103
 30
0.0
 10
222.8163998822752
 20
117.7198873845058
 30
0.0
  0
SPLINE
  5
158
330
1F
100
AcDbEntity
  8
0
  6
Continuous
 62
     7
370
    18
100
AcDbSpline
210
0.0
220
0.0
230
1.0
 70
     8
 71
     3
 72
    12
 73
     8
 74
     0
 42
0.000000001
 43
0.00000001
 40
0.0
 40
0.0
 40
0.0
 40
0.0
 40
0.2008908381631395
 40
0.3780365369998067
 40
0.553549838638755
 40
0.7713747335183452
 40
0.9999999999999999
 40
0.9999999999999999
 40
0.9999999999999999
 40
0.9999999999999999
 10
222.8163998822752
 20
116.3905770519724
 30
0.0
 10
222.8805380537844
 20
116.3960992552802
 30
0.0
 10
223.0012333152933
 20
116.4064909418011
 30
0.0
 10
223.1539278033207
 20
116.5047513244539
 30
0.0
 10
223.2619097245208
 20
116.6522693028
 30
0.0
 10
223.3275184770469
 20
116.8413931535281
 30
0.0
 10
223.3350560426383
 20
116.9828181156928
 30
0.0
 10
223.3389159985552
 20
117.0552412492481
 30
0.0
  0
SPLINE
  5
159
330
1F
100
AcDbEntity
  8
0
  6
Continuous
 62
     7
370
    18
100
AcDbSpline
210
0.0
220
0.0
230
1.0
 70
     8
 71
     3
 72
    13
 73
     9
 74
     0
 42
0.000000001
 43
0.00000001
 40
0.0
 40
0.0
 40
0.0
 40
0.0
 40
0.1943256494037764
 40
0.3816748644005049
 40
0.559488170496604
 40
0.6963511211546951
 40
0.8391184169589759
 40
1.0
 40
1.0
 40
1.0
 40
1.0
 10
222.2938657039772
 20
117.0552412492481
 30
0.0
 10
222.2966921582195
 20
116.9936125802627
 30
0.0
 10
222.3022435949082
 20
116.8725677570479
 30
0.0
 10
222.3512521238877
 20
116.7005503491706
 30
0.0
 10
222.4312720374522
 20
116.5604238769715
 30
0.0
 10
222.5395078525064
 20
116.4614559034199
 30
0.0
 10
222.668543288146
 20
116.4006758104574
 30
0.0
 10
222.7651924698916
 20
116.3940745712636
 30
0.0
 10
222.8163998822752
 20
116.3905770519724
 30
0.0
  0
SPLINE
  5
15A
330
1F
100
AcDbEntity
  8
0
  6
Continuous
 62
     7
370
    18
100
AcDbSpline
210
0.0
220
0.0
230
1.0
 70
     8
 71
     3
 72
    12
 73
     8
 74
     0
 42
0.000000001
 43
0.00000001
 40
0.0
 40
0.0
 40
0.0
 40
0.0
 40
0.2008792258750624
 40
0.3780217100331184
 40
0.5535332757399333
 40
0.7713595773327308
 40
1.0
 40
1.0
 40
1.0
 40
1.0
 10
222.8163998822752
 20
117.7198873845058
 30
0.0
 10
222.7522660897219
 20
117.7143657210089
 30
0.0
 10
222.6315768256815
 20
117.7039748572039
 30
0.0
 10
222.4788832919636
 20
117.605727779579
 30
0.0
 10
222.3708897219021
 20
117.4582215094398
 30
0.0
 10
222.3052662459051
 20
117.2690981415389
 30
0.0
 10
222.2977267573476
 20
117.1276687601495
 30
0.0
 10
222.2938657039772
 20
117.0552412492481
 30
0.0
  0
SPLINE
  5
15B
330
1F
100
AcDbEntity
  8
0
  6
Continuous
 62
     7
370
    18
100
AcDbSpline
210
0.0
220
0.0
230
1.0
 70
     8
 71
     3
 72
    19
 73
    15
 74
     0
 42
0.000000001
 43
0.00000001
 40
0.0
 40
0.0
 40
0.0
 40
0.0
 40
0.091587339706645
 40
0.1741182870805899
 40
0.2526289966153879
 40
0.3313197891920877
 40
0.4131632671988426
 40
0.4999972215981981
 40
0.5868350001903229
 40
0.6686802724867934
 40
0.7473714879383924
 40
0.8258819896397939
 40
0.9084127008286221
 40
0.9999999999999999
 40
0.9999999999999999
 40
0.9999999999999999
 40
0.9999999999999999
 10
222.8200050464215
 20
115.8547040960895
 30
0.0
 10
222.9306426211133
 20
115.8621488086409
 30
0.0
 10
223.1409776418026
 20
115.8763020813684
 30
0.0
 10
223.4253052167717
 20
115.9996214781614
 30
0.0
 10
223.6494765033612
 20
116.1868871575312
 30
0.0
 10
223.8101557921619
 20
116.4300305829911
 30
0.0
 10
223.9062578722799
 20
116.7147879471818
 30
0.0
 10
223.936245500152
 20
117.0230405608166
 30
0.0
 10
223.9051078593121
 20
117.3311812585236
 30
0.0
 10
223.8079442456676
 20
117.6155858324225
 30
0.0
 10
223.6463580546795
 20
117.8581307327726
 30
0.0
 10
223.4214884952527
 20
118.0445576411587
 30
0.0
 10
223.1367021319518
 20
118.1668121235166
 30
0.0
 10
222.9263161096312
 20
118.1801795857394
 30
0.0
 10
222.8156515808562
 20
118.1872109649702
 30
0.0
  0
SPLINE
  5
15C
330
1F
100
AcDbEntity
  8
0
  6
Continuous
 62
     7
370
    18
100
AcDbSpline
210
0.0
220
0.0
230
1.0
 70
     8
 71
     3
 72
    14
 73
    10
 74
     0
 42
0.000000001
 43
0.00000001
 40
0.0
 40
0.0
 40
0.0
 40
0.0
 40
0.1466868109097154
 40
0.2859932799578324
 40
0.4198155341096295
 40
0.5510853201411032
 40
0.69041040274012
 40
0.8377115977293311
 40
1.0
 40
1.0
 40
1.0
 40
1.0
 10
221.7141529509028
 20
117.0270945318291
 30
0.0
 10
221.718035267782
 20
116.9384200375989
 30
0.0
 10
221.7256045681931
 20
116.7655325823721
 30
0.0
 10
221.7954237717475
 20
116.5195935828612
 30
0.0
 10
221.9077221508202
 20
116.3010902727949
 30
0.0
 10
222.0679647012332
 20
116.1136499845156
 30
0.0
 10
222.2769583585691
 20
115.9681839539708
 30
0.0
 10
222.534438815785
 20
115.871816596053
 30
0.0
 10
222.7217930353539
 20
115.860589431453
 30
0.0
 10
222.8200050464215
 20
115.8547040960895
 30
0.0
  0
SPLINE
  5
15D
330
1F
100
AcDbEntity
  8
0
  6
Continuous
 62
     7
370
    18
100
AcDbSpline
210
0.0
220
0.0
230
1.0
 70
     8
 71
     3
 72
    14
 73
    10
 74
     0
 42
0.000000001
 43
0.00000001
 40
0.0
 40
0.0
 40
0.0
 40
0.0
 40
0.1553989656922846
 40
0.2968771122070978
 40
0.4305153137104986
 40
0.5617675040118904
 40
0.7014063449726654
 40
0.8467289956139491
 40
1.0
 40
1.0
 40
1.0
 40
1.0
 10
222.8156515808562
 20
118.1872109649702
 30
0.0
 10
222.7224104402215
 20
118.181856012747
 30
0.0
 10
222.5442808082308
 20
118.1716258111176
 30
0.0
 10
222.2981014055567
 20
118.0846233826746
 30
0.0
 10
222.0923330275267
 20
117.9510191439971
 30
0.0
 10
221.9263893401962
 20
117.7712049291836
 30
0.0
 10
221.8050183025678
 20
117.5514860624045
 30
0.0
 10
221.7279458611361
 20
117.2980048757723
 30
0.0
 10
221.718831460631
 20
117.118986428329
 30
0.0
 10
221.7141529509028
 20
117.0270945318291
 30
0.0
  0
LINE
  5
15E
330
1F
100
AcDbEntity
  8
0
  6
Continuous
 62
     7
370
    18
100
AcDbLine
 10
218.5765539855
 20
117.6705961376
 30
0.0
 11
218.5765539855
 21
115.935883813
 31
0.0
  0
LINE
  5
15F
330
1F
100
AcDbEntity
  8
0
  6
Continuous
 62
     7
370
    18
100
AcDbLine
 10
217.9060596917
 20
117.6705961376
 30
0.0
 11
218.5765539855
 21
117.6705961376
 31
0.0
  0
LINE
  5
160
330
1F
100
AcDbEntity
  8
0
  6
Continuous
 62
     7
370
    18
100
AcDbLine
 10
217.9060596917
 20
118.1722325612
 30
0.0
 11
217.9060596917
 21
117.6705961376
 31
0.0
  0
LINE
  5
161
330
1F
100
AcDbEntity
  8
0
  6
Continuous
 62
     7
370
    18
100
AcDbLine
 10
220.3548719567
 20
118.1722325612
 30
0.0
 11
217.9060596917
 21
118.1722325612
 31
0.0
  0
LINE
  5
162
330
1F
100
AcDbEntity
  8
0
  6
Continuous
 62
     7
370
    18
100
AcDbLine
 10
220.3548719567
 20
117.3570575686
 30
0.0
 11
220.3548719567
 21
118.1722325612
 31
0.0
  0
LINE
  5
163
330
1F
100
AcDbEntity
  8
0
  6
Continuous
 62
     7
370
    18
100
AcDbLine
 10
221.1261381837
 20
117.3570575686
 30
0.0
 11
220.3548719567
 21
117.3570575686
 31
0.0
  0
LINE
  5
164
330
1F
100
AcDbEntity
  8
0
  6
Continuous
 62
     7
370
    18
100
AcDbLine
 10
221.1261381837
 20
118.1722325612
 30
0.0
 11
221.1261381837
 21
117.3570575686
 31
0.0
  0
LINE
  5
165
330
1F
100
AcDbEntity
  8
0
  6
Continuous
 62
     7
370
    18
100
AcDbLine
 10
221.7116506832
 20
118.1722325612
 30
0.0
 11
221.1261381837
 21
118.1722325612
 31
0.0
  0
LINE
  5
166
330
1F
100
AcDbEntity
  8
0
  6
Continuous
 62
     7
370
    18
100
AcDbLine
 10
221.7116506832
 20
115.935883813
 30
0.0
 11
221.7116506832
 21
118.1722325612
 31
0.0
  0
LINE
  5
167
330
1F
100
AcDbEntity
  8
0
  6
Continuous
 62
     7
370
    18
100
AcDbLine
 10
221.1261342484
 20
115.935883813
 30
0.0
 11
221.7116506832
 21
115.935883813
 31
0.0
  0
LINE
  5
168
330
1F
100
AcDbEntity
  8
0
  6
Continuous
 62
     7
370
    18
100
AcDbLine
 10
221.1261342484
 20
116.8576969593
 30
0.0
 11
221.1261342484
 21
115.935883813
 31
0.0
  0
LINE
  5
169
330
1F
100
AcDbEntity
  8
0
  6
Continuous
 62
     7
370
    18
100
AcDbLine
 10
220.3548680214
 20
116.8576969593
 30
0.0
 11
221.1261342484
 21
116.8576969593
 31
0.0
  0
LINE
  5
16A
330
1F
100
AcDbEntity
  8
0
  6
Continuous
 62
     7
370
    18
100
AcDbLine
 10
220.3548680214
 20
115.935883813
 30
0.0
 11
220.3548680214
 21
116.8576969593
 31
0.0
  0
LINE
  5
16B
330
1F
100
AcDbEntity
  8
0
  6
Continuous
 62
     7
370
    18
100
AcDbLine
 10
219.7694238347
 20
115.935883813
 30
0.0
 11
220.3548680214
 21
115.935883813
 31
0.0
  0
LINE
  5
16C
330
1F
100
AcDbEntity
  8
0
  6
Continuous
 62
     7
370
    18
100
AcDbLine
 10
219.7694238347
 20
117.6727997038
 30
0.0
 11
219.7694238347
 21
115.935883813
 31
0.0
  0
LINE
  5
16D
330
1F
100
AcDbEntity
  8
0
  6
Continuous
 62
     7
370
    18
100
AcDbLine
 10
219.1620523583
 20
117.6727997038
 30
0.0
 11
219.7694238347
 21
117.6727997038
 31
0.0
  0
LINE
  5
16E
330
1F
100
AcDbEntity
  8
0
  6
Continuous
 62
     7
370
    18
100
AcDbLine
 10
219.1620523583
 20
115.935883813
 30
0.0
 11
219.1620523583
 21
117.6727997038
 31
0.0
  0
LINE
  5
16F
330
1F
100
AcDbEntity
  8
0
  6
Continuous
 62
     7
370
    18
100
AcDbLine
 10
218.5765539855
 20
115.935883813
 30
0.0
 11
219.1620523583
 21
115.935883813
 31
0.0
  0
SPLINE
  5
170
330
1F
100
AcDbEntity
  8
0
  6
Continuous
 62
     7
370
    18
100
AcDbSpline
210
0.0
220
0.0
230
1.0
 70
     8
 71
     3
 72
    12
 73
     8
 74
     0
 42
0.000000001
 43
0.00000001
 40
0.0
 40
0.0
 40
0.0
 40
0.0
 40
0.1970292569794111
 40
0.3714318737747132
 40
0.5434083414909591
 40
0.7603083066182451
 40
1.0
 40
1.0
 40
1.0
 40
1.0
 10
225.2743154042641
 20
117.4659354126127
 30
0.0
 10
225.2721056915463
 20
117.4943735747756
 30
0.0
 10
225.2679400272797
 20
117.5479840893805
 30
0.0
 10
225.2279025336268
 20
117.6177166234339
 30
0.0
 10
225.1644410160458
 20
117.6695083967701
 30
0.0
 10
225.0784434482381
 20
117.7019706889093
 30
0.0
 10
225.012878454578
 20
117.7055115833117
 30
0.0
 10
224.9784595508068
 20
117.7073704060904
 30
0.0
  0
SPLINE
  5
171
330
1F
100
AcDbEntity
  8
0
  6
Continuous
 62
     7
370
    18
100
AcDbSpline
210
0.0
220
0.0
230
1.0
 70
     8
 71
     3
 72
    12
 73
     8
 74
     0
 42
0.000000001
 43
0.00000001
 40
0.0
 40
0.0
 40
0.0
 40
0.0
 40
0.2111291888127957
 40
0.3927062339152242
 40
0.559912974757405
 40
0.7634359056262758
 40
1.0
 40
1.0
 40
1.0
 40
1.0
 10
225.0036380037811
 20
117.2026453774572
 30
0.0
 10
225.033935958648
 20
117.2041839988731
 30
0.0
 10
225.0902910075071
 20
117.2070458780147
 30
0.0
 10
225.166615977317
 20
117.236224901636
 30
0.0
 10
225.2279400755884
 20
117.288385310429
 30
0.0
 10
225.2683876003786
 20
117.3685851094055
 30
0.0
 10
225.2722429839027
 20
117.4319007592328
 30
0.0
 10
225.2743154042641
 20
117.4659354126127
 30
0.0
  0
LINE
  5
172
330
1F
100
AcDbEntity
  8
0
  6
Continuous
 62
     7
370
    18
100
AcDbLine
 10
224.5125678607
 20
117.2026453775
 30
0.0
 11
225.0036380038
 21
117.2026453775
 31
0.0
  0
LINE
  5
173
330
1F
100
AcDbEntity
  8
0
  6
Continuous
 62
     7
370
    18
100
AcDbLine
 10
224.5125678607
 20
117.7073704061
 30
0.0
 11
224.5125678607
 21
117.2026453775
 31
0.0
  0
LINE
  5
174
330
1F
100
AcDbEntity
  8
0
  6
Continuous
 62
     7
370
    18
100
AcDbLine
 10
224.9784595508
 20
117.7073704061
 30
0.0
 11
224.5125678607
 21
117.7073704061
 31
0.0
  0
SPLINE
  5
175
330
1F
100
AcDbEntity
  8
0
  6
Continuous
 62
     7
370
    18
100
AcDbSpline
210
0.0
220
0.0
230
1.0
 70
     8
 71
     3
 72
    14
 73
    10
 74
     0
 42
0.000000001
 43
0.00000001
 40
0.0
 40
0.0
 40
0.0
 40
0.0
 40
0.2575826845002087
 40
0.4580339644254263
 40
0.6128287983994981
 40
0.7093883131761893
 40
0.7998028883084926
 40
0.8941338805613367
 40
1.0
 40
1.0
 40
1.0
 40
1.0
 10
231.894424272703
 20
116.5299074581732
 30
0.0
 10
231.9225015478862
 20
116.5227933945583
 30
0.0
 10
231.9724286060165
 20
116.5101431546286
 30
0.0
 10
232.0411152954227
 20
116.5025468379345
 30
0.0
 10
232.0923194167311
 20
116.5072397188492
 30
0.0
 10
232.1282470669768
 20
116.5223487443516
 30
0.0
 10
232.1523391970231
 20
116.5435896795662
 30
0.0
 10
232.1696482165838
 20
116.5718334250357
 30
0.0
 10
232.1759840793564
 20
116.5934866507592
 30
0.0
 10
232.1793345433035
 20
116.6049370805946
 30
0.0
  0
SPLINE
  5
176
330
1F
100
AcDbEntity
  8
0
  6
Continuous
 62
     7
370
    18
100
AcDbSpline
210
0.0
220
0.0
230
1.0
 70
     8
 71
     3
 72
    12
 73
     8
 74
     0
 42
0.000000001
 43
0.00000001
 40
0.0
 40
0.0
 40
0.0
 40
0.0
 40
0.2545415383352764
 40
0.4933538848768345
 40
0.6299818928893332
 40
0.7933578680691696
 40
1.0
 40
1.0
 40
1.0
 40
1.0
 10
231.6948028507
 20
116.8135533875196
 30
0.0
 10
231.6946481558972
 20
116.7808909383703
 30
0.0
 10
231.6943483255338
 20
116.7175843901237
 30
0.0
 10
231.7193421488516
 20
116.6373785453731
 30
0.0
 10
231.767399585688
 20
116.586152973588
 30
0.0
 10
231.8235953606366
 20
116.5520287918371
 30
0.0
 10
231.8690432313188
 20
116.5378344821641
 30
0.0
 10
231.894424272703
 20
116.5299074581732
 30
0.0
  0
SPLINE
  5
177
330
1F
100
AcDbEntity
  8
0
  6
Continuous
 62
     7
370
    18
100
AcDbSpline
210
0.0
220
0.0
230
1.0
 70
     8
 71
     3
 72
    14
 73
    10
 74
     0
 42
0.000000001
 43
0.00000001
 40
0.0
 40
0.0
 40
0.0
 40
0.0
 40
0.0123761948722826
 40
0.0260544786030459
 40
0.0423069896658994
 40
0.1107691877094688
 40
0.3353734156282128
 40
0.6465637489690592
 40
1.0
 40
1.0
 40
1.0
 40
1.0
 10
232.1793345433035
 20
116.6049370805946
 30
0.0
 10
232.1796007827728
 20
116.6071737005779
 30
0.0
 10
232.1801612725378
 20
116.6118822534167
 30
0.0
 10
232.177319884836
 20
116.6191880965683
 30
0.0
 10
232.1671965140246
 20
116.6337229371455
 30
0.0
 10
232.120825486069
 20
116.6665000931659
 30
0.0
 10
232.0211124842117
 20
116.7090124641319
 30
0.0
 10
231.8701717891973
 20
116.761834652361
 30
0.0
 10
231.7556848886395
 20
116.7955984291154
 30
0.0
 10
231.6948028507
 20
116.8135533875196
 30
0.0
  0
LINE
  5
178
330
1F
100
AcDbEntity
  8
0
  6
Continuous
 62
     7
370
    18
100
AcDbLine
 10
231.1712933234
 20
116.8175631555
 30
0.0
 11
231.681003469
 21
116.8175631555
 31
0.0
  0
SPLINE
  5
179
330
1F
100
AcDbEntity
  8
0
  6
Continuous
 62
     7
370
    18
100
AcDbSpline
210
0.0
220
0.0
230
1.0
 70
     8
 71
     3
 72
    11
 73
     7
 74
     0
 42
0.000000001
 43
0.00000001
 40
0.0
 40
0.0
 40
0.0
 40
0.0
 40
0.2403133392799487
 40
0.5276554281052314
 40
0.7630136347472218
 40
1.0
 40
1.0
 40
1.0
 40
1.0
 10
230.9555605814508
 20
117.1585559917252
 30
0.0
 10
230.9822564291981
 20
117.1382481567654
 30
0.0
 10
231.0408724386711
 20
117.0936582917928
 30
0.0
 10
231.1085537586513
 20
117.0108989301275
 30
0.0
 10
231.160305405779
 20
116.9165961093967
 30
0.0
 10
231.1676222771986
 20
116.8506499117003
 30
0.0
 10
231.1712933234346
 20
116.8175631554969
 30
0.0
  0
SPLINE
  5
17A
330
1F
100
AcDbEntity
  8
0
  6
Continuous
 62
     7
370
    18
100
AcDbSpline
210
0.0
220
0.0
230
1.0
 70
     8
 71
     3
 72
    10
 73
     6
 74
     0
 42
0.000000001
 43
0.00000001
 40
0.0
 40
0.0
 40
0.0
 40
0.0
 40
0.3052209345869937
 40
0.5892711010915017
 40
0.9999999999999999
 40
0.9999999999999999
 40
0.9999999999999999
 40
0.9999999999999999
 10
231.0808748617492
 20
117.3395012872036
 30
0.0
 10
231.0733738720676
 20
117.3179555757285
 30
0.0
 10
231.0588921771769
 20
117.2763586087907
 30
0.0
 10
231.011966900689
 20
117.217839282057
 30
0.0
 10
230.9765171969976
 20
117.1805814871061
 30
0.0
 10
230.9555605814508
 20
117.1585559917252
 30
0.0
  0
SPLINE
  5
17B
330
1F
100
AcDbEntity
  8
0
  6
Continuous
 62
     7
370
    18
100
AcDbSpline
210
0.0
220
0.0
230
1.0
 70
     8
 71
     3
 72
    11
 73
     7
 74
     0
 42
0.000000001
 43
0.00000001
 40
0.0
 40
0.0
 40
0.0
 40
0.0
 40
0.3113820865694061
 40
0.5952152429024645
 40
0.7995709864930258
 40
1.0
 40
1.0
 40
1.0
 40
1.0
 10
231.5819152387275
 20
116.8454147871227
 30
0.0
 10
231.5076113639992
 20
116.8707223392385
 30
0.0
 10
231.3655775067137
 20
116.9190984065514
 30
0.0
 10
231.203550653134
 20
117.0421719575971
 30
0.0
 10
231.0996633563069
 20
117.1867240061055
 30
0.0
 10
231.0870970589502
 20
117.2889059418495
 30
0.0
 10
231.0808748617492
 20
117.3395012872036
 30
0.0
  0
SPLINE
  5
17C
330
1F
100
AcDbEntity
  8
0
  6
Continuous
 62
     7
370
    18
100
AcDbSpline
210
0.0
220
0.0
230
1.0
 70
     8
 71
     3
 72
     9
 73
     5
 74
     0
 42
0.000000001
 43
0.00000001
 40
0.0
 40
0.0
 40
0.0
 40
0.0
 40
0.5632377239369403
 40
0.9999999999999999
 40
0.9999999999999999
 40
0.9999999999999999
 40
0.9999999999999999
 10
231.6810034690125
 20
116.8175631554969
 30
0.0
 10
231.6624172533282
 20
116.8228534251539
 30
0.0
 10
231.629418370451
 20
116.8322460305001
 30
0.0
 10
231.5963557458854
 20
116.8414116084402
 30
0.0
 10
231.5819152387275
 20
116.8454147871227
 30
0.0
  0
SPLINE
  5
17D
330
1F
100
AcDbEntity
  8
0
  6
Continuous
 62
     7
370
    18
100
AcDbSpline
210
0.0
220
0.0
230
1.0
 70
     8
 71
     3
 72
    13
 73
     9
 74
     0
 42
0.000000001
 43
0.00000001
 40
0.0
 40
0.0
 40
0.0
 40
0.0
 40
0.2070940199890569
 40
0.3978649646626708
 40
0.5739369280037251
 40
0.7077750174858417
 40
0.8462504046616488
 40
1.0
 40
1.0
 40
1.0
 40
1.0
 10
230.3175378606006
 20
116.0382954545468
 30
0.0
 10
230.3889768528898
 20
116.0407620100849
 30
0.0
 10
230.5262240420853
 20
116.045500708151
 30
0.0
 10
230.7199800880369
 20
116.0919301413267
 30
0.0
 10
230.8762639520686
 20
116.1704061575872
 30
0.0
 10
230.9894920257018
 20
116.2779374475171
 30
0.0
 10
231.06579629625
 20
116.4065097909183
 30
0.0
 10
231.0859731053838
 20
116.5057579633327
 30
0.0
 10
231.0965888173358
 20
116.557975834014
 30
0.0
  0
LINE
  5
17E
330
1F
100
AcDbEntity
  8
0
  6
Continuous
 62
     7
370
    18
100
AcDbLine
 10
228.8390171981
 20
116.0382954545
 30
0.0
 11
230.3175378606
 21
116.0382954545
 31
0.0
  0
LINE
  5
17F
330
1F
100
AcDbEntity
  8
0
  6
Continuous
 62
     7
370
    18
100
AcDbLine
 10
228.6884160927
 20
116.3817266632
 30
0.0
 11
228.8390171981
 21
116.0382954545
 31
0.0
  0
LINE
  5
180
330
1F
100
AcDbEntity
  8
0
  6
Continuous
 62
     7
370
    18
100
AcDbLine
 10
228.0350045326
 20
116.3817266632
 30
0.0
 11
228.6884160927
 21
116.3817266632
 31
0.0
  0
LINE
  5
181
330
1F
100
AcDbEntity
  8
0
  6
Continuous
 62
     7
370
    18
100
AcDbLine
 10
227.8814412563
 20
116.0410770053
 30
0.0
 11
228.0350045326
 21
116.3817266632
 31
0.0
  0
LINE
  5
182
330
1F
100
AcDbEntity
  8
0
  6
Continuous
 62
     7
370
    18
100
AcDbLine
 10
226.012022402
 20
116.0410770053
 30
0.0
 11
227.8814412563
 21
116.0410770053
 31
0.0
  0
LINE
  5
183
330
1F
100
AcDbEntity
  8
0
  6
Continuous
 62
     7
370
    18
100
AcDbLine
 10
226.012022402
 20
118.0613137092
 30
0.0
 11
226.012022402
 21
116.0410770053
 31
0.0
  0
LINE
  5
184
330
1F
100
AcDbEntity
  8
0
  6
Continuous
 62
     7
370
    18
100
AcDbLine
 10
226.5390720848
 20
118.0613137092
 30
0.0
 11
226.012022402
 21
118.0613137092
 31
0.0
  0
LINE
  5
185
330
1F
100
AcDbEntity
  8
0
  6
Continuous
 62
     7
370
    18
100
AcDbLine
 10
226.5390720848
 20
116.4980460586
 30
0.0
 11
226.5390720848
 21
118.0613137092
 31
0.0
  0
LINE
  5
186
330
1F
100
AcDbEntity
  8
0
  6
Continuous
 62
     7
370
    18
100
AcDbLine
 10
227.5085328344
 20
116.4980460586
 30
0.0
 11
226.5390720848
 21
116.4980460586
 31
0.0
  0
LINE
  5
187
330
1F
100
AcDbEntity
  8
0
  6
Continuous
 62
     7
370
    18
100
AcDbLine
 10
228.0967766338
 20
118.0613137092
 30
0.0
 11
227.5085328344
 21
116.4980460586
 31
0.0
  0
LINE
  5
188
330
1F
100
AcDbEntity
  8
0
  6
Continuous
 62
     7
370
    18
100
AcDbLine
 10
228.632243217
 20
118.0613137092
 30
0.0
 11
228.0967766338
 21
118.0613137092
 31
0.0
  0
LINE
  5
189
330
1F
100
AcDbEntity
  8
0
  6
Continuous
 62
     7
370
    18
100
AcDbLine
 10
229.3457651727
 20
116.177914853
 30
0.0
 11
228.632243217
 21
118.0613137092
 31
0.0
  0
LINE
  5
18A
330
1F
100
AcDbEntity
  8
0
  6
Continuous
 62
     7
370
    18
100
AcDbLine
 10
229.3457651727
 20
118.0613137092
 30
0.0
 11
229.3457651727
 21
116.177914853
 31
0.0
  0
LINE
  5
18B
330
1F
100
AcDbEntity
  8
0
  6
Continuous
 62
     7
370
    18
100
AcDbLine
 10
230.2919981673
 20
118.0613137092
 30
0.0
 11
229.3457651727
 21
118.0613137092
 31
0.0
  0
SPLINE
  5
18C
330
1F
100
AcDbEntity
  8
0
  6
Continuous
 62
     7
370
    18
100
AcDbSpline
210
0.0
220
0.0
230
1.0
 70
     8
 71
     3
 72
    14
 73
    10
 74
     0
 42
0.000000001
 43
0.00000001
 40
0.0
 40
0.0
 40
0.0
 40
0.0
 40
0.1423816612635864
 40
0.2654010250778269
 40
0.3802085707899304
 40
0.4953201289099367
 40
0.6562432766114743
 40
0.8263515868701831
 40
1.0
 40
1.0
 40
1.0
 40
1.0
 10
231.0229680323118
 20
117.5562093781548
 30
0.0
 10
231.0201441710682
 20
117.6043122888848
 30
0.0
 10
231.014880461809
 20
117.6939766579031
 30
0.0
 10
230.9642999933085
 20
117.8142198786148
 30
0.0
 10
230.88707769979
 20
117.9064211788054
 30
0.0
 10
230.7770728484664
 20
117.9809441022561
 30
0.0
 10
230.6345179618242
 20
118.0320618145438
 30
0.0
 10
230.466212185811
 20
118.0595444676133
 30
0.0
 10
230.3504668327871
 20
118.060719926911
 30
0.0
 10
230.291998167268
 20
118.0613137091642
 30
0.0
  0
SPLINE
  5
18D
330
1F
100
AcDbEntity
  8
0
  6
Continuous
 62
     7
370
    18
100
AcDbSpline
210
0.0
220
0.0
230
1.0
 70
     8
 71
     3
 72
    11
 73
     7
 74
     0
 42
0.000000001
 43
0.00000001
 40
0.0
 40
0.0
 40
0.0
 40
0.0
 40
0.2840562052455307
 40
0.5588619016419769
 40
0.7750993838285813
 40
1.0
 40
1.0
 40
1.0
 40
1.0
 10
230.7566255161286
 20
117.1499042851437
 30
0.0
 10
230.7985316881117
 20
117.174758855909
 30
0.0
 10
230.8809793253489
 20
117.2236585892221
 30
0.0
 10
230.96491816566
 20
117.3289735198343
 30
0.0
 10
231.0145484323131
 20
117.4423155985161
 30
0.0
 10
231.0201249945329
 20
117.5177509812778
 30
0.0
 10
231.0229680323118
 20
117.5562093781548
 30
0.0
  0
SPLINE
  5
18E
330
1F
100
AcDbEntity
  8
0
  6
Continuous
 62
     7
370
    18
100
AcDbSpline
210
0.0
220
0.0
230
1.0
 70
     8
 71
     3
 72
    11
 73
     7
 74
     0
 42
0.000000001
 43
0.00000001
 40
0.0
 40
0.0
 40
0.0
 40
0.0
 40
0.2849839497112128
 40
0.5578557580525033
 40
0.7738896021956504
 40
1.0
 40
1.0
 40
1.0
 40
1.0
 10
231.1026215313195
 20
116.7237851584791
 30
0.0
 10
231.0929238964303
 20
116.7788355898861
 30
0.0
 10
231.0739407871431
 20
116.8865967468734
 30
0.0
 10
230.9875835956237
 20
117.0144837054066
 30
0.0
 10
230.8792738973722
 20
117.1047162976892
 30
0.0
 10
230.7981247779719
 20
117.1346144940797
 30
0.0
 10
230.7566255161286
 20
117.1499042851437
 30
0.0
  0
LINE
  5
18F
330
1F
100
AcDbEntity
  8
0
  6
Continuous
 62
     7
370
    18
100
AcDbLine
 10
231.606371211
 20
116.7237851585
 30
0.0
 11
231.1026215313
 21
116.7237851585
 31
0.0
  0
SPLINE
  5
190
330
1F
100
AcDbEntity
  8
0
  6
Continuous
 62
     7
370
    18
100
AcDbSpline
210
0.0
220
0.0
230
1.0
 70
     8
 71
     3
 72
    12
 73
     8
 74
     0
 42
0.000000001
 43
0.00000001
 40
0.0
 40
0.0
 40
0.0
 40
0.0
 40
0.3029848175181634
 40
0.5555954840373197
 40
0.6861253068640346
 40
0.8302562633026844
 40
1.0
 40
1.0
 40
1.0
 40
1.0
 10
231.9887802542941
 20
116.410553643787
 30
0.0
 10
231.9319160557054
 20
116.4128224218176
 30
0.0
 10
231.8276418805237
 20
116.4169827716279
 30
0.0
 10
231.7067510829968
 20
116.4759851870651
 30
0.0
 10
231.6453863875071
 20
116.5549354940148
 30
0.0
 10
231.6147379973167
 20
116.6334563848735
 30
0.0
 10
231.6093078434385
 20
116.6920809416477
 30
0.0
 10
231.6063712109852
 20
116.7237851584791
 30
0.0
  0
SPLINE
  5
191
330
1F
100
AcDbEntity
  8
0
  6
Continuous
 62
     7
370
    18
100
AcDbSpline
210
0.0
220
0.0
230
1.0
 70
     8
 71
     3
 72
    12
 73
     8
 74
     0
 42
0.000000001
 43
0.00000001
 40
0.0
 40
0.0
 40
0.0
 40
0.0
 40
0.1228977808113462
 40
0.2361517003655365
 40
0.4654549568724395
 40
0.722943542278525
 40
1.0
 40
1.0
 40
1.0
 40
1.0
 10
232.3118013826964
 20
116.616605144168
 30
0.0
 10
232.3104801306299
 20
116.5990790353717
 30
0.0
 10
232.3079413059247
 20
116.5654021018606
 30
0.0
 10
232.2781309105318
 20
116.5047474168585
 30
0.0
 10
232.2088846126844
 20
116.4497361916888
 30
0.0
 10
232.1041154911084
 20
116.4163160566014
 30
0.0
 10
232.0281522516706
 20
116.4125207590284
 30
0.0
 10
231.9887802542941
 20
116.410553643787
 30
0.0
  0
SPLINE
  5
192
330
1F
100
AcDbEntity
  8
0
  6
Continuous
 62
     7
370
    18
100
AcDbSpline
210
0.0
220
0.0
230
1.0
 70
     8
 71
     3
 72
    12
 73
     8
 74
     0
 42
0.000000001
 43
0.00000001
 40
0.0
 40
0.0
 40
0.0
 40
0.0
 40
0.3210306919457608
 40
0.6029592976098701
 40
0.8214028303124085
 40
0.9104117121954222
 40
0.9999999999999999
 40
0.9999999999999999
 40
0.9999999999999999
 40
0.9999999999999999
 10
231.730963010567
 20
116.9100045631888
 30
0.0
 10
231.8023381062095
 20
116.8916117899846
 30
0.0
 10
231.9363946890073
 20
116.8570665147489
 30
0.0
 10
232.1179788631095
 20
116.809091794647
 30
0.0
 10
232.2439607300835
 20
116.7519871551665
 30
0.0
 10
232.3044462007622
 20
116.6789219946738
 30
0.0
 10
232.3093443585082
 20
116.63742230551
 30
0.0
 10
232.3118013826964
 20
116.616605144168
 30
0.0
  0
SPLINE
  5
193
330
1F
100
AcDbEntity
  8
0
  6
Continuous
 62
     7
370
    18
100
AcDbSpline
210
0.0
220
0.0
230
1.0
 70
     8
 71
     3
 72
    12
 73
     8
 74
     0
 42
0.000000001
 43
0.00000001
 40
0.0
 40
0.0
 40
0.0
 40
0.0
 40
0.2059303301559963
 40
0.3857152088822414
 40
0.562273191230034
 40
0.7785006333333765
 40
1.0
 40
1.0
 40
1.0
 40
1.0
 10
231.1388539392582
 20
117.491330609802
 30
0.0
 10
231.1438227809826
 20
117.4289307638472
 30
0.0
 10
231.1531296073358
 20
117.3120535190118
 30
0.0
 10
231.2419556370561
 20
117.1621190678856
 30
0.0
 10
231.3742232782403
 20
117.049385173597
 30
0.0
 10
231.5413153252042
 20
116.9673252790255
 30
0.0
 10
231.6672415690302
 20
116.92926426908
 30
0.0
 10
231.730963010567
 20
116.9100045631888
 30
0.0
  0
SPLINE
  5
194
330
1F
100
AcDbEntity
  8
0
  6
Continuous
 62
     7
370
    18
100
AcDbSpline
210
0.0
220
0.0
230
1.0
 70
     8
 71
     3
 72
    14
 73
    10
 74
     0
 42
0.000000001
 43
0.00000001
 40
0.0
 40
0.0
 40
0.0
 40
0.0
 40
0.1687571149027776
 40
0.3389805425085095
 40
0.5046286467510799
 40
0.6247827513896844
 40
0.7433698504427163
 40
0.8656643973442318
 40
1.0
 40
1.0
 40
1.0
 40
1.0
 10
231.9632766849973
 20
118.1035968931046
 30
0.0
 10
231.8987410986694
 20
118.1007686714535
 30
0.0
 10
231.7691091831372
 20
118.0950876540328
 30
0.0
 10
231.5806258467274
 20
118.0487838573531
 30
0.0
 10
231.4204944385887
 20
117.9768786266174
 30
0.0
 10
231.2962388533412
 20
117.8828846533743
 30
0.0
 10
231.2084159008503
 20
117.7749054904261
 30
0.0
 10
231.1491325409542
 20
117.6413483592198
 30
0.0
 10
231.1423856607593
 20
117.5428766203235
 30
0.0
 10
231.1388539392582
 20
117.491330609802
 30
0.0
  0
SPLINE
  5
195
330
1F
100
AcDbEntity
  8
0
  6
Continuous
 62
     7
370
    18
100
AcDbSpline
210
0.0
220
0.0
230
1.0
 70
     8
 71
     3
 72
    12
 73
     8
 74
     0
 42
0.000000001
 43
0.00000001
 40
0.0
 40
0.0
 40
0.0
 40
0.0
 40
0.1993974480574488
 40
0.3779257523812734
 40
0.5550669356786548
 40
0.7731143074051408
 40
1.0
 40
1.0
 40
1.0
 40
1.0
 10
232.773647180798
 20
117.4546647134334
 30
0.0
 10
232.7662602868901
 20
117.53241654754
 30
0.0
 10
232.7522596190526
 20
117.6797826281496
 30
0.0
 10
232.6321319216918
 20
117.8667991139641
 30
0.0
 10
232.4533150008878
 20
118.0025612883338
 30
0.0
 10
232.2236023273661
 20
118.0880775284991
 30
0.0
 10
232.0511934974724
 20
118.0983557149581
 30
0.0
 10
231.9632766849973
 20
118.1035968931046
 30
0.0
  0
LINE
  5
196
330
1F
100
AcDbEntity
  8
0
  6
Continuous
 62
     7
370
    18
100
AcDbLine
 10
232.2466697461
 20
117.4546647134
 30
0.0
 11
232.7736471808
 21
117.4546647134
 31
0.0
  0
SPLINE
  5
197
330
1F
100
AcDbEntity
  8
0
  6
Continuous
 62
     7
370
    18
100
AcDbSpline
210
0.0
220
0.0
230
1.0
 70
     8
 71
     3
 72
    13
 73
     9
 74
     0
 42
0.000000001
 43
0.00000001
 40
0.0
 40
0.0
 40
0.0
 40
0.0
 40
0.2626041787201647
 40
0.5099839566452393
 40
0.6263386331431423
 40
0.7414049134888157
 40
0.8625801387792016
 40
1.0
 40
1.0
 40
1.0
 40
1.0
 10
231.920758694824
 20
117.6972918000934
 30
0.0
 10
231.9611012524298
 20
117.6952717668915
 30
0.0
 10
232.0394475196115
 20
117.6913488113242
 30
0.0
 10
232.1321823331724
 20
117.6584282479314
 30
0.0
 10
232.1914319212261
 20
117.6138879997212
 30
0.0
 10
232.2248172919853
 20
117.5704676893154
 30
0.0
 10
232.2456720656364
 20
117.5158191820581
 30
0.0
 10
232.2463235442369
 20
117.4758857270329
 30
0.0
 10
232.2466697460928
 20
117.4546647134334
 30
0.0
  0
SPLINE
  5
198
330
1F
100
AcDbEntity
  8
0
  6
Continuous
 62
     7
370
    18
100
AcDbSpline
210
0.0
220
0.0
230
1.0
 70
     8
 71
     3
 72
    12
 73
     8
 74
     0
 42
0.000000001
 43
0.00000001
 40
0.0
 40
0.0
 40
0.0
 40
0.0
 40
0.1338350776842971
 40
0.2542572338768617
 40
0.4899325118164021
 40
0.7434916633797841
 40
0.9999999999999999
 40
0.9999999999999999
 40
0.9999999999999999
 40
0.9999999999999999
 10
231.6659036220351
 20
117.5251968933937
 30
0.0
 10
231.667011607534
 20
117.5405734216097
 30
0.0
 10
231.6691165364735
 20
117.5697854458299
 30
0.0
 10
231.6939204921403
 20
117.6214420831174
 30
0.0
 10
231.7505150758714
 20
117.6667733170789
 30
0.0
 10
231.8330209902952
 20
117.692817081548
 30
0.0
 10
231.8914002779272
 20
117.6957944888376
 30
0.0
 10
231.920758694824
 20
117.6972918000934
 30
0.0
  0
SPLINE
  5
199
330
1F
100
AcDbEntity
  8
0
  6
Continuous
 62
     7
370
    18
100
AcDbSpline
210
0.0
220
0.0
230
1.0
 70
     8
 71
     3
 72
    12
 73
     8
 74
     0
 42
0.000000001
 43
0.00000001
 40
0.0
 40
0.0
 40
0.0
 40
0.0
 40
0.3295920737084764
 40
0.6175980183821557
 40
0.8358975487564522
 40
0.9197397490046714
 40
1.0
 40
1.0
 40
1.0
 40
1.0
 10
232.2523050956825
 20
117.2599019742496
 30
0.0
 10
232.1803081143989
 20
117.2780670132033
 30
0.0
 10
232.0453983379899
 20
117.3121051256354
 30
0.0
 10
231.8629164894134
 20
117.3564965407805
 30
0.0
 10
231.7372506038975
 20
117.40521611457
 30
0.0
 10
231.6739145145446
 20
117.4693922781722
 30
0.0
 10
231.6685347774349
 20
117.5068680224844
 30
0.0
 10
231.6659036220351
 20
117.5251968933937
 30
0.0
  0
SPLINE
  5
19A
330
1F
100
AcDbEntity
  8
0
  6
Continuous
 62
     7
370
    18
100
AcDbSpline
210
0.0
220
0.0
230
1.0
 70
     8
 71
     3
 72
    12
 73
     8
 74
     0
 42
0.000000001
 43
0.00000001
 40
0.0
 40
0.0
 40
0.0
 40
0.0
 40
0.204537882118412
 40
0.3838943514216847
 40
0.560197582222703
 40
0.7766167962242723
 40
1.0
 40
1.0
 40
1.0
 40
1.0
 10
232.8387788174016
 20
116.678666237726
 30
0.0
 10
232.8339148585735
 20
116.7402927583335
 30
0.0
 10
232.8247857608225
 20
116.8559587313746
 30
0.0
 10
232.7381142013418
 20
117.005176597483
 30
0.0
 10
232.6080389865681
 20
117.1188086587437
 30
0.0
 10
232.4420909187606
 20
117.2024285680135
 30
0.0
 10
232.3162313386718
 20
117.2405429996282
 30
0.0
 10
232.2523050956825
 20
117.2599019742496
 30
0.0
  0
SPLINE
  5
19B
330
1F
100
AcDbEntity
  8
0
  6
Continuous
 62
     7
370
    18
100
AcDbSpline
210
0.0
220
0.0
230
1.0
 70
     8
 71
     3
 72
    13
 73
     9
 74
     0
 42
0.000000001
 43
0.00000001
 40
0.0
 40
0.0
 40
0.0
 40
0.0
 40
0.1943984829390963
 40
0.3808229110812393
 40
0.5574598692554742
 40
0.6939226743571317
 40
0.837301079722939
 40
0.9999999999999999
 40
0.9999999999999999
 40
0.9999999999999999
 40
0.9999999999999999
 10
231.9575690873359
 20
115.9782211829595
 30
0.0
 10
232.039810614744
 20
115.9818984178434
 30
0.0
 10
232.2009201944372
 20
115.9891020506705
 30
0.0
 10
232.429683361812
 20
116.0538824606449
 30
0.0
 10
232.6154205836623
 20
116.1607835145975
 30
0.0
 10
232.7459758107449
 20
116.3060481170485
 30
0.0
 10
232.8256672755857
 20
116.4796683561723
 30
0.0
 10
232.8342281736453
 20
116.6095997251883
 30
0.0
 10
232.8387788174016
 20
116.678666237726
 30
0.0
  0
SPLINE
  5
19C
330
1F
100
AcDbEntity
  8
0
  6
Continuous
 62
     7
370
    18
100
AcDbSpline
210
0.0
220
0.0
230
1.0
 70
     8
 71
     3
 72
    12
 73
     8
 74
     0
 42
0.000000001
 43
0.00000001
 40
0.0
 40
0.0
 40
0.0
 40
0.0
 40
0.1886637132768466
 40
0.3661825608804957
 40
0.5448728808046008
 40
0.7656579321773195
 40
1.0
 40
1.0
 40
1.0
 40
1.0
 10
231.0965888173358
 20
116.557975834014
 30
0.0
 10
231.116824405763
 20
116.4894596270433
 30
0.0
 10
231.1561002127665
 20
116.3564746470777
 30
0.0
 10
231.2894062326743
 20
116.1946694654769
 30
0.0
 10
231.4699860862215
 20
116.0720401967881
 30
0.0
 10
231.6982775892453
 20
115.9924677806854
 30
0.0
 10
231.869439107091
 20
115.9830634257071
 30
0.0
 10
231.9575690873359
 20
115.9782211829595
 30
0.0
  0
LINE
  5
19D
330
1F
100
AcDbEntity
  8
0
  6
Continuous
 62
     7
370
    18
100
AcDbLine
 10
228.6651160896
 20
116.7204978712
 30
0.0
 11
228.4096830322
 21
117.5290441032
 31
0.0
  0
LINE
  5
19E
330
1F
100
AcDbEntity
  8
0
  6
Continuous
 62
     7
370
    18
100
AcDbLine
 10
228.4096830322
 20
117.5290441032
 30
0.0
 11
228.3273924786
 21
117.5290441032
 31
0.0
  0
LINE
  5
19F
330
1F
100
AcDbEntity
  8
0
  6
Continuous
 62
     7
370
    18
100
AcDbLine
 10
228.3273924786
 20
117.5290441032
 30
0.0
 11
228.0631812805
 21
116.7204978712
 31
0.0
  0
LINE
  5
1A0
330
1F
100
AcDbEntity
  8
0
  6
Continuous
 62
     7
370
    18
100
AcDbLine
 10
228.0631812805
 20
116.7204978712
 30
0.0
 11
228.6651160896
 21
116.7204978712
 31
0.0
  0
LINE
  5
1A1
330
1F
100
AcDbEntity
  8
0
  6
Continuous
 62
     7
370
    18
100
AcDbLine
 10
229.8260342291
 20
117.1909953759
 30
0.0
 11
230.2950687103
 21
117.1909953759
 31
0.0
  0
SPLINE
  5
1A2
330
1F
100
AcDbEntity
  8
0
  6
Continuous
 62
     7
370
    18
100
AcDbSpline
210
0.0
220
0.0
230
1.0
 70
     8
 71
     3
 72
    12
 73
     8
 74
     0
 42
0.000000001
 43
0.00000001
 40
0.0
 40
0.0
 40
0.0
 40
0.0
 40
0.242466320512141
 40
0.5040777209641408
 40
0.6506173645415592
 40
0.8119564965868009
 40
1.0
 40
1.0
 40
1.0
 40
1.0
 10
230.2950687103136
 20
117.1909953759016
 30
0.0
 10
230.3265369088253
 20
117.193988398369
 30
0.0
 10
230.3919580269219
 20
117.2002107716083
 30
0.0
 10
230.4675349420603
 20
117.2452907124601
 30
0.0
 10
230.5136685132541
 20
117.3035333242122
 30
0.0
 10
230.5385208245755
 20
117.3640290535922
 30
0.0
 10
230.5412370555665
 20
117.409412881317
 30
0.0
 10
230.5426989759364
 20
117.4338392067767
 30
0.0
  0
SPLINE
  5
1A3
330
1F
100
AcDbEntity
  8
0
  6
Continuous
 62
     7
370
    18
100
AcDbSpline
210
0.0
220
0.0
230
1.0
 70
     8
 71
     3
 72
    12
 73
     8
 74
     0
 42
0.000000001
 43
0.00000001
 40
0.0
 40
0.0
 40
0.0
 40
0.0
 40
0.23250610395507
 40
0.4222580038951598
 40
0.5928278045028524
 40
0.7922143842709269
 40
1.0
 40
1.0
 40
1.0
 40
1.0
 10
230.5426989759364
 20
117.4338392067767
 30
0.0
 10
230.5408772793214
 20
117.4647091288086
 30
0.0
 10
230.537568867356
 20
117.5207724812791
 30
0.0
 10
230.5033565844897
 20
117.5935734765956
 30
0.0
 10
230.4486835981471
 20
117.645353045875
 30
0.0
 10
230.3765079006345
 20
117.6755870122151
 30
0.0
 10
230.3225858700218
 20
117.6787045291347
 30
0.0
 10
230.2950687103136
 20
117.6802954412349
 30
0.0
  0
LINE
  5
1A4
330
1F
100
AcDbEntity
  8
0
  6
Continuous
 62
     7
370
    18
100
AcDbLine
 10
230.2950687103
 20
117.6802954412
 30
0.0
 11
229.8260342291
 21
117.6802954412
 31
0.0
  0
LINE
  5
1A5
330
1F
100
AcDbEntity
  8
0
  6
Continuous
 62
     7
370
    18
100
AcDbLine
 10
229.8260342291
 20
117.6802954412
 30
0.0
 11
229.8260342291
 21
117.1909953759
 31
0.0
  0
LINE
  5
1A6
330
1F
100
AcDbEntity
  8
0
  6
Continuous
 62
     7
370
    18
100
AcDbLine
 10
229.8260342291
 20
116.3931057345
 30
0.0
 11
230.3470150738
 21
116.3931057345
 31
0.0
  0
SPLINE
  5
1A7
330
1F
100
AcDbEntity
  8
0
  6
Continuous
 62
     7
370
    18
100
AcDbSpline
210
0.0
220
0.0
230
1.0
 70
     8
 71
     3
 72
    12
 73
     8
 74
     0
 42
0.000000001
 43
0.00000001
 40
0.0
 40
0.0
 40
0.0
 40
0.0
 40
0.2382584506409
 40
0.4976556531040025
 40
0.6448887038896327
 40
0.8084522641844492
 40
1.0
 40
1.0
 40
1.0
 40
1.0
 10
230.3470150738389
 20
116.3931057344806
 30
0.0
 10
230.3820076163389
 20
116.3965746904141
 30
0.0
 10
230.4550973075745
 20
116.4038203747793
 30
0.0
 10
230.538959023538
 20
116.4561398142883
 30
0.0
 10
230.5898745447944
 20
116.5230933135604
 30
0.0
 10
230.6173428009656
 20
116.5927329203649
 30
0.0
 10
230.6203389706781
 20
116.6448947136309
 30
0.0
 10
230.6219551105499
 20
116.6730308881363
 30
0.0
  0
SPLINE
  5
1A8
330
1F
100
AcDbEntity
  8
0
  6
Continuous
 62
     7
370
    18
100
AcDbSpline
210
0.0
220
0.0
230
1.0
 70
     8
 71
     3
 72
    12
 73
     8
 74
     0
 42
0.000000001
 43
0.00000001
 40
0.0
 40
0.0
 40
0.0
 40
0.0
 40
0.2366945835519322
 40
0.4286648826954259
 40
0.5991110185125277
 40
0.7959723284782175
 40
1.0
 40
1.0
 40
1.0
 40
1.0
 10
230.6219551105499
 20
116.6730308881363
 30
0.0
 10
230.6199416832544
 20
116.7085647702993
 30
0.0
 10
230.6162952729204
 20
116.7729182810579
 30
0.0
 10
230.5785702495255
 20
116.8566427573237
 30
0.0
 10
230.5180106146467
 20
116.9164637485399
 30
0.0
 10
230.4376681086588
 20
116.9515542335394
 30
0.0
 10
230.3775907366491
 20
116.9551645210065
 30
0.0
 10
230.3470150738389
 20
116.9570019338052
 30
0.0
  0
LINE
  5
1A9
330
1F
100
AcDbEntity
  8
0
  6
Continuous
 62
     7
370
    18
100
AcDbLine
 10
230.3470150738
 20
116.9570019338
 30
0.0
 11
229.8260342291
 21
116.9570019338
 31
0.0
  0
LINE
  5
1AA
330
1F
100
AcDbEntity
  8
0
  6
Continuous
 62
     7
370
    18
100
AcDbLine
 10
229.8260342291
 20
116.9570019338
 30
0.0
 11
229.8260342291
 21
116.3931057345
 31
0.0
  0
SPLINE
  5
1AB
330
1F
100
AcDbEntity
  8
0
  6
Continuous
 62
     7
370
    18
100
AcDbSpline
210
0.0
220
0.0
230
1.0
 70
     8
 71
     3
 72
    13
 73
     9
 74
     0
 42
0.000000001
 43
0.00000001
 40
0.0
 40
0.0
 40
0.0
 40
0.0
 40
0.5894795511906067
 40
0.8525979839264363
 40
0.9412877217975717
 40
0.9634735681078218
 40
0.9825903643577695
 40
1.0
 40
1.0
 40
1.0
 40
1.0
 10
231.9606757544174
 20
117.5633619372494
 30
0.0
 10
231.9229577110871
 20
117.5614339648912
 30
0.0
 10
231.8684039481345
 20
117.5586454282197
 30
0.0
 10
231.8098754804338
 20
117.544245301725
 30
0.0
 10
231.7880348267733
 20
117.5334258390065
 30
0.0
 10
231.7821916705366
 20
117.5275020990596
 30
0.0
 10
231.7801409040393
 20
117.5242473139943
 30
0.0
 10
231.7798629435634
 20
117.5219057996993
 30
0.0
 10
231.7797304589391
 20
117.5207897610223
 30
0.0
  0
SPLINE
  5
1AC
330
1F
100
AcDbEntity
  8
0
  6
Continuous
 62
     7
370
    18
100
AcDbSpline
210
0.0
220
0.0
230
1.0
 70
     8
 71
     3
 72
    12
 73
     8
 74
     0
 42
0.000000001
 43
0.00000001
 40
0.0
 40
0.0
 40
0.0
 40
0.0
 40
0.1687932262470754
 40
0.3139712558223841
 40
0.4643534436981239
 40
0.6895611553267716
 40
1.0
 40
1.0
 40
1.0
 40
1.0
 10
232.1309644593256
 20
117.4622688229758
 30
0.0
 10
232.1285046520722
 20
117.4744993881431
 30
0.0
 10
232.1239291795274
 20
117.4972493881896
 30
0.0
 10
232.105369612577
 20
117.5271177624824
 30
0.0
 10
232.0725749056557
 20
117.5486515135846
 30
0.0
 10
232.0228270414431
 20
117.5604094474533
 30
0.0
 10
231.9834798043596
 20
117.5622786334598
 30
0.0
 10
231.9606757544174
 20
117.5633619372494
 30
0.0
  0
SPLINE
  5
1AD
330
1F
100
AcDbEntity
  8
0
  6
Continuous
 62
     7
370
    18
100
AcDbSpline
210
0.0
220
0.0
230
1.0
 70
     8
 71
     3
 72
     9
 73
     5
 74
     0
 42
0.000000001
 43
0.00000001
 40
0.0
 40
0.0
 40
0.0
 40
0.0
 40
0.5915228225856829
 40
1.0
 40
1.0
 40
1.0
 40
1.0
 10
232.1362746925927
 20
117.378135943525
 30
0.0
 10
232.1363458789604
 20
117.3948052091865
 30
0.0
 10
232.1364662232056
 20
117.4229854670311
 30
0.0
 10
232.1325600442712
 20
117.4508761255201
 30
0.0
 10
232.1309644593256
 20
117.4622688229758
 30
0.0
  0
SPLINE
  5
1AE
330
1F
100
AcDbEntity
  8
0
  6
Continuous
 62
     7
370
    18
100
AcDbSpline
210
0.0
220
0.0
230
1.0
 70
     8
 71
     3
 72
    13
 73
     9
 74
     0
 42
0.000000001
 43
0.00000001
 40
0.0
 40
0.0
 40
0.0
 40
0.0
 40
0.0518958002713987
 40
0.1049388400652582
 40
0.1730026251899479
 40
0.2659228894279218
 40
0.5508780002890717
 40
0.9999999999999999
 40
0.9999999999999999
 40
0.9999999999999999
 40
0.9999999999999999
 10
231.779730458939
 20
117.5207897610223
 30
0.0
 10
231.7803626933672
 20
117.5137703124725
 30
0.0
 10
231.7816411387749
 20
117.4995762392552
 30
0.0
 10
231.7966217818457
 20
117.4806625501232
 30
0.0
 10
231.8210799360674
 20
117.46566923849
 30
0.0
 10
231.8764705576224
 20
117.443711304336
 30
0.0
 10
231.9833527313865
 20
117.4162560837941
 30
0.0
 10
232.0782281504514
 20
117.392605692089
 30
0.0
 10
232.1362746925927
 20
117.378135943525
 30
0.0
  0
LINE
  5
1AF
330
1F
100
AcDbEntity
  8
0
  6
Continuous
 62
     7
370
    18
100
AcDbLine
 10
226.6548496196
 20
118.1722325612
 30
0.0
 11
225.8942219211
 21
118.1722325612
 31
0.0
  0
LINE
  5
1B0
330
1F
100
AcDbEntity
  8
0
  6
Continuous
 62
     7
370
    18
100
AcDbLine
 10
226.6548496196
 20
116.5772516734
 30
0.0
 11
226.6548496196
 21
118.1722325612
 31
0.0
  0
LINE
  5
1B1
330
1F
100
AcDbEntity
  8
0
  6
Continuous
 62
     7
370
    18
100
AcDbLine
 10
227.4211463974
 20
116.5772516734
 30
0.0
 11
226.6548496196
 21
116.5772516734
 31
0.0
  0
LINE
  5
1B2
330
1F
100
AcDbEntity
  8
0
  6
Continuous
 62
     7
370
    18
100
AcDbLine
 10
228.0331355323
 20
118.1722325612
 30
0.0
 11
227.4211463974
 21
116.5772516734
 31
0.0
  0
LINE
  5
1B3
330
1F
100
AcDbEntity
  8
0
  6
Continuous
 62
     7
370
    18
100
AcDbLine
 10
228.7244278271
 20
118.1722325612
 30
0.0
 11
228.0331355323
 21
118.1722325612
 31
0.0
  0
LINE
  5
1B4
330
1F
100
AcDbEntity
  8
0
  6
Continuous
 62
     7
370
    18
100
AcDbLine
 10
229.2411460357
 20
116.7779712122
 30
0.0
 11
228.7244278271
 21
118.1722325612
 31
0.0
  0
LINE
  5
1B5
330
1F
100
AcDbEntity
  8
0
  6
Continuous
 62
     7
370
    18
100
AcDbLine
 10
229.2411460357
 20
118.1722325612
 30
0.0
 11
229.2411460357
 21
116.7779712122
 31
0.0
  0
LINE
  5
1B6
330
1F
100
AcDbEntity
  8
0
  6
Continuous
 62
     7
370
    18
100
AcDbLine
 10
230.2292361491
 20
118.1722325612
 30
0.0
 11
229.2411460357
 21
118.1722325612
 31
0.0
  0
SPLINE
  5
1B7
330
1F
100
AcDbEntity
  8
0
  6
Continuous
 62
     7
370
    18
100
AcDbSpline
210
0.0
220
0.0
230
1.0
 70
     8
 71
     3
 72
    13
 73
     9
 74
     0
 42
0.000000001
 43
0.00000001
 40
0.0
 40
0.0
 40
0.0
 40
0.0
 40
0.1129894123230104
 40
0.2349035042068361
 40
0.3805358024040086
 40
0.5310429421797489
 40
0.7319137862307443
 40
1.0
 40
1.0
 40
1.0
 40
1.0
 10
231.0983804512123
 20
117.7677697940001
 30
0.0
 10
231.0813581137831
 20
117.8026113317702
 30
0.0
 10
231.0459688978408
 20
117.8750464311826
 30
0.0
 10
230.9729159741647
 20
117.9850755024308
 30
0.0
 10
230.8546586471545
 20
118.0720190149306
 30
0.0
 10
230.6932180146833
 20
118.1307998252512
 30
0.0
 10
230.482537850149
 20
118.1668557583832
 30
0.0
 10
230.3213700801726
 20
118.1702768460168
 30
0.0
 10
230.2292361491142
 20
118.1722325611838
 30
0.0
  0
SPLINE
  5
1B8
330
1F
100
AcDbEntity
  8
0
  6
Continuous
 62
     7
370
    18
100
AcDbSpline
210
0.0
220
0.0
230
1.0
 70
     8
 71
     3
 72
    12
 73
     8
 74
     0
 42
0.000000001
 43
0.00000001
 40
0.0
 40
0.0
 40
0.0
 40
0.0
 40
0.2577824677168397
 40
0.4746472252827209
 40
0.6603530347935923
 40
0.8468286435267821
 40
1.0
 40
1.0
 40
1.0
 40
1.0
 10
231.9551342090202
 20
118.1935096182884
 30
0.0
 10
231.8688728098494
 20
118.1894375221209
 30
0.0
 10
231.7100422496175
 20
118.181939692016
 30
0.0
 10
231.4967036551549
 20
118.1172852712359
 30
0.0
 10
231.3235372868562
 20
118.0221803545589
 30
0.0
 10
231.1887250714827
 20
117.9060034243709
 30
0.0
 10
231.1264601865389
 20
117.8107337662038
 30
0.0
 10
231.0983804512123
 20
117.7677697940001
 30
0.0
  0
SPLINE
  5
1B9
330
1F
100
AcDbEntity
  8
0
  6
Continuous
 62
     7
370
    18
100
AcDbSpline
210
0.0
220
0.0
230
1.0
 70
     8
 71
     3
 72
    15
 73
    11
 74
     0
 42
0.000000001
 43
0.00000001
 40
0.0
 40
0.0
 40
0.0
 40
0.0
 40
0.1009667219583008
 40
0.2110426783902178
 40
0.3263227887254707
 40
0.4481367482187079
 40
0.5538549368465843
 40
0.6756292865222512
 40
0.8215985201030968
 40
0.9999999999999999
 40
0.9999999999999999
 40
0.9999999999999999
 40
0.9999999999999999
 10
232.8864841008196
 20
117.3460036136532
 30
0.0
 10
232.885615054238
 20
117.3948316249162
 30
0.0
 10
232.8837985555476
 20
117.496892918752
 30
0.0
 10
232.8595074601889
 20
117.6534421356485
 30
0.0
 10
232.8034628171647
 20
117.8130804089195
 30
0.0
 10
232.7074526034261
 20
117.9512739491218
 30
0.0
 10
232.5749502852527
 20
118.0587500381784
 30
0.0
 10
232.4099345946927
 20
118.1355325361678
 30
0.0
 10
232.1985044897304
 20
118.1854389223544
 30
0.0
 10
232.0414906519854
 20
118.1906458479419
 30
0.0
 10
231.9551342090202
 20
118.1935096182884
 30
0.0
  0
LINE
  5
1BA
330
1F
100
AcDbEntity
  8
0
  6
Continuous
 62
     7
370
    18
100
AcDbLine
 10
232.2699528234
 20
117.3460036137
 30
0.0
 11
232.8864841008
 21
117.3460036137
 31
0.0
  0
SPLINE
  5
1BB
330
1F
100
AcDbEntity
  8
0
  6
Continuous
 62
     7
370
    18
100
AcDbSpline
210
0.0
220
0.0
230
1.0
 70
     8
 71
     3
 72
     9
 73
     5
 74
     0
 42
0.000000001
 43
0.00000001
 40
0.0
 40
0.0
 40
0.0
 40
0.0
 40
0.5581053349215384
 40
1.0
 40
1.0
 40
1.0
 40
1.0
 10
232.285305538634
 20
117.3419938456759
 30
0.0
 10
232.2824527442977
 20
117.3427526479863
 30
0.0
 10
232.2773411745673
 20
117.3441122521019
 30
0.0
 10
232.2722171170751
 20
117.3454239717421
 30
0.0
 10
232.2699528234057
 20
117.3460036136532
 30
0.0
  0
SPLINE
  5
1BC
330
1F
100
AcDbEntity
  8
0
  6
Continuous
 62
     7
370
    18
100
AcDbSpline
210
0.0
220
0.0
230
1.0
 70
     8
 71
     3
 72
    12
 73
     8
 74
     0
 42
0.000000001
 43
0.00000001
 40
0.0
 40
0.0
 40
0.0
 40
0.0
 40
0.208193677395273
 40
0.3823854809342386
 40
0.5475549960392796
 40
0.7576294387459033
 40
1.0
 40
1.0
 40
1.0
 40
1.0
 10
232.9290384186137
 20
116.6235058286314
 30
0.0
 10
232.9267189370282
 20
116.6974763523538
 30
0.0
 10
232.9224587880521
 20
116.8333366466839
 30
0.0
 10
232.8470374761434
 20
117.0166226680722
 30
0.0
 10
232.7130564339329
 20
117.1615070377382
 30
0.0
 10
232.5199643592856
 20
117.2693313342603
 30
0.0
 10
232.3671609156749
 20
117.316647185993
 30
0.0
 10
232.285305538634
 20
117.3419938456759
 30
0.0
  0
SPLINE
  5
1BD
330
1F
100
AcDbEntity
  8
0
  6
Continuous
 62
     7
370
    18
100
AcDbSpline
210
0.0
220
0.0
230
1.0
 70
     8
 71
     3
 72
    13
 73
     9
 74
     0
 42
0.000000001
 43
0.00000001
 40
0.0
 40
0.0
 40
0.0
 40
0.0
 40
0.2144903110109672
 40
0.4108455396423898
 40
0.5926499974110327
 40
0.7287207904635484
 40
0.8627130606487939
 40
1.0
 40
1.0
 40
1.0
 40
1.0
 10
231.9883480870034
 20
115.8531937864101
 30
0.0
 10
232.0851032027323
 20
115.8598677283396
 30
0.0
 10
232.2704328222731
 20
115.8726513326929
 30
0.0
 10
232.5228082998765
 20
115.9701908408664
 30
0.0
 10
232.7131365073171
 20
116.1072267668484
 30
0.0
 10
232.8398690642938
 20
116.2684078558577
 30
0.0
 10
232.9159894173955
 20
116.4388950654177
 30
0.0
 10
232.9246536759136
 20
116.5614726750725
 30
0.0
 10
232.9290384186137
 20
116.6235058286314
 30
0.0
  0
SPLINE
  5
1BE
330
1F
100
AcDbEntity
  8
0
  6
Continuous
 62
     7
370
    18
100
AcDbSpline
210
0.0
220
0.0
230
1.0
 70
     8
 71
     3
 72
    12
 73
     8
 74
     0
 42
0.000000001
 43
0.00000001
 40
0.0
 40
0.0
 40
0.0
 40
0.0
 40
0.1266166298736491
 40
0.2732454724470874
 40
0.4461934828620928
 40
0.6934352669522352
 40
1.0
 40
1.0
 40
1.0
 40
1.0
 10
231.0946934416743
 20
116.2905857207917
 30
0.0
 10
231.1138176376388
 20
116.2502586577782
 30
0.0
 10
231.1550886773648
 20
116.1632306947332
 30
0.0
 10
231.2702511303661
 20
116.053070351564
 30
0.0
 10
231.4413605558842
 20
115.9508678324422
 30
0.0
 10
231.6869401522582
 20
115.8727495690184
 30
0.0
 10
231.8809513753702
 20
115.8601618403444
 30
0.0
 10
231.9883480870034
 20
115.8531937864101
 30
0.0
  0
SPLINE
  5
1BF
330
1F
100
AcDbEntity
  8
0
  6
Continuous
 62
     7
370
    18
100
AcDbSpline
210
0.0
220
0.0
230
1.0
 70
     8
 71
     3
 72
    11
 73
     7
 74
     0
 42
0.000000001
 43
0.00000001
 40
0.0
 40
0.0
 40
0.0
 40
0.0
 40
0.3104248435957503
 40
0.6000686931456357
 40
0.8080123835287397
 40
1.0
 40
1.0
 40
1.0
 40
1.0
 10
230.4336235859638
 20
115.9358838129654
 30
0.0
 10
230.5153161488217
 20
115.943075181985
 30
0.0
 10
230.6732324704215
 20
115.9569765030246
 30
0.0
 10
230.8702940647548
 20
116.0426906504783
 30
0.0
 10
231.0184446963309
 20
116.1533463005292
 30
0.0
 10
231.0699623268197
 20
116.2460724130669
 30
0.0
 10
231.0946934416743
 20
116.2905857207917
 30
0.0
  0
LINE
  5
1C0
330
1F
100
AcDbEntity
  8
0
  6
Continuous
 62
     7
370
    18
100
AcDbLine
 10
228.7620071644
 20
115.935883813
 30
0.0
 11
230.433623586
 21
115.935883813
 31
0.0
  0
LINE
  5
1C1
330
1F
100
AcDbEntity
  8
0
  6
Continuous
 62
     7
370
    18
100
AcDbLine
 10
228.6342725737
 20
116.2658407562
 30
0.0
 11
228.7620071644
 21
115.935883813
 31
0.0
  0
LINE
  5
1C2
330
1F
100
AcDbEntity
  8
0
  6
Continuous
 62
     7
370
    18
100
AcDbLine
 10
228.0915089354
 20
116.2658407562
 30
0.0
 11
228.6342725737
 21
116.2658407562
 31
0.0
  0
LINE
  5
1C3
330
1F
100
AcDbEntity
  8
0
  6
Continuous
 62
     7
370
    18
100
AcDbLine
 10
227.9583918633
 20
115.935883813
 30
0.0
 11
228.0915089354
 21
116.2658407562
 31
0.0
  0
LINE
  5
1C4
330
1F
100
AcDbEntity
  8
0
  6
Continuous
 62
     7
370
    18
100
AcDbLine
 10
225.349864889
 20
115.935883813
 30
0.0
 11
227.9583918633
 21
115.935883813
 31
0.0
  0
SPLINE
  5
1C5
330
1F
100
AcDbEntity
  8
0
  6
Continuous
 62
     7
370
    18
100
AcDbSpline
210
0.0
220
0.0
230
1.0
 70
     8
 71
     3
 72
    11
 73
     7
 74
     0
 42
0.000000001
 43
0.00000001
 40
0.0
 40
0.0
 40
0.0
 40
0.0
 40
0.2274736611129912
 40
0.5494925387673759
 40
0.8007169048877155
 40
1.0
 40
1.0
 40
1.0
 40
1.0
 10
225.2837940274764
 20
116.293295023479
 30
0.0
 10
225.2859599597738
 20
116.2656363429224
 30
0.0
 10
225.2911920540352
 20
116.1988231632179
 30
0.0
 10
225.3020364836679
 20
116.1020345880098
 30
0.0
 10
225.316738542938
 20
116.008196601307
 30
0.0
 10
225.3397054296122
 20
115.9580612917487
 30
0.0
 10
225.3498648890117
 20
115.9358838129654
 30
0.0
  0
SPLINE
  5
1C6
330
1F
100
AcDbEntity
  8
0
  6
Continuous
 62
     7
370
    18
100
AcDbSpline
210
0.0
220
0.0
230
1.0
 70
     8
 71
     3
 72
    13
 73
     9
 74
     0
 42
0.000000001
 43
0.00000001
 40
0.0
 40
0.0
 40
0.0
 40
0.0
 40
0.1455849753971016
 40
0.2684075940997178
 40
0.3810001390981603
 40
0.4935379506791309
 40
0.736082626961545
 40
1.0
 40
1.0
 40
1.0
 40
1.0
 10
224.9564922008281
 20
116.7510949295675
 30
0.0
 10
224.9874928461192
 20
116.749442810003
 30
0.0
 10
225.0446471547657
 20
116.7463968814224
 30
0.0
 10
225.1211106057303
 20
116.7157634490352
 30
0.0
 10
225.1788600468172
 20
116.6681169453655
 30
0.0
 10
225.2346071415431
 20
116.5847650474649
 30
0.0
 10
225.270487679295
 20
116.456022034916
 30
0.0
 10
225.2792355250621
 20
116.3490422100398
 30
0.0
 10
225.2837940274764
 20
116.293295023479
 30
0.0
  0
LINE
  5
1C7
330
1F
100
AcDbEntity
  8
0
  6
Continuous
 62
     7
370
    18
100
AcDbLine
 10
224.5125639245
 20
116.7510949296
 30
0.0
 11
224.9564922008
 21
116.7510949296
 31
0.0
  0
LINE
  5
1C8
330
1F
100
AcDbEntity
  8
0
  6
Continuous
 62
     7
370
    18
100
AcDbLine
 10
224.5125639245
 20
115.935883813
 30
0.0
 11
224.5125639245
 21
116.7510949296
 31
0.0
  0
LINE
  5
1C9
330
1F
100
AcDbEntity
  8
0
  6
Continuous
 62
     7
370
    18
100
AcDbLine
 10
223.927051425
 20
115.935883813
 30
0.0
 11
224.5125639245
 21
115.935883813
 31
0.0
  0
LINE
  5
1CA
330
1F
100
AcDbEntity
  8
0
  6
Continuous
 62
     7
370
    18
100
AcDbLine
 10
223.927051425
 20
118.1722325612
 30
0.0
 11
223.927051425
 21
115.935883813
 31
0.0
  0
LINE
  5
1CB
330
1F
100
AcDbEntity
  8
0
  6
Continuous
 62
     7
370
    18
100
AcDbLine
 10
225.0729058416
 20
118.1722325612
 30
0.0
 11
223.927051425
 21
118.1722325612
 31
0.0
  0
SPLINE
  5
1CC
330
1F
100
AcDbEntity
  8
0
  6
Continuous
 62
     7
370
    18
100
AcDbSpline
210
0.0
220
0.0
230
1.0
 70
     8
 71
     3
 72
    12
 73
     8
 74
     0
 42
0.000000001
 43
0.00000001
 40
0.0
 40
0.0
 40
0.0
 40
0.0
 40
0.2016496499628986
 40
0.3794039236986373
 40
0.5547793395586199
 40
0.7718110801448026
 40
1.0
 40
1.0
 40
1.0
 40
1.0
 10
225.8598679621738
 20
117.5421029421627
 30
0.0
 10
225.853372724855
 20
117.6188417215487
 30
0.0
 10
225.8411519323839
 20
117.7632257757946
 30
0.0
 10
225.7258404462375
 20
117.9467997220038
 30
0.0
 10
225.551754800449
 20
118.0778728907908
 30
0.0
 10
225.3273323748842
 20
118.1582225576712
 30
0.0
 10
225.1591198152463
 20
118.1674851865366
 30
0.0
 10
225.0729058415916
 20
118.1722325611838
 30
0.0
  0
SPLINE
  5
1CD
330
1F
100
AcDbEntity
  8
0
  6
Continuous
 62
     7
370
    18
100
AcDbSpline
210
0.0
220
0.0
230
1.0
 70
     8
 71
     3
 72
    11
 73
     7
 74
     0
 42
0.000000001
 43
0.00000001
 40
0.0
 40
0.0
 40
0.0
 40
0.0
 40
0.2852648350197011
 40
0.5586037747029613
 40
0.7765581993729994
 40
0.9999999999999999
 40
0.9999999999999999
 40
0.9999999999999999
 40
0.9999999999999999
 10
225.5072612484257
 20
116.9809160455254
 30
0.0
 10
225.5675531451664
 20
117.0118983746535
 30
0.0
 10
225.6856163515935
 20
117.0725677733154
 30
0.0
 10
225.7931063349121
 20
117.2267557158623
 30
0.0
 10
225.8504725096564
 20
117.3857687331766
 30
0.0
 10
225.8567102955748
 20
117.4895614270968
 30
0.0
 10
225.8598679621738
 20
117.5421029421627
 30
0.0
  0
LINE
  5
1CE
330
1F
100
AcDbEntity
  8
0
  6
Continuous
 62
     7
370
    18
100
AcDbLine
 10
225.5072612484
 20
116.9746304633
 30
0.0
 11
225.5072612484
 21
116.9809160455
 31
0.0
  0
SPLINE
  5
1CF
330
1F
100
AcDbEntity
  8
0
  6
Continuous
 62
     7
370
    18
100
AcDbSpline
210
0.0
220
0.0
230
1.0
 70
     8
 71
     3
 72
    11
 73
     7
 74
     0
 42
0.000000001
 43
0.00000001
 40
0.0
 40
0.0
 40
0.0
 40
0.0
 40
0.2808304286447844
 40
0.5635450978390013
 40
0.7771991270060388
 40
1.0
 40
1.0
 40
1.0
 40
1.0
 10
225.8347256332352
 20
116.4384775234941
 30
0.0
 10
225.8270057383055
 20
116.5009410055181
 30
0.0
 10
225.8115141515694
 20
116.6262870702533
 30
0.0
 10
225.7502281463541
 20
116.7904760809634
 30
0.0
 10
225.6479119427066
 20
116.9221759369069
 30
0.0
 10
225.554795299175
 20
116.9569030277384
 30
0.0
 10
225.5072612484257
 20
116.9746304633004
 30
0.0
  0
SPLINE
  5
1D0
330
1F
100
AcDbEntity
  8
0
  6
Continuous
 62
     7
370
    18
100
AcDbSpline
210
0.0
220
0.0
230
1.0
 70
     8
 71
     3
 72
    11
 73
     7
 74
     0
 42
0.000000001
 43
0.00000001
 40
0.0
 40
0.0
 40
0.0
 40
0.0
 40
0.3074360073852253
 40
0.6261968550908575
 40
0.8442166228014018
 40
1.0
 40
1.0
 40
1.0
 40
1.0
 10
225.8929083503055
 20
116.0383570911977
 30
0.0
 10
225.8830675877487
 20
116.078703613688
 30
0.0
 10
225.8630235642225
 20
116.1608828799106
 30
0.0
 10
225.8495951033592
 20
116.2742265324525
 30
0.0
 10
225.8408005451985
 20
116.3672563709702
 30
0.0
 10
225.8365126316997
 20
116.4175270815833
 30
0.0
 10
225.8347256332352
 20
116.4384775234941
 30
0.0
  0
LINE
  5
1D1
330
1F
100
AcDbEntity
  8
0
  6
Continuous
 62
     7
370
    18
100
AcDbLine
 10
225.8942219211
 20
118.1722325612
 30
0.0
 11
225.8929083503
 21
116.0383570912
 31
0.0
  0
SPLINE
  5
1D2
330
1F
100
AcDbEntity
  8
0
  6
Continuous
 62
     7
370
    18
100
AcDbSpline
210
0.0
220
0.0
230
1.0
 70
     8
 71
     3
 72
    12
 73
     8
 74
     0
 42
0.000000001
 43
0.00000001
 40
0.0
 40
0.0
 40
0.0
 40
0.0
 40
0.2554031448979543
 40
0.5239992272002586
 40
0.6685053607654261
 40
0.822947353711822
 40
1.0
 40
1.0
 40
1.0
 40
1.0
 10
230.3171766202423
 20
116.4891595457556
 30
0.0
 10
230.3433070220806
 20
116.4913443965953
 30
0.0
 10
230.3969176006629
 20
116.4958269574972
 30
0.0
 10
230.4599223505641
 20
116.5285079022812
 30
0.0
 10
230.4990436668528
 20
116.5719892655299
 30
0.0
 10
230.5200725256968
 20
116.6170433031439
 30
0.0
 10
230.5223885088939
 20
116.6510661319694
 30
0.0
 10
230.5236254850174
 20
116.6692378643741
 30
0.0
  0
LINE
  5
1D3
330
1F
100
AcDbEntity
  8
0
  6
Continuous
 62
     7
370
    18
100
AcDbLine
 10
229.9259894362
 20
116.4891595458
 30
0.0
 11
230.3171766202
 21
116.4891595458
 31
0.0
  0
LINE
  5
1D4
330
1F
100
AcDbEntity
  8
0
  6
Continuous
 62
     7
370
    18
100
AcDbLine
 10
229.9259894362
 20
116.8519893616
 30
0.0
 11
229.9259894362
 21
116.4891595458
 31
0.0
  0
LINE
  5
1D5
330
1F
100
AcDbEntity
  8
0
  6
Continuous
 62
     7
370
    18
100
AcDbLine
 10
230.3171766202
 20
116.8519893616
 30
0.0
 11
229.9259894362
 21
116.8519893616
 31
0.0
  0
SPLINE
  5
1D6
330
1F
100
AcDbEntity
  8
0
  6
Continuous
 62
     7
370
    18
100
AcDbSpline
210
0.0
220
0.0
230
1.0
 70
     8
 71
     3
 72
    12
 73
     8
 74
     0
 42
0.000000001
 43
0.00000001
 40
0.0
 40
0.0
 40
0.0
 40
0.0
 40
0.2191709004622892
 40
0.4020322727962971
 40
0.5732124609680115
 40
0.7805893411712332
 40
1.0
 40
1.0
 40
1.0
 40
1.0
 10
230.5236254850174
 20
116.6692378643741
 30
0.0
 10
230.5220777983706
 20
116.6922192196362
 30
0.0
 10
230.5192388266874
 20
116.73437466303
 30
0.0
 10
230.4900624408932
 20
116.788631582852
 30
0.0
 10
230.4442530358359
 20
116.8266029959386
 30
0.0
 10
230.3845857932138
 20
116.8485366017559
 30
0.0
 10
230.3400647853621
 20
116.8508170087585
 30
0.0
 10
230.3171766202423
 20
116.851989361644
 30
0.0
  0
SPLINE
  5
1D7
330
1F
100
AcDbEntity
  8
0
  6
Continuous
 62
     7
370
    18
100
AcDbSpline
210
0.0
220
0.0
230
1.0
 70
     8
 71
     3
 72
    12
 73
     8
 74
     0
 42
0.000000001
 43
0.00000001
 40
0.0
 40
0.0
 40
0.0
 40
0.0
 40
0.2631780919768604
 40
0.5362228315034394
 40
0.6796343489711612
 40
0.8298665817545476
 40
1.0
 40
1.0
 40
1.0
 40
1.0
 10
230.2561269996876
 20
117.2905351566344
 30
0.0
 10
230.2779498275238
 20
117.292227735884
 30
0.0
 10
230.3224136293768
 20
117.2956763498281
 30
0.0
 10
230.3750672061996
 20
117.3207753253879
 30
0.0
 10
230.4081111450961
 20
117.3547140075725
 30
0.0
 10
230.4258882718412
 20
117.3898555965937
 30
0.0
 10
230.4278607556156
 20
117.4165422568926
 30
0.0
 10
230.4289082630681
 20
117.4307144776773
 30
0.0
  0
LINE
  5
1D8
330
1F
100
AcDbEntity
  8
0
  6
Continuous
 62
     7
370
    18
100
AcDbLine
 10
229.9286987389
 20
117.2905351566
 30
0.0
 11
230.2561269997
 21
117.2905351566
 31
0.0
  0
LINE
  5
1D9
330
1F
100
AcDbEntity
  8
0
  6
Continuous
 62
     7
370
    18
100
AcDbLine
 10
229.9286987389
 20
117.5729528688
 30
0.0
 11
229.9286987389
 21
117.2905351566
 31
0.0
  0
LINE
  5
1DA
330
1F
100
AcDbEntity
  8
0
  6
Continuous
 62
     7
370
    18
100
AcDbLine
 10
230.2561269997
 20
117.5729528688
 30
0.0
 11
229.9286987389
 21
117.5729528688
 31
0.0
  0
SPLINE
  5
1DB
330
1F
100
AcDbEntity
  8
0
  6
Continuous
 62
     7
370
    18
100
AcDbSpline
210
0.0
220
0.0
230
1.0
 70
     8
 71
     3
 72
    12
 73
     8
 74
     0
 42
0.000000001
 43
0.00000001
 40
0.0
 40
0.0
 40
0.0
 40
0.0
 40
0.2108655154368313
 40
0.3895958229608272
 40
0.5613353297982684
 40
0.7736399301224668
 40
1.0
 40
1.0
 40
1.0
 40
1.0
 10
230.4289082630681
 20
117.4307144776773
 30
0.0
 10
230.4275919328582
 20
117.448655398443
 30
0.0
 10
230.4251598768135
 20
117.4818031029213
 30
0.0
 10
230.4003846862336
 20
117.5241196322092
 30
0.0
 10
230.3619974913849
 20
117.5534156840375
 30
0.0
 10
230.312323040795
 20
117.5702797907744
 30
0.0
 10
230.2752549193352
 20
117.5720430107021
 30
0.0
 10
230.2561269996876
 20
117.5729528687626
 30
0.0
  0
LINE
  5
1DC
330
1F
100
AcDbEntity
  8
0
  6
Continuous
 62
     7
370
    18
100
AcDbLine
 10
228.2050403692
 20
116.8282919941
 30
0.0
 11
228.5158154495
 21
116.8282919941
 31
0.0
  0
LINE
  5
1DD
330
1F
100
AcDbEntity
  8
0
  6
Continuous
 62
     7
370
    18
100
AcDbLine
 10
228.363046902
 20
117.31607485
 30
0.0
 11
228.2050403692
 21
116.8282919941
 31
0.0
  0
LINE
  5
1DE
330
1F
100
AcDbEntity
  8
0
  6
Continuous
 62
     7
370
    18
100
AcDbLine
 10
228.5158154495
 20
116.8282919941
 30
0.0
 11
228.363046902
 21
117.31607485
 31
0.0
  0
SPLINE
  5
1DF
330
1F
100
AcDbEntity
  8
0
  6
Continuous
 62
     7
370
    18
100
AcDbSpline
210
0.0
220
0.0
230
1.0
 70
     8
 71
     3
 72
    12
 73
     8
 74
     0
 42
0.000000001
 43
0.00000001
 40
0.0
 40
0.0
 40
0.0
 40
0.0
 40
0.1865231150417746
 40
0.3728360622105961
 40
0.5595600961534272
 40
0.7797193681663684
 40
1.0
 40
1.0
 40
1.0
 40
1.0
 10
234.7606957056707
 20
112.6744291787324
 30
0.0
 10
234.7984654329993
 20
112.6606876870367
 30
0.0
 10
234.8739623300182
 20
112.6332201870885
 30
0.0
 10
234.963622187466
 20
112.5489271524587
 30
0.0
 10
235.0249144552447
 20
112.4369747831849
 30
0.0
 10
235.0658991500681
 20
112.3077704940774
 30
0.0
 10
235.0700633606836
 20
112.2133892299171
 30
0.0
 10
235.0721460396994
 20
112.166185594822
 30
0.0
  0
SPLINE
  5
1E0
330
1F
100
AcDbEntity
  8
0
  6
Continuous
 62
     7
370
    18
100
AcDbSpline
210
0.0
220
0.0
230
1.0
 70
     8
 71
     3
 72
    11
 73
     7
 74
     0
 42
0.000000001
 43
0.00000001
 40
0.0
 40
0.0
 40
0.0
 40
0.0
 40
0.2800132600904284
 40
0.5598106436052167
 40
0.7799087780995495
 40
1.0
 40
1.0
 40
1.0
 40
1.0
 10
234.9920945482222
 20
113.0934487044338
 30
0.0
 10
234.9890993679586
 20
113.0464311418071
 30
0.0
 10
234.9831113165694
 20
112.9524322648029
 30
0.0
 10
234.9291683409767
 20
112.830976585203
 30
0.0
 10
234.8535517215977
 20
112.7352791988956
 30
0.0
 10
234.7916473869377
 20
112.694712306437
 30
0.0
 10
234.7606957056707
 20
112.6744291787324
 30
0.0
  0
SPLINE
  5
1E1
330
1F
100
AcDbEntity
  8
0
  6
Continuous
 62
     7
370
    18
100
AcDbSpline
210
0.0
220
0.0
230
1.0
 70
     8
 71
     3
 72
    12
 73
     8
 74
     0
 42
0.000000001
 43
0.00000001
 40
0.0
 40
0.0
 40
0.0
 40
0.0
 40
0.1866910422901333
 40
0.3733006376310441
 40
0.5601167284607035
 40
0.7798728846449151
 40
0.9999999999999999
 40
0.9999999999999999
 40
0.9999999999999999
 40
0.9999999999999999
 10
234.5076162508441
 20
113.6283761188366
 30
0.0
 10
234.5578671443256
 20
113.624318533999
 30
0.0
 10
234.6583470085336
 20
113.61620513451
 30
0.0
 10
234.7922771070673
 20
113.5399801648818
 30
0.0
 10
234.9028629020664
 20
113.4247845897175
 30
0.0
 10
234.9801516202001
 20
113.2708270280672
 30
0.0
 10
234.9881113347053
 20
113.1526080441703
 30
0.0
 10
234.9920945482222
 20
113.0934487044338
 30
0.0
  0
SPLINE
  5
1E2
330
1F
100
AcDbEntity
  8
0
  6
Continuous
 62
     7
370
    18
100
AcDbSpline
210
0.0
220
0.0
230
1.0
 70
     8
 71
     3
 72
    12
 73
     8
 74
     0
 42
0.000000001
 43
0.00000001
 40
0.0
 40
0.0
 40
0.0
 40
0.0
 40
0.187169846667048
 40
0.3741196032349052
 40
0.5607338791480629
 40
0.7803086933306895
 40
1.0
 40
1.0
 40
1.0
 40
1.0
 10
234.0047928200025
 20
113.1213833394805
 30
0.0
 10
234.0139939316758
 20
113.169478623575
 30
0.0
 10
234.0323853355789
 20
113.2656126372705
 30
0.0
 10
234.0918547428297
 20
113.4014315150045
 30
0.0
 10
234.1906241234065
 20
113.5227875059255
 30
0.0
 10
234.3342438841778
 20
113.6127978161227
 30
0.0
 10
234.4498152455249
 20
113.6231824332721
 30
0.0
 10
234.5076162508441
 20
113.6283761188366
 30
0.0
  0
LINE
  5
1E3
330
1F
100
AcDbEntity
  8
0
  6
Continuous
 62
     7
370
    18
100
AcDbLine
 10
234.2182634639
 20
113.094699509
 30
0.0
 11
234.00479282
 21
113.1213833395
 31
0.0
  0
SPLINE
  5
1E4
330
1F
100
AcDbEntity
  8
0
  6
Continuous
 62
     7
370
    18
100
AcDbSpline
210
0.0
220
0.0
230
1.0
 70
     8
 71
     3
 72
    11
 73
     7
 74
     0
 42
0.000000001
 43
0.00000001
 40
0.0
 40
0.0
 40
0.0
 40
0.0
 40
0.279254027911699
 40
0.5583061232959202
 40
0.778926662986824
 40
1.0
 40
1.0
 40
1.0
 40
1.0
 10
234.5134533387643
 20
113.4149054748972
 30
0.0
 10
234.4682545016512
 20
113.4091002799198
 30
0.0
 10
234.3778895113417
 20
113.3974940877835
 30
0.0
 10
234.2838139591665
 20
113.3048075284118
 30
0.0
 10
234.2360725706625
 20
113.1992378851941
 30
0.0
 10
234.2242038885291
 20
113.1295694409876
 30
0.0
 10
234.2182634639419
 20
113.0946995089881
 30
0.0
  0
SPLINE
  5
1E5
330
1F
100
AcDbEntity
  8
0
  6
Continuous
 62
     7
370
    18
100
AcDbSpline
210
0.0
220
0.0
230
1.0
 70
     8
 71
     3
 72
    11
 73
     7
 74
     0
 42
0.000000001
 43
0.00000001
 40
0.0
 40
0.0
 40
0.0
 40
0.0
 40
0.2804610461207254
 40
0.5598855532525694
 40
0.7799956456243077
 40
1.0
 40
1.0
 40
1.0
 40
1.0
 10
234.7786239042828
 20
113.1055398151257
 30
0.0
 10
234.7757054146142
 20
113.1483564636154
 30
0.0
 10
234.7698792215461
 20
113.2338315171379
 30
0.0
 10
234.7045215491663
 20
113.3369999927792
 30
0.0
 10
234.6142526008101
 20
113.4042788317199
 30
0.0
 10
234.5470477107625
 20
113.4113638278976
 30
0.0
 10
234.5134533387643
 20
113.4149054748972
 30
0.0
  0
SPLINE
  5
1E6
330
1F
100
AcDbEntity
  8
0
  6
Continuous
 62
     7
370
    18
100
AcDbSpline
210
0.0
220
0.0
230
1.0
 70
     8
 71
     3
 72
    11
 73
     7
 74
     0
 42
0.000000001
 43
0.00000001
 40
0.0
 40
0.0
 40
0.0
 40
0.0
 40
0.2801509016047495
 40
0.5592967162890136
 40
0.7793443915616024
 40
1.0
 40
1.0
 40
1.0
 40
1.0
 10
234.4371542609501
 20
112.7715749991189
 30
0.0
 10
234.4876422117665
 20
112.7759917374862
 30
0.0
 10
234.5884369796649
 20
112.7848093684535
 30
0.0
 10
234.7058672621534
 20
112.8716062476858
 30
0.0
 10
234.770516913137
 20
112.9867420749939
 30
0.0
 10
234.7759190898694
 20
113.0659041680647
 30
0.0
 10
234.7786239042828
 20
113.1055398151257
 30
0.0
  0
LINE
  5
1E7
330
1F
100
AcDbEntity
  8
0
  6
Continuous
 62
     7
370
    18
100
AcDbLine
 10
234.4050502774
 20
112.7744935431
 30
0.0
 11
234.437154261
 21
112.7715749991
 31
0.0
  0
LINE
  5
1E8
330
1F
100
AcDbEntity
  8
0
  6
Continuous
 62
     7
370
    18
100
AcDbLine
 10
234.3783664469
 20
112.5326713292
 30
0.0
 11
234.4050502774
 21
112.7744935431
 31
0.0
  0
SPLINE
  5
1E9
330
1F
100
AcDbEntity
  8
0
  6
Continuous
 62
     7
370
    18
100
AcDbSpline
210
0.0
220
0.0
230
1.0
 70
     8
 71
     3
 72
     9
 73
     5
 74
     0
 42
0.000000001
 43
0.00000001
 40
0.0
 40
0.0
 40
0.0
 40
0.0
 40
0.5596944510965765
 40
1.0
 40
1.0
 40
1.0
 40
1.0
 10
234.5255444494562
 20
112.5610228991396
 30
0.0
 10
234.4975106837237
 20
112.5585882581341
 30
0.0
 10
234.4474230588107
 20
112.554238311479
 30
0.0
 10
234.3994772517791
 20
112.5392644177424
 30
0.0
 10
234.3783664468964
 20
112.5326713292414
 30
0.0
  0
SPLINE
  5
1EA
330
1F
100
AcDbEntity
  8
0
  6
Continuous
 62
     7
370
    18
100
AcDbSpline
210
0.0
220
0.0
230
1.0
 70
     8
 71
     3
 72
    11
 73
     7
 74
     0
 42
0.000000001
 43
0.00000001
 40
0.0
 40
0.0
 40
0.0
 40
0.0
 40
0.2805844227151191
 40
0.5600679222272762
 40
0.7800546121183446
 40
1.0
 40
1.0
 40
1.0
 40
1.0
 10
234.8586753957601
 20
112.1636839857134
 30
0.0
 10
234.8549435289056
 20
112.2181160878868
 30
0.0
 10
234.8474944378441
 20
112.3267667181384
 30
0.0
 10
234.7676065149683
 20
112.4596604774845
 30
0.0
 10
234.6538923830916
 20
112.5474186102833
 30
0.0
 10
234.5683244162175
 20
112.5564884200202
 30
0.0
 10
234.5255444494562
 20
112.5610228991396
 30
0.0
  0
SPLINE
  5
1EB
330
1F
100
AcDbEntity
  8
0
  6
Continuous
 62
     7
370
    18
100
AcDbSpline
210
0.0
220
0.0
230
1.0
 70
     8
 71
     3
 72
    11
 73
     7
 74
     0
 42
0.000000001
 43
0.00000001
 40
0.0
 40
0.0
 40
0.0
 40
0.0
 40
0.2781149708072819
 40
0.5581047320844262
 40
0.7788600072296495
 40
1.0
 40
1.0
 40
1.0
 40
1.0
 10
234.5138702736158
 20
111.7338241538745
 30
0.0
 10
234.5709098700433
 20
111.7440347247622
 30
0.0
 10
234.685373570397
 20
111.7645246966367
 30
0.0
 10
234.7956096324085
 20
111.8912666586357
 30
0.0
 10
234.8511638391494
 20
112.0284189874732
 30
0.0
 10
234.8561700907287
 20
112.1185694910454
 30
0.0
 10
234.8586753957601
 20
112.1636839857134
 30
0.0
  0
SPLINE
  5
1EC
330
1F
100
AcDbEntity
  8
0
  6
Continuous
 62
     7
370
    18
100
AcDbSpline
210
0.0
220
0.0
230
1.0
 70
     8
 71
     3
 72
    11
 73
     7
 74
     0
 42
0.000000001
 43
0.00000001
 40
0.0
 40
0.0
 40
0.0
 40
0.0
 40
0.2811553676135595
 40
0.561336087820626
 40
0.7806898919970867
 40
1.0
 40
1.0
 40
1.0
 40
1.0
 10
234.1915796334494
 20
112.1340816112608
 30
0.0
 10
234.2017259334748
 20
112.0822826310959
 30
0.0
 10
234.2219833605707
 20
111.9788642360436
 30
0.0
 10
234.2842479337959
 20
111.8444211017743
 30
0.0
 10
234.3885365130641
 20
111.7480648448115
 30
0.0
 10
234.4720951279111
 20
111.7385707356112
 30
0.0
 10
234.5138702736158
 20
111.7338241538745
 30
0.0
  0
LINE
  5
1ED
330
1F
100
AcDbEntity
  8
0
  6
Continuous
 62
     7
370
    18
100
AcDbLine
 10
233.9781089895
 20
112.1073977808
 30
0.0
 11
234.1915796334
 21
112.1340816113
 31
0.0
  0
SPLINE
  5
1EE
330
1F
100
AcDbEntity
  8
0
  6
Continuous
 62
     7
370
    18
100
AcDbSpline
210
0.0
220
0.0
230
1.0
 70
     8
 71
     3
 72
    12
 73
     8
 74
     0
 42
0.000000001
 43
0.00000001
 40
0.0
 40
0.0
 40
0.0
 40
0.0
 40
0.1865439410818893
 40
0.3730108051258521
 40
0.5597434921546776
 40
0.7796658666461632
 40
1.0
 40
1.0
 40
1.0
 40
1.0
 10
234.5105347948042
 20
111.5203535099351
 30
0.0
 10
234.4558133237386
 20
111.5250210879846
 30
0.0
 10
234.3463929916631
 20
111.5343543155135
 30
0.0
 10
234.2010166935398
 20
111.618638911351
 30
0.0
 10
234.0831267437846
 20
111.7472407415687
 30
0.0
 10
234.0030045954389
 20
111.9157270127961
 30
0.0
 10
233.9864126974565
 20
112.0434677007512
 30
0.0
 10
233.97810898951
 20
112.1073977807684
 30
0.0
  0
SPLINE
  5
1EF
330
1F
100
AcDbEntity
  8
0
  6
Continuous
 62
     7
370
    18
100
AcDbSpline
210
0.0
220
0.0
230
1.0
 70
     8
 71
     3
 72
    13
 73
     9
 74
     0
 42
0.000000001
 43
0.00000001
 40
0.0
 40
0.0
 40
0.0
 40
0.0
 40
0.1868283531794255
 40
0.3734106505270855
 40
0.5599403516428519
 40
0.7066981356281438
 40
0.8533139029427919
 40
1.0
 40
1.0
 40
1.0
 40
1.0
 10
235.0721460396994
 20
112.166185594822
 30
0.0
 10
235.0689797429015
 20
112.1067541432787
 30
0.0
 10
235.0626513193676
 20
111.9879695123332
 30
0.0
 10
235.0008194322714
 20
111.8180526000308
 30
0.0
 10
234.9001256150362
 20
111.6845292698907
 30
0.0
 10
234.780759160696
 20
111.5882826887961
 30
0.0
 10
234.6507053276122
 20
111.530121320069
 30
0.0
 10
234.5572657742457
 20
111.5236099670906
 30
0.0
 10
234.5105347948042
 20
111.5203535099351
 30
0.0
  0
SPLINE
  5
1F0
330
1F
100
AcDbEntity
  8
0
  6
Continuous
 62
     7
370
    18
100
AcDbSpline
210
0.0
220
0.0
230
1.0
 70
     8
 71
     3
 72
    10
 73
     6
 74
     0
 42
0.000000001
 43
0.00000001
 40
0.0
 40
0.0
 40
0.0
 40
0.0
 40
0.2795751783825468
 40
0.5597049368157199
 40
1.0
 40
1.0
 40
1.0
 40
1.0
 10
233.5970305352901
 20
113.4115699960856
 30
0.0
 10
233.6329090761956
 20
113.3390668486186
 30
0.0
 10
233.7047373285702
 20
113.1939167326221
 30
0.0
 10
233.7543354518741
 20
112.9073950726362
 30
0.0
 10
233.7607301561009
 20
112.7001753911484
 30
0.0
 10
233.7646383455707
 20
112.5735309446829
 30
0.0
  0
SPLINE
  5
1F1
330
1F
100
AcDbEntity
  8
0
  6
Continuous
 62
     7
370
    18
100
AcDbSpline
210
0.0
220
0.0
230
1.0
 70
     8
 71
     3
 72
    11
 73
     7
 74
     0
 42
0.000000001
 43
0.00000001
 40
0.0
 40
0.0
 40
0.0
 40
0.0
 40
0.2798903849624079
 40
0.559496442064465
 40
0.779671896517395
 40
0.9999999999999999
 40
0.9999999999999999
 40
0.9999999999999999
 40
0.9999999999999999
 10
233.2188706250303
 20
113.6283761188366
 30
0.0
 10
233.2616275667508
 20
113.6255236005647
 30
0.0
 10
233.3470980153673
 20
113.6198214617639
 30
0.0
 10
233.4558682704702
 20
113.5661963798345
 30
0.0
 10
233.5393885959829
 20
113.4941570117496
 30
0.0
 10
233.5778121171814
 20
113.4391053603787
 30
0.0
 10
233.5970305352901
 20
113.4115699960856
 30
0.0
  0
SPLINE
  5
1F2
330
1F
100
AcDbEntity
  8
0
  6
Continuous
 62
     7
370
    18
100
AcDbSpline
210
0.0
220
0.0
230
1.0
 70
     8
 71
     3
 72
    13
 73
     9
 74
     0
 42
0.000000001
 43
0.00000001
 40
0.0
 40
0.0
 40
0.0
 40
0.0
 40
0.2504890583456492
 40
0.500673827442561
 40
0.6258446378555197
 40
0.7507584155659041
 40
0.8753007099299315
 40
1.0
 40
1.0
 40
1.0
 40
1.0
 10
232.6706012953813
 20
112.5735309446829
 30
0.0
 10
232.6733199099964
 20
112.6837711420407
 30
0.0
 10
232.6787538367063
 20
112.904117619103
 30
0.0
 10
232.7288072087479
 20
113.1775450546504
 30
0.0
 10
232.8137427341251
 20
113.3820025889355
 30
0.0
 10
232.9107308098141
 20
113.5175152100146
 30
0.0
 10
233.0526864728977
 20
113.613614492103
 30
0.0
 10
233.1634526506799
 20
113.6234535107468
 30
0.0
 10
233.2188706250303
 20
113.6283761188366
 30
0.0
  0
SPLINE
  5
1F3
330
1F
100
AcDbEntity
  8
0
  6
Continuous
 62
     7
370
    18
100
AcDbSpline
210
0.0
220
0.0
230
1.0
 70
     8
 71
     3
 72
    13
 73
     9
 74
     0
 42
0.000000001
 43
0.00000001
 40
0.0
 40
0.0
 40
0.0
 40
0.0
 40
0.1245870753534838
 40
0.24922271483854
 40
0.3742192396120919
 40
0.4992998133209627
 40
0.7494812006579983
 40
1.0
 40
1.0
 40
1.0
 40
1.0
 10
233.2163690159216
 20
111.5203535099351
 30
0.0
 10
233.1611053726328
 20
111.5259902062122
 30
0.0
 10
233.0505565442473
 20
111.5372657959546
 30
0.0
 10
232.9117675880246
 20
111.6358988087909
 30
0.0
 10
232.8087284793415
 20
111.7659031453509
 30
0.0
 10
232.7227045941731
 20
111.9702490964044
 30
0.0
 10
232.6775337075539
 20
112.2437512755902
 30
0.0
 10
232.6729131373426
 20
112.4635550145136
 30
0.0
 10
232.6706012953813
 20
112.5735309446829
 30
0.0
  0
SPLINE
  5
1F4
330
1F
100
AcDbEntity
  8
0
  6
Continuous
 62
     7
370
    18
100
AcDbSpline
210
0.0
220
0.0
230
1.0
 70
     8
 71
     3
 72
    13
 73
     9
 74
     0
 42
0.000000001
 43
0.00000001
 40
0.0
 40
0.0
 40
0.0
 40
0.0
 40
0.2504702058475058
 40
0.500649499415922
 40
0.6258027062132793
 40
0.750741095826351
 40
0.8752785399750074
 40
1.0
 40
1.0
 40
1.0
 40
1.0
 10
233.7646383455707
 20
112.5735309446829
 30
0.0
 10
233.7619248503156
 20
112.4633984891314
 30
0.0
 10
233.756501011434
 20
112.2432614929775
 30
0.0
 10
233.70573115371
 20
111.9703308927415
 30
0.0
 10
233.6213794062744
 20
111.7659067802902
 30
0.0
 10
233.5244966463179
 20
111.6304519515578
 30
0.0
 10
233.382420029449
 20
111.534773686756
 30
0.0
 10
233.2717465887259
 20
111.5251626006765
 30
0.0
 10
233.2163690159216
 20
111.5203535099351
 30
0.0
  0
LINE
  5
1F5
330
1F
100
AcDbEntity
  8
0
  6
Continuous
 62
     7
370
    18
100
AcDbLine
 10
231.3897774317
 20
111.7871918149
 30
0.0
 11
232.4304468209
 21
111.7871918149
 31
0.0
  0
LINE
  5
1F6
330
1F
100
AcDbEntity
  8
0
  6
Continuous
 62
     7
370
    18
100
AcDbLine
 10
231.3897774317
 20
112.4809714077
 30
0.0
 11
231.3897774317
 21
111.7871918149
 31
0.0
  0
LINE
  5
1F7
330
1F
100
AcDbEntity
  8
0
  6
Continuous
 62
     7
370
    18
100
AcDbLine
 10
232.3503953295
 20
112.4809714077
 30
0.0
 11
231.3897774317
 21
112.4809714077
 31
0.0
  0
LINE
  5
1F8
330
1F
100
AcDbEntity
  8
0
  6
Continuous
 62
     7
370
    18
100
AcDbLine
 10
232.3503953295
 20
112.7211258821
 30
0.0
 11
232.3503953295
 21
112.4809714077
 31
0.0
  0
LINE
  5
1F9
330
1F
100
AcDbEntity
  8
0
  6
Continuous
 62
     7
370
    18
100
AcDbLine
 10
231.3897774317
 20
112.7211258821
 30
0.0
 11
232.3503953295
 21
112.7211258821
 31
0.0
  0
LINE
  5
1FA
330
1F
100
AcDbEntity
  8
0
  6
Continuous
 62
     7
370
    18
100
AcDbLine
 10
231.3897774317
 20
113.3615378139
 30
0.0
 11
231.3897774317
 21
112.7211258821
 31
0.0
  0
LINE
  5
1FB
330
1F
100
AcDbEntity
  8
0
  6
Continuous
 62
     7
370
    18
100
AcDbLine
 10
232.4037629905
 20
113.3615378139
 30
0.0
 11
231.3897774317
 21
113.3615378139
 31
0.0
  0
LINE
  5
1FC
330
1F
100
AcDbEntity
  8
0
  6
Continuous
 62
     7
370
    18
100
AcDbLine
 10
232.4037629905
 20
113.6016922883
 30
0.0
 11
232.4037629905
 21
113.3615378139
 31
0.0
  0
LINE
  5
1FD
330
1F
100
AcDbEntity
  8
0
  6
Continuous
 62
     7
370
    18
100
AcDbLine
 10
231.1763067878
 20
113.6016922883
 30
0.0
 11
232.4037629905
 21
113.6016922883
 31
0.0
  0
LINE
  5
1FE
330
1F
100
AcDbEntity
  8
0
  6
Continuous
 62
     7
370
    18
100
AcDbLine
 10
231.1763067878
 20
111.5470373404
 30
0.0
 11
231.1763067878
 21
113.6016922883
 31
0.0
  0
LINE
  5
1FF
330
1F
100
AcDbEntity
  8
0
  6
Continuous
 62
     7
370
    18
100
AcDbLine
 10
232.4304468209
 20
111.5470373404
 30
0.0
 11
231.1763067878
 21
111.5470373404
 31
0.0
  0
LINE
  5
200
330
1F
100
AcDbEntity
  8
0
  6
Continuous
 62
     7
370
    18
100
AcDbLine
 10
232.4304468209
 20
111.7871918149
 30
0.0
 11
232.4304468209
 21
111.5470373404
 31
0.0
  0
LINE
  5
201
330
1F
100
AcDbEntity
  8
0
  6
Continuous
 62
     7
370
    18
100
AcDbLine
 10
230.2957403816
 20
112.4009199162
 30
0.0
 11
230.9361523134
 21
112.4009199162
 31
0.0
  0
LINE
  5
202
330
1F
100
AcDbEntity
  8
0
  6
Continuous
 62
     7
370
    18
100
AcDbLine
 10
230.2957403816
 20
112.1607654418
 30
0.0
 11
230.2957403816
 21
112.4009199162
 31
0.0
  0
LINE
  5
203
330
1F
100
AcDbEntity
  8
0
  6
Continuous
 62
     7
370
    18
100
AcDbLine
 10
230.9361523134
 20
112.1607654418
 30
0.0
 11
230.2957403816
 21
112.1607654418
 31
0.0
  0
LINE
  5
204
330
1F
100
AcDbEntity
  8
0
  6
Continuous
 62
     7
370
    18
100
AcDbLine
 10
230.9361523134
 20
112.4009199162
 30
0.0
 11
230.9361523134
 21
112.1607654418
 31
0.0
  0
SPLINE
  5
205
330
1F
100
AcDbEntity
  8
0
  6
Continuous
 62
     7
370
    18
100
AcDbSpline
210
0.0
220
0.0
230
1.0
 70
     8
 71
     3
 72
    10
 73
     6
 74
     0
 42
0.000000001
 43
0.00000001
 40
0.0
 40
0.0
 40
0.0
 40
0.0
 40
0.279575178382544
 40
0.5597049368157183
 40
0.9999999999999999
 40
0.9999999999999999
 40
0.9999999999999999
 40
0.9999999999999999
 10
229.941345757828
 20
113.4115699960856
 30
0.0
 10
229.9772242987335
 20
113.3390668486186
 30
0.0
 10
230.0490525511081
 20
113.1939167326221
 30
0.0
 10
230.0986506744119
 20
112.9073950726362
 30
0.0
 10
230.1050453786388
 20
112.7001753911484
 30
0.0
 10
230.1089535681085
 20
112.5735309446829
 30
0.0
  0
SPLINE
  5
206
330
1F
100
AcDbEntity
  8
0
  6
Continuous
 62
     7
370
    18
100
AcDbSpline
210
0.0
220
0.0
230
1.0
 70
     8
 71
     3
 72
    11
 73
     7
 74
     0
 42
0.000000001
 43
0.00000001
 40
0.0
 40
0.0
 40
0.0
 40
0.0
 40
0.2798903849624063
 40
0.5594964420644619
 40
0.7796718965173878
 40
0.9999999999999999
 40
0.9999999999999999
 40
0.9999999999999999
 40
0.9999999999999999
 10
229.5631858475682
 20
113.6283761188366
 30
0.0
 10
229.6059427892887
 20
113.6255236005647
 30
0.0
 10
229.6914132379052
 20
113.6198214617639
 30
0.0
 10
229.8001834930081
 20
113.5661963798345
 30
0.0
 10
229.8837038185208
 20
113.4941570117496
 30
0.0
 10
229.9221273397193
 20
113.4391053603787
 30
0.0
 10
229.941345757828
 20
113.4115699960856
 30
0.0
  0
SPLINE
  5
207
330
1F
100
AcDbEntity
  8
0
  6
Continuous
 62
     7
370
    18
100
AcDbSpline
210
0.0
220
0.0
230
1.0
 70
     8
 71
     3
 72
    13
 73
     9
 74
     0
 42
0.000000001
 43
0.00000001
 40
0.0
 40
0.0
 40
0.0
 40
0.0
 40
0.2504890583456495
 40
0.5006738274425613
 40
0.6258446378555216
 40
0.7507584155659033
 40
0.8753007099299301
 40
1.0
 40
1.0
 40
1.0
 40
1.0
 10
229.0149165179192
 20
112.5735309446829
 30
0.0
 10
229.0176351325343
 20
112.6837711420407
 30
0.0
 10
229.0230690592442
 20
112.904117619103
 30
0.0
 10
229.0731224312858
 20
113.1775450546504
 30
0.0
 10
229.158057956663
 20
113.3820025889355
 30
0.0
 10
229.255046032352
 20
113.5175152100146
 30
0.0
 10
229.3970016954356
 20
113.613614492103
 30
0.0
 10
229.5077678732178
 20
113.6234535107468
 30
0.0
 10
229.5631858475682
 20
113.6283761188366
 30
0.0
  0
SPLINE
  5
208
330
1F
100
AcDbEntity
  8
0
  6
Continuous
 62
     7
370
    18
100
AcDbSpline
210
0.0
220
0.0
230
1.0
 70
     8
 71
     3
 72
    13
 73
     9
 74
     0
 42
0.000000001
 43
0.00000001
 40
0.0
 40
0.0
 40
0.0
 40
0.0
 40
0.1245870753534851
 40
0.2492227148385402
 40
0.374219239612092
 40
0.4992998133209628
 40
0.7494812006579985
 40
1.0
 40
1.0
 40
1.0
 40
1.0
 10
229.5606842384595
 20
111.5203535099351
 30
0.0
 10
229.5054205951707
 20
111.5259902062122
 30
0.0
 10
229.3948717667852
 20
111.5372657959546
 30
0.0
 10
229.2560828105624
 20
111.6358988087909
 30
0.0
 10
229.1530437018794
 20
111.7659031453509
 30
0.0
 10
229.067019816711
 20
111.9702490964044
 30
0.0
 10
229.0218489300917
 20
112.2437512755902
 30
0.0
 10
229.0172283598805
 20
112.4635550145136
 30
0.0
 10
229.0149165179192
 20
112.5735309446829
 30
0.0
  0
SPLINE
  5
209
330
1F
100
AcDbEntity
  8
0
  6
Continuous
 62
     7
370
    18
100
AcDbSpline
210
0.0
220
0.0
230
1.0
 70
     8
 71
     3
 72
    13
 73
     9
 74
     0
 42
0.000000001
 43
0.00000001
 40
0.0
 40
0.0
 40
0.0
 40
0.0
 40
0.2504702058475057
 40
0.5006494994159217
 40
0.6258027062132785
 40
0.75074109582635
 40
0.8752785399750075
 40
1.0
 40
1.0
 40
1.0
 40
1.0
 10
230.1089535681085
 20
112.5735309446829
 30
0.0
 10
230.1062400728534
 20
112.4633984891314
 30
0.0
 10
230.1008162339719
 20
112.2432614929774
 30
0.0
 10
230.0500463762478
 20
111.9703308927415
 30
0.0
 10
229.9656946288122
 20
111.7659067802902
 30
0.0
 10
229.8688118688558
 20
111.6304519515578
 30
0.0
 10
229.7267352519869
 20
111.534773686756
 30
0.0
 10
229.6160618112638
 20
111.5251626006765
 30
0.0
 10
229.5606842384595
 20
111.5203535099351
 30
0.0
  0
SPLINE
  5
20A
330
1F
100
AcDbEntity
  8
0
  6
Continuous
 62
     7
370
    18
100
AcDbSpline
210
0.0
220
0.0
230
1.0
 70
     8
 71
     3
 72
    10
 73
     6
 74
     0
 42
0.000000001
 43
0.00000001
 40
0.0
 40
0.0
 40
0.0
 40
0.0
 40
0.2795751783825443
 40
0.559704936815718
 40
1.0
 40
1.0
 40
1.0
 40
1.0
 10
228.6338380636992
 20
113.4115699960856
 30
0.0
 10
228.6697166046047
 20
113.3390668486186
 30
0.0
 10
228.7415448569793
 20
113.1939167326221
 30
0.0
 10
228.7911429802831
 20
112.9073950726362
 30
0.0
 10
228.79753768451
 20
112.7001753911484
 30
0.0
 10
228.8014458739797
 20
112.5735309446829
 30
0.0
  0
SPLINE
  5
20B
330
1F
100
AcDbEntity
  8
0
  6
Continuous
 62
     7
370
    18
100
AcDbSpline
210
0.0
220
0.0
230
1.0
 70
     8
 71
     3
 72
    11
 73
     7
 74
     0
 42
0.000000001
 43
0.00000001
 40
0.0
 40
0.0
 40
0.0
 40
0.0
 40
0.2798903849624061
 40
0.5594964420644615
 40
0.7796718965173821
 40
1.0
 40
1.0
 40
1.0
 40
1.0
 10
228.2556781534394
 20
113.6283761188366
 30
0.0
 10
228.2984350951599
 20
113.6255236005647
 30
0.0
 10
228.3839055437764
 20
113.6198214617639
 30
0.0
 10
228.4926757988793
 20
113.5661963798345
 30
0.0
 10
228.576196124392
 20
113.4941570117496
 30
0.0
 10
228.6146196455905
 20
113.4391053603787
 30
0.0
 10
228.6338380636992
 20
113.4115699960856
 30
0.0
  0
SPLINE
  5
20C
330
1F
100
AcDbEntity
  8
0
  6
Continuous
 62
     7
370
    18
100
AcDbSpline
210
0.0
220
0.0
230
1.0
 70
     8
 71
     3
 72
    13
 73
     9
 74
     0
 42
0.000000001
 43
0.00000001
 40
0.0
 40
0.0
 40
0.0
 40
0.0
 40
0.2504890583456468
 40
0.5006738274425614
 40
0.6258446378555218
 40
0.7507584155659035
 40
0.8753007099299315
 40
1.0
 40
1.0
 40
1.0
 40
1.0
 10
227.7074088237904
 20
112.5735309446829
 30
0.0
 10
227.7101274384055
 20
112.6837711420407
 30
0.0
 10
227.7155613651154
 20
112.904117619103
 30
0.0
 10
227.765614737157
 20
113.1775450546504
 30
0.0
 10
227.8505502625342
 20
113.3820025889355
 30
0.0
 10
227.9475383382232
 20
113.5175152100146
 30
0.0
 10
228.0894940013068
 20
113.613614492103
 30
0.0
 10
228.200260179089
 20
113.6234535107468
 30
0.0
 10
228.2556781534394
 20
113.6283761188366
 30
0.0
  0
SPLINE
  5
20D
330
1F
100
AcDbEntity
  8
0
  6
Continuous
 62
     7
370
    18
100
AcDbSpline
210
0.0
220
0.0
230
1.0
 70
     8
 71
     3
 72
    13
 73
     9
 74
     0
 42
0.000000001
 43
0.00000001
 40
0.0
 40
0.0
 40
0.0
 40
0.0
 40
0.1245870753534851
 40
0.2492227148385402
 40
0.3742192396120912
 40
0.4992998133209626
 40
0.7494812006579984
 40
1.0
 40
1.0
 40
1.0
 40
1.0
 10
228.2531765443307
 20
111.5203535099351
 30
0.0
 10
228.1979129010419
 20
111.5259902062122
 30
0.0
 10
228.0873640726564
 20
111.5372657959546
 30
0.0
 10
227.9485751164336
 20
111.6358988087909
 30
0.0
 10
227.8455360077506
 20
111.7659031453509
 30
0.0
 10
227.7595121225822
 20
111.9702490964044
 30
0.0
 10
227.7143412359629
 20
112.2437512755902
 30
0.0
 10
227.7097206657517
 20
112.4635550145136
 30
0.0
 10
227.7074088237904
 20
112.5735309446829
 30
0.0
  0
SPLINE
  5
20E
330
1F
100
AcDbEntity
  8
0
  6
Continuous
 62
     7
370
    18
100
AcDbSpline
210
0.0
220
0.0
230
1.0
 70
     8
 71
     3
 72
    13
 73
     9
 74
     0
 42
0.000000001
 43
0.00000001
 40
0.0
 40
0.0
 40
0.0
 40
0.0
 40
0.2504702058475083
 40
0.5006494994159219
 40
0.6258027062132805
 40
0.7507410958263528
 40
0.8752785399750088
 40
1.0
 40
1.0
 40
1.0
 40
1.0
 10
228.8014458739797
 20
112.5735309446829
 30
0.0
 10
228.7987323787247
 20
112.4633984891314
 30
0.0
 10
228.7933085398431
 20
112.2432614929774
 30
0.0
 10
228.742538682119
 20
111.9703308927415
 30
0.0
 10
228.6581869346834
 20
111.7659067802902
 30
0.0
 10
228.561304174727
 20
111.6304519515578
 30
0.0
 10
228.4192275578581
 20
111.534773686756
 30
0.0
 10
228.308554117135
 20
111.5251626006765
 30
0.0
 10
228.2531765443307
 20
111.5203535099351
 30
0.0
  0
SPLINE
  5
20F
330
1F
100
AcDbEntity
  8
0
  6
Continuous
 62
     7
370
    18
100
AcDbSpline
210
0.0
220
0.0
230
1.0
 70
     8
 71
     3
 72
    10
 73
     6
 74
     0
 42
0.000000001
 43
0.00000001
 40
0.0
 40
0.0
 40
0.0
 40
0.0
 40
0.2795751783825443
 40
0.559704936815718
 40
1.0
 40
1.0
 40
1.0
 40
1.0
 10
227.3263303695704
 20
113.4115699960856
 30
0.0
 10
227.3622089104759
 20
113.3390668486186
 30
0.0
 10
227.4340371628506
 20
113.1939167326221
 30
0.0
 10
227.4836352861543
 20
112.9073950726362
 30
0.0
 10
227.4900299903812
 20
112.7001753911484
 30
0.0
 10
227.493938179851
 20
112.5735309446829
 30
0.0
  0
SPLINE
  5
210
330
1F
100
AcDbEntity
  8
0
  6
Continuous
 62
     7
370
    18
100
AcDbSpline
210
0.0
220
0.0
230
1.0
 70
     8
 71
     3
 72
    11
 73
     7
 74
     0
 42
0.000000001
 43
0.00000001
 40
0.0
 40
0.0
 40
0.0
 40
0.0
 40
0.2798903849624062
 40
0.5594964420644617
 40
0.7796718965173902
 40
1.0
 40
1.0
 40
1.0
 40
1.0
 10
226.9481704593106
 20
113.6283761188366
 30
0.0
 10
226.9909274010311
 20
113.6255236005647
 30
0.0
 10
227.0763978496476
 20
113.6198214617639
 30
0.0
 10
227.1851681047505
 20
113.5661963798345
 30
0.0
 10
227.2686884302632
 20
113.4941570117496
 30
0.0
 10
227.3071119514617
 20
113.4391053603787
 30
0.0
 10
227.3263303695704
 20
113.4115699960856
 30
0.0
  0
SPLINE
  5
211
330
1F
100
AcDbEntity
  8
0
  6
Continuous
 62
     7
370
    18
100
AcDbSpline
210
0.0
220
0.0
230
1.0
 70
     8
 71
     3
 72
    13
 73
     9
 74
     0
 42
0.000000001
 43
0.00000001
 40
0.0
 40
0.0
 40
0.0
 40
0.0
 40
0.2504890583456492
 40
0.5006738274425611
 40
0.6258446378555207
 40
0.7507584155659023
 40
0.8753007099299301
 40
1.0
 40
1.0
 40
1.0
 40
1.0
 10
226.3999011296616
 20
112.5735309446829
 30
0.0
 10
226.4026197442767
 20
112.6837711420407
 30
0.0
 10
226.4080536709866
 20
112.904117619103
 30
0.0
 10
226.4581070430281
 20
113.1775450546504
 30
0.0
 10
226.5430425684054
 20
113.3820025889355
 30
0.0
 10
226.6400306440944
 20
113.5175152100146
 30
0.0
 10
226.781986307178
 20
113.613614492103
 30
0.0
 10
226.8927524849603
 20
113.6234535107468
 30
0.0
 10
226.9481704593106
 20
113.6283761188366
 30
0.0
  0
SPLINE
  5
212
330
1F
100
AcDbEntity
  8
0
  6
Continuous
 62
     7
370
    18
100
AcDbSpline
210
0.0
220
0.0
230
1.0
 70
     8
 71
     3
 72
    13
 73
     9
 74
     0
 42
0.000000001
 43
0.00000001
 40
0.0
 40
0.0
 40
0.0
 40
0.0
 40
0.1245870753534838
 40
0.24922271483854
 40
0.3742192396120919
 40
0.4992998133209627
 40
0.7494812006579983
 40
1.0
 40
1.0
 40
1.0
 40
1.0
 10
226.9456688502019
 20
111.5203535099351
 30
0.0
 10
226.8904052069131
 20
111.5259902062122
 30
0.0
 10
226.7798563785276
 20
111.5372657959546
 30
0.0
 10
226.6410674223049
 20
111.6358988087909
 30
0.0
 10
226.5380283136218
 20
111.7659031453509
 30
0.0
 10
226.4520044284534
 20
111.9702490964044
 30
0.0
 10
226.4068335418342
 20
112.2437512755902
 30
0.0
 10
226.4022129716229
 20
112.4635550145136
 30
0.0
 10
226.3999011296616
 20
112.5735309446829
 30
0.0
  0
SPLINE
  5
213
330
1F
100
AcDbEntity
  8
0
  6
Continuous
 62
     7
370
    18
100
AcDbSpline
210
0.0
220
0.0
230
1.0
 70
     8
 71
     3
 72
    13
 73
     9
 74
     0
 42
0.000000001
 43
0.00000001
 40
0.0
 40
0.0
 40
0.0
 40
0.0
 40
0.2504702058475061
 40
0.5006494994159253
 40
0.6258027062132794
 40
0.7507410958263518
 40
0.8752785399750082
 40
1.0
 40
1.0
 40
1.0
 40
1.0
 10
227.493938179851
 20
112.5735309446829
 30
0.0
 10
227.4912246845959
 20
112.4633984891314
 30
0.0
 10
227.4858008457144
 20
112.2432614929774
 30
0.0
 10
227.4350309879902
 20
111.9703308927415
 30
0.0
 10
227.3506792405547
 20
111.7659067802902
 30
0.0
 10
227.2537964805982
 20
111.6304519515578
 30
0.0
 10
227.1117198637293
 20
111.534773686756
 30
0.0
 10
227.0010464230062
 20
111.5251626006765
 30
0.0
 10
226.9456688502019
 20
111.5203535099351
 30
0.0
  0
SPLINE
  5
214
330
1F
100
AcDbEntity
  8
0
  6
Continuous
 62
     7
370
    18
100
AcDbSpline
210
0.0
220
0.0
230
1.0
 70
     8
 71
     3
 72
    11
 73
     7
 74
     0
 42
0.000000001
 43
0.00000001
 40
0.0
 40
0.0
 40
0.0
 40
0.0
 40
0.2800359244938562
 40
0.5600382743760569
 40
0.7801217300908249
 40
0.9999999999999999
 40
0.9999999999999999
 40
0.9999999999999999
 40
0.9999999999999999
 10
225.2258125879949
 20
113.0946995089881
 30
0.0
 10
225.2846594882015
 20
113.131956751474
 30
0.0
 10
225.4023462332277
 20
113.2064667695281
 30
0.0
 10
225.5415555151461
 20
113.3421892218829
 30
0.0
 10
225.6560200679294
 20
113.4806295584181
 30
0.0
 10
225.7038822292553
 20
113.5791425799336
 30
0.0
 10
225.7278021491336
 20
113.6283761188366
 30
0.0
  0
LINE
  5
215
330
1F
100
AcDbEntity
  8
0
  6
Continuous
 62
     7
370
    18
100
AcDbLine
 10
225.225812588
 20
112.8545450346
 30
0.0
 11
225.225812588
 21
113.094699509
 31
0.0
  0
SPLINE
  5
216
330
1F
100
AcDbEntity
  8
0
  6
Continuous
 62
     7
370
    18
100
AcDbSpline
210
0.0
220
0.0
230
1.0
 70
     8
 71
     3
 72
     9
 73
     5
 74
     0
 42
0.000000001
 43
0.00000001
 40
0.0
 40
0.0
 40
0.0
 40
0.0
 40
0.55975523416682
 40
1.0
 40
1.0
 40
1.0
 40
1.0
 10
225.6527538758737
 20
113.1747510004654
 30
0.0
 10
225.5812394525859
 20
113.1038793124734
 30
0.0
 10
225.4534792836359
 20
112.9772673869995
 30
0.0
 10
225.2954042806629
 20
112.8920580147077
 30
0.0
 10
225.2258125879949
 20
112.8545450345563
 30
0.0
  0
LINE
  5
217
330
1F
100
AcDbEntity
  8
0
  6
Continuous
 62
     7
370
    18
100
AcDbLine
 10
225.6527538759
 20
111.5470373404
 30
0.0
 11
225.6527538759
 21
113.1747510005
 31
0.0
  0
LINE
  5
218
330
1F
100
AcDbEntity
  8
0
  6
Continuous
 62
     7
370
    18
100
AcDbLine
 10
225.8662245198
 20
111.5470373404
 30
0.0
 11
225.6527538759
 21
111.5470373404
 31
0.0
  0
LINE
  5
219
330
1F
100
AcDbEntity
  8
0
  6
Continuous
 62
     7
370
    18
100
AcDbLine
 10
225.8662245198
 20
113.6283761188
 30
0.0
 11
225.8662245198
 21
111.5470373404
 31
0.0
  0
LINE
  5
21A
330
1F
100
AcDbEntity
  8
0
  6
Continuous
 62
     7
370
    18
100
AcDbLine
 10
225.7278021491
 20
113.6283761188
 30
0.0
 11
225.8662245198
 21
113.6283761188
 31
0.0
  0
LINE
  5
21B
330
1F
100
AcDbEntity
  8
0
  6
Continuous
 62
     7
370
    18
100
AcDbLine
 10
224.2918785208
 20
112.4009199162
 30
0.0
 11
224.9322904526
 21
112.4009199162
 31
0.0
  0
LINE
  5
21C
330
1F
100
AcDbEntity
  8
0
  6
Continuous
 62
     7
370
    18
100
AcDbLine
 10
224.2918785208
 20
112.1607654418
 30
0.0
 11
224.2918785208
 21
112.4009199162
 31
0.0
  0
LINE
  5
21D
330
1F
100
AcDbEntity
  8
0
  6
Continuous
 62
     7
370
    18
100
AcDbLine
 10
224.9322904526
 20
112.1607654418
 30
0.0
 11
224.2918785208
 21
112.1607654418
 31
0.0
  0
LINE
  5
21E
330
1F
100
AcDbEntity
  8
0
  6
Continuous
 62
     7
370
    18
100
AcDbLine
 10
224.9322904526
 20
112.4009199162
 30
0.0
 11
224.9322904526
 21
112.1607654418
 31
0.0
  0
SPLINE
  5
21F
330
1F
100
AcDbEntity
  8
0
  6
Continuous
 62
     7
370
    18
100
AcDbSpline
210
0.0
220
0.0
230
1.0
 70
     8
 71
     3
 72
    12
 73
     8
 74
     0
 42
0.000000001
 43
0.00000001
 40
0.0
 40
0.0
 40
0.0
 40
0.0
 40
0.1871057595240078
 40
0.3740211604078918
 40
0.5608338669252976
 40
0.780358512659648
 40
1.0
 40
1.0
 40
1.0
 40
1.0
 10
224.1050917073131
 20
112.143671112844
 30
0.0
 10
224.1021425989894
 20
112.0859775628353
 30
0.0
 10
224.0962473827214
 20
111.9706491593848
 30
0.0
 10
224.0367470575775
 20
111.8052267983942
 30
0.0
 10
223.926832834753
 20
111.657731149095
 30
0.0
 10
223.764139758498
 20
111.5405193519568
 30
0.0
 10
223.6276080189218
 20
111.5270766494342
 30
0.0
 10
223.5593239867727
 20
111.5203535099351
 30
0.0
  0
SPLINE
  5
220
330
1F
100
AcDbEntity
  8
0
  6
Continuous
 62
     7
370
    18
100
AcDbSpline
210
0.0
220
0.0
230
1.0
 70
     8
 71
     3
 72
    11
 73
     7
 74
     0
 42
0.000000001
 43
0.00000001
 40
0.0
 40
0.0
 40
0.0
 40
0.0
 40
0.2796220600248636
 40
0.5590245428560683
 40
0.7793847317261612
 40
1.0
 40
1.0
 40
1.0
 40
1.0
 10
223.7777978489294
 20
112.6744291787324
 30
0.0
 10
223.834064377544
 20
112.6465938927843
 30
0.0
 10
223.9465532506824
 20
112.5909451789417
 30
0.0
 10
224.0503229400797
 20
112.4445232773783
 30
0.0
 10
224.0982569866111
 20
112.2906468065482
 30
0.0
 10
224.1028125886929
 20
112.1926818998012
 30
0.0
 10
224.1050917073131
 20
112.143671112844
 30
0.0
  0
SPLINE
  5
221
330
1F
100
AcDbEntity
  8
0
  6
Continuous
 62
     7
370
    18
100
AcDbSpline
210
0.0
220
0.0
230
1.0
 70
     8
 71
     3
 72
    11
 73
     7
 74
     0
 42
0.000000001
 43
0.00000001
 40
0.0
 40
0.0
 40
0.0
 40
0.0
 40
0.2801901752489541
 40
0.559731767241879
 40
0.7798035967389139
 40
1.0
 40
1.0
 40
1.0
 40
1.0
 10
224.0250402158358
 20
113.0888624210679
 30
0.0
 10
224.0223961925847
 20
113.04086442694
 30
0.0
 10
224.0171142664585
 20
112.9449795442762
 30
0.0
 10
223.9619822018151
 20
112.8202821867147
 30
0.0
 10
223.877606053899
 20
112.7280501048545
 30
0.0
 10
223.8110735257056
 20
112.6923061920163
 30
0.0
 10
223.7777978489294
 20
112.6744291787324
 30
0.0
  0
SPLINE
  5
222
330
1F
100
AcDbEntity
  8
0
  6
Continuous
 62
     7
370
    18
100
AcDbSpline
210
0.0
220
0.0
230
1.0
 70
     8
 71
     3
 72
    12
 73
     8
 74
     0
 42
0.000000001
 43
0.00000001
 40
0.0
 40
0.0
 40
0.0
 40
0.0
 40
0.1866818949369797
 40
0.3730939207975805
 40
0.5598445729636937
 40
0.7796788980924657
 40
0.9999999999999999
 40
0.9999999999999999
 40
0.9999999999999999
 40
0.9999999999999999
 10
223.5559885079612
 20
113.6283761188366
 30
0.0
 10
223.6059388293324
 20
113.6243406532963
 30
0.0
 10
223.7057672634276
 20
113.6162755559222
 30
0.0
 10
223.8383980726849
 20
113.53915450522
 30
0.0
 10
223.9445216044885
 20
113.4207511631466
 30
0.0
 10
224.0150105360667
 20
113.265133486171
 30
0.0
 10
224.0216945252598
 20
113.14766274719
 30
0.0
 10
224.0250402158358
 20
113.0888624210679
 30
0.0
  0
SPLINE
  5
223
330
1F
100
AcDbEntity
  8
0
  6
Continuous
 62
     7
370
    18
100
AcDbSpline
210
0.0
220
0.0
230
1.0
 70
     8
 71
     3
 72
    12
 73
     8
 74
     0
 42
0.000000001
 43
0.00000001
 40
0.0
 40
0.0
 40
0.0
 40
0.0
 40
0.1871377587295348
 40
0.3740411921344247
 40
0.5608494686677246
 40
0.7803659435040499
 40
1.0
 40
1.0
 40
1.0
 40
1.0
 10
223.0911061486009
 20
113.0972011180968
 30
0.0
 10
223.0936552458363
 20
113.146400871889
 30
0.0
 10
223.0987502484444
 20
113.2447387737967
 30
0.0
 10
223.1488839721268
 20
113.3859185076658
 30
0.0
 10
223.2419411081156
 20
113.5123563078669
 30
0.0
 10
223.3814271930439
 20
113.6113533602774
 30
0.0
 10
223.4977910175965
 20
113.6227008532275
 30
0.0
 10
223.5559885079612
 20
113.6283761188366
 30
0.0
  0
SPLINE
  5
224
330
1F
100
AcDbEntity
  8
0
  6
Continuous
 62
     7
370
    18
100
AcDbSpline
210
0.0
220
0.0
230
1.0
 70
     8
 71
     3
 72
    11
 73
     7
 74
     0
 42
0.000000001
 43
0.00000001
 40
0.0
 40
0.0
 40
0.0
 40
0.0
 40
0.279839997957378
 40
0.5592260384591591
 40
0.7795665615265365
 40
0.9999999999999999
 40
0.9999999999999999
 40
0.9999999999999999
 40
0.9999999999999999
 10
223.340850124616
 20
112.6744291787324
 30
0.0
 10
223.2979076618716
 20
112.698286728609
 30
0.0
 10
223.2120923978009
 20
112.7459631265586
 30
0.0
 10
223.1325158176209
 20
112.8612447431272
 30
0.0
 10
223.0958236849642
 20
112.9820977396041
 30
0.0
 10
223.0926788816975
 20
113.0588279336761
 30
0.0
 10
223.0911061486009
 20
113.0972011180968
 30
0.0
  0
SPLINE
  5
225
330
1F
100
AcDbEntity
  8
0
  6
Continuous
 62
     7
370
    18
100
AcDbSpline
210
0.0
220
0.0
230
1.0
 70
     8
 71
     3
 72
    11
 73
     7
 74
     0
 42
0.000000001
 43
0.00000001
 40
0.0
 40
0.0
 40
0.0
 40
0.0
 40
0.2804755498465858
 40
0.5600957930369873
 40
0.7800256682201219
 40
1.0
 40
1.0
 40
1.0
 40
1.0
 10
223.0110546571237
 20
112.1507590053186
 30
0.0
 10
223.0143810500707
 20
112.2131454377399
 30
0.0
 10
223.0210236921712
 20
112.3377280559427
 30
0.0
 10
223.092263317052
 20
112.4995617645366
 30
0.0
 10
223.2040549979855
 20
112.6189856157612
 30
0.0
 10
223.2952486770699
 20
112.6559467459815
 30
0.0
 10
223.340850124616
 20
112.6744291787324
 30
0.0
  0
SPLINE
  5
226
330
1F
100
AcDbEntity
  8
0
  6
Continuous
 62
     7
370
    18
100
AcDbSpline
210
0.0
220
0.0
230
1.0
 70
     8
 71
     3
 72
    12
 73
     8
 74
     0
 42
0.000000001
 43
0.00000001
 40
0.0
 40
0.0
 40
0.0
 40
0.0
 40
0.18664824917918
 40
0.3730988090506984
 40
0.5597919176482347
 40
0.779654520329358
 40
1.0
 40
1.0
 40
1.0
 40
1.0
 10
223.5593239867727
 20
111.5203535099351
 30
0.0
 10
223.5009122992398
 20
111.5251139126304
 30
0.0
 10
223.3841507911679
 20
111.5346296760197
 30
0.0
 10
223.2287751184337
 20
111.6240514981733
 30
0.0
 10
223.1032374963943
 20
111.7616211996758
 30
0.0
 10
223.0227052930342
 20
111.9446727822762
 30
0.0
 10
223.0149410413713
 20
112.0820133800119
 30
0.0
 10
223.0110546571237
 20
112.1507590053186
 30
0.0
  0
SPLINE
  5
227
330
1F
100
AcDbEntity
  8
0
  6
Continuous
 62
     7
370
    18
100
AcDbSpline
210
0.0
220
0.0
230
1.0
 70
     8
 71
     3
 72
    10
 73
     6
 74
     0
 42
0.000000001
 43
0.00000001
 40
0.0
 40
0.0
 40
0.0
 40
0.0
 40
0.2795751783825455
 40
0.5597049368157193
 40
1.0
 40
1.0
 40
1.0
 40
1.0
 10
222.6299762029037
 20
113.4115699960856
 30
0.0
 10
222.6658547438092
 20
113.3390668486186
 30
0.0
 10
222.7376829961838
 20
113.1939167326221
 30
0.0
 10
222.7872811194877
 20
112.9073950726362
 30
0.0
 10
222.7936758237145
 20
112.7001753911484
 30
0.0
 10
222.7975840131843
 20
112.5735309446829
 30
0.0
  0
SPLINE
  5
228
330
1F
100
AcDbEntity
  8
0
  6
Continuous
 62
     7
370
    18
100
AcDbSpline
210
0.0
220
0.0
230
1.0
 70
     8
 71
     3
 72
    11
 73
     7
 74
     0
 42
0.000000001
 43
0.00000001
 40
0.0
 40
0.0
 40
0.0
 40
0.0
 40
0.2798903849624031
 40
0.5594964420644627
 40
0.7796718965173898
 40
1.0
 40
1.0
 40
1.0
 40
1.0
 10
222.2518162926439
 20
113.6283761188366
 30
0.0
 10
222.2945732343644
 20
113.6255236005647
 30
0.0
 10
222.3800436829809
 20
113.6198214617639
 30
0.0
 10
222.4888139380838
 20
113.5661963798345
 30
0.0
 10
222.5723342635965
 20
113.4941570117496
 30
0.0
 10
222.610757784795
 20
113.4391053603787
 30
0.0
 10
222.6299762029037
 20
113.4115699960856
 30
0.0
  0
SPLINE
  5
229
330
1F
100
AcDbEntity
  8
0
  6
Continuous
 62
     7
370
    18
100
AcDbSpline
210
0.0
220
0.0
230
1.0
 70
     8
 71
     3
 72
    13
 73
     9
 74
     0
 42
0.000000001
 43
0.00000001
 40
0.0
 40
0.0
 40
0.0
 40
0.0
 40
0.2504890583456494
 40
0.5006738274425606
 40
0.6258446378555202
 40
0.750758415565904
 40
0.8753007099299303
 40
1.0
 40
1.0
 40
1.0
 40
1.0
 10
221.7035469629949
 20
112.5735309446829
 30
0.0
 10
221.70626557761
 20
112.6837711420407
 30
0.0
 10
221.7116995043199
 20
112.904117619103
 30
0.0
 10
221.7617528763615
 20
113.1775450546504
 30
0.0
 10
221.8466884017387
 20
113.3820025889355
 30
0.0
 10
221.9436764774278
 20
113.5175152100146
 30
0.0
 10
222.0856321405114
 20
113.613614492103
 30
0.0
 10
222.1963983182935
 20
113.6234535107468
 30
0.0
 10
222.2518162926439
 20
113.6283761188366
 30
0.0
  0
SPLINE
  5
22A
330
1F
100
AcDbEntity
  8
0
  6
Continuous
 62
     7
370
    18
100
AcDbSpline
210
0.0
220
0.0
230
1.0
 70
     8
 71
     3
 72
    13
 73
     9
 74
     0
 42
0.000000001
 43
0.00000001
 40
0.0
 40
0.0
 40
0.0
 40
0.0
 40
0.1245870753534852
 40
0.2492227148385394
 40
0.3742192396120914
 40
0.4992998133209642
 40
0.7494812006579953
 40
1.0
 40
1.0
 40
1.0
 40
1.0
 10
222.2493146835353
 20
111.5203535099351
 30
0.0
 10
222.1940510402464
 20
111.5259902062122
 30
0.0
 10
222.0835022118609
 20
111.5372657959546
 30
0.0
 10
221.9447132556382
 20
111.6358988087909
 30
0.0
 10
221.8416741469551
 20
111.7659031453509
 30
0.0
 10
221.7556502617867
 20
111.9702490964044
 30
0.0
 10
221.7104793751675
 20
112.2437512755902
 30
0.0
 10
221.7058588049562
 20
112.4635550145136
 30
0.0
 10
221.7035469629949
 20
112.5735309446829
 30
0.0
  0
SPLINE
  5
22B
330
1F
100
AcDbEntity
  8
0
  6
Continuous
 62
     7
370
    18
100
AcDbSpline
210
0.0
220
0.0
230
1.0
 70
     8
 71
     3
 72
    13
 73
     9
 74
     0
 42
0.000000001
 43
0.00000001
 40
0.0
 40
0.0
 40
0.0
 40
0.0
 40
0.2504702058475085
 40
0.5006494994159225
 40
0.6258027062132813
 40
0.75074109582635
 40
0.8752785399750087
 40
1.0
 40
1.0
 40
1.0
 40
1.0
 10
222.7975840131843
 20
112.5735309446829
 30
0.0
 10
222.7948705179292
 20
112.4633984891314
 30
0.0
 10
222.7894466790477
 20
112.2432614929775
 30
0.0
 10
222.7386768213236
 20
111.9703308927415
 30
0.0
 10
222.654325073888
 20
111.7659067802902
 30
0.0
 10
222.5574423139315
 20
111.6304519515578
 30
0.0
 10
222.4153656970627
 20
111.534773686756
 30
0.0
 10
222.3046922563395
 20
111.5251626006765
 30
0.0
 10
222.2493146835353
 20
111.5203535099351
 30
0.0
  0
SPLINE
  5
22C
330
1F
100
AcDbEntity
  8
0
  6
Continuous
 62
     7
370
    18
100
AcDbSpline
210
0.0
220
0.0
230
1.0
 70
     8
 71
     3
 72
    12
 73
     8
 74
     0
 42
0.000000001
 43
0.00000001
 40
0.0
 40
0.0
 40
0.0
 40
0.0
 40
0.1861323399318207
 40
0.3726108819815577
 40
0.5594136204052358
 40
0.7795030968205968
 40
1.0
 40
1.0
 40
1.0
 40
1.0
 10
220.9889206276196
 20
112.9079126955411
 30
0.0
 10
221.0465629425547
 20
112.9012267951583
 30
0.0
 10
221.1619547858813
 20
112.8878425587627
 30
0.0
 10
221.3041005107099
 20
112.7807309145992
 30
0.0
 10
221.4152705295141
 20
112.6351695967864
 30
0.0
 10
221.481067429295
 20
112.4498449862884
 30
0.0
 10
221.4870715050706
 20
112.3144260851771
 30
0.0
 10
221.4900763190555
 20
112.2466540211507
 30
0.0
  0
SPLINE
  5
22D
330
1F
100
AcDbEntity
  8
0
  6
Continuous
 62
     7
370
    18
100
AcDbSpline
210
0.0
220
0.0
230
1.0
 70
     8
 71
     3
 72
     9
 73
     5
 74
     0
 42
0.000000001
 43
0.00000001
 40
0.0
 40
0.0
 40
0.0
 40
0.0
 40
0.5597945537684227
 40
1.0
 40
1.0
 40
1.0
 40
1.0
 10
220.6845581860654
 20
112.8274442692124
 30
0.0
 10
220.7386789921059
 20
112.853252274358
 30
0.0
 10
220.8353587573449
 20
112.8993549114269
 30
0.0
 10
220.9419837327445
 20
112.9052969693025
 30
0.0
 10
220.9889206276196
 20
112.9079126955411
 30
0.0
  0
LINE
  5
22E
330
1F
100
AcDbEntity
  8
0
  6
Continuous
 62
     7
370
    18
100
AcDbLine
 10
220.7616911336
 20
113.3348539834
 30
0.0
 11
220.6845581861
 21
112.8274442692
 31
0.0
  0
LINE
  5
22F
330
1F
100
AcDbEntity
  8
0
  6
Continuous
 62
     7
370
    18
100
AcDbLine
 10
221.4100248276
 20
113.3348539834
 30
0.0
 11
220.7616911336
 21
113.3348539834
 31
0.0
  0
LINE
  5
230
330
1F
100
AcDbEntity
  8
0
  6
Continuous
 62
     7
370
    18
100
AcDbLine
 10
221.4100248276
 20
113.5750084579
 30
0.0
 11
221.4100248276
 21
113.3348539834
 31
0.0
  0
LINE
  5
231
330
1F
100
AcDbEntity
  8
0
  6
Continuous
 62
     7
370
    18
100
AcDbLine
 10
220.5828260823
 20
113.5750084579
 30
0.0
 11
221.4100248276
 21
113.5750084579
 31
0.0
  0
LINE
  5
232
330
1F
100
AcDbEntity
  8
0
  6
Continuous
 62
     7
370
    18
100
AcDbLine
 10
220.4227230994
 20
112.522247958
 30
0.0
 11
220.5828260823
 21
113.5750084579
 31
0.0
  0
LINE
  5
233
330
1F
100
AcDbEntity
  8
0
  6
Continuous
 62
     7
370
    18
100
AcDbLine
 10
220.6361937433
 20
112.4918117138
 30
0.0
 11
220.4227230994
 21
112.522247958
 31
0.0
  0
SPLINE
  5
234
330
1F
100
AcDbEntity
  8
0
  6
Continuous
 62
     7
370
    18
100
AcDbSpline
210
0.0
220
0.0
230
1.0
 70
     8
 71
     3
 72
    10
 73
     6
 74
     0
 42
0.000000001
 43
0.00000001
 40
0.0
 40
0.0
 40
0.0
 40
0.0
 40
0.28016827716769
 40
0.5607715634932497
 40
0.9999999999999999
 40
0.9999999999999999
 40
0.9999999999999999
 40
0.9999999999999999
 10
220.9292989438632
 20
112.6944420516017
 30
0.0
 10
220.8943109306255
 20
112.6905750837517
 30
0.0
 10
220.8242805792768
 20
112.6828351439229
 30
0.0
 10
220.7134360667198
 20
112.6161806015695
 30
0.0
 10
220.6654648943036
 20
112.5389415816372
 30
0.0
 10
220.6361937432979
 20
112.4918117137999
 30
0.0
  0
SPLINE
  5
235
330
1F
100
AcDbEntity
  8
0
  6
Continuous
 62
     7
370
    18
100
AcDbSpline
210
0.0
220
0.0
230
1.0
 70
     8
 71
     3
 72
    11
 73
     7
 74
     0
 42
0.000000001
 43
0.00000001
 40
0.0
 40
0.0
 40
0.0
 40
0.0
 40
0.2810318196217018
 40
0.5605860755662333
 40
0.7803889752949013
 40
1.0
 40
1.0
 40
1.0
 40
1.0
 10
221.2766056751161
 20
112.2349798453103
 30
0.0
 10
221.2737491819506
 20
112.2955315934394
 30
0.0
 10
221.2680512140278
 20
112.4163167305035
 30
0.0
 10
221.1940093667866
 20
112.571418023955
 30
0.0
 10
221.0723173105055
 20
112.6775270004355
 30
0.0
 10
220.976957852818
 20
112.6888053428179
 30
0.0
 10
220.9292989438632
 20
112.6944420516017
 30
0.0
  0
SPLINE
  5
236
330
1F
100
AcDbEntity
  8
0
  6
Continuous
 62
     7
370
    18
100
AcDbSpline
210
0.0
220
0.0
230
1.0
 70
     8
 71
     3
 72
    12
 73
     8
 74
     0
 42
0.000000001
 43
0.00000001
 40
0.0
 40
0.0
 40
0.0
 40
0.0
 40
0.1858835197478852
 40
0.3723018513499629
 40
0.5590684864252762
 40
0.7793243380015292
 40
1.0
 40
1.0
 40
1.0
 40
1.0
 10
220.9238787907944
 20
111.7338241538745
 30
0.0
 10
220.9663800939775
 20
111.739346144361
 30
0.0
 10
221.0515049823019
 20
111.7504060128425
 30
0.0
 10
221.1522928146192
 20
111.8352945397259
 30
0.0
 10
221.2281834440654
 20
111.9468660939452
 30
0.0
 10
221.2705296940359
 20
112.0851793658183
 30
0.0
 10
221.2745790629561
 20
112.1850146677849
 30
0.0
 10
221.2766056751161
 20
112.2349798453103
 30
0.0
  0
SPLINE
  5
237
330
1F
100
AcDbEntity
  8
0
  6
Continuous
 62
     7
370
    18
100
AcDbSpline
210
0.0
220
0.0
230
1.0
 70
     8
 71
     3
 72
    11
 73
     7
 74
     0
 42
0.000000001
 43
0.00000001
 40
0.0
 40
0.0
 40
0.0
 40
0.0
 40
0.2811074381184313
 40
0.5611160017532776
 40
0.7809929910720509
 40
1.0
 40
1.0
 40
1.0
 40
1.0
 10
220.6095099128055
 20
112.1340816112608
 30
0.0
 10
220.6177256417583
 20
112.082435361542
 30
0.0
 10
220.634124983634
 20
111.979344751981
 30
0.0
 10
220.6983797689349
 20
111.847056503847
 30
0.0
 10
220.8007573269514
 20
111.7521051648686
 30
0.0
 10
220.8828925738724
 20
111.7399097660721
 30
0.0
 10
220.9238787907944
 20
111.7338241538745
 30
0.0
  0
LINE
  5
238
330
1F
100
AcDbEntity
  8
0
  6
Continuous
 62
     7
370
    18
100
AcDbLine
 10
220.3960392689
 20
112.1073977808
 30
0.0
 11
220.6095099128
 21
112.1340816113
 31
0.0
  0
SPLINE
  5
239
330
1F
100
AcDbEntity
  8
0
  6
Continuous
 62
     7
370
    18
100
AcDbSpline
210
0.0
220
0.0
230
1.0
 70
     8
 71
     3
 72
    12
 73
     8
 74
     0
 42
0.000000001
 43
0.00000001
 40
0.0
 40
0.0
 40
0.0
 40
0.0
 40
0.1865885886654289
 40
0.373045704186193
 40
0.5597053661028975
 40
0.7796179230979459
 40
1.0
 40
1.0
 40
1.0
 40
1.0
 10
220.9259634650516
 20
111.5203535099351
 30
0.0
 10
220.8711464917853
 20
111.5247153579799
 30
0.0
 10
220.761551170122
 20
111.5334359806453
 30
0.0
 10
220.6158576951977
 20
111.6172523439242
 30
0.0
 10
220.4968104968276
 20
111.745290890972
 30
0.0
 10
220.4198700986213
 20
111.915592359989
 30
0.0
 10
220.4039885240311
 20
112.0434172040332
 30
0.0
 10
220.3960392688661
 20
112.1073977807684
 30
0.0
  0
SPLINE
  5
23A
330
1F
100
AcDbEntity
  8
0
  6
Continuous
 62
     7
370
    18
100
AcDbSpline
210
0.0
220
0.0
230
1.0
 70
     8
 71
     3
 72
    13
 73
     9
 74
     0
 42
0.000000001
 43
0.00000001
 40
0.0
 40
0.0
 40
0.0
 40
0.0
 40
0.1868890796518118
 40
0.3736670037034773
 40
0.5603596573753086
 40
0.7069433013335573
 40
0.853382774757126
 40
1.0
 40
1.0
 40
1.0
 40
1.0
 10
221.4900763190555
 20
112.2466540211507
 30
0.0
 10
221.4869827390133
 20
112.1827352023338
 30
0.0
 10
221.4807974188907
 20
112.0549355815528
 30
0.0
 10
221.4236341032493
 20
111.8701637058447
 30
0.0
 10
221.3328500907335
 20
111.7153986437114
 30
0.0
 10
221.2149809961394
 20
111.5991389608483
 30
0.0
 10
221.0767969249406
 20
111.5309028045141
 30
0.0
 10
220.9762616113826
 20
111.5238713630879
 30
0.0
 10
220.9259634650516
 20
111.5203535099351
 30
0.0
  0
LINE
  5
23B
330
1F
100
AcDbEntity
  8
0
  6
Continuous
 62
     7
370
    18
100
AcDbLine
 10
219.2040225286
 20
111.5470373404
 30
0.0
 11
218.7149579478
 21
113.3402741365
 31
0.0
  0
LINE
  5
23C
330
1F
100
AcDbEntity
  8
0
  6
Continuous
 62
     7
370
    18
100
AcDbLine
 10
219.4224963907
 20
111.5470373404
 30
0.0
 11
219.2040225286
 21
111.5470373404
 31
0.0
  0
LINE
  5
23D
330
1F
100
AcDbEntity
  8
0
  6
Continuous
 62
     7
370
    18
100
AcDbLine
 10
219.91573032
 20
113.2431283161
 30
0.0
 11
219.4224963907
 21
111.5470373404
 31
0.0
  0
LINE
  5
23E
330
1F
100
AcDbEntity
  8
0
  6
Continuous
 62
     7
370
    18
100
AcDbLine
 10
219.91573032
 20
111.5470373404
 30
0.0
 11
219.91573032
 21
113.2431283161
 31
0.0
  0
LINE
  5
23F
330
1F
100
AcDbEntity
  8
0
  6
Continuous
 62
     7
370
    18
100
AcDbLine
 10
220.1292009639
 20
111.5470373404
 30
0.0
 11
219.91573032
 21
111.5470373404
 31
0.0
  0
LINE
  5
240
330
1F
100
AcDbEntity
  8
0
  6
Continuous
 62
     7
370
    18
100
AcDbLine
 10
220.1292009639
 20
113.6016922883
 30
0.0
 11
220.1292009639
 21
111.5470373404
 31
0.0
  0
LINE
  5
241
330
1F
100
AcDbEntity
  8
0
  6
Continuous
 62
     7
370
    18
100
AcDbLine
 10
219.8269231966
 20
113.6016922883
 30
0.0
 11
220.1292009639
 21
113.6016922883
 31
0.0
  0
LINE
  5
242
330
1F
100
AcDbEntity
  8
0
  6
Continuous
 62
     7
370
    18
100
AcDbLine
 10
219.4083206058
 20
112.1720226827
 30
0.0
 11
219.8269231966
 21
113.6016922883
 31
0.0
  0
SPLINE
  5
243
330
1F
100
AcDbEntity
  8
0
  6
Continuous
 62
     7
370
    18
100
AcDbSpline
210
0.0
220
0.0
230
1.0
 70
     8
 71
     3
 72
     9
 73
     5
 74
     0
 42
0.000000001
 43
0.00000001
 40
0.0
 40
0.0
 40
0.0
 40
0.0
 40
0.5599947003108225
 40
1.0
 40
1.0
 40
1.0
 40
1.0
 10
219.3153441339229
 20
111.8426441501014
 30
0.0
 10
219.3322740402409
 20
111.9042479461303
 30
0.0
 10
219.3625063019186
 20
112.0142557658376
 30
0.0
 10
219.3943216736303
 20
112.1238157215813
 30
0.0
 10
219.408320605795
 20
112.1720226827423
 30
0.0
  0
LINE
  5
244
330
1F
100
AcDbEntity
  8
0
  6
Continuous
 62
     7
370
    18
100
AcDbLine
 10
219.2352926424
 20
112.1470065917
 30
0.0
 11
219.3153441339
 21
111.8426441501
 31
0.0
  0
LINE
  5
245
330
1F
100
AcDbEntity
  8
0
  6
Continuous
 62
     7
370
    18
100
AcDbLine
 10
218.8354521199
 20
113.6016922883
 30
0.0
 11
219.2352926424
 21
112.1470065917
 31
0.0
  0
LINE
  5
246
330
1F
100
AcDbEntity
  8
0
  6
Continuous
 62
     7
370
    18
100
AcDbLine
 10
218.5014873039
 20
113.6016922883
 30
0.0
 11
218.8354521199
 21
113.6016922883
 31
0.0
  0
LINE
  5
247
330
1F
100
AcDbEntity
  8
0
  6
Continuous
 62
     7
370
    18
100
AcDbLine
 10
218.5014873039
 20
111.5470373404
 30
0.0
 11
218.5014873039
 21
113.6016922883
 31
0.0
  0
LINE
  5
248
330
1F
100
AcDbEntity
  8
0
  6
Continuous
 62
     7
370
    18
100
AcDbLine
 10
218.7149579478
 20
111.5470373404
 30
0.0
 11
218.5014873039
 21
111.5470373404
 31
0.0
  0
LINE
  5
249
330
1F
100
AcDbEntity
  8
0
  6
Continuous
 62
     7
370
    18
100
AcDbLine
 10
218.7149579478
 20
113.3402741365
 30
0.0
 11
218.7149579478
 21
111.5470373404
 31
0.0
  0
SPLINE
  5
24A
330
1F
100
AcDbEntity
  8
0
  6
Continuous
 62
     7
370
    18
100
AcDbSpline
210
0.0
220
0.0
230
1.0
 70
     8
 71
     3
 72
    14
 73
    10
 74
     0
 42
0.000000001
 43
0.00000001
 40
0.0
 40
0.0
 40
0.0
 40
0.0
 40
0.1250267645254228
 40
0.2499561862380685
 40
0.3747506313882865
 40
0.4996959194189216
 40
0.6663177050472591
 40
0.8330998507676254
 40
0.9999999999999999
 40
0.9999999999999999
 40
0.9999999999999999
 40
0.9999999999999999
 10
217.5171041196444
 20
113.3882216444048
 30
0.0
 10
217.4710765314309
 20
113.385405314095
 30
0.0
 10
217.37905719097
 20
113.379774846202
 30
0.0
 10
217.2489694812751
 20
113.3273165471455
 30
0.0
 10
217.1411153395521
 20
113.2387865348491
 30
0.0
 10
217.0543115361019
 20
113.111229174522
 30
0.0
 10
216.9915967999739
 20
112.9536783977541
 30
0.0
 10
216.9586058828982
 20
112.7719595736427
 30
0.0
 10
216.9554190935207
 20
112.6494167462313
 30
0.0
 10
216.9538251353434
 20
112.5881236644835
 30
0.0
  0
SPLINE
  5
24B
330
1F
100
AcDbEntity
  8
0
  6
Continuous
 62
     7
370
    18
100
AcDbSpline
210
0.0
220
0.0
230
1.0
 70
     8
 71
     3
 72
    11
 73
     7
 74
     0
 42
0.000000001
 43
0.00000001
 40
0.0
 40
0.0
 40
0.0
 40
0.0
 40
0.2807713074051793
 40
0.5604369820882229
 40
0.7800147849953787
 40
1.0
 40
1.0
 40
1.0
 40
1.0
 10
217.9678106940555
 20
112.961280356526
 30
0.0
 10
217.9492172692094
 20
113.0216693388423
 30
0.0
 10
217.9121036374648
 20
113.1422095012739
 30
0.0
 10
217.8084323097178
 20
113.2884764037349
 30
0.0
 10
217.6662816342087
 20
113.3762509205542
 30
0.0
 10
217.5668606741729
 20
113.3842289382938
 30
0.0
 10
217.5171041196444
 20
113.3882216444048
 30
0.0
  0
LINE
  5
24C
330
1F
100
AcDbEntity
  8
0
  6
Continuous
 62
     7
370
    18
100
AcDbLine
 10
218.181281338
 20
113.0146480175
 30
0.0
 11
217.9678106941
 21
112.9612803565
 31
0.0
  0
SPLINE
  5
24D
330
1F
100
AcDbEntity
  8
0
  6
Continuous
 62
     7
370
    18
100
AcDbSpline
210
0.0
220
0.0
230
1.0
 70
     8
 71
     3
 72
    12
 73
     8
 74
     0
 42
0.000000001
 43
0.00000001
 40
0.0
 40
0.0
 40
0.0
 40
0.0
 40
0.1866161660947036
 40
0.3730652985771184
 40
0.5597027812570796
 40
0.7796715026895129
 40
1.0
 40
1.0
 40
1.0
 40
1.0
 10
217.5258597515247
 20
113.6283761188366
 30
0.0
 10
217.5868199765458
 20
113.6239183055982
 30
0.0
 10
217.7086858632197
 20
113.6150066691542
 30
0.0
 10
217.8763582736852
 20
113.5336216778354
 30
0.0
 10
218.0193267617025
 20
113.4010972504187
 30
0.0
 10
218.1241161155224
 20
113.2222366185018
 30
0.0
 10
218.1622158864696
 20
113.083881901999
 30
0.0
 10
218.1812813379949
 20
113.0146480175108
 30
0.0
  0
SPLINE
  5
24E
330
1F
100
AcDbEntity
  8
0
  6
Continuous
 62
     7
370
    18
100
AcDbSpline
210
0.0
220
0.0
230
1.0
 70
     8
 71
     3
 72
    13
 73
     9
 74
     0
 42
0.000000001
 43
0.00000001
 40
0.0
 40
0.0
 40
0.0
 40
0.0
 40
0.1869886270143183
 40
0.37378406046577
 40
0.5603785113196427
 40
0.7069405280508673
 40
0.8534458164057747
 40
1.0
 40
1.0
 40
1.0
 40
1.0
 10
216.740354491404
 20
112.5881236644835
 30
0.0
 10
216.7435817487475
 20
112.6791804711608
 30
0.0
 10
216.7500329290856
 20
112.861200006126
 30
0.0
 10
216.8191818835257
 20
113.1273416585268
 30
0.0
 10
216.9432760311629
 20
113.3523133014707
 30
0.0
 10
217.1152709204364
 20
113.513819181703
 30
0.0
 10
217.3111203304883
 20
113.6115804854568
 30
0.0
 10
217.4542719831771
 20
113.6227769516886
 30
0.0
 10
217.5258597515247
 20
113.6283761188366
 30
0.0
  0
SPLINE
  5
24F
330
1F
100
AcDbEntity
  8
0
  6
Continuous
 62
     7
370
    18
100
AcDbSpline
210
0.0
220
0.0
230
1.0
 70
     8
 71
     3
 72
    14
 73
    10
 74
     0
 42
0.000000001
 43
0.00000001
 40
0.0
 40
0.0
 40
0.0
 40
0.0
 40
0.124978955301552
 40
0.2498098163504308
 40
0.3745823232578662
 40
0.4995715195159091
 40
0.6662781166416184
 40
0.8331039635850064
 40
0.9999999999999999
 40
0.9999999999999999
 40
0.9999999999999999
 40
0.9999999999999999
 10
217.5066807483583
 20
111.5203535099351
 30
0.0
 10
217.445036514541
 20
111.5238416459719
 30
0.0
 10
217.3218210924581
 20
111.5308137847665
 30
0.0
 10
217.1471265814845
 20
111.6000148149953
 30
0.0
 10
217.0028997365456
 20
111.7191072500772
 30
0.0
 10
216.8872382600438
 20
111.8902782669816
 30
0.0
 10
216.7994520434107
 20
112.0994444656825
 30
0.0
 10
216.7480562648822
 20
112.3417422102987
 30
0.0
 10
216.7429221091742
 20
112.5059849983961
 30
0.0
 10
216.740354491404
 20
112.5881236644835
 30
0.0
  0
SPLINE
  5
250
330
1F
100
AcDbEntity
  8
0
  6
Continuous
 62
     7
370
    18
100
AcDbSpline
210
0.0
220
0.0
230
1.0
 70
     8
 71
     3
 72
    13
 73
     9
 74
     0
 42
0.000000001
 43
0.00000001
 40
0.0
 40
0.0
 40
0.0
 40
0.0
 40
0.1869090516643015
 40
0.3736796016941311
 40
0.5601136847103892
 40
0.706731195918381
 40
0.8533138294591284
 40
1.0
 40
1.0
 40
1.0
 40
1.0
 10
218.2079651684873
 20
112.2141331027381
 30
0.0
 10
218.1921112927022
 20
112.1488049497654
 30
0.0
 10
218.1604152890259
 20
112.0181970526898
 30
0.0
 10
218.0753522916071
 20
111.8342018663498
 30
0.0
 10
217.9576741270904
 20
111.6858825708759
 30
0.0
 10
217.8152645392953
 20
111.586030965789
 30
0.0
 10
217.6651141023617
 20
111.5295262476374
 30
0.0
 10
217.5595042946874
 20
111.5234118087259
 30
0.0
 10
217.5066807483583
 20
111.5203535099351
 30
0.0
  0
LINE
  5
251
330
1F
100
AcDbEntity
  8
0
  6
Continuous
 62
     7
370
    18
100
AcDbLine
 10
217.9944945245
 20
112.2675007637
 30
0.0
 11
218.2079651685
 21
112.2141331027
 31
0.0
  0
SPLINE
  5
252
330
1F
100
AcDbEntity
  8
0
  6
Continuous
 62
     7
370
    18
100
AcDbSpline
210
0.0
220
0.0
230
1.0
 70
     8
 71
     3
 72
    12
 73
     8
 74
     0
 42
0.000000001
 43
0.00000001
 40
0.0
 40
0.0
 40
0.0
 40
0.0
 40
0.1865921528409333
 40
0.3730589116156809
 40
0.5596226295490532
 40
0.7796100104163899
 40
0.9999999999999999
 40
0.9999999999999999
 40
0.9999999999999999
 40
0.9999999999999999
 10
217.5000097907352
 20
111.7605079843669
 30
0.0
 10
217.5485039460359
 20
111.7642976356166
 30
0.0
 10
217.6454596674892
 20
111.7718743913862
 30
0.0
 10
217.7760908447652
 20
111.8424556381947
 30
0.0
 10
217.8848290039165
 20
111.952873250702
 30
0.0
 10
217.9581501323921
 20
112.1004731406966
 30
0.0
 10
217.9823723455586
 20
112.211790965804
 30
0.0
 10
217.9944945245479
 20
112.2675007637229
 30
0.0
  0
SPLINE
  5
253
330
1F
100
AcDbEntity
  8
0
  6
Continuous
 62
     7
370
    18
100
AcDbSpline
210
0.0
220
0.0
230
1.0
 70
     8
 71
     3
 72
    14
 73
    10
 74
     0
 42
0.000000001
 43
0.00000001
 40
0.0
 40
0.0
 40
0.0
 40
0.0
 40
0.1669299867484127
 40
0.3337709048041672
 40
0.5004211293286656
 40
0.6254239239505632
 40
0.7503194582828527
 40
0.8750931289475081
 40
1.0
 40
1.0
 40
1.0
 40
1.0
 10
216.9538251353434
 20
112.5881236644835
 30
0.0
 10
216.9551548712739
 20
112.5261767262228
 30
0.0
 10
216.9578136336288
 20
112.4023159026772
 30
0.0
 10
216.9879598218812
 20
112.2186209271285
 30
0.0
 10
217.0425400970291
 20
112.0559708623868
 30
0.0
 10
217.1283102443268
 20
111.9256762693229
 30
0.0
 10
217.2318935179002
 20
111.8309124143006
 30
0.0
 10
217.360476689671
 20
111.7701110819632
 30
0.0
 10
217.4534822180831
 20
111.7637101551614
 30
0.0
 10
217.5000097907352
 20
111.7605079843669
 30
0.0
  0
CIRCLE
  5
254
330
1F
100
AcDbEntity
  8
0
  6
Continuous
 62
     7
370
    18
100
AcDbCircle
 10
225.8929083503
 20
114.935883813
 30
0.0
 40
25.19999999999999
  0
SPLINE
  5
255
330
1F
100
AcDbEntity
  8
0
  6
Continuous
 62
     7
370
    18
100
AcDbSpline
210
0.0
220
0.0
230
1.0
 70
     8
 71
     3
 72
    13
 73
     9
 74
     0
 42
0.000000001
 43
0.00000001
 40
0.0
 40
0.0
 40
0.0
 40
0.0
 40
0.1237345749994074
 40
0.2484232101745703
 40
0.3734713343328651
 40
0.4987444967637429
 40
0.7493102257733252
 40
1.0
 40
1.0
 40
1.0
 40
1.0
 10
233.2226230386933
 20
111.7338241538745
 30
0.0
 10
233.2637074348829
 20
111.7411873956273
 30
0.0
 10
233.3461930100713
 20
111.7559706536902
 30
0.0
 10
233.4303875797737
 20
111.8536834477611
 30
0.0
 10
233.4874573023295
 20
111.9624255303772
 30
0.0
 10
233.5266274997452
 20
112.1232186374731
 30
0.0
 10
233.547894822669
 20
112.3277756213329
 30
0.0
 10
233.5500765620062
 20
112.4921548571111
 30
0.0
 10
233.5511677016313
 20
112.5743648143858
 30
0.0
  0
SPLINE
  5
256
330
1F
100
AcDbEntity
  8
0
  6
Continuous
 62
     7
370
    18
100
AcDbSpline
210
0.0
220
0.0
230
1.0
 70
     8
 71
     3
 72
    13
 73
     9
 74
     0
 42
0.000000001
 43
0.00000001
 40
0.0
 40
0.0
 40
0.0
 40
0.0
 40
0.2506668541570156
 40
0.5012048357437081
 40
0.6264537829510457
 40
0.7514291871594888
 40
0.8760522367173394
 40
1.0
 40
1.0
 40
1.0
 40
1.0
 10
232.8840719393207
 20
112.5743648143858
 30
0.0
 10
232.8851202461373
 20
112.4914195785908
 30
0.0
 10
232.8872163208161
 20
112.3255717507152
 30
0.0
 10
232.9090354198549
 20
112.1191977483374
 30
0.0
 10
232.9491379001254
 20
111.9571433649015
 30
0.0
 10
233.0085092417423
 20
111.8480378617823
 30
0.0
 10
233.09761060109
 20
111.7533475363235
 30
0.0
 10
233.1810277652852
 20
111.7403201509639
 30
0.0
 10
233.2226230386933
 20
111.7338241538745
 30
0.0
  0
SPLINE
  5
257
330
1F
100
AcDbEntity
  8
0
  6
Continuous
 62
     7
370
    18
100
AcDbSpline
210
0.0
220
0.0
230
1.0
 70
     8
 71
     3
 72
    13
 73
     9
 74
     0
 42
0.000000001
 43
0.00000001
 40
0.0
 40
0.0
 40
0.0
 40
0.0
 40
0.1236770548154472
 40
0.2483884878623333
 40
0.3734455614730988
 40
0.4987169325063985
 40
0.749294849772305
 40
1.0
 40
1.0
 40
1.0
 40
1.0
 10
233.21011499315
 20
113.4149054748972
 30
0.0
 10
233.1691264284957
 20
113.4074122756374
 30
0.0
 10
233.0868064896087
 20
113.3923632074318
 30
0.0
 10
233.0036927701871
 20
113.2940058671016
 30
0.0
 10
232.9469597211139
 20
113.1853720457657
 30
0.0
 10
232.9089439271213
 20
113.0245900166014
 30
0.0
 10
232.887199178379
 20
112.820541106665
 30
0.0
 10
232.8851145287116
 20
112.6564374624459
 30
0.0
 10
232.8840719393207
 20
112.5743648143858
 30
0.0
  0
SPLINE
  5
258
330
1F
100
AcDbEntity
  8
0
  6
Continuous
 62
     7
370
    18
100
AcDbSpline
210
0.0
220
0.0
230
1.0
 70
     8
 71
     3
 72
    13
 73
     9
 74
     0
 42
0.000000001
 43
0.00000001
 40
0.0
 40
0.0
 40
0.0
 40
0.0
 40
0.250673607138639
 40
0.5012152607337985
 40
0.626452601510414
 40
0.7514497498805396
 40
0.876027118323626
 40
1.0
 40
1.0
 40
1.0
 40
1.0
 10
233.5511677016313
 20
112.5743648143858
 30
0.0
 10
233.5501291987192
 20
112.6575109681396
 30
0.0
 10
233.5480527395587
 20
112.823759507858
 30
0.0
 10
233.5261384951474
 20
113.0306506356617
 30
0.0
 10
233.4857460399109
 20
113.193026211392
 30
0.0
 10
233.4259784091607
 20
113.3023669586515
 30
0.0
 10
233.3354583238079
 20
113.396105210353
 30
0.0
 10
233.2518283058929
 20
113.4086488890025
 30
0.0
 10
233.21011499315
 20
113.4149054748972
 30
0.0
  0
SPLINE
  5
259
330
1F
100
AcDbEntity
  8
0
  6
Continuous
 62
     7
370
    18
100
AcDbSpline
210
0.0
220
0.0
230
1.0
 70
     8
 71
     3
 72
    13
 73
     9
 74
     0
 42
0.000000001
 43
0.00000001
 40
0.0
 40
0.0
 40
0.0
 40
0.0
 40
0.1237345749994069
 40
0.2484232101745674
 40
0.3734713343328618
 40
0.4987444967637452
 40
0.7493102257733211
 40
1.0
 40
1.0
 40
1.0
 40
1.0
 10
229.5669382612312
 20
111.7338241538745
 30
0.0
 10
229.6080226574208
 20
111.7411873956273
 30
0.0
 10
229.6905082326091
 20
111.7559706536902
 30
0.0
 10
229.7747028023116
 20
111.8536834477611
 30
0.0
 10
229.8317725248674
 20
111.9624255303772
 30
0.0
 10
229.8709427222831
 20
112.1232186374731
 30
0.0
 10
229.8922100452068
 20
112.3277756213329
 30
0.0
 10
229.8943917845441
 20
112.4921548571111
 30
0.0
 10
229.8954829241691
 20
112.5743648143858
 30
0.0
  0
SPLINE
  5
25A
330
1F
100
AcDbEntity
  8
0
  6
Continuous
 62
     7
370
    18
100
AcDbSpline
210
0.0
220
0.0
230
1.0
 70
     8
 71
     3
 72
    13
 73
     9
 74
     0
 42
0.000000001
 43
0.00000001
 40
0.0
 40
0.0
 40
0.0
 40
0.0
 40
0.2506668541570158
 40
0.5012048357437088
 40
0.6264537829510469
 40
0.7514291871594863
 40
0.8760522367173393
 40
1.0
 40
1.0
 40
1.0
 40
1.0
 10
229.2283871618586
 20
112.5743648143858
 30
0.0
 10
229.2294354686751
 20
112.4914195785908
 30
0.0
 10
229.231531543354
 20
112.3255717507152
 30
0.0
 10
229.2533506423928
 20
112.1191977483374
 30
0.0
 10
229.2934531226633
 20
111.9571433649015
 30
0.0
 10
229.3528244642802
 20
111.8480378617823
 30
0.0
 10
229.4419258236279
 20
111.7533475363235
 30
0.0
 10
229.5253429878231
 20
111.740320150964
 30
0.0
 10
229.5669382612312
 20
111.7338241538745
 30
0.0
  0
SPLINE
  5
25B
330
1F
100
AcDbEntity
  8
0
  6
Continuous
 62
     7
370
    18
100
AcDbSpline
210
0.0
220
0.0
230
1.0
 70
     8
 71
     3
 72
    13
 73
     9
 74
     0
 42
0.000000001
 43
0.00000001
 40
0.0
 40
0.0
 40
0.0
 40
0.0
 40
0.1236770548154464
 40
0.2483884878623326
 40
0.3734455614730953
 40
0.4987169325064011
 40
0.7492948497723045
 40
1.0
 40
1.0
 40
1.0
 40
1.0
 10
229.5544302156879
 20
113.4149054748972
 30
0.0
 10
229.5134416510335
 20
113.4074122756374
 30
0.0
 10
229.4311217121466
 20
113.3923632074318
 30
0.0
 10
229.348007992725
 20
113.2940058671016
 30
0.0
 10
229.2912749436518
 20
113.1853720457656
 30
0.0
 10
229.2532591496592
 20
113.0245900166014
 30
0.0
 10
229.2315144009169
 20
112.820541106665
 30
0.0
 10
229.2294297512495
 20
112.6564374624459
 30
0.0
 10
229.2283871618586
 20
112.5743648143858
 30
0.0
  0
SPLINE
  5
25C
330
1F
100
AcDbEntity
  8
0
  6
Continuous
 62
     7
370
    18
100
AcDbSpline
210
0.0
220
0.0
230
1.0
 70
     8
 71
     3
 72
    13
 73
     9
 74
     0
 42
0.000000001
 43
0.00000001
 40
0.0
 40
0.0
 40
0.0
 40
0.0
 40
0.2506736071386392
 40
0.5012152607337954
 40
0.6264526015104145
 40
0.7514497498805401
 40
0.8760271183236268
 40
1.0
 40
1.0
 40
1.0
 40
1.0
 10
229.8954829241691
 20
112.5743648143858
 30
0.0
 10
229.8944444212571
 20
112.6575109681397
 30
0.0
 10
229.8923679620965
 20
112.823759507858
 30
0.0
 10
229.8704537176853
 20
113.0306506356617
 30
0.0
 10
229.8300612624488
 20
113.193026211392
 30
0.0
 10
229.7702936316986
 20
113.3023669586515
 30
0.0
 10
229.6797735463458
 20
113.396105210353
 30
0.0
 10
229.5961435284308
 20
113.4086488890025
 30
0.0
 10
229.5544302156879
 20
113.4149054748972
 30
0.0
  0
SPLINE
  5
25D
330
1F
100
AcDbEntity
  8
0
  6
Continuous
 62
     7
370
    18
100
AcDbSpline
210
0.0
220
0.0
230
1.0
 70
     8
 71
     3
 72
    13
 73
     9
 74
     0
 42
0.000000001
 43
0.00000001
 40
0.0
 40
0.0
 40
0.0
 40
0.0
 40
0.1237345749994057
 40
0.2484232101745686
 40
0.3734713343328628
 40
0.498744496763746
 40
0.7493102257733251
 40
1.0
 40
1.0
 40
1.0
 40
1.0
 10
228.2594305671024
 20
111.7338241538745
 30
0.0
 10
228.300514963292
 20
111.7411873956273
 30
0.0
 10
228.3830005384804
 20
111.7559706536902
 30
0.0
 10
228.4671951081828
 20
111.8536834477611
 30
0.0
 10
228.5242648307386
 20
111.9624255303772
 30
0.0
 10
228.5634350281543
 20
112.1232186374731
 30
0.0
 10
228.5847023510781
 20
112.3277756213329
 30
0.0
 10
228.5868840904153
 20
112.4921548571111
 30
0.0
 10
228.5879752300403
 20
112.5743648143858
 30
0.0
  0
SPLINE
  5
25E
330
1F
100
AcDbEntity
  8
0
  6
Continuous
 62
     7
370
    18
100
AcDbSpline
210
0.0
220
0.0
230
1.0
 70
     8
 71
     3
 72
    13
 73
     9
 74
     0
 42
0.000000001
 43
0.00000001
 40
0.0
 40
0.0
 40
0.0
 40
0.0
 40
0.2506668541570158
 40
0.5012048357437091
 40
0.6264537829510469
 40
0.751429187159487
 40
0.8760522367173377
 40
1.0
 40
1.0
 40
1.0
 40
1.0
 10
227.9208794677297
 20
112.5743648143858
 30
0.0
 10
227.9219277745463
 20
112.4914195785908
 30
0.0
 10
227.9240238492252
 20
112.3255717507152
 30
0.0
 10
227.945842948264
 20
112.1191977483374
 30
0.0
 10
227.9859454285344
 20
111.9571433649015
 30
0.0
 10
228.0453167701513
 20
111.8480378617823
 30
0.0
 10
228.1344181294991
 20
111.7533475363235
 30
0.0
 10
228.2178352936943
 20
111.7403201509639
 30
0.0
 10
228.2594305671024
 20
111.7338241538745
 30
0.0
  0
SPLINE
  5
25F
330
1F
100
AcDbEntity
  8
0
  6
Continuous
 62
     7
370
    18
100
AcDbSpline
210
0.0
220
0.0
230
1.0
 70
     8
 71
     3
 72
    13
 73
     9
 74
     0
 42
0.000000001
 43
0.00000001
 40
0.0
 40
0.0
 40
0.0
 40
0.0
 40
0.1236770548154464
 40
0.2483884878623327
 40
0.3734455614730945
 40
0.4987169325064013
 40
0.7492948497723046
 40
1.0
 40
1.0
 40
1.0
 40
1.0
 10
228.2469225215591
 20
113.4149054748972
 30
0.0
 10
228.2059339569047
 20
113.4074122756374
 30
0.0
 10
228.1236140180177
 20
113.3923632074318
 30
0.0
 10
228.0405002985962
 20
113.2940058671016
 30
0.0
 10
227.983767249523
 20
113.1853720457657
 30
0.0
 10
227.9457514555304
 20
113.0245900166014
 30
0.0
 10
227.924006706788
 20
112.820541106665
 30
0.0
 10
227.9219220571207
 20
112.6564374624459
 30
0.0
 10
227.9208794677297
 20
112.5743648143858
 30
0.0
  0
SPLINE
  5
260
330
1F
100
AcDbEntity
  8
0
  6
Continuous
 62
     7
370
    18
100
AcDbSpline
210
0.0
220
0.0
230
1.0
 70
     8
 71
     3
 72
    13
 73
     9
 74
     0
 42
0.000000001
 43
0.00000001
 40
0.0
 40
0.0
 40
0.0
 40
0.0
 40
0.2506736071386392
 40
0.5012152607337993
 40
0.6264526015104145
 40
0.7514497498805401
 40
0.8760271183236268
 40
1.0
 40
1.0
 40
1.0
 40
1.0
 10
228.5879752300403
 20
112.5743648143858
 30
0.0
 10
228.5869367271283
 20
112.6575109681396
 30
0.0
 10
228.5848602679677
 20
112.823759507858
 30
0.0
 10
228.5629460235565
 20
113.0306506356617
 30
0.0
 10
228.5225535683199
 20
113.193026211392
 30
0.0
 10
228.4627859375698
 20
113.3023669586515
 30
0.0
 10
228.372265852217
 20
113.396105210353
 30
0.0
 10
228.288635834302
 20
113.4086488890025
 30
0.0
 10
228.2469225215591
 20
113.4149054748972
 30
0.0
  0
SPLINE
  5
261
330
1F
100
AcDbEntity
  8
0
  6
Continuous
 62
     7
370
    18
100
AcDbSpline
210
0.0
220
0.0
230
1.0
 70
     8
 71
     3
 72
    13
 73
     9
 74
     0
 42
0.000000001
 43
0.00000001
 40
0.0
 40
0.0
 40
0.0
 40
0.0
 40
0.1237345749994074
 40
0.248423210174569
 40
0.3734713343328623
 40
0.498744496763746
 40
0.7493102257733251
 40
1.0
 40
1.0
 40
1.0
 40
1.0
 10
226.9519228729736
 20
111.7338241538745
 30
0.0
 10
226.9930072691632
 20
111.7411873956273
 30
0.0
 10
227.0754928443516
 20
111.7559706536902
 30
0.0
 10
227.159687414054
 20
111.8536834477611
 30
0.0
 10
227.2167571366098
 20
111.9624255303772
 30
0.0
 10
227.2559273340256
 20
112.1232186374731
 30
0.0
 10
227.2771946569493
 20
112.3277756213329
 30
0.0
 10
227.2793763962865
 20
112.4921548571111
 30
0.0
 10
227.2804675359116
 20
112.5743648143858
 30
0.0
  0
SPLINE
  5
262
330
1F
100
AcDbEntity
  8
0
  6
Continuous
 62
     7
370
    18
100
AcDbSpline
210
0.0
220
0.0
230
1.0
 70
     8
 71
     3
 72
    13
 73
     9
 74
     0
 42
0.000000001
 43
0.00000001
 40
0.0
 40
0.0
 40
0.0
 40
0.0
 40
0.2506668541570158
 40
0.501204835743709
 40
0.6264537829510463
 40
0.7514291871594873
 40
0.8760522367173378
 40
1.0
 40
1.0
 40
1.0
 40
1.0
 10
226.613371773601
 20
112.5743648143858
 30
0.0
 10
226.6144200804175
 20
112.4914195785908
 30
0.0
 10
226.6165161550964
 20
112.3255717507152
 30
0.0
 10
226.6383352541352
 20
112.1191977483374
 30
0.0
 10
226.6784377344057
 20
111.9571433649015
 30
0.0
 10
226.7378090760226
 20
111.8480378617823
 30
0.0
 10
226.8269104353703
 20
111.7533475363235
 30
0.0
 10
226.9103275995655
 20
111.7403201509639
 30
0.0
 10
226.9519228729736
 20
111.7338241538745
 30
0.0
  0
SPLINE
  5
263
330
1F
100
AcDbEntity
  8
0
  6
Continuous
 62
     7
370
    18
100
AcDbSpline
210
0.0
220
0.0
230
1.0
 70
     8
 71
     3
 72
    13
 73
     9
 74
     0
 42
0.000000001
 43
0.00000001
 40
0.0
 40
0.0
 40
0.0
 40
0.0
 40
0.1236770548154448
 40
0.2483884878623323
 40
0.3734455614730974
 40
0.4987169325064008
 40
0.7492948497723044
 40
1.0
 40
1.0
 40
1.0
 40
1.0
 10
226.9394148274303
 20
113.4149054748972
 30
0.0
 10
226.898426262776
 20
113.4074122756374
 30
0.0
 10
226.816106323889
 20
113.3923632074318
 30
0.0
 10
226.7329926044674
 20
113.2940058671016
 30
0.0
 10
226.6762595553942
 20
113.1853720457657
 30
0.0
 10
226.6382437614016
 20
113.0245900166014
 30
0.0
 10
226.6164990126593
 20
112.820541106665
 30
0.0
 10
226.6144143629919
 20
112.6564374624459
 30
0.0
 10
226.613371773601
 20
112.5743648143858
 30
0.0
  0
SPLINE
  5
264
330
1F
100
AcDbEntity
  8
0
  6
Continuous
 62
     7
370
    18
100
AcDbSpline
210
0.0
220
0.0
230
1.0
 70
     8
 71
     3
 72
    13
 73
     9
 74
     0
 42
0.000000001
 43
0.00000001
 40
0.0
 40
0.0
 40
0.0
 40
0.0
 40
0.2506736071386392
 40
0.501215260733799
 40
0.626452601510414
 40
0.7514497498805406
 40
0.8760271183236285
 40
1.0
 40
1.0
 40
1.0
 40
1.0
 10
227.2804675359116
 20
112.5743648143858
 30
0.0
 10
227.2794290329995
 20
112.6575109681396
 30
0.0
 10
227.277352573839
 20
112.823759507858
 30
0.0
 10
227.2554383294277
 20
113.0306506356617
 30
0.0
 10
227.2150458741912
 20
113.193026211392
 30
0.0
 10
227.155278243441
 20
113.3023669586515
 30
0.0
 10
227.0647581580882
 20
113.3961052103529
 30
0.0
 10
226.9811281401732
 20
113.4086488890025
 30
0.0
 10
226.9394148274303
 20
113.4149054748972
 30
0.0
  0
SPLINE
  5
265
330
1F
100
AcDbEntity
  8
0
  6
Continuous
 62
     7
370
    18
100
AcDbSpline
210
0.0
220
0.0
230
1.0
 70
     8
 71
     3
 72
    12
 73
     8
 74
     0
 42
0.000000001
 43
0.00000001
 40
0.0
 40
0.0
 40
0.0
 40
0.0
 40
0.1864266110451032
 40
0.3728066183672643
 40
0.5596384089196433
 40
0.7795953861027518
 40
1.0
 40
1.0
 40
1.0
 40
1.0
 10
223.5593239867727
 20
111.7338241538745
 30
0.0
 10
223.5961182301718
 20
111.7373798214631
 30
0.0
 10
223.6696975189874
 20
111.7444902677793
 30
0.0
 10
223.7644920170149
 20
111.8063871192125
 30
0.0
 10
223.839659110002
 20
111.896348301173
 30
0.0
 10
223.8849337621849
 20
112.0136092693144
 30
0.0
 10
223.8893904528712
 20
112.1000099324096
 30
0.0
 10
223.8916210633737
 20
112.1432541779926
 30
0.0
  0
SPLINE
  5
266
330
1F
100
AcDbEntity
  8
0
  6
Continuous
 62
     7
370
    18
100
AcDbSpline
210
0.0
220
0.0
230
1.0
 70
     8
 71
     3
 72
    11
 73
     7
 74
     0
 42
0.000000001
 43
0.00000001
 40
0.0
 40
0.0
 40
0.0
 40
0.0
 40
0.2807261943832927
 40
0.5603972916125628
 40
0.7804346209650599
 40
1.0
 40
1.0
 40
1.0
 40
1.0
 10
223.2245253010631
 20
112.1515928750215
 30
0.0
 10
223.2281000409805
 20
112.0955602628011
 30
0.0
 10
223.2352360853114
 20
111.9837056344888
 30
0.0
 10
223.313746889266
 20
111.8453302087702
 30
0.0
 10
223.427482190413
 20
111.7505281710655
 30
0.0
 10
223.515408186626
 20
111.7393881730312
 30
0.0
 10
223.5593239867727
 20
111.7338241538745
 30
0.0
  0
SPLINE
  5
267
330
1F
100
AcDbEntity
  8
0
  6
Continuous
 62
     7
370
    18
100
AcDbSpline
210
0.0
220
0.0
230
1.0
 70
     8
 71
     3
 72
    11
 73
     7
 74
     0
 42
0.000000001
 43
0.00000001
 40
0.0
 40
0.0
 40
0.0
 40
0.0
 40
0.2782055765816049
 40
0.5579799253701343
 40
0.7788219222535238
 40
1.0
 40
1.0
 40
1.0
 40
1.0
 10
223.5539038337039
 20
112.5610228991396
 30
0.0
 10
223.4992195583026
 20
112.5518331466763
 30
0.0
 10
223.389542648579
 20
112.5334018216947
 30
0.0
 10
223.284298132105
 20
112.4119301736963
 30
0.0
 10
223.2312208420613
 20
112.2809294872367
 30
0.0
 10
223.2267582790685
 20
112.1947269265406
 30
0.0
 10
223.2245253010631
 20
112.1515928750215
 30
0.0
  0
SPLINE
  5
268
330
1F
100
AcDbEntity
  8
0
  6
Continuous
 62
     7
370
    18
100
AcDbSpline
210
0.0
220
0.0
230
1.0
 70
     8
 71
     3
 72
    11
 73
     7
 74
     0
 42
0.000000001
 43
0.00000001
 40
0.0
 40
0.0
 40
0.0
 40
0.0
 40
0.2807535301687743
 40
0.5603207228591549
 40
0.7803822345379182
 40
1.0
 40
1.0
 40
1.0
 40
1.0
 10
223.8916210633737
 20
112.1432541779926
 30
0.0
 10
223.8879368596762
 20
112.1994931287439
 30
0.0
 10
223.8805840200603
 20
112.3117333898685
 30
0.0
 10
223.800458896066
 20
112.4497726718681
 30
0.0
 10
223.6862245643147
 20
112.5445194862434
 30
0.0
 10
223.5979810573273
 20
112.5555254641011
 30
0.0
 10
223.5539038337039
 20
112.5610228991396
 30
0.0
  0
SPLINE
  5
269
330
1F
100
AcDbEntity
  8
0
  6
Continuous
 62
     7
370
    18
100
AcDbSpline
210
0.0
220
0.0
230
1.0
 70
     8
 71
     3
 72
    11
 73
     7
 74
     0
 42
0.000000001
 43
0.00000001
 40
0.0
 40
0.0
 40
0.0
 40
0.0
 40
0.2783889696083874
 40
0.5580817055296803
 40
0.7789018539988235
 40
1.0
 40
1.0
 40
1.0
 40
1.0
 10
223.5593239867727
 20
112.774493543079
 30
0.0
 10
223.6013110331882
 20
112.7816590035178
 30
0.0
 10
223.6854817620307
 20
112.7960234820682
 30
0.0
 10
223.7655851577806
 20
112.8897173272695
 30
0.0
 10
223.8066006195556
 20
112.9900366581609
 30
0.0
 10
223.8099125599687
 20
113.056184586108
 30
0.0
 10
223.8115695718964
 20
113.0892793559193
 30
0.0
  0
SPLINE
  5
26A
330
1F
100
AcDbEntity
  8
0
  6
Continuous
 62
     7
370
    18
100
AcDbSpline
210
0.0
220
0.0
230
1.0
 70
     8
 71
     3
 72
    11
 73
     7
 74
     0
 42
0.000000001
 43
0.00000001
 40
0.0
 40
0.0
 40
0.0
 40
0.0
 40
0.2806987831964731
 40
0.5604086902325239
 40
0.7804393617933058
 40
0.9999999999999999
 40
0.9999999999999999
 40
0.9999999999999999
 40
0.9999999999999999
 10
223.3045767925403
 20
113.103038206017
 30
0.0
 10
223.3070044759715
 20
113.0594810587745
 30
0.0
 10
223.3118512903269
 20
112.9725202121387
 30
0.0
 10
223.3691212901242
 20
112.8630213162498
 30
0.0
 10
223.4565417234703
 20
112.7872241499469
 30
0.0
 10
223.525087663272
 20
112.7787340526872
 30
0.0
 10
223.5593239867727
 20
112.774493543079
 30
0.0
  0
SPLINE
  5
26B
330
1F
100
AcDbEntity
  8
0
  6
Continuous
 62
     7
370
    18
100
AcDbSpline
210
0.0
220
0.0
230
1.0
 70
     8
 71
     3
 72
    11
 73
     7
 74
     0
 42
0.000000001
 43
0.00000001
 40
0.0
 40
0.0
 40
0.0
 40
0.0
 40
0.2781848052830279
 40
0.5582334878196241
 40
0.7790790531104522
 40
1.0
 40
1.0
 40
1.0
 40
1.0
 10
223.556822377664
 20
113.4149054748972
 30
0.0
 10
223.5152654432395
 20
113.4076000931744
 30
0.0
 10
223.431873137095
 20
113.3929403826454
 30
0.0
 10
223.3524418228145
 20
113.3003115248719
 30
0.0
 10
223.3103037679024
 20
113.201405018377
 30
0.0
 10
223.3064860014781
 20
113.1358308732565
 30
0.0
 10
223.3045767925403
 20
113.103038206017
 30
0.0
  0
SPLINE
  5
26C
330
1F
100
AcDbEntity
  8
0
  6
Continuous
 62
     7
370
    18
100
AcDbSpline
210
0.0
220
0.0
230
1.0
 70
     8
 71
     3
 72
    11
 73
     7
 74
     0
 42
0.000000001
 43
0.00000001
 40
0.0
 40
0.0
 40
0.0
 40
0.0
 40
0.2805990159984011
 40
0.5604527759419519
 40
0.7805133266133528
 40
1.0
 40
1.0
 40
1.0
 40
1.0
 10
223.8115695718964
 20
113.0892793559193
 30
0.0
 10
223.8088856493984
 20
113.1324186424857
 30
0.0
 10
223.8035249327577
 20
113.2185826399688
 30
0.0
 10
223.7430124140827
 20
113.3244712999199
 30
0.0
 10
223.6582751527881
 20
113.4006250976803
 30
0.0
 10
223.5906105214973
 20
113.4101494942076
 30
0.0
 10
223.556822377664
 20
113.4149054748972
 30
0.0
  0
SPLINE
  5
26D
330
1F
100
AcDbEntity
  8
0
  6
Continuous
 62
     7
370
    18
100
AcDbSpline
210
0.0
220
0.0
230
1.0
 70
     8
 71
     3
 72
    13
 73
     9
 74
     0
 42
0.000000001
 43
0.00000001
 40
0.0
 40
0.0
 40
0.0
 40
0.0
 40
0.1237345749994085
 40
0.2484232101745676
 40
0.3734713343328618
 40
0.4987444967637456
 40
0.749310225773325
 40
1.0
 40
1.0
 40
1.0
 40
1.0
 10
222.2555687063069
 20
111.7338241538745
 30
0.0
 10
222.2966531024965
 20
111.7411873956273
 30
0.0
 10
222.3791386776849
 20
111.7559706536902
 30
0.0
 10
222.4633332473873
 20
111.8536834477611
 30
0.0
 10
222.5204029699431
 20
111.9624255303772
 30
0.0
 10
222.5595731673588
 20
112.1232186374731
 30
0.0
 10
222.5808404902826
 20
112.3277756213329
 30
0.0
 10
222.5830222296198
 20
112.4921548571111
 30
0.0
 10
222.5841133692449
 20
112.5743648143858
 30
0.0
  0
SPLINE
  5
26E
330
1F
100
AcDbEntity
  8
0
  6
Continuous
 62
     7
370
    18
100
AcDbSpline
210
0.0
220
0.0
230
1.0
 70
     8
 71
     3
 72
    13
 73
     9
 74
     0
 42
0.000000001
 43
0.00000001
 40
0.0
 40
0.0
 40
0.0
 40
0.0
 40
0.2506668541570162
 40
0.5012048357437099
 40
0.6264537829510469
 40
0.7514291871594889
 40
0.8760522367173409
 40
1.0
 40
1.0
 40
1.0
 40
1.0
 10
221.9170176069343
 20
112.5743648143858
 30
0.0
 10
221.9180659137509
 20
112.4914195785908
 30
0.0
 10
221.9201619884297
 20
112.3255717507152
 30
0.0
 10
221.9419810874685
 20
112.1191977483374
 30
0.0
 10
221.982083567739
 20
111.9571433649015
 30
0.0
 10
222.0414549093559
 20
111.8480378617823
 30
0.0
 10
222.1305562687036
 20
111.7533475363235
 30
0.0
 10
222.2139734328988
 20
111.740320150964
 30
0.0
 10
222.2555687063069
 20
111.7338241538745
 30
0.0
  0
SPLINE
  5
26F
330
1F
100
AcDbEntity
  8
0
  6
Continuous
 62
     7
370
    18
100
AcDbSpline
210
0.0
220
0.0
230
1.0
 70
     8
 71
     3
 72
    13
 73
     9
 74
     0
 42
0.000000001
 43
0.00000001
 40
0.0
 40
0.0
 40
0.0
 40
0.0
 40
0.1236770548154442
 40
0.2483884878623319
 40
0.373445561473098
 40
0.4987169325064006
 40
0.7492948497723041
 40
1.0
 40
1.0
 40
1.0
 40
1.0
 10
222.2430606607636
 20
113.4149054748972
 30
0.0
 10
222.2020720961093
 20
113.4074122756374
 30
0.0
 10
222.1197521572223
 20
113.3923632074318
 30
0.0
 10
222.0366384378007
 20
113.2940058671016
 30
0.0
 10
221.9799053887275
 20
113.1853720457657
 30
0.0
 10
221.9418895947349
 20
113.0245900166014
 30
0.0
 10
221.9201448459926
 20
112.820541106665
 30
0.0
 10
221.9180601963252
 20
112.6564374624459
 30
0.0
 10
221.9170176069343
 20
112.5743648143858
 30
0.0
  0
SPLINE
  5
270
330
1F
100
AcDbEntity
  8
0
  6
Continuous
 62
     7
370
    18
100
AcDbSpline
210
0.0
220
0.0
230
1.0
 70
     8
 71
     3
 72
    13
 73
     9
 74
     0
 42
0.000000001
 43
0.00000001
 40
0.0
 40
0.0
 40
0.0
 40
0.0
 40
0.2506736071386386
 40
0.5012152607337983
 40
0.6264526015104127
 40
0.7514497498805398
 40
0.8760271183236261
 40
1.0
 40
1.0
 40
1.0
 40
1.0
 10
222.5841133692449
 20
112.5743648143858
 30
0.0
 10
222.5830748663328
 20
112.6575109681396
 30
0.0
 10
222.5809984071723
 20
112.823759507858
 30
0.0
 10
222.5590841627611
 20
113.0306506356617
 30
0.0
 10
222.5186917075245
 20
113.193026211392
 30
0.0
 10
222.4589240767743
 20
113.3023669586515
 30
0.0
 10
222.3684039914216
 20
113.396105210353
 30
0.0
 10
222.2847739735065
 20
113.4086488890025
 30
0.0
 10
222.2430606607636
 20
113.4149054748972
 30
0.0
  0
CIRCLE
  5
271
330
1F
100
AcDbEntity
  8
0
  6
Continuous
 62
     7
370
    18
100
AcDbCircle
 10
225.8929083503
 20
114.935883813
 30
0.0
 40
25.40000000000001
  0
OLE2FRAME
  5
272
330
1F
100
AcDbEntity
  8
0
100
AcDbOle2Frame
 70
     2
  3
Paintbrush Picture
 10
229.0524258301
 20
33.6996297921
 30
0.0
 11
265.1686469208
 21
28.555479607
 31
0.0
 71
     2
 72
     0
 73
     1
 90
     7296
310
80557333EF78ADA16C40002412788DD94040000000000000000041161DC7B292
310
7040002412788DD94040000000000000000041161DC7B2927040F6DD59E9338E
310
3C4000000000000000007333EF78ADA16C40F6DD59E9338E3C40000000000000
310
00000000000001000000000100000100000001000000000001000000001C0000
310
D0CF11E0A1B11AE1000000000000000000000000000000003E000300FEFF0900
310
0600000000000000000000000100000001000000000000000010000002000000
310
01000000FEFFFFFF0000000000000000FFFFFFFFFFFFFFFFFFFFFFFFFFFFFFFF
310
FFFFFFFFFFFFFFFFFFFFFFFFFFFFFFFFFFFFFFFFFFFFFFFFFFFFFFFFFFFFFFFF
310
FFFFFFFFFFFFFFFFFFFFFFFFFFFFFFFFFFFFFFFFFFFFFFFFFFFFFFFFFFFFFFFF
310
FFFFFFFFFFFFFFFFFFFFFFFFFFFFFFFFFFFFFFFFFFFFFFFFFFFFFFFFFFFFFFFF
310
FFFFFFFFFFFFFFFFFFFFFFFFFFFFFFFFFFFFFFFFFFFFFFFFFFFFFFFFFFFFFFFF
310
FFFFFFFFFFFFFFFFFFFFFFFFFFFFFFFFFFFFFFFFFFFFFFFFFFFFFFFFFFFFFFFF
310
FFFFFFFFFFFFFFFFFFFFFFFFFFFFFFFFFFFFFFFFFFFFFFFFFFFFFFFFFFFFFFFF
310
FFFFFFFFFFFFFFFFFFFFFFFFFFFFFFFFFFFFFFFFFFFFFFFFFFFFFFFFFFFFFFFF
310
FFFFFFFFFFFFFFFFFFFFFFFFFFFFFFFFFFFFFFFFFFFFFFFFFFFFFFFFFFFFFFFF
310
FFFFFFFFFFFFFFFFFFFFFFFFFFFFFFFFFFFFFFFFFFFFFFFFFFFFFFFFFFFFFFFF
310
FFFFFFFFFFFFFFFFFFFFFFFFFFFFFFFFFFFFFFFFFFFFFFFFFFFFFFFFFFFFFFFF
310
FFFFFFFFFFFFFFFFFFFFFFFFFFFFFFFFFFFFFFFFFFFFFFFFFFFFFFFFFFFFFFFF
310
FFFFFFFFFFFFFFFFFFFFFFFFFFFFFFFFFFFFFFFFFFFFFFFFFFFFFFFFFFFFFFFF
310
FFFFFFFFFFFFFFFFFFFFFFFFFFFFFFFFFFFFFFFFFFFFFFFFFFFFFFFFFFFFFFFF
310
FDFFFFFFFEFFFFFFFEFFFFFFFEFFFFFF05000000060000000700000008000000
310
090000000A0000000B0000000C000000FEFFFFFFFFFFFFFFFFFFFFFFFFFFFFFF
310
FFFFFFFFFFFFFFFFFFFFFFFFFFFFFFFFFFFFFFFFFFFFFFFFFFFFFFFFFFFFFFFF
310
FFFFFFFFFFFFFFFFFFFFFFFFFFFFFFFFFFFFFFFFFFFFFFFFFFFFFFFFFFFFFFFF
310
FFFFFFFFFFFFFFFFFFFFFFFFFFFFFFFFFFFFFFFFFFFFFFFFFFFFFFFFFFFFFFFF
310
FFFFFFFFFFFFFFFFFFFFFFFFFFFFFFFFFFFFFFFFFFFFFFFFFFFFFFFFFFFFFFFF
310
FFFFFFFFFFFFFFFFFFFFFFFFFFFFFFFFFFFFFFFFFFFFFFFFFFFFFFFFFFFFFFFF
310
FFFFFFFFFFFFFFFFFFFFFFFFFFFFFFFFFFFFFFFFFFFFFFFFFFFFFFFFFFFFFFFF
310
FFFFFFFFFFFFFFFFFFFFFFFFFFFFFFFFFFFFFFFFFFFFFFFFFFFFFFFFFFFFFFFF
310
FFFFFFFFFFFFFFFFFFFFFFFFFFFFFFFFFFFFFFFFFFFFFFFFFFFFFFFFFFFFFFFF
310
FFFFFFFFFFFFFFFFFFFFFFFFFFFFFFFFFFFFFFFFFFFFFFFFFFFFFFFFFFFFFFFF
310
FFFFFFFFFFFFFFFFFFFFFFFFFFFFFFFFFFFFFFFFFFFFFFFFFFFFFFFFFFFFFFFF
310
FFFFFFFFFFFFFFFFFFFFFFFFFFFFFFFFFFFFFFFFFFFFFFFFFFFFFFFFFFFFFFFF
310
FFFFFFFFFFFFFFFFFFFFFFFFFFFFFFFFFFFFFFFFFFFFFFFFFFFFFFFFFFFFFFFF
310
FFFFFFFFFFFFFFFFFFFFFFFFFFFFFFFFFFFFFFFFFFFFFFFFFFFFFFFFFFFFFFFF
310
FFFFFFFFFFFFFFFFFFFFFFFFFFFFFFFFFFFFFFFFFFFFFFFFFFFFFFFFFFFFFFFF
310
52006F006F007400200045006E00740072007900000000000000000000000000
310
0000000000000000000000000000000000000000000000000000000000000000
310
16000500FFFFFFFFFFFFFFFF020000000A00030000000000C000000000000046
310
000000000000000000000000A00A32F14796D40103000000C000000000000000
310
01004F006C006500000000000000000000000000000000000000000000000000
310
0000000000000000000000000000000000000000000000000000000000000000
310
0A000200FFFFFFFFFFFFFFFFFFFFFFFF00000000000000000000000000000000
310
0000000000000000000000000000000000000000000000001400000000000000
310
010043006F006D0070004F0062006A0000000000000000000000000000000000
310
0000000000000000000000000000000000000000000000000000000000000000
310
120002010100000003000000FFFFFFFF00000000000000000000000000000000
310
0000000000000000000000000000000000000000010000004D00000000000000
310
01004F006C006500310030004E00610074006900760065000000000000000000
310
0000000000000000000000000000000000000000000000000000000000000000
310
1A000200FFFFFFFFFFFFFFFFFFFFFFFF00000000000000000000000000000000
310
000000000000000000000000000000000000000004000000E411000000000000
310
FEFFFFFF02000000FEFFFFFFFFFFFFFFFFFFFFFFFFFFFFFFFFFFFFFFFFFFFFFF
310
FFFFFFFFFFFFFFFFFFFFFFFFFFFFFFFFFFFFFFFFFFFFFFFFFFFFFFFFFFFFFFFF
310
FFFFFFFFFFFFFFFFFFFFFFFFFFFFFFFFFFFFFFFFFFFFFFFFFFFFFFFFFFFFFFFF
310
FFFFFFFFFFFFFFFFFFFFFFFFFFFFFFFFFFFFFFFFFFFFFFFFFFFFFFFFFFFFFFFF
310
FFFFFFFFFFFFFFFFFFFFFFFFFFFFFFFFFFFFFFFFFFFFFFFFFFFFFFFFFFFFFFFF
310
FFFFFFFFFFFFFFFFFFFFFFFFFFFFFFFFFFFFFFFFFFFFFFFFFFFFFFFFFFFFFFFF
310
FFFFFFFFFFFFFFFFFFFFFFFFFFFFFFFFFFFFFFFFFFFFFFFFFFFFFFFFFFFFFFFF
310
FFFFFFFFFFFFFFFFFFFFFFFFFFFFFFFFFFFFFFFFFFFFFFFFFFFFFFFFFFFFFFFF
310
FFFFFFFFFFFFFFFFFFFFFFFFFFFFFFFFFFFFFFFFFFFFFFFFFFFFFFFFFFFFFFFF
310
FFFFFFFFFFFFFFFFFFFFFFFFFFFFFFFFFFFFFFFFFFFFFFFFFFFFFFFFFFFFFFFF
310
FFFFFFFFFFFFFFFFFFFFFFFFFFFFFFFFFFFFFFFFFFFFFFFFFFFFFFFFFFFFFFFF
310
FFFFFFFFFFFFFFFFFFFFFFFFFFFFFFFFFFFFFFFFFFFFFFFFFFFFFFFFFFFFFFFF
310
FFFFFFFFFFFFFFFFFFFFFFFFFFFFFFFFFFFFFFFFFFFFFFFFFFFFFFFFFFFFFFFF
310
FFFFFFFFFFFFFFFFFFFFFFFFFFFFFFFFFFFFFFFFFFFFFFFFFFFFFFFFFFFFFFFF
310
FFFFFFFFFFFFFFFFFFFFFFFFFFFFFFFFFFFFFFFFFFFFFFFFFFFFFFFFFFFFFFFF
310
FFFFFFFFFFFFFFFFFFFFFFFFFFFFFFFFFFFFFFFFFFFFFFFFFFFFFFFFFFFFFFFF
310
0100000200000000000000000000000000000000000000000000000000000000
310
0000000000000000000000000000000000000000000000000000000000000000
310
0100FEFF030A0000FFFFFFFF0A00030000000000C00000000000004607000000
310
5042727573680007000000504272757368000700000050427275736800F439B2
310
7100000000000000000000000000000000000000000000000000000000000000
310
0000000000000000000000000000000000000000000000000000000000000000
310
0000000000000000000000000000000000000000000000000000000000000000
310
0000000000000000000000000000000000000000000000000000000000000000
310
0000000000000000000000000000000000000000000000000000000000000000
310
0000000000000000000000000000000000000000000000000000000000000000
310
0000000000000000000000000000000000000000000000000000000000000000
310
0000000000000000000000000000000000000000000000000000000000000000
310
0000000000000000000000000000000000000000000000000000000000000000
310
0000000000000000000000000000000000000000000000000000000000000000
310
0000000000000000000000000000000000000000000000000000000000000000
310
0000000000000000000000000000000000000000000000000000000000000000
310
E0110000424DDE11000000000000360400002800000096000000170000000100
310
08000000000000000000E7240000E72400000001000000010000000000FF0101
310
01FF020202FF030303FF040404FF050505FF060606FF070707FF080808FF0909
310
09FF0A0A0AFF0B0B0BFF0C0C0CFF0D0D0DFF0E0E0EFF0F0F0FFF101010FF1111
310
11FF121212FF131313FF141414FF151515FF161616FF171717FF181818FF1919
310
19FF1A1A1AFF1B1B1BFF1C1C1CFF1D1D1DFF1E1E1EFF1F1F1FFF202020FF2121
310
21FF222222FF232323FF242424FF252525FF262626FF272727FF282828FF2929
310
29FF2A2A2AFF2B2B2BFF2C2C2CFF2D2D2DFF2E2E2EFF2F2F2FFF303030FF3131
310
31FF323232FF333333FF343434FF353535FF363636FF373737FF383838FF3939
310
39FF3A3A3AFF3B3B3BFF3C3C3CFF3D3D3DFF3E3E3EFF3F3F3FFF404040FF4141
310
41FF424242FF434343FF444444FF454545FF464646FF474747FF484848FF4949
310
49FF4A4A4AFF4B4B4BFF4C4C4CFF4D4D4DFF4E4E4EFF4F4F4FFF505050FF5151
310
51FF525252FF535353FF545454FF555555FF565656FF575757FF585858FF5959
310
59FF5A5A5AFF5B5B5BFF5C5C5CFF5D5D5DFF5E5E5EFF5F5F5FFF606060FF6161
310
61FF626262FF636363FF646464FF656565FF666666FF676767FF686868FF6969
310
69FF6A6A6AFF6B6B6BFF6C6C6CFF6D6D6DFF6E6E6EFF6F6F6FFF707070FF7171
310
71FF727272FF737373FF747474FF757575FF767676FF777777FF787878FF7979
310
79FF7A7A7AFF7B7B7BFF7C7C7CFF7D7D7DFF7E7E7EFF7F7F7FFF808080FF8181
310
81FF828282FF838383FF848484FF858585FF868686FF878787FF888888FF8989
310
89FF8A8A8AFF8B8B8BFF8C8C8CFF8D8D8DFF8E8E8EFF8F8F8FFF909090FF9191
310
91FF929292FF939393FF949494FF959595FF969696FF979797FF989898FF9999
310
99FF9A9A9AFF9B9B9BFF9C9C9CFF9D9D9DFF9E9E9EFF9F9F9FFFA0A0A0FFA1A1
310
A1FFA2A2A2FFA3A3A3FFA4A4A4FFA5A5A5FFA6A6A6FFA7A7A7FFA8A8A8FFA9A9
310
A9FFAAAAAAFFABABABFFACACACFFADADADFFAEAEAEFFAFAFAFFFB0B0B0FFB1B1
310
B1FFB2B2B2FFB3B3B3FFB4B4B4FFB5B5B5FFB6B6B6FFB7B7B7FFB8B8B8FFB9B9
310
B9FFBABABAFFBBBBBBFFBCBCBCFFBDBDBDFFBEBEBEFFBFBFBFFFC0C0C0FFC1C1
310
C1FFC2C2C2FFC3C3C3FFC4C4C4FFC5C5C5FFC6C6C6FFC7C7C7FFC8C8C8FFC9C9
310
C9FFCACACAFFCBCBCBFFCCCCCCFFCDCDCDFFCECECEFFCFCFCFFFD0D0D0FFD1D1
310
D1FFD2D2D2FFD3D3D3FFD4D4D4FFD5D5D5FFD6D6D6FFD7D7D7FFD8D8D8FFD9D9
310
D9FFDADADAFFDBDBDBFFDCDCDCFFDDDDDDFFDEDEDEFFDFDFDFFFE0E0E0FFE1E1
310
E1FFE2E2E2FFE3E3E3FFE4E4E4FFE5E5E5FFE6E6E6FFE7E7E7FFE8E8E8FFE9E9
310
E9FFEAEAEAFFEBEBEBFFECECECFFEDEDEDFFEEEEEEFFEFEFEFFFF0F0F0FFF1F1
310
F1FFF2F2F2FFF3F3F3FFF4F4F4FFF5F5F5FFF6F6F6FFF7F7F7FFF8F8F8FFF9F9
310
F9FFFAFAFAFFFBFBFBFFFCFCFCFFFDFDFDFFFEFEFEFFFFFFFFFFFFFFFFFFFFFF
310
C94E4E4E4F4E4EFFFFFFFFFFC94E4E4E4E4E72FFFFFFFFFFFFFF734E4D4E4E4E
310
C9FFFFFFFFFFAA683516171616265B9BE9FFFFFFFFFF4E4E4E4D4E4EFFFFFFFF
310
FFFFFFFF4E4E4F4E4D4E4E4E4F4E4E4F4D4E4E4E4E4E4D4E4F4E4D4E4E4EAAFF
310
FFFFFFFFFFEA4E4F4F4E4E4E4E4E4D4D4F4F4E4E4E4E4E5B7FAAFFFFFFFFFFFF
310
C9744E1716171616164D8DEAFFFFFFFF0000FFFFFFFFFFFFBA161617161716FF
310
FFFFFFFFB917171616174FFFFFFFFFFFFFFF4E1716161616B9FFFFFFB9341717
310
1716171617171616268CFFFFFFFF161617161617FFFFFFFFFFFFFFB917161717
310
1617167F807F7F7F7F7F7F807F7F807F7F807F7F7F414EFFFFFFFFFFFF8C167F
310
7F807F7F7F7E7F7F807F807F7F807F4E3417258EFFFFEA4E162674AABAEAEBBA
310
AA74341680FFFFFF0000FFFFFFFFFFFFB9171717171617FFFFFFFFFFBB161616
310
16164EFFFFFFFFFFFFFF4E1717171717B9FFFF9C171617171716161616171616
310
171766FFFFFF161717161617FFFFFFFFFFFFFF8E16171717161616FFFFFFFFFF
310
FFFFFFFFFFFFFFFFFFFFFFFFFFAA16D9FFFFFFFFFF3467FFFFFFFFEAFFFFFFFF
310
FFFFFFFFFFFFFFFFFFCA671667EB26278DFFFFFFFFFFFFFFFFFFFF8C2541EAFF
310
0000FFFFFFFFFFFFB9171717171716FFFFFFFFFFBA16171617174EFFFFFFFFFF
310
FFFF4E1717161616BAFF9B1617161616171716171617161616161667FFFF1616
310
16161716FFFFFFFFFFFFFF7F16161617174017FFFFFFFFFFFFFFFFFFFFFFFFFF
310
FFFFFFFFFFFF344E7F7F7F7E7417DAFFFFFFFF80FFFFFFFFFFFFFFFFFFFFFFFF
310
FFFFFF9B163425CAFFFFFFFFFFFFFFFFFFFFFFFFCA2667FF0000FFFFFFFFFFFF
310
BA171717171617FFFFFFFFFFB916171716164EFFFFFFFFFFFFFF4F1716161717
310
B9C91716171616161716161617171616161617168DFF161716161717FFFFFFFF
310
FFFFFF7F17171716164F16FFFFFFFFFFFFFFFFFFFFFFFFFFFFFFFFFFFFFF9B16
310
17161617174EFFFFFFFFFF34FFFFFFFFD9BABABABABADAFFFFFFFFFF7F16AAFF
310
FFFFFFFFFFFFFFFFFFFFFFFFFF9C16BA0000FFFFFFFFFFFFB9161717161717FF
310
FFFFFFFFB917161716174DFFFFFFFFFFFFFF4E1616161616BA4E161617171716
310
419BEAEAAA4E16161617161726E9171717161616FFFFFFFFFFFFFF4F16161717
310
164E16FFFFFFFFFFBAB9B9B9B9B9BABABACAFFFFFFFFFFFFFFFFFFFFFFFFFFFF
310
FFFFBA16FFFFFFFF7F1617161617174DEAFFFFFFEA41FFFFFFFFFFAA4D16174E
310
9BFFFFFFFFFF34730000FFFFFFFFFFFFB9161617171617FFFFFFFFFFBA161616
310
16164EFFFFFFFFFFFFFF4F16161717169B1617161716175BFFFFFFFFFFFF7417
310
16171616168D171717161617FFFFFFFFFFFFEA2616171717167416FFFFFFFFFF
310
16171616171717171717EAFFFFFFFFFFFFFFFFFFFFFFFFFFFFFF6716FFFFFFFF
310
7F4EFFFFFFFFBA2573FFFFFFFFBAFFFFFFFFAA167FB9BB9B269BFFFFFFFF664F
310
0000FFFFFFFFFFFFB9171616161616FFFFFFFFFFBA16161717164EFFFFFFFFFF
310
FFFF4E16161616174E161617171626EAFFFFFFFFFFFFFF4E16161616164E1716
310
16161617FFFFFFFFFFFF671616161716347F16FFFFFFFFFF16B9FFFFFFFFFFFF
310
D9168DFFFFFFFFFFFFFFFFFFFFFFFFFFFFEA1716FFFFFFFF7F4EFFFFFFFFFF7F
310
4EFFFFFFFFFFFFFFFFFF5B66FFFFFFEA347FFFFFFFFF7F4D0000FFFFFFFFFFFF
310
B9171616171617FFFFFFFFFFBA17161716174EFFFFFFFFFFFFFF4D1716161617
310
17161716161673FFFFFFFFFFFFFFFF9B1617161717161616171616174F4E4E4E
310
4E341616171616167E7F16FFFFFFFFFF16BAFFFFFFFFFFFFFF5B41FFFFFFFF34
310
1616171616BAFFFFFF9B1716FFFFFFFF7F4EFFFFFFFFFF4E4EFFFFFFFF734E4E
310
4E4E267EDA9B67164EEAFFFFFFFF744D0000FFFFFFFFFFFFBA171717161617FF
310
FFFFFFFFBA1616171616347F7F7F7F80807F331616161717161717161716B9FF
310
FFFFFFFFFFFFFFE9161616161616171716161716171616161616171616171734
310
EA7F16FFFFFFFFFF16BAFFFFFFFFFFFFFFAA17C9FFFFFF7326BABA5B25FFFFFF
310
FF401716FFFFFFFF7F264F4E4E4E4217AAFFFFFFEA16677F73261616164173CA
310
FFFFFFFFFFFF417F0000FFFFFFFFFFFFBA171616171617FFFFFFFFFFBA161616
310
17171616161616161616161717161616161616161617EAFFFFFFFFFFFFFFFFFF
310
261717161716161617161616161617161617161616174EEAFF8016FFFFFFFFFF
310
17BAFFFFFFFFFFFFFFFF3467FFFFFFC916C9FF3467FFFFFFDA166716FFFFFFFF
310
9C4D4E4E4E4E67AAFFFFFFFF6834FF7F262567AAEAFFFFFFFFFFFFFFFF9B17D9
310
0000FFFFFFFFFFFFB9161616161616FFFFFFFFFFBA1617161717171616161616
310
1716171716161716161617171716FFFFFFFFFFFFFFFFFFFF4E17161716171616
310
1617171616161716171717161616169BFF7F17FFFFFFFFFF17B9FFFFFFFFFFFF
310
FFFF7326FFFFFFFF3473DA16AAFFFFFF7317AA16FFFFFFFFFFFFFFFFFFFFFFFF
310
FFFFEA6725BA4E167FEAFFFFFFFFFFFFFFFFFFFF9C167FFF0000FFFFFFFFFFFF
310
B9161717171716FFFFFFFFFFBA16161716171616171717161617161716161616
310
171617171617EAFFFFFFFFFFFFFFFFFF26161717161616161616161617171616
310
1616161616171616AA8016FFFFFFFFFF16BAFFFFFFFFFFFFFFFFDA179BFFFFFF
310
74348D26FFFFFFFF2566B917FFFFFFFFD8BAB9BAB9BADAFFFFEA41169B7425C9
310
FFFFFFFFFFFFFFFFFFFFAB4F1680FFFF0000FFFFFFFFFFFFBA161717171617FF
310
FFFFFFFFBA17161717161617171617161616161617171616171716171617BBFF
310
FFFFFFFFFFFFFFE9171616161617161617161716FFFFFFFFFFD9671616161617
310
348017FFFFFFFFFF16BAFFFFFFFFFFFFFFFFFF4E5AFFFFFFC916265AFFFFFFAA
310
16AABA16FFFFFFFF7F1617161616179BFFFFEB4127168DFFFFFFFFFFFFFFD99B
310
6734175AC9FFFFFF0000FFFFFFFFFFFFB9161617171617FFFFFFFFFFBB161616
310
1616347F807F7F7F7F8033171716171617171616161672FFFFFFFFFFFFFFFF9C
310
171617171617161716161617FFFFFFFFFFFFFF4117161616174E17FFFFFFFFFF
310
16BAFFFFFFFFFFFFFFFFFF9B16DAFFFFFF34169BFFFFFF5A26FFB917FFFFFFFF
310
7F4EFFFFFFEA5B26FFFFFFEA2616EAFFFFFFFFDA743416331617414E4E4E4ECA
310
0000FFFFFFFFFFFFBA161716161616FFFFFFFFFFBA17171616164EFFFFFFFFFF
310
FFFF4E16161717174E161717171626EBFFFFFFFFFFFFFF4E16161617165B1616
310
16171617FFFFFFFFFFFFFF6716161616161617FFFFFFFFFF16BAFFFFFFFFFFFF
310
FFFFFFEA268CFFFFFF7316EAFFFFEB1774FFB916FFFFFFFF7F4EFFFFFFFF7316
310
FFFFFFFF6826FFFFFFFFEB264D9CEABA257F807F7F6616BA0000FFFFFFFFFFFF
310
BA161716161616FFFFFFFFFFBA16171616164DFFFFFFFFFFFFFF4E1617161617
310
9B1617171717165BEBFFFFFFFFFF671616161617179B171616161616FFFFFFFF
310
FFFFFF3417161617171617FFFFFFFFFF17BAFFFFFFFFFFFFFFFFFFFF6734FFFF
310
FFEBCAFFFFFF8D17C9FFBA17FFFFFFFF7F357F808066174FFFFFFFFF7F16FFFF
310
FFFFD91673B99B415BFFFFFFFFBA16DA00009B7F7F7F807F671617161616167F
310
80807F7E6617161616164EFFFFFFFFFFFFFF4E1616161617B94E171716161616
310
349BC9D9AA4E16171616161634FF161617161717B9B9BAB9BA9B411716171716
310
163416FFFFFFFFFF16B9FFFFFFFFFFFFFFFFFFFFC917CAFFFFFFFFFFFFFF3342
310
FFFFBA17FFFFFFFF9B4E4E4F4E4E66EAFFFFFFFF5B16C9FFFFFFFFAA4E164E73
310
EAFFFFFFFF8D26FF00004E161716161616171617171616171717171617161616
310
17174EFFFFFFFFFFFFFF4E1717171616B9D92616171716171716171717171716
310
16171716AAFF161717171617161617171616161617161716166717FFFFFFFFFF
310
17B9FFFFFFFFFFFFFFFFFFFFFF3467FFFFFFFFFFFFCA168CFFFFBB17FFFFFFFF
310
FFFFFFFFFFFFFFFFFFFFFFEA26265BFFFFFFFFFFFFFFFFFFFFFFFFFFEA3467FF
310
00004D16161616161617161717161617161616171617171616164EFFFFFFFFFF
310
FFFF4D1617161616BAFF9B1616161616161716161616171717161766FFFF1616
310
16171617161617161716171616171717667F16FFFFFFFFFF17BAFFFFFFFFFFFF
310
FFFFFFFFFF8C26EAFFFFFFFFFF6617EAFFFFBA17FFFFFFFFFFFFFFFFFFFFFFFF
310
FFFFEA5A25BA269BFFFFFFFFFFFFFFFFFFFFFFFF6616DAFF00004E1616171616
310
1616161616161716161617171616171616174EFFFFFFFFFFFFFF4D1717171716
310
B9FFFF9C161616161616161716161717171667FFFFFF17161717171716161617
310
1716161616161641E97E16FFFFFFFFFF16B9FFFFFFFFFFFFFFFFFFFFFFEA169B
310
FFFFFFFFEA265BFFFFFFB916FFFFFFFFFFFFFFFFFFFFFFFFFF9B3416AAFF9B17
310
67EAFFFFFFFFFFFFFFFFEA5B169BFFFF00004D17161716161616161717171616
310
161717161716171716174EFFFFFFFFFFFFFF4D1616161616BAFFFFFFBB411616
310
161716161616171634ABFFFFFFFF161716161617171716171617171617267FFF
310
FF7F164E4E4E4E4F17BAFFFFFFFFFFFFFFFFFFFFFFFF66344D4E4E4F4117AAFF
310
FFFFBA174E4E4E4D4E4D4D4E4E4E4E4116174EBBFFFFFFCA342666ABEAFFFFEA
310
AA6725269CFFFFFF0000724F4E4D4D4D4E4D4D4E4E4E4D4E4E4E4E4E4E4E4E4D
310
4E4E74FFFFFFFFFFFFFF734E4E4E4D4ECAFFFFFFFFFFAA663416171717265B9B
310
FFFFFFFFFFFF7F8080807F80807F7F7F7F7F807FBAFFFFFFFF9B4E4E4F4D4D4E
310
4DC9FFFFFFFFFFFFFFFFFFFFFFFFBA4E4E4E4E4D4E4EFFFFFFFFC94E4E4E4F4E
310
4E4E4D4E4E5A807F9CD9FFFFFFFFFFFFFF9B5B2617171716174E8DEAFFFFFFFF
310
0000000000000000000000000000000000000000000000000000000000000000
  1
OLE
  0
ENDSEC
  0
SECTION
  2
OBJECTS
  0
DICTIONARY
  5
C
330
0
100
AcDbDictionary
281
     1
  3
ACAD_GROUP
350
D
  3
ACAD_LAYOUT
350
1A
  3
ACAD_MLINESTYLE
350
17
  3
ACAD_PLOTSETTINGS
350
19
  3
ACAD_PLOTSTYLENAME
350
E
  3
ACAD_SCALELIST
350
47
  0
DICTIONARY
  5
D
102
{ACAD_REACTORS
330
C
102
}
330
C
100
AcDbDictionary
281
     1
  0
DICTIONARY
  5
1A
102
{ACAD_REACTORS
330
C
102
}
330
C
100
AcDbDictionary
281
     1
  3
Layout1
350
1E
  3
Layout2
350
26
  3
Model
350
22
  0
DICTIONARY
  5
17
102
{ACAD_REACTORS
330
C
102
}
330
C
100
AcDbDictionary
281
     1
  3
Standard
350
18
  0
DICTIONARY
  5
19
102
{ACAD_REACTORS
330
C
102
}
330
C
100
AcDbDictionary
281
     1
  0
ACDBDICTIONARYWDFLT
  5
E
102
{ACAD_REACTORS
330
C
102
}
330
C
100
AcDbDictionary
281
     1
  3
Normal
350
F
100
AcDbDictionaryWithDefault
340
F
  0
DICTIONARY
  5
47
102
{ACAD_REACTORS
330
C
102
}
330
C
100
AcDbDictionary
281
     1
  3
A0
350
48
  3
A1
350
49
  3
A2
350
4A
  3
A3
350
4B
  3
A4
350
4C
  3
A5
350
4D
  3
A6
350
4E
  3
A7
350
4F
  3
A8
350
50
  3
A9
350
51
  3
B0
350
52
  3
B1
350
53
  3
B2
350
54
  3
B3
350
55
  3
B4
350
56
  3
B5
350
57
  3
B6
350
58
  3
B7
350
59
  3
B8
350
5A
  3
B9
350
5B
  3
C0
350
5C
  3
C1
350
5D
  3
C2
350
5E
  3
C3
350
5F
  3
C4
350
60
  3
C5
350
61
  3
C6
350
62
  3
C7
350
63
  3
C8
350
64
  3
C9
350
65
  3
D0
350
66
  3
D1
350
67
  3
D2
350
68
  0
LAYOUT
  5
1E
102
{ACAD_REACTORS
330
1A
102
}
330
1A
100
AcDbPlotSettings
  1

  2
none_device
  4

  6

 40
0.0
 41
0.0
 42
0.0
 43
0.0
 44
0.0
 45
0.0
 46
0.0
 47
0.0
 48
0.0
 49
0.0
140
0.0
141
0.0
142
1.0
143
1.0
 70
   688
 72
     1
 73
     0
 74
     5
  7

 75
    16
147
1.0
148
0.0
149
0.0
100
AcDbLayout
  1
Layout1
 70
     1
 71
     1
 10
0.0
 20
0.0
 11
420.0
 21
297.0
 12
0.0
 22
0.0
 32
0.0
 14
1.0000000000E+20
 24
1.0000000000E+20
 34
1.0000000000E+20
 15
-1.0000000000E+20
 25
-1.0000000000E+20
 35
-1.0000000000E+20
146
0.0
 13
0.0
 23
0.0
 33
0.0
 16
1.0
 26
0.0
 36
0.0
 17
0.0
 27
1.0
 37
0.0
 76
     0
330
1B
  0
LAYOUT
  5
26
102
{ACAD_REACTORS
330
1A
102
}
330
1A
100
AcDbPlotSettings
  1

  2
none_device
  4

  6

 40
0.0
 41
0.0
 42
0.0
 43
0.0
 44
0.0
 45
0.0
 46
0.0
 47
0.0
 48
0.0
 49
0.0
140
0.0
141
0.0
142
1.0
143
1.0
 70
   688
 72
     1
 73
     0
 74
     5
  7

 75
    16
147
1.0
148
0.0
149
0.0
100
AcDbLayout
  1
Layout2
 70
     1
 71
     2
 10
0.0
 20
0.0
 11
0.0
 21
0.0
 12
0.0
 22
0.0
 32
0.0
 14
0.0
 24
0.0
 34
0.0
 15
0.0
 25
0.0
 35
0.0
146
0.0
 13
0.0
 23
0.0
 33
0.0
 16
1.0
 26
0.0
 36
0.0
 17
0.0
 27
1.0
 37
0.0
 76
     0
330
23
  0
LAYOUT
  5
22
102
{ACAD_REACTORS
330
1A
102
}
330
1A
100
AcDbPlotSettings
  1

  2
none_device
  4
Letter_(8.50_x_11.00_Inches)
  6

 40
6.35
 41
6.35
 42
6.35000508
 43
6.35000508
 44
215.9
 45
279.4
 46
0.0
 47
0.0
 48
0.0
 49
0.0
140
0.0
141
0.0
142
1.0
143
1.0
 70
  1712
 72
     1
 73
     0
 74
     0
  7

 75
     0
147
1.0
148
0.0
149
0.0
100
AcDbLayout
  1
Model
 70
     1
 71
     0
 10
0.0
 20
0.0
 11
279.4
 21
215.9
 12
0.0
 22
0.0
 32
0.0
 14
0.0
 24
0.0
 34
0.0
 15
279.4
 25
215.9
 35
0.0
146
0.0
 13
0.0
 23
0.0
 33
0.0
 16
1.0
 26
0.0
 36
0.0
 17
0.0
 27
1.0
 37
0.0
 76
     0
330
1F
331
29
  0
MLINESTYLE
  5
18
102
{ACAD_REACTORS
330
17
102
}
330
17
100
AcDbMlineStyle
  2
Standard
 70
     0
  3

 62
   256
 51
90.0
 52
90.0
 71
     2
 49
0.5
 62
   256
  6
BYLAYER
 49
-0.5
 62
   256
  6
BYLAYER
  0
ACDBPLACEHOLDER
  5
F
102
{ACAD_REACTORS
330
E
102
}
330
E
  0
SCALE
  5
48
102
{ACAD_REACTORS
330
47
102
}
330
47
100
AcDbScale
 70
     0
300
1:1
140
1.0
141
1.0
290
     1
  0
SCALE
  5
49
102
{ACAD_REACTORS
330
47
102
}
330
47
100
AcDbScale
 70
     0
300
1:2
140
1.0
141
2.0
290
     0
  0
SCALE
  5
4A
102
{ACAD_REACTORS
330
47
102
}
330
47
100
AcDbScale
 70
     0
300
1:4
140
1.0
141
4.0
290
     0
  0
SCALE
  5
4B
102
{ACAD_REACTORS
330
47
102
}
330
47
100
AcDbScale
 70
     0
300
1:5
140
1.0
141
5.0
290
     0
  0
SCALE
  5
4C
102
{ACAD_REACTORS
330
47
102
}
330
47
100
AcDbScale
 70
     0
300
1:8
140
1.0
141
8.0
290
     0
  0
SCALE
  5
4D
102
{ACAD_REACTORS
330
47
102
}
330
47
100
AcDbScale
 70
     0
300
1:10
140
1.0
141
10.0
290
     0
  0
SCALE
  5
4E
102
{ACAD_REACTORS
330
47
102
}
330
47
100
AcDbScale
 70
     0
300
1:16
140
1.0
141
16.0
290
     0
  0
SCALE
  5
4F
102
{ACAD_REACTORS
330
47
102
}
330
47
100
AcDbScale
 70
     0
300
1:20
140
1.0
141
20.0
290
     0
  0
SCALE
  5
50
102
{ACAD_REACTORS
330
47
102
}
330
47
100
AcDbScale
 70
     0
300
1:30
140
1.0
141
30.0
290
     0
  0
SCALE
  5
51
102
{ACAD_REACTORS
330
47
102
}
330
47
100
AcDbScale
 70
     0
300
1:40
140
1.0
141
40.0
290
     0
  0
SCALE
  5
52
102
{ACAD_REACTORS
330
47
102
}
330
47
100
AcDbScale
 70
     0
300
1:50
140
1.0
141
50.0
290
     0
  0
SCALE
  5
53
102
{ACAD_REACTORS
330
47
102
}
330
47
100
AcDbScale
 70
     0
300
1:100
140
1.0
141
100.0
290
     0
  0
SCALE
  5
54
102
{ACAD_REACTORS
330
47
102
}
330
47
100
AcDbScale
 70
     0
300
2:1
140
2.0
141
1.0
290
     0
  0
SCALE
  5
55
102
{ACAD_REACTORS
330
47
102
}
330
47
100
AcDbScale
 70
     0
300
4:1
140
4.0
141
1.0
290
     0
  0
SCALE
  5
56
102
{ACAD_REACTORS
330
47
102
}
330
47
100
AcDbScale
 70
     0
300
8:1
140
8.0
141
1.0
290
     0
  0
SCALE
  5
57
102
{ACAD_REACTORS
330
47
102
}
330
47
100
AcDbScale
 70
     0
300
10:1
140
10.0
141
1.0
290
     0
  0
SCALE
  5
58
102
{ACAD_REACTORS
330
47
102
}
330
47
100
AcDbScale
 70
     0
300
100:1
140
100.0
141
1.0
290
     0
  0
SCALE
  5
59
102
{ACAD_REACTORS
330
47
102
}
330
47
100
AcDbScale
 70
     0
300
1/128" = 1'-0"
140
0.0078125
141
12.0
290
     0
  0
SCALE
  5
5A
102
{ACAD_REACTORS
330
47
102
}
330
47
100
AcDbScale
 70
     0
300
1/64" = 1'-0"
140
0.015625
141
12.0
290
     0
  0
SCALE
  5
5B
102
{ACAD_REACTORS
330
47
102
}
330
47
100
AcDbScale
 70
     0
300
1/32" = 1'-0"
140
0.03125
141
12.0
290
     0
  0
SCALE
  5
5C
102
{ACAD_REACTORS
330
47
102
}
330
47
100
AcDbScale
 70
     0
300
1/16" = 1'-0"
140
0.0625
141
12.0
290
     0
  0
SCALE
  5
5D
102
{ACAD_REACTORS
330
47
102
}
330
47
100
AcDbScale
 70
     0
300
3/32" = 1'-0"
140
0.09375
141
12.0
290
     0
  0
SCALE
  5
5E
102
{ACAD_REACTORS
330
47
102
}
330
47
100
AcDbScale
 70
     0
300
1/8" = 1'-0"
140
0.125
141
12.0
290
     0
  0
SCALE
  5
5F
102
{ACAD_REACTORS
330
47
102
}
330
47
100
AcDbScale
 70
     0
300
3/16" = 1'-0"
140
0.1875
141
12.0
290
     0
  0
SCALE
  5
60
102
{ACAD_REACTORS
330
47
102
}
330
47
100
AcDbScale
 70
     0
300
1/4" = 1'-0"
140
0.25
141
12.0
290
     0
  0
SCALE
  5
61
102
{ACAD_REACTORS
330
47
102
}
330
47
100
AcDbScale
 70
     0
300
3/8" = 1'-0"
140
0.375
141
12.0
290
     0
  0
SCALE
  5
62
102
{ACAD_REACTORS
330
47
102
}
330
47
100
AcDbScale
 70
     0
300
1/2" = 1'-0"
140
0.5
141
12.0
290
     0
  0
SCALE
  5
63
102
{ACAD_REACTORS
330
47
102
}
330
47
100
AcDbScale
 70
     0
300
3/4" = 1'-0"
140
0.75
141
12.0
290
     0
  0
SCALE
  5
64
102
{ACAD_REACTORS
330
47
102
}
330
47
100
AcDbScale
 70
     0
300
1" = 1'-0"
140
1.0
141
12.0
290
     0
  0
SCALE
  5
65
102
{ACAD_REACTORS
330
47
102
}
330
47
100
AcDbScale
 70
     0
300
1-1/2" = 1'-0"
140
1.5
141
12.0
290
     0
  0
SCALE
  5
66
102
{ACAD_REACTORS
330
47
102
}
330
47
100
AcDbScale
 70
     0
300
3" = 1'-0"
140
3.0
141
12.0
290
     0
  0
SCALE
  5
67
102
{ACAD_REACTORS
330
47
102
}
330
47
100
AcDbScale
 70
     0
300
6" = 1'-0"
140
6.0
141
12.0
290
     0
  0
SCALE
  5
68
102
{ACAD_REACTORS
330
47
102
}
330
47
100
AcDbScale
 70
     0
300
1'-0" = 1'-0"
140
12.0
141
12.0
290
     0
  0
ENDSEC
  0
EOF
