  0
SECTION
  2
HEADER
  9
$ACADVER
  1
AC1015
  9
$ACADMAINTVER
 70
     6
  9
$DWGCODEPAGE
  3
ANSI_1252
  9
$INSBASE
 10
0.0
 20
0.0
 30
0.0
  9
$EXTMIN
 10
0.0
 20
0.0
 30
0.0
  9
$EXTMAX
 10
11.0
 20
8.5
 30
0.0
  9
$LIMMIN
 10
0.0
 20
0.0
  9
$LIMMAX
 10
11.0
 20
8.5
  9
$ORTHOMODE
 70
     0
  9
$REGENMODE
 70
     1
  9
$FILLMODE
 70
     1
  9
$QTEXTMODE
 70
     0
  9
$MIRRTEXT
 70
     1
  9
$LTSCALE
 40
1.0
  9
$ATTMODE
 70
     1
  9
$TEXTSIZE
 40
0.1111111111
  9
$TRACEWID
 40
0.05
  9
$TEXTSTYLE
  7
Standard
  9
$CLAYER
  8
0
  9
$CELTYPE
  6
ByLayer
  9
$CECOLOR
 62
   256
  9
$CELTSCALE
 40
1.0
  9
$DISPSILH
 70
     0
  9
$DIMSCALE
 40
1.0
  9
$DIMASZ
 40
0.125
  9
$DIMEXO
 40
0.05
  9
$DIMDLI
 40
0.38
  9
$DIMRND
 40
0.0
  9
$DIMDLE
 40
0.0
  9
$DIMEXE
 40
0.07
  9
$DIMTP
 40
0.0
  9
$DIMTM
 40
0.0
  9
$DIMTXT
 40
0.1111111111
  9
$DIMCEN
 40
0.09
  9
$DIMTSZ
 40
0.0
  9
$DIMTOL
 70
     0
  9
$DIMLIM
 70
     0
  9
$DIMTIH
 70
     1
  9
$DIMTOH
 70
     1
  9
$DIMSE1
 70
     0
  9
$DIMSE2
 70
     0
  9
$DIMTAD
 70
     0
  9
$DIMZIN
 70
     1
  9
$DIMBLK
  1

  9
$DIMASO
 70
     1
  9
$DIMSHO
 70
     1
  9
$DIMPOST
  1

  9
$DIMAPOST
  1

  9
$DIMALT
 70
     0
  9
$DIMALTD
 70
     2
  9
$DIMALTF
 40
25.4
  9
$DIMLFAC
 40
1.0
  9
$DIMTOFL
 70
     0
  9
$DIMTVP
 40
0.0
  9
$DIMTIX
 70
     0
  9
$DIMSOXD
 70
     0
  9
$DIMSAH
 70
     0
  9
$DIMBLK1
  1

  9
$DIMBLK2
  1

  9
$DIMSTYLE
  2
Standard
  9
$DIMCLRD
 70
     0
  9
$DIMCLRE
 70
     0
  9
$DIMCLRT
 70
     0
  9
$DIMTFAC
 40
1.0
  9
$DIMGAP
 40
0.1
  9
$DIMJUST
 70
     0
  9
$DIMSD1
 70
     0
  9
$DIMSD2
 70
     0
  9
$DIMTOLJ
 70
     1
  9
$DIMTZIN
 70
     1
  9
$DIMALTZ
 70
     0
  9
$DIMALTTZ
 70
     0
  9
$DIMUPT
 70
     0
  9
$DIMDEC
 70
     2
  9
$DIMTDEC
 70
     2
  9
$DIMALTU
 70
     2
  9
$DIMALTTD
 70
     2
  9
$DIMTXSTY
  7
Standard
  9
$DIMAUNIT
 70
     0
  9
$DIMADEC
 70
     0
  9
$DIMALTRND
 40
0.0
  9
$DIMAZIN
 70
     0
  9
$DIMDSEP
 70
    46
  9
$DIMATFIT
 70
     3
  9
$DIMFRAC
 70
     0
  9
$DIMLDRBLK
  1

  9
$DIMLUNIT
 70
     2
  9
$DIMLWD
 70
    -2
  9
$DIMLWE
 70
    -2
  9
$DIMTMOVE
 70
     0
  9
$LUNITS
 70
     2
  9
$LUPREC
 70
     2
  9
$SKETCHINC
 40
0.1
  9
$FILLETRAD
 40
0.5
  9
$AUNITS
 70
     0
  9
$AUPREC
 70
     0
  9
$MENU
  1
.
  9
$ELEVATION
 40
0.0
  9
$PELEVATION
 40
0.0
  9
$THICKNESS
 40
0.0
  9
$LIMCHECK
 70
     0
  9
$CHAMFERA
 40
0.0
  9
$CHAMFERB
 40
0.0
  9
$CHAMFERC
 40
0.0
  9
$CHAMFERD
 40
0.0
  9
$SKPOLY
 70
     0
  9
$TDCREATE
 40
2458505.683148495
  9
$TDUCREATE
 40
2458505.891481829
  9
$TDUPDATE
 40
2458505.683153681
  9
$TDUUPDATE
 40
2458505.891487014
  9
$TDINDWG
 40
0.0000000116
  9
$TDUSRTIMER
 40
0.0000000116
  9
$USRTIMER
 70
     1
  9
$ANGBASE
 50
0.0
  9
$ANGDIR
 70
     0
  9
$PDMODE
 70
     0
  9
$PDSIZE
 40
-1.0
  9
$PLINEWID
 40
0.0
  9
$SPLFRAME
 70
     0
  9
$SPLINETYPE
 70
     6
  9
$SPLINESEGS
 70
     8
  9
$HANDSEED
  5
3A2
  9
$SURFTAB1
 70
     6
  9
$SURFTAB2
 70
     6
  9
$SURFTYPE
 70
     6
  9
$SURFU
 70
     6
  9
$SURFV
 70
     6
  9
$UCSBASE
  2

  9
$UCSNAME
  2

  9
$UCSORG
 10
0.0
 20
0.0
 30
0.0
  9
$UCSXDIR
 10
1.0
 20
0.0
 30
0.0
  9
$UCSYDIR
 10
0.0
 20
1.0
 30
0.0
  9
$UCSORTHOREF
  2

  9
$UCSORTHOVIEW
 70
     0
  9
$UCSORGTOP
 10
0.0
 20
0.0
 30
0.0
  9
$UCSORGBOTTOM
 10
0.0
 20
0.0
 30
0.0
  9
$UCSORGLEFT
 10
0.0
 20
0.0
 30
0.0
  9
$UCSORGRIGHT
 10
0.0
 20
0.0
 30
0.0
  9
$UCSORGFRONT
 10
0.0
 20
0.0
 30
0.0
  9
$UCSORGBACK
 10
0.0
 20
0.0
 30
0.0
  9
$PUCSBASE
  2

  9
$PUCSNAME
  2

  9
$PUCSORG
 10
0.0
 20
0.0
 30
0.0
  9
$PUCSXDIR
 10
1.0
 20
0.0
 30
0.0
  9
$PUCSYDIR
 10
0.0
 20
1.0
 30
0.0
  9
$PUCSORTHOREF
  2

  9
$PUCSORTHOVIEW
 70
     0
  9
$PUCSORGTOP
 10
0.0
 20
0.0
 30
0.0
  9
$PUCSORGBOTTOM
 10
0.0
 20
0.0
 30
0.0
  9
$PUCSORGLEFT
 10
0.0
 20
0.0
 30
0.0
  9
$PUCSORGRIGHT
 10
0.0
 20
0.0
 30
0.0
  9
$PUCSORGFRONT
 10
0.0
 20
0.0
 30
0.0
  9
$PUCSORGBACK
 10
0.0
 20
0.0
 30
0.0
  9
$USERI1
 70
     0
  9
$USERI2
 70
     0
  9
$USERI3
 70
     0
  9
$USERI4
 70
     0
  9
$USERI5
 70
     0
  9
$USERR1
 40
0.0
  9
$USERR2
 40
0.0
  9
$USERR3
 40
0.0
  9
$USERR4
 40
0.0
  9
$USERR5
 40
0.0
  9
$WORLDVIEW
 70
     1
  9
$SHADEDGE
 70
     3
  9
$SHADEDIF
 70
    70
  9
$TILEMODE
 70
     1
  9
$MAXACTVP
 70
    64
  9
$PINSBASE
 10
0.0
 20
0.0
 30
0.0
  9
$PLIMCHECK
 70
     0
  9
$PEXTMIN
 10
1.0000000000E+20
 20
1.0000000000E+20
 30
1.0000000000E+20
  9
$PEXTMAX
 10
-1.0000000000E+20
 20
-1.0000000000E+20
 30
-1.0000000000E+20
  9
$PLIMMIN
 10
0.0
 20
0.0
  9
$PLIMMAX
 10
12.0
 20
9.0
  9
$UNITMODE
 70
     0
  9
$VISRETAIN
 70
     1
  9
$PLINEGEN
 70
     0
  9
$PSLTSCALE
 70
     1
  9
$TREEDEPTH
 70
  3020
  9
$CMLSTYLE
  2
Standard
  9
$CMLJUST
 70
     0
  9
$CMLSCALE
 40
1.0
  9
$PROXYGRAPHICS
 70
     1
  9
$MEASUREMENT
 70
     0
  9
$CELWEIGHT
370
    -1
  9
$ENDCAPS
280
     0
  9
$JOINSTYLE
280
     0
  9
$LWDISPLAY
290
     1
  9
$INSUNITS
 70
     1
  9
$HYPERLINKBASE
  1

  9
$STYLESHEET
  1

  9
$XEDIT
290
     1
  9
$CEPSNTYPE
380
     0
  9
$PSTYLEMODE
290
     1
  9
$FINGERPRINTGUID
  2
{1E4FCCB0-AC40-485D-BB8F-E8C1FF35BE93}
  9
$VERSIONGUID
  2
{FAEB1C32-E019-11D5-929B-00C0DF256EC4}
  9
$EXTNAMES
290
     1
  9
$PSVPSCALE
 40
0.0
  9
$OLESTARTUP
290
     0
  0
ENDSEC
  0
SECTION
  2
CLASSES
  0
CLASS
  1
ACDBDICTIONARYWDFLT
  2
AcDbDictionaryWithDefault
  3
ObjectDBX Classes
 90
        0
280
     0
281
     0
  0
CLASS
  1
VISUALSTYLE
  2
AcDbVisualStyle
  3
ObjectDBX Classes
 90
     4095
280
     0
281
     0
  0
CLASS
  1
MATERIAL
  2
AcDbMaterial
  3
ObjectDBX Classes
 90
     1153
280
     0
281
     0
  0
CLASS
  1
SCALE
  2
AcDbScale
  3
ObjectDBX Classes
 90
     1153
280
     0
281
     0
  0
CLASS
  1
TABLESTYLE
  2
AcDbTableStyle
  3
ObjectDBX Classes
 90
     4095
280
     0
281
     0
  0
CLASS
  1
MLEADERSTYLE
  2
AcDbMLeaderStyle
  3
ACDB_MLEADERSTYLE_CLASS
 90
     4095
280
     0
281
     0
  0
CLASS
  1
SUN
  2
AcDbSun
  3
SCENEOE
 90
     1153
280
     0
281
     0
  0
CLASS
  1
ACDBPLACEHOLDER
  2
AcDbPlaceHolder
  3
ObjectDBX Classes
 90
        0
280
     0
281
     0
  0
CLASS
  1
LAYOUT
  2
AcDbLayout
  3
ObjectDBX Classes
 90
        0
280
     0
281
     0
  0
ENDSEC
  0
SECTION
  2
TABLES
  0
TABLE
  2
VPORT
  5
8
330
0
100
AcDbSymbolTable
 70
     1
  0
VPORT
  5
29
330
8
100
AcDbSymbolTableRecord
100
AcDbViewportTableRecord
  2
*Active
 70
     0
 10
0.0
 20
0.0
 11
1.0
 21
1.0
 12
5.5
 22
4.25
 13
0.0
 23
0.0
 14
0.5
 24
0.5
 15
0.5
 25
0.5
 16
0.0
 26
0.0
 36
1.0
 17
0.0
 27
0.0
 37
0.0
 40
8.5
 41
1.2941176471
 42
50.0
 43
0.0
 44
0.0
 50
0.0
 51
0.0
 71
     0
 72
  2000
 73
     1
 74
     3
 75
     0
 76
     0
 77
     0
 78
     0
281
     0
 65
     1
110
0.0
120
0.0
130
0.0
111
1.0
121
0.0
131
0.0
112
0.0
122
1.0
132
0.0
 79
     0
146
0.0
  0
ENDTAB
  0
TABLE
  2
LTYPE
  5
5
330
0
100
AcDbSymbolTable
 70
     6
  0
LTYPE
  5
14
330
5
100
AcDbSymbolTableRecord
100
AcDbLinetypeTableRecord
  2
ByBlock
 70
     0
  3

 72
    65
 73
     0
 40
0.0
  0
LTYPE
  5
15
330
5
100
AcDbSymbolTableRecord
100
AcDbLinetypeTableRecord
  2
ByLayer
 70
     0
  3

 72
    65
 73
     0
 40
0.0
  0
LTYPE
  5
16
330
5
100
AcDbSymbolTableRecord
100
AcDbLinetypeTableRecord
  2
Continuous
 70
     0
  3
Solid line
 72
    65
 73
     0
 40
0.0
  0
LTYPE
  5
6E
330
5
100
AcDbSymbolTableRecord
100
AcDbLinetypeTableRecord
  2
HIDDEN
 70
     0
  3
Hidden __ __ __ __ __ __ __ __ __ __ __ __ __ __
 72
    65
 73
     2
 40
0.075
 49
0.05
 74
     0
 49
-0.025
 74
     0
  0
LTYPE
  5
6F
330
5
100
AcDbSymbolTableRecord
100
AcDbLinetypeTableRecord
  2
PHANTOM
 70
     0
  3
Phantom ______  __  __  ______  __  __  ______
 72
    65
 73
     6
 40
0.5
 49
0.25
 74
     0
 49
-0.05
 74
     0
 49
0.05
 74
     0
 49
-0.05
 74
     0
 49
0.05
 74
     0
 49
-0.05
 74
     0
  0
LTYPE
  5
70
330
5
100
AcDbSymbolTableRecord
100
AcDbLinetypeTableRecord
  2
CENTER
 70
     0
  3
Center ____ _ ____ _ ____ _ ____ _ ____ _ ____
 72
    65
 73
     4
 40
0.4
 49
0.25
 74
     0
 49
-0.05
 74
     0
 49
0.05
 74
     0
 49
-0.05
 74
     0
  0
LTYPE
  5
71
330
5
100
AcDbSymbolTableRecord
100
AcDbLinetypeTableRecord
  2
CENTERX2
 70
     0
  3
Center (2x) ________  __  ________  __  _____
 72
    65
 73
     4
 40
0.8
 49
0.5
 74
     0
 49
-0.1
 74
     0
 49
0.1
 74
     0
 49
-0.1
 74
     0
  0
LTYPE
  5
72
330
5
100
AcDbSymbolTableRecord
100
AcDbLinetypeTableRecord
  2
DOT2
 70
     0
  3
Dot (.5x) ........................................
 72
    65
 73
     2
 40
0.025
 49
0.0
 74
     0
 49
-0.025
 74
     0
  0
ENDTAB
  0
TABLE
  2
LAYER
  5
2
330
0
100
AcDbSymbolTable
 70
     2
  0
LAYER
  5
10
330
2
100
AcDbSymbolTableRecord
100
AcDbLayerTableRecord
  2
0
 70
     0
 62
     7
  6
Continuous
370
    -3
390
F
  0
LAYER
  5
73
330
2
100
AcDbSymbolTableRecord
100
AcDbLayerTableRecord
  2
FORMAT
 70
     0
 62
     7
  6
Continuous
370
    -3
390
F
  0
ENDTAB
  0
TABLE
  2
STYLE
  5
3
330
0
100
AcDbSymbolTable
 70
     4
  0
STYLE
  5
11
330
3
100
AcDbSymbolTableRecord
100
AcDbTextStyleTableRecord
  2
Standard
 70
     0
 40
0.0
 41
1.0
 50
0.0
 71
     0
 42
0.1111111111
  3
txt
  4

  0
STYLE
  5
9D
330
3
100
AcDbSymbolTableRecord
100
AcDbTextStyleTableRecord
  2
SLDTEXTSTYLE0
 70
     0
 40
0.0
 41
0.75
 50
0.0
 71
     0
 42
0.1111111111
  3
TXT
  4

  0
STYLE
  5
A0
330
3
100
AcDbSymbolTableRecord
100
AcDbTextStyleTableRecord
  2
SLDTEXTSTYLE1
 70
     0
 40
0.0
 41
0.6985294118
 50
0.0
 71
     0
 42
0.1111111111
  3
TXT
  4

  0
STYLE
  5
B3
330
3
100
AcDbSymbolTableRecord
100
AcDbTextStyleTableRecord
  2
SLDTEXTSTYLE2
 70
     0
 40
0.0
 41
0.6
 50
0.0
 71
     0
 42
0.1111111111
  3
TXT
  4

  0
ENDTAB
  0
TABLE
  2
VIEW
  5
6
330
0
100
AcDbSymbolTable
 70
     0
  0
ENDTAB
  0
TABLE
  2
UCS
  5
7
330
0
100
AcDbSymbolTable
 70
     0
  0
ENDTAB
  0
TABLE
  2
APPID
  5
9
330
0
100
AcDbSymbolTable
 70
     1
  0
APPID
  5
12
330
9
100
AcDbSymbolTableRecord
100
AcDbRegAppTableRecord
  2
ACAD
 70
     0
  0
ENDTAB
  0
TABLE
  2
DIMSTYLE
  5
A
330
0
100
AcDbSymbolTable
 70
     6
100
AcDbDimStyleTable
  0
DIMSTYLE
105
27
330
A
100
AcDbSymbolTableRecord
100
AcDbDimStyleTableRecord
  2
Standard
 70
     0
178
     0
340
11
  0
DIMSTYLE
105
108
102
{ACAD_REACTORS
330
107
330
11C
102
}
330
A
100
AcDbSymbolTableRecord
100
AcDbDimStyleTableRecord
  2
SLDDIMSTYLE0
 70
     0
 41
0.125
 44
0.0
 45
0.000000001
 78
     4
 79
     1
140
0.0833333333
147
0.0208333333
148
0.000000001
170
     1
171
     1
173
     1
178
     0
271
     2
272
     2
274
     1
276
     2
284
    12
340
9D
  0
DIMSTYLE
105
131
102
{ACAD_REACTORS
330
130
102
}
330
A
100
AcDbSymbolTableRecord
100
AcDbDimStyleTableRecord
  2
SLDDIMSTYLE1
 70
     0
 41
0.125
 44
0.0
 45
0.000000001
 78
     8
 79
     2
140
0.0833333333
147
0.0208333333
148
0.000000001
170
     1
171
     1
173
     1
178
     0
271
     2
272
     2
274
     1
276
     2
284
    12
340
9D
  0
DIMSTYLE
105
14B
330
A
100
AcDbSymbolTableRecord
100
AcDbDimStyleTableRecord
  2
SLDDIMSTYLE2
 70
     0
 41
0.125
 44
0.0
 45
0.000000001
146
0.125
147
0.0
173
     1
178
     0
271
     0
272
     0
276
     2
340
11
  0
DIMSTYLE
105
170
102
{ACAD_REACTORS
330
16F
102
}
330
A
100
AcDbSymbolTableRecord
100
AcDbDimStyleTableRecord
  2
SLDDIMSTYLE3
 70
     0
 41
0.125
 44
0.0
 78
    12
 79
     3
140
0.0833333333
147
0.0208333333
148
0.000000001
170
     1
171
     1
173
     1
178
     0
272
     0
274
     1
276
     2
284
    12
340
9D
  0
DIMSTYLE
105
17C
102
{ACAD_REACTORS
330
17B
102
}
330
A
100
AcDbSymbolTableRecord
100
AcDbDimStyleTableRecord
  2
SLDDIMSTYLE4
 70
     0
 41
0.125
 44
0.0
 45
0.000000001
 78
     8
 79
     2
140
0.0833333333
147
0.0208333333
148
0.000000001
170
     1
171
     1
172
     1
173
     1
178
     0
271
     2
272
     2
274
     1
276
     2
284
    12
289
     0
340
9D
  0
ENDTAB
  0
TABLE
  2
BLOCK_RECORD
  5
1
330
0
100
AcDbSymbolTable
 70
    19
  0
BLOCK_RECORD
  5
1F
330
1
100
AcDbSymbolTableRecord
100
AcDbBlockTableRecord
  2
*Model_Space
340
22
  0
BLOCK_RECORD
  5
1B
330
1
100
AcDbSymbolTableRecord
100
AcDbBlockTableRecord
  2
*Paper_Space
340
1E
  0
BLOCK_RECORD
  5
23
330
1
100
AcDbSymbolTableRecord
100
AcDbBlockTableRecord
  2
*Paper_Space0
340
26
  0
BLOCK_RECORD
  5
74
330
1
100
AcDbSymbolTableRecord
100
AcDbBlockTableRecord
  2
Third Angle Projection Block
340
0
102
{BLKREFS
331
99
102
}
  0
BLOCK_RECORD
  5
9A
330
1
100
AcDbSymbolTableRecord
100
AcDbBlockTableRecord
  2
SW_NOTE_0
340
0
102
{BLKREFS
331
A9
102
}
  0
BLOCK_RECORD
  5
B9
330
1
100
AcDbSymbolTableRecord
100
AcDbBlockTableRecord
  2
SW_NOTE_1
340
0
102
{BLKREFS
331
BE
102
}
  0
BLOCK_RECORD
  5
BF
330
1
100
AcDbSymbolTableRecord
100
AcDbBlockTableRecord
  2
SW_NOTE_2
340
0
102
{BLKREFS
331
C4
102
}
  0
BLOCK_RECORD
  5
C6
330
1
100
AcDbSymbolTableRecord
100
AcDbBlockTableRecord
  2
SW_NOTE_3
340
0
102
{BLKREFS
331
CB
102
}
  0
BLOCK_RECORD
  5
D0
330
1
100
AcDbSymbolTableRecord
100
AcDbBlockTableRecord
  2
SW_TABLEANNOTATION_0
340
0
102
{BLKREFS
331
F7
102
}
  0
BLOCK_RECORD
  5
DF
330
1
100
AcDbSymbolTableRecord
100
AcDbBlockTableRecord
  2
SW_SYMBOL_C#_1
340
0
102
{BLKREFS
331
E4
102
}
  0
BLOCK_RECORD
  5
E7
330
1
100
AcDbSymbolTableRecord
100
AcDbBlockTableRecord
  2
SW_SYMBOL_C#_2
340
0
102
{BLKREFS
331
EC
102
}
  0
BLOCK_RECORD
  5
EF
330
1
100
AcDbSymbolTableRecord
100
AcDbBlockTableRecord
  2
SW_SYMBOL_C#_3
340
0
102
{BLKREFS
331
F4
102
}
  0
BLOCK_RECORD
  5
109
330
1
100
AcDbSymbolTableRecord
100
AcDbBlockTableRecord
  2
_D
340
0
  0
BLOCK_RECORD
  5
11D
330
1
100
AcDbSymbolTableRecord
100
AcDbBlockTableRecord
  2
_D_1
340
0
  0
BLOCK_RECORD
  5
132
330
1
100
AcDbSymbolTableRecord
100
AcDbBlockTableRecord
  2
_D_2
340
0
  0
BLOCK_RECORD
  5
145
330
1
100
AcDbSymbolTableRecord
100
AcDbBlockTableRecord
  2
SW_NOTE_4
340
0
102
{BLKREFS
331
14A
102
}
  0
BLOCK_RECORD
  5
14D
330
1
100
AcDbSymbolTableRecord
100
AcDbBlockTableRecord
  2
SW_NOTE_5
340
0
102
{BLKREFS
331
152
102
}
  0
BLOCK_RECORD
  5
154
330
1
100
AcDbSymbolTableRecord
100
AcDbBlockTableRecord
  2
SW_NOTE_6
340
0
102
{BLKREFS
331
159
102
}
  0
BLOCK_RECORD
  5
15B
330
1
100
AcDbSymbolTableRecord
100
AcDbBlockTableRecord
  2
SW_CENTERMARKSYMBOL_0
340
0
102
{BLKREFS
331
162
102
}
  0
BLOCK_RECORD
  5
171
330
1
100
AcDbSymbolTableRecord
100
AcDbBlockTableRecord
  2
_D_3
340
0
  0
BLOCK_RECORD
  5
17D
330
1
100
AcDbSymbolTableRecord
100
AcDbBlockTableRecord
  2
_D_4
340
0
  0
ENDTAB
  0
ENDSEC
  0
SECTION
  2
BLOCKS
  0
BLOCK
  5
20
330
1F
100
AcDbEntity
  8
0
100
AcDbBlockBegin
  2
*Model_Space
 70
     0
 10
0.0
 20
0.0
 30
0.0
  3
*Model_Space
  1

  0
ENDBLK
  5
21
330
1F
100
AcDbEntity
  8
0
100
AcDbBlockEnd
  0
BLOCK
  5
1C
330
1B
100
AcDbEntity
 67
     1
  8
0
100
AcDbBlockBegin
  2
*Paper_Space
 70
     0
 10
0.0
 20
0.0
 30
0.0
  3
*Paper_Space
  1

  0
ENDBLK
  5
1D
330
1B
100
AcDbEntity
 67
     1
  8
0
100
AcDbBlockEnd
  0
BLOCK
  5
24
330
23
100
AcDbEntity
  8
0
100
AcDbBlockBegin
  2
*Paper_Space0
 70
     0
 10
0.0
 20
0.0
 30
0.0
  3
*Paper_Space0
  1

  0
ENDBLK
  5
25
330
23
100
AcDbEntity
  8
0
100
AcDbBlockEnd
  0
BLOCK
  5
75
330
74
100
AcDbEntity
  8
0
100
AcDbBlockBegin
  2
Third Angle Projection Block
 70
     0
 10
0.0
 20
0.0
 30
0.0
  3
Third Angle Projection Block
  1

  0
CIRCLE
  5
77
330
74
100
AcDbEntity
  8
0
  6
Continuous
 62
     7
370
    35
100
AcDbCircle
 10
3.9951432636
 20
0.7456853688
 30
0.0
 40
0.0696152422706639
  0
CIRCLE
  5
78
330
74
100
AcDbEntity
  8
0
  6
Continuous
 62
     7
370
    35
100
AcDbCircle
 10
3.9951432636
 20
0.7456853688
 30
0.0
 40
0.1535916633280245
  0
LINE
  5
79
330
74
100
AcDbEntity
  8
0
  6
CENTERX2
 62
     7
370
    18
100
AcDbLine
 10
4.3360937897
 20
0.7456853688
 30
0.0
 11
4.7028635231
 21
0.7456853688
 31
0.0
  0
LINE
  5
7A
330
74
100
AcDbEntity
  8
0
  6
Continuous
 62
     7
370
    35
100
AcDbLine
 10
4.3701432636
 20
0.815300611
 30
0.0
 11
4.3701432636
 21
0.6760701265
 31
0.0
  0
LINE
  5
7B
330
74
100
AcDbEntity
  8
0
  6
Continuous
 62
     7
370
    35
100
AcDbLine
 10
4.3701432636
 20
0.6760701265
 30
0.0
 11
4.6701432636
 21
0.5956853688
 31
0.0
  0
LINE
  5
7C
330
74
100
AcDbEntity
  8
0
  6
Continuous
 62
     7
370
    35
100
AcDbLine
 10
4.6701432636
 20
0.5956853688
 30
0.0
 11
4.6701432636
 21
0.8956853688
 31
0.0
  0
LINE
  5
7D
330
74
100
AcDbEntity
  8
0
  6
Continuous
 62
     7
370
    35
100
AcDbLine
 10
4.6701432636
 20
0.8956853688
 30
0.0
 11
4.3701432636
 21
0.815300611
 31
0.0
  0
LINE
  5
7E
330
74
100
AcDbEntity
  8
0
  6
CENTERX2
 62
     7
370
    18
100
AcDbLine
 10
3.8032513961
 20
0.7456853688
 30
0.0
 11
4.187035131
 21
0.7456853688
 31
0.0
  0
LINE
  5
7F
330
74
100
AcDbEntity
  8
0
  6
CENTERX2
 62
     7
370
    18
100
AcDbLine
 10
3.9951432636
 20
0.9375772362
 30
0.0
 11
3.9951432636
 21
0.5537935013
 31
0.0
  0
POINT
  5
80
330
74
100
AcDbEntity
  8
0
  6
Continuous
 62
     7
370
     0
100
AcDbPoint
 10
3.9951432636
 20
0.7456853688
 30
0.0
  0
ENDBLK
  5
76
330
74
100
AcDbEntity
  8
0
100
AcDbBlockEnd
  0
BLOCK
  5
9B
330
9A
100
AcDbEntity
  8
0
100
AcDbBlockBegin
  2
SW_NOTE_0
 70
     0
 10
0.0
 20
0.0
 30
0.0
  3
SW_NOTE_0
  1

  0
MTEXT
  5
9E
330
9A
100
AcDbEntity
  8
0
  6
Continuous
 62
     0
370
     0
100
AcDbMText
 10
0.0
 20
0.1074223116
 30
0.0
 40
0.0833333333
 41
0.0
 71
     1
 72
     1
  1
NOTES/SPECIFICATIONS:
  7
SLDTEXTSTYLE0
 73
     1
 44
1.0
  0
MTEXT
  5
9F
330
9A
100
AcDbEntity
  8
0
  6
Continuous
 62
     0
370
     0
100
AcDbMText
 10
0.0
 20
-0.1147999079
 30
0.0
 40
0.0833333333
 41
0.0
 71
     1
 72
     1
  1
1.  DESIGN WAVELENGTH: 633nm
  7
SLDTEXTSTYLE0
 73
     1
 44
1.0
  0
MTEXT
  5
A1
330
9A
100
AcDbEntity
  8
0
  6
Continuous
 62
     0
370
     0
100
AcDbMText
 10
0.0
 20
-0.2259110177
 30
0.0
 40
0.0833333333
 41
0.0
 71
     1
 72
     1
  1
2.  ACCEPTED BEAM SIZE: 1mm TO 3mm
  7
SLDTEXTSTYLE1
 73
     1
 44
1.0
  0
MTEXT
  5
A2
330
9A
100
AcDbEntity
  8
0
  6
Continuous
 62
     0
370
     0
100
AcDbMText
 10
0.0
 20
-0.3370221274
 30
0.0
 40
0.0833333333
 41
0.0
 71
     1
 72
     1
  1
3.  WEDGED FLAT:
  7
SLDTEXTSTYLE0
 73
     1
 44
1.0
  0
MTEXT
  5
A3
330
9A
100
AcDbEntity
  8
0
  6
Continuous
 62
     0
370
     0
100
AcDbMText
 10
0.3937007874
 20
-0.4481332372
 30
0.0
 40
0.0833333333
 41
0.0
 71
     1
 72
     1
  1
MATERIAL: UV GRADE FUSED SILICA
  7
SLDTEXTSTYLE0
 73
     1
 44
1.0
  0
MTEXT
  5
A4
330
9A
100
AcDbEntity
  8
0
  6
Continuous
 62
     0
370
     0
100
AcDbMText
 10
0.3937007874
 20
-0.559244347
 30
0.0
 40
0.0833333333
 41
0.0
 71
     1
 72
     1
  1
WEDGE ANGLE(REF): 117arcsec
  7
SLDTEXTSTYLE0
 73
     1
 44
1.0
  0
MTEXT
  5
A5
330
9A
100
AcDbEntity
  8
0
  6
Continuous
 62
     0
370
     0
100
AcDbMText
 10
0.3937007874
 20
-0.6703554567
 30
0.0
 40
0.0833333333
 41
0.0
 71
     1
 72
     1
  1
THICKNESS: 0.75mm
  7
SLDTEXTSTYLE0
 73
     1
 44
1.0
  0
MTEXT
  5
A6
330
9A
100
AcDbEntity
  8
0
  6
Continuous
 62
     0
370
     0
100
AcDbMText
 10
1.4665403205
 20
-0.6703554567
 30
0.0
 40
0.0833333333
 41
0.0
 71
     1
 72
     1
  1
%%p
  7
SLDTEXTSTYLE0
 73
     1
 44
1.0
  0
MTEXT
  5
A7
330
9A
100
AcDbEntity
  8
0
  6
Continuous
 62
     0
370
     0
100
AcDbMText
 10
1.5459847761
 20
-0.6703554567
 30
0.0
 40
0.0833333333
 41
0.0
 71
     1
 72
     1
  1
0.25mm
  7
SLDTEXTSTYLE0
 73
     1
 44
1.0
  0
MTEXT
  5
A8
330
9A
100
AcDbEntity
  8
0
  6
Continuous
 62
     0
370
     0
100
AcDbMText
 10
0.3937007874
 20
-0.7814665665
 30
0.0
 40
0.0833333333
 41
0.0
 71
     1
 72
     1
  1
SURFACE QUALITY: 40-20 SCRATCH-DIG
  7
SLDTEXTSTYLE0
 73
     1
 44
1.0
  0
ENDBLK
  5
9C
330
9A
100
AcDbEntity
  8
0
100
AcDbBlockEnd
  0
BLOCK
  5
BA
330
B9
100
AcDbEntity
  8
0
100
AcDbBlockBegin
  2
SW_NOTE_1
 70
     0
 10
0.0
 20
0.0
 30
0.0
  3
SW_NOTE_1
  1

  0
MTEXT
  5
BC
330
B9
100
AcDbEntity
  8
0
  6
Continuous
 62
     0
370
     0
100
AcDbMText
 10
0.78375
 20
0.0773440644
 30
0.0
 40
0.06
 41
0.0
 71
     2
 72
     1
  1
VALUES IN PARENTHESIS ARE CALCULATED
  7
SLDTEXTSTYLE0
 73
     1
 44
1.0
  0
MTEXT
  5
BD
330
B9
100
AcDbEntity
  8
0
  6
Continuous
 62
     0
370
     0
100
AcDbMText
 10
0.7825936818
 20
-0.0220260102
 30
0.0
 40
0.06
 41
0.0
 71
     2
 72
     1
  1
AND MAY CONTAIN ROUNDOFF ERRORS
  7
SLDTEXTSTYLE0
 73
     1
 44
1.0
  0
ENDBLK
  5
BB
330
B9
100
AcDbEntity
  8
0
100
AcDbBlockEnd
  0
BLOCK
  5
C0
330
BF
100
AcDbEntity
  8
0
100
AcDbBlockBegin
  2
SW_NOTE_2
 70
     0
 10
0.0
 20
0.0
 30
0.0
  3
SW_NOTE_2
  1

  0
MTEXT
  5
C2
330
BF
100
AcDbEntity
  8
0
  6
Continuous
 62
     0
370
     0
100
AcDbMText
 10
0.0
 20
0.1074223116
 30
0.0
 40
0.0833333333
 41
0.0
 71
     1
 72
     1
  1
DRAWING
  7
SLDTEXTSTYLE0
 73
     1
 44
1.0
  0
MTEXT
  5
C3
330
BF
100
AcDbEntity
  8
0
  6
Continuous
 62
     0
370
     0
100
AcDbMText
 10
0.0
 20
-0.0036887981
 30
0.0
 40
0.0833333333
 41
0.0
 71
     1
 72
     1
  1
PROJECTION
  7
SLDTEXTSTYLE0
 73
     1
 44
1.0
  0
ENDBLK
  5
C1
330
BF
100
AcDbEntity
  8
0
100
AcDbBlockEnd
  0
BLOCK
  5
C7
330
C6
100
AcDbEntity
  8
0
100
AcDbBlockBegin
  2
SW_NOTE_3
 70
     0
 10
0.0
 20
0.0
 30
0.0
  3
SW_NOTE_3
  1

  0
MTEXT
  5
C9
330
C6
100
AcDbEntity
  8
0
  6
Continuous
 62
     0
370
     0
100
AcDbMText
 10
0.986328125
 20
0.1611334675
 30
0.0
 40
0.125
 41
0.0
 71
     2
 72
     1
  1
FOR INFORMATION ONLY
  7
SLDTEXTSTYLE0
 73
     1
 44
1.0
  0
MTEXT
  5
CA
330
C6
100
AcDbEntity
  8
0
  6
Continuous
 62
     0
370
     0
100
AcDbMText
 10
0.999088459
 20
-0.0055331972
 30
0.0
 40
0.125
 41
0.0
 71
     2
 72
     1
  1
NOT FOR MANUFACTURING PURPOSES
  7
SLDTEXTSTYLE0
 73
     1
 44
1.0
  0
ENDBLK
  5
C8
330
C6
100
AcDbEntity
  8
0
100
AcDbBlockEnd
  0
BLOCK
  5
D1
330
D0
100
AcDbEntity
  8
0
100
AcDbBlockBegin
  2
SW_TABLEANNOTATION_0
 70
     0
 10
0.0
 20
0.0
 30
0.0
  3
SW_TABLEANNOTATION_0
  1

  0
LINE
  5
D3
330
D0
100
AcDbEntity
  8
0
  6
Continuous
 62
     0
370
     0
100
AcDbLine
 10
0.0
 20
0.0
 30
0.0
 11
0.0
 21
-0.916885384
 31
0.0
  0
LINE
  5
D4
330
D0
100
AcDbEntity
  8
0
  6
Continuous
 62
     0
370
     0
100
AcDbLine
 10
0.0
 20
-0.916885384
 30
0.0
 11
3.516287512
 21
-0.916885384
 31
0.0
  0
LINE
  5
D5
330
D0
100
AcDbEntity
  8
0
  6
Continuous
 62
     0
370
     0
100
AcDbLine
 10
3.516287512
 20
-0.916885384
 30
0.0
 11
3.516287512
 21
0.0
 31
0.0
  0
LINE
  5
D6
330
D0
100
AcDbEntity
  8
0
  6
Continuous
 62
     0
370
     0
100
AcDbLine
 10
3.516287512
 20
0.0
 30
0.0
 11
0.0
 21
0.0
 31
0.0
  0
LINE
  5
D7
330
D0
100
AcDbEntity
  8
0
  6
Continuous
 62
     0
370
     0
100
AcDbLine
 10
1.0687200994
 20
0.0
 30
0.0
 11
1.0687200994
 21
-0.916885384
 31
0.0
  0
LINE
  5
D8
330
D0
100
AcDbEntity
  8
0
  6
Continuous
 62
     0
370
     0
100
AcDbLine
 10
2.1912692985
 20
0.0
 30
0.0
 11
2.1912692985
 21
-0.916885384
 31
0.0
  0
LINE
  5
D9
330
D0
100
AcDbEntity
  8
0
  6
Continuous
 62
     0
370
     0
100
AcDbLine
 10
0.0
 20
-0.229221346
 30
0.0
 11
3.516287512
 21
-0.229221346
 31
0.0
  0
LINE
  5
DA
330
D0
100
AcDbEntity
  8
0
  6
Continuous
 62
     0
370
     0
100
AcDbLine
 10
0.0
 20
-0.458442692
 30
0.0
 11
3.516287512
 21
-0.458442692
 31
0.0
  0
LINE
  5
DB
330
D0
100
AcDbEntity
  8
0
  6
Continuous
 62
     0
370
     0
100
AcDbLine
 10
0.0
 20
-0.687664038
 30
0.0
 11
3.516287512
 21
-0.687664038
 31
0.0
  0
MTEXT
  5
DC
330
D0
100
AcDbEntity
  8
0
  6
Continuous
 62
     0
370
     0
100
AcDbMText
 10
0.1779557336
 20
-0.0730152696
 30
0.0
 40
0.0833333333
 41
0.0
 71
     1
 72
     1
  1
ITEM NUMBER
  7
SLDTEXTSTYLE0
 73
     1
 44
1.0
  0
MTEXT
  5
DD
330
D0
100
AcDbEntity
  8
0
  6
Continuous
 62
     0
370
     0
100
AcDbMText
 10
1.2811520988
 20
-0.0730152696
 30
0.0
 40
0.0833333333
 41
0.0
 71
     1
 72
     1
  1
DESCRITPION
  7
SLDTEXTSTYLE0
 73
     1
 44
1.0
  0
MTEXT
  5
DE
330
D0
100
AcDbEntity
  8
0
  6
Continuous
 62
     0
370
     0
100
AcDbMText
 10
2.5949821032
 20
-0.0730152696
 30
0.0
 40
0.0833333333
 41
0.0
 71
     1
 72
     1
  1
MATERIAL
  7
SLDTEXTSTYLE0
 73
     1
 44
1.0
  0
INSERT
  5
E4
330
D0
100
AcDbEntity
  8
0
  6
Continuous
 62
     0
370
     0
100
AcDbBlockReference
  2
SW_SYMBOL_C#_1
 10
0.4218137498
 20
-0.3981029376
 30
0.0
 41
0.0027037109
 42
0.0027037109
 43
0.0027037109
  0
MTEXT
  5
E5
330
D0
100
AcDbEntity
  8
0
  6
Continuous
 62
     0
370
     0
100
AcDbMText
 10
1.2911829563
 20
-0.3022366156
 30
0.0
 40
0.0833333333
 41
0.0
 71
     1
 72
     1
  1
SHEAR PLATE
  7
SLDTEXTSTYLE0
 73
     1
 44
1.0
  0
MTEXT
  5
E6
330
D0
100
AcDbEntity
  8
0
  6
Continuous
 62
     0
370
     0
100
AcDbMText
 10
2.2607228229
 20
-0.3022366156
 30
0.0
 40
0.0833333333
 41
0.0
 71
     1
 72
     1
  1
ANODIZED ALUMINUM
  7
SLDTEXTSTYLE0
 73
     1
 44
1.0
  0
INSERT
  5
EC
330
D0
100
AcDbEntity
  8
0
  6
Continuous
 62
     0
370
     0
100
AcDbBlockReference
  2
SW_SYMBOL_C#_2
 10
0.4218137498
 20
-0.6273242836
 30
0.0
 41
0.0027037109
 42
0.0027037109
 43
0.0027037109
  0
MTEXT
  5
ED
330
D0
100
AcDbEntity
  8
0
  6
Continuous
 62
     0
370
     0
100
AcDbMText
 10
1.0884051388
 20
-0.5314579616
 30
0.0
 40
0.0833333333
 41
0.0
 71
     1
 72
     1
  1
ALIGNMENT BALL (3)
  7
SLDTEXTSTYLE0
 73
     1
 44
1.0
  0
MTEXT
  5
EE
330
D0
100
AcDbEntity
  8
0
  6
Continuous
 62
     0
370
     0
100
AcDbMText
 10
2.4446734413
 20
-0.5314579616
 30
0.0
 40
0.0833333333
 41
0.0
 71
     1
 72
     1
  1
STAINLESS STEEL
  7
SLDTEXTSTYLE0
 73
     1
 44
1.0
  0
INSERT
  5
F4
330
D0
100
AcDbEntity
  8
0
  6
Continuous
 62
     0
370
     0
100
AcDbBlockReference
  2
SW_SYMBOL_C#_3
 10
0.4218137498
 20
-0.8565456296
 30
0.0
 41
0.0027037109
 42
0.0027037109
 43
0.0027037109
  0
MTEXT
  5
F5
330
D0
100
AcDbEntity
  8
0
  6
Continuous
 62
     0
370
     0
100
AcDbMText
 10
1.2531428657
 20
-0.7606793075
 30
0.0
 40
0.0833333333
 41
0.0
 71
     1
 72
     1
  1
WEDGED FLAT
  7
SLDTEXTSTYLE0
 73
     1
 44
1.0
  0
MTEXT
  5
F6
330
D0
100
AcDbEntity
  8
0
  6
Continuous
 62
     0
370
     0
100
AcDbMText
 10
2.2109543379
 20
-0.7606793075
 30
0.0
 40
0.0833333333
 41
0.0
 71
     1
 72
     1
  1
UV GRADE FUSED SILICA
  7
SLDTEXTSTYLE0
 73
     1
 44
1.0
  0
ENDBLK
  5
D2
330
D0
100
AcDbEntity
  8
0
100
AcDbBlockEnd
  0
BLOCK
  5
E0
330
DF
100
AcDbEntity
  8
0
100
AcDbBlockBegin
  2
SW_SYMBOL_C#_1
 70
     0
 10
0.0
 20
0.0
 30
0.0
  3
SW_SYMBOL_C#_1
  1

  0
CIRCLE
  5
E2
330
DF
100
AcDbEntity
  8
0
  6
Continuous
 62
     0
370
     0
100
AcDbCircle
 10
31.4960629921
 20
19.6850393701
 30
0.0
 40
31.49606299212599
  0
MTEXT
  5
E3
330
DF
100
AcDbEntity
  8
0
  6
Continuous
 62
     0
370
     0
100
AcDbMText
 10
31.4960629921
 20
19.6850393701
 30
0.0
 40
30.821835344
 41
0.0
 71
     5
 72
     1
  1
1
  7
SLDTEXTSTYLE0
 73
     1
 44
1.0
  0
ENDBLK
  5
E1
330
DF
100
AcDbEntity
  8
0
100
AcDbBlockEnd
  0
BLOCK
  5
E8
330
E7
100
AcDbEntity
  8
0
100
AcDbBlockBegin
  2
SW_SYMBOL_C#_2
 70
     0
 10
0.0
 20
0.0
 30
0.0
  3
SW_SYMBOL_C#_2
  1

  0
CIRCLE
  5
EA
330
E7
100
AcDbEntity
  8
0
  6
Continuous
 62
     0
370
     0
100
AcDbCircle
 10
31.4960629921
 20
19.6850393701
 30
0.0
 40
31.49606299212599
  0
MTEXT
  5
EB
330
E7
100
AcDbEntity
  8
0
  6
Continuous
 62
     0
370
     0
100
AcDbMText
 10
31.4960629921
 20
19.6850393701
 30
0.0
 40
30.821835344
 41
0.0
 71
     5
 72
     1
  1
2
  7
SLDTEXTSTYLE0
 73
     1
 44
1.0
  0
ENDBLK
  5
E9
330
E7
100
AcDbEntity
  8
0
100
AcDbBlockEnd
  0
BLOCK
  5
F0
330
EF
100
AcDbEntity
  8
0
100
AcDbBlockBegin
  2
SW_SYMBOL_C#_3
 70
     0
 10
0.0
 20
0.0
 30
0.0
  3
SW_SYMBOL_C#_3
  1

  0
CIRCLE
  5
F2
330
EF
100
AcDbEntity
  8
0
  6
Continuous
 62
     0
370
     0
100
AcDbCircle
 10
31.4960629921
 20
19.6850393701
 30
0.0
 40
31.49606299212599
  0
MTEXT
  5
F3
330
EF
100
AcDbEntity
  8
0
  6
Continuous
 62
     0
370
     0
100
AcDbMText
 10
31.4960629921
 20
19.6850393701
 30
0.0
 40
30.821835344
 41
0.0
 71
     5
 72
     1
  1
3
  7
SLDTEXTSTYLE0
 73
     1
 44
1.0
  0
ENDBLK
  5
F1
330
EF
100
AcDbEntity
  8
0
100
AcDbBlockEnd
  0
BLOCK
  5
10A
330
109
100
AcDbEntity
  8
0
100
AcDbBlockBegin
  2
_D
 70
     0
 10
0.0
 20
0.0
 30
0.0
  3
_D
  1

  0
SOLID
  5
10C
330
109
100
AcDbEntity
  8
0
  6
Continuous
 62
     7
370
    18
100
AcDbTrace
 10
1.6797313298
 20
3.288343262
 30
0.0
 11
1.6997313298
 21
3.413343262
 31
0.0
 12
1.6597313298
 22
3.413343262
 32
0.0
 13
1.6597313298
 23
3.413343262
 33
0.0
  0
SOLID
  5
10D
330
109
100
AcDbEntity
  8
0
  6
Continuous
 62
     7
370
    18
100
AcDbTrace
 10
1.6797313298
 20
5.288343262
 30
0.0
 11
1.6597313298
 21
5.163343262
 31
0.0
 12
1.6997313298
 22
5.163343262
 32
0.0
 13
1.6997313298
 23
5.163343262
 33
0.0
  0
LINE
  5
10E
330
109
100
AcDbEntity
  8
0
  6
Continuous
 62
     7
370
    18
100
AcDbLine
 10
1.4678485967
 20
4.2883432528
 30
0.0
 11
1.4425013741
 21
4.2883432528
 31
0.0
  0
LINE
  5
10F
330
109
100
AcDbEntity
  8
0
  6
Continuous
 62
     7
370
    18
100
AcDbLine
 10
1.4425013741
 20
4.2883432528
 30
0.0
 11
1.4425013741
 21
4.1559358482
 31
0.0
  0
LINE
  5
110
330
109
100
AcDbEntity
  8
0
  6
Continuous
 62
     7
370
    18
100
AcDbLine
 10
1.4425013741
 20
4.1559358482
 30
0.0
 11
1.4678485967
 21
4.1559358482
 31
0.0
  0
LINE
  5
111
330
109
100
AcDbEntity
  8
0
  6
Continuous
 62
     7
370
    18
100
AcDbLine
 10
1.8916140446
 20
4.2883432528
 30
0.0
 11
1.9169612672
 21
4.2883432528
 31
0.0
  0
LINE
  5
112
330
109
100
AcDbEntity
  8
0
  6
Continuous
 62
     7
370
    18
100
AcDbLine
 10
1.9169612672
 20
4.2883432528
 30
0.0
 11
1.9169612672
 21
4.1559358482
 31
0.0
  0
LINE
  5
113
330
109
100
AcDbEntity
  8
0
  6
Continuous
 62
     7
370
    18
100
AcDbLine
 10
1.9169612672
 20
4.1559358482
 30
0.0
 11
1.8916140446
 21
4.1559358482
 31
0.0
  0
LINE
  5
114
330
109
100
AcDbEntity
  8
0
  6
Continuous
 62
     7
370
    18
100
AcDbLine
 10
2.369526649
 20
3.288343262
 30
0.0
 11
1.6097313298
 21
3.288343262
 31
0.0
  0
LINE
  5
115
330
109
100
AcDbEntity
  8
0
  6
Continuous
 62
     7
370
    18
100
AcDbLine
 10
2.369526649
 20
5.288343262
 30
0.0
 11
1.6097313298
 21
5.288343262
 31
0.0
  0
LINE
  5
116
330
109
100
AcDbEntity
  8
0
  6
Continuous
 62
     7
370
    18
100
AcDbLine
 10
1.6797313298
 20
3.288343262
 30
0.0
 11
1.6797313298
 21
4.1390377151
 31
0.0
  0
LINE
  5
117
330
109
100
AcDbEntity
  8
0
  6
Continuous
 62
     7
370
    18
100
AcDbLine
 10
1.6797313298
 20
5.288343262
 30
0.0
 11
1.6797313298
 21
4.4376488088
 31
0.0
  0
MTEXT
  5
118
330
109
100
AcDbEntity
  8
0
  6
Continuous
 62
     7
370
    18
100
AcDbMText
 10
1.4182343993
 20
4.4126637113
 30
0.0
 40
0.0833333333
 41
0.0
 71
     1
 72
     1
  1

  7
SLDTEXTSTYLE0
 73
     1
 44
1.0
  0
MTEXT
  5
119
330
109
100
AcDbEntity
  8
0
  6
Continuous
 62
     7
370
    18
100
AcDbMText
 10
1.5270306905
 20
4.4126637113
 30
0.0
 40
0.0833333333
 41
0.0
 71
     1
 72
     1
  1
2.00in
  7
SLDTEXTSTYLE0
 73
     1
 44
1.0
  0
MTEXT
  5
11A
330
109
100
AcDbEntity
  8
0
  6
Continuous
 62
     7
370
    18
100
AcDbMText
 10
1.4678485967
 20
4.2633581553
 30
0.0
 40
0.0833333333
 41
0.0
 71
     1
 72
     1
  1
50.8mm
  7
SLDTEXTSTYLE0
 73
     1
 44
1.0
  0
MTEXT
  5
11B
330
109
100
AcDbEntity
  8
0
  6
Continuous
 62
     7
370
    18
100
AcDbMText
 10
2.0048084898
 20
4.4126637113
 30
0.0
 40
0.0833333333
 41
0.0
 71
     1
 72
     1
  1

  7
SLDTEXTSTYLE0
 73
     1
 44
1.0
  0
ENDBLK
  5
10B
330
109
100
AcDbEntity
  8
0
100
AcDbBlockEnd
  0
BLOCK
  5
11E
330
11D
100
AcDbEntity
  8
0
100
AcDbBlockBegin
  2
_D_1
 70
     0
 10
0.0
 20
0.0
 30
0.0
  3
_D_1
  1

  0
SOLID
  5
120
330
11D
100
AcDbEntity
  8
0
  6
Continuous
 62
     7
370
    18
100
AcDbTrace
 10
2.419526649
 20
2.9891240628
 30
0.0
 11
2.544526649
 21
2.9691240628
 31
0.0
 12
2.544526649
 22
3.0091240628
 32
0.0
 13
2.544526649
 23
3.0091240628
 33
0.0
  0
SOLID
  5
121
330
11D
100
AcDbEntity
  8
0
  6
Continuous
 62
     7
370
    18
100
AcDbTrace
 10
4.319526649
 20
2.9891240628
 30
0.0
 11
4.194526649
 21
3.0091240628
 31
0.0
 12
4.194526649
 22
2.9691240628
 32
0.0
 13
4.194526649
 23
2.9691240628
 33
0.0
  0
LINE
  5
122
330
11D
100
AcDbEntity
  8
0
  6
Continuous
 62
     7
370
    18
100
AcDbLine
 10
3.1576439158
 20
2.9891240536
 30
0.0
 11
3.1322966932
 21
2.9891240536
 31
0.0
  0
LINE
  5
123
330
11D
100
AcDbEntity
  8
0
  6
Continuous
 62
     7
370
    18
100
AcDbLine
 10
3.1322966932
 20
2.9891240536
 30
0.0
 11
3.1322966932
 21
2.856716649
 31
0.0
  0
LINE
  5
124
330
11D
100
AcDbEntity
  8
0
  6
Continuous
 62
     7
370
    18
100
AcDbLine
 10
3.1322966932
 20
2.856716649
 30
0.0
 11
3.1576439158
 21
2.856716649
 31
0.0
  0
LINE
  5
125
330
11D
100
AcDbEntity
  8
0
  6
Continuous
 62
     7
370
    18
100
AcDbLine
 10
3.5814093638
 20
2.9891240536
 30
0.0
 11
3.6067565864
 21
2.9891240536
 31
0.0
  0
LINE
  5
126
330
11D
100
AcDbEntity
  8
0
  6
Continuous
 62
     7
370
    18
100
AcDbLine
 10
3.6067565864
 20
2.9891240536
 30
0.0
 11
3.6067565864
 21
2.856716649
 31
0.0
  0
LINE
  5
127
330
11D
100
AcDbEntity
  8
0
  6
Continuous
 62
     7
370
    18
100
AcDbLine
 10
3.6067565864
 20
2.856716649
 30
0.0
 11
3.5814093638
 21
2.856716649
 31
0.0
  0
LINE
  5
128
330
11D
100
AcDbEntity
  8
0
  6
Continuous
 62
     7
370
    18
100
AcDbLine
 10
2.419526649
 20
3.238343262
 30
0.0
 11
2.419526649
 21
2.9191240628
 31
0.0
  0
LINE
  5
129
330
11D
100
AcDbEntity
  8
0
  6
Continuous
 62
     7
370
    18
100
AcDbLine
 10
4.319526649
 20
3.238343262
 30
0.0
 11
4.319526649
 21
2.9191240628
 31
0.0
  0
LINE
  5
12A
330
11D
100
AcDbEntity
  8
0
  6
Continuous
 62
     7
370
    18
100
AcDbLine
 10
2.419526649
 20
2.9891240628
 30
0.0
 11
3.0286240467
 21
2.9891240628
 31
0.0
  0
LINE
  5
12B
330
11D
100
AcDbEntity
  8
0
  6
Continuous
 62
     7
370
    18
100
AcDbLine
 10
4.319526649
 20
2.9891240628
 30
0.0
 11
3.7104292512
 21
2.9891240628
 31
0.0
  0
MTEXT
  5
12C
330
11D
100
AcDbEntity
  8
0
  6
Continuous
 62
     7
370
    18
100
AcDbMText
 10
3.1080297185
 20
3.1134445121
 30
0.0
 40
0.0833333333
 41
0.0
 71
     1
 72
     1
  1

  7
SLDTEXTSTYLE0
 73
     1
 44
1.0
  0
MTEXT
  5
12D
330
11D
100
AcDbEntity
  8
0
  6
Continuous
 62
     7
370
    18
100
AcDbMText
 10
3.2168260097
 20
3.1134445121
 30
0.0
 40
0.0833333333
 41
0.0
 71
     1
 72
     1
  1
1.90in
  7
SLDTEXTSTYLE0
 73
     1
 44
1.0
  0
MTEXT
  5
12E
330
11D
100
AcDbEntity
  8
0
  6
Continuous
 62
     7
370
    18
100
AcDbMText
 10
3.1576439158
 20
2.9641389561
 30
0.0
 40
0.0833333333
 41
0.0
 71
     1
 72
     1
  1
48.3mm
  7
SLDTEXTSTYLE0
 73
     1
 44
1.0
  0
MTEXT
  5
12F
330
11D
100
AcDbEntity
  8
0
  6
Continuous
 62
     7
370
    18
100
AcDbMText
 10
3.694603809
 20
3.1134445121
 30
0.0
 40
0.0833333333
 41
0.0
 71
     1
 72
     1
  1

  7
SLDTEXTSTYLE0
 73
     1
 44
1.0
  0
ENDBLK
  5
11F
330
11D
100
AcDbEntity
  8
0
100
AcDbBlockEnd
  0
BLOCK
  5
133
330
132
100
AcDbEntity
  8
0
100
AcDbBlockBegin
  2
_D_2
 70
     0
 10
0.0
 20
0.0
 30
0.0
  3
_D_2
  1

  0
SOLID
  5
135
330
132
100
AcDbEntity
  8
0
  6
Continuous
 62
     7
370
    18
100
AcDbTrace
 10
2.0832640371
 20
3.288343262
 30
0.0
 11
2.1032640371
 21
3.413343262
 31
0.0
 12
2.0632640371
 22
3.413343262
 32
0.0
 13
2.0632640371
 23
3.413343262
 33
0.0
  0
SOLID
  5
136
330
132
100
AcDbEntity
  8
0
  6
Continuous
 62
     7
370
    18
100
AcDbTrace
 10
2.0832640371
 20
4.148343262
 30
0.0
 11
2.0632640371
 21
4.023343262
 31
0.0
 12
2.1032640371
 22
4.023343262
 32
0.0
 13
2.1032640371
 23
4.023343262
 33
0.0
  0
LINE
  5
137
330
132
100
AcDbEntity
  8
0
  6
Continuous
 62
     7
370
    18
100
AcDbLine
 10
1.8713813039
 20
3.7183432528
 30
0.0
 11
1.8460340813
 21
3.7183432528
 31
0.0
  0
LINE
  5
138
330
132
100
AcDbEntity
  8
0
  6
Continuous
 62
     7
370
    18
100
AcDbLine
 10
1.8460340813
 20
3.7183432528
 30
0.0
 11
1.8460340813
 21
3.5859358482
 31
0.0
  0
LINE
  5
139
330
132
100
AcDbEntity
  8
0
  6
Continuous
 62
     7
370
    18
100
AcDbLine
 10
1.8460340813
 20
3.5859358482
 30
0.0
 11
1.8713813039
 21
3.5859358482
 31
0.0
  0
LINE
  5
13A
330
132
100
AcDbEntity
  8
0
  6
Continuous
 62
     7
370
    18
100
AcDbLine
 10
2.2951467519
 20
3.7183432528
 30
0.0
 11
2.3204939745
 21
3.7183432528
 31
0.0
  0
LINE
  5
13B
330
132
100
AcDbEntity
  8
0
  6
Continuous
 62
     7
370
    18
100
AcDbLine
 10
2.3204939745
 20
3.7183432528
 30
0.0
 11
2.3204939745
 21
3.5859358482
 31
0.0
  0
LINE
  5
13C
330
132
100
AcDbEntity
  8
0
  6
Continuous
 62
     7
370
    18
100
AcDbLine
 10
2.3204939745
 20
3.5859358482
 30
0.0
 11
2.2951467519
 21
3.5859358482
 31
0.0
  0
LINE
  5
13D
330
132
100
AcDbEntity
  8
0
  6
Continuous
 62
     7
370
    18
100
AcDbLine
 10
2.369526649
 20
3.288343262
 30
0.0
 11
2.0132640371
 21
3.288343262
 31
0.0
  0
LINE
  5
13E
330
132
100
AcDbEntity
  8
0
  6
Continuous
 62
     7
370
    18
100
AcDbLine
 10
3.269526649
 20
4.148343262
 30
0.0
 11
2.0132640371
 21
4.148343262
 31
0.0
  0
LINE
  5
13F
330
132
100
AcDbEntity
  8
0
  6
Continuous
 62
     7
370
    18
100
AcDbLine
 10
2.0832640371
 20
3.288343262
 30
0.0
 11
2.0832640371
 21
3.5690377151
 31
0.0
  0
LINE
  5
140
330
132
100
AcDbEntity
  8
0
  6
Continuous
 62
     7
370
    18
100
AcDbLine
 10
2.0832640371
 20
4.148343262
 30
0.0
 11
2.0832640371
 21
3.8676488088
 31
0.0
  0
MTEXT
  5
141
330
132
100
AcDbEntity
  8
0
  6
Continuous
 62
     7
370
    18
100
AcDbMText
 10
1.8217671066
 20
3.8426637113
 30
0.0
 40
0.0833333333
 41
0.0
 71
     1
 72
     1
  1

  7
SLDTEXTSTYLE0
 73
     1
 44
1.0
  0
MTEXT
  5
142
330
132
100
AcDbEntity
  8
0
  6
Continuous
 62
     7
370
    18
100
AcDbMText
 10
1.9305633977
 20
3.8426637113
 30
0.0
 40
0.0833333333
 41
0.0
 71
     1
 72
     1
  1
0.86in
  7
SLDTEXTSTYLE0
 73
     1
 44
1.0
  0
MTEXT
  5
143
330
132
100
AcDbEntity
  8
0
  6
Continuous
 62
     7
370
    18
100
AcDbMText
 10
1.8713813039
 20
3.6933581553
 30
0.0
 40
0.0833333333
 41
0.0
 71
     1
 72
     1
  1
21.8mm
  7
SLDTEXTSTYLE0
 73
     1
 44
1.0
  0
MTEXT
  5
144
330
132
100
AcDbEntity
  8
0
  6
Continuous
 62
     7
370
    18
100
AcDbMText
 10
2.4083411971
 20
3.8426637113
 30
0.0
 40
0.0833333333
 41
0.0
 71
     1
 72
     1
  1

  7
SLDTEXTSTYLE0
 73
     1
 44
1.0
  0
ENDBLK
  5
134
330
132
100
AcDbEntity
  8
0
100
AcDbBlockEnd
  0
BLOCK
  5
146
330
145
100
AcDbEntity
  8
0
100
AcDbBlockBegin
  2
SW_NOTE_4
 70
     0
 10
0.0
 20
0.0
 30
0.0
  3
SW_NOTE_4
  1

  0
CIRCLE
  5
148
330
145
100
AcDbEntity
  8
0
  6
Continuous
 62
     0
370
     0
100
AcDbCircle
 10
0.1758967381
 20
0.0
 30
0.0
 40
0.1758967381112544
  0
MTEXT
  5
149
330
145
100
AcDbEntity
  8
0
  6
Continuous
 62
     0
370
     0
100
AcDbMText
 10
0.1746380574
 20
0.0641091287
 30
0.0
 40
0.125
 41
0.0
 71
     2
 72
     1
  1
2
  7
SLDTEXTSTYLE0
 73
     1
 44
1.0
  0
ENDBLK
  5
147
330
145
100
AcDbEntity
  8
0
100
AcDbBlockEnd
  0
BLOCK
  5
14E
330
14D
100
AcDbEntity
  8
0
100
AcDbBlockBegin
  2
SW_NOTE_5
 70
     0
 10
0.0
 20
0.0
 30
0.0
  3
SW_NOTE_5
  1

  0
CIRCLE
  5
150
330
14D
100
AcDbEntity
  8
0
  6
Continuous
 62
     0
370
     0
100
AcDbCircle
 10
0.1758967381
 20
0.0
 30
0.0
 40
0.1758967381112551
  0
MTEXT
  5
151
330
14D
100
AcDbEntity
  8
0
  6
Continuous
 62
     0
370
     0
100
AcDbMText
 10
0.1746380574
 20
0.0641091287
 30
0.0
 40
0.125
 41
0.0
 71
     2
 72
     1
  1
3
  7
SLDTEXTSTYLE0
 73
     1
 44
1.0
  0
ENDBLK
  5
14F
330
14D
100
AcDbEntity
  8
0
100
AcDbBlockEnd
  0
BLOCK
  5
155
330
154
100
AcDbEntity
  8
0
100
AcDbBlockBegin
  2
SW_NOTE_6
 70
     0
 10
0.0
 20
0.0
 30
0.0
  3
SW_NOTE_6
  1

  0
CIRCLE
  5
157
330
154
100
AcDbEntity
  8
0
  6
Continuous
 62
     0
370
     0
100
AcDbCircle
 10
0.1758967381
 20
0.0
 30
0.0
 40
0.1758967381112546
  0
MTEXT
  5
158
330
154
100
AcDbEntity
  8
0
  6
Continuous
 62
     0
370
     0
100
AcDbMText
 10
0.1746380574
 20
0.0641091287
 30
0.0
 40
0.125
 41
0.0
 71
     2
 72
     1
  1
1
  7
SLDTEXTSTYLE0
 73
     1
 44
1.0
  0
ENDBLK
  5
156
330
154
100
AcDbEntity
  8
0
100
AcDbBlockEnd
  0
BLOCK
  5
15C
330
15B
100
AcDbEntity
  8
0
100
AcDbBlockBegin
  2
SW_CENTERMARKSYMBOL_0
 70
     0
 10
0.0
 20
0.0
 30
0.0
  3
SW_CENTERMARKSYMBOL_0
  1

  0
LINE
  5
15E
330
15B
100
AcDbEntity
  8
0
  6
Continuous
 62
     0
370
     0
100
AcDbLine
 10
0.0
 20
0.0
 30
0.0
 11
0.0
 21
0.05
 31
0.0
  0
LINE
  5
15F
330
15B
100
AcDbEntity
  8
0
  6
Continuous
 62
     0
370
     0
100
AcDbLine
 10
0.0
 20
0.0
 30
0.0
 11
-0.05
 21
0.0
 31
0.0
  0
LINE
  5
160
330
15B
100
AcDbEntity
  8
0
  6
Continuous
 62
     0
370
     0
100
AcDbLine
 10
0.0
 20
0.0
 30
0.0
 11
0.0
 21
-0.05
 31
0.0
  0
LINE
  5
161
330
15B
100
AcDbEntity
  8
0
  6
Continuous
 62
     0
370
     0
100
AcDbLine
 10
0.0
 20
0.0
 30
0.0
 11
0.05
 21
0.0
 31
0.0
  0
ENDBLK
  5
15D
330
15B
100
AcDbEntity
  8
0
100
AcDbBlockEnd
  0
BLOCK
  5
172
330
171
100
AcDbEntity
  8
0
100
AcDbBlockBegin
  2
_D_3
 70
     0
 10
0.0
 20
0.0
 30
0.0
  3
_D_3
  1

  0
ARC
  5
174
330
171
100
AcDbEntity
  8
0
  6
Continuous
 62
     7
370
    18
100
AcDbCircle
 10
7.4158879962
 20
5.160343262
 30
0.0
 40
1.11945490105271
100
AcDbArc
 50
90.0
 51
107.9284371582
  0
ARC
  5
175
330
171
100
AcDbEntity
  8
0
  6
Continuous
 62
     7
370
    18
100
AcDbCircle
 10
7.4158879962
 20
5.160343262
 30
0.0
 40
1.119454901052711
100
AcDbArc
 50
117.2283520924
 51
135.0
  0
SOLID
  5
176
330
171
100
AcDbEntity
  8
0
  6
Continuous
 62
     7
370
    18
100
AcDbTrace
 10
7.4158879962
 20
6.279798163
 30
0.0
 11
7.2899697237
 21
6.2928207839
 31
0.0
 12
7.2921925951
 22
6.2528825961
 32
0.0
 13
7.2921925951
 23
6.2528825961
 33
0.0
  0
SOLID
  5
177
330
171
100
AcDbEntity
  8
0
  6
Continuous
 62
     7
370
    18
100
AcDbTrace
 10
6.6243138445
 20
5.9519174137
 30
0.0
 11
6.7308118812
 21
6.0203510908
 31
0.0
 12
6.7041431252
 22
6.0501634616
 32
0.0
 13
6.7041431252
 23
6.0501634616
 33
0.0
  0
LINE
  5
178
330
171
100
AcDbEntity
  8
0
  6
Continuous
 62
     7
370
    18
100
AcDbLine
 10
7.4158879962
 20
5.210343262
 30
0.0
 11
7.4158879962
 21
6.349798163
 31
0.0
  0
LINE
  5
179
330
171
100
AcDbEntity
  8
0
  6
Continuous
 62
     7
370
    18
100
AcDbLine
 10
7.2525326572
 20
5.323698601
 30
0.0
 11
6.5748163698
 21
6.0014148884
 31
0.0
  0
MTEXT
  5
17A
330
171
100
AcDbEntity
  8
0
  6
Continuous
 62
     7
370
    18
100
AcDbMText
 10
6.9036948537
 20
6.2358033374
 30
0.0
 40
0.0833333333
 41
0.0
 71
     1
 72
     1
  1
45°
  7
SLDTEXTSTYLE0
 73
     1
 44
1.0
  0
ENDBLK
  5
173
330
171
100
AcDbEntity
  8
0
100
AcDbBlockEnd
  0
BLOCK
  5
17E
330
17D
100
AcDbEntity
  8
0
100
AcDbBlockBegin
  2
_D_4
 70
     0
 10
0.0
 20
0.0
 30
0.0
  3
_D_4
  1

  0
SOLID
  5
180
330
17D
100
AcDbEntity
  8
0
  6
Continuous
 62
     7
370
    18
100
AcDbTrace
 10
7.4158879962
 20
3.1036276416
 30
0.0
 11
7.5408879962
 21
3.0836276416
 31
0.0
 12
7.5408879962
 22
3.1236276416
 32
0.0
 13
7.5408879962
 23
3.1236276416
 33
0.0
  0
SOLID
  5
181
330
17D
100
AcDbEntity
  8
0
  6
Continuous
 62
     7
370
    18
100
AcDbTrace
 10
7.2878879962
 20
3.1036276416
 30
0.0
 11
7.1628879962
 21
3.1236276416
 31
0.0
 12
7.1628879962
 22
3.0836276416
 32
0.0
 13
7.1628879962
 23
3.0836276416
 33
0.0
  0
LINE
  5
182
330
17D
100
AcDbEntity
  8
0
  6
Continuous
 62
     7
370
    18
100
AcDbLine
 10
6.4643253735
 20
3.1036276324
 30
0.0
 11
6.4389781509
 21
3.1036276324
 31
0.0
  0
LINE
  5
183
330
17D
100
AcDbEntity
  8
0
  6
Continuous
 62
     7
370
    18
100
AcDbLine
 10
6.4389781509
 20
3.1036276324
 30
0.0
 11
6.4389781509
 21
2.9712202278
 31
0.0
  0
LINE
  5
184
330
17D
100
AcDbEntity
  8
0
  6
Continuous
 62
     7
370
    18
100
AcDbLine
 10
6.4389781509
 20
2.9712202278
 30
0.0
 11
6.4643253735
 21
2.9712202278
 31
0.0
  0
LINE
  5
185
330
17D
100
AcDbEntity
  8
0
  6
Continuous
 62
     7
370
    18
100
AcDbLine
 10
6.8265167228
 20
3.1036276324
 30
0.0
 11
6.8518639454
 21
3.1036276324
 31
0.0
  0
LINE
  5
186
330
17D
100
AcDbEntity
  8
0
  6
Continuous
 62
     7
370
    18
100
AcDbLine
 10
6.8518639454
 20
3.1036276324
 30
0.0
 11
6.8518639454
 21
2.9712202278
 31
0.0
  0
LINE
  5
187
330
17D
100
AcDbEntity
  8
0
  6
Continuous
 62
     7
370
    18
100
AcDbLine
 10
6.8518639454
 20
2.9712202278
 30
0.0
 11
6.8265167228
 21
2.9712202278
 31
0.0
  0
LINE
  5
188
330
17D
100
AcDbEntity
  8
0
  6
Continuous
 62
     7
370
    18
100
AcDbLine
 10
7.4158879962
 20
3.238343262
 30
0.0
 11
7.4158879962
 21
3.0336276416
 31
0.0
  0
LINE
  5
189
330
17D
100
AcDbEntity
  8
0
  6
Continuous
 62
     7
370
    18
100
AcDbLine
 10
7.2878879962
 20
3.238343262
 30
0.0
 11
7.2878879962
 21
3.0336276416
 31
0.0
  0
LINE
  5
18A
330
17D
100
AcDbEntity
  8
0
  6
Continuous
 62
     7
370
    18
100
AcDbLine
 10
7.4158879962
 20
3.1036276416
 30
0.0
 11
7.6658879962
 21
3.1036276416
 31
0.0
  0
LINE
  5
18B
330
17D
100
AcDbEntity
  8
0
  6
Continuous
 62
     7
370
    18
100
AcDbLine
 10
7.2878879962
 20
3.1036276416
 30
0.0
 11
6.9555365735
 21
3.1036276416
 31
0.0
  0
MTEXT
  5
18C
330
17D
100
AcDbEntity
  8
0
  6
Continuous
 62
     7
370
    18
100
AcDbMText
 10
6.4147111762
 20
3.2279480909
 30
0.0
 40
0.0833333333
 41
0.0
 71
     1
 72
     1
  1

  7
SLDTEXTSTYLE0
 73
     1
 44
1.0
  0
MTEXT
  5
18D
330
17D
100
AcDbEntity
  8
0
  6
Continuous
 62
     7
370
    18
100
AcDbMText
 10
6.492720418
 20
3.2279480909
 30
0.0
 40
0.0833333333
 41
0.0
 71
     1
 72
     1
  1
0.13in
  7
SLDTEXTSTYLE0
 73
     1
 44
1.0
  0
MTEXT
  5
18E
330
17D
100
AcDbEntity
  8
0
  6
Continuous
 62
     7
370
    18
100
AcDbMText
 10
6.4643253735
 20
3.0786425349
 30
0.0
 40
0.0833333333
 41
0.0
 71
     1
 72
     1
  1
3.3mm
  7
SLDTEXTSTYLE0
 73
     1
 44
1.0
  0
MTEXT
  5
18F
330
17D
100
AcDbEntity
  8
0
  6
Continuous
 62
     7
370
    18
100
AcDbMText
 10
6.9397111313
 20
3.2279480909
 30
0.0
 40
0.0833333333
 41
0.0
 71
     1
 72
     1
  1

  7
SLDTEXTSTYLE0
 73
     1
 44
1.0
  0
ENDBLK
  5
17F
330
17D
100
AcDbEntity
  8
0
100
AcDbBlockEnd
  0
ENDSEC
  0
SECTION
  2
ENTITIES
  0
LINE
  5
81
330
1F
100
AcDbEntity
  8
0
  6
Continuous
 62
     7
370
    18
100
AcDbLine
 10
0.0621791378
 20
8.4506055117
 30
0.0
 11
10.9444569626
 21
8.4506055117
 31
0.0
  0
LINE
  5
82
330
1F
100
AcDbEntity
  8
0
  6
Continuous
 62
     7
370
    18
100
AcDbLine
 10
0.0621791378
 20
8.4506055117
 30
0.0
 11
0.0621791378
 21
0.035557648
 31
0.0
  0
LINE
  5
83
330
1F
100
AcDbEntity
  8
0
  6
Continuous
 62
     7
370
    18
100
AcDbLine
 10
10.9444569626
 20
0.035557648
 30
0.0
 11
0.0621791378
 21
0.035557648
 31
0.0
  0
LINE
  5
84
330
1F
100
AcDbEntity
  8
0
  6
Continuous
 62
     7
370
    18
100
AcDbLine
 10
10.9444569626
 20
0.035557648
 30
0.0
 11
10.9444569626
 21
8.4506055117
 31
0.0
  0
LINE
  5
85
330
1F
100
AcDbEntity
  8
0
  6
Continuous
 62
     7
370
    18
100
AcDbLine
 10
8.4938096065
 20
0.4840901186
 30
0.0
 11
6.7571952625
 21
0.4840901186
 31
0.0
  0
LINE
  5
86
330
1F
100
AcDbEntity
  8
0
  6
Continuous
 62
     7
370
    18
100
AcDbLine
 10
6.7571952625
 20
0.4840901186
 30
0.0
 11
6.7571952625
 21
1.030163002
 31
0.0
  0
LINE
  5
87
330
1F
100
AcDbEntity
  8
0
  6
Continuous
 62
     7
370
    18
100
AcDbLine
 10
6.7571952625
 20
0.035557648
 30
0.0
 11
6.7571952625
 21
1.030163002
 31
0.0
  0
LINE
  5
88
330
1F
100
AcDbEntity
  8
0
  6
Continuous
 62
     7
370
    18
100
AcDbLine
 10
8.4938096065
 20
0.6756085809
 30
0.0
 11
10.9444569626
 21
0.6756085809
 31
0.0
  0
LINE
  5
89
330
1F
100
AcDbEntity
  8
0
  6
Continuous
 62
     7
370
    18
100
AcDbLine
 10
8.4938096065
 20
1.3873799542
 30
0.0
 11
8.4938096065
 21
0.035557648
 31
0.0
  0
LINE
  5
8A
330
1F
100
AcDbEntity
  8
0
  6
Continuous
 62
     7
370
    18
100
AcDbLine
 10
8.4938096065
 20
1.030163002
 30
0.0
 11
6.7571952625
 21
1.030163002
 31
0.0
  0
LINE
  5
8B
330
1F
100
AcDbEntity
  8
0
  6
Continuous
 62
     7
370
    18
100
AcDbLine
 10
8.4938096065
 20
0.3598787426
 30
0.0
 11
10.9444569626
 21
0.3598787426
 31
0.0
  0
LINE
  5
8C
330
1F
100
AcDbEntity
  8
0
  6
Continuous
 62
     7
370
    18
100
AcDbLine
 10
8.4938096065
 20
0.6662079686
 30
0.0
 11
6.7571952625
 21
0.6662079686
 31
0.0
  0
LINE
  5
8D
330
1F
100
AcDbEntity
  8
0
  6
Continuous
 62
     7
370
    18
100
AcDbLine
 10
8.4938096065
 20
0.8459606517
 30
0.0
 11
6.7571952625
 21
0.8459606517
 31
0.0
  0
LINE
  5
8E
330
1F
100
AcDbEntity
  8
0
  6
Continuous
 62
     7
370
    18
100
AcDbLine
 10
7.3281027587
 20
1.030163002
 30
0.0
 11
7.3281027587
 21
0.4840901186
 31
0.0
  0
LINE
  5
8F
330
1F
100
AcDbEntity
  8
0
  6
Continuous
 62
     7
370
    18
100
AcDbLine
 10
7.8037240401
 20
1.030163002
 30
0.0
 11
7.8037240401
 21
0.4840901186
 31
0.0
  0
LINE
  5
90
330
1F
100
AcDbEntity
  8
0
  6
Continuous
 62
     7
370
    18
100
AcDbLine
 10
9.990119718
 20
0.3598787426
 30
0.0
 11
9.990119718
 21
0.035557648
 31
0.0
  0
LINE
  5
91
330
1F
100
AcDbEntity
  8
0
  6
Continuous
 62
     7
370
    18
100
AcDbLine
 10
6.7571952625
 20
0.4840901186
 30
0.0
 11
6.7571952625
 21
0.297745443
 31
0.0
  0
LINE
  5
92
330
1F
100
AcDbEntity
  8
0
  6
Continuous
 62
     7
370
    18
100
AcDbLine
 10
6.7571952625
 20
0.297745443
 30
0.0
 11
8.4938096065
 21
0.297745443
 31
0.0
  0
LINE
  5
93
330
1F
100
AcDbEntity
  8
0
  6
Continuous
 62
     7
370
    18
100
AcDbLine
 10
6.7571952625
 20
0.297745443
 30
0.0
 11
6.7571952625
 21
1.3873799542
 31
0.0
  0
LINE
  5
94
330
1F
100
AcDbEntity
  8
0
  6
Continuous
 62
     7
370
    18
100
AcDbLine
 10
6.7571952625
 20
1.3873799542
 30
0.0
 11
8.4938096065
 21
1.3873799542
 31
0.0
  0
LINE
  5
95
330
1F
100
AcDbEntity
  8
0
  6
Continuous
 62
     7
370
    18
100
AcDbLine
 10
10.6365495992
 20
0.6756085809
 30
0.0
 11
10.6365495992
 21
0.3598787426
 31
0.0
  0
LINE
  5
96
330
1F
100
AcDbEntity
  8
0
  6
Continuous
 62
     7
370
    18
100
AcDbLine
 10
8.4938096065
 20
1.3873799542
 30
0.0
 11
10.9444569626
 21
1.3873799542
 31
0.0
  0
LINE
  5
97
330
1F
100
AcDbEntity
  8
0
  6
Continuous
 62
     7
370
    18
100
AcDbLine
 10
10.9444569626
 20
1.3873799542
 30
0.0
 11
10.9444569626
 21
1.9698084888
 31
0.0
  0
LINE
  5
98
330
1F
100
AcDbEntity
  8
0
  6
Continuous
 62
     7
370
    18
100
AcDbLine
 10
8.4938096065
 20
0.9800288797
 30
0.0
 11
10.9444569626
 21
0.9800288797
 31
0.0
  0
INSERT
  5
99
330
1F
100
AcDbEntity
  8
0
  6
Continuous
 62
     7
100
AcDbBlockReference
  2
Third Angle Projection Block
 10
4.6348905679
 20
0.6108753523
 30
0.0
 41
0.8
 42
0.8
 43
0.8
  0
INSERT
  5
A9
330
1F
100
AcDbEntity
  8
0
  6
Continuous
 62
     7
370
     0
100
AcDbBlockReference
  2
SW_NOTE_0
 10
0.1180056711
 20
1.4823576947
 30
0.0
  0
MTEXT
  5
AA
330
1F
100
AcDbEntity
  8
0
  6
Continuous
 62
     7
370
     0
100
AcDbMText
 10
10.7836923968
 20
0.5162413101
 30
0.0
 40
0.125
 41
0.0
 71
     2
 72
     1
  1
E
  7
SLDTEXTSTYLE0
 73
     1
 44
1.0
  0
MTEXT
  5
AB
330
1F
100
AcDbEntity
  8
0
  6
Continuous
 62
     7
370
     0
100
AcDbMText
 10
9.242393164
 20
0.2019943461
 30
0.0
 40
0.125
 41
0.0
 71
     2
 72
     1
  1
SI035P
  7
SLDTEXTSTYLE0
 73
     1
 44
1.0
  0
MTEXT
  5
AC
330
1F
100
AcDbEntity
  8
0
  6
Continuous
 62
     7
370
     0
100
AcDbMText
 10
8.5204715199
 20
0.6623747189
 30
0.0
 40
0.0833333333
 41
0.0
 71
     1
 72
     1
  1
MATERIAL
  7
SLDTEXTSTYLE0
 73
     1
 44
1.0
  0
MTEXT
  5
AD
330
1F
100
AcDbEntity
  8
0
  6
Continuous
 62
     7
370
     0
100
AcDbMText
 10
6.8594860853
 20
0.7895493672
 30
0.0
 40
0.0729166667
 41
0.0
 71
     1
 72
     1
  1
DRAWN
  7
SLDTEXTSTYLE0
 73
     1
 44
1.0
  0
MTEXT
  5
AE
330
1F
100
AcDbEntity
  8
0
  6
Continuous
 62
     7
370
     0
100
AcDbMText
 10
6.7872445848
 20
0.613335314
 30
0.0
 40
0.0729166667
 41
0.0
 71
     1
 72
     1
  1
APPROVAL
  7
SLDTEXTSTYLE0
 73
     1
 44
1.0
  0
MTEXT
  5
AF
330
1F
100
AcDbEntity
  8
0
  6
Continuous
 62
     7
370
     0
100
AcDbMText
 10
10.681956279
 20
0.6308568984
 30
0.0
 40
0.0833333333
 41
0.0
 71
     1
 72
     1
  1
REV
  7
SLDTEXTSTYLE0
 73
     1
 44
1.0
  0
MTEXT
  5
B0
330
1F
100
AcDbEntity
  8
0
  6
Continuous
 62
     7
370
     0
100
AcDbMText
 10
7.4919633718
 20
0.7999100272
 30
0.0
 40
0.0833333333
 41
0.0
 71
     1
 72
     1
  1
DT
  7
SLDTEXTSTYLE0
 73
     1
 44
1.0
  0
MTEXT
  5
B1
330
1F
100
AcDbEntity
  8
0
  6
Continuous
 62
     7
370
     0
100
AcDbMText
 10
7.8687497515
 20
0.7999100272
 30
0.0
 40
0.0833333333
 41
0.0
 71
     1
 72
     1
  1
21/JAN/19
  7
SLDTEXTSTYLE0
 73
     1
 44
1.0
  0
MTEXT
  5
B2
330
1F
100
AcDbEntity
  8
0
  6
Continuous
 62
     7
370
     0
100
AcDbMText
 10
8.0163191884
 20
0.9772495896
 30
0.0
 40
0.0833333333
 41
0.0
 71
     1
 72
     1
  1
DATE
  7
SLDTEXTSTYLE0
 73
     1
 44
1.0
  0
MTEXT
  5
B4
330
1F
100
AcDbEntity
  8
0
  6
Continuous
 62
     7
370
     0
100
AcDbMText
 10
9.0316104912
 20
1.0943207896
 30
0.0
 40
0.0833333333
 41
0.0
 71
     1
 72
     1
  1
w w w . t h o r  l a b s . c o m
  7
SLDTEXTSTYLE2
 73
     1
 44
1.0
  0
MTEXT
  5
B5
330
1F
100
AcDbEntity
  8
0
  6
Continuous
 62
     7
370
     0
100
AcDbMText
 10
8.5315119501
 20
0.328719653
 30
0.0
 40
0.0833333333
 41
0.0
 71
     1
 72
     1
  1
ITEM #
  7
SLDTEXTSTYLE0
 73
     1
 44
1.0
  0
MTEXT
  5
B6
330
1F
100
AcDbEntity
  8
0
  6
Continuous
 62
     7
370
     0
100
AcDbMText
 10
10.0209370115
 20
0.328719653
 30
0.0
 40
0.0833333333
 41
0.0
 71
     1
 72
     1
  1
APPROX WEIGHT
  7
SLDTEXTSTYLE0
 73
     1
 44
1.0
  0
MTEXT
  5
B7
330
1F
100
AcDbEntity
  8
0
  6
Continuous
 62
     7
370
     0
100
AcDbMText
 10
9.5915495694
 20
0.5162413101
 30
0.0
 40
0.125
 41
0.0
 71
     2
 72
     1
  1
SEE TABLE
  7
SLDTEXTSTYLE0
 73
     1
 44
1.0
  0
MTEXT
  5
B8
330
1F
100
AcDbEntity
  8
0
  6
Continuous
 62
     7
370
     0
100
AcDbMText
 10
10.4790491378
 20
0.2019943461
 30
0.0
 40
0.125
 41
0.0
 71
     2
 72
     1
  1
0.02 kg
  7
SLDTEXTSTYLE0
 73
     1
 44
1.0
  0
INSERT
  5
BE
330
1F
100
AcDbEntity
  8
0
  6
Continuous
 62
     7
370
     0
100
AcDbBlockReference
  2
SW_NOTE_1
 10
6.8835832285
 20
0.1754273811
 30
0.0
  0
INSERT
  5
C4
330
1F
100
AcDbEntity
  8
0
  6
Continuous
 62
     7
370
     0
100
AcDbBlockReference
  2
SW_NOTE_2
 10
6.8719828753
 20
1.2001390658
 30
0.0
  0
MTEXT
  5
C5
330
1F
100
AcDbEntity
  8
0
  6
Continuous
 62
     7
370
     0
100
AcDbMText
 10
7.3987149145
 20
0.9772495896
 30
0.0
 40
0.0833333333
 41
0.0
 71
     1
 72
     1
  1
NAME
  7
SLDTEXTSTYLE0
 73
     1
 44
1.0
  0
INSERT
  5
CB
330
1F
100
AcDbEntity
  8
0
  6
Continuous
 62
     7
370
     0
100
AcDbBlockReference
  2
SW_NOTE_3
 10
2.3078923918
 20
0.3219551564
 30
0.0
  0
MTEXT
  5
CC
330
1F
100
AcDbEntity
  8
0
  6
Continuous
 62
     7
370
     0
100
AcDbMText
 10
7.0518693355
 20
0.4200025137
 30
0.0
 40
0.0625
 41
0.0
 71
     1
 72
     1
  1
COPYRIGHT © 2019 BY THORLABS
  7
SLDTEXTSTYLE0
 73
     1
 44
1.0
  0
MTEXT
  5
CD
330
1F
100
AcDbEntity
  8
0
  6
Continuous
 62
     7
370
     0
100
AcDbMText
 10
9.6998637896
 20
0.894553016
 30
0.0
 40
0.125
 41
0.0
 71
     2
 72
     1
  1
SHEAR-PLATE, 1-3mm BEAM
  7
SLDTEXTSTYLE0
 73
     1
 44
1.0
  0
MTEXT
  5
CE
330
1F
100
AcDbEntity
  8
0
  6
Continuous
 62
     7
370
     0
100
AcDbMText
 10
7.8615074495
 20
0.6075824955
 30
0.0
 40
0.0833333333
 41
0.0
 71
     1
 72
     1
  1
21/JAN/19
  7
SLDTEXTSTYLE0
 73
     1
 44
1.0
  0
MTEXT
  5
CF
330
1F
100
AcDbEntity
  8
0
  6
Continuous
 62
     7
370
     0
100
AcDbMText
 10
7.4847210699
 20
0.6075824955
 30
0.0
 40
0.0833333333
 41
0.0
 71
     1
 72
     1
  1
BW
  7
SLDTEXTSTYLE0
 73
     1
 44
1.0
  0
INSERT
  5
F7
330
1F
100
AcDbEntity
  8
0
  6
Continuous
 62
     7
370
     0
100
AcDbBlockReference
  2
SW_TABLEANNOTATION_0
 10
0.0556285714
 20
8.4558167687
 30
0.0
  0
CIRCLE
  5
F8
330
1F
100
AcDbEntity
  8
0
  6
Continuous
 62
     7
370
    18
100
AcDbCircle
 10
3.369526649
 20
4.148343262
 30
0.0
 40
0.1562992125984248
  0
LINE
  5
F9
330
1F
100
AcDbEntity
  8
0
  6
Continuous
 62
     7
370
    18
100
AcDbLine
 10
2.4195266568
 20
3.288343274
 30
0.0
 11
4.3195266412
 21
3.288343274
 31
0.0
  0
LINE
  5
FA
330
1F
100
AcDbEntity
  8
0
  6
Continuous
 62
     7
370
    18
100
AcDbLine
 10
2.4195266568
 20
5.2883432499
 30
0.0
 11
2.4195266568
 21
3.288343274
 31
0.0
  0
LINE
  5
FB
330
1F
100
AcDbEntity
  8
0
  6
Continuous
 62
     7
370
    18
100
AcDbLine
 10
4.3195266412
 20
5.2883432499
 30
0.0
 11
2.4195266568
 21
5.2883432499
 31
0.0
  0
LINE
  5
FC
330
1F
100
AcDbEntity
  8
0
  6
Continuous
 62
     7
370
    18
100
AcDbLine
 10
4.3195266412
 20
3.288343274
 30
0.0
 11
4.3195266412
 21
5.2883432499
 31
0.0
  0
CIRCLE
  5
FD
330
1F
100
AcDbEntity
  8
0
  6
Continuous
 62
     7
370
    18
100
AcDbCircle
 10
3.369526649
 20
4.148343262
 30
0.0
 40
0.2549999999999999
  0
CIRCLE
  5
FE
330
1F
100
AcDbEntity
  8
0
  6
Continuous
 62
     7
370
    18
100
AcDbCircle
 10
2.669526649
 20
3.436343262
 30
0.0
 40
0.0985000000000009
  0
CIRCLE
  5
FF
330
1F
100
AcDbEntity
  8
0
  6
Continuous
 62
     7
370
    18
100
AcDbCircle
 10
4.069526649
 20
3.436343262
 30
0.0
 40
0.0985000000000005
  0
CIRCLE
  5
100
330
1F
100
AcDbEntity
  8
0
  6
Continuous
 62
     7
370
    18
100
AcDbCircle
 10
3.369526649
 20
5.087343262
 30
0.0
 40
0.0985000000000009
  0
CIRCLE
  5
101
330
1F
100
AcDbEntity
  8
0
  6
Continuous
 62
     7
370
    18
100
AcDbCircle
 10
3.369526649
 20
4.148343262
 30
0.0
 40
0.25
  0
CIRCLE
  5
102
330
1F
100
AcDbEntity
  8
0
  6
Continuous
 62
     7
370
    18
100
AcDbCircle
 10
3.369526649
 20
5.087343262
 30
0.0
 40
0.0935000000000001
  0
CIRCLE
  5
103
330
1F
100
AcDbEntity
  8
0
  6
Continuous
 62
     7
370
    18
100
AcDbCircle
 10
4.069526649
 20
3.436343262
 30
0.0
 40
0.0934999999999997
  0
CIRCLE
  5
104
330
1F
100
AcDbEntity
  8
0
  6
Continuous
 62
     7
370
    18
100
AcDbCircle
 10
2.669526649
 20
3.436343262
 30
0.0
 40
0.0935000000000001
  0
CIRCLE
  5
105
330
1F
100
AcDbEntity
  8
0
  6
Continuous
 62
     7
370
    18
100
AcDbCircle
 10
3.369526649
 20
4.148343262
 30
0.0
 40
0.1624803149606295
  0
CIRCLE
  5
106
330
1F
100
AcDbEntity
  8
0
  6
Continuous
 62
     7
370
    18
100
AcDbCircle
 10
3.369526649
 20
4.148343262
 30
0.0
 40
0.1574803149606301
  0
DIMENSION
  5
107
330
1F
100
AcDbEntity
  8
0
  6
Continuous
 62
     7
370
    18
100
AcDbDimension
  2
_D
 10
1.6797313298
 20
5.288343262
 30
0.0
 11
1.6797313298
 21
4.288343262
 31
0.0
 70
   160
  1
<>
 71
     2
 42
-1.0
  3
SLDDIMSTYLE0
100
AcDbAlignedDimension
 13
2.419526649
 23
3.288343262
 33
0.0
 14
2.419526649
 24
5.288343262
 34
0.0
 50
90.0
100
AcDbRotatedDimension
  0
DIMENSION
  5
11C
330
1F
100
AcDbEntity
  8
0
  6
Continuous
 62
     7
370
    18
100
AcDbDimension
  2
_D_1
 10
4.319526649
 20
2.9891240628
 30
0.0
 11
3.369526649
 21
2.9891240628
 31
0.0
 70
   160
  1
<>
 71
     2
 42
-1.0
  3
SLDDIMSTYLE0
100
AcDbAlignedDimension
 13
2.419526649
 23
3.288343262
 33
0.0
 14
4.319526649
 24
3.288343262
 34
0.0
100
AcDbRotatedDimension
  0
DIMENSION
  5
130
330
1F
100
AcDbEntity
  8
0
  6
Continuous
 62
     7
370
    18
100
AcDbDimension
  2
_D_2
 10
2.0832640371
 20
4.148343262
 30
0.0
 11
2.0832640371
 21
3.718343262
 31
0.0
 70
   160
  1
<>
 71
     2
 42
-1.0
  3
SLDDIMSTYLE1
100
AcDbAlignedDimension
 13
2.419526649
 23
3.288343262
 33
0.0
 14
3.319526649
 24
4.148343262
 34
0.0
 50
90.0
100
AcDbRotatedDimension
  0
INSERT
  5
14A
102
{ACAD_REACTORS
330
14C
102
}
330
1F
100
AcDbEntity
  8
0
  6
Continuous
 62
     7
370
     0
100
AcDbBlockReference
  2
SW_NOTE_4
 10
4.0891951254
 20
5.6931704809
 30
0.0
  0
LEADER
  5
14C
330
1F
100
AcDbEntity
  8
0
  6
Continuous
 62
     7
370
     0
100
AcDbLeader
  3
SLDDIMSTYLE2
 73
     2
 76
     3
 10
3.4118412775
 20
5.1707202505
 30
0.0
 10
3.8431321333
 20
5.6931704809
 30
0.0
 10
4.0891951254
 20
5.6931704809
 30
0.0
340
14A
  0
INSERT
  5
152
102
{ACAD_REACTORS
330
153
102
}
330
1F
100
AcDbEntity
  8
0
  6
Continuous
 62
     7
370
     0
100
AcDbBlockReference
  2
SW_NOTE_5
 10
4.8950154505
 20
3.5021066446
 30
0.0
  0
LEADER
  5
153
330
1F
100
AcDbEntity
  8
0
  6
Continuous
 62
     7
370
     0
100
AcDbLeader
  3
SLDDIMSTYLE2
 73
     2
 76
     3
 10
3.4984963741
 20
4.0600468642
 30
0.0
 10
4.6489524584
 20
3.5021066446
 30
0.0
 10
4.8950154505
 20
3.5021066446
 30
0.0
340
152
  0
INSERT
  5
159
102
{ACAD_REACTORS
330
15A
102
}
330
1F
100
AcDbEntity
  8
0
  6
Continuous
 62
     7
370
     0
100
AcDbBlockReference
  2
SW_NOTE_6
 10
5.1137381102
 20
4.530486869
 30
0.0
  0
LEADER
  5
15A
330
1F
100
AcDbEntity
  8
0
  6
Continuous
 62
     7
370
     0
100
AcDbLeader
  3
SLDDIMSTYLE2
 73
     2
 76
     3
 10
4.319526649
 20
4.0964714787
 30
0.0
 10
4.867675118
 20
4.530486869
 30
0.0
 10
5.1137381102
 20
4.530486869
 30
0.0
340
159
  0
INSERT
  5
162
330
1F
100
AcDbEntity
  8
0
  6
Continuous
 62
     7
370
     0
100
AcDbBlockReference
  2
SW_CENTERMARKSYMBOL_0
 10
3.369526649
 20
4.148343262
 30
0.0
  0
LINE
  5
163
330
1F
100
AcDbEntity
  8
0
  6
Continuous
 62
     7
370
    18
100
AcDbLine
 10
7.4158879962
 20
4.9122014218
 30
0.0
 11
7.4160129962
 21
4.9122014218
 31
0.0
  0
LINE
  5
164
330
1F
100
AcDbEntity
  8
0
  6
Continuous
 62
     7
370
    18
100
AcDbLine
 10
7.4160129962
 20
4.9405366544
 30
0.0
 11
7.4158879962
 21
4.9405366544
 31
0.0
  0
ARC
  5
165
330
1F
100
AcDbEntity
  8
0
  6
Continuous
 62
     7
370
    18
100
AcDbCircle
 10
7.2941379962
 20
5.087593262
 30
0.0
 40
0.0937499999999996
100
AcDbArc
 50
93.8225537293
 51
172.6663293189
  0
ARC
  5
166
330
1F
100
AcDbEntity
  8
0
  6
Continuous
 62
     7
370
    18
100
AcDbCircle
 10
7.2941379962
 20
5.087593262
 30
0.0
 40
0.0937500000000002
100
AcDbArc
 50
172.6663293189
 51
266.1774462707
  0
ARC
  5
167
330
1F
100
AcDbEntity
  8
0
  6
Continuous
 62
     7
370
    18
100
AcDbCircle
 10
7.2941379962
 20
3.4360932505
 30
0.0
 40
0.0937500000000007
100
AcDbArc
 50
93.8225537293
 51
239.0649986005
  0
ARC
  5
168
330
1F
100
AcDbEntity
  8
0
  6
Continuous
 62
     7
370
    18
100
AcDbCircle
 10
7.2941379962
 20
3.4360932505
 30
0.0
 40
0.0937500000000007
100
AcDbArc
 50
239.0649986005
 51
266.1774462707
  0
ARC
  5
169
330
1F
100
AcDbEntity
  8
0
  6
Continuous
 62
     7
370
    18
100
AcDbCircle
 10
7.2941379962
 20
3.4360932611
 30
0.0
 40
0.09375
100
AcDbArc
 50
149.0650041669
 51
180.0
  0
ARC
  5
16A
330
1F
100
AcDbEntity
  8
0
  6
Continuous
 62
     7
370
    18
100
AcDbCircle
 10
7.2941379962
 20
3.4360932611
 30
0.0
 40
0.0937500091081079
100
AcDbArc
 50
180.0
 51
239.0650019365
  0
LINE
  5
16B
330
1F
100
AcDbEntity
  8
0
  6
Continuous
 62
     7
370
    18
100
AcDbLine
 10
7.2878879932
 20
3.288343274
 30
0.0
 11
7.4158879962
 21
3.288343274
 31
0.0
  0
LINE
  5
16C
330
1F
100
AcDbEntity
  8
0
  6
Continuous
 62
     7
370
    18
100
AcDbLine
 10
7.2878879932
 20
3.288343274
 30
0.0
 11
7.2878879932
 21
5.2883432499
 31
0.0
  0
LINE
  5
16D
330
1F
100
AcDbEntity
  8
0
  6
Continuous
 62
     7
370
    18
100
AcDbLine
 10
7.4158879962
 20
5.1603432285
 30
0.0
 11
7.2878879932
 21
5.2883432499
 31
0.0
  0
LINE
  5
16E
330
1F
100
AcDbEntity
  8
0
  6
Continuous
 62
     7
370
    18
100
AcDbLine
 10
7.4158879962
 20
3.288343274
 30
0.0
 11
7.4158879962
 21
5.1603432285
 31
0.0
  0
DIMENSION
  5
16F
330
1F
100
AcDbEntity
  8
0
  6
Continuous
 62
     7
370
    18
100
AcDbDimension
  2
_D_3
 10
7.4158879962
 20
5.160343262
 30
0.0
 11
6.9874911523
 21
6.1945847326
 31
0.0
 70
   162
  1
<>
 71
     1
 42
-1.0
  3
SLDDIMSTYLE3
100
AcDb2LineAngularDimension
 13
7.2878879962
 23
5.288343262
 33
0.0
 14
7.4158879962
 24
5.160343262
 34
0.0
 15
7.4158879962
 25
3.288343262
 35
0.0
 16
7.2414571982
 26
6.2661249638
 36
0.0
  0
DIMENSION
  5
17B
330
1F
100
AcDbEntity
  8
0
  6
Continuous
 62
     7
370
    18
100
AcDbDimension
  2
_D_4
 10
7.2878879962
 20
3.1036276416
 30
0.0
 11
6.645421039
 21
3.1036276416
 31
0.0
 70
   160
  1
<>
 71
     2
 42
-1.0
  3
SLDDIMSTYLE4
100
AcDbAlignedDimension
 13
7.4158879962
 23
3.288343262
 33
0.0
 14
7.2878879962
 24
3.288343262
 34
0.0
100
AcDbRotatedDimension
  0
LINE
  5
190
330
1F
100
AcDbEntity
  8
0
  6
Continuous
 62
     7
370
    18
100
AcDbLine
 10
10.5074778074
 20
6.1528438137
 30
0.0
 11
10.5083616908
 21
6.1533540688
 31
0.0
  0
LINE
  5
191
330
1F
100
AcDbEntity
  8
0
  6
Continuous
 62
     7
370
    18
100
AcDbLine
 10
9.8752648407
 20
6.5186064332
 30
0.0
 11
9.8761487242
 21
6.5191166882
 31
0.0
  0
LINE
  5
192
330
1F
100
AcDbEntity
  8
0
  6
Continuous
 62
     7
370
    18
100
AcDbLine
 10
9.8769617624
 20
6.4856853356
 30
0.0
 11
9.8778456459
 21
6.4861955907
 31
0.0
  0
LINE
  5
193
330
1F
100
AcDbEntity
  8
0
  6
Continuous
 62
     7
370
    18
100
AcDbLine
 10
9.7868572403
 20
6.5677607661
 30
0.0
 11
9.7859733568
 21
6.567250511
 31
0.0
  0
LINE
  5
194
330
1F
100
AcDbEntity
  8
0
  6
Continuous
 62
     7
370
    18
100
AcDbLine
 10
9.7616564436
 20
6.5823318095
 30
0.0
 11
9.7607725601
 21
6.5818215544
 31
0.0
  0
LINE
  5
195
330
1F
100
AcDbEntity
  8
0
  6
Continuous
 62
     7
370
    18
100
AcDbLine
 10
9.7175063829
 20
6.6077961639
 30
0.0
 11
9.7166224994
 21
6.6072859088
 31
0.0
  0
LINE
  5
196
330
1F
100
AcDbEntity
  8
0
  6
Continuous
 62
     7
370
    18
100
AcDbLine
 10
9.6923055862
 20
6.6223672073
 30
0.0
 11
9.6914217027
 21
6.6218569522
 31
0.0
  0
LINE
  5
197
330
1F
100
AcDbEntity
  8
0
  6
Continuous
 62
     7
370
    18
100
AcDbLine
 10
9.6457480741
 20
6.6670914928
 30
0.0
 11
9.6448641906
 21
6.6665812377
 31
0.0
  0
LINE
  5
198
330
1F
100
AcDbEntity
  8
0
  6
Continuous
 62
     7
370
    18
100
AcDbLine
 10
9.6586918817
 20
6.610965472
 30
0.0
 11
9.6595757652
 21
6.6114757271
 31
0.0
  0
LINE
  5
199
330
1F
100
AcDbEntity
  8
0
  6
Continuous
 62
     7
370
    18
100
AcDbLine
 10
9.5887310745
 20
6.6854483225
 30
0.0
 11
9.589614958
 21
6.6859585776
 31
0.0
  0
LINE
  5
19A
330
1F
100
AcDbEntity
  8
0
  6
Continuous
 62
     7
370
    18
100
AcDbLine
 10
9.5754924203
 20
6.7076870041
 30
0.0
 11
9.5746085368
 21
6.707176749
 31
0.0
  0
LINE
  5
19B
330
1F
100
AcDbEntity
  8
0
  6
Continuous
 62
     7
370
    18
100
AcDbLine
 10
9.5904858974
 20
6.6505658085
 30
0.0
 11
9.5913697809
 21
6.6510760635
 31
0.0
  0
LINE
  5
19C
330
1F
100
AcDbEntity
  8
0
  6
Continuous
 62
     7
370
    18
100
AcDbLine
 10
9.5024229688
 20
6.7498313149
 30
0.0
 11
9.5015390854
 21
6.7493210598
 31
0.0
  0
LINE
  5
19D
330
1F
100
AcDbEntity
  8
0
  6
Continuous
 62
     7
370
    18
100
AcDbLine
 10
9.5153667764
 20
6.6937052941
 30
0.0
 11
9.5162506599
 21
6.6942155492
 31
0.0
  0
LINE
  5
19E
330
1F
100
AcDbEntity
  8
0
  6
Continuous
 62
     7
370
    18
100
AcDbLine
 10
9.4367048404
 20
6.7899838691
 30
0.0
 11
9.4375887239
 21
6.7904941242
 31
0.0
  0
SPLINE
  5
19F
330
1F
100
AcDbEntity
  8
0
  6
Continuous
 62
     7
370
    18
100
AcDbSpline
210
0.0
220
0.0
230
1.0
 70
     8
 71
     3
 72
    15
 73
    11
 74
     0
 42
0.000000001
 43
0.00000001
 40
0.0
 40
0.0
 40
0.0
 40
0.0
 40
0.1426698808292013
 40
0.2811938871410143
 40
0.4173277977783971
 40
0.5512149507785093
 40
0.6787379175113307
 40
0.7950142962491248
 40
0.9019895017774405
 40
1.0
 40
1.0
 40
1.0
 40
1.0
 10
9.425304431890197
 20
6.787276799801211
 30
0.0
 10
9.426267133762295
 20
6.787293974683065
 30
0.0
 10
9.428164562147318
 20
6.787327825358214
 30
0.0
 10
9.430850486355936
 20
6.787723816597795
 30
0.0
 10
9.433345385169579
 20
6.788414141984811
 30
0.0
 10
9.435634430962038
 20
6.789365988290373
 30
0.0
 10
9.437675763461373
 20
6.790516076331036
 30
0.0
 10
9.439409483594037
 20
6.791850110345344
 30
0.0
 10
9.440848748494158
 20
6.793301825483443
 30
0.0
 10
9.44157330625389
 20
6.794475368136702
 30
0.0
 10
9.441919741472164
 20
6.795036477999617
 30
0.0
  0
LINE
  5
1A0
330
1F
100
AcDbEntity
  8
0
  6
Continuous
 62
     7
370
    18
100
AcDbLine
 10
9.4253044319
 20
6.7790737706
 30
0.0
 11
9.4253044319
 21
6.7872767998
 31
0.0
  0
SPLINE
  5
1A1
330
1F
100
AcDbEntity
  8
0
  6
Continuous
 62
     7
370
    18
100
AcDbSpline
210
0.0
220
0.0
230
1.0
 70
     8
 71
     3
 72
    15
 73
    11
 74
     0
 42
0.000000001
 43
0.00000001
 40
0.0
 40
0.0
 40
0.0
 40
0.0
 40
0.1116746448344033
 40
0.2321035109070487
 40
0.362329606145318
 40
0.5015403706238744
 40
0.6415111562240647
 40
0.7710895894770928
 40
0.8901574839199068
 40
1.0
 40
1.0
 40
1.0
 40
1.0
 10
9.439174603367317
 20
6.781299622381473
 30
0.0
 10
9.438730756062863
 20
6.781061991438531
 30
0.0
 10
9.43780826808161
 20
6.780568101565507
 30
0.0
 10
9.436253921053886
 20
6.780009506188072
 30
0.0
 10
9.434507561660745
 20
6.779566339106648
 30
0.0
 10
9.432617501824563
 20
6.779227562688567
 30
0.0
 10
9.430681848797285
 20
6.779007433705184
 30
0.0
 10
9.428806883049168
 20
6.778888078693307
 30
0.0
 10
9.427033331048914
 20
6.77889690262491
 30
0.0
 10
9.425865037035505
 20
6.779016420185326
 30
0.0
 10
9.425304431890197
 20
6.779073770611294
 30
0.0
  0
LINE
  5
1A2
330
1F
100
AcDbEntity
  8
0
  6
Continuous
 62
     7
370
    18
100
AcDbLine
 10
9.4391746034
 20
6.7272152435
 30
0.0
 11
9.4391746034
 21
6.7812996224
 31
0.0
  0
LINE
  5
1A3
330
1F
100
AcDbEntity
  8
0
  6
Continuous
 62
     7
370
    18
100
AcDbLine
 10
9.4468802542
 20
6.722766866
 30
0.0
 11
9.4391746034
 21
6.7272152435
 31
0.0
  0
LINE
  5
1A4
330
1F
100
AcDbEntity
  8
0
  6
Continuous
 62
     7
370
    18
100
AcDbLine
 10
9.4468802542
 20
6.792172835
 30
0.0
 11
9.4468802542
 21
6.722766866
 31
0.0
  0
LINE
  5
1A5
330
1F
100
AcDbEntity
  8
0
  6
Continuous
 62
     7
370
    18
100
AcDbLine
 10
9.4419197415
 20
6.795036478
 30
0.0
 11
9.4468802542
 21
6.792172835
 31
0.0
  0
SPLINE
  5
1A6
330
1F
100
AcDbEntity
  8
0
  6
Continuous
 62
     7
370
    18
100
AcDbSpline
210
0.0
220
0.0
230
1.0
 70
     8
 71
     3
 72
    31
 73
    27
 74
     0
 42
0.000000001
 43
0.00000001
 40
0.0
 40
0.0
 40
0.0
 40
0.0
 40
0.0628729369832531
 40
0.1228346582660095
 40
0.17965368366555
 40
0.2339562567955639
 40
0.2855473950458364
 40
0.3345189820567462
 40
0.3806227038405213
 40
0.42452950317676
 40
0.4664416769228077
 40
0.5065145853718175
 40
0.5447930111054544
 40
0.5818456530092797
 40
0.6174621814237213
 40
0.6520802585584685
 40
0.6858925172859709
 40
0.719186823394995
 40
0.7521933849929773
 40
0.7852513720621817
 40
0.8186671215359255
 40
0.852835618843419
 40
0.8876281460368513
 40
0.9236363038488349
 40
0.9610224701392103
 40
0.9999999999999999
 40
0.9999999999999999
 40
0.9999999999999999
 40
0.9999999999999999
 10
9.527789587804477
 20
6.710289169431785
 30
0.0
 10
9.527781722079848
 20
6.709306486564225
 30
0.0
 10
9.527766354838503
 20
6.707386622151769
 30
0.0
 10
9.527673969108937
 20
6.704620384549104
 30
0.0
 10
9.52750149239758
 20
6.702040570970508
 30
0.0
 10
9.527279378568812
 20
6.69962628685609
 30
0.0
 10
9.52697981246442
 20
6.697391393027317
 30
0.0
 10
9.526607870782998
 20
6.695342727637247
 30
0.0
 10
9.52617266916132
 20
6.693469630046732
 30
0.0
 10
9.525683301358262
 20
6.691758316771766
 30
0.0
 10
9.52511874309643
 20
6.690216533725451
 30
0.0
 10
9.524479038425538
 20
6.688846630235318
 30
0.0
 10
9.523780679668858
 20
6.687625617702492
 30
0.0
 10
9.523011744859904
 20
6.686568620535075
 30
0.0
 10
9.522176206263346
 20
6.685668387530189
 30
0.0
 10
9.521287558554622
 20
6.68490792869948
 30
0.0
 10
9.520321094315381
 20
6.684319209976124
 30
0.0
 10
9.51927876949838
 20
6.683906921055216
 30
0.0
 10
9.518181530243899
 20
6.683626770378619
 30
0.0
 10
9.517007338462642
 20
6.68352311341836
 30
0.0
 10
9.515758920915998
 20
6.683591842111014
 30
0.0
 10
9.514447409497706
 20
6.683804053825787
 30
0.0
 10
9.513064097573196
 20
6.684188504308612
 30
0.0
 10
9.511616193243448
 20
6.684716889725143
 30
0.0
 10
9.510094250188741
 20
6.685411839319596
 30
0.0
 10
9.509055605430536
 20
6.685993258045155
 30
0.0
 10
9.50852546075292
 20
6.686290025578412
 30
0.0
  0
SPLINE
  5
1A7
330
1F
100
AcDbEntity
  8
0
  6
Continuous
 62
     7
370
    18
100
AcDbSpline
210
0.0
220
0.0
230
1.0
 70
     8
 71
     3
 72
    27
 73
    23
 74
     0
 42
0.000000001
 43
0.00000001
 40
0.0
 40
0.0
 40
0.0
 40
0.0
 40
0.0567196362764613
 40
0.1114280005485025
 40
0.1642710911803869
 40
0.2163343264019033
 40
0.2672831525731983
 40
0.3174122530729431
 40
0.3673221138318776
 40
0.4182222313367402
 40
0.4714117085699806
 40
0.5279684586103853
 40
0.5880588739916042
 40
0.6522074888314342
 40
0.6864152270246869
 40
0.7232779265513763
 40
0.7626212362197993
 40
0.8047464307438111
 40
0.8494584675399354
 40
0.896719818281155
 40
0.9468940394925561
 40
1.0
 40
1.0
 40
1.0
 40
1.0
 10
9.50852546075292
 20
6.756585814704217
 30
0.0
 10
9.50929745458177
 20
6.756114356507816
 30
0.0
 10
9.510814067424015
 20
6.755188157970308
 30
0.0
 10
9.513025524224883
 20
6.753486047008415
 30
0.0
 10
9.515116110522804
 20
6.751582604010614
 30
0.0
 10
9.517069974051642
 20
6.749485266208177
 30
0.0
 10
9.51886138153678
 20
6.747209267554563
 30
0.0
 10
9.52046790618287
 20
6.744789586015464
 30
0.0
 10
9.52185074627227
 20
6.742226378768982
 30
0.0
 10
9.523037225573637
 20
6.739539932528729
 30
0.0
 10
9.524055530199723
 20
6.736714585077934
 30
0.0
 10
9.524966179422394
 20
6.733734587934342
 30
0.0
 10
9.52578273930384
 20
6.730582249099618
 30
0.0
 10
9.526380406380719
 20
6.72784416431311
 30
0.0
 10
9.526799428236668
 20
6.725533003037611
 30
0.0
 10
9.527054539912397
 20
6.723675830819037
 30
0.0
 10
9.527290082105374
 20
6.721700528690666
 30
0.0
 10
9.527457037586663
 20
6.719630988543089
 30
0.0
 10
9.52762692837332
 20
6.71743514384955
 30
0.0
 10
9.527710805526953
 20
6.715155196449005
 30
0.0
 10
9.527774816163364
 20
6.712754475785327
 30
0.0
 10
9.527784571617119
 20
6.711126343749064
 30
0.0
 10
9.527789587804477
 20
6.710289169431785
 30
0.0
  0
SPLINE
  5
1A8
330
1F
100
AcDbEntity
  8
0
  6
Continuous
 62
     7
370
    18
100
AcDbSpline
210
0.0
220
0.0
230
1.0
 70
     8
 71
     3
 72
    31
 73
    27
 74
     0
 42
0.000000001
 43
0.00000001
 40
0.0
 40
0.0
 40
0.0
 40
0.0
 40
0.0631062077160515
 40
0.1235984861642897
 40
0.1809500532795165
 40
0.2352307003011585
 40
0.287063170407353
 40
0.336276507045082
 40
0.3826220599819555
 40
0.4265680494373588
 40
0.4681610595943256
 40
0.5081947319458069
 40
0.5465684502053745
 40
0.5834353656443698
 40
0.6191864383818928
 40
0.6535423560669009
 40
0.6873215086103884
 40
0.720583215672023
 40
0.7533869536543236
 40
0.7864125730603119
 40
0.8195275789583778
 40
0.8535644201015123
 40
0.8883228813126368
 40
0.9240057964313778
 40
0.9613553572612671
 40
1.0
 40
1.0
 40
1.0
 40
1.0
 10
9.489261333701364
 20
6.732531057093623
 30
0.0
 10
9.489269099250574
 20
6.733518448668022
 30
0.0
 10
9.489284308691314
 20
6.735452332960295
 30
0.0
 10
9.489378592927293
 20
6.738240379011174
 30
0.0
 10
9.489543360339077
 20
6.740844612122543
 30
0.0
 10
9.489788801302481
 20
6.743256939250832
 30
0.0
 10
9.490081655389911
 20
6.745506372614402
 30
0.0
 10
9.49045681386802
 20
6.747566324651751
 30
0.0
 10
9.490884930864015
 20
6.749456293766434
 30
0.0
 10
9.491392392291363
 20
6.751152936647953
 30
0.0
 10
9.491959339382449
 20
6.752688360536776
 30
0.0
 10
9.492591789233646
 20
6.754064334079064
 30
0.0
 10
9.493311996134027
 20
6.755259116843424
 30
0.0
 10
9.494059154096494
 20
6.756346152097077
 30
0.0
 10
9.494909234227514
 20
6.757223323756483
 30
0.0
 10
9.495802529862923
 20
6.757974783744577
 30
0.0
 10
9.496766242450068
 20
6.758562819431424
 30
0.0
 10
9.497804505056196
 20
6.758979509380322
 30
0.0
 10
9.49890926892777
 20
6.759238768741632
 30
0.0
 10
9.500077055648577
 20
6.759343143638605
 30
0.0
 10
9.501316283576005
 20
6.759290868180206
 30
0.0
 10
9.502630448083504
 20
6.7590517237204
 30
0.0
 10
9.504006757712114
 20
6.758675330447327
 30
0.0
 10
9.505450658706227
 20
6.758150884113663
 30
0.0
 10
9.506964725204387
 20
6.757458694771466
 30
0.0
 10
9.507999338329103
 20
6.756880061719423
 30
0.0
 10
9.50852546075292
 20
6.756585814704217
 30
0.0
  0
SPLINE
  5
1A9
330
1F
100
AcDbEntity
  8
0
  6
Continuous
 62
     7
370
    18
100
AcDbSpline
210
0.0
220
0.0
230
1.0
 70
     8
 71
     3
 72
    15
 73
    11
 74
     0
 42
0.000000001
 43
0.00000001
 40
0.0
 40
0.0
 40
0.0
 40
0.0
 40
0.097420668177216
 40
0.2008855880393196
 40
0.3111719701726499
 40
0.4297979458253723
 40
0.557739926364589
 40
0.6947152693641601
 40
0.8421299102060559
 40
0.9999999999999999
 40
0.9999999999999999
 40
0.9999999999999999
 40
0.9999999999999999
 10
9.495100772213867
 20
6.700727487616261
 30
0.0
 10
9.494624429375415
 20
6.701795948615867
 30
0.0
 10
9.493642190051858
 20
6.703999160934351
 30
0.0
 10
9.492492564088653
 20
6.707452660504805
 30
0.0
 10
9.491467077375619
 20
6.71111587760804
 30
0.0
 10
9.49066225832353
 20
6.714993344476894
 30
0.0
 10
9.49003188438102
 20
6.719084582356785
 30
0.0
 10
9.489576597009576
 20
6.723396534756774
 30
0.0
 10
9.489318949179925
 20
6.727914432770315
 30
0.0
 10
9.48928097240612
 20
6.730957443121972
 30
0.0
 10
9.489261333701364
 20
6.732531057093623
 30
0.0
  0
SPLINE
  5
1AA
330
1F
100
AcDbEntity
  8
0
  6
Continuous
 62
     7
370
    18
100
AcDbSpline
210
0.0
220
0.0
230
1.0
 70
     8
 71
     3
 72
    15
 73
    11
 74
     0
 42
0.000000001
 43
0.00000001
 40
0.0
 40
0.0
 40
0.0
 40
0.0
 40
0.1379032299933895
 40
0.2688733426002943
 40
0.3951781273461132
 40
0.5170892381308839
 40
0.6367430265135502
 40
0.756221816463797
 40
0.8766283594636818
 40
1.0
 40
1.0
 40
1.0
 40
1.0
 10
9.50852546075292
 20
6.686290025578412
 30
0.0
 10
9.507830395211927
 20
6.686714173609579
 30
0.0
 10
9.506475208713814
 20
6.687541145529691
 30
0.0
 10
9.504496058758996
 20
6.688986981754887
 30
0.0
 10
9.502638520959737
 20
6.690593132947067
 30
0.0
 10
9.500886928048454
 20
6.692320230477963
 30
0.0
 10
9.499260968408397
 20
6.6942164671995
 30
0.0
 10
9.497752878728821
 20
6.696252164308119
 30
0.0
 10
9.496332355034808
 20
6.69841770873954
 30
0.0
 10
9.495514615236834
 20
6.699951343408602
 30
0.0
 10
9.495100772213867
 20
6.700727487616261
 30
0.0
  0
SPLINE
  5
1AB
330
1F
100
AcDbEntity
  8
0
  6
Continuous
 62
     7
370
    18
100
AcDbSpline
210
0.0
220
0.0
230
1.0
 70
     8
 71
     3
 72
    23
 73
    19
 74
     0
 42
0.000000001
 43
0.00000001
 40
0.0
 40
0.0
 40
0.0
 40
0.0
 40
0.0658044625484825
 40
0.1288917343511512
 40
0.1905469756132175
 40
0.2511416007260244
 40
0.3105737718235818
 40
0.3700059429211381
 40
0.4296127451425868
 40
0.4894260755359256
 40
0.5495302842116935
 40
0.6104178418508754
 40
0.6712359195614085
 40
0.733005347866873
 40
0.7967841522549921
 40
0.8618753027009661
 40
0.9299173053605306
 40
1.0
 40
1.0
 40
1.0
 40
1.0
 10
9.590482281277886
 20
6.677865279903681
 30
0.0
 10
9.590914109354642
 20
6.677490663599198
 30
0.0
 10
9.591759934509945
 20
6.676756899606132
 30
0.0
 10
9.592969546999724
 20
6.675541327553108
 30
0.0
 10
9.594122502969615
 20
6.674304341891283
 30
0.0
 10
9.595190111753203
 20
6.672982319713218
 30
0.0
 10
9.59620364902335
 20
6.671623078923631
 30
0.0
 10
9.597125302241619
 20
6.670188371632331
 30
0.0
 10
9.598000490159873
 20
6.668717308391144
 30
0.0
 10
9.598781041156895
 20
6.667189801502349
 30
0.0
 10
9.599482797432275
 20
6.665626787960711
 30
0.0
 10
9.600093604202302
 20
6.664040086588363
 30
0.0
 10
9.600615964116587
 20
6.662437224410132
 30
0.0
 10
9.601039653643019
 20
6.660820093160342
 30
0.0
 10
9.601361807567534
 20
6.659190838824846
 30
0.0
 10
9.601587529686698
 20
6.657544340360501
 30
0.0
 10
9.601737767705531
 20
6.655878569662607
 30
0.0
 10
9.60175506119059
 20
6.65478984717415
 30
0.0
 10
9.601763835682453
 20
6.654237443388311
 30
0.0
  0
SPLINE
  5
1AC
330
1F
100
AcDbEntity
  8
0
  6
Continuous
 62
     7
370
    18
100
AcDbSpline
210
0.0
220
0.0
230
1.0
 70
     8
 71
     3
 72
    15
 73
    11
 74
     0
 42
0.000000001
 43
0.00000001
 40
0.0
 40
0.0
 40
0.0
 40
0.0
 40
0.1219512022493434
 40
0.2407868053279238
 40
0.3585498723707481
 40
0.4790658414002769
 40
0.6015185447735366
 40
0.7275505189308998
 40
0.8599320866628458
 40
1.0
 40
1.0
 40
1.0
 40
1.0
 10
9.598681575354206
 20
6.686896333097542
 30
0.0
 10
9.598655667914457
 20
6.686190747378241
 30
0.0
 10
9.598604514916078
 20
6.684797602184902
 30
0.0
 10
9.598210697253126
 20
6.682944745130856
 30
0.0
 10
9.597545223750506
 20
6.6813581562377
 30
0.0
 10
9.596645753444301
 20
6.680009180890516
 30
0.0
 10
9.595479361148728
 20
6.678957228373034
 30
0.0
 10
9.59404925058832
 20
6.678245417222611
 30
0.0
 10
9.592378299785802
 20
6.67784582966959
 30
0.0
 10
9.591126063478718
 20
6.677858675688344
 30
0.0
 10
9.590482281277886
 20
6.677865279903681
 30
0.0
  0
SPLINE
  5
1AD
330
1F
100
AcDbEntity
  8
0
  6
Continuous
 62
     7
370
    18
100
AcDbSpline
210
0.0
220
0.0
230
1.0
 70
     8
 71
     3
 72
    19
 73
    15
 74
     0
 42
0.000000001
 43
0.00000001
 40
0.0
 40
0.0
 40
0.0
 40
0.0
 40
0.0920369262924688
 40
0.1809743534409792
 40
0.2693971913494253
 40
0.3573882751545099
 40
0.4436191427624023
 40
0.5264882114800434
 40
0.6074926839602923
 40
0.6880228832785006
 40
0.7678968801814462
 40
0.8455592219698775
 40
0.9225438037773281
 40
0.9999999999999999
 40
0.9999999999999999
 40
0.9999999999999999
 40
0.9999999999999999
 10
9.581584662595949
 20
6.714409635225459
 30
0.0
 10
9.582369003463421
 20
6.713927983565622
 30
0.0
 10
9.583911271193196
 20
6.712980900680154
 30
0.0
 10
9.586177110680799
 20
6.711206478430896
 30
0.0
 10
9.588352362336954
 20
6.709223824497752
 30
0.0
 10
9.59040613660592
 20
6.706994868389272
 30
0.0
 10
9.592289788238995
 20
6.704607008448606
 30
0.0
 10
9.593973651336624
 20
6.702115485902605
 30
0.0
 10
9.595406953826389
 20
6.699532511410029
 30
0.0
 10
9.596589837786759
 20
6.696897362354339
 30
0.0
 10
9.59750566604899
 20
6.694272520207324
 30
0.0
 10
9.598195865868533
 20
6.691704168543035
 30
0.0
 10
9.59860490725771
 20
6.689222564641628
 30
0.0
 10
9.598655967348126
 20
6.687673320583121
 30
0.0
 10
9.598681575354206
 20
6.686896333097542
 30
0.0
  0
SPLINE
  5
1AE
330
1F
100
AcDbEntity
  8
0
  6
Continuous
 62
     7
370
    18
100
AcDbSpline
210
0.0
220
0.0
230
1.0
 70
     8
 71
     3
 72
    23
 73
    19
 74
     0
 42
0.000000001
 43
0.00000001
 40
0.0
 40
0.0
 40
0.0
 40
0.0
 40
0.0710422088543154
 40
0.1393548851463426
 40
0.2049754549053409
 40
0.2683538161727925
 40
0.330156614420446
 40
0.3906963456467032
 40
0.4508988055510694
 40
0.5109694912014482
 40
0.5707610330540387
 40
0.6294527297938353
 40
0.6884138447278009
 40
0.7475706368932001
 40
0.808282833405272
 40
0.8700232702590253
 40
0.9338049721129109
 40
1.0
 40
1.0
 40
1.0
 40
1.0
 10
9.564006146661402
 20
6.706761094160841
 30
0.0
 10
9.564126685758216
 20
6.707379527349217
 30
0.0
 10
9.564363132685513
 20
6.708592632731589
 30
0.0
 10
9.56484485719826
 20
6.710263728363511
 30
0.0
 10
9.565432295112723
 20
6.711754362557832
 30
0.0
 10
9.56613768107922
 20
6.713048985310181
 30
0.0
 10
9.566927394087788
 20
6.714187724476923
 30
0.0
 10
9.567839259939213
 20
6.715128561401112
 30
0.0
 10
9.568849857394742
 20
6.715900947396316
 30
0.0
 10
9.569974256849507
 20
6.716471711560583
 30
0.0
 10
9.57117264875523
 20
6.716876392386953
 30
0.0
 10
9.572446181428306
 20
6.717101125925902
 30
0.0
 10
9.57379991149123
 20
6.717104945625677
 30
0.0
 10
9.575219895397355
 20
6.716947332636279
 30
0.0
 10
9.576711189304909
 20
6.716600058747837
 30
0.0
 10
9.578275630981503
 20
6.716052996836962
 30
0.0
 10
9.57990580930003
 20
6.715344835000852
 30
0.0
 10
9.581018160352784
 20
6.714725203459952
 30
0.0
 10
9.581584662595949
 20
6.714409635225459
 30
0.0
  0
LINE
  5
1AF
330
1F
100
AcDbEntity
  8
0
  6
Continuous
 62
     7
370
    18
100
AcDbLine
 10
9.5717117975
 20
6.7014228965
 30
0.0
 11
9.5640061467
 21
6.7067610942
 31
0.0
  0
SPLINE
  5
1B0
330
1F
100
AcDbEntity
  8
0
  6
Continuous
 62
     7
370
    18
100
AcDbSpline
210
0.0
220
0.0
230
1.0
 70
     8
 71
     3
 72
    19
 73
    15
 74
     0
 42
0.000000001
 43
0.00000001
 40
0.0
 40
0.0
 40
0.0
 40
0.0
 40
0.1277971582348387
 40
0.2467952527166568
 40
0.3622843155839165
 40
0.4776524647273048
 40
0.5362368417287158
 40
0.5955904355162862
 40
0.6563437591396368
 40
0.7190851405078761
 40
0.7843491651281224
 40
0.8528755346365589
 40
0.9245512555167006
 40
1.0
 40
1.0
 40
1.0
 40
1.0
 10
9.581825464184094
 20
6.706262242387923
 30
0.0
 10
9.581180578648638
 20
6.706605490191609
 30
0.0
 10
9.57993520910448
 20
6.70726835257153
 30
0.0
 10
9.578152193886973
 20
6.707778863098738
 30
0.0
 10
9.576536460173926
 20
6.707872116771628
 30
0.0
 10
9.575340248830361
 20
6.707578188006953
 30
0.0
 10
9.574490833591188
 20
6.707127319846357
 30
0.0
 10
9.573910637989707
 20
6.706664462791725
 30
0.0
 10
9.573391685903978
 20
6.706083047073756
 30
0.0
 10
9.572932506528083
 20
6.705384235800624
 30
0.0
 10
9.572539303500488
 20
6.704560571275141
 30
0.0
 10
9.57218484189213
 20
6.703640791948711
 30
0.0
 10
9.571910455719953
 20
6.702583034458813
 30
0.0
 10
9.57177913943501
 20
6.701816164649327
 30
0.0
 10
9.571711797482026
 20
6.701422896512957
 30
0.0
  0
SPLINE
  5
1B1
330
1F
100
AcDbEntity
  8
0
  6
Continuous
 62
     7
370
    18
100
AcDbSpline
210
0.0
220
0.0
230
1.0
 70
     8
 71
     3
 72
    23
 73
    19
 74
     0
 42
0.000000001
 43
0.00000001
 40
0.0
 40
0.0
 40
0.0
 40
0.0
 40
0.0650546391360242
 40
0.1272285226197123
 40
0.1880101438087931
 40
0.2469835454742398
 40
0.3066659727845306
 40
0.3657818598972571
 40
0.426171045359083
 40
0.487872476073495
 40
0.5497514992996214
 40
0.6112034382739596
 40
0.672845557784898
 40
0.7349546921179263
 40
0.7979758693229828
 40
0.8625564745858556
 40
0.9298171665527549
 40
1.0
 40
1.0
 40
1.0
 40
1.0
 10
9.590975924533582
 20
6.691052738404506
 30
0.0
 10
9.590970237194705
 20
6.691408717935794
 30
0.0
 10
9.59095911436423
 20
6.692104913479264
 30
0.0
 10
9.590834958937734
 20
6.693187822874768
 30
0.0
 10
9.590630124479148
 20
6.694264424852117
 30
0.0
 10
9.590350349129125
 20
6.69534476254248
 30
0.0
 10
9.589990355975415
 20
6.696423537271257
 30
0.0
 10
9.589552131339683
 20
6.697507011185883
 30
0.0
 10
9.589034050785848
 20
6.698587424908954
 30
0.0
 10
9.588431877862593
 20
6.699651764195226
 30
0.0
 10
9.587771980633155
 20
6.700686740506483
 30
0.0
 10
9.587057278699563
 20
6.7016703798982
 30
0.0
 10
9.586298494352723
 20
6.70260287718989
 30
0.0
 10
9.58548416731062
 20
6.703450062328418
 30
0.0
 10
9.584641671718115
 20
6.704275267398553
 30
0.0
 10
9.583740273398588
 20
6.70498529816916
 30
0.0
 10
9.58280067517195
 20
6.705682280588696
 30
0.0
 10
9.582155109565884
 20
6.706066200986514
 30
0.0
 10
9.581825464184094
 20
6.706262242387923
 30
0.0
  0
SPLINE
  5
1B2
330
1F
100
AcDbEntity
  8
0
  6
Continuous
 62
     7
370
    18
100
AcDbSpline
210
0.0
220
0.0
230
1.0
 70
     8
 71
     3
 72
    19
 73
    15
 74
     0
 42
0.000000001
 43
0.00000001
 40
0.0
 40
0.0
 40
0.0
 40
0.0
 40
0.1291439695827896
 40
0.2547667436248087
 40
0.3782483602520409
 40
0.5034627163055372
 40
0.5650122774638291
 40
0.6249014079724597
 40
0.6836621344857656
 40
0.7427540136138989
 40
0.8025026920590178
 40
0.8652039536626992
 40
0.9306959190209055
 40
1.0
 40
1.0
 40
1.0
 40
1.0
 10
9.579706410208422
 20
6.68692235947731
 30
0.0
 10
9.58041070528859
 20
6.686548403873728
 30
0.0
 10
9.581800092378867
 20
6.685810688812834
 30
0.0
 10
9.583828970379795
 20
6.68513347487762
 30
0.0
 10
9.585740235815928
 20
6.684871452408795
 30
0.0
 10
9.587238428739742
 20
6.684933172057956
 30
0.0
 10
9.588319385615385
 20
6.685236055349049
 30
0.0
 10
9.589042128923843
 20
6.685593728441474
 30
0.0
 10
9.58963022821222
 20
6.686147881338326
 30
0.0
 10
9.590134590297701
 20
6.686814972247989
 30
0.0
 10
9.590503796428173
 20
6.687666216265148
 30
0.0
 10
9.590786030357194
 20
6.688643090864969
 30
0.0
 10
9.590936839189649
 20
6.689790942640388
 30
0.0
 10
9.590962652744501
 20
6.690624284013197
 30
0.0
 10
9.590975924533582
 20
6.691052738404506
 30
0.0
  0
SPLINE
  5
1B3
330
1F
100
AcDbEntity
  8
0
  6
Continuous
 62
     7
370
    18
100
AcDbSpline
210
0.0
220
0.0
230
1.0
 70
     8
 71
     3
 72
     9
 73
     5
 74
     0
 42
0.000000001
 43
0.00000001
 40
0.0
 40
0.0
 40
0.0
 40
0.0
 40
0.5660412240200561
 40
1.0
 40
1.0
 40
1.0
 40
1.0
 10
9.578598722902957
 20
6.687659137822723
 30
0.0
 10
9.578807219229638
 20
6.687512466542822
 30
0.0
 10
9.579175560470231
 20
6.687253348878462
 30
0.0
 10
9.579545759214493
 20
6.687022526760912
 30
0.0
 10
9.579706410208422
 20
6.68692235947731
 30
0.0
  0
LINE
  5
1B4
330
1F
100
AcDbEntity
  8
0
  6
Continuous
 62
     7
370
    18
100
AcDbLine
 10
9.5778040777
 20
6.6801094957
 30
0.0
 11
9.5785987229
 21
6.6876591378
 31
0.0
  0
SPLINE
  5
1B5
330
1F
100
AcDbEntity
  8
0
  6
Continuous
 62
     7
370
    18
100
AcDbSpline
210
0.0
220
0.0
230
1.0
 70
     8
 71
     3
 72
    11
 73
     7
 74
     0
 42
0.000000001
 43
0.00000001
 40
0.0
 40
0.0
 40
0.0
 40
0.0
 40
0.2093977625857042
 40
0.4467474999317983
 40
0.7082787400881889
 40
1.0
 40
1.0
 40
1.0
 40
1.0
 10
9.58278867053667
 20
6.678177385372585
 30
0.0
 10
9.582434989110498
 20
6.678370472666336
 30
0.0
 10
9.581680414224099
 20
6.678782421985598
 30
0.0
 10
9.580495051743963
 20
6.679267938929144
 30
0.0
 10
9.579183495793618
 20
6.679735845139731
 30
0.0
 10
9.578280312090103
 20
6.679980495477196
 30
0.0
 10
9.57780407766208
 20
6.680109495716099
 30
0.0
  0
SPLINE
  5
1B6
330
1F
100
AcDbEntity
  8
0
  6
Continuous
 62
     7
370
    18
100
AcDbSpline
210
0.0
220
0.0
230
1.0
 70
     8
 71
     3
 72
    23
 73
    19
 74
     0
 42
0.000000001
 43
0.00000001
 40
0.0
 40
0.0
 40
0.0
 40
0.0
 40
0.0670590684916349
 40
0.1312849360638157
 40
0.1936839294531472
 40
0.2544690426430553
 40
0.314739531570004
 40
0.37544546553224
 40
0.4359548907264965
 40
0.4982363164308154
 40
0.5605177421351362
 40
0.6215735474205263
 40
0.6819351712114161
 40
0.7428219349666515
 40
0.8042479941570493
 40
0.8674565928158596
 40
0.93226466565501
 40
1.0
 40
1.0
 40
1.0
 40
1.0
 10
9.594058184861831
 20
6.658755338117204
 30
0.0
 10
9.594050976246526
 20
6.65921911482809
 30
0.0
 10
9.59403686357511
 20
6.66012707399314
 30
0.0
 10
9.593866004321276
 20
6.661539595891518
 30
0.0
 10
9.593638034350544
 20
6.662929045039534
 30
0.0
 10
9.593279240367437
 20
6.664324997288725
 30
0.0
 10
9.592836251129812
 20
6.665717770651765
 30
0.0
 10
9.592277549688106
 20
6.667105162434313
 30
0.0
 10
9.591635813510438
 20
6.668492961181682
 30
0.0
 10
9.59088974522938
 20
6.669855773868551
 30
0.0
 10
9.590081025517424
 20
6.671188101127601
 30
0.0
 10
9.589194182461842
 20
6.672435035123552
 30
0.0
 10
9.588261354118021
 20
6.673608172082141
 30
0.0
 10
9.587270858815549
 20
6.674692327555825
 30
0.0
 10
9.586226958906014
 20
6.675701638752494
 30
0.0
 10
9.58513060894243
 20
6.676626831912452
 30
0.0
 10
9.583976549050446
 20
6.677460811345064
 30
0.0
 10
9.58319041736051
 20
6.677935036229753
 30
0.0
 10
9.58278867053667
 20
6.678177385372585
 30
0.0
  0
SPLINE
  5
1B7
330
1F
100
AcDbEntity
  8
0
  6
Continuous
 62
     7
370
    18
100
AcDbSpline
210
0.0
220
0.0
230
1.0
 70
     8
 71
     3
 72
    23
 73
    19
 74
     0
 42
0.000000001
 43
0.00000001
 40
0.0
 40
0.0
 40
0.0
 40
0.0
 40
0.069456601465762
 40
0.1356488576093691
 40
0.1996072199859658
 40
0.2614281420011494
 40
0.3220970204207935
 40
0.3823803551340454
 40
0.4432594092864677
 40
0.5049621518609255
 40
0.5668486316061067
 40
0.6276243567848874
 40
0.6874959659819594
 40
0.7473675751790336
 40
0.8081866532359593
 40
0.8701418939385505
 40
0.9337250934245914
 40
1.0
 40
1.0
 40
1.0
 40
1.0
 10
9.582210746725124
 20
6.651760796464798
 30
0.0
 10
9.582648883952741
 20
6.651515228393333
 30
0.0
 10
9.58350456668337
 20
6.651035633543361
 30
0.0
 10
9.584752236626196
 20
6.650524688373434
 30
0.0
 10
9.5859353203659
 20
6.650139145896267
 30
0.0
 10
9.587053856177398
 20
6.649921765314948
 30
0.0
 10
9.588092299897385
 20
6.649904213937032
 30
0.0
 10
9.589076485953916
 20
6.650017710172361
 30
0.0
 10
9.589994876267243
 20
6.650296625974789
 30
0.0
 10
9.590835038042067
 20
6.650743630526397
 30
0.0
 10
9.591586167800108
 20
6.651335953335032
 30
0.0
 10
9.592255214336213
 20
6.652033197635538
 30
0.0
 10
9.592808411059242
 20
6.652864317730757
 30
0.0
 10
9.593274676571946
 20
6.653796357871054
 30
0.0
 10
9.593618840530246
 20
6.654869047486365
 30
0.0
 10
9.593870796590606
 20
6.656049271943823
 30
0.0
 10
9.59403545111343
 20
6.657340195231492
 30
0.0
 10
9.59405050294724
 20
6.658277150068795
 30
0.0
 10
9.594058184861831
 20
6.658755338117204
 30
0.0
  0
SPLINE
  5
1B8
330
1F
100
AcDbEntity
  8
0
  6
Continuous
 62
     7
370
    18
100
AcDbSpline
210
0.0
220
0.0
230
1.0
 70
     8
 71
     3
 72
    23
 73
    19
 74
     0
 42
0.000000001
 43
0.00000001
 40
0.0
 40
0.0
 40
0.0
 40
0.0
 40
0.0825539607851871
 40
0.1597357900281278
 40
0.2331191426939367
 40
0.3016677542672441
 40
0.3657572055548055
 40
0.4264331607509326
 40
0.4841724850757684
 40
0.53952798949872
 40
0.5931262957056705
 40
0.6470108735677892
 40
0.7014006585895343
 40
0.7565572882568601
 40
0.8138678545440815
 40
0.8730772030430984
 40
0.9349724568179598
 40
0.9999999999999999
 40
0.9999999999999999
 40
0.9999999999999999
 40
0.9999999999999999
 10
9.570941232399964
 20
6.670724030223116
 30
0.0
 10
9.571044162883211
 20
6.670130061755328
 30
0.0
 10
9.571243325732617
 20
6.668980776832456
 30
0.0
 10
9.571622995958272
 20
6.667278064906794
 30
0.0
 10
9.572037312599738
 20
6.665666102976357
 30
0.0
 10
9.57250563653913
 20
6.664139542396041
 30
0.0
 10
9.573025560615411
 20
6.662705180887433
 30
0.0
 10
9.573591279537835
 20
6.661357869333602
 30
0.0
 10
9.57420676418103
 20
6.660093307931825
 30
0.0
 10
9.574870503556427
 20
6.658910196364516
 30
0.0
 10
9.57559345794851
 20
6.657805122614127
 30
0.0
 10
9.576363943801745
 20
6.656755408819995
 30
0.0
 10
9.577201383882796
 20
6.655779408387447
 30
0.0
 10
9.578084920580498
 20
6.654834454726372
 30
0.0
 10
9.579041478076432
 20
6.653996593592781
 30
0.0
 10
9.580043604318934
 20
6.653170118024752
 30
0.0
 10
9.581108199682845
 20
6.652417446647269
 30
0.0
 10
9.581837233839707
 20
6.651983251648076
 30
0.0
 10
9.582210746725124
 20
6.651760796464798
 30
0.0
  0
LINE
  5
1B9
330
1F
100
AcDbEntity
  8
0
  6
Continuous
 62
     7
370
    18
100
AcDbLine
 10
9.5632355816
 20
6.6742825876
 30
0.0
 11
9.5709412324
 21
6.6707240302
 31
0.0
  0
SPLINE
  5
1BA
330
1F
100
AcDbEntity
  8
0
  6
Continuous
 62
     7
370
    18
100
AcDbSpline
210
0.0
220
0.0
230
1.0
 70
     8
 71
     3
 72
    23
 73
    19
 74
     0
 42
0.000000001
 43
0.00000001
 40
0.0
 40
0.0
 40
0.0
 40
0.0
 40
0.0677860504167673
 40
0.1333952342465259
 40
0.1969464128107681
 40
0.2588972289528084
 40
0.3197980194082237
 40
0.3802278156116879
 40
0.4410230653179156
 40
0.5028927014869243
 40
0.5648239840272985
 40
0.625202933493101
 40
0.685632729696564
 40
0.7460625259000266
 40
0.8073608920514067
 40
0.8693117081934502
 40
0.9337976948254376
 40
1.0
 40
1.0
 40
1.0
 40
1.0
 10
9.581933824898758
 20
6.643912278992718
 30
0.0
 10
9.58130315058955
 20
6.64429221830945
 30
0.0
 10
9.580062055309726
 20
6.64503989565373
 30
0.0
 10
9.57823958046903
 20
6.646343004662132
 30
0.0
 10
9.576499453930024
 20
6.647780233188763
 30
0.0
 10
9.57484174250113
 20
6.649334775806981
 30
0.0
 10
9.573269365480524
 20
6.65101101902752
 30
0.0
 10
9.571776508689155
 20
6.652805699335959
 30
0.0
 10
9.570376447071379
 20
6.654739597505995
 30
0.0
 10
9.569055367977535
 20
6.656773447722862
 30
0.0
 10
9.567851703322365
 20
6.658879486210865
 30
0.0
 10
9.566758925123615
 20
6.661019065371803
 30
0.0
 10
9.56584434680368
 20
6.663186237993026
 30
0.0
 10
9.565021420519226
 20
6.665374360288139
 30
0.0
 10
9.564364830903989
 20
6.667579376333278
 30
0.0
 10
9.563843169215547
 20
6.669807167672067
 30
0.0
 10
9.563456969741276
 20
6.672054425896412
 30
0.0
 10
9.563310020922222
 20
6.673533392675926
 30
0.0
 10
9.563235581579342
 20
6.674282587639967
 30
0.0
  0
SPLINE
  5
1BB
330
1F
100
AcDbEntity
  8
0
  6
Continuous
 62
     7
370
    18
100
AcDbSpline
210
0.0
220
0.0
230
1.0
 70
     8
 71
     3
 72
    23
 73
    19
 74
     0
 42
0.000000001
 43
0.00000001
 40
0.0
 40
0.0
 40
0.0
 40
0.0
 40
0.0635045362502232
 40
0.1248067922028619
 40
0.1849234681287589
 40
0.2443804145998975
 40
0.3037798743377935
 40
0.3635961592214637
 40
0.4248401249863773
 40
0.4878537026835106
 40
0.5515047880584254
 40
0.6138531752476543
 40
0.675634855198414
 40
0.7377324277930084
 40
0.8004136732792577
 40
0.8646560725551925
 40
0.9309833332427825
 40
1.0
 40
1.0
 40
1.0
 40
1.0
 10
9.601763835682453
 20
6.654237443388311
 30
0.0
 10
9.601749167958733
 20
6.653498678568799
 30
0.0
 10
9.601720341174783
 20
6.652046768630391
 30
0.0
 10
9.601447123281437
 20
6.650047134771651
 30
0.0
 10
9.601000483363402
 20
6.648238026821205
 30
0.0
 10
9.600382887033778
 20
6.64661056532899
 30
0.0
 10
9.599600874048935
 20
6.645160280130746
 30
0.0
 10
9.598627157519033
 20
6.643917063596132
 30
0.0
 10
9.597474961551022
 20
6.64287070998301
 30
0.0
 10
9.596171080141414
 20
6.64200125851154
 30
0.0
 10
9.594724806352929
 20
6.641364212085131
 30
0.0
 10
9.59317974788057
 20
6.640948169726054
 30
0.0
 10
9.59152909739464
 20
6.640813250154853
 30
0.0
 10
9.589789704860642
 20
6.640925988247603
 30
0.0
 10
9.587958926057016
 20
6.641283961091153
 30
0.0
 10
9.5860363500445
 20
6.641892476200105
 30
0.0
 10
9.584015641126973
 20
6.642764436442354
 30
0.0
 10
9.58263689594547
 20
6.643524629567947
 30
0.0
 10
9.581933824898758
 20
6.643912278992718
 30
0.0
  0
SPLINE
  5
1BC
330
1F
100
AcDbEntity
  8
0
  6
Continuous
 62
     7
370
    18
100
AcDbSpline
210
0.0
220
0.0
230
1.0
 70
     8
 71
     3
 72
    31
 73
    27
 74
     0
 42
0.000000001
 43
0.00000001
 40
0.0
 40
0.0
 40
0.0
 40
0.0
 40
0.062872936983253
 40
0.1228346582660095
 40
0.1796536836655498
 40
0.2339562567955639
 40
0.2855473950458364
 40
0.3345189820567464
 40
0.3806227038405211
 40
0.4245295031767599
 40
0.4664416769228077
 40
0.5065145853718168
 40
0.5447930111054538
 40
0.581845653009279
 40
0.617462181423722
 40
0.6520802585584685
 40
0.68589251728597
 40
0.719186823394995
 40
0.7521933849929764
 40
0.7852513720621818
 40
0.8186671215359246
 40
0.8528356188434193
 40
0.8876281460368526
 40
0.923636303848835
 40
0.9610224701392116
 40
1.0
 40
1.0
 40
1.0
 40
1.0
 10
9.671114693068057
 20
6.627549347329753
 30
0.0
 10
9.67110682734343
 20
6.626566664462192
 30
0.0
 10
9.671091460102081
 20
6.624646800049736
 30
0.0
 10
9.670999074372517
 20
6.621880562447071
 30
0.0
 10
9.670826597661161
 20
6.619300748868475
 30
0.0
 10
9.670604483832392
 20
6.616886464754058
 30
0.0
 10
9.670304917728
 20
6.614651570925284
 30
0.0
 10
9.669932976046578
 20
6.612602905535214
 30
0.0
 10
9.669497774424903
 20
6.610729807944699
 30
0.0
 10
9.669008406621842
 20
6.609018494669733
 30
0.0
 10
9.668443848360011
 20
6.607476711623418
 30
0.0
 10
9.667804143689118
 20
6.606106808133284
 30
0.0
 10
9.667105784932438
 20
6.60488579560046
 30
0.0
 10
9.666336850123484
 20
6.603828798433042
 30
0.0
 10
9.665501311526926
 20
6.602928565428155
 30
0.0
 10
9.664612663818204
 20
6.602168106597447
 30
0.0
 10
9.663646199578963
 20
6.60157938787409
 30
0.0
 10
9.66260387476196
 20
6.601167098953184
 30
0.0
 10
9.66150663550748
 20
6.600886948276586
 30
0.0
 10
9.660332443726224
 20
6.600783291316328
 30
0.0
 10
9.659084026179578
 20
6.600852020008981
 30
0.0
 10
9.657772514761286
 20
6.601064231723753
 30
0.0
 10
9.656389202836777
 20
6.60144868220658
 30
0.0
 10
9.654941298507028
 20
6.60197706762311
 30
0.0
 10
9.653419355452321
 20
6.602672017217563
 30
0.0
 10
9.652380710694118
 20
6.603253435943122
 30
0.0
 10
9.6518505660165
 20
6.603550203476379
 30
0.0
  0
SPLINE
  5
1BD
330
1F
100
AcDbEntity
  8
0
  6
Continuous
 62
     7
370
    18
100
AcDbSpline
210
0.0
220
0.0
230
1.0
 70
     8
 71
     3
 72
    27
 73
    23
 74
     0
 42
0.000000001
 43
0.00000001
 40
0.0
 40
0.0
 40
0.0
 40
0.0
 40
0.0567196362764625
 40
0.1114280005485037
 40
0.164271091180387
 40
0.2163343264019023
 40
0.2672831525731984
 40
0.3174122530729432
 40
0.3673221138318768
 40
0.4182222313367408
 40
0.4714117085699801
 40
0.5279684586103852
 40
0.5880588739916046
 40
0.6522074888314343
 40
0.6864152270246868
 40
0.7232779265513762
 40
0.7626212362197994
 40
0.8047464307438112
 40
0.8494584675399355
 40
0.896719818281155
 40
0.9468940394925561
 40
1.0
 40
1.0
 40
1.0
 40
1.0
 10
9.6518505660165
 20
6.673845992602184
 30
0.0
 10
9.65262255984535
 20
6.673374534405784
 30
0.0
 10
9.654139172687595
 20
6.672448335868276
 30
0.0
 10
9.656350629488463
 20
6.670746224906383
 30
0.0
 10
9.658441215786384
 20
6.668842781908581
 30
0.0
 10
9.660395079315224
 20
6.666745444106144
 30
0.0
 10
9.66218648680036
 20
6.66446944545253
 30
0.0
 10
9.66379301144645
 20
6.662049763913431
 30
0.0
 10
9.66517585153585
 20
6.659486556666949
 30
0.0
 10
9.666362330837218
 20
6.656800110426696
 30
0.0
 10
9.667380635463305
 20
6.653974762975901
 30
0.0
 10
9.668291284685974
 20
6.650994765832309
 30
0.0
 10
9.66910784456742
 20
6.647842426997586
 30
0.0
 10
9.6697055116443
 20
6.645104342211077
 30
0.0
 10
9.670124533500248
 20
6.642793180935579
 30
0.0
 10
9.670379645175979
 20
6.640936008717005
 30
0.0
 10
9.670615187368954
 20
6.638960706588633
 30
0.0
 10
9.670782142850245
 20
6.636891166441056
 30
0.0
 10
9.6709520336369
 20
6.634695321747516
 30
0.0
 10
9.671035910790534
 20
6.632415374346971
 30
0.0
 10
9.671099921426945
 20
6.630014653683294
 30
0.0
 10
9.671109676880699
 20
6.62838652164703
 30
0.0
 10
9.671114693068057
 20
6.627549347329753
 30
0.0
  0
SPLINE
  5
1BE
330
1F
100
AcDbEntity
  8
0
  6
Continuous
 62
     7
370
    18
100
AcDbSpline
210
0.0
220
0.0
230
1.0
 70
     8
 71
     3
 72
    31
 73
    27
 74
     0
 42
0.000000001
 43
0.00000001
 40
0.0
 40
0.0
 40
0.0
 40
0.0
 40
0.0631062077160515
 40
0.1235984861642897
 40
0.1809500532795165
 40
0.2352307003011586
 40
0.2870631704073532
 40
0.336276507045082
 40
0.3826220599819552
 40
0.4265680494373588
 40
0.468161059594326
 40
0.5081947319458063
 40
0.5465684502053744
 40
0.5834353656443692
 40
0.6191864383818928
 40
0.6535423560669018
 40
0.6873215086103883
 40
0.720583215672022
 40
0.7533869536543235
 40
0.7864125730603129
 40
0.8195275789583766
 40
0.8535644201015123
 40
0.8883228813126379
 40
0.9240057964313767
 40
0.9613553572612671
 40
1.0
 40
1.0
 40
1.0
 40
1.0
 10
9.632586438964944
 20
6.64979123499159
 30
0.0
 10
9.632594204514154
 20
6.650778626565988
 30
0.0
 10
9.632609413954894
 20
6.652712510858263
 30
0.0
 10
9.632703698190875
 20
6.65550055690914
 30
0.0
 10
9.632868465602657
 20
6.65810479002051
 30
0.0
 10
9.633113906566061
 20
6.6605171171488
 30
0.0
 10
9.633406760653491
 20
6.662766550512369
 30
0.0
 10
9.633781919131602
 20
6.664826502549718
 30
0.0
 10
9.634210036127595
 20
6.666716471664401
 30
0.0
 10
9.634717497554943
 20
6.66841311454592
 30
0.0
 10
9.635284444646029
 20
6.669948538434744
 30
0.0
 10
9.635916894497226
 20
6.671324511977032
 30
0.0
 10
9.636637101397607
 20
6.672519294741392
 30
0.0
 10
9.637384259360074
 20
6.673606329995043
 30
0.0
 10
9.638234339491094
 20
6.674483501654449
 30
0.0
 10
9.639127635126505
 20
6.675234961642544
 30
0.0
 10
9.640091347713648
 20
6.675822997329392
 30
0.0
 10
9.641129610319776
 20
6.676239687278289
 30
0.0
 10
9.64223437419135
 20
6.676498946639599
 30
0.0
 10
9.643402160912157
 20
6.676603321536571
 30
0.0
 10
9.644641388839586
 20
6.676551046078173
 30
0.0
 10
9.645955553347086
 20
6.676311901618367
 30
0.0
 10
9.647331862975692
 20
6.675935508345294
 30
0.0
 10
9.648775763969809
 20
6.67541106201163
 30
0.0
 10
9.650289830467967
 20
6.674718872669433
 30
0.0
 10
9.651324443592685
 20
6.67414023961739
 30
0.0
 10
9.6518505660165
 20
6.673845992602184
 30
0.0
  0
SPLINE
  5
1BF
330
1F
100
AcDbEntity
  8
0
  6
Continuous
 62
     7
370
    18
100
AcDbSpline
210
0.0
220
0.0
230
1.0
 70
     8
 71
     3
 72
    15
 73
    11
 74
     0
 42
0.000000001
 43
0.00000001
 40
0.0
 40
0.0
 40
0.0
 40
0.0
 40
0.0974206681772141
 40
0.2008855880393194
 40
0.3111719701726499
 40
0.4297979458253718
 40
0.5577399263645887
 40
0.6947152693641601
 40
0.8421299102060559
 40
1.0
 40
1.0
 40
1.0
 40
1.0
 10
9.638425877477447
 20
6.61798766551423
 30
0.0
 10
9.637949534638995
 20
6.619056126513835
 30
0.0
 10
9.636967295315438
 20
6.621259338832318
 30
0.0
 10
9.635817669352235
 20
6.624712838402773
 30
0.0
 10
9.6347921826392
 20
6.628376055506007
 30
0.0
 10
9.63398736358711
 20
6.632253522374861
 30
0.0
 10
9.633356989644602
 20
6.636344760254752
 30
0.0
 10
9.632901702273156
 20
6.640656712654741
 30
0.0
 10
9.632644054443505
 20
6.645174610668282
 30
0.0
 10
9.6326060776697
 20
6.648217621019939
 30
0.0
 10
9.632586438964944
 20
6.64979123499159
 30
0.0
  0
SPLINE
  5
1C0
330
1F
100
AcDbEntity
  8
0
  6
Continuous
 62
     7
370
    18
100
AcDbSpline
210
0.0
220
0.0
230
1.0
 70
     8
 71
     3
 72
    15
 73
    11
 74
     0
 42
0.000000001
 43
0.00000001
 40
0.0
 40
0.0
 40
0.0
 40
0.0
 40
0.1379032299933924
 40
0.2688733426002906
 40
0.3951781273461124
 40
0.5170892381308858
 40
0.6367430265135461
 40
0.7562218164637954
 40
0.8766283594636799
 40
1.0
 40
1.0
 40
1.0
 40
1.0
 10
9.6518505660165
 20
6.603550203476379
 30
0.0
 10
9.651155500475507
 20
6.603974351507546
 30
0.0
 10
9.649800313977394
 20
6.604801323427658
 30
0.0
 10
9.647821164022576
 20
6.606247159652854
 30
0.0
 10
9.645963626223317
 20
6.607853310845035
 30
0.0
 10
9.644212033312034
 20
6.609580408375931
 30
0.0
 10
9.642586073671978
 20
6.611476645097468
 30
0.0
 10
9.641077983992401
 20
6.613512342206087
 30
0.0
 10
9.63965746029839
 20
6.615677886637507
 30
0.0
 10
9.638839720500414
 20
6.617211521306569
 30
0.0
 10
9.638425877477447
 20
6.61798766551423
 30
0.0
  0
SPLINE
  5
1C1
330
1F
100
AcDbEntity
  8
0
  6
Continuous
 62
     7
370
    18
100
AcDbSpline
210
0.0
220
0.0
230
1.0
 70
     8
 71
     3
 72
    23
 73
    19
 74
     0
 42
0.000000001
 43
0.00000001
 40
0.0
 40
0.0
 40
0.0
 40
0.0
 40
0.0698823039034425
 40
0.1383882841653964
 40
0.2067582142303591
 40
0.2765984302165001
 40
0.3471345171864639
 40
0.4179202738343021
 40
0.490213056594082
 40
0.5664711022702207
 40
0.6078661527170739
 40
0.6522325532418385
 40
0.7005469750391918
 40
0.752522892715919
 40
0.808321340815731
 40
0.8684702740719038
 40
0.931979790540806
 40
1.0
 40
1.0
 40
1.0
 40
1.0
 10
9.767844691025685
 20
6.581079226210288
 30
0.0
 10
9.76735317701162
 20
6.581344751283104
 30
0.0
 10
9.766379829293376
 20
6.581870571944092
 30
0.0
 10
9.764958722236969
 20
6.582305619433662
 30
0.0
 10
9.763594124300754
 20
6.582510238211905
 30
0.0
 10
9.762307428106137
 20
6.582429490630062
 30
0.0
 10
9.761118980415171
 20
6.582079638578268
 30
0.0
 10
9.760098886771868
 20
6.581385813926186
 30
0.0
 10
9.759257882342387
 20
6.580372520148754
 30
0.0
 10
9.758719553580026
 20
6.579266388279294
 30
0.0
 10
9.758382843486023
 20
6.578205664333062
 30
0.0
 10
9.75813245748615
 20
6.577301479876668
 30
0.0
 10
9.757948109778827
 20
6.576253277050845
 30
0.0
 10
9.757796203266935
 20
6.575087710034241
 30
0.0
 10
9.757655164166819
 20
6.573816717236289
 30
0.0
 10
9.757584673593259
 20
6.572404200246154
 30
0.0
 10
9.75751298396221
 20
6.570893341264785
 30
0.0
 10
9.757513853312403
 20
6.569826137951003
 30
0.0
 10
9.75751430289429
 20
6.569274236907897
 30
0.0
  0
SPLINE
  5
1C2
330
1F
100
AcDbEntity
  8
0
  6
Continuous
 62
     7
370
    18
100
AcDbSpline
210
0.0
220
0.0
230
1.0
 70
     8
 71
     3
 72
    23
 73
    19
 74
     0
 42
0.000000001
 43
0.00000001
 40
0.0
 40
0.0
 40
0.0
 40
0.0
 40
0.0840520374929028
 40
0.1623146334137115
 40
0.2366600199015783
 40
0.3057775454542922
 40
0.3698548822538674
 40
0.4308818052540333
 40
0.4880260023390452
 40
0.5427446849665447
 40
0.5951151179188185
 40
0.646686171351649
 40
0.6997262587744748
 40
0.7534139566544653
 40
0.8093158108836114
 40
0.8690272915375985
 40
0.9322090442192221
 40
1.0
 40
1.0
 40
1.0
 40
1.0
 10
9.77523729978172
 20
6.565563681617471
 30
0.0
 10
9.775234375851737
 20
6.566019794853729
 30
0.0
 10
9.775228729389884
 20
6.56690060458716
 30
0.0
 10
9.775137259936841
 20
6.56822888823547
 30
0.0
 10
9.775013958925213
 20
6.569490546947559
 30
0.0
 10
9.77482014878534
 20
6.570702973884601
 30
0.0
 10
9.774576041085052
 20
6.571855478040345
 30
0.0
 10
9.7742961619889
 20
6.572949153555963
 30
0.0
 10
9.773942301932907
 20
6.573995831851417
 30
0.0
 10
9.773536360427258
 20
6.574986626057589
 30
0.0
 10
9.773059143485616
 20
6.575922296646354
 30
0.0
 10
9.772523116974076
 20
6.576815510135967
 30
0.0
 10
9.771908551579779
 20
6.577655534151804
 30
0.0
 10
9.771222459058434
 20
6.578434681326174
 30
0.0
 10
9.77048346085363
 20
6.579200484860445
 30
0.0
 10
9.769659487331722
 20
6.579860715883337
 30
0.0
 10
9.768776142697266
 20
6.580526009665698
 30
0.0
 10
9.768162374840383
 20
6.580890544448687
 30
0.0
 10
9.767844691025685
 20
6.581079226210288
 30
0.0
  0
LINE
  5
1C3
330
1F
100
AcDbEntity
  8
0
  6
Continuous
 62
     7
370
    18
100
AcDbLine
 10
9.7752372998
 20
6.5332103784
 30
0.0
 11
9.7752372998
 21
6.5655636816
 31
0.0
  0
LINE
  5
1C4
330
1F
100
AcDbEntity
  8
0
  6
Continuous
 62
     7
370
    18
100
AcDbLine
 10
9.7829429506
 20
6.5287620008
 30
0.0
 11
9.7752372998
 21
6.5332103784
 31
0.0
  0
LINE
  5
1C5
330
1F
100
AcDbEntity
  8
0
  6
Continuous
 62
     7
370
    18
100
AcDbLine
 10
9.7829429506
 20
6.557695058
 30
0.0
 11
9.7829429506
 21
6.5287620008
 31
0.0
  0
SPLINE
  5
1C6
330
1F
100
AcDbEntity
  8
0
  6
Continuous
 62
     7
370
    18
100
AcDbSpline
210
0.0
220
0.0
230
1.0
 70
     8
 71
     3
 72
    23
 73
    19
 74
     0
 42
0.000000001
 43
0.00000001
 40
0.0
 40
0.0
 40
0.0
 40
0.0
 40
0.0585757660198502
 40
0.1150346943684877
 40
0.1697636152311753
 40
0.2236478972929995
 40
0.2768730316667504
 40
0.3302884546297407
 40
0.3850366836323354
 40
0.4406848389014087
 40
0.497880267698413
 40
0.5572232623162526
 40
0.620037427243632
 40
0.6862557553842886
 40
0.7567477502249746
 40
0.8318929806595928
 40
0.9128343922551199
 40
1.0
 40
1.0
 40
1.0
 40
1.0
 10
9.793201098257297
 20
6.566441283892841
 30
0.0
 10
9.792839293917643
 20
6.566640366443436
 30
0.0
 10
9.792128760288103
 20
6.567031337008875
 30
0.0
 10
9.791090461465371
 20
6.567452886633101
 30
0.0
 10
9.7900933153854
 20
6.567776130828186
 30
0.0
 10
9.789154110660537
 20
6.567917754584495
 30
0.0
 10
9.788254187057074
 20
6.567954208614704
 30
0.0
 10
9.787406599201814
 20
6.567834867137134
 30
0.0
 10
9.786597588632088
 20
6.567597789056638
 30
0.0
 10
9.785851028619545
 20
6.567199103009242
 30
0.0
 10
9.785151568391317
 20
6.56667432567659
 30
0.0
 10
9.784564285684697
 20
6.565924606102359
 30
0.0
 10
9.78405716743687
 20
6.56500635807729
 30
0.0
 10
9.783653318160598
 20
6.563893285758411
 30
0.0
 10
9.783326409095388
 20
6.562618195130063
 30
0.0
 10
9.783101120496932
 20
6.561152330409611
 30
0.0
 10
9.782971327581661
 20
6.559498293730958
 30
0.0
 10
9.782952640229768
 20
6.558310792412637
 30
0.0
 10
9.782942950602344
 20
6.557695058016088
 30
0.0
  0
SPLINE
  5
1C7
330
1F
100
AcDbEntity
  8
0
  6
Continuous
 62
     7
370
    18
100
AcDbSpline
210
0.0
220
0.0
230
1.0
 70
     8
 71
     3
 72
    19
 73
    15
 74
     0
 42
0.000000001
 43
0.00000001
 40
0.0
 40
0.0
 40
0.0
 40
0.0
 40
0.1364148811765276
 40
0.2528973605082379
 40
0.3492204458013853
 40
0.4269322474132385
 40
0.494452408614837
 40
0.5607020268402115
 40
0.6286260433619814
 40
0.698836431094078
 40
0.7714182240964005
 40
0.8441568540005472
 40
0.91996411208531
 40
1.0
 40
1.0
 40
1.0
 40
1.0
 10
9.800665947489774
 20
6.549896891570008
 30
0.0
 10
9.800655383081242
 20
6.550686314058109
 30
0.0
 10
9.800635797893683
 20
6.552149811748719
 30
0.0
 10
9.800530601625642
 20
6.554214462827328
 30
0.0
 10
9.800319412623775
 20
6.555988222797251
 30
0.0
 10
9.800029552543519
 20
6.557507619837998
 30
0.0
 10
9.799584248673222
 20
6.558872189538937
 30
0.0
 10
9.799021584174467
 20
6.560161897022107
 30
0.0
 10
9.798314964529956
 20
6.561421197351159
 30
0.0
 10
9.797480606367477
 20
6.562641941625045
 30
0.0
 10
9.796535596772001
 20
6.563784968111432
 30
0.0
 10
9.795492091958495
 20
6.564799665090496
 30
0.0
 10
9.794376064400259
 20
6.565723753039309
 30
0.0
 10
9.793599774888115
 20
6.566197819189703
 30
0.0
 10
9.793201098257297
 20
6.566441283892841
 30
0.0
  0
LINE
  5
1C8
330
1F
100
AcDbEntity
  8
0
  6
Continuous
 62
     7
370
    18
100
AcDbLine
 10
9.8006659475
 20
6.5185307325
 30
0.0
 11
9.8006659475
 21
6.5498968916
 31
0.0
  0
LINE
  5
1C9
330
1F
100
AcDbEntity
  8
0
  6
Continuous
 62
     7
370
    18
100
AcDbLine
 10
9.8083715983
 20
6.514082355
 30
0.0
 11
9.8006659475
 21
6.5185307325
 31
0.0
  0
LINE
  5
1CA
330
1F
100
AcDbEntity
  8
0
  6
Continuous
 62
     7
370
    18
100
AcDbLine
 10
9.8083715983
 20
6.5487297257
 30
0.0
 11
9.8083715983
 21
6.514082355
 31
0.0
  0
SPLINE
  5
1CB
330
1F
100
AcDbEntity
  8
0
  6
Continuous
 62
     7
370
    18
100
AcDbSpline
210
0.0
220
0.0
230
1.0
 70
     8
 71
     3
 72
    23
 73
    19
 74
     0
 42
0.000000001
 43
0.00000001
 40
0.0
 40
0.0
 40
0.0
 40
0.0
 40
0.0684858423217283
 40
0.1336315466164051
 40
0.1953270837667403
 40
0.2542221042059953
 40
0.3112724040630451
 40
0.3666124446917561
 40
0.4212564852255815
 40
0.476070220172283
 40
0.5314280570704053
 40
0.5882286934627508
 40
0.6473050178610782
 40
0.7093984115158154
 40
0.7752829671512459
 40
0.8452284978288171
 40
0.9203967621689222
 40
1.0
 40
1.0
 40
1.0
 40
1.0
 10
9.79505527048601
 20
6.573379274088764
 30
0.0
 10
9.795573496982996
 20
6.573066505742953
 30
0.0
 10
9.796584675438893
 20
6.57245622314488
 30
0.0
 10
9.798054299682128
 20
6.571409261316324
 30
0.0
 10
9.799435509387347
 20
6.570301253115812
 30
0.0
 10
9.800720298798499
 20
6.569094185679172
 30
0.0
 10
9.801916221281251
 20
6.567822305655874
 30
0.0
 10
9.803024515014348
 20
6.566473146841952
 30
0.0
 10
9.804027002956493
 20
6.565033339697727
 30
0.0
 10
9.80495177527607
 20
6.563528883833388
 30
0.0
 10
9.805762604006755
 20
6.56193624014836
 30
0.0
 10
9.806463922412787
 20
6.560269692900598
 30
0.0
 10
9.807055677147872
 20
6.558527444390958
 30
0.0
 10
9.807531280233087
 20
6.556711534358413
 30
0.0
 10
9.807923306736846
 20
6.554813692827515
 30
0.0
 10
9.808174398601219
 20
6.552846367538145
 30
0.0
 10
9.808353122617877
 20
6.550788946393509
 30
0.0
 10
9.808365323210335
 20
6.54942912119252
 30
0.0
 10
9.808371598310398
 20
6.548729725713607
 30
0.0
  0
SPLINE
  5
1CC
330
1F
100
AcDbEntity
  8
0
  6
Continuous
 62
     7
370
    18
100
AcDbSpline
210
0.0
220
0.0
230
1.0
 70
     8
 71
     3
 72
    15
 73
    11
 74
     0
 42
0.000000001
 43
0.00000001
 40
0.0
 40
0.0
 40
0.0
 40
0.0
 40
0.1423029469909936
 40
0.2753838759350569
 40
0.4024786494899647
 40
0.5233761876629243
 40
0.641231034256444
 40
0.758322685190771
 40
0.8775530580400325
 40
1.0
 40
1.0
 40
1.0
 40
1.0
 10
9.78173894266162
 20
6.571653998102438
 30
0.0
 10
9.782166283273064
 20
6.572156170955614
 30
0.0
 10
9.782993270460693
 20
6.573127973083547
 30
0.0
 10
9.784433926122146
 20
6.574217489023295
 30
0.0
 10
9.785958782211067
 20
6.574974684298821
 30
0.0
 10
9.787588913154762
 20
6.575373950888062
 30
0.0
 10
9.789314387086247
 20
6.57541839815156
 30
0.0
 10
9.791140482281897
 20
6.575112072337802
 30
0.0
 10
9.793069343033997
 20
6.574432896511409
 30
0.0
 10
9.794387446964414
 20
6.573733584028942
 30
0.0
 10
9.79505527048601
 20
6.573379274088764
 30
0.0
  0
SPLINE
  5
1CD
330
1F
100
AcDbEntity
  8
0
  6
Continuous
 62
     7
370
    18
100
AcDbSpline
210
0.0
220
0.0
230
1.0
 70
     8
 71
     3
 72
    15
 73
    11
 74
     0
 42
0.000000001
 43
0.00000001
 40
0.0
 40
0.0
 40
0.0
 40
0.0
 40
0.1427448629824143
 40
0.2746346497965612
 40
0.3982435516696319
 40
0.5176044543884916
 40
0.6347051380894372
 40
0.752088118491098
 40
0.8730810341089201
 40
1.0
 40
1.0
 40
1.0
 40
1.0
 10
9.770060065636615
 20
6.587808698709381
 30
0.0
 10
9.770792823863522
 20
6.587360793277085
 30
0.0
 10
9.772202617496912
 20
6.586499043516216
 30
0.0
 10
9.77420947059019
 20
6.584850999481531
 30
0.0
 10
9.776025658499538
 20
6.58304897353397
 30
0.0
 10
9.777619402884367
 20
6.581027513292865
 30
0.0
 10
9.778996180545029
 20
6.57885303329788
 30
0.0
 10
9.780151981135516
 20
6.576547531883376
 30
0.0
 10
9.781094805153153
 20
6.574120298618477
 30
0.0
 10
9.781520835568692
 20
6.572489095622409
 30
0.0
 10
9.78173894266162
 20
6.571653998102438
 30
0.0
  0
SPLINE
  5
1CE
330
1F
100
AcDbEntity
  8
0
  6
Continuous
 62
     7
370
    18
100
AcDbSpline
210
0.0
220
0.0
230
1.0
 70
     8
 71
     3
 72
    15
 73
    11
 74
     0
 42
0.000000001
 43
0.00000001
 40
0.0
 40
0.0
 40
0.0
 40
0.0
 40
0.12663192842358
 40
0.2498443757728049
 40
0.372604647592006
 40
0.4967509664038979
 40
0.6205941793274103
 40
0.7437520563069244
 40
0.8691668313601797
 40
1.0
 40
1.0
 40
1.0
 40
1.0
 10
9.75751430289429
 20
6.586250336299235
 30
0.0
 10
9.75785348099634
 20
6.58669616664782
 30
0.0
 10
9.758522678269395
 20
6.58757578845039
 30
0.0
 10
9.759764467477249
 20
6.588549299412352
 30
0.0
 10
9.761141316904496
 20
6.589272713718574
 30
0.0
 10
9.762680183493897
 20
6.589687924390028
 30
0.0
 10
9.76435289143879
 20
6.589793321650205
 30
0.0
 10
9.766158274871156
 20
6.589499177334286
 30
0.0
 10
9.768070577223076
 20
6.588876056397877
 30
0.0
 10
9.76938761982404
 20
6.588169464926096
 30
0.0
 10
9.770060065636615
 20
6.587808698709381
 30
0.0
  0
LINE
  5
1CF
330
1F
100
AcDbEntity
  8
0
  6
Continuous
 62
     7
370
    18
100
AcDbLine
 10
9.7575143029
 20
6.5941613933
 30
0.0
 11
9.7575143029
 21
6.5862503363
 31
0.0
  0
LINE
  5
1D0
330
1F
100
AcDbEntity
  8
0
  6
Continuous
 62
     7
370
    18
100
AcDbLine
 10
9.7498086521
 20
6.5986097708
 30
0.0
 11
9.7575143029
 21
6.5941613933
 31
0.0
  0
LINE
  5
1D1
330
1F
100
AcDbEntity
  8
0
  6
Continuous
 62
     7
370
    18
100
AcDbLine
 10
9.7498086521
 20
6.5478900242
 30
0.0
 11
9.7498086521
 21
6.5986097708
 31
0.0
  0
LINE
  5
1D2
330
1F
100
AcDbEntity
  8
0
  6
Continuous
 62
     7
370
    18
100
AcDbLine
 10
9.7575143029
 20
6.5434416467
 30
0.0
 11
9.7498086521
 21
6.5478900242
 31
0.0
  0
LINE
  5
1D3
330
1F
100
AcDbEntity
  8
0
  6
Continuous
 62
     7
370
    18
100
AcDbLine
 10
9.7575143029
 20
6.5692742369
 30
0.0
 11
9.7575143029
 21
6.5434416467
 31
0.0
  0
LINE
  5
1D4
330
1F
100
AcDbEntity
  8
0
  6
Continuous
 62
     7
370
    18
100
AcDbLine
 10
9.9076781733
 20
6.4647622706
 30
0.0
 11
9.943124167
 21
6.4442997339
 31
0.0
  0
LINE
  5
1D5
330
1F
100
AcDbEntity
  8
0
  6
Continuous
 62
     7
370
    18
100
AcDbLine
 10
9.9076781733
 20
6.4887874137
 30
0.0
 11
9.9076781733
 21
6.4647622706
 31
0.0
  0
LINE
  5
1D6
330
1F
100
AcDbEntity
  8
0
  6
Continuous
 62
     7
370
    18
100
AcDbLine
 10
9.9392713416
 20
6.4705490658
 30
0.0
 11
9.9076781733
 21
6.4887874137
 31
0.0
  0
LINE
  5
1D7
330
1F
100
AcDbEntity
  8
0
  6
Continuous
 62
     7
370
    18
100
AcDbLine
 10
9.9392713416
 20
6.4785574468
 30
0.0
 11
9.9392713416
 21
6.4705490658
 31
0.0
  0
LINE
  5
1D8
330
1F
100
AcDbEntity
  8
0
  6
Continuous
 62
     7
370
    18
100
AcDbLine
 10
9.9076781733
 20
6.4967957947
 30
0.0
 11
9.9392713416
 21
6.4785574468
 31
0.0
  0
LINE
  5
1D9
330
1F
100
AcDbEntity
  8
0
  6
Continuous
 62
     7
370
    18
100
AcDbLine
 10
9.9076781733
 20
6.5181514775
 30
0.0
 11
9.9076781733
 21
6.4967957947
 31
0.0
  0
LINE
  5
1DA
330
1F
100
AcDbEntity
  8
0
  6
Continuous
 62
     7
370
    18
100
AcDbLine
 10
9.9415830369
 20
6.4985786163
 30
0.0
 11
9.9076781733
 21
6.5181514775
 31
0.0
  0
LINE
  5
1DB
330
1F
100
AcDbEntity
  8
0
  6
Continuous
 62
     7
370
    18
100
AcDbLine
 10
9.9415830369
 20
6.5065869974
 30
0.0
 11
9.9415830369
 21
6.4985786163
 31
0.0
  0
LINE
  5
1DC
330
1F
100
AcDbEntity
  8
0
  6
Continuous
 62
     7
370
    18
100
AcDbLine
 10
9.8992019574
 20
6.5310530738
 30
0.0
 11
9.9415830369
 21
6.5065869974
 31
0.0
  0
LINE
  5
1DD
330
1F
100
AcDbEntity
  8
0
  6
Continuous
 62
     7
370
    18
100
AcDbLine
 10
9.8992019574
 20
6.4616471048
 30
0.0
 11
9.8992019574
 21
6.5310530738
 31
0.0
  0
LINE
  5
1DE
330
1F
100
AcDbEntity
  8
0
  6
Continuous
 62
     7
370
    18
100
AcDbLine
 10
9.943124167
 20
6.4362913529
 30
0.0
 11
9.8992019574
 21
6.4616471048
 31
0.0
  0
LINE
  5
1DF
330
1F
100
AcDbEntity
  8
0
  6
Continuous
 62
     7
370
    18
100
AcDbLine
 10
9.943124167
 20
6.4442997339
 30
0.0
 11
9.943124167
 21
6.4362913529
 31
0.0
  0
LINE
  5
1E0
330
1F
100
AcDbEntity
  8
0
  6
Continuous
 62
     7
370
    18
100
AcDbLine
 10
10.03303948
 20
6.3843843475
 30
0.0
 11
10.0170984149
 21
6.4523150562
 31
0.0
  0
LINE
  5
1E1
330
1F
100
AcDbEntity
  8
0
  6
Continuous
 62
     7
370
    18
100
AcDbLine
 10
10.0419009785
 20
6.3792687134
 30
0.0
 11
10.03303948
 21
6.3843843475
 31
0.0
  0
LINE
  5
1E2
330
1F
100
AcDbEntity
  8
0
  6
Continuous
 62
     7
370
    18
100
AcDbLine
 10
10.0579383643
 20
6.4287386553
 30
0.0
 11
10.0419009785
 21
6.3792687134
 31
0.0
  0
LINE
  5
1E3
330
1F
100
AcDbEntity
  8
0
  6
Continuous
 62
     7
370
    18
100
AcDbLine
 10
10.0579383643
 20
6.3700105276
 30
0.0
 11
10.0579383643
 21
6.4287386553
 31
0.0
  0
LINE
  5
1E4
330
1F
100
AcDbEntity
  8
0
  6
Continuous
 62
     7
370
    18
100
AcDbLine
 10
10.0664145802
 20
6.3651173124
 30
0.0
 11
10.0579383643
 21
6.3700105276
 31
0.0
  0
LINE
  5
1E5
330
1F
100
AcDbEntity
  8
0
  6
Continuous
 62
     7
370
    18
100
AcDbLine
 10
10.0664145802
 20
6.4345232814
 30
0.0
 11
10.0664145802
 21
6.3651173124
 31
0.0
  0
LINE
  5
1E6
330
1F
100
AcDbEntity
  8
0
  6
Continuous
 62
     7
370
    18
100
AcDbLine
 10
10.0537724968
 20
6.4418214007
 30
0.0
 11
10.0664145802
 21
6.4345232814
 31
0.0
  0
LINE
  5
1E7
330
1F
100
AcDbEntity
  8
0
  6
Continuous
 62
     7
370
    18
100
AcDbLine
 10
10.040468209
 20
6.4016322611
 30
0.0
 11
10.0537724968
 21
6.4418214007
 31
0.0
  0
SPLINE
  5
1E8
330
1F
100
AcDbEntity
  8
0
  6
Continuous
 62
     7
370
    18
100
AcDbSpline
210
0.0
220
0.0
230
1.0
 70
     8
 71
     3
 72
    15
 73
    11
 74
     0
 42
0.000000001
 43
0.00000001
 40
0.0
 40
0.0
 40
0.0
 40
0.0
 40
0.0892047702332417
 40
0.1898334556643487
 40
0.2992325919749821
 40
0.4192609378429098
 40
0.5492073901909378
 40
0.689074363684346
 40
0.8395791979483163
 40
1.0
 40
1.0
 40
1.0
 40
1.0
 10
10.03751838958866
 20
6.392309728211448
 30
0.0
 10
10.03760229602776
 20
6.392590467701512
 30
0.0
 10
10.03778085429593
 20
6.393187899289541
 30
0.0
 10
10.038070325792
 20
6.394122224547396
 30
0.0
 10
10.03837833170549
 20
6.39516327673116
 30
0.0
 10
10.03874692037338
 20
6.396265831633223
 30
0.0
 10
10.03913113043728
 20
6.397476478396062
 30
0.0
 10
10.03953440890257
 20
6.39879203750527
 30
0.0
 10
10.03999958275909
 20
6.400172326880182
 30
0.0
 10
10.0403087140345
 20
6.40113537852478
 30
0.0
 10
10.04046820904343
 20
6.40163226105616
 30
0.0
  0
SPLINE
  5
1E9
330
1F
100
AcDbEntity
  8
0
  6
Continuous
 62
     7
370
    18
100
AcDbSpline
210
0.0
220
0.0
230
1.0
 70
     8
 71
     3
 72
    15
 73
    11
 74
     0
 42
0.000000001
 43
0.00000001
 40
0.0
 40
0.0
 40
0.0
 40
0.0
 40
0.1625255217041964
 40
0.3143148980392429
 40
0.4549784905465752
 40
0.584519237366202
 40
0.7045671033090717
 40
0.8134949897289319
 40
0.9116812596826112
 40
1.0
 40
1.0
 40
1.0
 40
1.0
 10
10.03480937172204
 20
6.404064831948196
 30
0.0
 10
10.03495724349171
 20
6.403427738807024
 30
0.0
 10
10.03524321888633
 20
6.402195637758468
 30
0.0
 10
10.03566728646798
 20
6.400409966735565
 30
0.0
 10
10.03605311687421
 20
6.398755345721814
 30
0.0
 10
10.03640061791029
 20
6.397227270171857
 30
0.0
 10
10.03672855912767
 20
6.395821495469598
 30
0.0
 10
10.03701250454929
 20
6.394542146267034
 30
0.0
 10
10.03728396561013
 20
6.393383426317992
 30
0.0
 10
10.03744305392193
 20
6.392654777225764
 30
0.0
 10
10.03751838958866
 20
6.392309728211448
 30
0.0
  0
LINE
  5
1EA
330
1F
100
AcDbEntity
  8
0
  6
Continuous
 62
     7
370
    18
100
AcDbLine
 10
10.0213726431
 20
6.4605254382
 30
0.0
 11
10.0348093717
 21
6.4040648319
 31
0.0
  0
LINE
  5
1EB
330
1F
100
AcDbEntity
  8
0
  6
Continuous
 62
     7
370
    18
100
AcDbLine
 10
10.008622199
 20
6.4678861129
 30
0.0
 11
10.0213726431
 21
6.4605254382
 31
0.0
  0
LINE
  5
1EC
330
1F
100
AcDbEntity
  8
0
  6
Continuous
 62
     7
370
    18
100
AcDbLine
 10
10.008622199
 20
6.3984801438
 30
0.0
 11
10.008622199
 21
6.4678861129
 31
0.0
  0
LINE
  5
1ED
330
1F
100
AcDbEntity
  8
0
  6
Continuous
 62
     7
370
    18
100
AcDbLine
 10
10.0170984149
 20
6.3935869286
 30
0.0
 11
10.008622199
 21
6.3984801438
 31
0.0
  0
LINE
  5
1EE
330
1F
100
AcDbEntity
  8
0
  6
Continuous
 62
     7
370
    18
100
AcDbLine
 10
10.0170984149
 20
6.4523150562
 30
0.0
 11
10.0170984149
 21
6.3935869286
 31
0.0
  0
LINE
  5
1EF
330
1F
100
AcDbEntity
  8
0
  6
Continuous
 62
     7
370
    18
100
AcDbLine
 10
10.1635057805
 20
6.3784737245
 30
0.0
 11
10.1719819964
 21
6.3735805092
 31
0.0
  0
LINE
  5
1F0
330
1F
100
AcDbEntity
  8
0
  6
Continuous
 62
     7
370
    18
100
AcDbLine
 10
10.1635057805
 20
6.3090677554
 30
0.0
 11
10.1635057805
 21
6.3784737245
 31
0.0
  0
LINE
  5
1F1
330
1F
100
AcDbEntity
  8
0
  6
Continuous
 62
     7
370
    18
100
AcDbLine
 10
10.1719819964
 20
6.3041745402
 30
0.0
 11
10.1635057805
 21
6.3090677554
 31
0.0
  0
LINE
  5
1F2
330
1F
100
AcDbEntity
  8
0
  6
Continuous
 62
     7
370
    18
100
AcDbLine
 10
10.1719819964
 20
6.3735805092
 30
0.0
 11
10.1719819964
 21
6.3041745402
 31
0.0
  0
LINE
  5
1F3
330
1F
100
AcDbEntity
  8
0
  6
Continuous
 62
     7
370
    18
100
AcDbLine
 10
10.2642090047
 20
6.2509330216
 30
0.0
 11
10.2482679395
 21
6.3188637302
 31
0.0
  0
LINE
  5
1F4
330
1F
100
AcDbEntity
  8
0
  6
Continuous
 62
     7
370
    18
100
AcDbLine
 10
10.2730705031
 20
6.2458173874
 30
0.0
 11
10.2642090047
 21
6.2509330216
 31
0.0
  0
LINE
  5
1F5
330
1F
100
AcDbEntity
  8
0
  6
Continuous
 62
     7
370
    18
100
AcDbLine
 10
10.2891078889
 20
6.2952873293
 30
0.0
 11
10.2730705031
 21
6.2458173874
 31
0.0
  0
LINE
  5
1F6
330
1F
100
AcDbEntity
  8
0
  6
Continuous
 62
     7
370
    18
100
AcDbLine
 10
10.2891078889
 20
6.2365592017
 30
0.0
 11
10.2891078889
 21
6.2952873293
 31
0.0
  0
LINE
  5
1F7
330
1F
100
AcDbEntity
  8
0
  6
Continuous
 62
     7
370
    18
100
AcDbLine
 10
10.2975841048
 20
6.2316659864
 30
0.0
 11
10.2891078889
 21
6.2365592017
 31
0.0
  0
LINE
  5
1F8
330
1F
100
AcDbEntity
  8
0
  6
Continuous
 62
     7
370
    18
100
AcDbLine
 10
10.2975841048
 20
6.3010719554
 30
0.0
 11
10.2975841048
 21
6.2316659864
 31
0.0
  0
LINE
  5
1F9
330
1F
100
AcDbEntity
  8
0
  6
Continuous
 62
     7
370
    18
100
AcDbLine
 10
10.2849420214
 20
6.3083700748
 30
0.0
 11
10.2975841048
 21
6.3010719554
 31
0.0
  0
LINE
  5
1FA
330
1F
100
AcDbEntity
  8
0
  6
Continuous
 62
     7
370
    18
100
AcDbLine
 10
10.2716377337
 20
6.2681809351
 30
0.0
 11
10.2849420214
 21
6.3083700748
 31
0.0
  0
SPLINE
  5
1FB
330
1F
100
AcDbEntity
  8
0
  6
Continuous
 62
     7
370
    18
100
AcDbSpline
210
0.0
220
0.0
230
1.0
 70
     8
 71
     3
 72
    15
 73
    11
 74
     0
 42
0.000000001
 43
0.00000001
 40
0.0
 40
0.0
 40
0.0
 40
0.0
 40
0.0892047702332424
 40
0.18983345566435
 40
0.299232591974982
 40
0.4192609378429104
 40
0.5492073901909383
 40
0.6890743636843474
 40
0.8395791979483168
 40
1.0
 40
1.0
 40
1.0
 40
1.0
 10
10.26868791420734
 20
6.258858402240427
 30
0.0
 10
10.26877182064644
 20
6.25913914173049
 30
0.0
 10
10.26895037891461
 20
6.259736573318519
 30
0.0
 10
10.26923985041068
 20
6.260670898576374
 30
0.0
 10
10.26954785632417
 20
6.261711950760139
 30
0.0
 10
10.26991644499206
 20
6.262814505662202
 30
0.0
 10
10.27030065505596
 20
6.264025152425041
 30
0.0
 10
10.27070393352125
 20
6.265340711534249
 30
0.0
 10
10.27116910737776
 20
6.266721000909161
 30
0.0
 10
10.27147823865318
 20
6.267684052553759
 30
0.0
 10
10.27163773366211
 20
6.268180935085139
 30
0.0
  0
SPLINE
  5
1FC
330
1F
100
AcDbEntity
  8
0
  6
Continuous
 62
     7
370
    18
100
AcDbSpline
210
0.0
220
0.0
230
1.0
 70
     8
 71
     3
 72
    15
 73
    11
 74
     0
 42
0.000000001
 43
0.00000001
 40
0.0
 40
0.0
 40
0.0
 40
0.0
 40
0.1625255217041972
 40
0.3143148980392433
 40
0.4549784905465757
 40
0.5845192373662027
 40
0.704567103309073
 40
0.8134949897289324
 40
0.911681259682611
 40
1.0
 40
1.0
 40
1.0
 40
1.0
 10
10.26597889634072
 20
6.270613505977175
 30
0.0
 10
10.26612676811039
 20
6.269976412836002
 30
0.0
 10
10.26641274350501
 20
6.268744311787446
 30
0.0
 10
10.26683681108666
 20
6.266958640764545
 30
0.0
 10
10.26722264149288
 20
6.265304019750793
 30
0.0
 10
10.26757014252897
 20
6.263775944200836
 30
0.0
 10
10.26789808374635
 20
6.262370169498576
 30
0.0
 10
10.26818202916797
 20
6.261090820296014
 30
0.0
 10
10.26845349022881
 20
6.25993210034697
 30
0.0
 10
10.26861257854061
 20
6.259203451254742
 30
0.0
 10
10.26868791420734
 20
6.258858402240427
 30
0.0
  0
LINE
  5
1FD
330
1F
100
AcDbEntity
  8
0
  6
Continuous
 62
     7
370
    18
100
AcDbLine
 10
10.2525421677
 20
6.3270741122
 30
0.0
 11
10.2659788963
 21
6.270613506
 31
0.0
  0
LINE
  5
1FE
330
1F
100
AcDbEntity
  8
0
  6
Continuous
 62
     7
370
    18
100
AcDbLine
 10
10.2397917236
 20
6.3344347869
 30
0.0
 11
10.2525421677
 21
6.3270741122
 31
0.0
  0
LINE
  5
1FF
330
1F
100
AcDbEntity
  8
0
  6
Continuous
 62
     7
370
    18
100
AcDbLine
 10
10.2397917236
 20
6.2650288179
 30
0.0
 11
10.2397917236
 21
6.3344347869
 31
0.0
  0
LINE
  5
200
330
1F
100
AcDbEntity
  8
0
  6
Continuous
 62
     7
370
    18
100
AcDbLine
 10
10.2482679395
 20
6.2601356026
 30
0.0
 11
10.2397917236
 21
6.2650288179
 31
0.0
  0
LINE
  5
201
330
1F
100
AcDbEntity
  8
0
  6
Continuous
 62
     7
370
    18
100
AcDbLine
 10
10.2482679395
 20
6.3188637302
 30
0.0
 11
10.2482679395
 21
6.2601356026
 31
0.0
  0
LINE
  5
202
330
1F
100
AcDbEntity
  8
0
  6
Continuous
 62
     7
370
    18
100
AcDbLine
 10
10.4085454766
 20
6.2290069379
 30
0.0
 11
10.3892813496
 21
6.2401278817
 31
0.0
  0
LINE
  5
203
330
1F
100
AcDbEntity
  8
0
  6
Continuous
 62
     7
370
    18
100
AcDbLine
 10
10.4085454766
 20
6.2370153189
 30
0.0
 11
10.4085454766
 21
6.2290069379
 31
0.0
  0
LINE
  5
204
330
1F
100
AcDbEntity
  8
0
  6
Continuous
 62
     7
370
    18
100
AcDbLine
 10
10.3615410066
 20
6.2641504219
 30
0.0
 11
10.4085454766
 21
6.2370153189
 31
0.0
  0
LINE
  5
205
330
1F
100
AcDbEntity
  8
0
  6
Continuous
 62
     7
370
    18
100
AcDbLine
 10
10.3615410066
 20
6.2561420408
 30
0.0
 11
10.3615410066
 21
6.2641504219
 31
0.0
  0
LINE
  5
206
330
1F
100
AcDbEntity
  8
0
  6
Continuous
 62
     7
370
    18
100
AcDbLine
 10
10.3808051336
 20
6.245021097
 30
0.0
 11
10.3615410066
 21
6.2561420408
 31
0.0
  0
LINE
  5
207
330
1F
100
AcDbEntity
  8
0
  6
Continuous
 62
     7
370
    18
100
AcDbLine
 10
10.3808051336
 20
6.183623509
 30
0.0
 11
10.3808051336
 21
6.245021097
 31
0.0
  0
LINE
  5
208
330
1F
100
AcDbEntity
  8
0
  6
Continuous
 62
     7
370
    18
100
AcDbLine
 10
10.3892813496
 20
6.1787302937
 30
0.0
 11
10.3808051336
 21
6.183623509
 31
0.0
  0
LINE
  5
209
330
1F
100
AcDbEntity
  8
0
  6
Continuous
 62
     7
370
    18
100
AcDbLine
 10
10.3892813496
 20
6.2401278817
 30
0.0
 11
10.3892813496
 21
6.1787302937
 31
0.0
  0
LINE
  5
20A
330
1F
100
AcDbEntity
  8
0
  6
Continuous
 62
     7
370
    18
100
AcDbLine
 10
10.4896594916
 20
6.1519269298
 30
0.0
 11
10.4809785943
 21
6.1569383052
 31
0.0
  0
SPLINE
  5
20B
330
1F
100
AcDbEntity
  8
0
  6
Continuous
 62
     7
370
    18
100
AcDbSpline
210
0.0
220
0.0
230
1.0
 70
     8
 71
     3
 72
    11
 73
     7
 74
     0
 42
0.000000001
 43
0.00000001
 40
0.0
 40
0.0
 40
0.0
 40
0.0
 40
0.1774946570818461
 40
0.4052256231013865
 40
0.67838810833485
 40
1.0
 40
1.0
 40
1.0
 40
1.0
 10
10.49383739912241
 20
6.149195296041094
 30
0.0
 10
10.49359309336096
 20
6.149387205727447
 30
0.0
 10
10.49303533598371
 20
6.149825341294515
 30
0.0
 10
10.49208826534894
 20
6.150447930688248
 30
0.0
 10
10.4909407730867
 20
6.151190876091025
 30
0.0
 10
10.49010916588895
 20
6.151668606851513
 30
0.0
 10
10.4896594915681
 20
6.151926929838438
 30
0.0
  0
SPLINE
  5
20C
330
1F
100
AcDbEntity
  8
0
  6
Continuous
 62
     7
370
    18
100
AcDbSpline
210
0.0
220
0.0
230
1.0
 70
     8
 71
     3
 72
    21
 73
    17
 74
     0
 42
0.000000001
 43
0.00000001
 40
0.0
 40
0.0
 40
0.0
 40
0.0
 40
0.0807565202394666
 40
0.1564928761205837
 40
0.2278645863309012
 40
0.2942194159581935
 40
0.3567576405439986
 40
0.4148044898400759
 40
0.4680257207328432
 40
0.5167566765914664
 40
0.6042176202059655
 40
0.6814453118756422
 40
0.7479519834168781
 40
0.8047659882074071
 40
0.9054352660002635
 40
1.0
 40
1.0
 40
1.0
 40
1.0
 10
10.50645540234118
 20
6.12574137792019
 30
0.0
 10
10.50618612156743
 20
6.126410978737732
 30
0.0
 10
10.50566429964343
 20
6.127708555174643
 30
0.0
 10
10.50491081668266
 20
6.129598840485449
 30
0.0
 10
10.50417105728081
 20
6.131364979044521
 30
0.0
 10
10.50348827693414
 20
6.133023685797572
 30
0.0
 10
10.50281917473218
 20
6.134566609163986
 30
0.0
 10
10.50221936937497
 20
6.136005415405591
 30
0.0
 10
10.50161700834996
 20
6.137319690856355
 30
0.0
 10
10.50092536421263
 20
6.13888015614098
 30
0.0
 10
10.5000806942907
 20
6.140623227538372
 30
0.0
 10
10.49909502421642
 20
6.142481958996651
 30
0.0
 10
10.49818876616398
 20
6.144073474296004
 30
0.0
 10
10.49704356781606
 20
6.145753925105248
 30
0.0
 10
10.49561957371858
 20
6.14750928642361
 30
0.0
 10
10.49441894362208
 20
6.148645131303277
 30
0.0
 10
10.49383739912241
 20
6.149195296041094
 30
0.0
  0
LINE
  5
20D
330
1F
100
AcDbEntity
  8
0
  6
Continuous
 62
     7
370
    18
100
AcDbLine
 10
10.5139443317
 20
6.106763886
 30
0.0
 11
10.5064554023
 21
6.1257413779
 31
0.0
  0
LINE
  5
20E
330
1F
100
AcDbEntity
  8
0
  6
Continuous
 62
     7
370
    18
100
AcDbLine
 10
10.5236606758
 20
6.1011547599
 30
0.0
 11
10.5139443317
 21
6.106763886
 31
0.0
  0
LINE
  5
20F
330
1F
100
AcDbEntity
  8
0
  6
Continuous
 62
     7
370
    18
100
AcDbLine
 10
10.5137998508
 20
6.1260062324
 30
0.0
 11
10.5236606758
 21
6.1011547599
 31
0.0
  0
SPLINE
  5
210
330
1F
100
AcDbEntity
  8
0
  6
Continuous
 62
     7
370
    18
100
AcDbSpline
210
0.0
220
0.0
230
1.0
 70
     8
 71
     3
 72
    11
 73
     7
 74
     0
 42
0.000000001
 43
0.00000001
 40
0.0
 40
0.0
 40
0.0
 40
0.0
 40
0.2295426438440583
 40
0.4707541631011943
 40
0.728168497232973
 40
1.0
 40
1.0
 40
1.0
 40
1.0
 10
10.50746676901139
 20
6.139116581431233
 30
0.0
 10
10.50803551364848
 20
6.138146409388948
 30
0.0
 10
10.50920191524241
 20
6.13615674629114
 30
0.0
 10
10.5107936225567
 20
6.13297501249647
 30
0.0
 10
10.5123685979701
 20
6.129577299396338
 30
0.0
 10
10.5133141803171
 20
6.127218011176313
 30
0.0
 10
10.51379985077958
 20
6.126006232419455
 30
0.0
  0
SPLINE
  5
211
330
1F
100
AcDbEntity
  8
0
  6
Continuous
 62
     7
370
    18
100
AcDbSpline
210
0.0
220
0.0
230
1.0
 70
     8
 71
     3
 72
    11
 73
     7
 74
     0
 42
0.000000001
 43
0.00000001
 40
0.0
 40
0.0
 40
0.0
 40
0.0
 40
0.2931378033625625
 40
0.555909619387244
 40
0.791869901104762
 40
1.0
 40
1.0
 40
1.0
 40
1.0
 10
10.50279521820138
 20
6.145233656379247
 30
0.0
 10
10.5032806352019
 20
6.144674027052538
 30
0.0
 10
10.50420118511702
 20
6.143612740099984
 30
0.0
 10
10.50545385648578
 20
6.142012888109177
 30
0.0
 10
10.50655125231358
 20
6.140554036762191
 30
0.0
 10
10.50717461844752
 20
6.139575287849675
 30
0.0
 10
10.50746676901139
 20
6.139116581431233
 30
0.0
  0
SPLINE
  5
212
330
1F
100
AcDbEntity
  8
0
  6
Continuous
 62
     7
370
    18
100
AcDbSpline
210
0.0
220
0.0
230
1.0
 70
     8
 71
     3
 72
    23
 73
    19
 74
     0
 42
0.000000001
 43
0.00000001
 40
0.0
 40
0.0
 40
0.0
 40
0.0
 40
0.0614153619466866
 40
0.1212995515295251
 40
0.1792307330403294
 40
0.2359469026963529
 40
0.2922277422078034
 40
0.3482096381939268
 40
0.4044598375581944
 40
0.4620427821046845
 40
0.5206936332154631
 40
0.5803701846851838
 40
0.6422200441272137
 40
0.7065528540690788
 40
0.7743053019200289
 40
0.8452659380071902
 40
0.9206237685683546
 40
1.0
 40
1.0
 40
1.0
 40
1.0
 10
10.51873628333655
 20
6.154689490906399
 30
0.0
 10
10.51872452192505
 20
6.154102570921914
 30
0.0
 10
10.51870129233079
 20
6.152943363703312
 30
0.0
 10
10.51852335389793
 20
6.151322022049783
 30
0.0
 10
10.51820138178381
 20
6.149860626691356
 30
0.0
 10
10.51778853858221
 20
6.148514027005945
 30
0.0
 10
10.51722339794299
 20
6.147340263780586
 30
0.0
 10
10.51656900626675
 20
6.146271840792213
 30
0.0
 10
10.51575716444591
 20
6.145389578729529
 30
0.0
 10
10.51485069953506
 20
6.14461205894991
 30
0.0
 10
10.51379664492307
 20
6.14402856155527
 30
0.0
 10
10.5126241787526
 20
6.143603726170054
 30
0.0
 10
10.51129805195423
 20
6.143423851319954
 30
0.0
 10
10.50986175907888
 20
6.143374393139084
 30
0.0
 10
10.50827828455625
 20
6.143566944015777
 30
0.0
 10
10.50657150869126
 20
6.143916879410249
 30
0.0
 10
10.5047282219864
 20
6.144491101565585
 30
0.0
 10
10.50345061251811
 20
6.144981889565077
 30
0.0
 10
10.50279521820138
 20
6.145233656379247
 30
0.0
  0
SPLINE
  5
213
330
1F
100
AcDbEntity
  8
0
  6
Continuous
 62
     7
370
    18
100
AcDbSpline
210
0.0
220
0.0
230
1.0
 70
     8
 71
     3
 72
    27
 73
    23
 74
     0
 42
0.000000001
 43
0.00000001
 40
0.0
 40
0.0
 40
0.0
 40
0.0
 40
0.0621037847913044
 40
0.1201946065074401
 40
0.174359949222816
 40
0.2250078830566528
 40
0.272315965040078
 40
0.3163395597264796
 40
0.3568150324191081
 40
0.3939185202750513
 40
0.4295244282576432
 40
0.464613031630136
 40
0.4999612336346007
 40
0.5354025186231415
 40
0.5715684610701051
 40
0.6081082509152271
 40
0.645530039744228
 40
0.684379472262271
 40
0.7626128937075278
 40
0.8405203125718234
 40
0.9190846743554559
 40
1.0
 40
1.0
 40
1.0
 40
1.0
 10
10.49858119040885
 20
6.185038807693955
 30
0.0
 10
10.49919526950355
 20
6.184678777516188
 30
0.0
 10
10.50038374771626
 20
6.183981981246963
 30
0.0
 10
10.50210723883768
 20
6.18291055420524
 30
0.0
 10
10.50371214395622
 20
6.181821587196251
 30
0.0
 10
10.50520857786942
 20
6.180776249575583
 30
0.0
 10
10.50659397995486
 20
6.179708537784976
 30
0.0
 10
10.50786901046131
 20
6.17865814086097
 30
0.0
 10
10.50902877935644
 20
6.177617110182931
 30
0.0
 10
10.51008211121481
 20
6.176569894005368
 30
0.0
 10
10.5110594529075
 20
6.175509027603686
 30
0.0
 10
10.51196511702532
 20
6.17437306319682
 30
0.0
 10
10.51283799101613
 20
6.17319845506978
 30
0.0
 10
10.51364328019345
 20
6.171939026198006
 30
0.0
 10
10.51441725450342
 20
6.170638567285336
 30
0.0
 10
10.51512750992264
 20
6.169273072003363
 30
0.0
 10
10.5157950664186
 20
6.167854320404698
 30
0.0
 10
10.51660672693217
 20
6.165889323092572
 30
0.0
 10
10.51745919146309
 20
6.163391340383567
 30
0.0
 10
10.51819343361019
 20
6.160419039825206
 30
0.0
 10
10.51866031466525
 20
6.157481001213655
 30
0.0
 10
10.51871071279871
 20
6.15562909428113
 30
0.0
 10
10.51873628333655
 20
6.154689490906399
 30
0.0
  0
LINE
  5
214
330
1F
100
AcDbEntity
  8
0
  6
Continuous
 62
     7
370
    18
100
AcDbLine
 10
10.4725023784
 20
6.2000937854
 30
0.0
 11
10.4985811904
 21
6.1850388077
 31
0.0
  0
LINE
  5
215
330
1F
100
AcDbEntity
  8
0
  6
Continuous
 62
     7
370
    18
100
AcDbLine
 10
10.4725023784
 20
6.1306878164
 30
0.0
 11
10.4725023784
 21
6.2000937854
 31
0.0
  0
LINE
  5
216
330
1F
100
AcDbEntity
  8
0
  6
Continuous
 62
     7
370
    18
100
AcDbLine
 10
10.4809785943
 20
6.1257946011
 30
0.0
 11
10.4725023784
 21
6.1306878164
 31
0.0
  0
LINE
  5
217
330
1F
100
AcDbEntity
  8
0
  6
Continuous
 62
     7
370
    18
100
AcDbLine
 10
10.4809785943
 20
6.1569383052
 30
0.0
 11
10.4809785943
 21
6.1257946011
 31
0.0
  0
LWPOLYLINE
  5
218
330
1F
100
AcDbEntity
  8
0
  6
Continuous
 62
     7
370
    18
100
AcDbPolyline
 90
       64
 70
   128
 43
0.0
 10
9.8739878116
 20
7.1310686525
 10
9.8744711282
 20
7.1419725572
 10
9.8759162747
 20
7.1522100685
 10
9.8783088885
 20
7.1616794414
 10
9.8816251907
 20
7.170286565
 10
9.8858322226
 20
7.1779458979
 10
9.8908881726
 20
7.1845813181
 10
9.8967427925
 20
7.19012688
 10
9.9033378964
 20
7.1945274691
 10
9.9106079393
 20
7.1977393505
 10
9.9184806681
 20
7.1997306031
 10
9.9268778403
 20
7.2004814368
 10
9.9357160008
 20
7.1999843896
 10
9.9449073121
 20
7.1982444013
 10
9.9543604268
 20
7.1952787647
 10
9.9639813956
 20
7.1911169537
 10
9.973674601
 20
7.1858003302
 10
9.9833437076
 20
7.1793817332
 10
9.9928926194
 20
7.1719249536
 10
10.002226435
 20
7.1635041002
 10
10.0112523909
 20
7.1542028632
 10
10.019880783
 20
7.1441136826
 10
10.0280258585
 20
7.1333368291
 10
10.0356066679
 20
7.1219794079
 10
10.0425478697
 20
7.1101542942
 10
10.0487804793
 20
7.0979790113
 10
10.054242554
 20
7.0855745626
 10
10.0588798094
 20
7.0730642291
 10
10.0626461583
 20
7.0605723441
 10
10.0655041691
 20
7.0482230576
 10
10.0674254375
 20
7.0361391024
 10
10.0683908692
 20
7.0244405741
 10
10.0683908692
 20
7.0132437381
 10
10.0674254375
 20
7.0026598735
 10
10.0655041691
 20
6.9927941676
 10
10.0626461583
 20
6.9837446701
 10
10.0588798094
 20
6.975601319
 10
10.054242554
 20
6.9684450466
 10
10.0487804793
 20
6.9623469752
 10
10.0425478697
 20
6.9573677101
 10
10.0356066679
 20
6.9535567375
 10
10.0280258585
 20
6.9509519325
 10
10.019880783
 20
6.949579183
 10
10.0112523909
 20
6.9494521318
 10
10.002226435
 20
6.9505720417
 10
9.9928926194
 20
6.9529277824
 10
9.9833437076
 20
6.9564959417
 10
9.973674601
 20
6.9612410575
 10
9.9639813956
 20
6.9671159708
 10
9.9543604268
 20
6.9740622939
 10
9.9449073121
 20
6.9820109913
 10
9.9357160008
 20
6.9908830651
 10
9.9268778403
 20
7.0005903409
 10
9.9184806681
 20
7.0110363431
 10
9.9106079393
 20
7.0221172549
 10
9.9033378964
 20
7.0337229492
 10
9.8967427925
 20
7.0457380832
 10
9.8908881726
 20
7.0580432453
 10
9.8858322226
 20
7.0705161412
 10
9.8816251907
 20
7.0830328096
 10
9.8783088885
 20
7.0954688544
 10
9.8759162747
 20
7.1077006804
 10
9.8744711282
 20
7.1196067223
 10
9.8739878116
 20
7.1310686525
  0
LINE
  5
219
330
1F
100
AcDbEntity
  8
0
  6
Continuous
 62
     7
370
    18
100
AcDbLine
 10
9.2994983504
 20
8.1649394573
 30
0.0
 11
10.6430012347
 21
7.3893517511
 31
0.0
  0
LINE
  5
21A
330
1F
100
AcDbEntity
  8
0
  6
Continuous
 62
     7
370
    18
100
AcDbLine
 10
10.6430012347
 20
7.3893517511
 30
0.0
 11
10.6430012347
 21
5.8607873513
 31
0.0
  0
LINE
  5
21B
330
1F
100
AcDbEntity
  8
0
  6
Continuous
 62
     7
370
    18
100
AcDbLine
 10
9.2994983504
 20
6.6363750575
 30
0.0
 11
10.6430012347
 21
5.8607873513
 31
0.0
  0
LINE
  5
21C
330
1F
100
AcDbEntity
  8
0
  6
Continuous
 62
     7
370
    18
100
AcDbLine
 10
9.2994983504
 20
6.6363750575
 30
0.0
 11
9.2994983504
 21
8.1649394573
 31
0.0
  0
LINE
  5
21D
330
1F
100
AcDbEntity
  8
0
  6
Continuous
 62
     7
370
    18
100
AcDbLine
 10
10.4254979084
 20
6.1658313004
 30
0.0
 11
10.4609439022
 21
6.1453687637
 31
0.0
  0
LINE
  5
21E
330
1F
100
AcDbEntity
  8
0
  6
Continuous
 62
     7
370
    18
100
AcDbLine
 10
10.4254979084
 20
6.1898564435
 30
0.0
 11
10.4254979084
 21
6.1658313004
 31
0.0
  0
LINE
  5
21F
330
1F
100
AcDbEntity
  8
0
  6
Continuous
 62
     7
370
    18
100
AcDbLine
 10
10.4570910768
 20
6.1716180956
 30
0.0
 11
10.4254979084
 21
6.1898564435
 31
0.0
  0
LINE
  5
220
330
1F
100
AcDbEntity
  8
0
  6
Continuous
 62
     7
370
    18
100
AcDbLine
 10
10.4570910768
 20
6.1796264767
 30
0.0
 11
10.4570910768
 21
6.1716180956
 31
0.0
  0
LINE
  5
221
330
1F
100
AcDbEntity
  8
0
  6
Continuous
 62
     7
370
    18
100
AcDbLine
 10
10.4254979084
 20
6.1978648245
 30
0.0
 11
10.4570910768
 21
6.1796264767
 31
0.0
  0
LINE
  5
222
330
1F
100
AcDbEntity
  8
0
  6
Continuous
 62
     7
370
    18
100
AcDbLine
 10
10.4254979084
 20
6.2192205073
 30
0.0
 11
10.4254979084
 21
6.1978648245
 31
0.0
  0
LINE
  5
223
330
1F
100
AcDbEntity
  8
0
  6
Continuous
 62
     7
370
    18
100
AcDbLine
 10
10.459402772
 20
6.1996476462
 30
0.0
 11
10.4254979084
 21
6.2192205073
 31
0.0
  0
LINE
  5
224
330
1F
100
AcDbEntity
  8
0
  6
Continuous
 62
     7
370
    18
100
AcDbLine
 10
10.459402772
 20
6.2076560272
 30
0.0
 11
10.459402772
 21
6.1996476462
 31
0.0
  0
LINE
  5
225
330
1F
100
AcDbEntity
  8
0
  6
Continuous
 62
     7
370
    18
100
AcDbLine
 10
10.4170216925
 20
6.2321221036
 30
0.0
 11
10.459402772
 21
6.2076560272
 31
0.0
  0
LINE
  5
226
330
1F
100
AcDbEntity
  8
0
  6
Continuous
 62
     7
370
    18
100
AcDbLine
 10
10.4170216925
 20
6.1627161346
 30
0.0
 11
10.4170216925
 21
6.2321221036
 31
0.0
  0
LINE
  5
227
330
1F
100
AcDbEntity
  8
0
  6
Continuous
 62
     7
370
    18
100
AcDbLine
 10
10.4609439022
 20
6.1373603827
 30
0.0
 11
10.4170216925
 21
6.1627161346
 31
0.0
  0
LINE
  5
228
330
1F
100
AcDbEntity
  8
0
  6
Continuous
 62
     7
370
    18
100
AcDbLine
 10
10.4609439022
 20
6.1453687637
 30
0.0
 11
10.4609439022
 21
6.1373603827
 31
0.0
  0
LINE
  5
229
330
1F
100
AcDbEntity
  8
0
  6
Continuous
 62
     7
370
    18
100
AcDbLine
 10
10.3191599271
 20
6.2272189103
 30
0.0
 11
10.3546059209
 21
6.2067563737
 31
0.0
  0
LINE
  5
22A
330
1F
100
AcDbEntity
  8
0
  6
Continuous
 62
     7
370
    18
100
AcDbLine
 10
10.3191599271
 20
6.2512440534
 30
0.0
 11
10.3191599271
 21
6.2272189103
 31
0.0
  0
LINE
  5
22B
330
1F
100
AcDbEntity
  8
0
  6
Continuous
 62
     7
370
    18
100
AcDbLine
 10
10.3507530954
 20
6.2330057056
 30
0.0
 11
10.3191599271
 21
6.2512440534
 31
0.0
  0
LINE
  5
22C
330
1F
100
AcDbEntity
  8
0
  6
Continuous
 62
     7
370
    18
100
AcDbLine
 10
10.3507530954
 20
6.2410140866
 30
0.0
 11
10.3507530954
 21
6.2330057056
 31
0.0
  0
LINE
  5
22D
330
1F
100
AcDbEntity
  8
0
  6
Continuous
 62
     7
370
    18
100
AcDbLine
 10
10.3191599271
 20
6.2592524345
 30
0.0
 11
10.3507530954
 21
6.2410140866
 31
0.0
  0
LINE
  5
22E
330
1F
100
AcDbEntity
  8
0
  6
Continuous
 62
     7
370
    18
100
AcDbLine
 10
10.3191599271
 20
6.2806081173
 30
0.0
 11
10.3191599271
 21
6.2592524345
 31
0.0
  0
LINE
  5
22F
330
1F
100
AcDbEntity
  8
0
  6
Continuous
 62
     7
370
    18
100
AcDbLine
 10
10.3530647907
 20
6.2610352561
 30
0.0
 11
10.3191599271
 21
6.2806081173
 31
0.0
  0
LINE
  5
230
330
1F
100
AcDbEntity
  8
0
  6
Continuous
 62
     7
370
    18
100
AcDbLine
 10
10.3530647907
 20
6.2690436372
 30
0.0
 11
10.3530647907
 21
6.2610352561
 31
0.0
  0
LINE
  5
231
330
1F
100
AcDbEntity
  8
0
  6
Continuous
 62
     7
370
    18
100
AcDbLine
 10
10.3106837112
 20
6.2935097136
 30
0.0
 11
10.3530647907
 21
6.2690436372
 31
0.0
  0
LINE
  5
232
330
1F
100
AcDbEntity
  8
0
  6
Continuous
 62
     7
370
    18
100
AcDbLine
 10
10.3106837112
 20
6.2241037446
 30
0.0
 11
10.3106837112
 21
6.2935097136
 31
0.0
  0
LINE
  5
233
330
1F
100
AcDbEntity
  8
0
  6
Continuous
 62
     7
370
    18
100
AcDbLine
 10
10.3546059209
 20
6.1987479926
 30
0.0
 11
10.3106837112
 21
6.2241037446
 31
0.0
  0
LINE
  5
234
330
1F
100
AcDbEntity
  8
0
  6
Continuous
 62
     7
370
    18
100
AcDbLine
 10
10.3546059209
 20
6.2067563737
 30
0.0
 11
10.3546059209
 21
6.1987479926
 31
0.0
  0
LINE
  5
235
330
1F
100
AcDbEntity
  8
0
  6
Continuous
 62
     7
370
    18
100
AcDbLine
 10
10.219082787
 20
6.2983395153
 30
0.0
 11
10.1934614981
 21
6.3131303706
 31
0.0
  0
LINE
  5
236
330
1F
100
AcDbEntity
  8
0
  6
Continuous
 62
     7
370
    18
100
AcDbLine
 10
10.2259215522
 20
6.2730358974
 30
0.0
 11
10.219082787
 21
6.2983395153
 31
0.0
  0
LINE
  5
237
330
1F
100
AcDbEntity
  8
0
  6
Continuous
 62
     7
370
    18
100
AcDbLine
 10
10.2349154915
 20
6.2678438068
 30
0.0
 11
10.2259215522
 21
6.2730358974
 31
0.0
  0
LINE
  5
238
330
1F
100
AcDbEntity
  8
0
  6
Continuous
 62
     7
370
    18
100
AcDbLine
 10
10.2110520541
 20
6.351025845
 30
0.0
 11
10.2349154915
 21
6.2678438068
 31
0.0
  0
LINE
  5
239
330
1F
100
AcDbEntity
  8
0
  6
Continuous
 62
     7
370
    18
100
AcDbLine
 10
10.201492231
 20
6.3565446133
 30
0.0
 11
10.2110520541
 21
6.351025845
 31
0.0
  0
LINE
  5
23A
330
1F
100
AcDbEntity
  8
0
  6
Continuous
 62
     7
370
    18
100
AcDbLine
 10
10.1776287937
 20
6.3009147135
 30
0.0
 11
10.201492231
 21
6.3565446133
 31
0.0
  0
LINE
  5
23B
330
1F
100
AcDbEntity
  8
0
  6
Continuous
 62
     7
370
    18
100
AcDbLine
 10
10.186622733
 20
6.2957226228
 30
0.0
 11
10.1776287937
 21
6.3009147135
 31
0.0
  0
LINE
  5
23C
330
1F
100
AcDbEntity
  8
0
  6
Continuous
 62
     7
370
    18
100
AcDbLine
 10
10.1934614981
 20
6.3131303706
 30
0.0
 11
10.186622733
 21
6.2957226228
 31
0.0
  0
SPLINE
  5
23D
330
1F
100
AcDbEntity
  8
0
  6
Continuous
 62
     7
370
    18
100
AcDbSpline
210
0.0
220
0.0
230
1.0
 70
     8
 71
     3
 72
    23
 73
    19
 74
     0
 42
0.000000001
 43
0.00000001
 40
0.0
 40
0.0
 40
0.0
 40
0.0
 40
0.0568085774416421
 40
0.113874306199522
 40
0.1705217881146936
 40
0.22753238754802
 40
0.2853338163942519
 40
0.3436784066798139
 40
0.4031638464236855
 40
0.4640016976891368
 40
0.5258265021920399
 40
0.589096667284243
 40
0.6532934596517427
 40
0.7191151703198083
 40
0.7867627456159805
 40
0.8557978498721194
 40
0.9268406513628026
 40
1.0
 40
1.0
 40
1.0
 40
1.0
 10
10.14254400225787
 20
6.384610125997188
 30
0.0
 10
10.14293059448159
 20
6.38399492177633
 30
0.0
 10
10.14370552888836
 20
6.382761728533757
 30
0.0
 10
10.14476987348639
 20
6.380852564400083
 30
0.0
 10
10.14575734078318
 20
6.37890906635262
 30
0.0
 10
10.14669697477648
 20
6.37693785907009
 30
0.0
 10
10.14753035693626
 20
6.374921547253038
 30
0.0
 10
10.14830734233383
 20
6.372870159341834
 30
0.0
 10
10.14900391082231
 20
6.370781013184789
 30
0.0
 10
10.1496323306506
 20
6.368656355320503
 30
0.0
 10
10.15016660947922
 20
6.366503746944056
 30
0.0
 10
10.15065401777143
 20
6.364324548694467
 30
0.0
 10
10.15104895796211
 20
6.362126751445022
 30
0.0
 10
10.15136940642305
 20
6.359908419263827
 30
0.0
 10
10.15164089102047
 20
6.357657236084009
 30
0.0
 10
10.15181508742355
 20
6.355393645140219
 30
0.0
 10
10.15192759310304
 20
6.353102588640758
 30
0.0
 10
10.15194066990542
 20
6.351587408706857
 30
0.0
 10
10.15194730427491
 20
6.350818699107632
 30
0.0
  0
SPLINE
  5
23E
330
1F
100
AcDbEntity
  8
0
  6
Continuous
 62
     7
370
    18
100
AcDbSpline
210
0.0
220
0.0
230
1.0
 70
     8
 71
     3
 72
    11
 73
     7
 74
     0
 42
0.000000001
 43
0.00000001
 40
0.0
 40
0.0
 40
0.0
 40
0.0
 40
0.2612129589999406
 40
0.5120481565985866
 40
0.7577925134560944
 40
0.9999999999999999
 40
0.9999999999999999
 40
0.9999999999999999
 40
0.9999999999999999
 10
10.13380290460822
 20
6.394619782092332
 30
0.0
 10
10.13463218790513
 20
6.393890763231362
 30
0.0
 10
10.13625780780203
 20
6.392461688788369
 30
0.0
 10
10.13855194881817
 20
6.39001626268926
 30
0.0
 10
10.14066805873456
 20
6.387414914981767
 30
0.0
 10
10.14192171675518
 20
6.385540526886938
 30
0.0
 10
10.14254400225787
 20
6.384610125997188
 30
0.0
  0
SPLINE
  5
23F
330
1F
100
AcDbEntity
  8
0
  6
Continuous
 62
     7
370
    18
100
AcDbSpline
210
0.0
220
0.0
230
1.0
 70
     8
 71
     3
 72
    15
 73
    11
 74
     0
 42
0.000000001
 43
0.00000001
 40
0.0
 40
0.0
 40
0.0
 40
0.0
 40
0.1579006741700012
 40
0.3068429927578553
 40
0.4456810446995565
 40
0.5745702240195021
 40
0.6946513602279519
 40
0.8061472401516254
 40
0.907758688772401
 40
0.9999999999999999
 40
0.9999999999999999
 40
0.9999999999999999
 40
0.9999999999999999
 10
10.12318355457105
 20
6.401751250009082
 30
0.0
 10
10.12374549297558
 20
6.401426196561836
 30
0.0
 10
10.12483748870452
 20
6.400794531288186
 30
0.0
 10
10.12642246313992
 20
6.399812191536415
 30
0.0
 10
10.12790458433011
 20
6.398900564113764
 30
0.0
 10
10.12928088157385
 20
6.397987098676813
 30
0.0
 10
10.13055914153492
 20
6.397120674173557
 30
0.0
 10
10.13173327301141
 20
6.396251870359027
 30
0.0
 10
10.13280943600954
 20
6.395452216553922
 30
0.0
 10
10.13348259441843
 20
6.394888172296852
 30
0.0
 10
10.13380290460822
 20
6.394619782092332
 30
0.0
  0
LINE
  5
240
330
1F
100
AcDbEntity
  8
0
  6
Continuous
 62
     7
370
    18
100
AcDbLine
 10
10.102631139
 20
6.413615907
 30
0.0
 11
10.1231835546
 21
6.40175125
 31
0.0
  0
LINE
  5
241
330
1F
100
AcDbEntity
  8
0
  6
Continuous
 62
     7
370
    18
100
AcDbLine
 10
10.102631139
 20
6.3442099379
 30
0.0
 11
10.102631139
 21
6.413615907
 31
0.0
  0
LINE
  5
242
330
1F
100
AcDbEntity
  8
0
  6
Continuous
 62
     7
370
    18
100
AcDbLine
 10
10.124158801
 20
6.3317822832
 30
0.0
 11
10.102631139
 21
6.3442099379
 31
0.0
  0
SPLINE
  5
243
330
1F
100
AcDbEntity
  8
0
  6
Continuous
 62
     7
370
    18
100
AcDbSpline
210
0.0
220
0.0
230
1.0
 70
     8
 71
     3
 72
    27
 73
    23
 74
     0
 42
0.000000001
 43
0.00000001
 40
0.0
 40
0.0
 40
0.0
 40
0.0
 40
0.0705448498222793
 40
0.1372786169672313
 40
0.2002401813168829
 40
0.2603471513035001
 40
0.3169835805266443
 40
0.3701254960162119
 40
0.4196042158245997
 40
0.4660254160925953
 40
0.5099228771101211
 40
0.5518746116228234
 40
0.5918332769026643
 40
0.6301567736499487
 40
0.668671411217613
 40
0.7086659988092266
 40
0.7506200671937265
 40
0.7950143457720111
 40
0.8419640617654017
 40
0.8917538081988114
 40
0.9442885369986656
 40
0.9999999999999999
 40
0.9999999999999999
 40
0.9999999999999999
 40
0.9999999999999999
 10
10.15194730427491
 20
6.350818699107632
 30
0.0
 10
10.15193108612805
 20
6.349548057335496
 30
0.0
 10
10.15189952599608
 20
6.347075418360729
 30
0.0
 10
10.15159020133482
 20
6.343635433542714
 30
0.0
 10
10.15110689369472
 20
6.340514033234316
 30
0.0
 10
10.15040780280944
 20
6.337754933798946
 30
0.0
 10
10.14954770759606
 20
6.335331954217149
 30
0.0
 10
10.14859509349064
 20
6.333208096393387
 30
0.0
 10
10.14752366833174
 20
6.331418290380886
 30
0.0
 10
10.14633637511464
 20
6.329966255623916
 30
0.0
 10
10.14506624091329
 20
6.328796803117938
 30
0.0
 10
10.14372757948821
 20
6.327887701589334
 30
0.0
 10
10.14234435560541
 20
6.327196583721818
 30
0.0
 10
10.14087273021708
 20
6.326773884793423
 30
0.0
 10
10.13929828540735
 20
6.326588180461351
 30
0.0
 10
10.13759197788131
 20
6.32661982501455
 30
0.0
 10
10.13572365745219
 20
6.326917216460144
 30
0.0
 10
10.13371099464093
 20
6.327404596903235
 30
0.0
 10
10.13153505122737
 20
6.328157108150825
 30
0.0
 10
10.12921166969282
 20
6.329124138451218
 30
0.0
 10
10.12673469835161
 20
6.330329272386702
 30
0.0
 10
10.12503406974241
 20
6.331288562084113
 30
0.0
 10
10.12415880100304
 20
6.331782283217353
 30
0.0
  0
LINE
  5
244
330
1F
100
AcDbEntity
  8
0
  6
Continuous
 62
     7
370
    18
100
AcDbLine
 10
9.9879132624
 20
6.4317908412
 30
0.0
 11
9.9622919735
 21
6.4465816965
 31
0.0
  0
LINE
  5
245
330
1F
100
AcDbEntity
  8
0
  6
Continuous
 62
     7
370
    18
100
AcDbLine
 10
9.9947520275
 20
6.4064872234
 30
0.0
 11
9.9879132624
 21
6.4317908412
 31
0.0
  0
LINE
  5
246
330
1F
100
AcDbEntity
  8
0
  6
Continuous
 62
     7
370
    18
100
AcDbLine
 10
10.0037459669
 20
6.4012951328
 30
0.0
 11
9.9947520275
 21
6.4064872234
 31
0.0
  0
LINE
  5
247
330
1F
100
AcDbEntity
  8
0
  6
Continuous
 62
     7
370
    18
100
AcDbLine
 10
9.9798825295
 20
6.4844771709
 30
0.0
 11
10.0037459669
 21
6.4012951328
 31
0.0
  0
LINE
  5
248
330
1F
100
AcDbEntity
  8
0
  6
Continuous
 62
     7
370
    18
100
AcDbLine
 10
9.9703227064
 20
6.4899959393
 30
0.0
 11
9.9798825295
 21
6.4844771709
 31
0.0
  0
LINE
  5
249
330
1F
100
AcDbEntity
  8
0
  6
Continuous
 62
     7
370
    18
100
AcDbLine
 10
9.946459269
 20
6.4343660395
 30
0.0
 11
9.9703227064
 21
6.4899959393
 31
0.0
  0
LINE
  5
24A
330
1F
100
AcDbEntity
  8
0
  6
Continuous
 62
     7
370
    18
100
AcDbLine
 10
9.9554532083
 20
6.4291739488
 30
0.0
 11
9.946459269
 21
6.4343660395
 31
0.0
  0
LINE
  5
24B
330
1F
100
AcDbEntity
  8
0
  6
Continuous
 62
     7
370
    18
100
AcDbLine
 10
9.9622919735
 20
6.4465816965
 30
0.0
 11
9.9554532083
 21
6.4291739488
 31
0.0
  0
SPLINE
  5
24C
330
1F
100
AcDbEntity
  8
0
  6
Continuous
 62
     7
370
    18
100
AcDbSpline
210
0.0
220
0.0
230
1.0
 70
     8
 71
     3
 72
    23
 73
    19
 74
     0
 42
0.000000001
 43
0.00000001
 40
0.0
 40
0.0
 40
0.0
 40
0.0
 40
0.0704566919359964
 40
0.137942215327459
 40
0.2035567971151967
 40
0.267663058809511
 40
0.3301505615828461
 40
0.3914919015323506
 40
0.4521864543380016
 40
0.5126700013837516
 40
0.5729633191795123
 40
0.6329948591069363
 40
0.6923528599375409
 40
0.7514888206306592
 40
0.8116098011100288
 40
0.8729753007059771
 40
0.9354272115819273
 40
1.0
 40
1.0
 40
1.0
 40
1.0
 10
9.877084331487419
 20
6.510897963174954
 30
0.0
 10
9.877527749533861
 20
6.510481693796138
 30
0.0
 10
9.878395886625768
 20
6.50966670917638
 30
0.0
 10
9.87964390421376
 20
6.50837197412137
 30
0.0
 10
9.880815486575086
 20
6.50704183592803
 30
0.0
 10
9.881912833389068
 20
6.505673546013498
 30
0.0
 10
9.882929791521379
 20
6.504265311166137
 30
0.0
 10
9.883856758154097
 20
6.502818228545773
 30
0.0
 10
9.88471948646785
 20
6.501349213960319
 30
0.0
 10
9.885489020335807
 20
6.499844150920261
 30
0.0
 10
9.886174797109376
 20
6.498320658063825
 30
0.0
 10
9.886777570080014
 20
6.496793268238756
 30
0.0
 10
9.88728612322694
 20
6.495271799835848
 30
0.0
 10
9.887695713602605
 20
6.493758853880474
 30
0.0
 10
9.88802457589994
 20
6.492245674349613
 30
0.0
 10
9.888250503921526
 20
6.49073764854492
 30
0.0
 10
9.888384498009108
 20
6.489232583593171
 30
0.0
 10
9.88840408778207
 20
6.488254141113648
 30
0.0
 10
9.888414046209617
 20
6.487756751554289
 30
0.0
  0
SPLINE
  5
24D
330
1F
100
AcDbEntity
  8
0
  6
Continuous
 62
     7
370
    18
100
AcDbSpline
210
0.0
220
0.0
230
1.0
 70
     8
 71
     3
 72
    15
 73
    11
 74
     0
 42
0.000000001
 43
0.00000001
 40
0.0
 40
0.0
 40
0.0
 40
0.0
 40
0.1158295875216601
 40
0.2305424686501985
 40
0.3473153149035192
 40
0.4672171589244876
 40
0.5918251525040955
 40
0.7200018400675172
 40
0.8556167143161895
 40
1.0
 40
1.0
 40
1.0
 40
1.0
 10
9.886102350963428
 20
6.520624265157617
 30
0.0
 10
9.886074295264125
 20
6.519896179997439
 30
0.0
 10
9.886018454348903
 20
6.518447029104251
 30
0.0
 10
9.88557437034185
 20
6.516521162086863
 30
0.0
 10
9.884874504276308
 20
6.514812397114843
 30
0.0
 10
9.883887837816504
 20
6.513353127797999
 30
0.0
 10
9.882630468062429
 20
6.512164323154541
 30
0.0
 10
9.8810430009046
 20
6.511376921729801
 30
0.0
 10
9.87919195941355
 20
6.510913290608974
 30
0.0
 10
9.877801389803981
 20
6.510903177882872
 30
0.0
 10
9.877084331487419
 20
6.510897963174954
 30
0.0
  0
SPLINE
  5
24E
330
1F
100
AcDbEntity
  8
0
  6
Continuous
 62
     7
370
    18
100
AcDbSpline
210
0.0
220
0.0
230
1.0
 70
     8
 71
     3
 72
    23
 73
    19
 74
     0
 42
0.000000001
 43
0.00000001
 40
0.0
 40
0.0
 40
0.0
 40
0.0
 40
0.0587091926504243
 40
0.1145583248299047
 40
0.1675915981453285
 40
0.2178819266220622
 40
0.2656718295366479
 40
0.3109453394726636
 40
0.3539520014062915
 40
0.3948891755968533
 40
0.4729198560061297
 40
0.5489382800594238
 40
0.6250938359126121
 40
0.702564787611315
 40
0.7798271041064191
 40
0.8541202275563307
 40
0.9271836001441786
 40
1.0
 40
1.0
 40
1.0
 40
1.0
 10
9.866224179862105
 20
6.550090739533745
 30
0.0
 10
9.86678221259773
 20
6.549766111872819
 30
0.0
 10
9.867871093103622
 20
6.549132671020536
 30
0.0
 10
9.869461120141569
 20
6.54809427276932
 30
0.0
 10
9.870966859944073
 20
6.547059528147181
 30
0.0
 10
9.87239216259059
 20
6.546025731481114
 30
0.0
 10
9.8737277866051
 20
6.54494039474132
 30
0.0
 10
9.874984446923305
 20
6.543860697840409
 30
0.0
 10
9.87615564486799
 20
6.542753860101465
 30
0.0
 10
9.877586131545403
 20
6.541268782408012
 30
0.0
 10
9.879230016510363
 20
6.539313482936554
 30
0.0
 10
9.88098702946392
 20
6.536777424121036
 30
0.0
 10
9.882517316331391
 20
6.534083265741743
 30
0.0
 10
9.883797162220068
 20
6.531275162956447
 30
0.0
 10
9.88480816136304
 20
6.52845724858754
 30
0.0
 10
9.885552627006254
 20
6.525712123254452
 30
0.0
 10
9.88602186548912
 20
6.523073193326371
 30
0.0
 10
9.886075552769304
 20
6.521439652692201
 30
0.0
 10
9.886102350963428
 20
6.520624265157617
 30
0.0
  0
LINE
  5
24F
330
1F
100
AcDbEntity
  8
0
  6
Continuous
 62
     7
370
    18
100
AcDbLine
 10
9.8437212715
 20
6.563081392
 30
0.0
 11
9.8662241799
 21
6.5500907395
 31
0.0
  0
LINE
  5
250
330
1F
100
AcDbEntity
  8
0
  6
Continuous
 62
     7
370
    18
100
AcDbLine
 10
9.8437212715
 20
6.493675423
 30
0.0
 11
9.8437212715
 21
6.563081392
 31
0.0
  0
LINE
  5
251
330
1F
100
AcDbEntity
  8
0
  6
Continuous
 62
     7
370
    18
100
AcDbLine
 10
9.8662843803
 20
6.4806500176
 30
0.0
 11
9.8437212715
 21
6.493675423
 31
0.0
  0
SPLINE
  5
252
330
1F
100
AcDbEntity
  8
0
  6
Continuous
 62
     7
370
    18
100
AcDbSpline
210
0.0
220
0.0
230
1.0
 70
     8
 71
     3
 72
    23
 73
    19
 74
     0
 42
0.000000001
 43
0.00000001
 40
0.0
 40
0.0
 40
0.0
 40
0.0
 40
0.0642665479584312
 40
0.1274461798182316
 40
0.1891017562790038
 40
0.251362275940341
 40
0.3116800339902287
 40
0.3686477590533376
 40
0.4221317262002525
 40
0.4735202330394787
 40
0.5252432158190506
 40
0.5796098773427357
 40
0.6368832354805298
 40
0.6979197025564187
 40
0.7638889414843453
 40
0.8362842685641498
 40
0.9146618961957456
 40
1.0
 40
1.0
 40
1.0
 40
1.0
 10
9.888414046209617
 20
6.487756751554289
 30
0.0
 10
9.888394874071453
 20
6.486978205369258
 30
0.0
 10
9.888356854046336
 20
6.485434280259753
 30
0.0
 10
9.888003756392445
 20
6.483345389099038
 30
0.0
 10
9.88746513285602
 20
6.481440838155329
 30
0.0
 10
9.886693837580069
 20
6.479800906726306
 30
0.0
 10
9.885774624746034
 20
6.478396361797484
 30
0.0
 10
9.884744191698951
 20
6.477260205840214
 30
0.0
 10
9.88360510103385
 20
6.476421038536864
 30
0.0
 10
9.882339544001168
 20
6.475893700589824
 30
0.0
 10
9.880940917631843
 20
6.475630432810986
 30
0.0
 10
9.87939155428636
 20
6.475610691732355
 30
0.0
 10
9.877681757744693
 20
6.47581788936168
 30
0.0
 10
9.875799893075841
 20
6.476265504425135
 30
0.0
 10
9.873722384068447
 20
6.476965424210477
 30
0.0
 10
9.871436733279495
 20
6.47793565852509
 30
0.0
 10
9.86893266731649
 20
6.479152252100172
 30
0.0
 10
9.86719181376879
 20
6.480136809394093
 30
0.0
 10
9.86628438025914
 20
6.480650017573985
 30
0.0
  0
SPLINE
  5
253
330
1F
100
AcDbEntity
  8
0
  6
Continuous
 62
     7
370
    18
100
AcDbSpline
210
0.0
220
0.0
230
1.0
 70
     8
 71
     3
 72
    23
 73
    19
 74
     0
 42
0.000000001
 43
0.00000001
 40
0.0
 40
0.0
 40
0.0
 40
0.0
 40
0.0698823039034414
 40
0.1383882841653964
 40
0.206758214230358
 40
0.2765984302164999
 40
0.3471345171864646
 40
0.4179202738343029
 40
0.490213056594082
 40
0.5664711022702212
 40
0.6078661527170744
 40
0.6522325532418384
 40
0.700546975039192
 40
0.7525228927159189
 40
0.808321340815731
 40
0.8684702740719038
 40
0.931979790540806
 40
1.0
 40
1.0
 40
1.0
 40
1.0
 10
9.698493833640082
 20
6.621114624001593
 30
0.0
 10
9.698002319626015
 20
6.62138014907441
 30
0.0
 10
9.697028971907773
 20
6.621905969735399
 30
0.0
 10
9.695607864851366
 20
6.622341017224968
 30
0.0
 10
9.69424326691515
 20
6.622545636003212
 30
0.0
 10
9.692956570720535
 20
6.622464888421368
 30
0.0
 10
9.691768123029567
 20
6.622115036369574
 30
0.0
 10
9.690748029386263
 20
6.621421211717492
 30
0.0
 10
9.689907024956785
 20
6.620407917940059
 30
0.0
 10
9.689368696194423
 20
6.619301786070601
 30
0.0
 10
9.68903198610042
 20
6.618241062124369
 30
0.0
 10
9.688781600100546
 20
6.617336877667975
 30
0.0
 10
9.688597252393224
 20
6.616288674842151
 30
0.0
 10
9.688445345881332
 20
6.615123107825547
 30
0.0
 10
9.688304306781214
 20
6.613852115027596
 30
0.0
 10
9.688233816207655
 20
6.612439598037461
 30
0.0
 10
9.688162126576605
 20
6.610928739056091
 30
0.0
 10
9.688162995926799
 20
6.609861535742309
 30
0.0
 10
9.688163445508685
 20
6.609309634699203
 30
0.0
  0
SPLINE
  5
254
330
1F
100
AcDbEntity
  8
0
  6
Continuous
 62
     7
370
    18
100
AcDbSpline
210
0.0
220
0.0
230
1.0
 70
     8
 71
     3
 72
    23
 73
    19
 74
     0
 42
0.000000001
 43
0.00000001
 40
0.0
 40
0.0
 40
0.0
 40
0.0
 40
0.0840520374929027
 40
0.1623146334137115
 40
0.2366600199015785
 40
0.3057775454542916
 40
0.3698548822538668
 40
0.4308818052540332
 40
0.4880260023390452
 40
0.5427446849665438
 40
0.5951151179188187
 40
0.6466861713516503
 40
0.6997262587744747
 40
0.7534139566544636
 40
0.8093158108836097
 40
0.8690272915375968
 40
0.9322090442192221
 40
1.0
 40
1.0
 40
1.0
 40
1.0
 10
9.705886442396118
 20
6.605599079408778
 30
0.0
 10
9.705883518466134
 20
6.606055192645036
 30
0.0
 10
9.70587787200428
 20
6.606936002378466
 30
0.0
 10
9.705786402551238
 20
6.608264286026778
 30
0.0
 10
9.705663101539608
 20
6.609525944738865
 30
0.0
 10
9.705469291399735
 20
6.610738371675907
 30
0.0
 10
9.705225183699449
 20
6.611890875831651
 30
0.0
 10
9.704945304603296
 20
6.61298455134727
 30
0.0
 10
9.704591444547303
 20
6.614031229642723
 30
0.0
 10
9.704185503041655
 20
6.615022023848895
 30
0.0
 10
9.703708286100012
 20
6.61595769443766
 30
0.0
 10
9.703172259588472
 20
6.616850907927273
 30
0.0
 10
9.702557694194175
 20
6.617690931943111
 30
0.0
 10
9.701871601672831
 20
6.61847007911748
 30
0.0
 10
9.701132603468025
 20
6.619235882651751
 30
0.0
 10
9.700308629946118
 20
6.619896113674643
 30
0.0
 10
9.699425285311662
 20
6.620561407457004
 30
0.0
 10
9.698811517454779
 20
6.620925942239993
 30
0.0
 10
9.698493833640082
 20
6.621114624001593
 30
0.0
  0
LINE
  5
255
330
1F
100
AcDbEntity
  8
0
  6
Continuous
 62
     7
370
    18
100
AcDbLine
 10
9.7058864424
 20
6.5732457761
 30
0.0
 11
9.7058864424
 21
6.6055990794
 31
0.0
  0
LINE
  5
256
330
1F
100
AcDbEntity
  8
0
  6
Continuous
 62
     7
370
    18
100
AcDbLine
 10
9.7135920932
 20
6.5687973986
 30
0.0
 11
9.7058864424
 21
6.5732457761
 31
0.0
  0
LINE
  5
257
330
1F
100
AcDbEntity
  8
0
  6
Continuous
 62
     7
370
    18
100
AcDbLine
 10
9.7135920932
 20
6.5977304558
 30
0.0
 11
9.7135920932
 21
6.5687973986
 31
0.0
  0
SPLINE
  5
258
330
1F
100
AcDbEntity
  8
0
  6
Continuous
 62
     7
370
    18
100
AcDbSpline
210
0.0
220
0.0
230
1.0
 70
     8
 71
     3
 72
    23
 73
    19
 74
     0
 42
0.000000001
 43
0.00000001
 40
0.0
 40
0.0
 40
0.0
 40
0.0
 40
0.0585757660198503
 40
0.1150346943684866
 40
0.1697636152311729
 40
0.2236478972929972
 40
0.2768730316667481
 40
0.3302884546297408
 40
0.3850366836323345
 40
0.4406848389014089
 40
0.4978802676984123
 40
0.557223262316252
 40
0.6200374272436314
 40
0.6862557553842882
 40
0.7567477502249743
 40
0.8318929806595926
 40
0.9128343922551199
 40
1.0
 40
1.0
 40
1.0
 40
1.0
 10
9.723850240871693
 20
6.606476681684147
 30
0.0
 10
9.72348843653204
 20
6.606675764234742
 30
0.0
 10
9.722777902902498
 20
6.607066734800181
 30
0.0
 10
9.721739604079767
 20
6.607488284424408
 30
0.0
 10
9.720742457999796
 20
6.607811528619491
 30
0.0
 10
9.719803253274932
 20
6.607953152375803
 30
0.0
 10
9.718903329671472
 20
6.60798960640601
 30
0.0
 10
9.718055741816212
 20
6.60787026492844
 30
0.0
 10
9.717246731246483
 20
6.607633186847945
 30
0.0
 10
9.716500171233942
 20
6.607234500800547
 30
0.0
 10
9.715800711005713
 20
6.606709723467897
 30
0.0
 10
9.715213428299093
 20
6.605960003893665
 30
0.0
 10
9.714706310051268
 20
6.605041755868597
 30
0.0
 10
9.714302460774993
 20
6.603928683549717
 30
0.0
 10
9.713975551709783
 20
6.60265359292137
 30
0.0
 10
9.713750263111327
 20
6.601187728200918
 30
0.0
 10
9.713620470196057
 20
6.599533691522265
 30
0.0
 10
9.713601782844163
 20
6.598346190203944
 30
0.0
 10
9.71359209321674
 20
6.597730455807393
 30
0.0
  0
SPLINE
  5
259
330
1F
100
AcDbEntity
  8
0
  6
Continuous
 62
     7
370
    18
100
AcDbSpline
210
0.0
220
0.0
230
1.0
 70
     8
 71
     3
 72
    19
 73
    15
 74
     0
 42
0.000000001
 43
0.00000001
 40
0.0
 40
0.0
 40
0.0
 40
0.0
 40
0.1364148811765273
 40
0.2528973605082372
 40
0.3492204458013847
 40
0.4269322474132378
 40
0.4944524086148355
 40
0.5607020268402109
 40
0.6286260433619806
 40
0.698836431094077
 40
0.7714182240963994
 40
0.844156854000546
 40
0.9199641120853087
 40
1.0
 40
1.0
 40
1.0
 40
1.0
 10
9.731315090104172
 20
6.589932289361315
 30
0.0
 10
9.731304525695638
 20
6.590721711849416
 30
0.0
 10
9.73128494050808
 20
6.592185209540025
 30
0.0
 10
9.731179744240038
 20
6.594249860618635
 30
0.0
 10
9.730968555238173
 20
6.596023620588557
 30
0.0
 10
9.730678695157915
 20
6.597543017629304
 30
0.0
 10
9.730233391287618
 20
6.598907587330244
 30
0.0
 10
9.729670726788864
 20
6.600197294813413
 30
0.0
 10
9.728964107144353
 20
6.601456595142465
 30
0.0
 10
9.728129748981873
 20
6.60267733941635
 30
0.0
 10
9.727184739386399
 20
6.603820365902738
 30
0.0
 10
9.726141234572891
 20
6.604835062881802
 30
0.0
 10
9.725025207014655
 20
6.605759150830615
 30
0.0
 10
9.724248917502512
 20
6.606233216981009
 30
0.0
 10
9.723850240871693
 20
6.606476681684147
 30
0.0
  0
LINE
  5
25A
330
1F
100
AcDbEntity
  8
0
  6
Continuous
 62
     7
370
    18
100
AcDbLine
 10
9.7313150901
 20
6.5585661303
 30
0.0
 11
9.7313150901
 21
6.5899322894
 31
0.0
  0
LINE
  5
25B
330
1F
100
AcDbEntity
  8
0
  6
Continuous
 62
     7
370
    18
100
AcDbLine
 10
9.7390207409
 20
6.5541177528
 30
0.0
 11
9.7313150901
 21
6.5585661303
 31
0.0
  0
LINE
  5
25C
330
1F
100
AcDbEntity
  8
0
  6
Continuous
 62
     7
370
    18
100
AcDbLine
 10
9.7390207409
 20
6.5887651235
 30
0.0
 11
9.7390207409
 21
6.5541177528
 31
0.0
  0
SPLINE
  5
25D
330
1F
100
AcDbEntity
  8
0
  6
Continuous
 62
     7
370
    18
100
AcDbSpline
210
0.0
220
0.0
230
1.0
 70
     8
 71
     3
 72
    23
 73
    19
 74
     0
 42
0.000000001
 43
0.00000001
 40
0.0
 40
0.0
 40
0.0
 40
0.0
 40
0.0684858423217283
 40
0.1336315466164041
 40
0.1953270837667404
 40
0.2542221042059934
 40
0.3112724040630442
 40
0.3666124446917562
 40
0.4212564852255808
 40
0.4760702201722823
 40
0.5314280570704054
 40
0.5882286934627509
 40
0.6473050178610781
 40
0.7093984115158153
 40
0.7752829671512458
 40
0.8452284978288171
 40
0.9203967621689222
 40
1.0
 40
1.0
 40
1.0
 40
1.0
 10
9.725704413100406
 20
6.61341467188007
 30
0.0
 10
9.726222639597392
 20
6.61310190353426
 30
0.0
 10
9.72723381805329
 20
6.612491620936186
 30
0.0
 10
9.728703442296524
 20
6.61144465910763
 30
0.0
 10
9.730084652001745
 20
6.610336650907118
 30
0.0
 10
9.731369441412896
 20
6.609129583470478
 30
0.0
 10
9.732565363895649
 20
6.607857703447181
 30
0.0
 10
9.733673657628744
 20
6.606508544633257
 30
0.0
 10
9.734676145570889
 20
6.605068737489033
 30
0.0
 10
9.735600917890466
 20
6.603564281624694
 30
0.0
 10
9.736411746621153
 20
6.601971637939666
 30
0.0
 10
9.737113065027183
 20
6.600305090691904
 30
0.0
 10
9.737704819762268
 20
6.598562842182266
 30
0.0
 10
9.738180422847485
 20
6.59674693214972
 30
0.0
 10
9.738572449351244
 20
6.59484909061882
 30
0.0
 10
9.738823541215616
 20
6.592881765329451
 30
0.0
 10
9.739002265232273
 20
6.590824344184814
 30
0.0
 10
9.73901446582473
 20
6.589464518983826
 30
0.0
 10
9.739020740924794
 20
6.588765123504914
 30
0.0
  0
SPLINE
  5
25E
330
1F
100
AcDbEntity
  8
0
  6
Continuous
 62
     7
370
    18
100
AcDbSpline
210
0.0
220
0.0
230
1.0
 70
     8
 71
     3
 72
    15
 73
    11
 74
     0
 42
0.000000001
 43
0.00000001
 40
0.0
 40
0.0
 40
0.0
 40
0.0
 40
0.1423029469909943
 40
0.2753838759350564
 40
0.4024786494899652
 40
0.5233761876629234
 40
0.6412310342564431
 40
0.7583226851907713
 40
0.8775530580400313
 40
1.0
 40
1.0
 40
1.0
 40
1.0
 10
9.712388085276016
 20
6.611689395893745
 30
0.0
 10
9.71281542588746
 20
6.61219156874692
 30
0.0
 10
9.713642413075089
 20
6.613163370874853
 30
0.0
 10
9.715083068736542
 20
6.6142528868146
 30
0.0
 10
9.716607924825464
 20
6.615010082090128
 30
0.0
 10
9.718238055769158
 20
6.615409348679369
 30
0.0
 10
9.719963529700642
 20
6.615453795942866
 30
0.0
 10
9.721789624896292
 20
6.615147470129108
 30
0.0
 10
9.723718485648392
 20
6.614468294302714
 30
0.0
 10
9.725036589578812
 20
6.613768981820249
 30
0.0
 10
9.725704413100406
 20
6.61341467188007
 30
0.0
  0
SPLINE
  5
25F
330
1F
100
AcDbEntity
  8
0
  6
Continuous
 62
     7
370
    18
100
AcDbSpline
210
0.0
220
0.0
230
1.0
 70
     8
 71
     3
 72
    15
 73
    11
 74
     0
 42
0.000000001
 43
0.00000001
 40
0.0
 40
0.0
 40
0.0
 40
0.0
 40
0.1427448629824129
 40
0.27463464979656
 40
0.3982435516696309
 40
0.5176044543884921
 40
0.6347051380894354
 40
0.7520881184910977
 40
0.8730810341089198
 40
1.0
 40
1.0
 40
1.0
 40
1.0
 10
9.700709208251011
 20
6.627844096500686
 30
0.0
 10
9.701441966477917
 20
6.627396191068391
 30
0.0
 10
9.702851760111308
 20
6.626534441307522
 30
0.0
 10
9.704858613204587
 20
6.624886397272838
 30
0.0
 10
9.706674801113934
 20
6.623084371325276
 30
0.0
 10
9.708268545498765
 20
6.621062911084172
 30
0.0
 10
9.709645323159426
 20
6.618888431089186
 30
0.0
 10
9.710801123749913
 20
6.616582929674682
 30
0.0
 10
9.711743947767548
 20
6.614155696409784
 30
0.0
 10
9.712169978183088
 20
6.612524493413715
 30
0.0
 10
9.712388085276016
 20
6.611689395893745
 30
0.0
  0
SPLINE
  5
260
330
1F
100
AcDbEntity
  8
0
  6
Continuous
 62
     7
370
    18
100
AcDbSpline
210
0.0
220
0.0
230
1.0
 70
     8
 71
     3
 72
    15
 73
    11
 74
     0
 42
0.000000001
 43
0.00000001
 40
0.0
 40
0.0
 40
0.0
 40
0.0
 40
0.1266319284235806
 40
0.2498443757728033
 40
0.3726046475920054
 40
0.496750966403897
 40
0.6205941793274093
 40
0.7437520563069232
 40
0.8691668313601768
 40
0.9999999999999999
 40
0.9999999999999999
 40
0.9999999999999999
 40
0.9999999999999999
 10
9.688163445508685
 20
6.626285734090541
 30
0.0
 10
9.688502623610736
 20
6.626731564439126
 30
0.0
 10
9.689171820883791
 20
6.627611186241696
 30
0.0
 10
9.690413610091644
 20
6.628584697203658
 30
0.0
 10
9.691790459518892
 20
6.62930811150988
 30
0.0
 10
9.693329326108294
 20
6.629723322181334
 30
0.0
 10
9.695002034053186
 20
6.629828719441512
 30
0.0
 10
9.696807417485553
 20
6.629534575125591
 30
0.0
 10
9.698719719837472
 20
6.628911454189183
 30
0.0
 10
9.700036762438435
 20
6.628204862717402
 30
0.0
 10
9.700709208251011
 20
6.627844096500686
 30
0.0
  0
LINE
  5
261
330
1F
100
AcDbEntity
  8
0
  6
Continuous
 62
     7
370
    18
100
AcDbLine
 10
9.6881634455
 20
6.6341967911
 30
0.0
 11
9.6881634455
 21
6.6262857341
 31
0.0
  0
LINE
  5
262
330
1F
100
AcDbEntity
  8
0
  6
Continuous
 62
     7
370
    18
100
AcDbLine
 10
9.6804577947
 20
6.6386451686
 30
0.0
 11
9.6881634455
 21
6.6341967911
 31
0.0
  0
LINE
  5
263
330
1F
100
AcDbEntity
  8
0
  6
Continuous
 62
     7
370
    18
100
AcDbLine
 10
9.6804577947
 20
6.587925422
 30
0.0
 11
9.6804577947
 21
6.6386451686
 31
0.0
  0
LINE
  5
264
330
1F
100
AcDbEntity
  8
0
  6
Continuous
 62
     7
370
    18
100
AcDbLine
 10
9.6881634455
 20
6.5834770445
 30
0.0
 11
9.6804577947
 21
6.587925422
 31
0.0
  0
LINE
  5
265
330
1F
100
AcDbEntity
  8
0
  6
Continuous
 62
     7
370
    18
100
AcDbLine
 10
9.6881634455
 20
6.6093096347
 30
0.0
 11
9.6881634455
 21
6.5834770445
 31
0.0
  0
LINE
  5
266
330
1F
100
AcDbEntity
  8
0
  6
Continuous
 62
     7
370
    18
100
AcDbLine
 10
9.6133223119
 20
6.6355801124
 30
0.0
 11
9.6210279627
 21
6.6311317349
 31
0.0
  0
LINE
  5
267
330
1F
100
AcDbEntity
  8
0
  6
Continuous
 62
     7
370
    18
100
AcDbLine
 10
9.6133223119
 20
6.6266819113
 30
0.0
 11
9.6133223119
 21
6.6355801124
 31
0.0
  0
LINE
  5
268
330
1F
100
AcDbEntity
  8
0
  6
Continuous
 62
     7
370
    18
100
AcDbLine
 10
9.6210279627
 20
6.6222335337
 30
0.0
 11
9.6133223119
 21
6.6266819113
 31
0.0
  0
LINE
  5
269
330
1F
100
AcDbEntity
  8
0
  6
Continuous
 62
     7
370
    18
100
AcDbLine
 10
9.6210279627
 20
6.6311317349
 30
0.0
 11
9.6210279627
 21
6.6222335337
 31
0.0
  0
LINE
  5
26A
330
1F
100
AcDbEntity
  8
0
  6
Continuous
 62
     7
370
    18
100
AcDbLine
 10
9.5339541085
 20
6.7009744435
 30
0.0
 11
9.5563004958
 21
6.6880741487
 31
0.0
  0
LINE
  5
26B
330
1F
100
AcDbEntity
  8
0
  6
Continuous
 62
     7
370
    18
100
AcDbLine
 10
9.5339541085
 20
6.6929660625
 30
0.0
 11
9.5339541085
 21
6.7009744435
 31
0.0
  0
LINE
  5
26C
330
1F
100
AcDbEntity
  8
0
  6
Continuous
 62
     7
370
    18
100
AcDbLine
 10
9.5563004958
 20
6.6800657677
 30
0.0
 11
9.5339541085
 21
6.6929660625
 31
0.0
  0
LINE
  5
26D
330
1F
100
AcDbEntity
  8
0
  6
Continuous
 62
     7
370
    18
100
AcDbLine
 10
9.5563004958
 20
6.6880741487
 30
0.0
 11
9.5563004958
 21
6.6800657677
 31
0.0
  0
LINE
  5
26E
330
1F
100
AcDbEntity
  8
0
  6
Continuous
 62
     7
370
    18
100
AcDbLine
 10
9.4699972066
 20
6.7183199345
 30
0.0
 11
9.4777028575
 21
6.713871557
 31
0.0
  0
LINE
  5
26F
330
1F
100
AcDbEntity
  8
0
  6
Continuous
 62
     7
370
    18
100
AcDbLine
 10
9.4699972066
 20
6.7094217334
 30
0.0
 11
9.4699972066
 21
6.7183199345
 31
0.0
  0
LINE
  5
270
330
1F
100
AcDbEntity
  8
0
  6
Continuous
 62
     7
370
    18
100
AcDbLine
 10
9.4777028575
 20
6.7049733558
 30
0.0
 11
9.4699972066
 21
6.7094217334
 31
0.0
  0
LINE
  5
271
330
1F
100
AcDbEntity
  8
0
  6
Continuous
 62
     7
370
    18
100
AcDbLine
 10
9.4777028575
 20
6.713871557
 30
0.0
 11
9.4777028575
 21
6.7049733558
 31
0.0
  0
LINE
  5
272
330
1F
100
AcDbEntity
  8
0
  6
Continuous
 62
     7
370
    18
100
AcDbLine
 10
10.7335109027
 20
7.4416018703
 30
0.0
 11
10.6430012347
 21
7.3893517511
 31
0.0
  0
LINE
  5
273
330
1F
100
AcDbEntity
  8
0
  6
Continuous
 62
     7
370
    18
100
AcDbLine
 10
10.7335109027
 20
7.4416018703
 30
0.0
 11
10.7335109027
 21
5.8085202465
 31
0.0
  0
LINE
  5
274
330
1F
100
AcDbEntity
  8
0
  6
Continuous
 62
     7
370
    18
100
AcDbLine
 10
10.6430012347
 20
5.8607873513
 30
0.0
 11
10.7335109027
 21
5.8085202465
 31
0.0
  0
LINE
  5
275
330
1F
100
AcDbEntity
  8
0
  6
Continuous
 62
     7
370
    18
100
AcDbLine
 10
9.3900080184
 20
8.2171895765
 30
0.0
 11
9.2994983504
 21
8.1649394573
 31
0.0
  0
LINE
  5
276
330
1F
100
AcDbEntity
  8
0
  6
Continuous
 62
     7
370
    18
100
AcDbLine
 10
9.3900080184
 20
8.2171895765
 30
0.0
 11
10.7335109027
 21
7.4416018703
 31
0.0
  0
LWPOLYLINE
  5
277
330
1F
100
AcDbEntity
  8
0
  6
Continuous
 62
     7
370
    18
100
AcDbPolyline
 90
       28
 70
   128
 43
0.0
 10
9.9181819854
 20
7.1310686525
 10
9.9186719301
 20
7.1208916275
 10
9.9201353769
 20
7.1102815975
 10
9.9225532476
 20
7.0993768804
 10
9.9258940216
 20
7.0883196361
 10
9.9301141468
 20
7.0772540124
 10
9.9351586073
 20
7.0663242668
 10
9.9409616409
 20
7.0556728852
 10
9.9474475963
 20
7.0454387246
 10
9.9545319189
 20
7.0357552031
 10
9.962122254
 20
7.02674856
 10
9.9701196498
 20
7.0185362108
 10
9.9784198481
 20
7.011225216
 10
9.986914643
 20
7.0049108856
 10
9.995493292
 20
6.9996755365
 10
10.0040439592
 20
6.9955874196
 10
10.0124551736
 20
6.9926998296
 10
10.0206172822
 20
6.9910504108
 10
10.0284238794
 20
6.9906606658
 10
10.0357731942
 20
6.9915356756
 10
10.0425694171
 20
6.9936640331
 10
10.048723949
 20
6.9970179918
 10
10.0541565561
 20
7.0015538278
 10
10.0587964161
 20
7.0072124095
 10
10.0625830412
 20
7.0139199687
 10
10.0654670672
 20
7.021589062
 10
10.0674108961
 20
7.0301197112
 10
10.0677981414
 20
7.0327649172
  0
LWPOLYLINE
  5
278
330
1F
100
AcDbEntity
  8
0
  6
Continuous
 62
     7
370
    18
100
AcDbPolyline
 90
       14
 70
   128
 43
0.0
 10
9.9830259802
 20
7.1796105187
 10
9.9784198481
 20
7.1813629331
 10
9.9701196498
 20
7.1836351432
 10
9.962122254
 20
7.1846563907
 10
9.9545319189
 20
7.1844133619
 10
9.9474475963
 20
7.1829092252
 10
9.9409616409
 20
7.1801635893
 10
9.9351586073
 20
7.1762122477
 10
9.9301141468
 20
7.1711067123
 10
9.9258940216
 20
7.1649135414
 10
9.9225532476
 20
7.1577134726
 10
9.9201353769
 20
7.1496003697
 10
9.9186719301
 20
7.1406799994
 10
9.9181819854
 20
7.1310686525
  0
LWPOLYLINE
  5
279
330
1F
100
AcDbEntity
  8
0
  6
Continuous
 62
     7
370
    18
100
AcDbPolyline
 90
       28
 70
   128
 43
0.0
 10
10.0508085124
 20
6.9985505254
 10
10.0482617741
 20
6.997649142
 10
10.0411774514
 20
6.9961450053
 10
10.0335871163
 20
6.9959019765
 10
10.0255897205
 20
6.996923224
 10
10.0172895223
 20
6.9991954341
 10
10.0087947274
 20
7.0026889852
 10
10.0002160784
 20
7.0073583334
 10
9.9916654112
 20
7.0131426067
 10
9.9832541967
 20
7.0199663982
 10
9.9750920882
 20
7.0277407493
 10
9.967285491
 20
7.0363643096
 10
9.9599361762
 20
7.0457246577
 10
9.9531399532
 20
7.0556997671
 10
9.9469854213
 20
7.0661595971
 10
9.9415528142
 20
7.0769677877
 10
9.9369129543
 20
7.0879834377
 10
9.9331263291
 20
7.0990629413
 10
9.9302423032
 20
7.1100618601
 10
9.9282984742
 20
7.1208368064
 10
9.927320183
 20
7.1312473124
 10
9.927320183
 20
7.1411576611
 10
9.9282984742
 20
7.150438656
 10
9.9302423032
 20
7.1589693052
 10
9.9331263291
 20
7.1666383985
 10
9.9369129543
 20
7.1733459577
 10
9.9415528142
 20
7.1790045395
 10
9.9449008579
 20
7.1820078418
  0
ARC
  5
27A
330
1F
100
AcDbEntity
  8
0
  6
Continuous
 62
     7
370
    18
100
AcDbCircle
 10
10.0982238797
 20
7.1482210863
 30
0.0
 40
0.1712947353756789
100
AcDbArc
 50
183.327331968
 51
236.6672914994
  0
LINE
  5
27B
330
1F
100
AcDbEntity
  8
0
  6
Continuous
 62
     7
370
    18
100
AcDbLine
 10
10.4732094852
 20
6.1310960205
 30
0.0
 11
10.4732094852
 21
6.1996855813
 31
0.0
  0
SPLINE
  5
27C
330
1F
100
AcDbEntity
  8
0
  6
Continuous
 62
     7
370
    18
100
AcDbSpline
210
0.0
220
0.0
230
1.0
 70
     8
 71
     3
 72
    10
 73
     6
 74
     0
 42
0.000000001
 43
0.00000001
 40
0.0
 40
0.0
 40
0.0
 40
0.0
 40
0.1397011331201609
 40
0.5693257522817994
 40
1.0
 40
1.0
 40
1.0
 40
1.0
 10
10.51484379599423
 20
6.145159336721502
 30
0.0
 10
10.51449464969432
 20
6.14479519402572
 30
0.0
 10
10.5130717694684
 20
6.143311198802608
 30
0.0
 10
10.50884735243993
 20
6.143826712801391
 30
0.0
 10
10.50528544939717
 20
6.145036319287298
 30
0.0
 10
10.50350232498257
 20
6.145641860435158
 30
0.0
  0
LINE
  5
27D
330
1F
100
AcDbEntity
  8
0
  6
Continuous
 62
     7
370
    18
100
AcDbLine
 10
10.5232404825
 20
6.1022137405
 30
0.0
 11
10.5146514385
 21
6.10717209
 31
0.0
  0
LINE
  5
27E
330
1F
100
AcDbEntity
  8
0
  6
Continuous
 62
     7
370
    18
100
AcDbLine
 10
10.5146514385
 20
6.10717209
 30
0.0
 11
10.5071625091
 21
6.126149582
 31
0.0
  0
SPLINE
  5
27F
330
1F
100
AcDbEntity
  8
0
  6
Continuous
 62
     7
370
    18
100
AcDbSpline
210
0.0
220
0.0
230
1.0
 70
     8
 71
     3
 72
    21
 73
    17
 74
     0
 42
0.000000001
 43
0.00000001
 40
0.0
 40
0.0
 40
0.0
 40
0.0
 40
0.0807565202394666
 40
0.1564928761205837
 40
0.2278645863309012
 40
0.2942194159581935
 40
0.3567576405439986
 40
0.4148044898400759
 40
0.4680257207328432
 40
0.5167566765914664
 40
0.6042176202059655
 40
0.6814453118756422
 40
0.7479519834168781
 40
0.8047659882074071
 40
0.9054352660002635
 40
1.0
 40
1.0
 40
1.0
 40
1.0
 10
10.50716250912236
 20
6.126149581976101
 30
0.0
 10
10.50689322834862
 20
6.126819182793643
 30
0.0
 10
10.50637140642462
 20
6.128116759230554
 30
0.0
 10
10.50561792346384
 20
6.130007044541361
 30
0.0
 10
10.504878164062
 20
6.131773183100433
 30
0.0
 10
10.50419538371533
 20
6.133431889853484
 30
0.0
 10
10.50352628151337
 20
6.134974813219897
 30
0.0
 10
10.50292647615615
 20
6.136413619461501
 30
0.0
 10
10.50232411513115
 20
6.137727894912266
 30
0.0
 10
10.50163247099382
 20
6.139288360196892
 30
0.0
 10
10.50078780107188
 20
6.141031431594284
 30
0.0
 10
10.49980213099761
 20
6.142890163052563
 30
0.0
 10
10.49889587294517
 20
6.144481678351916
 30
0.0
 10
10.49775067459725
 20
6.146162129161159
 30
0.0
 10
10.49632668049977
 20
6.147917490479521
 30
0.0
 10
10.49512605040327
 20
6.149053335359189
 30
0.0
 10
10.49454450590359
 20
6.149603500097006
 30
0.0
  0
SPLINE
  5
280
330
1F
100
AcDbEntity
  8
0
  6
Continuous
 62
     7
370
    18
100
AcDbSpline
210
0.0
220
0.0
230
1.0
 70
     8
 71
     3
 72
    11
 73
     7
 74
     0
 42
0.000000001
 43
0.00000001
 40
0.0
 40
0.0
 40
0.0
 40
0.0
 40
0.1774946570818461
 40
0.4052256231013865
 40
0.67838810833485
 40
1.0
 40
1.0
 40
1.0
 40
1.0
 10
10.49454450590359
 20
6.149603500097006
 30
0.0
 10
10.49430020014215
 20
6.149795409783359
 30
0.0
 10
10.49374244276489
 20
6.150233545350427
 30
0.0
 10
10.49279537213013
 20
6.15085613474416
 30
0.0
 10
10.49164787986788
 20
6.151599080146937
 30
0.0
 10
10.49081627267014
 20
6.152076810907424
 30
0.0
 10
10.49036659834929
 20
6.152335133894349
 30
0.0
  0
LINE
  5
281
330
1F
100
AcDbEntity
  8
0
  6
Continuous
 62
     7
370
    18
100
AcDbLine
 10
10.4903665983
 20
6.1523351339
 30
0.0
 11
10.4816857011
 21
6.1573465092
 31
0.0
  0
LINE
  5
282
330
1F
100
AcDbEntity
  8
0
  6
Continuous
 62
     7
370
    18
100
AcDbLine
 10
10.4809785943
 20
6.1266110092
 30
0.0
 11
10.4732094852
 21
6.1310960205
 31
0.0
  0
SPLINE
  5
283
330
1F
100
AcDbEntity
  8
0
  6
Continuous
 62
     7
370
    18
100
AcDbSpline
210
0.0
220
0.0
230
1.0
 70
     8
 71
     3
 72
     9
 73
     5
 74
     0
 42
0.000000001
 43
0.00000001
 40
0.0
 40
0.0
 40
0.0
 40
0.0
 40
0.4590142478267206
 40
1.0
 40
1.0
 40
1.0
 40
1.0
 10
10.50816570851394
 20
6.153453133342618
 30
0.0
 10
10.50894076543447
 20
6.154050414563486
 30
0.0
 10
10.51062929018984
 20
6.155351640448508
 30
0.0
 10
10.51084855504984
 20
6.158226889751484
 30
0.0
 10
10.51096717421505
 20
6.159782358658339
 30
0.0
  0
SPLINE
  5
284
330
1F
100
AcDbEntity
  8
0
  6
Continuous
 62
     7
370
    18
100
AcDbSpline
210
0.0
220
0.0
230
1.0
 70
     8
 71
     3
 72
    23
 73
    19
 74
     0
 42
0.000000001
 43
0.00000001
 40
0.0
 40
0.0
 40
0.0
 40
0.0
 40
0.0603272326790053
 40
0.1181633268525655
 40
0.1741915946005237
 40
0.2288671201359928
 40
0.2834295822545101
 40
0.3378078149372622
 40
0.3926149530011027
 40
0.4484500033868906
 40
0.5059514596840966
 40
0.5650462512987543
 40
0.6266439369048248
 40
0.6922233429555582
 40
0.7611243334651909
 40
0.8353052271782849
 40
0.9153231689797098
 40
1.0
 40
1.0
 40
1.0
 40
1.0
 10
10.51096717421505
 20
6.159782358658339
 30
0.0
 10
10.51095603718764
 20
6.16017839529618
 30
0.0
 10
10.51093422302261
 20
6.160954114728423
 30
0.0
 10
10.51081864884024
 20
6.162140526428956
 30
0.0
 10
10.51059875892543
 20
6.163328555558395
 30
0.0
 10
10.51029512089201
 20
6.164513977549232
 30
0.0
 10
10.50991067083826
 20
6.16569729056904
 30
0.0
 10
10.50943824254102
 20
6.166878850450519
 30
0.0
 10
10.50888027370314
 20
6.168052607987707
 30
0.0
 10
10.50824021802876
 20
6.169220762112242
 30
0.0
 10
10.50750557608993
 20
6.170371672753385
 30
0.0
 10
10.50666637049753
 20
6.17148318640888
 30
0.0
 10
10.50572930268161
 20
6.172557010084947
 30
0.0
 10
10.50469326007657
 20
6.173578020540463
 30
0.0
 10
10.50356151312294
 20
6.174569628596696
 30
0.0
 10
10.50232761707335
 20
6.175506977881599
 30
0.0
 10
10.50099721537194
 20
6.176437837974682
 30
0.0
 10
10.50007532412014
 20
6.17697944920357
 30
0.0
 10
10.49960133925463
 20
6.177257915372964
 30
0.0
  0
LINE
  5
285
330
1F
100
AcDbEntity
  8
0
  6
Continuous
 62
     7
370
    18
100
AcDbLine
 10
10.4996013393
 20
6.1772579154
 30
0.0
 11
10.4816857011
 21
6.1876003931
 31
0.0
  0
SPLINE
  5
286
330
1F
100
AcDbEntity
  8
0
  6
Continuous
 62
     7
370
    18
100
AcDbSpline
210
0.0
220
0.0
230
1.0
 70
     8
 71
     3
 72
    23
 73
    19
 74
     0
 42
0.000000001
 43
0.00000001
 40
0.0
 40
0.0
 40
0.0
 40
0.0
 40
0.0603272326790053
 40
0.1181633268525655
 40
0.1741915946005237
 40
0.2288671201359928
 40
0.2834295822545101
 40
0.3378078149372622
 40
0.3926149530011027
 40
0.4484500033868906
 40
0.5059514596840966
 40
0.5650462512987543
 40
0.6266439369048248
 40
0.6922233429555582
 40
0.7611243334651909
 40
0.8353052271782849
 40
0.9153231689797098
 40
1.0
 40
1.0
 40
1.0
 40
1.0
 10
10.51026006743386
 20
6.159374154602429
 30
0.0
 10
10.51024893040645
 20
6.159770191240268
 30
0.0
 10
10.51022711624142
 20
6.160545910672513
 30
0.0
 10
10.51011154205906
 20
6.161732322373044
 30
0.0
 10
10.50989165214424
 20
6.162920351502484
 30
0.0
 10
10.50958801411083
 20
6.16410577349332
 30
0.0
 10
10.50920356405707
 20
6.165289086513129
 30
0.0
 10
10.50873113575983
 20
6.166470646394608
 30
0.0
 10
10.50817316692195
 20
6.167644403931795
 30
0.0
 10
10.50753311124757
 20
6.16881255805633
 30
0.0
 10
10.50679846930874
 20
6.169963468697473
 30
0.0
 10
10.50595926371634
 20
6.171074982352968
 30
0.0
 10
10.50502219590042
 20
6.172148806029036
 30
0.0
 10
10.50398615329538
 20
6.173169816484552
 30
0.0
 10
10.50285440634175
 20
6.174161424540785
 30
0.0
 10
10.50162051029216
 20
6.175098773825687
 30
0.0
 10
10.50029010859075
 20
6.176029633918771
 30
0.0
 10
10.49936821733896
 20
6.176571245147658
 30
0.0
 10
10.49889423247344
 20
6.176849711317053
 30
0.0
  0
SPLINE
  5
287
330
1F
100
AcDbEntity
  8
0
  6
Continuous
 62
     7
370
    18
100
AcDbSpline
210
0.0
220
0.0
230
1.0
 70
     8
 71
     3
 72
    19
 73
    15
 74
     0
 42
0.000000001
 43
0.00000001
 40
0.0
 40
0.0
 40
0.0
 40
0.0
 40
0.128838042999503
 40
0.2408506371773563
 40
0.3379858977314474
 40
0.4208544298319358
 40
0.4947796491112434
 40
0.5659088810869705
 40
0.6370496543952386
 40
0.7093806720350354
 40
0.7821614733091782
 40
0.8536820657736279
 40
0.9261831408996576
 40
1.0
 40
1.0
 40
1.0
 40
1.0
 10
10.49707618048295
 20
6.155653747503183
 30
0.0
 10
10.49788341091334
 20
6.155202201023731
 30
0.0
 10
10.49939245248975
 20
6.154358077232657
 30
0.0
 10
10.5015020719764
 20
6.153374543517782
 30
0.0
 10
10.50330664343348
 20
6.152699068102945
 30
0.0
 10
10.50482921763715
 20
6.15237642463458
 30
0.0
 10
10.50610879280433
 20
6.152382763753335
 30
0.0
 10
10.50721780359692
 20
6.152653635430071
 30
0.0
 10
10.50815028800301
 20
6.153245641120502
 30
0.0
 10
10.50891717589956
 20
6.1540990028773
 30
0.0
 10
10.50951667294661
 20
6.155165375348822
 30
0.0
 10
10.5099355710916
 20
6.156418460549141
 30
0.0
 10
10.51021680462659
 20
6.157804807399159
 30
0.0
 10
10.51024556030166
 20
6.158847912114212
 30
0.0
 10
10.51026006743386
 20
6.159374154602429
 30
0.0
  0
LINE
  5
288
330
1F
100
AcDbEntity
  8
0
  6
Continuous
 62
     7
370
    18
100
AcDbLine
 10
10.4809785943
 20
6.1649466862
 30
0.0
 11
10.4970761805
 21
6.1556537475
 31
0.0
  0
LINE
  5
289
330
1F
100
AcDbEntity
  8
0
  6
Continuous
 62
     7
370
    18
100
AcDbLine
 10
10.4809785943
 20
6.1871921891
 30
0.0
 11
10.4809785943
 21
6.1649466862
 31
0.0
  0
LINE
  5
28A
330
1F
100
AcDbEntity
  8
0
  6
Continuous
 62
     7
370
    18
100
AcDbLine
 10
10.4988942325
 20
6.1768497113
 30
0.0
 11
10.4809785943
 21
6.1871921891
 31
0.0
  0
LINE
  5
28B
330
1F
100
AcDbEntity
  8
0
  6
Continuous
 62
     7
370
    18
100
AcDbLine
 10
10.4996013393
 20
6.1772579154
 30
0.0
 11
10.4988942325
 21
6.1768497113
 31
0.0
  0
LINE
  5
28C
330
1F
100
AcDbEntity
  8
0
  6
Continuous
 62
     7
370
    18
100
AcDbLine
 10
10.5109671742
 20
6.1597823587
 30
0.0
 11
10.5102600674
 21
6.1593741546
 31
0.0
  0
LINE
  5
28D
330
1F
100
AcDbEntity
  8
0
  6
Continuous
 62
     7
370
    18
100
AcDbLine
 10
10.503502325
 20
6.1456418604
 30
0.0
 11
10.5027952182
 21
6.1452336564
 31
0.0
  0
LINE
  5
28E
330
1F
100
AcDbEntity
  8
0
  6
Continuous
 62
     7
370
    18
100
AcDbLine
 10
10.4816857011
 20
6.1876003931
 30
0.0
 11
10.4809785943
 21
6.1871921891
 31
0.0
  0
LINE
  5
28F
330
1F
100
AcDbEntity
  8
0
  6
Continuous
 62
     7
370
    18
100
AcDbLine
 10
10.4945445059
 20
6.1496035001
 30
0.0
 11
10.4938373991
 21
6.149195296
 31
0.0
  0
LINE
  5
290
330
1F
100
AcDbEntity
  8
0
  6
Continuous
 62
     7
370
    18
100
AcDbLine
 10
10.5071625091
 20
6.126149582
 30
0.0
 11
10.5064554023
 21
6.1257413779
 31
0.0
  0
LINE
  5
291
330
1F
100
AcDbEntity
  8
0
  6
Continuous
 62
     7
370
    18
100
AcDbLine
 10
10.4732094852
 20
6.1310960205
 30
0.0
 11
10.4725023784
 21
6.1306878164
 31
0.0
  0
LINE
  5
292
330
1F
100
AcDbEntity
  8
0
  6
Continuous
 62
     7
370
    18
100
AcDbLine
 10
10.5146514385
 20
6.10717209
 30
0.0
 11
10.5139443317
 21
6.106763886
 31
0.0
  0
LINE
  5
293
330
1F
100
AcDbEntity
  8
0
  6
Continuous
 62
     7
370
    18
100
AcDbLine
 10
10.4903665983
 20
6.1523351339
 30
0.0
 11
10.4896594916
 21
6.1519269298
 31
0.0
  0
LINE
  5
294
330
1F
100
AcDbEntity
  8
0
  6
Continuous
 62
     7
370
    18
100
AcDbLine
 10
10.4177287993
 20
6.1631243387
 30
0.0
 11
10.4177287993
 21
6.2317138996
 31
0.0
  0
LINE
  5
295
330
1F
100
AcDbEntity
  8
0
  6
Continuous
 62
     7
370
    18
100
AcDbLine
 10
10.459402772
 20
6.2004640543
 30
0.0
 11
10.4262050152
 21
6.2196287114
 31
0.0
  0
LINE
  5
296
330
1F
100
AcDbEntity
  8
0
  6
Continuous
 62
     7
370
    18
100
AcDbLine
 10
10.4570910768
 20
6.1724345037
 30
0.0
 11
10.4262050152
 21
6.1902646476
 31
0.0
  0
LINE
  5
297
330
1F
100
AcDbEntity
  8
0
  6
Continuous
 62
     7
370
    18
100
AcDbLine
 10
10.4609439022
 20
6.1381767908
 30
0.0
 11
10.4177287993
 21
6.1631243387
 31
0.0
  0
LINE
  5
298
330
1F
100
AcDbEntity
  8
0
  6
Continuous
 62
     7
370
    18
100
AcDbLine
 10
10.4816857011
 20
6.1573465092
 30
0.0
 11
10.4809785943
 21
6.1569383052
 31
0.0
  0
LINE
  5
299
330
1F
100
AcDbEntity
  8
0
  6
Continuous
 62
     7
370
    18
100
AcDbLine
 10
10.4262050152
 20
6.2196287114
 30
0.0
 11
10.4254979084
 21
6.2192205073
 31
0.0
  0
LINE
  5
29A
330
1F
100
AcDbEntity
  8
0
  6
Continuous
 62
     7
370
    18
100
AcDbLine
 10
9.3900080184
 20
6.5841079527
 30
0.0
 11
9.2994983504
 21
6.6363750575
 31
0.0
  0
LINE
  5
29B
330
1F
100
AcDbEntity
  8
0
  6
Continuous
 62
     7
370
    18
100
AcDbLine
 10
10.7335109027
 20
5.8085202465
 30
0.0
 11
9.3900080184
 21
6.5841079527
 31
0.0
  0
LINE
  5
29C
330
1F
100
AcDbEntity
  8
0
  6
Continuous
 62
     7
370
    18
100
AcDbLine
 10
10.4262050152
 20
6.1902646476
 30
0.0
 11
10.4254979084
 21
6.1898564435
 31
0.0
  0
LINE
  5
29D
330
1F
100
AcDbEntity
  8
0
  6
Continuous
 62
     7
370
    18
100
AcDbLine
 10
10.4177287993
 20
6.1631243387
 30
0.0
 11
10.4170216925
 21
6.1627161346
 31
0.0
  0
LINE
  5
29E
330
1F
100
AcDbEntity
  8
0
  6
Continuous
 62
     7
370
    18
100
AcDbLine
 10
10.3815122404
 20
6.1840317131
 30
0.0
 11
10.3815122404
 21
6.2454293011
 31
0.0
  0
LINE
  5
29F
330
1F
100
AcDbEntity
  8
0
  6
Continuous
 62
     7
370
    18
100
AcDbLine
 10
10.3815122404
 20
6.2454293011
 30
0.0
 11
10.3622481134
 21
6.2565502449
 31
0.0
  0
LINE
  5
2A0
330
1F
100
AcDbEntity
  8
0
  6
Continuous
 62
     7
370
    18
100
AcDbLine
 10
10.3622481134
 20
6.2565502449
 30
0.0
 11
10.3622481134
 21
6.2637422178
 31
0.0
  0
LINE
  5
2A1
330
1F
100
AcDbEntity
  8
0
  6
Continuous
 62
     7
370
    18
100
AcDbLine
 10
10.4085454766
 20
6.229823346
 30
0.0
 11
10.3899884563
 21
6.2405360858
 31
0.0
  0
LINE
  5
2A2
330
1F
100
AcDbEntity
  8
0
  6
Continuous
 62
     7
370
    18
100
AcDbLine
 10
10.3892813496
 20
6.1795467019
 30
0.0
 11
10.3815122404
 21
6.1840317131
 31
0.0
  0
LINE
  5
2A3
330
1F
100
AcDbEntity
  8
0
  6
Continuous
 62
     7
370
    18
100
AcDbLine
 10
10.3899884563
 20
6.2405360858
 30
0.0
 11
10.3892813496
 21
6.2401278817
 31
0.0
  0
LINE
  5
2A4
330
1F
100
AcDbEntity
  8
0
  6
Continuous
 62
     7
370
    18
100
AcDbLine
 10
10.3622481134
 20
6.2565502449
 30
0.0
 11
10.3615410066
 21
6.2561420408
 31
0.0
  0
LINE
  5
2A5
330
1F
100
AcDbEntity
  8
0
  6
Continuous
 62
     7
370
    18
100
AcDbLine
 10
10.3815122404
 20
6.2454293011
 30
0.0
 11
10.3808051336
 21
6.245021097
 31
0.0
  0
LINE
  5
2A6
330
1F
100
AcDbEntity
  8
0
  6
Continuous
 62
     7
370
    18
100
AcDbLine
 10
10.3815122404
 20
6.1840317131
 30
0.0
 11
10.3808051336
 21
6.183623509
 31
0.0
  0
LINE
  5
2A7
330
1F
100
AcDbEntity
  8
0
  6
Continuous
 62
     7
370
    18
100
AcDbLine
 10
10.311390818
 20
6.2245119486
 30
0.0
 11
10.311390818
 21
6.2931015095
 31
0.0
  0
LINE
  5
2A8
330
1F
100
AcDbEntity
  8
0
  6
Continuous
 62
     7
370
    18
100
AcDbLine
 10
10.3530647907
 20
6.2618516642
 30
0.0
 11
10.3198670339
 21
6.2810163213
 31
0.0
  0
LINE
  5
2A9
330
1F
100
AcDbEntity
  8
0
  6
Continuous
 62
     7
370
    18
100
AcDbLine
 10
10.3507530954
 20
6.2338221137
 30
0.0
 11
10.3198670339
 21
6.2516522575
 31
0.0
  0
LINE
  5
2AA
330
1F
100
AcDbEntity
  8
0
  6
Continuous
 62
     7
370
    18
100
AcDbLine
 10
10.3546059209
 20
6.1995644008
 30
0.0
 11
10.311390818
 21
6.2245119486
 31
0.0
  0
LINE
  5
2AB
330
1F
100
AcDbEntity
  8
0
  6
Continuous
 62
     7
370
    18
100
AcDbLine
 10
10.3198670339
 20
6.2810163213
 30
0.0
 11
10.3191599271
 21
6.2806081173
 31
0.0
  0
LINE
  5
2AC
330
1F
100
AcDbEntity
  8
0
  6
Continuous
 62
     7
370
    18
100
AcDbLine
 10
10.3198670339
 20
6.2516522575
 30
0.0
 11
10.3191599271
 21
6.2512440534
 31
0.0
  0
LINE
  5
2AD
330
1F
100
AcDbEntity
  8
0
  6
Continuous
 62
     7
370
    18
100
AcDbLine
 10
10.311390818
 20
6.2245119486
 30
0.0
 11
10.3106837112
 21
6.2241037446
 31
0.0
  0
LINE
  5
2AE
330
1F
100
AcDbEntity
  8
0
  6
Continuous
 62
     7
370
    18
100
AcDbLine
 10
10.2404988304
 20
6.2654370219
 30
0.0
 11
10.2404988304
 21
6.3340265828
 31
0.0
  0
SPLINE
  5
2AF
330
1F
100
AcDbEntity
  8
0
  6
Continuous
 62
     7
370
    18
100
AcDbSpline
210
0.0
220
0.0
230
1.0
 70
     8
 71
     3
 72
    15
 73
    11
 74
     0
 42
0.000000001
 43
0.00000001
 40
0.0
 40
0.0
 40
0.0
 40
0.0
 40
0.0892047702332424
 40
0.18983345566435
 40
0.299232591974982
 40
0.4192609378429104
 40
0.5492073901909383
 40
0.6890743636843474
 40
0.8395791979483168
 40
1.0
 40
1.0
 40
1.0
 40
1.0
 10
10.26939502098853
 20
6.259266606296339
 30
0.0
 10
10.26947892742762
 20
6.259547345786402
 30
0.0
 10
10.26965748569579
 20
6.260144777374431
 30
0.0
 10
10.26994695719187
 20
6.261079102632286
 30
0.0
 10
10.27025496310536
 20
6.262120154816051
 30
0.0
 10
10.27062355177325
 20
6.263222709718113
 30
0.0
 10
10.27100776183715
 20
6.264433356480953
 30
0.0
 10
10.27141104030244
 20
6.26574891559016
 30
0.0
 10
10.27187621415895
 20
6.267129204965073
 30
0.0
 10
10.27218534543437
 20
6.26809225660967
 30
0.0
 10
10.2723448404433
 20
6.26858913914105
 30
0.0
  0
LINE
  5
2B0
330
1F
100
AcDbEntity
  8
0
  6
Continuous
 62
     7
370
    18
100
AcDbLine
 10
10.2723448404
 20
6.2685891391
 30
0.0
 11
10.2854222255
 21
6.3080928589
 31
0.0
  0
LINE
  5
2B1
330
1F
100
AcDbEntity
  8
0
  6
Continuous
 62
     7
370
    18
100
AcDbLine
 10
10.2975841048
 20
6.2324823945
 30
0.0
 11
10.2898149957
 21
6.2369674057
 31
0.0
  0
LINE
  5
2B2
330
1F
100
AcDbEntity
  8
0
  6
Continuous
 62
     7
370
    18
100
AcDbLine
 10
10.2898149957
 20
6.2369674057
 30
0.0
 11
10.2898149957
 21
6.2956955333
 31
0.0
  0
LINE
  5
2B3
330
1F
100
AcDbEntity
  8
0
  6
Continuous
 62
     7
370
    18
100
AcDbLine
 10
10.2732934466
 20
6.246505093
 30
0.0
 11
10.2649161114
 21
6.2513412256
 31
0.0
  0
LINE
  5
2B4
330
1F
100
AcDbEntity
  8
0
  6
Continuous
 62
     7
370
    18
100
AcDbLine
 10
10.2649161114
 20
6.2513412256
 30
0.0
 11
10.2489750463
 21
6.3192719343
 31
0.0
  0
LINE
  5
2B5
330
1F
100
AcDbEntity
  8
0
  6
Continuous
 62
     7
370
    18
100
AcDbLine
 10
10.2482679395
 20
6.2609520107
 30
0.0
 11
10.2404988304
 21
6.2654370219
 31
0.0
  0
LINE
  5
2B6
330
1F
100
AcDbEntity
  8
0
  6
Continuous
 62
     7
370
    18
100
AcDbLine
 10
10.2723448404
 20
6.2685891391
 30
0.0
 11
10.2716377337
 21
6.2681809351
 31
0.0
  0
LINE
  5
2B7
330
1F
100
AcDbEntity
  8
0
  6
Continuous
 62
     7
370
    18
100
AcDbLine
 10
10.2898149957
 20
6.2369674057
 30
0.0
 11
10.2891078889
 21
6.2365592017
 31
0.0
  0
LINE
  5
2B8
330
1F
100
AcDbEntity
  8
0
  6
Continuous
 62
     7
370
    18
100
AcDbLine
 10
10.2898149957
 20
6.2956955333
 30
0.0
 11
10.2891078889
 21
6.2952873293
 31
0.0
  0
LINE
  5
2B9
330
1F
100
AcDbEntity
  8
0
  6
Continuous
 62
     7
370
    18
100
AcDbLine
 10
10.2489750463
 20
6.3192719343
 30
0.0
 11
10.2482679395
 21
6.3188637302
 31
0.0
  0
LINE
  5
2BA
330
1F
100
AcDbEntity
  8
0
  6
Continuous
 62
     7
370
    18
100
AcDbLine
 10
10.2649161114
 20
6.2513412256
 30
0.0
 11
10.2642090047
 21
6.2509330216
 31
0.0
  0
LINE
  5
2BB
330
1F
100
AcDbEntity
  8
0
  6
Continuous
 62
     7
370
    18
100
AcDbLine
 10
10.2404988304
 20
6.2654370219
 30
0.0
 11
10.2397917236
 21
6.2650288179
 31
0.0
  0
LINE
  5
2BC
330
1F
100
AcDbEntity
  8
0
  6
Continuous
 62
     7
370
    18
100
AcDbLine
 10
10.1783359004
 20
6.3013229176
 30
0.0
 11
10.2019186371
 21
6.3562984543
 31
0.0
  0
LINE
  5
2BD
330
1F
100
AcDbEntity
  8
0
  6
Continuous
 62
     7
370
    18
100
AcDbLine
 10
10.2346347908
 20
6.26882226
 30
0.0
 11
10.2266286589
 21
6.2734441015
 31
0.0
  0
LINE
  5
2BE
330
1F
100
AcDbEntity
  8
0
  6
Continuous
 62
     7
370
    18
100
AcDbLine
 10
10.2266286589
 20
6.2734441015
 30
0.0
 11
10.2197898938
 21
6.2987477193
 31
0.0
  0
LINE
  5
2BF
330
1F
100
AcDbEntity
  8
0
  6
Continuous
 62
     7
370
    18
100
AcDbLine
 10
10.2197898938
 20
6.2987477193
 30
0.0
 11
10.1941686049
 21
6.3135385746
 31
0.0
  0
LINE
  5
2C0
330
1F
100
AcDbEntity
  8
0
  6
Continuous
 62
     7
370
    18
100
AcDbLine
 10
10.1868841727
 20
6.296388105
 30
0.0
 11
10.1783359004
 21
6.3013229176
 31
0.0
  0
LINE
  5
2C1
330
1F
100
AcDbEntity
  8
0
  6
Continuous
 62
     7
370
    18
100
AcDbLine
 10
10.217237397
 20
6.3082296254
 30
0.0
 11
10.2113979585
 21
6.3298419739
 31
0.0
  0
SPLINE
  5
2C2
330
1F
100
AcDbEntity
  8
0
  6
Continuous
 62
     7
370
    18
100
AcDbSpline
210
0.0
220
0.0
230
1.0
 70
     8
 71
     3
 72
    15
 73
    11
 74
     0
 42
0.000000001
 43
0.00000001
 40
0.0
 40
0.0
 40
0.0
 40
0.0
 40
0.1531481085926319
 40
0.2994334688329077
 40
0.4364263514567485
 40
0.565670572956358
 40
0.6865083102878743
 40
0.7992685160630044
 40
0.9033947408013443
 40
1.0
 40
1.0
 40
1.0
 40
1.0
 10
10.21139795848394
 20
6.329841973882892
 30
0.0
 10
10.21117409525984
 20
6.330676026822419
 30
0.0
 10
10.21073640038817
 20
6.332306757800215
 30
0.0
 10
10.2100836654684
 20
6.33468577138706
 30
0.0
 10
10.20948733736411
 20
6.336931393425268
 30
0.0
 10
10.20890258868866
 20
6.339042239304131
 30
0.0
 10
10.20837472561476
 20
6.341017912967147
 30
0.0
 10
10.20788818068931
 20
6.342856114838438
 30
0.0
 10
10.20740699186338
 20
6.34456678120953
 30
0.0
 10
10.20711822368001
 20
6.345659272930535
 30
0.0
 10
10.20697924934148
 20
6.346185052164615
 30
0.0
  0
LINE
  5
2C3
330
1F
100
AcDbEntity
  8
0
  6
Continuous
 62
     7
370
    18
100
AcDbLine
 10
10.269395021
 20
6.2592666063
 30
0.0
 11
10.2686879142
 21
6.2588584022
 31
0.0
  0
SPLINE
  5
2C4
330
1F
100
AcDbEntity
  8
0
  6
Continuous
 62
     7
370
    18
100
AcDbSpline
210
0.0
220
0.0
230
1.0
 70
     8
 71
     3
 72
    15
 73
    11
 74
     0
 42
0.000000001
 43
0.00000001
 40
0.0
 40
0.0
 40
0.0
 40
0.0
 40
0.1531481085926319
 40
0.2994334688329077
 40
0.4364263514567485
 40
0.565670572956358
 40
0.6865083102878743
 40
0.7992685160630044
 40
0.9033947408013443
 40
1.0
 40
1.0
 40
1.0
 40
1.0
 10
10.21069085170275
 20
6.32943376982698
 30
0.0
 10
10.21046698847865
 20
6.330267822766507
 30
0.0
 10
10.21002929360698
 20
6.331898553744303
 30
0.0
 10
10.20937655868721
 20
6.334277567331149
 30
0.0
 10
10.20878023058292
 20
6.336523189369357
 30
0.0
 10
10.20819548190747
 20
6.33863403524822
 30
0.0
 10
10.20766761883357
 20
6.340609708911237
 30
0.0
 10
10.20718107390813
 20
6.342447910782526
 30
0.0
 10
10.20669988508219
 20
6.344158577153618
 30
0.0
 10
10.20641111689883
 20
6.345251068874624
 30
0.0
 10
10.2062721425603
 20
6.345776848108703
 30
0.0
  0
LINE
  5
2C5
330
1F
100
AcDbEntity
  8
0
  6
Continuous
 62
     7
370
    18
100
AcDbLine
 10
10.2165302902
 20
6.3078214214
 30
0.0
 11
10.2106908517
 21
6.3294337698
 31
0.0
  0
LINE
  5
2C6
330
1F
100
AcDbEntity
  8
0
  6
Continuous
 62
     7
370
    18
100
AcDbLine
 10
10.1960139949
 20
6.3196652265
 30
0.0
 11
10.2165302902
 21
6.3078214214
 31
0.0
  0
LINE
  5
2C7
330
1F
100
AcDbEntity
  8
0
  6
Continuous
 62
     7
370
    18
100
AcDbLine
 10
10.2021664755
 20
6.3353280282
 30
0.0
 11
10.1960139949
 21
6.3196652265
 31
0.0
  0
SPLINE
  5
2C8
330
1F
100
AcDbEntity
  8
0
  6
Continuous
 62
     7
370
    18
100
AcDbSpline
210
0.0
220
0.0
230
1.0
 70
     8
 71
     3
 72
    11
 73
     7
 74
     0
 42
0.000000001
 43
0.00000001
 40
0.0
 40
0.0
 40
0.0
 40
0.0
 40
0.2472885692344848
 40
0.4965585959218943
 40
0.7463647942382589
 40
1.0
 40
1.0
 40
1.0
 40
1.0
 10
10.2062721425603
 20
6.345776848108703
 30
0.0
 10
10.20604168759813
 20
6.344811425191278
 30
0.0
 10
10.20557893109955
 20
6.342872843679679
 30
0.0
 10
10.20462228423765
 20
6.34019563359069
 30
0.0
 10
10.20350998491053
 20
6.337645051755276
 30
0.0
 10
10.20261657694615
 20
6.336104275610624
 30
0.0
 10
10.20216647548243
 20
6.335328028223508
 30
0.0
  0
LINE
  5
2C9
330
1F
100
AcDbEntity
  8
0
  6
Continuous
 62
     7
370
    18
100
AcDbLine
 10
10.2069792493
 20
6.3461850522
 30
0.0
 11
10.2062721426
 21
6.3457768481
 31
0.0
  0
LINE
  5
2CA
330
1F
100
AcDbEntity
  8
0
  6
Continuous
 62
     7
370
    18
100
AcDbLine
 10
10.2113979585
 20
6.3298419739
 30
0.0
 11
10.2106908517
 21
6.3294337698
 31
0.0
  0
LINE
  5
2CB
330
1F
100
AcDbEntity
  8
0
  6
Continuous
 62
     7
370
    18
100
AcDbLine
 10
10.1783359004
 20
6.3013229176
 30
0.0
 11
10.1776287937
 21
6.3009147135
 31
0.0
  0
LINE
  5
2CC
330
1F
100
AcDbEntity
  8
0
  6
Continuous
 62
     7
370
    18
100
AcDbLine
 10
10.217237397
 20
6.3082296254
 30
0.0
 11
10.2165302902
 21
6.3078214214
 31
0.0
  0
LINE
  5
2CD
330
1F
100
AcDbEntity
  8
0
  6
Continuous
 62
     7
370
    18
100
AcDbLine
 10
10.2197898938
 20
6.2987477193
 30
0.0
 11
10.219082787
 21
6.2983395153
 31
0.0
  0
LINE
  5
2CE
330
1F
100
AcDbEntity
  8
0
  6
Continuous
 62
     7
370
    18
100
AcDbLine
 10
10.2266286589
 20
6.2734441015
 30
0.0
 11
10.2259215522
 21
6.2730358974
 31
0.0
  0
LINE
  5
2CF
330
1F
100
AcDbEntity
  8
0
  6
Continuous
 62
     7
370
    18
100
AcDbLine
 10
10.1941686049
 20
6.3135385746
 30
0.0
 11
10.1934614981
 21
6.3131303706
 31
0.0
  0
LINE
  5
2D0
330
1F
100
AcDbEntity
  8
0
  6
Continuous
 62
     7
370
    18
100
AcDbLine
 10
10.1642128873
 20
6.3094759595
 30
0.0
 11
10.1642128873
 21
6.3780655204
 31
0.0
  0
LINE
  5
2D1
330
1F
100
AcDbEntity
  8
0
  6
Continuous
 62
     7
370
    18
100
AcDbLine
 10
10.1719819964
 20
6.3049909483
 30
0.0
 11
10.1642128873
 21
6.3094759595
 31
0.0
  0
LINE
  5
2D2
330
1F
100
AcDbEntity
  8
0
  6
Continuous
 62
     7
370
    18
100
AcDbLine
 10
10.1642128873
 20
6.3094759595
 30
0.0
 11
10.1635057805
 21
6.3090677554
 31
0.0
  0
LINE
  5
2D3
330
1F
100
AcDbEntity
  8
0
  6
Continuous
 62
     7
370
    18
100
AcDbLine
 10
10.1033382458
 20
6.344618142
 30
0.0
 11
10.1033382458
 21
6.4132077029
 31
0.0
  0
SPLINE
  5
2D4
330
1F
100
AcDbEntity
  8
0
  6
Continuous
 62
     7
370
    18
100
AcDbSpline
210
0.0
220
0.0
230
1.0
 70
     8
 71
     3
 72
    11
 73
     7
 74
     0
 42
0.000000001
 43
0.00000001
 40
0.0
 40
0.0
 40
0.0
 40
0.0
 40
0.0147462595511353
 40
0.3423365009044413
 40
0.6709402737445056
 40
1.0
 40
1.0
 40
1.0
 40
1.0
 10
10.14430156270731
 20
6.328347502367023
 30
0.0
 10
10.14424247825303
 20
6.328283850567249
 30
0.0
 10
10.14287082429128
 20
6.326806165033801
 30
0.0
 10
10.13839858987276
 20
6.326780398506701
 30
0.0
 10
10.13180729762493
 20
6.328432441553558
 30
0.0
 10
10.12718077357651
 20
6.330937226516843
 30
0.0
 10
10.12486590778422
 20
6.332190487273265
 30
0.0
  0
LINE
  5
2D5
330
1F
100
AcDbEntity
  8
0
  6
Continuous
 62
     7
370
    18
100
AcDbLine
 10
10.1248659078
 20
6.3321904873
 30
0.0
 11
10.1033382458
 21
6.344618142
 31
0.0
  0
SPLINE
  5
2D6
330
1F
100
AcDbEntity
  8
0
  6
Continuous
 62
     7
370
    18
100
AcDbSpline
210
0.0
220
0.0
230
1.0
 70
     8
 71
     3
 72
    15
 73
    11
 74
     0
 42
0.000000001
 43
0.00000001
 40
0.0
 40
0.0
 40
0.0
 40
0.0
 40
0.0977695964822331
 40
0.2008523784955819
 40
0.3104302888087518
 40
0.4285493214350529
 40
0.5551842864614315
 40
0.6918447589416411
 40
0.8400944459418304
 40
1.0
 40
1.0
 40
1.0
 40
1.0
 10
10.13839895703794
 20
6.33729431934634
 30
0.0
 10
10.1388423097049
 20
6.337623869748488
 30
0.0
 10
10.13975310857158
 20
6.338300879621571
 30
0.0
 10
10.14088835316771
 20
6.33974630203451
 30
0.0
 10
10.14187593415889
 20
6.341547279823877
 30
0.0
 10
10.14271818455043
 20
6.343707718939882
 30
0.0
 10
10.14337860424863
 20
6.346264163451254
 30
0.0
 10
10.14383513520042
 20
6.349230499862048
 30
0.0
 10
10.14412929738931
 20
6.352581830550214
 30
0.0
 10
10.14416149000711
 20
6.35501200749922
 30
0.0
 10
10.14417819515341
 20
6.356273056281501
 30
0.0
  0
SPLINE
  5
2D7
330
1F
100
AcDbEntity
  8
0
  6
Continuous
 62
     7
370
    18
100
AcDbSpline
210
0.0
220
0.0
230
1.0
 70
     8
 71
     3
 72
    23
 73
    19
 74
     0
 42
0.000000001
 43
0.00000001
 40
0.0
 40
0.0
 40
0.0
 40
0.0
 40
0.0912609520412068
 40
0.1774380523622645
 40
0.2586781753433991
 40
0.334778254375936
 40
0.4064987035437802
 40
0.4737257195372777
 40
0.5371521470015597
 40
0.5974031390993008
 40
0.6545219121410196
 40
0.7092765662779076
 40
0.761510094777904
 40
0.8118413153607337
 40
0.8605996190280614
 40
0.9078026946136555
 40
0.9542577632202353
 40
1.0
 40
1.0
 40
1.0
 40
1.0
 10
10.14417819515341
 20
6.356273056281501
 30
0.0
 10
10.14416985847167
 20
6.35716337656693
 30
0.0
 10
10.14415364951768
 20
6.358894420281591
 30
0.0
 10
10.14400243632631
 20
6.361486352049035
 30
0.0
 10
10.14378324954812
 20
6.363962723587099
 30
0.0
 10
10.14345786398248
 20
6.366342269621968
 30
0.0
 10
10.1430429739651
 20
6.368614247788776
 30
0.0
 10
10.1425213506423
 20
6.37078590426527
 30
0.0
 10
10.14192459460054
 20
6.372851652284742
 30
0.0
 10
10.14122554713662
 20
6.374816015579032
 30
0.0
 10
10.14044215554643
 20
6.376673491435626
 30
0.0
 10
10.1396406396021
 20
6.378432361848457
 30
0.0
 10
10.1387974895333
 20
6.380097053762806
 30
0.0
 10
10.13790060951111
 20
6.381657407780028
 30
0.0
 10
10.13697601581568
 20
6.383128526800271
 30
0.0
 10
10.13600671304448
 20
6.384501209713461
 30
0.0
 10
10.1349953522326
 20
6.385773630541695
 30
0.0
 10
10.13428467758094
 20
6.386541339922175
 30
0.0
 10
10.13393208757786
 20
6.386922226805069
 30
0.0
  0
SPLINE
  5
2D8
330
1F
100
AcDbEntity
  8
0
  6
Continuous
 62
     7
370
    18
100
AcDbSpline
210
0.0
220
0.0
230
1.0
 70
     8
 71
     3
 72
    15
 73
    11
 74
     0
 42
0.000000001
 43
0.00000001
 40
0.0
 40
0.0
 40
0.0
 40
0.0
 40
0.0874250109285979
 40
0.1852478649797585
 40
0.2927383539894201
 40
0.4112061016770257
 40
0.541245594232324
 40
0.6827809385249545
 40
0.8360339502048014
 40
1.0
 40
1.0
 40
1.0
 40
1.0
 10
10.13393208757786
 20
6.386922226805069
 30
0.0
 10
10.13365658762496
 20
6.387197693990469
 30
0.0
 10
10.13307282129155
 20
6.387781390891677
 30
0.0
 10
10.13212005802717
 20
6.388610631927401
 30
0.0
 10
10.13105676458594
 20
6.389481420217898
 30
0.0
 10
10.1298724604591
 20
6.390345458294338
 30
0.0
 10
10.12857313523281
 20
6.391270827055832
 30
0.0
 10
10.12715071234213
 20
6.392198490924311
 30
0.0
 10
10.12561265178089
 20
6.39313466491611
 30
0.0
 10
10.1245488738471
 20
6.393763487967725
 30
0.0
 10
10.1239990220669
 20
6.394088517716296
 30
0.0
  0
LINE
  5
2D9
330
1F
100
AcDbEntity
  8
0
  6
Continuous
 62
     7
370
    18
100
AcDbLine
 10
10.1239990221
 20
6.3940885177
 30
0.0
 11
10.1118144617
 21
6.4011225147
 31
0.0
  0
SPLINE
  5
2DA
330
1F
100
AcDbEntity
  8
0
  6
Continuous
 62
     7
370
    18
100
AcDbSpline
210
0.0
220
0.0
230
1.0
 70
     8
 71
     3
 72
    15
 73
    11
 74
     0
 42
0.000000001
 43
0.00000001
 40
0.0
 40
0.0
 40
0.0
 40
0.0
 40
0.0874250109285979
 40
0.1852478649797585
 40
0.2927383539894201
 40
0.4112061016770257
 40
0.541245594232324
 40
0.6827809385249545
 40
0.8360339502048014
 40
1.0
 40
1.0
 40
1.0
 40
1.0
 10
10.13322498079668
 20
6.386514022749157
 30
0.0
 10
10.13294948084377
 20
6.386789489934557
 30
0.0
 10
10.13236571451037
 20
6.387373186835765
 30
0.0
 10
10.13141295124598
 20
6.388202427871489
 30
0.0
 10
10.13034965780476
 20
6.389073216161986
 30
0.0
 10
10.12916535367791
 20
6.389937254238427
 30
0.0
 10
10.12786602845162
 20
6.390862622999921
 30
0.0
 10
10.12644360556094
 20
6.391790286868399
 30
0.0
 10
10.12490554499971
 20
6.392726460860199
 30
0.0
 10
10.12384176706591
 20
6.393355283911813
 30
0.0
 10
10.12329191528572
 20
6.393680313660385
 30
0.0
  0
SPLINE
  5
2DB
330
1F
100
AcDbEntity
  8
0
  6
Continuous
 62
     7
370
    18
100
AcDbSpline
210
0.0
220
0.0
230
1.0
 70
     8
 71
     3
 72
    23
 73
    19
 74
     0
 42
0.000000001
 43
0.00000001
 40
0.0
 40
0.0
 40
0.0
 40
0.0
 40
0.0912609520412068
 40
0.1774380523622645
 40
0.2586781753433991
 40
0.334778254375936
 40
0.4064987035437802
 40
0.4737257195372777
 40
0.5371521470015597
 40
0.5974031390993008
 40
0.6545219121410196
 40
0.7092765662779076
 40
0.761510094777904
 40
0.8118413153607337
 40
0.8605996190280614
 40
0.9078026946136555
 40
0.9542577632202353
 40
1.0
 40
1.0
 40
1.0
 40
1.0
 10
10.14347108837222
 20
6.35586485222559
 30
0.0
 10
10.14346275169048
 20
6.356755172511018
 30
0.0
 10
10.14344654273649
 20
6.358486216225679
 30
0.0
 10
10.14329532954512
 20
6.361078147993124
 30
0.0
 10
10.14307614276693
 20
6.363554519531188
 30
0.0
 10
10.1427507572013
 20
6.365934065566056
 30
0.0
 10
10.14233586718391
 20
6.368206043732865
 30
0.0
 10
10.14181424386112
 20
6.370377700209358
 30
0.0
 10
10.14121748781936
 20
6.372443448228831
 30
0.0
 10
10.14051844035543
 20
6.374407811523121
 30
0.0
 10
10.13973504876524
 20
6.376265287379715
 30
0.0
 10
10.13893353282091
 20
6.378024157792546
 30
0.0
 10
10.13809038275212
 20
6.379688849706894
 30
0.0
 10
10.13719350272993
 20
6.381249203724117
 30
0.0
 10
10.1362689090345
 20
6.38272032274436
 30
0.0
 10
10.13529960626329
 20
6.384093005657549
 30
0.0
 10
10.13428824545141
 20
6.385365426485785
 30
0.0
 10
10.13357757079975
 20
6.386133135866263
 30
0.0
 10
10.13322498079668
 20
6.386514022749157
 30
0.0
  0
SPLINE
  5
2DC
330
1F
100
AcDbEntity
  8
0
  6
Continuous
 62
     7
370
    18
100
AcDbSpline
210
0.0
220
0.0
230
1.0
 70
     8
 71
     3
 72
    15
 73
    11
 74
     0
 42
0.000000001
 43
0.00000001
 40
0.0
 40
0.0
 40
0.0
 40
0.0
 40
0.0977695964822331
 40
0.2008523784955819
 40
0.3104302888087518
 40
0.4285493214350529
 40
0.5551842864614315
 40
0.6918447589416411
 40
0.8400944459418304
 40
1.0
 40
1.0
 40
1.0
 40
1.0
 10
10.13769185025676
 20
6.336886115290428
 30
0.0
 10
10.13813520292372
 20
6.337215665692576
 30
0.0
 10
10.13904600179039
 20
6.33789267556566
 30
0.0
 10
10.14018124638653
 20
6.339338097978598
 30
0.0
 10
10.14116882737771
 20
6.341139075767965
 30
0.0
 10
10.14201107776924
 20
6.34329951488397
 30
0.0
 10
10.14267149746744
 20
6.345855959395342
 30
0.0
 10
10.14312802841924
 20
6.348822295806136
 30
0.0
 10
10.14342219060812
 20
6.352173626494303
 30
0.0
 10
10.14345438322592
 20
6.354603803443308
 30
0.0
 10
10.14347108837222
 20
6.35586485222559
 30
0.0
  0
SPLINE
  5
2DD
330
1F
100
AcDbEntity
  8
0
  6
Continuous
 62
     7
370
    18
100
AcDbSpline
210
0.0
220
0.0
230
1.0
 70
     8
 71
     3
 72
    15
 73
    11
 74
     0
 42
0.000000001
 43
0.00000001
 40
0.0
 40
0.0
 40
0.0
 40
0.0
 40
0.1779933312737979
 40
0.3367237259982457
 40
0.4762209971933655
 40
0.5976674382561524
 40
0.7073637327202694
 40
0.8092389540542927
 40
0.9070683407136616
 40
1.0
 40
1.0
 40
1.0
 40
1.0
 10
10.12349659663564
 20
6.34017294670119
 30
0.0
 10
10.12440003211672
 20
6.339666838544812
 30
0.0
 10
10.12610913076223
 20
6.338709394673437
 30
0.0
 10
10.12851974951273
 20
6.337546941226262
 30
0.0
 10
10.13062685864372
 20
6.336714919853502
 30
0.0
 10
10.13244361938013
 20
6.336245460205313
 30
0.0
 10
10.1340202363729
 20
6.336049624382045
 30
0.0
 10
10.13541128912084
 20
6.336092347468313
 30
0.0
 10
10.13665261950814
 20
6.336331291591002
 30
0.0
 10
10.13735142050277
 20
6.336704366919573
 30
0.0
 10
10.13769185025676
 20
6.336886115290428
 30
0.0
  0
LINE
  5
2DE
330
1F
100
AcDbEntity
  8
0
  6
Continuous
 62
     7
370
    18
100
AcDbLine
 10
10.1111073549
 20
6.3473251037
 30
0.0
 11
10.1234965966
 21
6.3401729467
 31
0.0
  0
LINE
  5
2DF
330
1F
100
AcDbEntity
  8
0
  6
Continuous
 62
     7
370
    18
100
AcDbLine
 10
10.1111073549
 20
6.4007143106
 30
0.0
 11
10.1111073549
 21
6.3473251037
 31
0.0
  0
LINE
  5
2E0
330
1F
100
AcDbEntity
  8
0
  6
Continuous
 62
     7
370
    18
100
AcDbLine
 10
10.1232919153
 20
6.3936803137
 30
0.0
 11
10.1111073549
 21
6.4007143106
 31
0.0
  0
LINE
  5
2E1
330
1F
100
AcDbEntity
  8
0
  6
Continuous
 62
     7
370
    18
100
AcDbLine
 10
10.1339320876
 20
6.3869222268
 30
0.0
 11
10.1332249808
 21
6.3865140227
 31
0.0
  0
LINE
  5
2E2
330
1F
100
AcDbEntity
  8
0
  6
Continuous
 62
     7
370
    18
100
AcDbLine
 10
10.1441781952
 20
6.3562730563
 30
0.0
 11
10.1434710884
 21
6.3558648522
 31
0.0
  0
LINE
  5
2E3
330
1F
100
AcDbEntity
  8
0
  6
Continuous
 62
     7
370
    18
100
AcDbLine
 10
10.1239990221
 20
6.3940885177
 30
0.0
 11
10.1232919153
 21
6.3936803137
 31
0.0
  0
LINE
  5
2E4
330
1F
100
AcDbEntity
  8
0
  6
Continuous
 62
     7
370
    18
100
AcDbLine
 10
10.1248659078
 20
6.3321904873
 30
0.0
 11
10.124158801
 21
6.3317822832
 31
0.0
  0
LINE
  5
2E5
330
1F
100
AcDbEntity
  8
0
  6
Continuous
 62
     7
370
    18
100
AcDbLine
 10
10.1118144617
 20
6.4011225147
 30
0.0
 11
10.1111073549
 21
6.4007143106
 31
0.0
  0
LINE
  5
2E6
330
1F
100
AcDbEntity
  8
0
  6
Continuous
 62
     7
370
    18
100
AcDbLine
 10
10.138398957
 20
6.3372943193
 30
0.0
 11
10.1376918503
 21
6.3368861153
 31
0.0
  0
LINE
  5
2E7
330
1F
100
AcDbEntity
  8
0
  6
Continuous
 62
     7
370
    18
100
AcDbLine
 10
10.1033382458
 20
6.344618142
 30
0.0
 11
10.102631139
 21
6.3442099379
 31
0.0
  0
LINE
  5
2E8
330
1F
100
AcDbEntity
  8
0
  6
Continuous
 62
     7
370
    18
100
AcDbLine
 10
10.0093293058
 20
6.3988883479
 30
0.0
 11
10.0093293058
 21
6.4674779088
 31
0.0
  0
SPLINE
  5
2E9
330
1F
100
AcDbEntity
  8
0
  6
Continuous
 62
     7
370
    18
100
AcDbSpline
210
0.0
220
0.0
230
1.0
 70
     8
 71
     3
 72
    15
 73
    11
 74
     0
 42
0.000000001
 43
0.00000001
 40
0.0
 40
0.0
 40
0.0
 40
0.0
 40
0.0892047702332417
 40
0.1898334556643487
 40
0.2992325919749821
 40
0.4192609378429098
 40
0.5492073901909378
 40
0.689074363684346
 40
0.8395791979483163
 40
1.0
 40
1.0
 40
1.0
 40
1.0
 10
10.03822549636985
 20
6.39271793226736
 30
0.0
 10
10.03830940280894
 20
6.392998671757423
 30
0.0
 10
10.03848796107711
 20
6.393596103345452
 30
0.0
 10
10.03877743257319
 20
6.394530428603308
 30
0.0
 10
10.03908543848668
 20
6.395571480787072
 30
0.0
 10
10.03945402715457
 20
6.396674035689135
 30
0.0
 10
10.03983823721847
 20
6.397884682451973
 30
0.0
 10
10.04024151568376
 20
6.399200241561181
 30
0.0
 10
10.04070668954027
 20
6.400580530936094
 30
0.0
 10
10.04101582081569
 20
6.401543582580691
 30
0.0
 10
10.04117531582462
 20
6.402040465112072
 30
0.0
  0
LINE
  5
2EA
330
1F
100
AcDbEntity
  8
0
  6
Continuous
 62
     7
370
    18
100
AcDbLine
 10
10.0411753158
 20
6.4020404651
 30
0.0
 11
10.0542527009
 21
6.4415441848
 31
0.0
  0
LINE
  5
2EB
330
1F
100
AcDbEntity
  8
0
  6
Continuous
 62
     7
370
    18
100
AcDbLine
 10
10.0664145802
 20
6.3659337205
 30
0.0
 11
10.058645471
 21
6.3704187317
 31
0.0
  0
LINE
  5
2EC
330
1F
100
AcDbEntity
  8
0
  6
Continuous
 62
     7
370
    18
100
AcDbLine
 10
10.058645471
 20
6.3704187317
 30
0.0
 11
10.058645471
 21
6.4291468593
 31
0.0
  0
LINE
  5
2ED
330
1F
100
AcDbEntity
  8
0
  6
Continuous
 62
     7
370
    18
100
AcDbLine
 10
10.042123922
 20
6.379956419
 30
0.0
 11
10.0337465868
 21
6.3847925516
 31
0.0
  0
LINE
  5
2EE
330
1F
100
AcDbEntity
  8
0
  6
Continuous
 62
     7
370
    18
100
AcDbLine
 10
10.0337465868
 20
6.3847925516
 30
0.0
 11
10.0178055217
 21
6.4527232602
 31
0.0
  0
LINE
  5
2EF
330
1F
100
AcDbEntity
  8
0
  6
Continuous
 62
     7
370
    18
100
AcDbLine
 10
10.0170984149
 20
6.3944033367
 30
0.0
 11
10.0093293058
 21
6.3988883479
 31
0.0
  0
LINE
  5
2F0
330
1F
100
AcDbEntity
  8
0
  6
Continuous
 62
     7
370
    18
100
AcDbLine
 10
10.0411753158
 20
6.4020404651
 30
0.0
 11
10.040468209
 21
6.4016322611
 31
0.0
  0
LINE
  5
2F1
330
1F
100
AcDbEntity
  8
0
  6
Continuous
 62
     7
370
    18
100
AcDbLine
 10
10.058645471
 20
6.4291468593
 30
0.0
 11
10.0579383643
 21
6.4287386553
 31
0.0
  0
LINE
  5
2F2
330
1F
100
AcDbEntity
  8
0
  6
Continuous
 62
     7
370
    18
100
AcDbLine
 10
10.058645471
 20
6.3704187317
 30
0.0
 11
10.0579383643
 21
6.3700105276
 31
0.0
  0
LINE
  5
2F3
330
1F
100
AcDbEntity
  8
0
  6
Continuous
 62
     7
370
    18
100
AcDbLine
 10
10.0178055217
 20
6.4527232602
 30
0.0
 11
10.0170984149
 21
6.4523150562
 31
0.0
  0
LINE
  5
2F4
330
1F
100
AcDbEntity
  8
0
  6
Continuous
 62
     7
370
    18
100
AcDbLine
 10
10.0337465868
 20
6.3847925516
 30
0.0
 11
10.03303948
 21
6.3843843475
 31
0.0
  0
LINE
  5
2F5
330
1F
100
AcDbEntity
  8
0
  6
Continuous
 62
     7
370
    18
100
AcDbLine
 10
10.0093293058
 20
6.3988883479
 30
0.0
 11
10.008622199
 21
6.3984801438
 31
0.0
  0
LINE
  5
2F6
330
1F
100
AcDbEntity
  8
0
  6
Continuous
 62
     7
370
    18
100
AcDbLine
 10
9.9471663758
 20
6.4347742435
 30
0.0
 11
9.9707491125
 21
6.4897497803
 31
0.0
  0
LINE
  5
2F7
330
1F
100
AcDbEntity
  8
0
  6
Continuous
 62
     7
370
    18
100
AcDbLine
 10
10.0034652662
 20
6.4022735859
 30
0.0
 11
9.9954591343
 21
6.4068954275
 31
0.0
  0
LINE
  5
2F8
330
1F
100
AcDbEntity
  8
0
  6
Continuous
 62
     7
370
    18
100
AcDbLine
 10
9.9954591343
 20
6.4068954275
 30
0.0
 11
9.9886203692
 21
6.4321990453
 31
0.0
  0
LINE
  5
2F9
330
1F
100
AcDbEntity
  8
0
  6
Continuous
 62
     7
370
    18
100
AcDbLine
 10
9.9886203692
 20
6.4321990453
 30
0.0
 11
9.9629990802
 21
6.4469899006
 31
0.0
  0
LINE
  5
2FA
330
1F
100
AcDbEntity
  8
0
  6
Continuous
 62
     7
370
    18
100
AcDbLine
 10
9.955714648
 20
6.429839431
 30
0.0
 11
9.9471663758
 21
6.4347742435
 31
0.0
  0
LINE
  5
2FB
330
1F
100
AcDbEntity
  8
0
  6
Continuous
 62
     7
370
    18
100
AcDbLine
 10
9.9860678724
 20
6.4416809514
 30
0.0
 11
9.9802284339
 21
6.4632932999
 31
0.0
  0
SPLINE
  5
2FC
330
1F
100
AcDbEntity
  8
0
  6
Continuous
 62
     7
370
    18
100
AcDbSpline
210
0.0
220
0.0
230
1.0
 70
     8
 71
     3
 72
    15
 73
    11
 74
     0
 42
0.000000001
 43
0.00000001
 40
0.0
 40
0.0
 40
0.0
 40
0.0
 40
0.1531481085926328
 40
0.2994334688329074
 40
0.436426351456749
 40
0.5656705729563586
 40
0.6865083102878738
 40
0.7992685160630044
 40
0.9033947408013441
 40
1.0
 40
1.0
 40
1.0
 40
1.0
 10
9.980228433865257
 20
6.463293299853913
 30
0.0
 10
9.980004570641158
 20
6.464127352793439
 30
0.0
 10
9.979566875769493
 20
6.465758083771235
 30
0.0
 10
9.978914140849717
 20
6.468137097358081
 30
0.0
 10
9.978317812745427
 20
6.470382719396289
 30
0.0
 10
9.977733064069977
 20
6.472493565275152
 30
0.0
 10
9.97720520099608
 20
6.474469238938169
 30
0.0
 10
9.976718656070638
 20
6.476307440809458
 30
0.0
 10
9.9762374672447
 20
6.47801810718055
 30
0.0
 10
9.975948699061336
 20
6.479110598901555
 30
0.0
 10
9.975809724722806
 20
6.479636378135636
 30
0.0
  0
LINE
  5
2FD
330
1F
100
AcDbEntity
  8
0
  6
Continuous
 62
     7
370
    18
100
AcDbLine
 10
10.0382254964
 20
6.3927179323
 30
0.0
 11
10.0375183896
 21
6.3923097282
 31
0.0
  0
SPLINE
  5
2FE
330
1F
100
AcDbEntity
  8
0
  6
Continuous
 62
     7
370
    18
100
AcDbSpline
210
0.0
220
0.0
230
1.0
 70
     8
 71
     3
 72
    15
 73
    11
 74
     0
 42
0.000000001
 43
0.00000001
 40
0.0
 40
0.0
 40
0.0
 40
0.0
 40
0.1531481085926328
 40
0.2994334688329074
 40
0.436426351456749
 40
0.5656705729563586
 40
0.6865083102878738
 40
0.7992685160630044
 40
0.9033947408013441
 40
1.0
 40
1.0
 40
1.0
 40
1.0
 10
9.97952132708407
 20
6.462885095798002
 30
0.0
 10
9.979297463859972
 20
6.463719148737528
 30
0.0
 10
9.978859768988306
 20
6.465349879715324
 30
0.0
 10
9.978207034068532
 20
6.467728893302169
 30
0.0
 10
9.97761070596424
 20
6.469974515340377
 30
0.0
 10
9.977025957288792
 20
6.47208536121924
 30
0.0
 10
9.976498094214895
 20
6.474061034882258
 30
0.0
 10
9.97601154928945
 20
6.475899236753547
 30
0.0
 10
9.975530360463512
 20
6.477609903124639
 30
0.0
 10
9.975241592280149
 20
6.478702394845645
 30
0.0
 10
9.975102617941621
 20
6.479228174079724
 30
0.0
  0
LINE
  5
2FF
330
1F
100
AcDbEntity
  8
0
  6
Continuous
 62
     7
370
    18
100
AcDbLine
 10
9.9853607656
 20
6.4412727473
 30
0.0
 11
9.9795213271
 21
6.4628850958
 31
0.0
  0
LINE
  5
300
330
1F
100
AcDbEntity
  8
0
  6
Continuous
 62
     7
370
    18
100
AcDbLine
 10
9.9648444703
 20
6.4531165525
 30
0.0
 11
9.9853607656
 21
6.4412727473
 31
0.0
  0
LINE
  5
301
330
1F
100
AcDbEntity
  8
0
  6
Continuous
 62
     7
370
    18
100
AcDbLine
 10
9.9709969509
 20
6.4687793542
 30
0.0
 11
9.9648444703
 21
6.4531165525
 31
0.0
  0
SPLINE
  5
302
330
1F
100
AcDbEntity
  8
0
  6
Continuous
 62
     7
370
    18
100
AcDbSpline
210
0.0
220
0.0
230
1.0
 70
     8
 71
     3
 72
    11
 73
     7
 74
     0
 42
0.000000001
 43
0.00000001
 40
0.0
 40
0.0
 40
0.0
 40
0.0
 40
0.2472885692344847
 40
0.4965585959218939
 40
0.7463647942382585
 40
1.0
 40
1.0
 40
1.0
 40
1.0
 10
9.975102617941621
 20
6.479228174079724
 30
0.0
 10
9.974872162979452
 20
6.478262751162299
 30
0.0
 10
9.974409406480872
 20
6.476324169650699
 30
0.0
 10
9.973452759618969
 20
6.47364695956171
 30
0.0
 10
9.972340460291846
 20
6.471096377726296
 30
0.0
 10
9.971447052327477
 20
6.469555601581646
 30
0.0
 10
9.970996950863755
 20
6.468779354194528
 30
0.0
  0
LINE
  5
303
330
1F
100
AcDbEntity
  8
0
  6
Continuous
 62
     7
370
    18
100
AcDbLine
 10
9.9758097247
 20
6.4796363781
 30
0.0
 11
9.9751026179
 21
6.4792281741
 31
0.0
  0
LINE
  5
304
330
1F
100
AcDbEntity
  8
0
  6
Continuous
 62
     7
370
    18
100
AcDbLine
 10
9.9802284339
 20
6.4632932999
 30
0.0
 11
9.9795213271
 21
6.4628850958
 31
0.0
  0
LINE
  5
305
330
1F
100
AcDbEntity
  8
0
  6
Continuous
 62
     7
370
    18
100
AcDbLine
 10
9.9471663758
 20
6.4347742435
 30
0.0
 11
9.946459269
 21
6.4343660395
 31
0.0
  0
LINE
  5
306
330
1F
100
AcDbEntity
  8
0
  6
Continuous
 62
     7
370
    18
100
AcDbLine
 10
9.9860678724
 20
6.4416809514
 30
0.0
 11
9.9853607656
 21
6.4412727473
 31
0.0
  0
LINE
  5
307
330
1F
100
AcDbEntity
  8
0
  6
Continuous
 62
     7
370
    18
100
AcDbLine
 10
9.9886203692
 20
6.4321990453
 30
0.0
 11
9.9879132624
 21
6.4317908412
 31
0.0
  0
LINE
  5
308
330
1F
100
AcDbEntity
  8
0
  6
Continuous
 62
     7
370
    18
100
AcDbLine
 10
9.9954591343
 20
6.4068954275
 30
0.0
 11
9.9947520275
 21
6.4064872234
 31
0.0
  0
LINE
  5
309
330
1F
100
AcDbEntity
  8
0
  6
Continuous
 62
     7
370
    18
100
AcDbLine
 10
9.9629990802
 20
6.4469899006
 30
0.0
 11
9.9622919735
 21
6.4465816965
 31
0.0
  0
LINE
  5
30A
330
1F
100
AcDbEntity
  8
0
  6
Continuous
 62
     7
370
    18
100
AcDbLine
 10
9.8999090641
 20
6.4620553089
 30
0.0
 11
9.8999090641
 21
6.5306448698
 31
0.0
  0
LINE
  5
30B
330
1F
100
AcDbEntity
  8
0
  6
Continuous
 62
     7
370
    18
100
AcDbLine
 10
9.9415830369
 20
6.4993950245
 30
0.0
 11
9.90838528
 21
6.5185596815
 31
0.0
  0
LINE
  5
30C
330
1F
100
AcDbEntity
  8
0
  6
Continuous
 62
     7
370
    18
100
AcDbLine
 10
9.9392713416
 20
6.4713654739
 30
0.0
 11
9.90838528
 21
6.4891956177
 31
0.0
  0
LINE
  5
30D
330
1F
100
AcDbEntity
  8
0
  6
Continuous
 62
     7
370
    18
100
AcDbLine
 10
9.943124167
 20
6.437107761
 30
0.0
 11
9.8999090641
 21
6.4620553089
 31
0.0
  0
LINE
  5
30E
330
1F
100
AcDbEntity
  8
0
  6
Continuous
 62
     7
370
    18
100
AcDbLine
 10
9.90838528
 20
6.5185596815
 30
0.0
 11
9.9076781733
 21
6.5181514775
 31
0.0
  0
LINE
  5
30F
330
1F
100
AcDbEntity
  8
0
  6
Continuous
 62
     7
370
    18
100
AcDbLine
 10
9.90838528
 20
6.4891956177
 30
0.0
 11
9.9076781733
 21
6.4887874137
 31
0.0
  0
LINE
  5
310
330
1F
100
AcDbEntity
  8
0
  6
Continuous
 62
     7
370
    18
100
AcDbLine
 10
9.8999090641
 20
6.4620553089
 30
0.0
 11
9.8992019574
 21
6.4616471048
 31
0.0
  0
LINE
  5
311
330
1F
100
AcDbEntity
  8
0
  6
Continuous
 62
     7
370
    18
100
AcDbLine
 10
9.8444283782
 20
6.4940836271
 30
0.0
 11
9.8444283782
 21
6.562673188
 31
0.0
  0
SPLINE
  5
312
330
1F
100
AcDbEntity
  8
0
  6
Continuous
 62
     7
370
    18
100
AcDbSpline
210
0.0
220
0.0
230
1.0
 70
     8
 71
     3
 72
     9
 73
     5
 74
     0
 42
0.000000001
 43
0.00000001
 40
0.0
 40
0.0
 40
0.0
 40
0.0
 40
0.4038165270958612
 40
1.0
 40
1.0
 40
1.0
 40
1.0
 10
9.882785127889298
 20
6.51249585828648
 30
0.0
 10
9.882198231643416
 20
6.512153086222547
 30
0.0
 10
9.88074485812722
 20
6.51130425503082
 30
0.0
 10
9.878894557138175
 20
6.511305453013431
 30
0.0
 10
9.877791438268604
 20
6.511306167230865
 30
0.0
  0
SPLINE
  5
313
330
1F
100
AcDbEntity
  8
0
  6
Continuous
 62
     7
370
    18
100
AcDbSpline
210
0.0
220
0.0
230
1.0
 70
     8
 71
     3
 72
    10
 73
     6
 74
     0
 42
0.000000001
 43
0.00000001
 40
0.0
 40
0.0
 40
0.0
 40
0.0
 40
0.2411943785815457
 40
0.6200734639607197
 40
1.0
 40
1.0
 40
1.0
 40
1.0
 10
9.88416682028511
 20
6.477219461016229
 30
0.0
 10
9.883056050864079
 20
6.476695186885832
 30
0.0
 10
9.880200434383244
 20
6.475347359137883
 30
0.0
 10
9.873953589288611
 20
6.477340037933548
 30
0.0
 10
9.86931432246165
 20
6.479817687020542
 30
0.0
 10
9.866991487040327
 20
6.481058221629896
 30
0.0
  0
LINE
  5
314
330
1F
100
AcDbEntity
  8
0
  6
Continuous
 62
     7
370
    18
100
AcDbLine
 10
9.866991487
 20
6.4810582216
 30
0.0
 11
9.8444283782
 21
6.4940836271
 31
0.0
  0
SPLINE
  5
315
330
1F
100
AcDbEntity
  8
0
  6
Continuous
 62
     7
370
    18
100
AcDbSpline
210
0.0
220
0.0
230
1.0
 70
     8
 71
     3
 72
     9
 73
     5
 74
     0
 42
0.000000001
 43
0.00000001
 40
0.0
 40
0.0
 40
0.0
 40
0.0
 40
0.2972916703249253
 40
1.0
 40
1.0
 40
1.0
 40
1.0
 10
9.87594551464854
 20
6.519246538302682
 30
0.0
 10
9.87643275524255
 20
6.519532334417303
 30
0.0
 10
9.878071686442595
 20
6.52049366681625
 30
0.0
 10
9.878225297836149
 20
6.523177628811577
 30
0.0
 10
9.87833324184193
 20
6.525063671262225
 30
0.0
  0
SPLINE
  5
316
330
1F
100
AcDbEntity
  8
0
  6
Continuous
 62
     7
370
    18
100
AcDbSpline
210
0.0
220
0.0
230
1.0
 70
     8
 71
     3
 72
    23
 73
    19
 74
     0
 42
0.000000001
 43
0.00000001
 40
0.0
 40
0.0
 40
0.0
 40
0.0
 40
0.0759917916873446
 40
0.1480992384688295
 40
0.2183194139888902
 40
0.2870085041191562
 40
0.3537649922415742
 40
0.4187540830454841
 40
0.4837636608299581
 40
0.5503403773656034
 40
0.5870295842959881
 40
0.6292491933521548
 40
0.6773177465342536
 40
0.7301091520056675
 40
0.7889145862889017
 40
0.8537864845156152
 40
0.9241284644212688
 40
1.0
 40
1.0
 40
1.0
 40
1.0
 10
9.87833324184193
 20
6.525063671262225
 30
0.0
 10
9.878317720348404
 20
6.525643864085752
 30
0.0
 10
9.87828747074749
 20
6.526774592989772
 30
0.0
 10
9.87803170555841
 20
6.528543343569206
 30
0.0
 10
9.877591713540268
 20
6.530303025930391
 30
0.0
 10
9.877013140064262
 20
6.53203723657828
 30
0.0
 10
9.876247951060842
 20
6.533707137132444
 30
0.0
 10
9.875339666316902
 20
6.535285595886013
 30
0.0
 10
9.87425929598535
 20
6.536718181676775
 30
0.0
 10
9.8732493004141
 20
6.537802282991354
 30
0.0
 10
9.872341425383818
 20
6.538640376482489
 30
0.0
 10
9.87153018322982
 20
6.539294382835691
 30
0.0
 10
9.870610020658901
 20
6.53998922086085
 30
0.0
 10
9.869577876090304
 20
6.540724176276026
 30
0.0
 10
9.868433369779464
 20
6.541492851556928
 30
0.0
 10
9.867172971964466
 20
6.542306234532994
 30
0.0
 10
9.865799683974721
 20
6.543135433200283
 30
0.0
 10
9.864848360259911
 20
6.543690144171565
 30
0.0
 10
9.864354709650145
 20
6.543977988787393
 30
0.0
  0
LINE
  5
317
330
1F
100
AcDbEntity
  8
0
  6
Continuous
 62
     7
370
    18
100
AcDbLine
 10
9.8643547097
 20
6.5439779888
 30
0.0
 11
9.8529045941
 21
6.5505879998
 31
0.0
  0
SPLINE
  5
318
330
1F
100
AcDbEntity
  8
0
  6
Continuous
 62
     7
370
    18
100
AcDbSpline
210
0.0
220
0.0
230
1.0
 70
     8
 71
     3
 72
    10
 73
     6
 74
     0
 42
0.000000001
 43
0.00000001
 40
0.0
 40
0.0
 40
0.0
 40
0.0
 40
0.2327047756779312
 40
0.616101093528835
 40
1.0
 40
1.0
 40
1.0
 40
1.0
 10
9.877584717777792
 20
6.486452869306212
 30
0.0
 10
9.878080831022883
 20
6.486646247056865
 30
0.0
 10
9.879394323244625
 20
6.487158227282858
 30
0.0
 10
9.880408577109831
 20
6.489694472854127
 30
0.0
 10
9.880566116031988
 20
6.492029118069346
 30
0.0
 10
9.880644937088116
 20
6.493197205288854
 30
0.0
  0
SPLINE
  5
319
330
1F
100
AcDbEntity
  8
0
  6
Continuous
 62
     7
370
    18
100
AcDbSpline
210
0.0
220
0.0
230
1.0
 70
     8
 71
     3
 72
    19
 73
    15
 74
     0
 42
0.000000001
 43
0.00000001
 40
0.0
 40
0.0
 40
0.0
 40
0.0
 40
0.0801171945698666
 40
0.1562367079050306
 40
0.2293410460817586
 40
0.3019517190328914
 40
0.3732332809350858
 40
0.4427388184259717
 40
0.5128783538514354
 40
0.5860843325765315
 40
0.667835977289547
 40
0.763743588503143
 40
0.8741164363352616
 40
1.0
 40
1.0
 40
1.0
 40
1.0
 10
9.880644937088116
 20
6.493197205288855
 30
0.0
 10
9.880628200892744
 20
6.493838742508691
 30
0.0
 10
9.880595563603313
 20
6.495089805576536
 30
0.0
 10
9.88029024365129
 20
6.497048284159902
 30
0.0
 10
9.879774303316978
 20
6.498994916973936
 30
0.0
 10
9.879084875552094
 20
6.50091422767905
 30
0.0
 10
9.878191121804914
 20
6.502769279253504
 30
0.0
 10
9.877126291182782
 20
6.504513846709028
 30
0.0
 10
9.875902001606832
 20
6.506138129145249
 30
0.0
 10
9.87448597746444
 20
6.507662504179244
 30
0.0
 10
9.872826908252254
 20
6.509130390518489
 30
0.0
 10
9.870881298993964
 20
6.510593971121605
 30
0.0
 10
9.868620781072378
 20
6.512122832285717
 30
0.0
 10
9.867008008613698
 20
6.513072356090423
 30
0.0
 10
9.866148681481821
 20
6.513578287081094
 30
0.0
  0
LINE
  5
31A
330
1F
100
AcDbEntity
  8
0
  6
Continuous
 62
     7
370
    18
100
AcDbLine
 10
9.8661486815
 20
6.5135782871
 30
0.0
 11
9.8529045941
 21
6.521223936
 31
0.0
  0
LINE
  5
31B
330
1F
100
AcDbEntity
  8
0
  6
Continuous
 62
     7
370
    18
100
AcDbLine
 10
9.8643547097
 20
6.5439779888
 30
0.0
 11
9.8636476029
 21
6.5435697847
 31
0.0
  0
LINE
  5
31C
330
1F
100
AcDbEntity
  8
0
  6
Continuous
 62
     7
370
    18
100
AcDbLine
 10
9.8783332418
 20
6.5250636713
 30
0.0
 11
9.8776261351
 21
6.5246554672
 31
0.0
  0
SPLINE
  5
31D
330
1F
100
AcDbEntity
  8
0
  6
Continuous
 62
     7
370
    18
100
AcDbSpline
210
0.0
220
0.0
230
1.0
 70
     8
 71
     3
 72
    23
 73
    19
 74
     0
 42
0.000000001
 43
0.00000001
 40
0.0
 40
0.0
 40
0.0
 40
0.0
 40
0.0759917916873446
 40
0.1480992384688295
 40
0.2183194139888902
 40
0.2870085041191562
 40
0.3537649922415742
 40
0.4187540830454841
 40
0.4837636608299581
 40
0.5503403773656034
 40
0.5870295842959881
 40
0.6292491933521548
 40
0.6773177465342536
 40
0.7301091520056675
 40
0.7889145862889017
 40
0.8537864845156152
 40
0.9241284644212688
 40
1.0
 40
1.0
 40
1.0
 40
1.0
 10
9.877626135060744
 20
6.524655467206315
 30
0.0
 10
9.877610613567217
 20
6.52523566002984
 30
0.0
 10
9.877580363966302
 20
6.526366388933862
 30
0.0
 10
9.877324598777225
 20
6.528135139513295
 30
0.0
 10
9.87688460675908
 20
6.529894821874479
 30
0.0
 10
9.876306033283075
 20
6.531629032522369
 30
0.0
 10
9.875540844279655
 20
6.533298933076532
 30
0.0
 10
9.874632559535717
 20
6.534877391830102
 30
0.0
 10
9.873552189204165
 20
6.536309977620863
 30
0.0
 10
9.872542193632915
 20
6.537394078935443
 30
0.0
 10
9.871634318602633
 20
6.538232172426577
 30
0.0
 10
9.870823076448636
 20
6.538886178779779
 30
0.0
 10
9.869902913877715
 20
6.539581016804939
 30
0.0
 10
9.868870769309115
 20
6.540315972220114
 30
0.0
 10
9.867726262998278
 20
6.541084647501016
 30
0.0
 10
9.866465865183278
 20
6.541898030477083
 30
0.0
 10
9.865092577193536
 20
6.542727229144371
 30
0.0
 10
9.864141253478724
 20
6.543281940115653
 30
0.0
 10
9.863647602868959
 20
6.543569784731482
 30
0.0
  0
SPLINE
  5
31E
330
1F
100
AcDbEntity
  8
0
  6
Continuous
 62
     7
370
    18
100
AcDbSpline
210
0.0
220
0.0
230
1.0
 70
     8
 71
     3
 72
    15
 73
    11
 74
     0
 42
0.000000001
 43
0.00000001
 40
0.0
 40
0.0
 40
0.0
 40
0.0
 40
0.1323094633054704
 40
0.255064957497921
 40
0.3743679525391908
 40
0.4905979041316623
 40
0.6083390179302173
 40
0.730174617772944
 40
0.8600686764279902
 40
1.0
 40
1.0
 40
1.0
 40
1.0
 10
9.871810776707056
 20
6.518321904929725
 30
0.0
 10
9.87227123557478
 20
6.518242012995159
 30
0.0
 10
9.87315890391378
 20
6.51808799806391
 30
0.0
 10
9.8743480497308
 20
6.518222009510358
 30
0.0
 10
9.875372032852276
 20
6.518599373717305
 30
0.0
 10
9.876204810442266
 20
6.5192831038076
 30
0.0
 10
9.876846595617206
 20
6.520237837026822
 30
0.0
 10
9.877309977426497
 20
6.521453053829994
 30
0.0
 10
9.877569132791642
 20
6.522947776433854
 30
0.0
 10
9.877606668868125
 20
6.524072293272465
 30
0.0
 10
9.877626135060744
 20
6.524655467206315
 30
0.0
  0
SPLINE
  5
31F
330
1F
100
AcDbEntity
  8
0
  6
Continuous
 62
     7
370
    18
100
AcDbSpline
210
0.0
220
0.0
230
1.0
 70
     8
 71
     3
 72
    15
 73
    11
 74
     0
 42
0.000000001
 43
0.00000001
 40
0.0
 40
0.0
 40
0.0
 40
0.0
 40
0.1669801744060323
 40
0.320806632884817
 40
0.4631345048703167
 40
0.5942480539785205
 40
0.712367152539743
 40
0.8194549510427513
 40
0.915752266581354
 40
1.0
 40
1.0
 40
1.0
 40
1.0
 10
9.86458672906272
 20
6.521671955947328
 30
0.0
 10
9.864992135899342
 20
6.521439771735887
 30
0.0
 10
9.865771014006684
 20
6.520993693419428
 30
0.0
 10
9.86689452711994
 20
6.520394718434506
 30
0.0
 10
9.867931475869836
 20
6.519838429643247
 30
0.0
 10
9.868877849200015
 20
6.519398342418
 30
0.0
 10
9.869738335520427
 20
6.519005654017976
 30
0.0
 10
9.870509491269237
 20
6.518700555963814
 30
0.0
 10
9.87119509360967
 20
6.51846260531595
 30
0.0
 10
9.871614888038968
 20
6.518366670835064
 30
0.0
 10
9.871810776707056
 20
6.518321904929725
 30
0.0
  0
LINE
  5
320
330
1F
100
AcDbEntity
  8
0
  6
Continuous
 62
     7
370
    18
100
AcDbLine
 10
9.8521974874
 20
6.5288241129
 30
0.0
 11
9.8645867291
 21
6.5216719559
 31
0.0
  0
LINE
  5
321
330
1F
100
AcDbEntity
  8
0
  6
Continuous
 62
     7
370
    18
100
AcDbLine
 10
9.8521974874
 20
6.5501797957
 30
0.0
 11
9.8521974874
 21
6.5288241129
 31
0.0
  0
LINE
  5
322
330
1F
100
AcDbEntity
  8
0
  6
Continuous
 62
     7
370
    18
100
AcDbLine
 10
9.8636476029
 20
6.5435697847
 30
0.0
 11
9.8521974874
 21
6.5501797957
 31
0.0
  0
LINE
  5
323
330
1F
100
AcDbEntity
  8
0
  6
Continuous
 62
     7
370
    18
100
AcDbLine
 10
9.8777914383
 20
6.5113061672
 30
0.0
 11
9.8770843315
 21
6.5108979632
 31
0.0
  0
LINE
  5
324
330
1F
100
AcDbEntity
  8
0
  6
Continuous
 62
     7
370
    18
100
AcDbLine
 10
9.8529045941
 20
6.5505879998
 30
0.0
 11
9.8521974874
 21
6.5501797957
 31
0.0
  0
LINE
  5
325
330
1F
100
AcDbEntity
  8
0
  6
Continuous
 62
     7
370
    18
100
AcDbLine
 10
9.8661486815
 20
6.5135782871
 30
0.0
 11
9.8654415747
 21
6.513170083
 31
0.0
  0
LINE
  5
326
330
1F
100
AcDbEntity
  8
0
  6
Continuous
 62
     7
370
    18
100
AcDbLine
 10
9.8806449371
 20
6.4931972053
 30
0.0
 11
9.8799378303
 21
6.4927890012
 31
0.0
  0
SPLINE
  5
327
330
1F
100
AcDbEntity
  8
0
  6
Continuous
 62
     7
370
    18
100
AcDbSpline
210
0.0
220
0.0
230
1.0
 70
     8
 71
     3
 72
    19
 73
    15
 74
     0
 42
0.000000001
 43
0.00000001
 40
0.0
 40
0.0
 40
0.0
 40
0.0
 40
0.0801171945698666
 40
0.1562367079050306
 40
0.2293410460817586
 40
0.3019517190328914
 40
0.3732332809350858
 40
0.4427388184259717
 40
0.5128783538514354
 40
0.5860843325765315
 40
0.667835977289547
 40
0.763743588503143
 40
0.8741164363352616
 40
1.0
 40
1.0
 40
1.0
 40
1.0
 10
9.87993783030693
 20
6.492789001232944
 30
0.0
 10
9.879921094111559
 20
6.493430538452779
 30
0.0
 10
9.879888456822126
 20
6.494681601520625
 30
0.0
 10
9.879583136870105
 20
6.49664008010399
 30
0.0
 10
9.87906719653579
 20
6.498586712918025
 30
0.0
 10
9.878377768770909
 20
6.500506023623138
 30
0.0
 10
9.877484015023725
 20
6.502361075197592
 30
0.0
 10
9.876419184401596
 20
6.504105642653117
 30
0.0
 10
9.875194894825647
 20
6.505729925089337
 30
0.0
 10
9.873778870683253
 20
6.507254300123332
 30
0.0
 10
9.872119801471067
 20
6.508722186462577
 30
0.0
 10
9.87017419221278
 20
6.510185767065693
 30
0.0
 10
9.867913674291193
 20
6.511714628229806
 30
0.0
 10
9.86630090183251
 20
6.512664152034511
 30
0.0
 10
9.865441574700634
 20
6.513170083025183
 30
0.0
  0
SPLINE
  5
328
330
1F
100
AcDbEntity
  8
0
  6
Continuous
 62
     7
370
    18
100
AcDbSpline
210
0.0
220
0.0
230
1.0
 70
     8
 71
     3
 72
    19
 73
    15
 74
     0
 42
0.000000001
 43
0.00000001
 40
0.0
 40
0.0
 40
0.0
 40
0.0
 40
0.0889746355187116
 40
0.1722778979832331
 40
0.2510888193166931
 40
0.3254350616209111
 40
0.3979644757227705
 40
0.4734240254266163
 40
0.5519522794648651
 40
0.6356010187551772
 40
0.7218551388160774
 40
0.8102538553165373
 40
0.9031712343244956
 40
1.0
 40
1.0
 40
1.0
 40
1.0
 10
9.871557935039503
 20
6.485947722783238
 30
0.0
 10
9.871977533572528
 20
6.485807149050597
 30
0.0
 10
9.872789984816018
 20
6.485534961960087
 30
0.0
 10
9.873937890243022
 20
6.485316076384659
 30
0.0
 10
9.87499396640737
 20
6.485204317385613
 30
0.0
 10
9.875932312598293
 20
6.485302240383895
 30
0.0
 10
9.876789476128556
 20
6.485554687082266
 30
0.0
 10
9.877542131223198
 20
6.486037218140598
 30
0.0
 10
9.878240731660567
 20
6.486684025156272
 30
0.0
 10
9.878829814594877
 20
6.487549971589576
 30
0.0
 10
9.879332078626437
 20
6.488577719178959
 30
0.0
 10
9.879675216040148
 20
6.489817396226907
 30
0.0
 10
9.879899270837678
 20
6.491216925117723
 30
0.0
 10
9.879924801721113
 20
6.492257823574738
 30
0.0
 10
9.87993783030693
 20
6.492789001232944
 30
0.0
  0
SPLINE
  5
329
330
1F
100
AcDbEntity
  8
0
  6
Continuous
 62
     7
370
    18
100
AcDbSpline
210
0.0
220
0.0
230
1.0
 70
     8
 71
     3
 72
    11
 73
     7
 74
     0
 42
0.000000001
 43
0.00000001
 40
0.0
 40
0.0
 40
0.0
 40
0.0
 40
0.3293005127679522
 40
0.6051256922032391
 40
0.8275907258822829
 40
1.0
 40
1.0
 40
1.0
 40
1.0
 10
9.866416821132619
 20
6.488581942124797
 30
0.0
 10
9.866982876795134
 20
6.488253637109148
 30
0.0
 10
9.86802306595769
 20
6.487650340751733
 30
0.0
 10
9.869443282414442
 20
6.486912006941504
 30
0.0
 10
9.870595791912667
 20
6.486316974082983
 30
0.0
 10
9.871265519740728
 20
6.486059945929801
 30
0.0
 10
9.871557935039503
 20
6.485947722783238
 30
0.0
  0
LINE
  5
32A
330
1F
100
AcDbEntity
  8
0
  6
Continuous
 62
     7
370
    18
100
AcDbLine
 10
9.8521974874
 20
6.4967905888
 30
0.0
 11
9.8664168211
 21
6.4885819421
 31
0.0
  0
LINE
  5
32B
330
1F
100
AcDbEntity
  8
0
  6
Continuous
 62
     7
370
    18
100
AcDbLine
 10
9.8521974874
 20
6.5208157319
 30
0.0
 11
9.8521974874
 21
6.4967905888
 31
0.0
  0
LINE
  5
32C
330
1F
100
AcDbEntity
  8
0
  6
Continuous
 62
     7
370
    18
100
AcDbLine
 10
9.8654415747
 20
6.513170083
 30
0.0
 11
9.8521974874
 21
6.5208157319
 31
0.0
  0
LINE
  5
32D
330
1F
100
AcDbEntity
  8
0
  6
Continuous
 62
     7
370
    18
100
AcDbLine
 10
9.866991487
 20
6.4810582216
 30
0.0
 11
9.8662843803
 21
6.4806500176
 31
0.0
  0
LINE
  5
32E
330
1F
100
AcDbEntity
  8
0
  6
Continuous
 62
     7
370
    18
100
AcDbLine
 10
9.8444283782
 20
6.4940836271
 30
0.0
 11
9.8437212715
 21
6.493675423
 31
0.0
  0
LINE
  5
32F
330
1F
100
AcDbEntity
  8
0
  6
Continuous
 62
     7
370
    18
100
AcDbLine
 10
9.8529045941
 20
6.521223936
 30
0.0
 11
9.8521974874
 21
6.5208157319
 31
0.0
  0
LINE
  5
330
330
1F
100
AcDbEntity
  8
0
  6
Continuous
 62
     7
370
    18
100
AcDbLine
 10
9.7505157589
 20
6.5482982283
 30
0.0
 11
9.7505157589
 21
6.5982015667
 31
0.0
  0
SPLINE
  5
331
330
1F
100
AcDbEntity
  8
0
  6
Continuous
 62
     7
370
    18
100
AcDbSpline
210
0.0
220
0.0
230
1.0
 70
     8
 71
     3
 72
     9
 73
     5
 74
     0
 42
0.000000001
 43
0.00000001
 40
0.0
 40
0.0
 40
0.0
 40
0.0
 40
0.9884647936364533
 40
1.0
 40
1.0
 40
1.0
 40
1.0
 10
9.758221409675475
 20
6.586658540355146
 30
0.0
 10
9.75895080451957
 20
6.587715341931023
 30
0.0
 10
9.75968871127031
 20
6.588784476191222
 30
0.0
 10
9.760847037216132
 20
6.589125099113938
 30
0.0
 10
9.760860398744954
 20
6.589129028269643
 30
0.0
  0
SPLINE
  5
332
330
1F
100
AcDbEntity
  8
0
  6
Continuous
 62
     7
370
    18
100
AcDbSpline
210
0.0
220
0.0
230
1.0
 70
     8
 71
     3
 72
     9
 73
     5
 74
     0
 42
0.000000001
 43
0.00000001
 40
0.0
 40
0.0
 40
0.0
 40
0.0
 40
0.9496622280633924
 40
1.0
 40
1.0
 40
1.0
 40
1.0
 10
9.782446049442807
 20
6.572062202158349
 30
0.0
 10
9.783249625634879
 20
6.57313970515917
 30
0.0
 10
9.784095796166174
 20
6.574274322256678
 30
0.0
 10
9.785371160960821
 20
6.574666455296859
 30
0.0
 10
9.78543535998299
 20
6.574686194400405
 30
0.0
  0
LINE
  5
333
330
1F
100
AcDbEntity
  8
0
  6
Continuous
 62
     7
370
    18
100
AcDbLine
 10
9.8083715983
 20
6.5148987631
 30
0.0
 11
9.8013730543
 21
6.5189389366
 31
0.0
  0
LINE
  5
334
330
1F
100
AcDbEntity
  8
0
  6
Continuous
 62
     7
370
    18
100
AcDbLine
 10
9.8013730543
 20
6.5189389366
 30
0.0
 11
9.8013730543
 21
6.5503050956
 31
0.0
  0
SPLINE
  5
335
330
1F
100
AcDbEntity
  8
0
  6
Continuous
 62
     7
370
    18
100
AcDbSpline
210
0.0
220
0.0
230
1.0
 70
     8
 71
     3
 72
    19
 73
    15
 74
     0
 42
0.000000001
 43
0.00000001
 40
0.0
 40
0.0
 40
0.0
 40
0.0
 40
0.1364148811765276
 40
0.2528973605082379
 40
0.3492204458013853
 40
0.4269322474132385
 40
0.494452408614837
 40
0.5607020268402115
 40
0.6286260433619814
 40
0.698836431094078
 40
0.7714182240964005
 40
0.8441568540005472
 40
0.91996411208531
 40
1.0
 40
1.0
 40
1.0
 40
1.0
 10
9.801373054270961
 20
6.550305095625919
 30
0.0
 10
9.801362489862427
 20
6.55109451811402
 30
0.0
 10
9.80134290467487
 20
6.552558015804631
 30
0.0
 10
9.801237708406829
 20
6.55462266688324
 30
0.0
 10
9.801026519404962
 20
6.556396426853163
 30
0.0
 10
9.800736659324704
 20
6.557915823893909
 30
0.0
 10
9.800291355454407
 20
6.559280393594849
 30
0.0
 10
9.799728690955654
 20
6.560570101078019
 30
0.0
 10
9.799022071311143
 20
6.56182940140707
 30
0.0
 10
9.798187713148662
 20
6.563050145680955
 30
0.0
 10
9.797242703553188
 20
6.564193172167344
 30
0.0
 10
9.796199198739682
 20
6.565207869146407
 30
0.0
 10
9.795083171181444
 20
6.566131957095221
 30
0.0
 10
9.794306881669302
 20
6.566606023245614
 30
0.0
 10
9.793908205038484
 20
6.566849487948753
 30
0.0
  0
SPLINE
  5
336
330
1F
100
AcDbEntity
  8
0
  6
Continuous
 62
     7
370
    18
100
AcDbSpline
210
0.0
220
0.0
230
1.0
 70
     8
 71
     3
 72
     9
 73
     5
 74
     0
 42
0.000000001
 43
0.00000001
 40
0.0
 40
0.0
 40
0.0
 40
0.0
 40
0.6579658467862669
 40
1.0
 40
1.0
 40
1.0
 40
1.0
 10
9.793908205038484
 20
6.566849487948753
 30
0.0
 10
9.792099670197473
 20
6.567731867202178
 30
0.0
 10
9.789350994335582
 20
6.569072938714834
 30
0.0
 10
9.787614834340276
 20
6.56772853694479
 30
0.0
 10
9.78702100832644
 20
6.567268705623794
 30
0.0
  0
LINE
  5
337
330
1F
100
AcDbEntity
  8
0
  6
Continuous
 62
     7
370
    18
100
AcDbLine
 10
9.7829429506
 20
6.5295784089
 30
0.0
 11
9.7759444066
 21
6.5336185824
 31
0.0
  0
LINE
  5
338
330
1F
100
AcDbEntity
  8
0
  6
Continuous
 62
     7
370
    18
100
AcDbLine
 10
9.7759444066
 20
6.5336185824
 30
0.0
 11
9.7759444066
 21
6.5659718857
 31
0.0
  0
SPLINE
  5
339
330
1F
100
AcDbEntity
  8
0
  6
Continuous
 62
     7
370
    18
100
AcDbSpline
210
0.0
220
0.0
230
1.0
 70
     8
 71
     3
 72
    23
 73
    19
 74
     0
 42
0.000000001
 43
0.00000001
 40
0.0
 40
0.0
 40
0.0
 40
0.0
 40
0.0840520374929028
 40
0.1623146334137115
 40
0.2366600199015783
 40
0.3057775454542922
 40
0.3698548822538674
 40
0.4308818052540333
 40
0.4880260023390452
 40
0.5427446849665447
 40
0.5951151179188185
 40
0.646686171351649
 40
0.6997262587744748
 40
0.7534139566544653
 40
0.8093158108836114
 40
0.8690272915375985
 40
0.9322090442192221
 40
1.0
 40
1.0
 40
1.0
 40
1.0
 10
9.775944406562907
 20
6.565971885673383
 30
0.0
 10
9.775941482632923
 20
6.566427998909641
 30
0.0
 10
9.77593583617107
 20
6.567308808643072
 30
0.0
 10
9.775844366718028
 20
6.568637092291382
 30
0.0
 10
9.7757210657064
 20
6.569898751003469
 30
0.0
 10
9.775527255566525
 20
6.571111177940512
 30
0.0
 10
9.775283147866238
 20
6.572263682096255
 30
0.0
 10
9.775003268770085
 20
6.573357357611875
 30
0.0
 10
9.774649408714094
 20
6.574404035907329
 30
0.0
 10
9.774243467208445
 20
6.575394830113501
 30
0.0
 10
9.773766250266801
 20
6.576330500702265
 30
0.0
 10
9.773230223755263
 20
6.577223714191879
 30
0.0
 10
9.772615658360964
 20
6.578063738207716
 30
0.0
 10
9.77192956583962
 20
6.578842885382086
 30
0.0
 10
9.771190567634816
 20
6.579608688916357
 30
0.0
 10
9.770366594112907
 20
6.580268919939247
 30
0.0
 10
9.769483249478453
 20
6.580934213721609
 30
0.0
 10
9.76886948162157
 20
6.581298748504599
 30
0.0
 10
9.768551797806872
 20
6.581487430266198
 30
0.0
  0
SPLINE
  5
33A
330
1F
100
AcDbEntity
  8
0
  6
Continuous
 62
     7
370
    18
100
AcDbSpline
210
0.0
220
0.0
230
1.0
 70
     8
 71
     3
 72
     9
 73
     5
 74
     0
 42
0.000000001
 43
0.00000001
 40
0.0
 40
0.0
 40
0.0
 40
0.0
 40
0.6809082185158375
 40
1.0
 40
1.0
 40
1.0
 40
1.0
 10
9.768551797806872
 20
6.581487430266198
 30
0.0
 10
9.766769556768928
 20
6.58224596714423
 30
0.0
 10
9.764152109968494
 20
6.583359974667423
 30
0.0
 10
9.762205174615197
 20
6.58251691212002
 30
0.0
 10
9.76158392354488
 20
6.582247897789867
 30
0.0
  0
LINE
  5
33B
330
1F
100
AcDbEntity
  8
0
  6
Continuous
 62
     7
370
    18
100
AcDbLine
 10
9.7575143029
 20
6.5442580548
 30
0.0
 11
9.7505157589
 21
6.5482982283
 31
0.0
  0
LINE
  5
33C
330
1F
100
AcDbEntity
  8
0
  6
Continuous
 62
     7
370
    18
100
AcDbLine
 10
9.7824460494
 20
6.5720622022
 30
0.0
 11
9.7817389427
 21
6.5716539981
 31
0.0
  0
LINE
  5
33D
330
1F
100
AcDbEntity
  8
0
  6
Continuous
 62
     7
370
    18
100
AcDbLine
 10
9.793908205
 20
6.5668494879
 30
0.0
 11
9.7932010983
 21
6.5664412839
 31
0.0
  0
LINE
  5
33E
330
1F
100
AcDbEntity
  8
0
  6
Continuous
 62
     7
370
    18
100
AcDbLine
 10
9.8013730543
 20
6.5503050956
 30
0.0
 11
9.8006659475
 21
6.5498968916
 31
0.0
  0
LINE
  5
33F
330
1F
100
AcDbEntity
  8
0
  6
Continuous
 62
     7
370
    18
100
AcDbLine
 10
9.8013730543
 20
6.5189389366
 30
0.0
 11
9.8006659475
 21
6.5185307325
 31
0.0
  0
LINE
  5
340
330
1F
100
AcDbEntity
  8
0
  6
Continuous
 62
     7
370
    18
100
AcDbLine
 10
9.7582214097
 20
6.5866585404
 30
0.0
 11
9.7575143029
 21
6.5862503363
 31
0.0
  0
LINE
  5
341
330
1F
100
AcDbEntity
  8
0
  6
Continuous
 62
     7
370
    18
100
AcDbLine
 10
9.7685517978
 20
6.5814874303
 30
0.0
 11
9.767844691
 21
6.5810792262
 31
0.0
  0
LINE
  5
342
330
1F
100
AcDbEntity
  8
0
  6
Continuous
 62
     7
370
    18
100
AcDbLine
 10
9.7759444066
 20
6.5659718857
 30
0.0
 11
9.7752372998
 21
6.5655636816
 31
0.0
  0
LINE
  5
343
330
1F
100
AcDbEntity
  8
0
  6
Continuous
 62
     7
370
    18
100
AcDbLine
 10
9.7759444066
 20
6.5336185824
 30
0.0
 11
9.7752372998
 21
6.5332103784
 31
0.0
  0
LINE
  5
344
330
1F
100
AcDbEntity
  8
0
  6
Continuous
 62
     7
370
    18
100
AcDbLine
 10
9.7505157589
 20
6.5482982283
 30
0.0
 11
9.7498086521
 21
6.5478900242
 31
0.0
  0
LINE
  5
345
330
1F
100
AcDbEntity
  8
0
  6
Continuous
 62
     7
370
    18
100
AcDbLine
 10
9.6811649015
 20
6.5883336261
 30
0.0
 11
9.6811649015
 21
6.6382369645
 31
0.0
  0
SPLINE
  5
346
330
1F
100
AcDbEntity
  8
0
  6
Continuous
 62
     7
370
    18
100
AcDbSpline
210
0.0
220
0.0
230
1.0
 70
     8
 71
     3
 72
     9
 73
     5
 74
     0
 42
0.000000001
 43
0.00000001
 40
0.0
 40
0.0
 40
0.0
 40
0.0
 40
0.9884647936361154
 40
1.0
 40
1.0
 40
1.0
 40
1.0
 10
9.688870552289872
 20
6.626693938146453
 30
0.0
 10
9.689599947133965
 20
6.627750739722329
 30
0.0
 10
9.690337853884705
 20
6.628819873982529
 30
0.0
 10
9.69149617983053
 20
6.629160496905244
 30
0.0
 10
9.691509541359352
 20
6.62916442606095
 30
0.0
  0
SPLINE
  5
347
330
1F
100
AcDbEntity
  8
0
  6
Continuous
 62
     7
370
    18
100
AcDbSpline
210
0.0
220
0.0
230
1.0
 70
     8
 71
     3
 72
     9
 73
     5
 74
     0
 42
0.000000001
 43
0.00000001
 40
0.0
 40
0.0
 40
0.0
 40
0.0
 40
0.9496622280630217
 40
1.0
 40
1.0
 40
1.0
 40
1.0
 10
9.713095192057203
 20
6.612097599949656
 30
0.0
 10
9.713898768249274
 20
6.613175102950475
 30
0.0
 10
9.71474493878057
 20
6.614309720047984
 30
0.0
 10
9.716020303575219
 20
6.614701853088166
 30
0.0
 10
9.716084502597388
 20
6.614721592191711
 30
0.0
  0
LINE
  5
348
330
1F
100
AcDbEntity
  8
0
  6
Continuous
 62
     7
370
    18
100
AcDbLine
 10
9.7390207409
 20
6.5549341609
 30
0.0
 11
9.7320221969
 21
6.5589743343
 31
0.0
  0
LINE
  5
349
330
1F
100
AcDbEntity
  8
0
  6
Continuous
 62
     7
370
    18
100
AcDbLine
 10
9.7320221969
 20
6.5589743343
 30
0.0
 11
9.7320221969
 21
6.5903404934
 31
0.0
  0
SPLINE
  5
34A
330
1F
100
AcDbEntity
  8
0
  6
Continuous
 62
     7
370
    18
100
AcDbSpline
210
0.0
220
0.0
230
1.0
 70
     8
 71
     3
 72
    19
 73
    15
 74
     0
 42
0.000000001
 43
0.00000001
 40
0.0
 40
0.0
 40
0.0
 40
0.0
 40
0.1364148811765273
 40
0.2528973605082372
 40
0.3492204458013847
 40
0.4269322474132378
 40
0.4944524086148355
 40
0.5607020268402109
 40
0.6286260433619806
 40
0.698836431094077
 40
0.7714182240963994
 40
0.844156854000546
 40
0.9199641120853087
 40
1.0
 40
1.0
 40
1.0
 40
1.0
 10
9.732022196885358
 20
6.590340493417226
 30
0.0
 10
9.732011632476825
 20
6.591129915905326
 30
0.0
 10
9.731992047289266
 20
6.592593413595937
 30
0.0
 10
9.731886851021224
 20
6.594658064674547
 30
0.0
 10
9.731675662019358
 20
6.596431824644469
 30
0.0
 10
9.731385801939101
 20
6.597951221685216
 30
0.0
 10
9.730940498068804
 20
6.599315791386156
 30
0.0
 10
9.73037783357005
 20
6.600605498869325
 30
0.0
 10
9.72967121392554
 20
6.601864799198377
 30
0.0
 10
9.72883685576306
 20
6.603085543472261
 30
0.0
 10
9.727891846167585
 20
6.60422856995865
 30
0.0
 10
9.726848341354078
 20
6.605243266937714
 30
0.0
 10
9.725732313795842
 20
6.606167354886527
 30
0.0
 10
9.7249560242837
 20
6.606641421036921
 30
0.0
 10
9.72455734765288
 20
6.606884885740059
 30
0.0
  0
SPLINE
  5
34B
330
1F
100
AcDbEntity
  8
0
  6
Continuous
 62
     7
370
    18
100
AcDbSpline
210
0.0
220
0.0
230
1.0
 70
     8
 71
     3
 72
     9
 73
     5
 74
     0
 42
0.000000001
 43
0.00000001
 40
0.0
 40
0.0
 40
0.0
 40
0.0
 40
0.6579658467861944
 40
1.0
 40
1.0
 40
1.0
 40
1.0
 10
9.72455734765288
 20
6.606884885740059
 30
0.0
 10
9.722748812811869
 20
6.607767264993484
 30
0.0
 10
9.720000136949977
 20
6.609108336506139
 30
0.0
 10
9.718263976954672
 20
6.607763934736096
 30
0.0
 10
9.717670150940833
 20
6.6073041034151
 30
0.0
  0
LINE
  5
34C
330
1F
100
AcDbEntity
  8
0
  6
Continuous
 62
     7
370
    18
100
AcDbLine
 10
9.7135920932
 20
6.5696138067
 30
0.0
 11
9.7065935492
 21
6.5736539802
 31
0.0
  0
LINE
  5
34D
330
1F
100
AcDbEntity
  8
0
  6
Continuous
 62
     7
370
    18
100
AcDbLine
 10
9.7065935492
 20
6.5736539802
 30
0.0
 11
9.7065935492
 21
6.6060072835
 31
0.0
  0
SPLINE
  5
34E
330
1F
100
AcDbEntity
  8
0
  6
Continuous
 62
     7
370
    18
100
AcDbSpline
210
0.0
220
0.0
230
1.0
 70
     8
 71
     3
 72
    23
 73
    19
 74
     0
 42
0.000000001
 43
0.00000001
 40
0.0
 40
0.0
 40
0.0
 40
0.0
 40
0.0840520374929027
 40
0.1623146334137115
 40
0.2366600199015785
 40
0.3057775454542916
 40
0.3698548822538668
 40
0.4308818052540332
 40
0.4880260023390452
 40
0.5427446849665438
 40
0.5951151179188187
 40
0.6466861713516503
 40
0.6997262587744747
 40
0.7534139566544636
 40
0.8093158108836097
 40
0.8690272915375968
 40
0.9322090442192221
 40
1.0
 40
1.0
 40
1.0
 40
1.0
 10
9.706593549177303
 20
6.606007283464689
 30
0.0
 10
9.706590625247319
 20
6.606463396700947
 30
0.0
 10
9.706584978785466
 20
6.607344206434377
 30
0.0
 10
9.706493509332423
 20
6.608672490082689
 30
0.0
 10
9.706370208320795
 20
6.609934148794776
 30
0.0
 10
9.706176398180922
 20
6.611146575731819
 30
0.0
 10
9.705932290480634
 20
6.612299079887562
 30
0.0
 10
9.705652411384483
 20
6.613392755403181
 30
0.0
 10
9.70529855132849
 20
6.614439433698635
 30
0.0
 10
9.70489260982284
 20
6.615430227904806
 30
0.0
 10
9.704415392881199
 20
6.616365898493571
 30
0.0
 10
9.703879366369659
 20
6.617259111983185
 30
0.0
 10
9.703264800975361
 20
6.618099135999022
 30
0.0
 10
9.702578708454018
 20
6.618878283173392
 30
0.0
 10
9.701839710249212
 20
6.619644086707662
 30
0.0
 10
9.701015736727305
 20
6.620304317730554
 30
0.0
 10
9.700132392092849
 20
6.620969611512916
 30
0.0
 10
9.699518624235967
 20
6.621334146295905
 30
0.0
 10
9.69920094042127
 20
6.621522828057505
 30
0.0
  0
SPLINE
  5
34F
330
1F
100
AcDbEntity
  8
0
  6
Continuous
 62
     7
370
    18
100
AcDbSpline
210
0.0
220
0.0
230
1.0
 70
     8
 71
     3
 72
     9
 73
     5
 74
     0
 42
0.000000001
 43
0.00000001
 40
0.0
 40
0.0
 40
0.0
 40
0.0
 40
0.6809082185156295
 40
1.0
 40
1.0
 40
1.0
 40
1.0
 10
9.699200940421267
 20
6.621522828057505
 30
0.0
 10
9.697418699383325
 20
6.622281364935535
 30
0.0
 10
9.69480125258289
 20
6.623395372458729
 30
0.0
 10
9.692854317229592
 20
6.622552309911326
 30
0.0
 10
9.692233066159273
 20
6.622283295581172
 30
0.0
  0
LINE
  5
350
330
1F
100
AcDbEntity
  8
0
  6
Continuous
 62
     7
370
    18
100
AcDbLine
 10
9.6881634455
 20
6.5842934526
 30
0.0
 11
9.6811649015
 21
6.5883336261
 31
0.0
  0
LINE
  5
351
330
1F
100
AcDbEntity
  8
0
  6
Continuous
 62
     7
370
    18
100
AcDbLine
 10
9.7130951921
 20
6.6120975999
 30
0.0
 11
9.7123880853
 21
6.6116893959
 31
0.0
  0
LINE
  5
352
330
1F
100
AcDbEntity
  8
0
  6
Continuous
 62
     7
370
    18
100
AcDbLine
 10
9.7245573477
 20
6.6068848857
 30
0.0
 11
9.7238502409
 21
6.6064766817
 31
0.0
  0
LINE
  5
353
330
1F
100
AcDbEntity
  8
0
  6
Continuous
 62
     7
370
    18
100
AcDbLine
 10
9.7320221969
 20
6.5903404934
 30
0.0
 11
9.7313150901
 21
6.5899322894
 31
0.0
  0
LINE
  5
354
330
1F
100
AcDbEntity
  8
0
  6
Continuous
 62
     7
370
    18
100
AcDbLine
 10
9.7320221969
 20
6.5589743343
 30
0.0
 11
9.7313150901
 21
6.5585661303
 31
0.0
  0
LINE
  5
355
330
1F
100
AcDbEntity
  8
0
  6
Continuous
 62
     7
370
    18
100
AcDbLine
 10
9.6888705523
 20
6.6266939381
 30
0.0
 11
9.6881634455
 21
6.6262857341
 31
0.0
  0
LINE
  5
356
330
1F
100
AcDbEntity
  8
0
  6
Continuous
 62
     7
370
    18
100
AcDbLine
 10
9.6992009404
 20
6.6215228281
 30
0.0
 11
9.6984938336
 21
6.621114624
 31
0.0
  0
LINE
  5
357
330
1F
100
AcDbEntity
  8
0
  6
Continuous
 62
     7
370
    18
100
AcDbLine
 10
9.7065935492
 20
6.6060072835
 30
0.0
 11
9.7058864424
 21
6.6055990794
 31
0.0
  0
LINE
  5
358
330
1F
100
AcDbEntity
  8
0
  6
Continuous
 62
     7
370
    18
100
AcDbLine
 10
9.7065935492
 20
6.5736539802
 30
0.0
 11
9.7058864424
 21
6.5732457761
 31
0.0
  0
SPLINE
  5
359
330
1F
100
AcDbEntity
  8
0
  6
Continuous
 62
     7
370
    18
100
AcDbSpline
210
0.0
220
0.0
230
1.0
 70
     8
 71
     3
 72
    12
 73
     8
 74
     0
 42
0.000000001
 43
0.00000001
 40
0.0
 40
0.0
 40
0.0
 40
0.0
 40
0.2471857709918536
 40
0.4942828086206432
 40
0.7410846441047538
 40
0.9260925042386213
 40
1.0
 40
1.0
 40
1.0
 40
1.0
 10
9.633293545746131
 20
6.650199439047501
 30
0.0
 10
9.633335238784824
 20
6.652793802933751
 30
0.0
 10
9.633418609895479
 20
6.657981599396041
 30
0.0
 10
9.634298077185274
 20
6.66530313534465
 30
0.0
 10
9.636127723942694
 20
6.671111419716703
 30
0.0
 10
9.638276126569421
 20
6.674786634861428
 30
0.0
 10
9.640084422962593
 20
6.675541046831513
 30
0.0
 10
9.640600601918266
 20
6.67575639404137
 30
0.0
  0
SPLINE
  5
35A
330
1F
100
AcDbEntity
  8
0
  6
Continuous
 62
     7
370
    18
100
AcDbSpline
210
0.0
220
0.0
230
1.0
 70
     8
 71
     3
 72
    10
 73
     6
 74
     0
 42
0.000000001
 43
0.00000001
 40
0.0
 40
0.0
 40
0.0
 40
0.0
 40
0.2344019857848723
 40
0.6168516049505506
 40
1.0
 40
1.0
 40
1.0
 40
1.0
 10
9.66455922052966
 20
6.602462853588611
 30
0.0
 10
9.663834092923958
 20
6.602013916971509
 30
0.0
 10
9.661925849161115
 20
6.600832496635617
 30
0.0
 10
9.657630357254662
 20
6.60140582596268
 30
0.0
 10
9.654249596178346
 20
6.603107029435487
 30
0.0
 10
9.652557672797688
 20
6.603958407532291
 30
0.0
  0
SPLINE
  5
35B
330
1F
100
AcDbEntity
  8
0
  6
Continuous
 62
     7
370
    18
100
AcDbSpline
210
0.0
220
0.0
230
1.0
 70
     8
 71
     3
 72
    15
 73
    11
 74
     0
 42
0.000000001
 43
0.00000001
 40
0.0
 40
0.0
 40
0.0
 40
0.0
 40
0.1379032299933924
 40
0.2688733426002906
 40
0.3951781273461124
 40
0.5170892381308858
 40
0.6367430265135461
 40
0.7562218164637954
 40
0.8766283594636799
 40
1.0
 40
1.0
 40
1.0
 40
1.0
 10
9.652557672797688
 20
6.603958407532291
 30
0.0
 10
9.651862607256694
 20
6.604382555563458
 30
0.0
 10
9.650507420758581
 20
6.60520952748357
 30
0.0
 10
9.648528270803762
 20
6.606655363708764
 30
0.0
 10
9.646670733004504
 20
6.608261514900946
 30
0.0
 10
9.64491914009322
 20
6.609988612431842
 30
0.0
 10
9.643293180453165
 20
6.611884849153379
 30
0.0
 10
9.641785090773586
 20
6.613920546261999
 30
0.0
 10
9.640364567079576
 20
6.616086090693419
 30
0.0
 10
9.6395468272816
 20
6.61761972536248
 30
0.0
 10
9.639132984258634
 20
6.61839586957014
 30
0.0
  0
SPLINE
  5
35C
330
1F
100
AcDbEntity
  8
0
  6
Continuous
 62
     7
370
    18
100
AcDbSpline
210
0.0
220
0.0
230
1.0
 70
     8
 71
     3
 72
    15
 73
    11
 74
     0
 42
0.000000001
 43
0.00000001
 40
0.0
 40
0.0
 40
0.0
 40
0.0
 40
0.0974206681772141
 40
0.2008855880393194
 40
0.3111719701726499
 40
0.4297979458253718
 40
0.5577399263645887
 40
0.6947152693641601
 40
0.8421299102060559
 40
1.0
 40
1.0
 40
1.0
 40
1.0
 10
9.639132984258634
 20
6.61839586957014
 30
0.0
 10
9.63865664142018
 20
6.619464330569746
 30
0.0
 10
9.637674402096623
 20
6.621667542888229
 30
0.0
 10
9.63652477613342
 20
6.625121042458684
 30
0.0
 10
9.635499289420387
 20
6.628784259561919
 30
0.0
 10
9.634694470368297
 20
6.632661726430773
 30
0.0
 10
9.634064096425789
 20
6.636752964310662
 30
0.0
 10
9.633608809054342
 20
6.641064916710652
 30
0.0
 10
9.633351161224693
 20
6.645582814724192
 30
0.0
 10
9.633313184450884
 20
6.64862582507585
 30
0.0
 10
9.633293545746131
 20
6.650199439047501
 30
0.0
  0
SPLINE
  5
35D
330
1F
100
AcDbEntity
  8
0
  6
Continuous
 62
     7
370
    18
100
AcDbSpline
210
0.0
220
0.0
230
1.0
 70
     8
 71
     3
 72
    11
 73
     7
 74
     0
 42
0.000000001
 43
0.00000001
 40
0.0
 40
0.0
 40
0.0
 40
0.0
 40
0.1493949139837993
 40
0.3193908560959716
 40
0.659530026843218
 40
1.0
 40
1.0
 40
1.0
 40
1.0
 10
9.659442005511304
 20
6.611492353427529
 30
0.0
 10
9.660168132588995
 20
6.611999311500433
 30
0.0
 10
9.661720517089869
 20
6.613083135364253
 30
0.0
 10
9.663172425324163
 20
6.617554085273669
 30
0.0
 10
9.664007825823315
 20
6.624037548476297
 30
0.0
 10
9.664080029595576
 20
6.62963409997625
 30
0.0
 10
9.664116149028622
 20
6.632433735796642
 30
0.0
  0
SPLINE
  5
35E
330
1F
100
AcDbEntity
  8
0
  6
Continuous
 62
     7
370
    18
100
AcDbSpline
210
0.0
220
0.0
230
1.0
 70
     8
 71
     3
 72
    23
 73
    19
 74
     0
 42
0.000000001
 43
0.00000001
 40
0.0
 40
0.0
 40
0.0
 40
0.0
 40
0.1156341026995446
 40
0.2215505648509135
 40
0.3170614885131583
 40
0.4031682101561656
 40
0.4802018633519436
 40
0.5476729137517633
 40
0.6070619439212038
 40
0.6586807285305007
 40
0.7057532347379953
 40
0.7501195176610335
 40
0.792590568079876
 40
0.8338794889926727
 40
0.8747756796479279
 40
0.9156225135228682
 40
0.9568788497046059
 40
1.0
 40
1.0
 40
1.0
 40
1.0
 10
9.664116149028622
 20
6.632433735796642
 30
0.0
 10
9.664108852006036
 20
6.633745107955659
 30
0.0
 10
9.664094871186903
 20
6.636257647386305
 30
0.0
 10
9.66393685905302
 20
6.639929290580302
 30
0.0
 10
9.663689245755204
 20
6.643310441689919
 30
0.0
 10
9.663350531847584
 20
6.646404926222035
 30
0.0
 10
9.662900438374857
 20
6.649221384431002
 30
0.0
 10
9.662354363290195
 20
6.651756118457503
 30
0.0
 10
9.661704163217697
 20
6.654009870737056
 30
0.0
 10
9.66092944512015
 20
6.656010890008061
 30
0.0
 10
9.660070462642569
 20
6.6577893673956
 30
0.0
 10
9.659157815733566
 20
6.659404776216657
 30
0.0
 10
9.65820916611121
 20
6.660906351956449
 30
0.0
 10
9.657170302313725
 20
6.662253023662747
 30
0.0
 10
9.656085388054155
 20
6.663491936766567
 30
0.0
 10
9.654931166193995
 20
6.664568352847192
 30
0.0
 10
9.65372254019039
 20
6.665529275532251
 30
0.0
 10
9.652895864966208
 20
6.666035674394242
 30
0.0
 10
9.652473392241836
 20
6.666294469747707
 30
0.0
  0
SPLINE
  5
35F
330
1F
100
AcDbEntity
  8
0
  6
Continuous
 62
     7
370
    18
100
AcDbSpline
210
0.0
220
0.0
230
1.0
 70
     8
 71
     3
 72
     9
 73
     5
 74
     0
 42
0.000000001
 43
0.00000001
 40
0.0
 40
0.0
 40
0.0
 40
0.0
 40
0.6920350322429707
 40
1.0
 40
1.0
 40
1.0
 40
1.0
 10
9.652473392241836
 20
6.666294469747707
 30
0.0
 10
9.650671587088995
 20
6.667106343357533
 30
0.0
 10
9.648067954225205
 20
6.668279511726185
 30
0.0
 10
9.646328110671142
 20
6.667146987653298
 30
0.0
 10
9.645792299807113
 20
6.666798209913708
 30
0.0
  0
LINE
  5
360
330
1F
100
AcDbEntity
  8
0
  6
Continuous
 62
     7
370
    18
100
AcDbLine
 10
9.6811649015
 20
6.5883336261
 30
0.0
 11
9.6804577947
 21
6.587925422
 31
0.0
  0
SPLINE
  5
361
330
1F
100
AcDbEntity
  8
0
  6
Continuous
 62
     7
370
    18
100
AcDbSpline
210
0.0
220
0.0
230
1.0
 70
     8
 71
     3
 72
    23
 73
    19
 74
     0
 42
0.000000001
 43
0.00000001
 40
0.0
 40
0.0
 40
0.0
 40
0.0
 40
0.1156341026995446
 40
0.2215505648509135
 40
0.3170614885131583
 40
0.4031682101561656
 40
0.4802018633519436
 40
0.5476729137517633
 40
0.6070619439212038
 40
0.6586807285305007
 40
0.7057532347379953
 40
0.7501195176610335
 40
0.792590568079876
 40
0.8338794889926727
 40
0.8747756796479279
 40
0.9156225135228682
 40
0.9568788497046059
 40
1.0
 40
1.0
 40
1.0
 40
1.0
 10
9.663409042247435
 20
6.63202553174073
 30
0.0
 10
9.66340174522485
 20
6.633336903899748
 30
0.0
 10
9.663387764405716
 20
6.635849443330394
 30
0.0
 10
9.663229752271835
 20
6.639521086524391
 30
0.0
 10
9.662982138974018
 20
6.642902237634008
 30
0.0
 10
9.662643425066399
 20
6.645996722166124
 30
0.0
 10
9.66219333159367
 20
6.648813180375091
 30
0.0
 10
9.661647256509008
 20
6.651347914401591
 30
0.0
 10
9.66099705643651
 20
6.653601666681146
 30
0.0
 10
9.660222338338963
 20
6.655602685952149
 30
0.0
 10
9.659363355861384
 20
6.657381163339688
 30
0.0
 10
9.65845070895238
 20
6.658996572160746
 30
0.0
 10
9.657502059330024
 20
6.660498147900539
 30
0.0
 10
9.656463195532538
 20
6.661844819606835
 30
0.0
 10
9.655378281272968
 20
6.663083732710655
 30
0.0
 10
9.654224059412808
 20
6.66416014879128
 30
0.0
 10
9.653015433409204
 20
6.66512107147634
 30
0.0
 10
9.652188758185021
 20
6.66562747033833
 30
0.0
 10
9.651766285460651
 20
6.665886265691795
 30
0.0
  0
SPLINE
  5
362
330
1F
100
AcDbEntity
  8
0
  6
Continuous
 62
     7
370
    18
100
AcDbSpline
210
0.0
220
0.0
230
1.0
 70
     8
 71
     3
 72
    23
 73
    19
 74
     0
 42
0.000000001
 43
0.00000001
 40
0.0
 40
0.0
 40
0.0
 40
0.0
 40
0.0407861577516997
 40
0.0808781390926995
 40
0.1202808817853034
 40
0.1602037870694768
 40
0.2004809323198157
 40
0.2425508656877319
 40
0.2867496219958774
 40
0.3332473598987213
 40
0.3843802392510082
 40
0.4437238495442145
 40
0.5116298421176319
 40
0.5889765724864078
 40
0.6762109599366941
 40
0.7736812652401788
 40
0.8815552458988715
 40
1.0
 40
1.0
 40
1.0
 40
1.0
 10
9.6518505660165
 20
6.611558584516028
 30
0.0
 10
9.652248570903577
 20
6.611346362876854
 30
0.0
 10
9.653037806673527
 20
6.610925531590023
 30
0.0
 10
9.6541995779639
 20
6.610486677111003
 30
0.0
 10
9.655306627519971
 20
6.610280338093298
 30
0.0
 10
9.656367871472638
 20
6.610234768746411
 30
0.0
 10
9.65738404263006
 20
6.610379423655468
 30
0.0
 10
9.658331297734946
 20
6.610752450094343
 30
0.0
 10
9.659251900103637
 20
6.611276601060487
 30
0.0
 10
9.660124298085151
 20
6.612018175676726
 30
0.0
 10
9.660934992196104
 20
6.613059963108519
 30
0.0
 10
9.661584583150663
 20
6.61455758545566
 30
0.0
 10
9.662162462275074
 20
6.616432920649157
 30
0.0
 10
9.662620778622694
 20
6.618737835234825
 30
0.0
 10
9.66297149712769
 20
6.621461939052195
 30
0.0
 10
9.663232983527873
 20
6.624595473107762
 30
0.0
 10
9.663387122214232
 20
6.6281525087661
 30
0.0
 10
9.663401511540076
 20
6.63069494057119
 30
0.0
 10
9.663409042247435
 20
6.63202553174073
 30
0.0
  0
SPLINE
  5
363
330
1F
100
AcDbEntity
  8
0
  6
Continuous
 62
     7
370
    18
100
AcDbSpline
210
0.0
220
0.0
230
1.0
 70
     8
 71
     3
 72
    23
 73
    19
 74
     0
 42
0.000000001
 43
0.00000001
 40
0.0
 40
0.0
 40
0.0
 40
0.0
 40
0.1184055081537719
 40
0.226654332816702
 40
0.324092341928604
 40
0.4117048030053215
 40
0.4890259050064171
 40
0.5569093973430758
 40
0.6162333444927071
 40
0.6673492812770764
 40
0.7135123932013491
 40
0.7576965045209799
 40
0.7994925114422922
 40
0.8399760647439396
 40
0.8798857418167766
 40
0.9191486593857426
 40
0.9592273564930835
 40
1.0
 40
1.0
 40
1.0
 40
1.0
 10
9.640292089785566
 20
6.645370664337832
 30
0.0
 10
9.640299740884076
 20
6.644031318223505
 30
0.0
 10
9.640314386778979
 20
6.641467513509631
 30
0.0
 10
9.640467400829765
 20
6.63772842228952
 30
0.0
 10
9.640730808220056
 20
6.634282878312611
 30
0.0
 10
9.641079049994936
 20
6.631150196490713
 30
0.0
 10
9.641538870134992
 20
6.628310972221344
 30
0.0
 10
9.642116228705328
 20
6.625768323605121
 30
0.0
 10
9.642767049136912
 20
6.623521178335764
 30
0.0
 10
9.643572427088339
 20
6.621545915878039
 30
0.0
 10
9.644454226990538
 20
6.61980572626056
 30
0.0
 10
9.645364625125806
 20
6.618221346651492
 30
0.0
 10
9.646325040015256
 20
6.616766939921932
 30
0.0
 10
9.647329205067802
 20
6.615436855486316
 30
0.0
 10
9.64839270062685
 20
6.614254764827511
 30
0.0
 10
9.64950389754524
 20
6.613201489753214
 30
0.0
 10
9.65066303760993
 20
6.612295350882725
 30
0.0
 10
9.651452464665642
 20
6.611805574553678
 30
0.0
 10
9.6518505660165
 20
6.611558584516028
 30
0.0
  0
SPLINE
  5
364
330
1F
100
AcDbEntity
  8
0
  6
Continuous
 62
     7
370
    18
100
AcDbSpline
210
0.0
220
0.0
230
1.0
 70
     8
 71
     3
 72
    15
 73
    11
 74
     0
 42
0.000000001
 43
0.00000001
 40
0.0
 40
0.0
 40
0.0
 40
0.0
 40
0.0838887288335153
 40
0.1771553326743518
 40
0.2825157085895131
 40
0.3999935157252225
 40
0.5294873536901311
 40
0.672799776764538
 40
0.8295345107876441
 40
1.0
 40
1.0
 40
1.0
 40
1.0
 10
9.643771672734255
 20
6.665746481139335
 30
0.0
 10
9.643485264602097
 20
6.665358894779009
 30
0.0
 10
9.6428804309297
 20
6.664540393991617
 30
0.0
 10
9.642203909290332
 20
6.662901430817629
 30
0.0
 10
9.641603969357073
 20
6.660924378982274
 30
0.0
 10
9.641116699720142
 20
6.658559744224887
 30
0.0
 10
9.64075614204559
 20
6.655803054209647
 30
0.0
 10
9.640476892137965
 20
6.652685248675881
 30
0.0
 10
9.640330429178421
 20
6.649164474334277
 30
0.0
 10
9.640305222181864
 20
6.646670158477868
 30
0.0
 10
9.640292089785566
 20
6.645370664337833
 30
0.0
  0
SPLINE
  5
365
330
1F
100
AcDbEntity
  8
0
  6
Continuous
 62
     7
370
    18
100
AcDbSpline
210
0.0
220
0.0
230
1.0
 70
     8
 71
     3
 72
    15
 73
    11
 74
     0
 42
0.000000001
 43
0.00000001
 40
0.0
 40
0.0
 40
0.0
 40
0.0
 40
0.1276828691364362
 40
0.2517742563342023
 40
0.3728062010709587
 40
0.4927364553926362
 40
0.6140149012905313
 40
0.7371600623355257
 40
0.8655879353818473
 40
1.0
 40
1.0
 40
1.0
 40
1.0
 10
9.651766285460651
 20
6.665886265691795
 30
0.0
 10
9.651368157848433
 20
6.666104160589653
 30
0.0
 10
9.650583101214211
 20
6.666533821406631
 30
0.0
 10
9.64943455926532
 20
6.666967978550533
 30
0.0
 10
9.64834114392485
 20
6.66722555267706
 30
0.0
 10
9.647310131881374
 20
6.667281755298807
 30
0.0
 10
9.646331317793308
 20
6.667178145109545
 30
0.0
 10
9.645403513912703
 20
6.666900454038871
 30
0.0
 10
9.644548965328372
 20
6.666410812754691
 30
0.0
 10
9.644034673302627
 20
6.665971260834586
 30
0.0
 10
9.643771672734255
 20
6.665746481139335
 30
0.0
  0
LINE
  5
366
330
1F
100
AcDbEntity
  8
0
  6
Continuous
 62
     7
370
    18
100
AcDbLine
 10
9.6524733922
 20
6.6662944697
 30
0.0
 11
9.6517662855
 21
6.6658862657
 31
0.0
  0
LINE
  5
367
330
1F
100
AcDbEntity
  8
0
  6
Continuous
 62
     7
370
    18
100
AcDbLine
 10
9.664116149
 20
6.6324337358
 30
0.0
 11
9.6634090422
 21
6.6320255317
 31
0.0
  0
LINE
  5
368
330
1F
100
AcDbEntity
  8
0
  6
Continuous
 62
     7
370
    18
100
AcDbLine
 10
9.6332935457
 20
6.650199439
 30
0.0
 11
9.632586439
 21
6.649791235
 31
0.0
  0
LINE
  5
369
330
1F
100
AcDbEntity
  8
0
  6
Continuous
 62
     7
370
    18
100
AcDbLine
 10
9.6525576728
 20
6.6039584075
 30
0.0
 11
9.651850566
 21
6.6035502035
 31
0.0
  0
LINE
  5
36A
330
1F
100
AcDbEntity
  8
0
  6
Continuous
 62
     7
370
    18
100
AcDbLine
 10
9.6391329843
 20
6.6183958696
 30
0.0
 11
9.6384258775
 21
6.6179876655
 31
0.0
  0
SPLINE
  5
36B
330
1F
100
AcDbEntity
  8
0
  6
Continuous
 62
     7
370
    18
100
AcDbSpline
210
0.0
220
0.0
230
1.0
 70
     8
 71
     3
 72
    10
 73
     6
 74
     0
 42
0.000000001
 43
0.00000001
 40
0.0
 40
0.0
 40
0.0
 40
0.0
 40
0.1419330411194913
 40
0.5706211410878319
 40
1.0
 40
1.0
 40
1.0
 40
1.0
 10
9.591127588356194
 20
6.651339992311612
 30
0.0
 10
9.59150133381516
 20
6.651432800140151
 30
0.0
 10
9.593003923054344
 20
6.651805920511595
 30
0.0
 10
9.594398477741892
 20
6.65463142267219
 30
0.0
 10
9.594642954739886
 20
6.657652025126831
 30
0.0
 10
9.594765291643018
 20
6.659163542173115
 30
0.0
  0
SPLINE
  5
36C
330
1F
100
AcDbEntity
  8
0
  6
Continuous
 62
     7
370
    18
100
AcDbSpline
210
0.0
220
0.0
230
1.0
 70
     8
 71
     3
 72
    23
 73
    19
 74
     0
 42
0.000000001
 43
0.00000001
 40
0.0
 40
0.0
 40
0.0
 40
0.0
 40
0.0670590684916349
 40
0.1312849360638157
 40
0.1936839294531472
 40
0.2544690426430553
 40
0.314739531570004
 40
0.37544546553224
 40
0.4359548907264965
 40
0.4982363164308154
 40
0.5605177421351362
 40
0.6215735474205263
 40
0.6819351712114161
 40
0.7428219349666515
 40
0.8042479941570493
 40
0.8674565928158596
 40
0.93226466565501
 40
1.0
 40
1.0
 40
1.0
 40
1.0
 10
9.594765291643018
 20
6.659163542173115
 30
0.0
 10
9.594758083027713
 20
6.659627318884002
 30
0.0
 10
9.594743970356294
 20
6.660535278049051
 30
0.0
 10
9.594573111102461
 20
6.661947799947429
 30
0.0
 10
9.59434514113173
 20
6.663337249095445
 30
0.0
 10
9.593986347148626
 20
6.664733201344637
 30
0.0
 10
9.593543357910999
 20
6.666125974707677
 30
0.0
 10
9.592984656469293
 20
6.667513366490224
 30
0.0
 10
9.592342920291625
 20
6.668901165237594
 30
0.0
 10
9.591596852010564
 20
6.670263977924463
 30
0.0
 10
9.590788132298611
 20
6.671596305183513
 30
0.0
 10
9.589901289243029
 20
6.672843239179463
 30
0.0
 10
9.588968460899208
 20
6.674016376138051
 30
0.0
 10
9.587977965596735
 20
6.675100531611736
 30
0.0
 10
9.5869340656872
 20
6.676109842808404
 30
0.0
 10
9.585837715723617
 20
6.677035035968364
 30
0.0
 10
9.584683655831633
 20
6.677869015400976
 30
0.0
 10
9.583897524141696
 20
6.678343240285664
 30
0.0
 10
9.583495777317857
 20
6.678585589428496
 30
0.0
  0
SPLINE
  5
36D
330
1F
100
AcDbEntity
  8
0
  6
Continuous
 62
     7
370
    18
100
AcDbSpline
210
0.0
220
0.0
230
1.0
 70
     8
 71
     3
 72
    11
 73
     7
 74
     0
 42
0.000000001
 43
0.00000001
 40
0.0
 40
0.0
 40
0.0
 40
0.0
 40
0.2093977625857042
 40
0.4467474999317983
 40
0.7082787400881889
 40
1.0
 40
1.0
 40
1.0
 40
1.0
 10
9.583495777317857
 20
6.678585589428496
 30
0.0
 10
9.583142095891684
 20
6.678778676722247
 30
0.0
 10
9.582387521005288
 20
6.679190626041509
 30
0.0
 10
9.58120215852515
 20
6.679676142985054
 30
0.0
 10
9.579890602574805
 20
6.680144049195643
 30
0.0
 10
9.57898741887129
 20
6.680388699533107
 30
0.0
 10
9.578511184443267
 20
6.68051769977201
 30
0.0
  0
LINE
  5
36E
330
1F
100
AcDbEntity
  8
0
  6
Continuous
 62
     7
370
    18
100
AcDbLine
 10
9.5785111844
 20
6.6805176998
 30
0.0
 11
9.5792179777
 21
6.6872326917
 31
0.0
  0
SPLINE
  5
36F
330
1F
100
AcDbEntity
  8
0
  6
Continuous
 62
     7
370
    18
100
AcDbSpline
210
0.0
220
0.0
230
1.0
 70
     8
 71
     3
 72
     9
 73
     5
 74
     0
 42
0.000000001
 43
0.00000001
 40
0.0
 40
0.0
 40
0.0
 40
0.0
 40
0.4401576852671492
 40
0.9999999999999999
 40
0.9999999999999999
 40
0.9999999999999999
 40
0.9999999999999999
 10
9.589400217317051
 20
6.686087337595479
 30
0.0
 10
9.590040491206722
 20
6.686549088732878
 30
0.0
 10
9.591495137827923
 20
6.6875981471791
 30
0.0
 10
9.591615594546575
 20
6.690074548315826
 30
0.0
 10
9.59168303131477
 20
6.691460942460417
 30
0.0
  0
SPLINE
  5
370
330
1F
100
AcDbEntity
  8
0
  6
Continuous
 62
     7
370
    18
100
AcDbSpline
210
0.0
220
0.0
230
1.0
 70
     8
 71
     3
 72
    23
 73
    19
 74
     0
 42
0.000000001
 43
0.00000001
 40
0.0
 40
0.0
 40
0.0
 40
0.0
 40
0.0650546391360242
 40
0.1272285226197123
 40
0.1880101438087931
 40
0.2469835454742398
 40
0.3066659727845306
 40
0.3657818598972571
 40
0.426171045359083
 40
0.487872476073495
 40
0.5497514992996214
 40
0.6112034382739596
 40
0.672845557784898
 40
0.7349546921179263
 40
0.7979758693229828
 40
0.8625564745858556
 40
0.9298171665527549
 40
1.0
 40
1.0
 40
1.0
 40
1.0
 10
9.59168303131477
 20
6.691460942460417
 30
0.0
 10
9.591677343975894
 20
6.691816921991705
 30
0.0
 10
9.591666221145417
 20
6.692513117535175
 30
0.0
 10
9.591542065718919
 20
6.693596026930678
 30
0.0
 10
9.591337231260333
 20
6.694672628908028
 30
0.0
 10
9.591057455910311
 20
6.695752966598392
 30
0.0
 10
9.5906974627566
 20
6.696831741327169
 30
0.0
 10
9.59025923812087
 20
6.697915215241794
 30
0.0
 10
9.589741157567035
 20
6.698995628964866
 30
0.0
 10
9.58913898464378
 20
6.700059968251137
 30
0.0
 10
9.58847908741434
 20
6.701094944562394
 30
0.0
 10
9.587764385480748
 20
6.702078583954111
 30
0.0
 10
9.58700560113391
 20
6.703011081245802
 30
0.0
 10
9.586191274091806
 20
6.70385826638433
 30
0.0
 10
9.585348778499302
 20
6.704683471454464
 30
0.0
 10
9.584447380179773
 20
6.705393502225071
 30
0.0
 10
9.583507781953136
 20
6.706090484644608
 30
0.0
 10
9.58286221634707
 20
6.706474405042424
 30
0.0
 10
9.582532570965279
 20
6.706670446443835
 30
0.0
  0
SPLINE
  5
371
330
1F
100
AcDbEntity
  8
0
  6
Continuous
 62
     7
370
    18
100
AcDbSpline
210
0.0
220
0.0
230
1.0
 70
     8
 71
     3
 72
     9
 73
     5
 74
     0
 42
0.000000001
 43
0.00000001
 40
0.0
 40
0.0
 40
0.0
 40
0.0
 40
0.54077430736814
 40
1.0
 40
1.0
 40
1.0
 40
1.0
 10
9.582532570965279
 20
6.706670446443835
 30
0.0
 10
9.581087323083382
 20
6.707389724137167
 30
0.0
 10
9.578414770297119
 20
6.708719812648274
 30
0.0
 10
9.57640262108621
 20
6.707864842675804
 30
0.0
 10
9.575478590471151
 20
6.707472218498015
 30
0.0
  0
LINE
  5
372
330
1F
100
AcDbEntity
  8
0
  6
Continuous
 62
     7
370
    18
100
AcDbLine
 10
9.5724189043
 20
6.7018311006
 30
0.0
 11
9.5647132534
 21
6.7071692982
 31
0.0
  0
SPLINE
  5
373
330
1F
100
AcDbEntity
  8
0
  6
Continuous
 62
     7
370
    18
100
AcDbSpline
210
0.0
220
0.0
230
1.0
 70
     8
 71
     3
 72
     9
 73
     5
 74
     0
 42
0.000000001
 43
0.00000001
 40
0.0
 40
0.0
 40
0.0
 40
0.0
 40
0.6045147296780663
 40
1.0
 40
1.0
 40
1.0
 40
1.0
 10
9.564713253442589
 20
6.707169298216753
 30
0.0
 10
9.56523778686324
 20
6.709634609506471
 30
0.0
 10
9.566105480229337
 20
6.713712775295802
 30
0.0
 10
9.568950000315784
 20
6.715341759825344
 30
0.0
 10
9.570074966111108
 20
6.715985999212359
 30
0.0
  0
SPLINE
  5
374
330
1F
100
AcDbEntity
  8
0
  6
Continuous
 62
     7
370
    18
100
AcDbSpline
210
0.0
220
0.0
230
1.0
 70
     8
 71
     3
 72
     9
 73
     5
 74
     0
 42
0.000000001
 43
0.00000001
 40
0.0
 40
0.0
 40
0.0
 40
0.0
 40
0.3931870641560132
 40
1.0
 40
1.0
 40
1.0
 40
1.0
 10
9.595712826559458
 20
6.679317182097249
 30
0.0
 10
9.59519974311415
 20
6.679009387872906
 30
0.0
 10
9.593894808409829
 20
6.678226569076454
 30
0.0
 10
9.592211090106096
 20
6.678255766553082
 30
0.0
 10
9.591189388059073
 20
6.678273483959593
 30
0.0
  0
SPLINE
  5
375
330
1F
100
AcDbEntity
  8
0
  6
Continuous
 62
     7
370
    18
100
AcDbSpline
210
0.0
220
0.0
230
1.0
 70
     8
 71
     3
 72
    10
 73
     6
 74
     0
 42
0.000000001
 43
0.00000001
 40
0.0
 40
0.0
 40
0.0
 40
0.0
 40
0.1541683712909605
 40
0.5767451225024902
 40
1.0
 40
1.0
 40
1.0
 40
1.0
 10
9.596892121313614
 20
6.642788701694458
 30
0.0
 10
9.596348075885345
 20
6.642401775675034
 30
0.0
 10
9.594312797542932
 20
6.640954282310452
 30
0.0
 10
9.58932812790292
 20
6.641070511210596
 30
0.0
 10
9.584871188170984
 20
6.64323658023708
 30
0.0
 10
9.582640931679945
 20
6.64432048304863
 30
0.0
  0
SPLINE
  5
376
330
1F
100
AcDbEntity
  8
0
  6
Continuous
 62
     7
370
    18
100
AcDbSpline
210
0.0
220
0.0
230
1.0
 70
     8
 71
     3
 72
    12
 73
     8
 74
     0
 42
0.000000001
 43
0.00000001
 40
0.0
 40
0.0
 40
0.0
 40
0.0
 40
0.1912714788202337
 40
0.3823440584655389
 40
0.5734554178753047
 40
0.7983224317362573
 40
1.0
 40
1.0
 40
1.0
 40
1.0
 10
9.582640931679945
 20
6.64432048304863
 30
0.0
 10
9.580902597386405
 20
6.645441054186739
 30
0.0
 10
9.577427736456478
 20
6.647681031204679
 30
0.0
 10
9.572521056129085
 20
6.652850581516238
 30
0.0
 10
9.568256643497184
 20
6.659410413409969
 30
0.0
 10
9.565065337562993
 20
6.666795662070397
 30
0.0
 10
9.564404604528331
 20
6.671610469069132
 30
0.0
 10
9.564092198657324
 20
6.673886992105311
 30
0.0
  0
LINE
  5
377
330
1F
100
AcDbEntity
  8
0
  6
Continuous
 62
     7
370
    18
100
AcDbLine
 10
9.582532571
 20
6.7066704464
 30
0.0
 11
9.5818254642
 21
6.7062622424
 31
0.0
  0
LINE
  5
378
330
1F
100
AcDbEntity
  8
0
  6
Continuous
 62
     7
370
    18
100
AcDbLine
 10
9.5916830313
 20
6.6914609425
 30
0.0
 11
9.5909759245
 21
6.6910527384
 31
0.0
  0
LINE
  5
379
330
1F
100
AcDbEntity
  8
0
  6
Continuous
 62
     7
370
    18
100
AcDbLine
 10
9.5911893881
 20
6.678273484
 30
0.0
 11
9.5904822813
 21
6.6778652799
 31
0.0
  0
LINE
  5
37A
330
1F
100
AcDbEntity
  8
0
  6
Continuous
 62
     7
370
    18
100
AcDbLine
 10
9.5647132534
 20
6.7071692982
 30
0.0
 11
9.5640061467
 21
6.7067610942
 31
0.0
  0
LINE
  5
37B
330
1F
100
AcDbEntity
  8
0
  6
Continuous
 62
     7
370
    18
100
AcDbLine
 10
9.6140294187
 20
6.6270901153
 30
0.0
 11
9.6140294187
 21
6.6351719084
 31
0.0
  0
LINE
  5
37C
330
1F
100
AcDbEntity
  8
0
  6
Continuous
 62
     7
370
    18
100
AcDbLine
 10
9.6210279627
 20
6.6230499418
 30
0.0
 11
9.6140294187
 21
6.6270901153
 31
0.0
  0
LINE
  5
37D
330
1F
100
AcDbEntity
  8
0
  6
Continuous
 62
     7
370
    18
100
AcDbLine
 10
9.5834957773
 20
6.6785855894
 30
0.0
 11
9.5827886705
 21
6.6781773854
 31
0.0
  0
LINE
  5
37E
330
1F
100
AcDbEntity
  8
0
  6
Continuous
 62
     7
370
    18
100
AcDbLine
 10
9.5947652916
 20
6.6591635422
 30
0.0
 11
9.5940581849
 21
6.6587553381
 31
0.0
  0
LINE
  5
37F
330
1F
100
AcDbEntity
  8
0
  6
Continuous
 62
     7
370
    18
100
AcDbLine
 10
9.6140294187
 20
6.6270901153
 30
0.0
 11
9.6133223119
 21
6.6266819113
 31
0.0
  0
LINE
  5
380
330
1F
100
AcDbEntity
  8
0
  6
Continuous
 62
     7
370
    18
100
AcDbLine
 10
9.5826409317
 20
6.644320483
 30
0.0
 11
9.5819338249
 21
6.643912279
 31
0.0
  0
LINE
  5
381
330
1F
100
AcDbEntity
  8
0
  6
Continuous
 62
     7
370
    18
100
AcDbLine
 10
9.5785111844
 20
6.6805176998
 30
0.0
 11
9.5778040777
 21
6.6801094957
 31
0.0
  0
SPLINE
  5
382
330
1F
100
AcDbEntity
  8
0
  6
Continuous
 62
     7
370
    18
100
AcDbSpline
210
0.0
220
0.0
230
1.0
 70
     8
 71
     3
 72
    12
 73
     8
 74
     0
 42
0.000000001
 43
0.00000001
 40
0.0
 40
0.0
 40
0.0
 40
0.0
 40
0.2471857709918515
 40
0.4942828086206378
 40
0.7410846441047406
 40
0.9260925042386182
 40
1.0
 40
1.0
 40
1.0
 40
1.0
 10
9.489968440482551
 20
6.732939261149535
 30
0.0
 10
9.490010133521244
 20
6.735533625035784
 30
0.0
 10
9.490093504631897
 20
6.740721421498074
 30
0.0
 10
9.490972971921693
 20
6.748042957446683
 30
0.0
 10
9.492802618679113
 20
6.753851241818736
 30
0.0
 10
9.494951021305841
 20
6.757526456963461
 30
0.0
 10
9.496759317699013
 20
6.758280868933546
 30
0.0
 10
9.497275496654686
 20
6.758496216143403
 30
0.0
  0
SPLINE
  5
383
330
1F
100
AcDbEntity
  8
0
  6
Continuous
 62
     7
370
    18
100
AcDbSpline
210
0.0
220
0.0
230
1.0
 70
     8
 71
     3
 72
    10
 73
     6
 74
     0
 42
0.000000001
 43
0.00000001
 40
0.0
 40
0.0
 40
0.0
 40
0.0
 40
0.2344019857846678
 40
0.6168516049504611
 40
0.9999999999999999
 40
0.9999999999999999
 40
0.9999999999999999
 40
0.9999999999999999
 10
9.521234115266077
 20
6.685202675690642
 30
0.0
 10
9.520508987660376
 20
6.684753739073541
 30
0.0
 10
9.518600743897533
 20
6.683572318737649
 30
0.0
 10
9.51430525199108
 20
6.684145648064712
 30
0.0
 10
9.510924490914764
 20
6.68584685153752
 30
0.0
 10
9.509232567534106
 20
6.686698229634324
 30
0.0
  0
SPLINE
  5
384
330
1F
100
AcDbEntity
  8
0
  6
Continuous
 62
     7
370
    18
100
AcDbSpline
210
0.0
220
0.0
230
1.0
 70
     8
 71
     3
 72
    15
 73
    11
 74
     0
 42
0.000000001
 43
0.00000001
 40
0.0
 40
0.0
 40
0.0
 40
0.0
 40
0.1379032299933895
 40
0.2688733426002943
 40
0.3951781273461132
 40
0.5170892381308839
 40
0.6367430265135502
 40
0.756221816463797
 40
0.8766283594636818
 40
1.0
 40
1.0
 40
1.0
 40
1.0
 10
9.509232567534106
 20
6.686698229634324
 30
0.0
 10
9.508537501993114
 20
6.68712237766549
 30
0.0
 10
9.507182315495001
 20
6.687949349585603
 30
0.0
 10
9.50520316554018
 20
6.689395185810797
 30
0.0
 10
9.503345627740924
 20
6.691001337002979
 30
0.0
 10
9.50159403482964
 20
6.692728434533874
 30
0.0
 10
9.499968075189583
 20
6.694624671255411
 30
0.0
 10
9.498459985510006
 20
6.696660368364031
 30
0.0
 10
9.497039461815996
 20
6.698825912795451
 30
0.0
 10
9.496221722018019
 20
6.700359547464513
 30
0.0
 10
9.495807878995054
 20
6.701135691672173
 30
0.0
  0
SPLINE
  5
385
330
1F
100
AcDbEntity
  8
0
  6
Continuous
 62
     7
370
    18
100
AcDbSpline
210
0.0
220
0.0
230
1.0
 70
     8
 71
     3
 72
    15
 73
    11
 74
     0
 42
0.000000001
 43
0.00000001
 40
0.0
 40
0.0
 40
0.0
 40
0.0
 40
0.097420668177216
 40
0.2008855880393196
 40
0.3111719701726499
 40
0.4297979458253723
 40
0.557739926364589
 40
0.6947152693641601
 40
0.8421299102060559
 40
0.9999999999999999
 40
0.9999999999999999
 40
0.9999999999999999
 40
0.9999999999999999
 10
9.495807878995054
 20
6.701135691672173
 30
0.0
 10
9.495331536156602
 20
6.702204152671778
 30
0.0
 10
9.494349296833045
 20
6.704407364990262
 30
0.0
 10
9.49319967086984
 20
6.707860864560717
 30
0.0
 10
9.492174184156806
 20
6.711524081663952
 30
0.0
 10
9.491369365104717
 20
6.715401548532806
 30
0.0
 10
9.490738991162209
 20
6.719492786412697
 30
0.0
 10
9.490283703790762
 20
6.723804738812684
 30
0.0
 10
9.490026055961112
 20
6.728322636826225
 30
0.0
 10
9.489988079187304
 20
6.731365647177883
 30
0.0
 10
9.489968440482551
 20
6.732939261149535
 30
0.0
  0
SPLINE
  5
386
330
1F
100
AcDbEntity
  8
0
  6
Continuous
 62
     7
370
    18
100
AcDbSpline
210
0.0
220
0.0
230
1.0
 70
     8
 71
     3
 72
    11
 73
     7
 74
     0
 42
0.000000001
 43
0.00000001
 40
0.0
 40
0.0
 40
0.0
 40
0.0
 40
0.1493949139836706
 40
0.3193908560958723
 40
0.659530026843166
 40
1.0
 40
1.0
 40
1.0
 40
1.0
 10
9.516116900247725
 20
6.694232175529565
 30
0.0
 10
9.516843027325415
 20
6.694739133602466
 30
0.0
 10
9.518395411826287
 20
6.695822957466287
 30
0.0
 10
9.519847320060583
 20
6.700293907375702
 30
0.0
 10
9.520682720559735
 20
6.70677737057833
 30
0.0
 10
9.520754924331996
 20
6.712373922078283
 30
0.0
 10
9.52079104376504
 20
6.715173557898675
 30
0.0
  0
SPLINE
  5
387
330
1F
100
AcDbEntity
  8
0
  6
Continuous
 62
     7
370
    18
100
AcDbSpline
210
0.0
220
0.0
230
1.0
 70
     8
 71
     3
 72
    23
 73
    19
 74
     0
 42
0.000000001
 43
0.00000001
 40
0.0
 40
0.0
 40
0.0
 40
0.0
 40
0.1156341026995447
 40
0.2215505648509136
 40
0.3170614885131584
 40
0.4031682101561656
 40
0.4802018633519436
 40
0.5476729137517634
 40
0.6070619439212038
 40
0.6586807285304999
 40
0.7057532347379966
 40
0.7501195176610347
 40
0.792590568079876
 40
0.8338794889926727
 40
0.8747756796479279
 40
0.9156225135228682
 40
0.9568788497046059
 40
1.0
 40
1.0
 40
1.0
 40
1.0
 10
9.52079104376504
 20
6.715173557898675
 30
0.0
 10
9.520783746742454
 20
6.716484930057692
 30
0.0
 10
9.52076976592332
 20
6.718997469488338
 30
0.0
 10
9.52061175378944
 20
6.722669112682335
 30
0.0
 10
9.520364140491624
 20
6.726050263791953
 30
0.0
 10
9.520025426584004
 20
6.729144748324068
 30
0.0
 10
9.519575333111275
 20
6.731961206533034
 30
0.0
 10
9.519029258026613
 20
6.734495940559536
 30
0.0
 10
9.518379057954117
 20
6.73674969283909
 30
0.0
 10
9.51760433985657
 20
6.738750712110094
 30
0.0
 10
9.516745357378989
 20
6.740529189497633
 30
0.0
 10
9.515832710469986
 20
6.74214459831869
 30
0.0
 10
9.51488406084763
 20
6.743646174058481
 30
0.0
 10
9.513845197050143
 20
6.74499284576478
 30
0.0
 10
9.512760282790573
 20
6.7462317588686
 30
0.0
 10
9.511606060930413
 20
6.747308174949225
 30
0.0
 10
9.51039743492681
 20
6.748269097634284
 30
0.0
 10
9.509570759702626
 20
6.748775496496275
 30
0.0
 10
9.509148286978256
 20
6.74903429184974
 30
0.0
  0
SPLINE
  5
388
330
1F
100
AcDbEntity
  8
0
  6
Continuous
 62
     7
370
    18
100
AcDbSpline
210
0.0
220
0.0
230
1.0
 70
     8
 71
     3
 72
     9
 73
     5
 74
     0
 42
0.000000001
 43
0.00000001
 40
0.0
 40
0.0
 40
0.0
 40
0.0
 40
0.6920350322429666
 40
1.0
 40
1.0
 40
1.0
 40
1.0
 10
9.509148286978256
 20
6.74903429184974
 30
0.0
 10
9.507346481825415
 20
6.749846165459566
 30
0.0
 10
9.504742848961623
 20
6.751019333828218
 30
0.0
 10
9.503003005407562
 20
6.749886809755331
 30
0.0
 10
9.502467194543533
 20
6.749538032015741
 30
0.0
  0
LINE
  5
389
330
1F
100
AcDbEntity
  8
0
  6
Continuous
 62
     7
370
    18
100
AcDbLine
 10
9.5346612152
 20
6.6933742665
 30
0.0
 11
9.5346612152
 21
6.7005662395
 31
0.0
  0
LINE
  5
38A
330
1F
100
AcDbEntity
  8
0
  6
Continuous
 62
     7
370
    18
100
AcDbLine
 10
9.5563004958
 20
6.6808821758
 30
0.0
 11
9.5346612152
 21
6.6933742665
 31
0.0
  0
LINE
  5
38B
330
1F
100
AcDbEntity
  8
0
  6
Continuous
 62
     7
370
    18
100
AcDbLine
 10
9.5346612152
 20
6.6933742665
 30
0.0
 11
9.5339541085
 21
6.6929660625
 31
0.0
  0
LINE
  5
38C
330
1F
100
AcDbEntity
  8
0
  6
Continuous
 62
     7
370
    18
100
AcDbLine
 10
9.509148287
 20
6.7490342918
 30
0.0
 11
9.5084411802
 21
6.7486260878
 31
0.0
  0
LINE
  5
38D
330
1F
100
AcDbEntity
  8
0
  6
Continuous
 62
     7
370
    18
100
AcDbLine
 10
9.5207910438
 20
6.7151735579
 30
0.0
 11
9.520083937
 21
6.7147653538
 31
0.0
  0
SPLINE
  5
38E
330
1F
100
AcDbEntity
  8
0
  6
Continuous
 62
     7
370
    18
100
AcDbSpline
210
0.0
220
0.0
230
1.0
 70
     8
 71
     3
 72
    23
 73
    19
 74
     0
 42
0.000000001
 43
0.00000001
 40
0.0
 40
0.0
 40
0.0
 40
0.0
 40
0.1156341026995447
 40
0.2215505648509136
 40
0.3170614885131584
 40
0.4031682101561656
 40
0.4802018633519436
 40
0.5476729137517634
 40
0.6070619439212038
 40
0.6586807285304999
 40
0.7057532347379966
 40
0.7501195176610347
 40
0.792590568079876
 40
0.8338794889926727
 40
0.8747756796479279
 40
0.9156225135228682
 40
0.9568788497046059
 40
1.0
 40
1.0
 40
1.0
 40
1.0
 10
9.520083936983854
 20
6.714765353842763
 30
0.0
 10
9.520076639961268
 20
6.716076726001781
 30
0.0
 10
9.520062659142134
 20
6.718589265432427
 30
0.0
 10
9.519904647008254
 20
6.722260908626424
 30
0.0
 10
9.519657033710438
 20
6.725642059736041
 30
0.0
 10
9.519318319802819
 20
6.728736544268157
 30
0.0
 10
9.518868226330088
 20
6.731553002477123
 30
0.0
 10
9.518322151245426
 20
6.734087736503624
 30
0.0
 10
9.51767195117293
 20
6.736341488783179
 30
0.0
 10
9.516897233075381
 20
6.738342508054182
 30
0.0
 10
9.516038250597802
 20
6.740120985441721
 30
0.0
 10
9.5151256036888
 20
6.741736394262778
 30
0.0
 10
9.514176954066444
 20
6.74323797000257
 30
0.0
 10
9.513138090268958
 20
6.744584641708868
 30
0.0
 10
9.512053176009386
 20
6.745823554812688
 30
0.0
 10
9.510898954149226
 20
6.746899970893313
 30
0.0
 10
9.509690328145624
 20
6.747860893578372
 30
0.0
 10
9.50886365292144
 20
6.748367292440363
 30
0.0
 10
9.508441180197071
 20
6.748626087793828
 30
0.0
  0
SPLINE
  5
38F
330
1F
100
AcDbEntity
  8
0
  6
Continuous
 62
     7
370
    18
100
AcDbSpline
210
0.0
220
0.0
230
1.0
 70
     8
 71
     3
 72
    23
 73
    19
 74
     0
 42
0.000000001
 43
0.00000001
 40
0.0
 40
0.0
 40
0.0
 40
0.0
 40
0.0407861577516981
 40
0.0808781390926979
 40
0.1202808817853033
 40
0.1602037870694768
 40
0.2004809323198157
 40
0.2425508656877319
 40
0.2867496219958774
 40
0.3332473598987214
 40
0.3843802392510082
 40
0.4437238495442138
 40
0.5116298421176317
 40
0.5889765724864072
 40
0.6762109599366939
 40
0.7736812652401784
 40
0.8815552458988714
 40
1.0
 40
1.0
 40
1.0
 40
1.0
 10
9.50852546075292
 20
6.694298406618061
 30
0.0
 10
9.508923465639997
 20
6.694086184978887
 30
0.0
 10
9.50971270140995
 20
6.693665353692056
 30
0.0
 10
9.51087447270032
 20
6.693226499213035
 30
0.0
 10
9.511981522256391
 20
6.693020160195331
 30
0.0
 10
9.513042766209058
 20
6.692974590848443
 30
0.0
 10
9.51405893736648
 20
6.693119245757501
 30
0.0
 10
9.515006192471366
 20
6.693492272196376
 30
0.0
 10
9.515926794840055
 20
6.694016423162521
 30
0.0
 10
9.51679919282157
 20
6.694757997778759
 30
0.0
 10
9.517609886932524
 20
6.695799785210551
 30
0.0
 10
9.518259477887083
 20
6.697297407557692
 30
0.0
 10
9.518837357011494
 20
6.699172742751189
 30
0.0
 10
9.519295673359114
 20
6.701477657336858
 30
0.0
 10
9.51964639186411
 20
6.704201761154228
 30
0.0
 10
9.519907878264293
 20
6.707335295209795
 30
0.0
 10
9.520062016950652
 20
6.710892330868132
 30
0.0
 10
9.520076406276496
 20
6.713434762673223
 30
0.0
 10
9.520083936983854
 20
6.714765353842763
 30
0.0
  0
SPLINE
  5
390
330
1F
100
AcDbEntity
  8
0
  6
Continuous
 62
     7
370
    18
100
AcDbSpline
210
0.0
220
0.0
230
1.0
 70
     8
 71
     3
 72
    23
 73
    19
 74
     0
 42
0.000000001
 43
0.00000001
 40
0.0
 40
0.0
 40
0.0
 40
0.0
 40
0.1184055081537718
 40
0.2266543328167021
 40
0.3240923419286043
 40
0.4117048030053215
 40
0.4890259050064168
 40
0.5569093973430759
 40
0.6162333444927071
 40
0.6673492812770774
 40
0.7135123932013491
 40
0.7576965045209787
 40
0.7994925114422934
 40
0.8399760647439394
 40
0.8798857418167779
 40
0.9191486593857424
 40
0.9592273564930834
 40
1.0
 40
1.0
 40
1.0
 40
1.0
 10
9.496966984521986
 20
6.728110486439866
 30
0.0
 10
9.496974635620496
 20
6.726771140325539
 30
0.0
 10
9.496989281515399
 20
6.724207335611664
 30
0.0
 10
9.497142295566183
 20
6.720468244391553
 30
0.0
 10
9.497405702956476
 20
6.717022700414644
 30
0.0
 10
9.497753944731354
 20
6.713890018592746
 30
0.0
 10
9.498213764871412
 20
6.711050794323377
 30
0.0
 10
9.498791123441748
 20
6.708508145707154
 30
0.0
 10
9.499441943873332
 20
6.706261000437797
 30
0.0
 10
9.500247321824759
 20
6.704285737980072
 30
0.0
 10
9.501129121726958
 20
6.702545548362592
 30
0.0
 10
9.502039519862224
 20
6.700961168753524
 30
0.0
 10
9.502999934751674
 20
6.699506762023965
 30
0.0
 10
9.504004099804222
 20
6.698176677588349
 30
0.0
 10
9.505067595363268
 20
6.696994586929544
 30
0.0
 10
9.50617879228166
 20
6.695941311855247
 30
0.0
 10
9.50733793234635
 20
6.695035172984758
 30
0.0
 10
9.508127359402062
 20
6.694545396655711
 30
0.0
 10
9.50852546075292
 20
6.694298406618061
 30
0.0
  0
SPLINE
  5
391
330
1F
100
AcDbEntity
  8
0
  6
Continuous
 62
     7
370
    18
100
AcDbSpline
210
0.0
220
0.0
230
1.0
 70
     8
 71
     3
 72
    15
 73
    11
 74
     0
 42
0.000000001
 43
0.00000001
 40
0.0
 40
0.0
 40
0.0
 40
0.0
 40
0.0838887288335164
 40
0.1771553326743529
 40
0.2825157085895134
 40
0.3999935157252228
 40
0.5294873536901313
 40
0.6727997767645384
 40
0.8295345107876443
 40
1.0
 40
1.0
 40
1.0
 40
1.0
 10
9.500446567470673
 20
6.748486303241369
 30
0.0
 10
9.500160159338517
 20
6.748098716881042
 30
0.0
 10
9.49955532566612
 20
6.74728021609365
 30
0.0
 10
9.49887880402675
 20
6.745641252919661
 30
0.0
 10
9.498278864093491
 20
6.743664201084306
 30
0.0
 10
9.497791594456562
 20
6.741299566326919
 30
0.0
 10
9.49743103678201
 20
6.73854287631168
 30
0.0
 10
9.497151786874383
 20
6.735425070777914
 30
0.0
 10
9.497005323914841
 20
6.731904296436309
 30
0.0
 10
9.496980116918284
 20
6.729409980579901
 30
0.0
 10
9.496966984521986
 20
6.728110486439866
 30
0.0
  0
SPLINE
  5
392
330
1F
100
AcDbEntity
  8
0
  6
Continuous
 62
     7
370
    18
100
AcDbSpline
210
0.0
220
0.0
230
1.0
 70
     8
 71
     3
 72
    15
 73
    11
 74
     0
 42
0.000000001
 43
0.00000001
 40
0.0
 40
0.0
 40
0.0
 40
0.0
 40
0.127682869136431
 40
0.2517742563342021
 40
0.3728062010709586
 40
0.4927364553926408
 40
0.6140149012905269
 40
0.7371600623355293
 40
0.8655879353818473
 40
1.0
 40
1.0
 40
1.0
 40
1.0
 10
9.508441180197071
 20
6.748626087793828
 30
0.0
 10
9.508043052584853
 20
6.748843982691686
 30
0.0
 10
9.507257995950633
 20
6.749273643508664
 30
0.0
 10
9.50610945400174
 20
6.749707800652565
 30
0.0
 10
9.505016038661267
 20
6.749965374779093
 30
0.0
 10
9.503985026617794
 20
6.750021577400839
 30
0.0
 10
9.503006212529726
 20
6.749917967211578
 30
0.0
 10
9.502078408649123
 20
6.749640276140904
 30
0.0
 10
9.501223860064792
 20
6.749150634856724
 30
0.0
 10
9.500709568039047
 20
6.748711082936619
 30
0.0
 10
9.500446567470673
 20
6.748486303241369
 30
0.0
  0
LINE
  5
393
330
1F
100
AcDbEntity
  8
0
  6
Continuous
 62
     7
370
    18
100
AcDbLine
 10
9.4899684405
 20
6.7329392611
 30
0.0
 11
9.4892613337
 21
6.7325310571
 31
0.0
  0
LINE
  5
394
330
1F
100
AcDbEntity
  8
0
  6
Continuous
 62
     7
370
    18
100
AcDbLine
 10
9.5092325675
 20
6.6866982296
 30
0.0
 11
9.5085254608
 21
6.6862900256
 31
0.0
  0
LINE
  5
395
330
1F
100
AcDbEntity
  8
0
  6
Continuous
 62
     7
370
    18
100
AcDbLine
 10
9.495807879
 20
6.7011356917
 30
0.0
 11
9.4951007722
 21
6.7007274876
 31
0.0
  0
LINE
  5
396
330
1F
100
AcDbEntity
  8
0
  6
Continuous
 62
     7
370
    18
100
AcDbLine
 10
9.4468802542
 20
6.7235832741
 30
0.0
 11
9.4398817101
 21
6.7276234475
 31
0.0
  0
LINE
  5
397
330
1F
100
AcDbEntity
  8
0
  6
Continuous
 62
     7
370
    18
100
AcDbLine
 10
9.4398817101
 20
6.7276234475
 30
0.0
 11
9.4398817101
 21
6.7817078264
 31
0.0
  0
SPLINE
  5
398
330
1F
100
AcDbEntity
  8
0
  6
Continuous
 62
     7
370
    18
100
AcDbSpline
210
0.0
220
0.0
230
1.0
 70
     8
 71
     3
 72
    15
 73
    11
 74
     0
 42
0.000000001
 43
0.00000001
 40
0.0
 40
0.0
 40
0.0
 40
0.0
 40
0.1116746448344033
 40
0.2321035109070487
 40
0.362329606145318
 40
0.5015403706238744
 40
0.6415111562240647
 40
0.7710895894770928
 40
0.8901574839199068
 40
1.0
 40
1.0
 40
1.0
 40
1.0
 10
9.439881710148503
 20
6.781707826437385
 30
0.0
 10
9.43943786284405
 20
6.781470195494441
 30
0.0
 10
9.438515374862797
 20
6.780976305621419
 30
0.0
 10
9.436961027835073
 20
6.780417710243983
 30
0.0
 10
9.435214668441931
 20
6.77997454316256
 30
0.0
 10
9.43332460860575
 20
6.779635766744478
 30
0.0
 10
9.431388955578472
 20
6.779415637761095
 30
0.0
 10
9.429513989830356
 20
6.779296282749218
 30
0.0
 10
9.4277404378301
 20
6.779305106680822
 30
0.0
 10
9.426572143816692
 20
6.779424624241238
 30
0.0
 10
9.426011538671382
 20
6.779481974667205
 30
0.0
  0
LINE
  5
399
330
1F
100
AcDbEntity
  8
0
  6
Continuous
 62
     7
370
    18
100
AcDbLine
 10
9.4260115387
 20
6.7794819747
 30
0.0
 11
9.4260115387
 21
6.7876850039
 31
0.0
  0
SPLINE
  5
39A
330
1F
100
AcDbEntity
  8
0
  6
Continuous
 62
     7
370
    18
100
AcDbSpline
210
0.0
220
0.0
230
1.0
 70
     8
 71
     3
 72
     9
 73
     5
 74
     0
 42
0.000000001
 43
0.00000001
 40
0.0
 40
0.0
 40
0.0
 40
0.0
 40
0.4652018929810215
 40
1.0
 40
1.0
 40
1.0
 40
1.0
 10
9.437448751618971
 20
6.790528644376858
 30
0.0
 10
9.438312886555545
 20
6.791010477242795
 30
0.0
 10
9.440170434750453
 20
6.792046227254149
 30
0.0
 10
9.441474518663423
 20
6.793899669387427
 30
0.0
 10
9.442171940271473
 20
6.794890886731773
 30
0.0
  0
LINE
  5
39B
330
1F
100
AcDbEntity
  8
0
  6
Continuous
 62
     7
370
    18
100
AcDbLine
 10
9.4260115387
 20
6.7794819747
 30
0.0
 11
9.4253044319
 21
6.7790737706
 31
0.0
  0
LINE
  5
39C
330
1F
100
AcDbEntity
  8
0
  6
Continuous
 62
     7
370
    18
100
AcDbLine
 10
9.4398817101
 20
6.7817078264
 30
0.0
 11
9.4391746034
 21
6.7812996224
 31
0.0
  0
LINE
  5
39D
330
1F
100
AcDbEntity
  8
0
  6
Continuous
 62
     7
370
    18
100
AcDbLine
 10
9.4398817101
 20
6.7276234475
 30
0.0
 11
9.4391746034
 21
6.7272152435
 31
0.0
  0
LINE
  5
39E
330
1F
100
AcDbEntity
  8
0
  6
Continuous
 62
     7
370
    18
100
AcDbLine
 10
9.4707043134
 20
6.7098299374
 30
0.0
 11
9.4707043134
 21
6.7179117305
 31
0.0
  0
LINE
  5
39F
330
1F
100
AcDbEntity
  8
0
  6
Continuous
 62
     7
370
    18
100
AcDbLine
 10
9.4777028575
 20
6.7057897639
 30
0.0
 11
9.4707043134
 21
6.7098299374
 31
0.0
  0
LINE
  5
3A0
330
1F
100
AcDbEntity
  8
0
  6
Continuous
 62
     7
370
    18
100
AcDbLine
 10
9.4707043134
 20
6.7098299374
 30
0.0
 11
9.4699972066
 21
6.7094217334
 31
0.0
  0
OLE2FRAME
  5
3A1
330
1F
100
AcDbEntity
  8
0
100
AcDbOle2Frame
 70
     2
  3
Paintbrush Picture
 10
9.0178120406
 20
1.3267570784
 30
0.0
 11
10.4397105087
 21
1.1242314806
 31
0.0
 71
     2
 72
     0
 73
     1
 90
     7296
310
8055C64EE7A81E092240C05F59A1653AF53F0000000000000000FD155DBC21E1
310
2440C05F59A1653AF53F0000000000000000FD155DBC21E12440A1732426DAFC
310
F13F0000000000000000C64EE7A81E092240A1732426DAFCF13F000000000000
310
00000000000001000000000100000100000001000000000001000000001C0000
310
D0CF11E0A1B11AE1000000000000000000000000000000003E000300FEFF0900
310
0600000000000000000000000100000001000000000000000010000002000000
310
01000000FEFFFFFF0000000000000000FFFFFFFFFFFFFFFFFFFFFFFFFFFFFFFF
310
FFFFFFFFFFFFFFFFFFFFFFFFFFFFFFFFFFFFFFFFFFFFFFFFFFFFFFFFFFFFFFFF
310
FFFFFFFFFFFFFFFFFFFFFFFFFFFFFFFFFFFFFFFFFFFFFFFFFFFFFFFFFFFFFFFF
310
FFFFFFFFFFFFFFFFFFFFFFFFFFFFFFFFFFFFFFFFFFFFFFFFFFFFFFFFFFFFFFFF
310
FFFFFFFFFFFFFFFFFFFFFFFFFFFFFFFFFFFFFFFFFFFFFFFFFFFFFFFFFFFFFFFF
310
FFFFFFFFFFFFFFFFFFFFFFFFFFFFFFFFFFFFFFFFFFFFFFFFFFFFFFFFFFFFFFFF
310
FFFFFFFFFFFFFFFFFFFFFFFFFFFFFFFFFFFFFFFFFFFFFFFFFFFFFFFFFFFFFFFF
310
FFFFFFFFFFFFFFFFFFFFFFFFFFFFFFFFFFFFFFFFFFFFFFFFFFFFFFFFFFFFFFFF
310
FFFFFFFFFFFFFFFFFFFFFFFFFFFFFFFFFFFFFFFFFFFFFFFFFFFFFFFFFFFFFFFF
310
FFFFFFFFFFFFFFFFFFFFFFFFFFFFFFFFFFFFFFFFFFFFFFFFFFFFFFFFFFFFFFFF
310
FFFFFFFFFFFFFFFFFFFFFFFFFFFFFFFFFFFFFFFFFFFFFFFFFFFFFFFFFFFFFFFF
310
FFFFFFFFFFFFFFFFFFFFFFFFFFFFFFFFFFFFFFFFFFFFFFFFFFFFFFFFFFFFFFFF
310
FFFFFFFFFFFFFFFFFFFFFFFFFFFFFFFFFFFFFFFFFFFFFFFFFFFFFFFFFFFFFFFF
310
FFFFFFFFFFFFFFFFFFFFFFFFFFFFFFFFFFFFFFFFFFFFFFFFFFFFFFFFFFFFFFFF
310
FDFFFFFFFEFFFFFFFEFFFFFFFEFFFFFF05000000060000000700000008000000
310
090000000A0000000B0000000C000000FEFFFFFFFFFFFFFFFFFFFFFFFFFFFFFF
310
FFFFFFFFFFFFFFFFFFFFFFFFFFFFFFFFFFFFFFFFFFFFFFFFFFFFFFFFFFFFFFFF
310
FFFFFFFFFFFFFFFFFFFFFFFFFFFFFFFFFFFFFFFFFFFFFFFFFFFFFFFFFFFFFFFF
310
FFFFFFFFFFFFFFFFFFFFFFFFFFFFFFFFFFFFFFFFFFFFFFFFFFFFFFFFFFFFFFFF
310
FFFFFFFFFFFFFFFFFFFFFFFFFFFFFFFFFFFFFFFFFFFFFFFFFFFFFFFFFFFFFFFF
310
FFFFFFFFFFFFFFFFFFFFFFFFFFFFFFFFFFFFFFFFFFFFFFFFFFFFFFFFFFFFFFFF
310
FFFFFFFFFFFFFFFFFFFFFFFFFFFFFFFFFFFFFFFFFFFFFFFFFFFFFFFFFFFFFFFF
310
FFFFFFFFFFFFFFFFFFFFFFFFFFFFFFFFFFFFFFFFFFFFFFFFFFFFFFFFFFFFFFFF
310
FFFFFFFFFFFFFFFFFFFFFFFFFFFFFFFFFFFFFFFFFFFFFFFFFFFFFFFFFFFFFFFF
310
FFFFFFFFFFFFFFFFFFFFFFFFFFFFFFFFFFFFFFFFFFFFFFFFFFFFFFFFFFFFFFFF
310
FFFFFFFFFFFFFFFFFFFFFFFFFFFFFFFFFFFFFFFFFFFFFFFFFFFFFFFFFFFFFFFF
310
FFFFFFFFFFFFFFFFFFFFFFFFFFFFFFFFFFFFFFFFFFFFFFFFFFFFFFFFFFFFFFFF
310
FFFFFFFFFFFFFFFFFFFFFFFFFFFFFFFFFFFFFFFFFFFFFFFFFFFFFFFFFFFFFFFF
310
FFFFFFFFFFFFFFFFFFFFFFFFFFFFFFFFFFFFFFFFFFFFFFFFFFFFFFFFFFFFFFFF
310
FFFFFFFFFFFFFFFFFFFFFFFFFFFFFFFFFFFFFFFFFFFFFFFFFFFFFFFFFFFFFFFF
310
52006F006F007400200045006E00740072007900000000000000000000000000
310
0000000000000000000000000000000000000000000000000000000000000000
310
16000500FFFFFFFFFFFFFFFF020000000A00030000000000C000000000000046
310
000000000000000000000000E06EA996CFB1D40103000000C000000000000000
310
01004F006C006500000000000000000000000000000000000000000000000000
310
0000000000000000000000000000000000000000000000000000000000000000
310
0A000200FFFFFFFFFFFFFFFFFFFFFFFF00000000000000000000000000000000
310
0000000000000000000000000000000000000000000000001400000000000000
310
010043006F006D0070004F0062006A0000000000000000000000000000000000
310
0000000000000000000000000000000000000000000000000000000000000000
310
120002010100000003000000FFFFFFFF00000000000000000000000000000000
310
0000000000000000000000000000000000000000010000004D00000000000000
310
01004F006C006500310030004E00610074006900760065000000000000000000
310
0000000000000000000000000000000000000000000000000000000000000000
310
1A000200FFFFFFFFFFFFFFFFFFFFFFFF00000000000000000000000000000000
310
000000000000000000000000000000000000000004000000E411000000000000
310
FEFFFFFF02000000FEFFFFFFFFFFFFFFFFFFFFFFFFFFFFFFFFFFFFFFFFFFFFFF
310
FFFFFFFFFFFFFFFFFFFFFFFFFFFFFFFFFFFFFFFFFFFFFFFFFFFFFFFFFFFFFFFF
310
FFFFFFFFFFFFFFFFFFFFFFFFFFFFFFFFFFFFFFFFFFFFFFFFFFFFFFFFFFFFFFFF
310
FFFFFFFFFFFFFFFFFFFFFFFFFFFFFFFFFFFFFFFFFFFFFFFFFFFFFFFFFFFFFFFF
310
FFFFFFFFFFFFFFFFFFFFFFFFFFFFFFFFFFFFFFFFFFFFFFFFFFFFFFFFFFFFFFFF
310
FFFFFFFFFFFFFFFFFFFFFFFFFFFFFFFFFFFFFFFFFFFFFFFFFFFFFFFFFFFFFFFF
310
FFFFFFFFFFFFFFFFFFFFFFFFFFFFFFFFFFFFFFFFFFFFFFFFFFFFFFFFFFFFFFFF
310
FFFFFFFFFFFFFFFFFFFFFFFFFFFFFFFFFFFFFFFFFFFFFFFFFFFFFFFFFFFFFFFF
310
FFFFFFFFFFFFFFFFFFFFFFFFFFFFFFFFFFFFFFFFFFFFFFFFFFFFFFFFFFFFFFFF
310
FFFFFFFFFFFFFFFFFFFFFFFFFFFFFFFFFFFFFFFFFFFFFFFFFFFFFFFFFFFFFFFF
310
FFFFFFFFFFFFFFFFFFFFFFFFFFFFFFFFFFFFFFFFFFFFFFFFFFFFFFFFFFFFFFFF
310
FFFFFFFFFFFFFFFFFFFFFFFFFFFFFFFFFFFFFFFFFFFFFFFFFFFFFFFFFFFFFFFF
310
FFFFFFFFFFFFFFFFFFFFFFFFFFFFFFFFFFFFFFFFFFFFFFFFFFFFFFFFFFFFFFFF
310
FFFFFFFFFFFFFFFFFFFFFFFFFFFFFFFFFFFFFFFFFFFFFFFFFFFFFFFFFFFFFFFF
310
FFFFFFFFFFFFFFFFFFFFFFFFFFFFFFFFFFFFFFFFFFFFFFFFFFFFFFFFFFFFFFFF
310
FFFFFFFFFFFFFFFFFFFFFFFFFFFFFFFFFFFFFFFFFFFFFFFFFFFFFFFFFFFFFFFF
310
0100000200000000000000000000000000000000000000000000000000000000
310
0000000000000000000000000000000000000000000000000000000000000000
310
0100FEFF030A0000FFFFFFFF0A00030000000000C00000000000004607000000
310
5042727573680007000000504272757368000700000050427275736800F439B2
310
7100000000000000000000000000000000000000000000000000000000000000
310
0000000000000000000000000000000000000000000000000000000000000000
310
0000000000000000000000000000000000000000000000000000000000000000
310
0000000000000000000000000000000000000000000000000000000000000000
310
0000000000000000000000000000000000000000000000000000000000000000
310
0000000000000000000000000000000000000000000000000000000000000000
310
0000000000000000000000000000000000000000000000000000000000000000
310
0000000000000000000000000000000000000000000000000000000000000000
310
0000000000000000000000000000000000000000000000000000000000000000
310
0000000000000000000000000000000000000000000000000000000000000000
310
0000000000000000000000000000000000000000000000000000000000000000
310
0000000000000000000000000000000000000000000000000000000000000000
310
E0110000424DDE11000000000000360400002800000096000000170000000100
310
08000000000000000000E7240000E72400000001000000010000000000FF0101
310
01FF020202FF030303FF040404FF050505FF060606FF070707FF080808FF0909
310
09FF0A0A0AFF0B0B0BFF0C0C0CFF0D0D0DFF0E0E0EFF0F0F0FFF101010FF1111
310
11FF121212FF131313FF141414FF151515FF161616FF171717FF181818FF1919
310
19FF1A1A1AFF1B1B1BFF1C1C1CFF1D1D1DFF1E1E1EFF1F1F1FFF202020FF2121
310
21FF222222FF232323FF242424FF252525FF262626FF272727FF282828FF2929
310
29FF2A2A2AFF2B2B2BFF2C2C2CFF2D2D2DFF2E2E2EFF2F2F2FFF303030FF3131
310
31FF323232FF333333FF343434FF353535FF363636FF373737FF383838FF3939
310
39FF3A3A3AFF3B3B3BFF3C3C3CFF3D3D3DFF3E3E3EFF3F3F3FFF404040FF4141
310
41FF424242FF434343FF444444FF454545FF464646FF474747FF484848FF4949
310
49FF4A4A4AFF4B4B4BFF4C4C4CFF4D4D4DFF4E4E4EFF4F4F4FFF505050FF5151
310
51FF525252FF535353FF545454FF555555FF565656FF575757FF585858FF5959
310
59FF5A5A5AFF5B5B5BFF5C5C5CFF5D5D5DFF5E5E5EFF5F5F5FFF606060FF6161
310
61FF626262FF636363FF646464FF656565FF666666FF676767FF686868FF6969
310
69FF6A6A6AFF6B6B6BFF6C6C6CFF6D6D6DFF6E6E6EFF6F6F6FFF707070FF7171
310
71FF727272FF737373FF747474FF757575FF767676FF777777FF787878FF7979
310
79FF7A7A7AFF7B7B7BFF7C7C7CFF7D7D7DFF7E7E7EFF7F7F7FFF808080FF8181
310
81FF828282FF838383FF848484FF858585FF868686FF878787FF888888FF8989
310
89FF8A8A8AFF8B8B8BFF8C8C8CFF8D8D8DFF8E8E8EFF8F8F8FFF909090FF9191
310
91FF929292FF939393FF949494FF959595FF969696FF979797FF989898FF9999
310
99FF9A9A9AFF9B9B9BFF9C9C9CFF9D9D9DFF9E9E9EFF9F9F9FFFA0A0A0FFA1A1
310
A1FFA2A2A2FFA3A3A3FFA4A4A4FFA5A5A5FFA6A6A6FFA7A7A7FFA8A8A8FFA9A9
310
A9FFAAAAAAFFABABABFFACACACFFADADADFFAEAEAEFFAFAFAFFFB0B0B0FFB1B1
310
B1FFB2B2B2FFB3B3B3FFB4B4B4FFB5B5B5FFB6B6B6FFB7B7B7FFB8B8B8FFB9B9
310
B9FFBABABAFFBBBBBBFFBCBCBCFFBDBDBDFFBEBEBEFFBFBFBFFFC0C0C0FFC1C1
310
C1FFC2C2C2FFC3C3C3FFC4C4C4FFC5C5C5FFC6C6C6FFC7C7C7FFC8C8C8FFC9C9
310
C9FFCACACAFFCBCBCBFFCCCCCCFFCDCDCDFFCECECEFFCFCFCFFFD0D0D0FFD1D1
310
D1FFD2D2D2FFD3D3D3FFD4D4D4FFD5D5D5FFD6D6D6FFD7D7D7FFD8D8D8FFD9D9
310
D9FFDADADAFFDBDBDBFFDCDCDCFFDDDDDDFFDEDEDEFFDFDFDFFFE0E0E0FFE1E1
310
E1FFE2E2E2FFE3E3E3FFE4E4E4FFE5E5E5FFE6E6E6FFE7E7E7FFE8E8E8FFE9E9
310
E9FFEAEAEAFFEBEBEBFFECECECFFEDEDEDFFEEEEEEFFEFEFEFFFF0F0F0FFF1F1
310
F1FFF2F2F2FFF3F3F3FFF4F4F4FFF5F5F5FFF6F6F6FFF7F7F7FFF8F8F8FFF9F9
310
F9FFFAFAFAFFFBFBFBFFFCFCFCFFFDFDFDFFFEFEFEFFFFFFFFFFFFFFFFFFFFFF
310
C94E4E4E4F4E4EFFFFFFFFFFC94E4E4E4E4E72FFFFFFFFFFFFFF734E4D4E4E4E
310
C9FFFFFFFFFFAA683516171616265B9BE9FFFFFFFFFF4E4E4E4D4E4EFFFFFFFF
310
FFFFFFFF4E4E4F4E4D4E4E4E4F4E4E4F4D4E4E4E4E4E4D4E4F4E4D4E4E4EAAFF
310
FFFFFFFFFFEA4E4F4F4E4E4E4E4E4D4D4F4F4E4E4E4E4E5B7FAAFFFFFFFFFFFF
310
C9744E1716171616164D8DEAFFFFFFFF0000FFFFFFFFFFFFBA161617161716FF
310
FFFFFFFFB917171616174FFFFFFFFFFFFFFF4E1716161616B9FFFFFFB9341717
310
1716171617171616268CFFFFFFFF161617161617FFFFFFFFFFFFFFB917161717
310
1617167F807F7F7F7F7F7F807F7F807F7F807F7F7F414EFFFFFFFFFFFF8C167F
310
7F807F7F7F7E7F7F807F807F7F807F4E3417258EFFFFEA4E162674AABAEAEBBA
310
AA74341680FFFFFF0000FFFFFFFFFFFFB9171717171617FFFFFFFFFFBB161616
310
16164EFFFFFFFFFFFFFF4E1717171717B9FFFF9C171617171716161616171616
310
171766FFFFFF161717161617FFFFFFFFFFFFFF8E16171717161616FFFFFFFFFF
310
FFFFFFFFFFFFFFFFFFFFFFFFFFAA16D9FFFFFFFFFF3467FFFFFFFFEAFFFFFFFF
310
FFFFFFFFFFFFFFFFFFCA671667EB26278DFFFFFFFFFFFFFFFFFFFF8C2541EAFF
310
0000FFFFFFFFFFFFB9171717171716FFFFFFFFFFBA16171617174EFFFFFFFFFF
310
FFFF4E1717161616BAFF9B1617161616171716171617161616161667FFFF1616
310
16161716FFFFFFFFFFFFFF7F16161617174017FFFFFFFFFFFFFFFFFFFFFFFFFF
310
FFFFFFFFFFFF344E7F7F7F7E7417DAFFFFFFFF80FFFFFFFFFFFFFFFFFFFFFFFF
310
FFFFFF9B163425CAFFFFFFFFFFFFFFFFFFFFFFFFCA2667FF0000FFFFFFFFFFFF
310
BA171717171617FFFFFFFFFFB916171716164EFFFFFFFFFFFFFF4F1716161717
310
B9C91716171616161716161617171616161617168DFF161716161717FFFFFFFF
310
FFFFFF7F17171716164F16FFFFFFFFFFFFFFFFFFFFFFFFFFFFFFFFFFFFFF9B16
310
17161617174EFFFFFFFFFF34FFFFFFFFD9BABABABABADAFFFFFFFFFF7F16AAFF
310
FFFFFFFFFFFFFFFFFFFFFFFFFF9C16BA0000FFFFFFFFFFFFB9161717161717FF
310
FFFFFFFFB917161716174DFFFFFFFFFFFFFF4E1616161616BA4E161617171716
310
419BEAEAAA4E16161617161726E9171717161616FFFFFFFFFFFFFF4F16161717
310
164E16FFFFFFFFFFBAB9B9B9B9B9BABABACAFFFFFFFFFFFFFFFFFFFFFFFFFFFF
310
FFFFBA16FFFFFFFF7F1617161617174DEAFFFFFFEA41FFFFFFFFFFAA4D16174E
310
9BFFFFFFFFFF34730000FFFFFFFFFFFFB9161617171617FFFFFFFFFFBA161616
310
16164EFFFFFFFFFFFFFF4F16161717169B1617161716175BFFFFFFFFFFFF7417
310
16171616168D171717161617FFFFFFFFFFFFEA2616171717167416FFFFFFFFFF
310
16171616171717171717EAFFFFFFFFFFFFFFFFFFFFFFFFFFFFFF6716FFFFFFFF
310
7F4EFFFFFFFFBA2573FFFFFFFFBAFFFFFFFFAA167FB9BB9B269BFFFFFFFF664F
310
0000FFFFFFFFFFFFB9171616161616FFFFFFFFFFBA16161717164EFFFFFFFFFF
310
FFFF4E16161616174E161617171626EAFFFFFFFFFFFFFF4E16161616164E1716
310
16161617FFFFFFFFFFFF671616161716347F16FFFFFFFFFF16B9FFFFFFFFFFFF
310
D9168DFFFFFFFFFFFFFFFFFFFFFFFFFFFFEA1716FFFFFFFF7F4EFFFFFFFFFF7F
310
4EFFFFFFFFFFFFFFFFFF5B66FFFFFFEA347FFFFFFFFF7F4D0000FFFFFFFFFFFF
310
B9171616171617FFFFFFFFFFBA17161716174EFFFFFFFFFFFFFF4D1716161617
310
17161716161673FFFFFFFFFFFFFFFF9B1617161717161616171616174F4E4E4E
310
4E341616171616167E7F16FFFFFFFFFF16BAFFFFFFFFFFFFFF5B41FFFFFFFF34
310
1616171616BAFFFFFF9B1716FFFFFFFF7F4EFFFFFFFFFF4E4EFFFFFFFF734E4E
310
4E4E267EDA9B67164EEAFFFFFFFF744D0000FFFFFFFFFFFFBA171717161617FF
310
FFFFFFFFBA1616171616347F7F7F7F80807F331616161717161717161716B9FF
310
FFFFFFFFFFFFFFE9161616161616171716161716171616161616171616171734
310
EA7F16FFFFFFFFFF16BAFFFFFFFFFFFFFFAA17C9FFFFFF7326BABA5B25FFFFFF
310
FF401716FFFFFFFF7F264F4E4E4E4217AAFFFFFFEA16677F73261616164173CA
310
FFFFFFFFFFFF417F0000FFFFFFFFFFFFBA171616171617FFFFFFFFFFBA161616
310
17171616161616161616161717161616161616161617EAFFFFFFFFFFFFFFFFFF
310
261717161716161617161616161617161617161616174EEAFF8016FFFFFFFFFF
310
17BAFFFFFFFFFFFFFFFF3467FFFFFFC916C9FF3467FFFFFFDA166716FFFFFFFF
310
9C4D4E4E4E4E67AAFFFFFFFF6834FF7F262567AAEAFFFFFFFFFFFFFFFF9B17D9
310
0000FFFFFFFFFFFFB9161616161616FFFFFFFFFFBA1617161717171616161616
310
1716171716161716161617171716FFFFFFFFFFFFFFFFFFFF4E17161716171616
310
1617171616161716171717161616169BFF7F17FFFFFFFFFF17B9FFFFFFFFFFFF
310
FFFF7326FFFFFFFF3473DA16AAFFFFFF7317AA16FFFFFFFFFFFFFFFFFFFFFFFF
310
FFFFEA6725BA4E167FEAFFFFFFFFFFFFFFFFFFFF9C167FFF0000FFFFFFFFFFFF
310
B9161717171716FFFFFFFFFFBA16161716171616171717161617161716161616
310
171617171617EAFFFFFFFFFFFFFFFFFF26161717161616161616161617171616
310
1616161616171616AA8016FFFFFFFFFF16BAFFFFFFFFFFFFFFFFDA179BFFFFFF
310
74348D26FFFFFFFF2566B917FFFFFFFFD8BAB9BAB9BADAFFFFEA41169B7425C9
310
FFFFFFFFFFFFFFFFFFFFAB4F1680FFFF0000FFFFFFFFFFFFBA161717171617FF
310
FFFFFFFFBA17161717161617171617161616161617171616171716171617BBFF
310
FFFFFFFFFFFFFFE9171616161617161617161716FFFFFFFFFFD9671616161617
310
348017FFFFFFFFFF16BAFFFFFFFFFFFFFFFFFF4E5AFFFFFFC916265AFFFFFFAA
310
16AABA16FFFFFFFF7F1617161616179BFFFFEB4127168DFFFFFFFFFFFFFFD99B
310
6734175AC9FFFFFF0000FFFFFFFFFFFFB9161617171617FFFFFFFFFFBB161616
310
1616347F807F7F7F7F8033171716171617171616161672FFFFFFFFFFFFFFFF9C
310
171617171617161716161617FFFFFFFFFFFFFF4117161616174E17FFFFFFFFFF
310
16BAFFFFFFFFFFFFFFFFFF9B16DAFFFFFF34169BFFFFFF5A26FFB917FFFFFFFF
310
7F4EFFFFFFEA5B26FFFFFFEA2616EAFFFFFFFFDA743416331617414E4E4E4ECA
310
0000FFFFFFFFFFFFBA161716161616FFFFFFFFFFBA17171616164EFFFFFFFFFF
310
FFFF4E16161717174E161717171626EBFFFFFFFFFFFFFF4E16161617165B1616
310
16171617FFFFFFFFFFFFFF6716161616161617FFFFFFFFFF16BAFFFFFFFFFFFF
310
FFFFFFEA268CFFFFFF7316EAFFFFEB1774FFB916FFFFFFFF7F4EFFFFFFFF7316
310
FFFFFFFF6826FFFFFFFFEB264D9CEABA257F807F7F6616BA0000FFFFFFFFFFFF
310
BA161716161616FFFFFFFFFFBA16171616164DFFFFFFFFFFFFFF4E1617161617
310
9B1617171717165BEBFFFFFFFFFF671616161617179B171616161616FFFFFFFF
310
FFFFFF3417161617171617FFFFFFFFFF17BAFFFFFFFFFFFFFFFFFFFF6734FFFF
310
FFEBCAFFFFFF8D17C9FFBA17FFFFFFFF7F357F808066174FFFFFFFFF7F16FFFF
310
FFFFD91673B99B415BFFFFFFFFBA16DA00009B7F7F7F807F671617161616167F
310
80807F7E6617161616164EFFFFFFFFFFFFFF4E1616161617B94E171716161616
310
349BC9D9AA4E16171616161634FF161617161717B9B9BAB9BA9B411716171716
310
163416FFFFFFFFFF16B9FFFFFFFFFFFFFFFFFFFFC917CAFFFFFFFFFFFFFF3342
310
FFFFBA17FFFFFFFF9B4E4E4F4E4E66EAFFFFFFFF5B16C9FFFFFFFFAA4E164E73
310
EAFFFFFFFF8D26FF00004E161716161616171617171616171717171617161616
310
17174EFFFFFFFFFFFFFF4E1717171616B9D92616171716171716171717171716
310
16171716AAFF161717171617161617171616161617161716166717FFFFFFFFFF
310
17B9FFFFFFFFFFFFFFFFFFFFFF3467FFFFFFFFFFFFCA168CFFFFBB17FFFFFFFF
310
FFFFFFFFFFFFFFFFFFFFFFEA26265BFFFFFFFFFFFFFFFFFFFFFFFFFFEA3467FF
310
00004D16161616161617161717161617161616171617171616164EFFFFFFFFFF
310
FFFF4D1617161616BAFF9B1616161616161716161616171717161766FFFF1616
310
16171617161617161716171616171717667F16FFFFFFFFFF17BAFFFFFFFFFFFF
310
FFFFFFFFFF8C26EAFFFFFFFFFF6617EAFFFFBA17FFFFFFFFFFFFFFFFFFFFFFFF
310
FFFFEA5A25BA269BFFFFFFFFFFFFFFFFFFFFFFFF6616DAFF00004E1616171616
310
1616161616161716161617171616171616174EFFFFFFFFFFFFFF4D1717171716
310
B9FFFF9C161616161616161716161717171667FFFFFF17161717171716161617
310
1716161616161641E97E16FFFFFFFFFF16B9FFFFFFFFFFFFFFFFFFFFFFEA169B
310
FFFFFFFFEA265BFFFFFFB916FFFFFFFFFFFFFFFFFFFFFFFFFF9B3416AAFF9B17
310
67EAFFFFFFFFFFFFFFFFEA5B169BFFFF00004D17161716161616161717171616
310
161717161716171716174EFFFFFFFFFFFFFF4D1616161616BAFFFFFFBB411616
310
161716161616171634ABFFFFFFFF161716161617171716171617171617267FFF
310
FF7F164E4E4E4E4F17BAFFFFFFFFFFFFFFFFFFFFFFFF66344D4E4E4F4117AAFF
310
FFFFBA174E4E4E4D4E4D4D4E4E4E4E4116174EBBFFFFFFCA342666ABEAFFFFEA
310
AA6725269CFFFFFF0000724F4E4D4D4D4E4D4D4E4E4E4D4E4E4E4E4E4E4E4E4D
310
4E4E74FFFFFFFFFFFFFF734E4E4E4D4ECAFFFFFFFFFFAA663416171717265B9B
310
FFFFFFFFFFFF7F8080807F80807F7F7F7F7F807FBAFFFFFFFF9B4E4E4F4D4D4E
310
4DC9FFFFFFFFFFFFFFFFFFFFFFFFBA4E4E4E4E4D4E4EFFFFFFFFC94E4E4E4F4E
310
4E4E4D4E4E5A807F9CD9FFFFFFFFFFFFFF9B5B2617171716174E8DEAFFFFFFFF
310
0000000000000000000000000000000000000000000000000000000000000000
  1
OLE
  0
ENDSEC
  0
SECTION
  2
OBJECTS
  0
DICTIONARY
  5
C
330
0
100
AcDbDictionary
281
     1
  3
ACAD_GROUP
350
D
  3
ACAD_LAYOUT
350
1A
  3
ACAD_MLINESTYLE
350
17
  3
ACAD_PLOTSETTINGS
350
19
  3
ACAD_PLOTSTYLENAME
350
E
  3
ACAD_SCALELIST
350
47
  0
DICTIONARY
  5
D
102
{ACAD_REACTORS
330
C
102
}
330
C
100
AcDbDictionary
281
     1
  0
DICTIONARY
  5
1A
102
{ACAD_REACTORS
330
C
102
}
330
C
100
AcDbDictionary
281
     1
  3
Layout1
350
1E
  3
Layout2
350
26
  3
Model
350
22
  0
DICTIONARY
  5
17
102
{ACAD_REACTORS
330
C
102
}
330
C
100
AcDbDictionary
281
     1
  3
Standard
350
18
  0
DICTIONARY
  5
19
102
{ACAD_REACTORS
330
C
102
}
330
C
100
AcDbDictionary
281
     1
  0
ACDBDICTIONARYWDFLT
  5
E
102
{ACAD_REACTORS
330
C
102
}
330
C
100
AcDbDictionary
281
     1
  3
Normal
350
F
100
AcDbDictionaryWithDefault
340
F
  0
DICTIONARY
  5
47
102
{ACAD_REACTORS
330
C
102
}
330
C
100
AcDbDictionary
281
     1
  3
A0
350
48
  3
A1
350
49
  3
A2
350
4A
  3
A3
350
4B
  3
A4
350
4C
  3
A5
350
4D
  3
A6
350
4E
  3
A7
350
4F
  3
A8
350
50
  3
A9
350
51
  3
B0
350
52
  3
B1
350
53
  3
B2
350
54
  3
B3
350
55
  3
B4
350
56
  3
B5
350
57
  3
B6
350
58
  3
B7
350
59
  3
B8
350
5A
  3
B9
350
5B
  3
C0
350
5C
  3
C1
350
5D
  3
C2
350
5E
  3
C3
350
5F
  3
C4
350
60
  3
C5
350
61
  3
C6
350
62
  3
C7
350
63
  3
C8
350
64
  3
C9
350
65
  3
D0
350
66
  3
D1
350
67
  3
D2
350
68
  0
LAYOUT
  5
1E
102
{ACAD_REACTORS
330
1A
102
}
330
1A
100
AcDbPlotSettings
  1

  2
none_device
  4

  6

 40
0.0
 41
0.0
 42
0.0
 43
0.0
 44
0.0
 45
0.0
 46
0.0
 47
0.0
 48
0.0
 49
0.0
140
0.0
141
0.0
142
1.0
143
1.0
 70
   688
 72
     0
 73
     0
 74
     5
  7

 75
    16
147
1.0
148
0.0
149
0.0
100
AcDbLayout
  1
Layout1
 70
     1
 71
     1
 10
0.0
 20
0.0
 11
12.0
 21
9.0
 12
0.0
 22
0.0
 32
0.0
 14
1.0000000000E+20
 24
1.0000000000E+20
 34
1.0000000000E+20
 15
-1.0000000000E+20
 25
-1.0000000000E+20
 35
-1.0000000000E+20
146
0.0
 13
0.0
 23
0.0
 33
0.0
 16
1.0
 26
0.0
 36
0.0
 17
0.0
 27
1.0
 37
0.0
 76
     0
330
1B
  0
LAYOUT
  5
26
102
{ACAD_REACTORS
330
1A
102
}
330
1A
100
AcDbPlotSettings
  1

  2
none_device
  4

  6

 40
0.0
 41
0.0
 42
0.0
 43
0.0
 44
0.0
 45
0.0
 46
0.0
 47
0.0
 48
0.0
 49
0.0
140
0.0
141
0.0
142
1.0
143
1.0
 70
   688
 72
     0
 73
     0
 74
     5
  7

 75
    16
147
1.0
148
0.0
149
0.0
100
AcDbLayout
  1
Layout2
 70
     1
 71
     2
 10
0.0
 20
0.0
 11
0.0
 21
0.0
 12
0.0
 22
0.0
 32
0.0
 14
0.0
 24
0.0
 34
0.0
 15
0.0
 25
0.0
 35
0.0
146
0.0
 13
0.0
 23
0.0
 33
0.0
 16
1.0
 26
0.0
 36
0.0
 17
0.0
 27
1.0
 37
0.0
 76
     0
330
23
  0
LAYOUT
  5
22
102
{ACAD_REACTORS
330
1A
102
}
330
1A
100
AcDbPlotSettings
  1

  2
none_device
  4
Letter_(8.50_x_11.00_Inches)
  6

 40
6.35
 41
6.35
 42
6.35000508
 43
6.35000508
 44
215.9
 45
279.4
 46
0.0
 47
0.0
 48
0.0
 49
0.0
140
0.0
141
0.0
142
1.0
143
1.0
 70
  1712
 72
     0
 73
     0
 74
     0
  7

 75
     0
147
1.0
148
0.0
149
0.0
100
AcDbLayout
  1
Model
 70
     1
 71
     0
 10
0.0
 20
0.0
 11
11.0
 21
8.5
 12
0.0
 22
0.0
 32
0.0
 14
0.0
 24
0.0
 34
0.0
 15
11.0
 25
8.5
 35
0.0
146
0.0
 13
0.0
 23
0.0
 33
0.0
 16
1.0
 26
0.0
 36
0.0
 17
0.0
 27
1.0
 37
0.0
 76
     0
330
1F
331
29
  0
MLINESTYLE
  5
18
102
{ACAD_REACTORS
330
17
102
}
330
17
100
AcDbMlineStyle
  2
Standard
 70
     0
  3

 62
   256
 51
90.0
 52
90.0
 71
     2
 49
0.5
 62
   256
  6
BYLAYER
 49
-0.5
 62
   256
  6
BYLAYER
  0
ACDBPLACEHOLDER
  5
F
102
{ACAD_REACTORS
330
E
102
}
330
E
  0
SCALE
  5
48
102
{ACAD_REACTORS
330
47
102
}
330
47
100
AcDbScale
 70
     0
300
1:1
140
1.0
141
1.0
290
     1
  0
SCALE
  5
49
102
{ACAD_REACTORS
330
47
102
}
330
47
100
AcDbScale
 70
     0
300
1:2
140
1.0
141
2.0
290
     0
  0
SCALE
  5
4A
102
{ACAD_REACTORS
330
47
102
}
330
47
100
AcDbScale
 70
     0
300
1:4
140
1.0
141
4.0
290
     0
  0
SCALE
  5
4B
102
{ACAD_REACTORS
330
47
102
}
330
47
100
AcDbScale
 70
     0
300
1:5
140
1.0
141
5.0
290
     0
  0
SCALE
  5
4C
102
{ACAD_REACTORS
330
47
102
}
330
47
100
AcDbScale
 70
     0
300
1:8
140
1.0
141
8.0
290
     0
  0
SCALE
  5
4D
102
{ACAD_REACTORS
330
47
102
}
330
47
100
AcDbScale
 70
     0
300
1:10
140
1.0
141
10.0
290
     0
  0
SCALE
  5
4E
102
{ACAD_REACTORS
330
47
102
}
330
47
100
AcDbScale
 70
     0
300
1:16
140
1.0
141
16.0
290
     0
  0
SCALE
  5
4F
102
{ACAD_REACTORS
330
47
102
}
330
47
100
AcDbScale
 70
     0
300
1:20
140
1.0
141
20.0
290
     0
  0
SCALE
  5
50
102
{ACAD_REACTORS
330
47
102
}
330
47
100
AcDbScale
 70
     0
300
1:30
140
1.0
141
30.0
290
     0
  0
SCALE
  5
51
102
{ACAD_REACTORS
330
47
102
}
330
47
100
AcDbScale
 70
     0
300
1:40
140
1.0
141
40.0
290
     0
  0
SCALE
  5
52
102
{ACAD_REACTORS
330
47
102
}
330
47
100
AcDbScale
 70
     0
300
1:50
140
1.0
141
50.0
290
     0
  0
SCALE
  5
53
102
{ACAD_REACTORS
330
47
102
}
330
47
100
AcDbScale
 70
     0
300
1:100
140
1.0
141
100.0
290
     0
  0
SCALE
  5
54
102
{ACAD_REACTORS
330
47
102
}
330
47
100
AcDbScale
 70
     0
300
2:1
140
2.0
141
1.0
290
     0
  0
SCALE
  5
55
102
{ACAD_REACTORS
330
47
102
}
330
47
100
AcDbScale
 70
     0
300
4:1
140
4.0
141
1.0
290
     0
  0
SCALE
  5
56
102
{ACAD_REACTORS
330
47
102
}
330
47
100
AcDbScale
 70
     0
300
8:1
140
8.0
141
1.0
290
     0
  0
SCALE
  5
57
102
{ACAD_REACTORS
330
47
102
}
330
47
100
AcDbScale
 70
     0
300
10:1
140
10.0
141
1.0
290
     0
  0
SCALE
  5
58
102
{ACAD_REACTORS
330
47
102
}
330
47
100
AcDbScale
 70
     0
300
100:1
140
100.0
141
1.0
290
     0
  0
SCALE
  5
59
102
{ACAD_REACTORS
330
47
102
}
330
47
100
AcDbScale
 70
     0
300
1/128" = 1'-0"
140
0.0078125
141
12.0
290
     0
  0
SCALE
  5
5A
102
{ACAD_REACTORS
330
47
102
}
330
47
100
AcDbScale
 70
     0
300
1/64" = 1'-0"
140
0.015625
141
12.0
290
     0
  0
SCALE
  5
5B
102
{ACAD_REACTORS
330
47
102
}
330
47
100
AcDbScale
 70
     0
300
1/32" = 1'-0"
140
0.03125
141
12.0
290
     0
  0
SCALE
  5
5C
102
{ACAD_REACTORS
330
47
102
}
330
47
100
AcDbScale
 70
     0
300
1/16" = 1'-0"
140
0.0625
141
12.0
290
     0
  0
SCALE
  5
5D
102
{ACAD_REACTORS
330
47
102
}
330
47
100
AcDbScale
 70
     0
300
3/32" = 1'-0"
140
0.09375
141
12.0
290
     0
  0
SCALE
  5
5E
102
{ACAD_REACTORS
330
47
102
}
330
47
100
AcDbScale
 70
     0
300
1/8" = 1'-0"
140
0.125
141
12.0
290
     0
  0
SCALE
  5
5F
102
{ACAD_REACTORS
330
47
102
}
330
47
100
AcDbScale
 70
     0
300
3/16" = 1'-0"
140
0.1875
141
12.0
290
     0
  0
SCALE
  5
60
102
{ACAD_REACTORS
330
47
102
}
330
47
100
AcDbScale
 70
     0
300
1/4" = 1'-0"
140
0.25
141
12.0
290
     0
  0
SCALE
  5
61
102
{ACAD_REACTORS
330
47
102
}
330
47
100
AcDbScale
 70
     0
300
3/8" = 1'-0"
140
0.375
141
12.0
290
     0
  0
SCALE
  5
62
102
{ACAD_REACTORS
330
47
102
}
330
47
100
AcDbScale
 70
     0
300
1/2" = 1'-0"
140
0.5
141
12.0
290
     0
  0
SCALE
  5
63
102
{ACAD_REACTORS
330
47
102
}
330
47
100
AcDbScale
 70
     0
300
3/4" = 1'-0"
140
0.75
141
12.0
290
     0
  0
SCALE
  5
64
102
{ACAD_REACTORS
330
47
102
}
330
47
100
AcDbScale
 70
     0
300
1" = 1'-0"
140
1.0
141
12.0
290
     0
  0
SCALE
  5
65
102
{ACAD_REACTORS
330
47
102
}
330
47
100
AcDbScale
 70
     0
300
1-1/2" = 1'-0"
140
1.5
141
12.0
290
     0
  0
SCALE
  5
66
102
{ACAD_REACTORS
330
47
102
}
330
47
100
AcDbScale
 70
     0
300
3" = 1'-0"
140
3.0
141
12.0
290
     0
  0
SCALE
  5
67
102
{ACAD_REACTORS
330
47
102
}
330
47
100
AcDbScale
 70
     0
300
6" = 1'-0"
140
6.0
141
12.0
290
     0
  0
SCALE
  5
68
102
{ACAD_REACTORS
330
47
102
}
330
47
100
AcDbScale
 70
     0
300
1'-0" = 1'-0"
140
12.0
141
12.0
290
     0
  0
ENDSEC
  0
EOF
